  0
SECTION
  2
HEADER
  9
$ACADVER
  1
AC1027
  9
$ACADMAINTVER
 70
   125
  9
$DWGCODEPAGE
  3
ANSI_1252
  9
$LASTSAVEDBY
  1
fleminab
  9
$REQUIREDVERSIONS
160
                 0
  9
$INSBASE
 10
0.0
 20
0.0
 30
0.0
  9
$EXTMIN
 10
144.70163896956
 20
-227.6795751826462
 30
-0.0000122060999416
  9
$EXTMAX
 10
981.92750838648
 20
625.075662376091
 30
0.4000122079625869
  9
$LIMMIN
 10
0.0
 20
0.0
  9
$LIMMAX
 10
12.0
 20
9.0
  9
$ORTHOMODE
 70
     1
  9
$REGENMODE
 70
     1
  9
$FILLMODE
 70
     1
  9
$QTEXTMODE
 70
     0
  9
$MIRRTEXT
 70
     0
  9
$LTSCALE
 40
15.0
  9
$ATTMODE
 70
     1
  9
$TEXTSIZE
 40
5.0
  9
$TRACEWID
 40
0.05
  9
$TEXTSTYLE
  7
STANDARD
  9
$CLAYER
  8
SINK
  9
$CELTYPE
  6
BYLAYER
  9
$CECOLOR
 62
   256
  9
$CELTSCALE
 40
1.0
  9
$DISPSILH
 70
     0
  9
$DIMSCALE
 40
1.0
  9
$DIMASZ
 40
5.0
  9
$DIMEXO
 40
0.0625
  9
$DIMDLI
 40
0.38
  9
$DIMRND
 40
0.0
  9
$DIMDLE
 40
0.0
  9
$DIMEXE
 40
0.18
  9
$DIMTP
 40
0.0
  9
$DIMTM
 40
0.0
  9
$DIMTXT
 40
5.0
  9
$DIMCEN
 40
0.09
  9
$DIMTSZ
 40
0.0
  9
$DIMTOL
 70
     0
  9
$DIMLIM
 70
     0
  9
$DIMTIH
 70
     1
  9
$DIMTOH
 70
     1
  9
$DIMSE1
 70
     0
  9
$DIMSE2
 70
     0
  9
$DIMTAD
 70
     0
  9
$DIMZIN
 70
     0
  9
$DIMBLK
  1

  9
$DIMASO
 70
     1
  9
$DIMSHO
 70
     1
  9
$DIMPOST
  1

  9
$DIMAPOST
  1

  9
$DIMALT
 70
     0
  9
$DIMALTD
 70
     2
  9
$DIMALTF
 40
25.4
  9
$DIMLFAC
 40
1.0
  9
$DIMTOFL
 70
     0
  9
$DIMTVP
 40
0.0
  9
$DIMTIX
 70
     0
  9
$DIMSOXD
 70
     0
  9
$DIMSAH
 70
     0
  9
$DIMBLK1
  1

  9
$DIMBLK2
  1

  9
$DIMSTYLE
  2
STANDARD
  9
$DIMCLRD
 70
     0
  9
$DIMCLRE
 70
     0
  9
$DIMCLRT
 70
     1
  9
$DIMTFAC
 40
1.0
  9
$DIMGAP
 40
0.09
  9
$DIMJUST
 70
     0
  9
$DIMSD1
 70
     0
  9
$DIMSD2
 70
     0
  9
$DIMTOLJ
 70
     1
  9
$DIMTZIN
 70
     0
  9
$DIMALTZ
 70
     0
  9
$DIMALTTZ
 70
     0
  9
$DIMUPT
 70
     0
  9
$DIMDEC
 70
     2
  9
$DIMTDEC
 70
     2
  9
$DIMALTU
 70
     2
  9
$DIMALTTD
 70
     2
  9
$DIMTXSTY
  7
STANDARD
  9
$DIMAUNIT
 70
     0
  9
$DIMADEC
 70
     0
  9
$DIMALTRND
 40
0.0
  9
$DIMAZIN
 70
     0
  9
$DIMDSEP
 70
    46
  9
$DIMATFIT
 70
     3
  9
$DIMFRAC
 70
     0
  9
$DIMLDRBLK
  1

  9
$DIMLUNIT
 70
     2
  9
$DIMLWD
 70
    -2
  9
$DIMLWE
 70
    -2
  9
$DIMTMOVE
 70
     0
  9
$DIMFXL
 40
1.0
  9
$DIMFXLON
 70
     0
  9
$DIMJOGANG
 40
0.7853981633974483
  9
$DIMTFILL
 70
     0
  9
$DIMTFILLCLR
 70
     0
  9
$DIMARCSYM
 70
     0
  9
$DIMLTYPE
  6

  9
$DIMLTEX1
  6

  9
$DIMLTEX2
  6

  9
$DIMTXTDIRECTION
 70
     0
  9
$LUNITS
 70
     2
  9
$LUPREC
 70
     4
  9
$SKETCHINC
 40
0.1
  9
$FILLETRAD
 40
25.0
  9
$AUNITS
 70
     0
  9
$AUPREC
 70
     0
  9
$MENU
  1
acad
  9
$ELEVATION
 40
0.0
  9
$PELEVATION
 40
0.0
  9
$THICKNESS
 40
0.4
  9
$LIMCHECK
 70
     0
  9
$CHAMFERA
 40
0.5
  9
$CHAMFERB
 40
0.5
  9
$CHAMFERC
 40
1.0
  9
$CHAMFERD
 40
0.0
  9
$SKPOLY
 70
     0
  9
$TDCREATE
 40
2451093.796273148
  9
$TDUCREATE
 40
2451093.337950000
  9
$TDUPDATE
 40
2458096.474097222
  9
$TDUUPDATE
 40
2458096.015763889
  9
$TDINDWG
 40
6.5898817824
  9
$TDUSRTIMER
 40
6.5898817824
  9
$USRTIMER
 70
     1
  9
$ANGBASE
 50
0.0
  9
$ANGDIR
 70
     0
  9
$PDMODE
 70
     3
  9
$PDSIZE
 40
0.0
  9
$PLINEWID
 40
0.0
  9
$SPLFRAME
 70
     0
  9
$SPLINETYPE
 70
     6
  9
$SPLINESEGS
 70
     8
  9
$HANDSEED
  5
10101A4
  9
$SURFTAB1
 70
     6
  9
$SURFTAB2
 70
     6
  9
$SURFTYPE
 70
     6
  9
$SURFU
 70
     6
  9
$SURFV
 70
     6
  9
$UCSBASE
  2

  9
$UCSNAME
  2

  9
$UCSORG
 10
0.0
 20
0.0
 30
0.0
  9
$UCSXDIR
 10
1.0
 20
0.0
 30
0.0
  9
$UCSYDIR
 10
0.0
 20
1.0
 30
0.0
  9
$UCSORTHOREF
  2

  9
$UCSORTHOVIEW
 70
     0
  9
$UCSORGTOP
 10
0.0
 20
0.0
 30
0.0
  9
$UCSORGBOTTOM
 10
0.0
 20
0.0
 30
0.0
  9
$UCSORGLEFT
 10
0.0
 20
0.0
 30
0.0
  9
$UCSORGRIGHT
 10
0.0
 20
0.0
 30
0.0
  9
$UCSORGFRONT
 10
0.0
 20
0.0
 30
0.0
  9
$UCSORGBACK
 10
0.0
 20
0.0
 30
0.0
  9
$PUCSBASE
  2

  9
$PUCSNAME
  2

  9
$PUCSORG
 10
0.0
 20
0.0
 30
0.0
  9
$PUCSXDIR
 10
1.0
 20
0.0
 30
0.0
  9
$PUCSYDIR
 10
0.0
 20
1.0
 30
0.0
  9
$PUCSORTHOREF
  2

  9
$PUCSORTHOVIEW
 70
     0
  9
$PUCSORGTOP
 10
0.0
 20
0.0
 30
0.0
  9
$PUCSORGBOTTOM
 10
0.0
 20
0.0
 30
0.0
  9
$PUCSORGLEFT
 10
0.0
 20
0.0
 30
0.0
  9
$PUCSORGRIGHT
 10
0.0
 20
0.0
 30
0.0
  9
$PUCSORGFRONT
 10
0.0
 20
0.0
 30
0.0
  9
$PUCSORGBACK
 10
0.0
 20
0.0
 30
0.0
  9
$USERI1
 70
     0
  9
$USERI2
 70
     0
  9
$USERI3
 70
     0
  9
$USERI4
 70
     0
  9
$USERI5
 70
     0
  9
$USERR1
 40
0.0
  9
$USERR2
 40
0.0
  9
$USERR3
 40
0.0
  9
$USERR4
 40
0.0
  9
$USERR5
 40
0.0
  9
$WORLDVIEW
 70
     1
  9
$SHADEDGE
 70
     3
  9
$SHADEDIF
 70
    70
  9
$TILEMODE
 70
     1
  9
$MAXACTVP
 70
    48
  9
$PINSBASE
 10
0.0
 20
0.0
 30
0.0
  9
$PLIMCHECK
 70
     0
  9
$PEXTMIN
 10
0.0
 20
0.0
 30
0.0
  9
$PEXTMAX
 10
826.0
 20
559.4330351521971
 30
0.4
  9
$PLIMMIN
 10
-20.89987702549854
 20
-27.03612118711686
  9
$PLIMMAX
 10
846.9235074929212
 20
586.4764362206919
  9
$UNITMODE
 70
     0
  9
$VISRETAIN
 70
     1
  9
$PLINEGEN
 70
     0
  9
$PSLTSCALE
 70
     1
  9
$TREEDEPTH
 70
  3020
  9
$CMLSTYLE
  2
STANDARD
  9
$CMLJUST
 70
     0
  9
$CMLSCALE
 40
1.0
  9
$PROXYGRAPHICS
 70
     1
  9
$MEASUREMENT
 70
     0
  9
$CELWEIGHT
370
    -1
  9
$ENDCAPS
280
     0
  9
$JOINSTYLE
280
     0
  9
$LWDISPLAY
290
     0
  9
$INSUNITS
 70
     0
  9
$HYPERLINKBASE
  1

  9
$STYLESHEET
  1
Tommy.ctb
  9
$XEDIT
290
     1
  9
$CEPSNTYPE
380
     0
  9
$PSTYLEMODE
290
     1
  9
$FINGERPRINTGUID
  2
{5823CA6D-C734-11D3-94EF-0060B0FBE80E}
  9
$VERSIONGUID
  2
{DB5A1AEC-E108-E345-9C1E-20C972B27E00}
  9
$EXTNAMES
290
     1
  9
$PSVPSCALE
 40
0.0
  9
$OLESTARTUP
290
     0
  9
$SORTENTS
280
    96
  9
$INDEXCTL
280
     0
  9
$HIDETEXT
280
     0
  9
$XCLIPFRAME
280
     0
  9
$HALOGAP
280
     0
  9
$OBSCOLOR
 70
   257
  9
$OBSLTYPE
280
     0
  9
$INTERSECTIONDISPLAY
280
     0
  9
$INTERSECTIONCOLOR
 70
   257
  9
$DIMASSOC
280
     1
  9
$PROJECTNAME
  1

  9
$CAMERADISPLAY
290
     0
  9
$LENSLENGTH
 40
50.0
  9
$CAMERAHEIGHT
 40
0.0
  9
$STEPSPERSEC
 40
2.0
  9
$STEPSIZE
 40
6.0
  9
$3DDWFPREC
 40
2.0
  9
$PSOLWIDTH
 40
0.25
  9
$PSOLHEIGHT
 40
4.0
  9
$LOFTANG1
 40
1.570796326794896
  9
$LOFTANG2
 40
1.570796326794896
  9
$LOFTMAG1
 40
0.0
  9
$LOFTMAG2
 40
0.0
  9
$LOFTPARAM
 70
     7
  9
$LOFTNORMALS
280
     1
  9
$LATITUDE
 40
37.795
  9
$LONGITUDE
 40
-122.394
  9
$NORTHDIRECTION
 40
0.0
  9
$TIMEZONE
 70
 -8000
  9
$LIGHTGLYPHDISPLAY
280
     1
  9
$TILEMODELIGHTSYNCH
280
     1
  9
$CMATERIAL
347
FFEC
  9
$SOLIDHIST
280
     0
  9
$SHOWHIST
280
     1
  9
$DWFFRAME
280
     2
  9
$DGNFRAME
280
     0
  9
$REALWORLDSCALE
290
     1
  9
$INTERFERECOLOR
 62
     1
  9
$INTERFEREOBJVS
345
1000E
  9
$INTERFEREVPVS
346
1010174
  9
$CSHADOW
280
     0
  9
$SHADOWPLANELOCATION
 40
0.0
  0
ENDSEC
  0
SECTION
  2
CLASSES
  0
CLASS
  1
DICTIONARYVAR
  2
AcDbDictionaryVar
  3
ObjectDBX Classes
 90
        0
 91
       15
280
     0
281
     0
  0
CLASS
  1
ACDBDICTIONARYWDFLT
  2
AcDbDictionaryWithDefault
  3
ObjectDBX Classes
 90
        0
 91
        1
280
     0
281
     0
  0
CLASS
  1
TABLESTYLE
  2
AcDbTableStyle
  3
ObjectDBX Classes
 90
     4095
 91
        1
280
     0
281
     0
  0
CLASS
  1
SORTENTSTABLE
  2
AcDbSortentsTable
  3
ObjectDBX Classes
 90
        0
 91
        2
280
     0
281
     0
  0
CLASS
  1
MATERIAL
  2
AcDbMaterial
  3
ObjectDBX Classes
 90
     1153
 91
        3
280
     0
281
     0
  0
CLASS
  1
VISUALSTYLE
  2
AcDbVisualStyle
  3
ObjectDBX Classes
 90
     4095
 91
       26
280
     0
281
     0
  0
CLASS
  1
SCALE
  2
AcDbScale
  3
ObjectDBX Classes
 90
     1153
 91
       33
280
     0
281
     0
  0
CLASS
  1
MLEADERSTYLE
  2
AcDbMLeaderStyle
  3
ACDB_MLEADERSTYLE_CLASS
 90
     4095
 91
        1
280
     0
281
     0
  0
CLASS
  1
CELLSTYLEMAP
  2
AcDbCellStyleMap
  3
ObjectDBX Classes
 90
     1152
 91
        2
280
     0
281
     0
  0
CLASS
  1
ACDBSECTIONVIEWSTYLE
  2
AcDbSectionViewStyle
  3
ObjectDBX Classes
 90
     1025
 91
        1
280
     0
281
     0
  0
CLASS
  1
ACDBDETAILVIEWSTYLE
  2
AcDbDetailViewStyle
  3
ObjectDBX Classes
 90
     1025
 91
        1
280
     0
281
     0
  0
ENDSEC
  0
SECTION
  2
TABLES
  0
TABLE
  2
VPORT
  5
8
102
{ACAD_XDICTIONARY
360
100A1
102
}
330
0
100
AcDbSymbolTable
 70
     1
1001
ACAD
1000
DbSaveVer
1071
        5
  0
VPORT
  5
FFDC
330
8
100
AcDbSymbolTableRecord
100
AcDbViewportTableRecord
  2
*Active
 70
     0
 10
0.0
 20
0.0
 11
1.0
 21
1.0
 12
563.31457367802
 22
198.6980435967224
 13
0.0
 23
0.0
 14
0.5
 24
0.5
 15
0.5
 25
0.5
 16
0.0
 26
0.0
 36
1.0
 17
0.0
 27
0.0
 37
0.0
 40
858.8608836510431
 41
2.292712066905615
 42
50.0
 43
0.0
 44
0.0
 50
0.0
 51
0.0
 71
     0
 72
   100
 73
     1
 74
     1
 75
     0
 76
     0
 77
     0
 78
     0
281
     0
 65
     1
110
0.0
120
0.0
130
0.0
111
1.0
121
0.0
131
0.0
112
0.0
122
1.0
132
0.0
 79
     0
146
0.0
348
1000A
 60
     3
 61
     5
292
     1
282
     1
141
0.0
142
0.0
 63
   250
421
  3355443
1001
ACAD_NAV_VCDISPLAY
1070
     3
  0
ENDTAB
  0
TABLE
  2
LTYPE
  5
5
330
0
100
AcDbSymbolTable
 70
     4
  0
LTYPE
  5
12
330
5
100
AcDbSymbolTableRecord
100
AcDbLinetypeTableRecord
  2
BYBLOCK
 70
     0
  3

 72
    65
 73
     0
 40
0.0
  0
LTYPE
  5
13
330
5
100
AcDbSymbolTableRecord
100
AcDbLinetypeTableRecord
  2
BYLAYER
 70
     0
  3

 72
    65
 73
     0
 40
0.0
  0
LTYPE
  5
14
330
5
100
AcDbSymbolTableRecord
100
AcDbLinetypeTableRecord
  2
CONTINUOUS
 70
     0
  3
Solid line
 72
    65
 73
     0
 40
0.0
  0
LTYPE
  5
32
330
5
100
AcDbSymbolTableRecord
100
AcDbLinetypeTableRecord
  2
CENTER2
 70
     0
  3
Center (.5x) ___ _ ___ _ ___ _ ___ _ ___ _ ___
 72
    65
 73
     4
 40
1.125
 49
0.75
 74
     0
 49
-0.125
 74
     0
 49
0.125
 74
     0
 49
-0.125
 74
     0
  0
LTYPE
  5
33
330
5
100
AcDbSymbolTableRecord
100
AcDbLinetypeTableRecord
  2
DASHED2
 70
     0
  3
Dashed (.5x) _ _ _ _ _ _ _ _ _ _ _ _ _ _ _ _ _
 72
    65
 73
     2
 40
0.375
 49
0.25
 74
     0
 49
-0.125
 74
     0
  0
LTYPE
  5
114
330
5
100
AcDbSymbolTableRecord
100
AcDbLinetypeTableRecord
  2
CENTER
 70
     0
  3
____ _ ____ _ ____ _ ____ _ ____ _ ____ _ ____
 72
    65
 73
     4
 40
2.0
 49
1.25
 74
     0
 49
-0.25
 74
     0
 49
0.25
 74
     0
 49
-0.25
 74
     0
  0
ENDTAB
  0
TABLE
  2
LAYER
  5
2
102
{ACAD_XDICTIONARY
360
CD00
102
}
330
0
100
AcDbSymbolTable
 70
     8
  0
LAYER
  5
E
102
{ACAD_XDICTIONARY
360
1005A
102
}
330
2
100
AcDbSymbolTableRecord
100
AcDbLayerTableRecord
  2
0
 70
     0
 62
     7
  6
CONTINUOUS
370
    -3
390
5C1E
347
FFFC
348
0
  0
LAYER
  5
34
102
{ACAD_XDICTIONARY
360
1005C
102
}
330
2
100
AcDbSymbolTableRecord
100
AcDbLayerTableRecord
  2
SHEET
 70
     0
 62
     7
  6
CONTINUOUS
370
    -3
390
5C1E
347
FFFC
348
0
  0
LAYER
  5
36
102
{ACAD_XDICTIONARY
360
1005E
102
}
330
2
100
AcDbSymbolTableRecord
100
AcDbLayerTableRecord
  2
CL
 70
     0
 62
     2
  6
CENTER2
370
    -3
390
5C1E
347
FFFC
348
0
  0
LAYER
  5
38
102
{ACAD_XDICTIONARY
360
10060
102
}
330
2
100
AcDbSymbolTableRecord
100
AcDbLayerTableRecord
  2
VP
 70
     1
 62
     4
  6
CONTINUOUS
370
    -3
390
5C1E
347
FFFC
348
0
  0
LAYER
  5
39
102
{ACAD_XDICTIONARY
360
10062
102
}
330
2
100
AcDbSymbolTableRecord
100
AcDbLayerTableRecord
  2
SINK
 70
     0
 62
     4
  6
CONTINUOUS
370
    -3
390
5C1E
347
FFFC
348
0
  0
LAYER
  5
E8
330
2
100
AcDbSymbolTableRecord
100
AcDbLayerTableRecord
  2
DEFPOINTS
 70
     0
 62
     7
  6
CONTINUOUS
290
     0
370
    -3
390
5C1E
347
FFFC
348
0
  0
LAYER
  5
1D50
102
{ACAD_XDICTIONARY
360
10064
102
}
330
2
100
AcDbSymbolTableRecord
100
AcDbLayerTableRecord
  2
HATCH
 70
     0
 62
     3
  6
CONTINUOUS
370
    -3
390
5C1E
347
FFFC
348
0
  0
LAYER
  5
43B1
102
{ACAD_XDICTIONARY
360
10066
102
}
330
2
100
AcDbSymbolTableRecord
100
AcDbLayerTableRecord
  2
DIM
 70
     0
 62
     1
  6
CONTINUOUS
370
    -3
390
5C1E
347
FFFC
348
0
  0
ENDTAB
  0
TABLE
  2
STYLE
  5
3
330
0
100
AcDbSymbolTable
 70
     4
  0
STYLE
  5
F
330
3
100
AcDbSymbolTableRecord
100
AcDbTextStyleTableRecord
  2
STANDARD
 70
     0
 40
5.0
 41
1.0
 50
0.0
 71
     0
 42
5.0
  3
TIMES.TTF
  4

1001
ACAD
1000
Times New Roman
1071
       18
  0
STYLE
  5
3F
330
3
100
AcDbSymbolTableRecord
100
AcDbTextStyleTableRecord
  2
TITLE
 70
     0
 40
0.0
 41
1.0
 50
0.0
 71
     0
 42
4.0
  3
C:\R13\COM\fonts\eur_____.pfb
  4

  0
STYLE
  5
116
330
3
100
AcDbSymbolTableRecord
100
AcDbTextStyleTableRecord
  2
EUROROMAN
 70
     0
 40
0.5343811892451882
 41
1.0
 50
0.0
 71
     0
 42
0.5343811892451882
  3
eur_____.pfb
  4

  0
STYLE
  5
43B4
330
3
100
AcDbSymbolTableRecord
100
AcDbTextStyleTableRecord
  2
ROMANS
 70
     0
 40
5.0
 41
1.0
 50
0.0
 71
     0
 42
10.0
  3
romans
  4

  0
ENDTAB
  0
TABLE
  2
VIEW
  5
6
330
0
100
AcDbSymbolTable
 70
     3
  0
VIEW
  5
278
330
6
100
AcDbSymbolTableRecord
100
AcDbViewTableRecord
  2
P
 70
     0
 40
815.0
 10
608.7931217819457
 20
3.744870706040615
 41
1137.5
 11
0.0
 21
0.0
 31
1.0
 12
0.0
 22
0.0
 32
0.0
 42
50.0
 43
0.0
 44
0.0
 50
0.0
 71
     0
281
     0
 72
     0
 73
     0
348
1000A
  0
VIEW
  5
2F21
330
6
100
AcDbSymbolTableRecord
100
AcDbViewTableRecord
  2
E
 70
     0
 40
655.0725840874363
 10
622.5998899062656
 20
58.70190082387842
 41
1137.170295034238
 11
0.0
 21
0.0
 31
1.0
 12
0.0
 22
0.0
 32
0.0
 42
50.0
 43
0.0
 44
0.0
 50
0.0
 71
     0
281
     0
 72
     0
 73
     0
348
1000A
  0
ENDTAB
  0
TABLE
  2
UCS
  5
7
330
0
100
AcDbSymbolTable
 70
     0
  0
ENDTAB
  0
TABLE
  2
APPID
  5
9
330
0
100
AcDbSymbolTable
 70
     5
  0
APPID
  5
10
330
9
100
AcDbSymbolTableRecord
100
AcDbRegAppTableRecord
  2
ACAD
 70
     0
  0
APPID
  5
CCE5
330
9
100
AcDbSymbolTableRecord
100
AcDbRegAppTableRecord
  2
ACAD_EXEMPT_FROM_CAD_STANDARDS
 70
     0
  0
APPID
  5
CD9D
330
9
100
AcDbSymbolTableRecord
100
AcDbRegAppTableRecord
  2
ACAD_PSEXT
 70
     0
  0
APPID
  5
10039
330
9
100
AcDbSymbolTableRecord
100
AcDbRegAppTableRecord
  2
ACAD_MLEADERVER
 70
     0
  0
APPID
  5
1010190
330
9
100
AcDbSymbolTableRecord
100
AcDbRegAppTableRecord
  2
ACAD_NAV_VCDISPLAY
 70
     0
  0
ENDTAB
  0
TABLE
  2
DIMSTYLE
  5
A
330
0
100
AcDbSymbolTable
 70
     1
100
AcDbDimStyleTable
 71
     1
340
1D
  0
DIMSTYLE
105
1D
102
{ACAD_REACTORS
330
F626
330
F634
330
F692
330
F6A0
330
F6BC
330
F6CA
330
F6D8
330
F6E6
330
F6F4
330
F716
330
F724
330
F748
330
F756
330
FC0C
330
FCF1
330
FCFF
102
}
330
A
100
AcDbSymbolTableRecord
100
AcDbDimStyleTableRecord
  2
STANDARD
 70
     0
 41
5.0
140
5.0
178
     1
271
     2
272
     2
340
F
  0
ENDTAB
  0
TABLE
  2
BLOCK_RECORD
  5
1
330
0
100
AcDbSymbolTable
 70
    16
  0
BLOCK_RECORD
  5
18
102
{ACAD_XDICTIONARY
360
982C
102
}
330
1
100
AcDbSymbolTableRecord
100
AcDbBlockTableRecord
  2
*MODEL_SPACE
340
5C21
 70
     0
280
     1
281
     0
  0
BLOCK_RECORD
  5
15
102
{ACAD_XDICTIONARY
360
982A
102
}
330
1
100
AcDbSymbolTableRecord
100
AcDbBlockTableRecord
  2
*PAPER_SPACE
340
5C22
 70
     0
280
     1
281
     0
  0
BLOCK_RECORD
  5
F627
330
1
100
AcDbSymbolTableRecord
100
AcDbBlockTableRecord
  2
*D0
340
0
 70
     0
280
     1
281
     0
  0
BLOCK_RECORD
  5
F635
330
1
100
AcDbSymbolTableRecord
100
AcDbBlockTableRecord
  2
*D1
340
0
 70
     0
280
     1
281
     0
  0
BLOCK_RECORD
  5
F693
330
1
100
AcDbSymbolTableRecord
100
AcDbBlockTableRecord
  2
*D2
340
0
 70
     0
280
     1
281
     0
  0
BLOCK_RECORD
  5
F6A1
330
1
100
AcDbSymbolTableRecord
100
AcDbBlockTableRecord
  2
*D3
340
0
 70
     0
280
     1
281
     0
  0
BLOCK_RECORD
  5
F6BD
330
1
100
AcDbSymbolTableRecord
100
AcDbBlockTableRecord
  2
*D4
340
0
 70
     0
280
     1
281
     0
  0
BLOCK_RECORD
  5
F6CB
330
1
100
AcDbSymbolTableRecord
100
AcDbBlockTableRecord
  2
*D5
340
0
 70
     0
280
     1
281
     0
  0
BLOCK_RECORD
  5
F6D9
330
1
100
AcDbSymbolTableRecord
100
AcDbBlockTableRecord
  2
*D6
340
0
 70
     0
280
     1
281
     0
  0
BLOCK_RECORD
  5
F6E7
330
1
100
AcDbSymbolTableRecord
100
AcDbBlockTableRecord
  2
*D7
340
0
 70
     0
280
     1
281
     0
  0
BLOCK_RECORD
  5
F6F5
330
1
100
AcDbSymbolTableRecord
100
AcDbBlockTableRecord
  2
*D8
340
0
 70
     0
280
     1
281
     0
  0
BLOCK_RECORD
  5
F717
330
1
100
AcDbSymbolTableRecord
100
AcDbBlockTableRecord
  2
*D9
340
0
 70
     0
280
     1
281
     0
  0
BLOCK_RECORD
  5
F725
330
1
100
AcDbSymbolTableRecord
100
AcDbBlockTableRecord
  2
*D10
340
0
 70
     0
280
     1
281
     0
  0
BLOCK_RECORD
  5
F749
330
1
100
AcDbSymbolTableRecord
100
AcDbBlockTableRecord
  2
*D11
340
0
 70
     0
280
     1
281
     0
  0
BLOCK_RECORD
  5
F757
330
1
100
AcDbSymbolTableRecord
100
AcDbBlockTableRecord
  2
*D12
340
0
 70
     0
280
     1
281
     0
  0
BLOCK_RECORD
  5
FC0D
330
1
100
AcDbSymbolTableRecord
100
AcDbBlockTableRecord
  2
*D13
340
0
 70
     0
280
     1
281
     0
  0
BLOCK_RECORD
  5
FCF2
330
1
100
AcDbSymbolTableRecord
100
AcDbBlockTableRecord
  2
*D14
340
0
 70
     0
280
     1
281
     0
  0
BLOCK_RECORD
  5
FD00
330
1
100
AcDbSymbolTableRecord
100
AcDbBlockTableRecord
  2
*D15
340
0
 70
     0
280
     1
281
     0
  0
ENDTAB
  0
ENDSEC
  0
SECTION
  2
BLOCKS
  0
BLOCK
  5
19
330
18
100
AcDbEntity
  8
0
100
AcDbBlockBegin
  2
*MODEL_SPACE
 70
     0
 10
0.0
 20
0.0
 30
0.0
  3
*MODEL_SPACE
  1

  0
ENDBLK
  5
1A
330
18
100
AcDbEntity
  8
0
100
AcDbBlockEnd
  0
BLOCK
  5
16
330
15
100
AcDbEntity
 67
     1
  8
0
100
AcDbBlockBegin
  2
*PAPER_SPACE
 70
     0
 10
0.0
 20
0.0
 30
0.0
  3
*PAPER_SPACE
  1

  0
ENDBLK
  5
17
330
15
100
AcDbEntity
 67
     1
  8
0
100
AcDbBlockEnd
  0
BLOCK
  5
F632
330
F627
100
AcDbEntity
  8
0
100
AcDbBlockBegin
  2
*D0
 70
     1
 10
0.0
 20
0.0
 30
0.0
  3
*D0
  1

  0
LINE
  5
FCD2
330
F627
100
AcDbEntity
  8
DIM
 62
     0
440
 16777216
370
    -2
100
AcDbLine
 10
207.0514344952378
 20
571.782850515586
 30
0.0
 11
207.0514344952378
 21
621.1002219486382
 31
0.0
  0
LINE
  5
FCD3
330
F627
100
AcDbEntity
  8
DIM
 62
     0
440
 16777216
370
    -2
100
AcDbLine
 10
907.0514344952378
 20
571.7828505155869
 30
0.0
 11
907.0514344952378
 21
621.1002219486382
 31
0.0
  0
LINE
  5
FCD4
330
F627
100
AcDbEntity
  8
DIM
 62
     0
440
 16777216
370
    -2
100
AcDbLine
 10
212.0514344952378
 20
620.9202219486383
 30
0.0
 11
547.0785938319356
 21
620.9202219486383
 31
0.0
  0
LINE
  5
FCD5
330
F627
100
AcDbEntity
  8
DIM
 62
     0
440
 16777216
370
    -2
100
AcDbLine
 10
902.0514344952378
 20
620.9202219486383
 30
0.0
 11
567.0242751585399
 21
620.9202219486383
 31
0.0
  0
SOLID
  5
FCD6
330
F627
100
AcDbEntity
  8
DIM
 62
     0
440
 16777216
100
AcDbTrace
 10
212.0514344952378
 20
621.7535552819716
 30
0.0
 11
212.0514344952378
 21
620.0868886153049
 31
0.0
 12
207.0514344952378
 22
620.9202219486383
 32
0.0
 13
207.0514344952378
 23
620.9202219486383
 33
0.0
  0
SOLID
  5
FCD7
330
F627
100
AcDbEntity
  8
DIM
 62
     0
440
 16777216
100
AcDbTrace
 10
902.0514344952378
 20
621.7535552819716
 30
0.0
 11
902.0514344952378
 21
620.0868886153049
 31
0.0
 12
907.0514344952378
 22
620.9202219486383
 32
0.0
 13
907.0514344952378
 23
620.9202219486383
 33
0.0
  0
MTEXT
  5
FCD8
330
F627
100
AcDbEntity
  8
DIM
 62
     1
440
 16777216
100
AcDbMText
 10
557.0514344952377
 20
620.9202219486383
 30
0.0
 40
5.0
 41
0.0
 46
0.0
 71
     5
 72
     1
  1
\A1;700.00
 73
     1
 44
1.0
  0
POINT
  5
FCD9
330
F627
100
AcDbEntity
  8
DEFPOINTS
 62
     0
440
 16777216
100
AcDbPoint
 10
207.0514344952378
 20
571.7203505155859
 30
0.0
  0
POINT
  5
FCDA
330
F627
100
AcDbEntity
  8
DEFPOINTS
 62
     0
440
 16777216
100
AcDbPoint
 10
907.0514344952378
 20
571.7203505155869
 30
0.0
  0
POINT
  5
FCDB
330
F627
100
AcDbEntity
  8
DEFPOINTS
 62
     0
440
 16777216
100
AcDbPoint
 10
907.0514344952378
 20
620.9202219486383
 30
0.0
  0
ENDBLK
  5
F633
330
F627
100
AcDbEntity
  8
0
100
AcDbBlockEnd
  0
BLOCK
  5
F640
330
F635
100
AcDbEntity
  8
0
100
AcDbBlockBegin
  2
*D1
 70
     1
 10
0.0
 20
0.0
 30
0.0
  3
*D1
  1

  0
LINE
  5
FCDC
330
F635
100
AcDbEntity
  8
DIM
 62
     0
440
 16777216
370
    -2
100
AcDbLine
 10
207.0514344952378
 20
571.782850515586
 30
0.0
 11
207.0514344952378
 21
605.7863291035957
 31
0.0
  0
LINE
  5
FCDD
330
F635
100
AcDbEntity
  8
DIM
 62
     0
440
 16777216
370
    -2
100
AcDbLine
 10
557.0514344952377
 20
579.7828505155843
 30
0.0
 11
557.0514344952377
 21
605.7863291035957
 31
0.0
  0
LINE
  5
FCDE
330
F635
100
AcDbEntity
  8
DIM
 62
     0
440
 16777216
370
    -2
100
AcDbLine
 10
212.0514344952378
 20
605.6063291035957
 30
0.0
 11
372.0912109912724
 21
605.6063291035957
 31
0.0
  0
LINE
  5
FCDF
330
F635
100
AcDbEntity
  8
DIM
 62
     0
440
 16777216
370
    -2
100
AcDbLine
 10
552.0514344952378
 20
605.6063291035957
 30
0.0
 11
392.0116579992032
 21
605.6063291035957
 31
0.0
  0
SOLID
  5
FCE0
330
F635
100
AcDbEntity
  8
DIM
 62
     0
440
 16777216
100
AcDbTrace
 10
212.0514344952378
 20
606.439662436929
 30
0.0
 11
212.0514344952378
 21
604.7729957702623
 31
0.0
 12
207.0514344952378
 22
605.6063291035957
 32
0.0
 13
207.0514344952378
 23
605.6063291035957
 33
0.0
  0
SOLID
  5
FCE1
330
F635
100
AcDbEntity
  8
DIM
 62
     0
440
 16777216
100
AcDbTrace
 10
552.0514344952378
 20
606.439662436929
 30
0.0
 11
552.0514344952378
 21
604.7729957702623
 31
0.0
 12
557.0514344952377
 22
605.6063291035957
 32
0.0
 13
557.0514344952377
 23
605.6063291035957
 33
0.0
  0
MTEXT
  5
FCE2
330
F635
100
AcDbEntity
  8
DIM
 62
     1
440
 16777216
100
AcDbMText
 10
382.0514344952378
 20
605.6063291035957
 30
0.0
 40
5.0
 41
0.0
 46
0.0
 71
     5
 72
     1
  1
\A1;350.00
 73
     1
 44
1.0
  0
POINT
  5
FCE3
330
F635
100
AcDbEntity
  8
DEFPOINTS
 62
     0
440
 16777216
100
AcDbPoint
 10
207.0514344952378
 20
571.7203505155859
 30
0.0
  0
POINT
  5
FCE4
330
F635
100
AcDbEntity
  8
DEFPOINTS
 62
     0
440
 16777216
100
AcDbPoint
 10
557.0514344952377
 20
579.7203505155843
 30
0.0
  0
POINT
  5
FCE5
330
F635
100
AcDbEntity
  8
DEFPOINTS
 62
     0
440
 16777216
100
AcDbPoint
 10
557.0514344952377
 20
605.6063291035957
 30
0.0
  0
ENDBLK
  5
F641
330
F635
100
AcDbEntity
  8
0
100
AcDbBlockEnd
  0
BLOCK
  5
F69E
330
F693
100
AcDbEntity
  8
0
100
AcDbBlockBegin
  2
*D2
 70
     1
 10
0.0
 20
0.0
 30
0.0
  3
*D2
  1

  0
LINE
  5
FB49
330
F693
100
AcDbEntity
  8
DIM
 62
     0
440
 16777216
370
    -2
100
AcDbLine
 10
424.851434495234
 20
429.8453505155828
 30
0.0
 11
424.851434495234
 21
509.6471139534235
 31
0.0
  0
LINE
  5
FB4A
330
F693
100
AcDbEntity
  8
DIM
 62
     0
440
 16777216
370
    -2
100
AcDbLine
 10
557.0514344952377
 20
379.8453505155814
 30
0.0
 11
557.0514344952377
 21
509.6471139534235
 31
0.0
  0
LINE
  5
FB4B
330
F693
100
AcDbEntity
  8
DIM
 62
     0
440
 16777216
370
    -2
100
AcDbLine
 10
429.851434495234
 20
509.4671139534234
 30
0.0
 11
481.2741958506792
 21
509.4671139534234
 31
0.0
  0
LINE
  5
FB4C
330
F693
100
AcDbEntity
  8
DIM
 62
     0
440
 16777216
370
    -2
100
AcDbLine
 10
552.0514344952377
 20
509.4671139534234
 30
0.0
 11
500.6286731397924
 21
509.4671139534234
 31
0.0
  0
SOLID
  5
FB4D
330
F693
100
AcDbEntity
  8
DIM
 62
     0
440
 16777216
100
AcDbTrace
 10
429.851434495234
 20
510.3004472867567
 30
0.0
 11
429.851434495234
 21
508.6337806200901
 31
0.0
 12
424.851434495234
 22
509.4671139534234
 32
0.0
 13
424.851434495234
 23
509.4671139534234
 33
0.0
  0
SOLID
  5
FB4E
330
F693
100
AcDbEntity
  8
DIM
 62
     0
440
 16777216
100
AcDbTrace
 10
552.0514344952377
 20
510.3004472867567
 30
0.0
 11
552.0514344952377
 21
508.6337806200901
 31
0.0
 12
557.0514344952377
 22
509.4671139534234
 32
0.0
 13
557.0514344952377
 23
509.4671139534234
 33
0.0
  0
MTEXT
  5
FB4F
330
F693
100
AcDbEntity
  8
DIM
 62
     1
440
 16777216
100
AcDbMText
 10
490.9514344952358
 20
509.4671139534234
 30
0.0
 40
5.0
 41
0.0
 46
0.0
 71
     5
 72
     1
  1
\A1;132.20
 73
     1
 44
1.0
  0
POINT
  5
FB50
330
F693
100
AcDbEntity
  8
DEFPOINTS
 62
     0
440
 16777216
100
AcDbPoint
 10
424.851434495234
 20
429.7828505155828
 30
0.0
  0
POINT
  5
FB51
330
F693
100
AcDbEntity
  8
DEFPOINTS
 62
     0
440
 16777216
100
AcDbPoint
 10
557.0514344952377
 20
379.7828505155814
 30
0.0
  0
POINT
  5
FB52
330
F693
100
AcDbEntity
  8
DEFPOINTS
 62
     0
440
 16777216
100
AcDbPoint
 10
557.0514344952377
 20
509.4671139534234
 30
0.0
  0
ENDBLK
  5
F69F
330
F693
100
AcDbEntity
  8
0
100
AcDbBlockEnd
  0
BLOCK
  5
F6AC
330
F6A1
100
AcDbEntity
  8
0
100
AcDbBlockBegin
  2
*D3
 70
     1
 10
0.0
 20
0.0
 30
0.0
  3
*D3
  1

  0
LINE
  5
FB5D
330
F6A1
100
AcDbEntity
  8
DIM
 62
     0
440
 16777216
370
    -2
100
AcDbLine
 10
557.0514344952377
 20
379.8453505155814
 30
0.0
 11
557.0514344952377
 21
509.6471139534235
 31
0.0
  0
LINE
  5
FB5E
330
F6A1
100
AcDbEntity
  8
DIM
 62
     0
440
 16777216
370
    -2
100
AcDbLine
 10
750.601434495236
 20
429.8453505155846
 30
0.0
 11
750.601434495236
 21
509.6471139534235
 31
0.0
  0
LINE
  5
FB5F
330
F6A1
100
AcDbEntity
  8
DIM
 62
     0
440
 16777216
370
    -2
100
AcDbLine
 10
562.0514344952376
 20
509.4671139534234
 30
0.0
 11
644.2609478333767
 21
509.4671139534234
 31
0.0
  0
LINE
  5
FB60
330
F6A1
100
AcDbEntity
  8
DIM
 62
     0
440
 16777216
370
    -2
100
AcDbLine
 10
745.601434495236
 20
509.4671139534234
 30
0.0
 11
663.391921157097
 21
509.4671139534234
 31
0.0
  0
SOLID
  5
FB61
330
F6A1
100
AcDbEntity
  8
DIM
 62
     0
440
 16777216
100
AcDbTrace
 10
562.0514344952376
 20
510.3004472867567
 30
0.0
 11
562.0514344952376
 21
508.6337806200901
 31
0.0
 12
557.0514344952377
 22
509.4671139534234
 32
0.0
 13
557.0514344952377
 23
509.4671139534234
 33
0.0
  0
SOLID
  5
FB62
330
F6A1
100
AcDbEntity
  8
DIM
 62
     0
440
 16777216
100
AcDbTrace
 10
745.601434495236
 20
510.3004472867567
 30
0.0
 11
745.601434495236
 21
508.6337806200901
 31
0.0
 12
750.601434495236
 22
509.4671139534234
 32
0.0
 13
750.601434495236
 23
509.4671139534234
 33
0.0
  0
MTEXT
  5
FB63
330
F6A1
100
AcDbEntity
  8
DIM
 62
     1
440
 16777216
100
AcDbMText
 10
653.8264344952368
 20
509.4671139534234
 30
0.0
 40
5.0
 41
0.0
 46
0.0
 71
     5
 72
     1
  1
\A1;193.55
 73
     1
 44
1.0
  0
POINT
  5
FB64
330
F6A1
100
AcDbEntity
  8
DEFPOINTS
 62
     0
440
 16777216
100
AcDbPoint
 10
557.0514344952377
 20
379.7828505155814
 30
0.0
  0
POINT
  5
FB65
330
F6A1
100
AcDbEntity
  8
DEFPOINTS
 62
     0
440
 16777216
100
AcDbPoint
 10
750.601434495236
 20
429.7828505155846
 30
0.0
  0
POINT
  5
FB66
330
F6A1
100
AcDbEntity
  8
DEFPOINTS
 62
     0
440
 16777216
100
AcDbPoint
 10
750.601434495236
 20
509.4671139534234
 30
0.0
  0
ENDBLK
  5
F6AD
330
F6A1
100
AcDbEntity
  8
0
100
AcDbBlockEnd
  0
BLOCK
  5
F6C8
330
F6BD
100
AcDbEntity
  8
0
100
AcDbBlockBegin
  2
*D4
 70
     1
 10
0.0
 20
0.0
 30
0.0
  3
*D4
  1

  0
LINE
  5
FB53
330
F6BD
100
AcDbEntity
  8
DIM
 62
     0
440
 16777216
370
    -2
100
AcDbLine
 10
354.851434495237
 20
379.7828505155828
 30
0.0
 11
329.5094551069953
 21
379.7828505155828
 31
0.0
  0
LINE
  5
FB54
330
F6BD
100
AcDbEntity
  8
DIM
 62
     0
440
 16777216
370
    -2
100
AcDbLine
 10
354.8514344952351
 20
429.7828505155828
 30
0.0
 11
329.5094551069954
 21
429.7828505155828
 31
0.0
  0
LINE
  5
FB55
330
F6BD
100
AcDbEntity
  8
DIM
 62
     0
440
 16777216
370
    -2
100
AcDbLine
 10
329.6894551069954
 20
384.7828505155828
 30
0.0
 11
329.6894551069954
 21
402.142381878236
 31
0.0
  0
LINE
  5
FB56
330
F6BD
100
AcDbEntity
  8
DIM
 62
     0
440
 16777216
370
    -2
100
AcDbLine
 10
329.6894551069954
 20
424.7828505155828
 30
0.0
 11
329.6894551069954
 21
407.4233191529295
 31
0.0
  0
SOLID
  5
FB57
330
F6BD
100
AcDbEntity
  8
DIM
 62
     0
440
 16777216
100
AcDbTrace
 10
328.8561217736621
 20
384.7828505155828
 30
0.0
 11
330.5227884403287
 21
384.7828505155828
 31
0.0
 12
329.6894551069954
 22
379.7828505155828
 32
0.0
 13
329.6894551069954
 23
379.7828505155828
 33
0.0
  0
SOLID
  5
FB58
330
F6BD
100
AcDbEntity
  8
DIM
 62
     0
440
 16777216
100
AcDbTrace
 10
328.8561217736621
 20
424.7828505155828
 30
0.0
 11
330.5227884403287
 21
424.7828505155828
 31
0.0
 12
329.6894551069954
 22
429.7828505155828
 32
0.0
 13
329.6894551069954
 23
429.7828505155828
 33
0.0
  0
MTEXT
  5
FB59
330
F6BD
100
AcDbEntity
  8
DIM
 62
     1
440
 16777216
100
AcDbMText
 10
329.6894551069953
 20
404.7828505155829
 30
0.0
 40
5.0
 41
0.0
 46
0.0
 71
     5
 72
     1
  1
\A1;50.00
 73
     1
 44
1.0
  0
POINT
  5
FB5A
330
F6BD
100
AcDbEntity
  8
DEFPOINTS
 62
     0
440
 16777216
100
AcDbPoint
 10
354.913934495237
 20
379.7828505155828
 30
0.0
  0
POINT
  5
FB5B
330
F6BD
100
AcDbEntity
  8
DEFPOINTS
 62
     0
440
 16777216
100
AcDbPoint
 10
354.9139344952351
 20
429.7828505155828
 30
0.0
  0
POINT
  5
FB5C
330
F6BD
100
AcDbEntity
  8
DEFPOINTS
 62
     0
440
 16777216
100
AcDbPoint
 10
329.6894551069954
 20
429.7828505155828
 30
0.0
  0
ENDBLK
  5
F6C9
330
F6BD
100
AcDbEntity
  8
0
100
AcDbBlockEnd
  0
BLOCK
  5
F6D6
330
F6CB
100
AcDbEntity
  8
0
100
AcDbBlockBegin
  2
*D5
 70
     1
 10
0.0
 20
0.0
 30
0.0
  3
*D5
  1

  0
LINE
  5
FBE4
330
F6CB
100
AcDbEntity
  8
DIM
 62
     0
440
 16777216
370
    -2
100
AcDbLine
 10
887.0514344952386
 20
549.7828505155847
 30
0.0
 11
946.328527201568
 21
549.7828505155847
 31
0.0
  0
LINE
  5
FBE5
330
F6CB
100
AcDbEntity
  8
DIM
 62
     0
440
 16777216
370
    -2
100
AcDbLine
 10
907.0514344952368
 20
379.7828505155853
 30
0.0
 11
946.328527201568
 21
379.7828505155853
 31
0.0
  0
LINE
  5
FBE6
330
F6CB
100
AcDbEntity
  8
DIM
 62
     0
440
 16777216
370
    -2
100
AcDbLine
 10
946.1485272015679
 20
544.7828505155847
 30
0.0
 11
946.1485272015679
 21
467.4233191529317
 31
0.0
  0
LINE
  5
FBE7
330
F6CB
100
AcDbEntity
  8
DIM
 62
     0
440
 16777216
370
    -2
100
AcDbLine
 10
946.1485272015679
 20
384.7828505155853
 30
0.0
 11
946.1485272015679
 21
462.1423818782382
 31
0.0
  0
SOLID
  5
FBE8
330
F6CB
100
AcDbEntity
  8
DIM
 62
     0
440
 16777216
100
AcDbTrace
 10
945.3151938682346
 20
544.7828505155847
 30
0.0
 11
946.9818605349013
 21
544.7828505155847
 31
0.0
 12
946.1485272015679
 22
549.7828505155847
 32
0.0
 13
946.1485272015679
 23
549.7828505155847
 33
0.0
  0
SOLID
  5
FBE9
330
F6CB
100
AcDbEntity
  8
DIM
 62
     0
440
 16777216
100
AcDbTrace
 10
945.3151938682346
 20
384.7828505155853
 30
0.0
 11
946.9818605349013
 21
384.7828505155853
 31
0.0
 12
946.1485272015679
 22
379.7828505155853
 32
0.0
 13
946.1485272015679
 23
379.7828505155853
 33
0.0
  0
MTEXT
  5
FBEA
330
F6CB
100
AcDbEntity
  8
DIM
 62
     1
440
 16777216
100
AcDbMText
 10
946.1485272015679
 20
464.7828505155851
 30
0.0
 40
5.0
 41
0.0
 46
0.0
 71
     5
 72
     1
  1
\A1;170.00
 73
     1
 44
1.0
  0
POINT
  5
FBEB
330
F6CB
100
AcDbEntity
  8
DEFPOINTS
 62
     0
440
 16777216
100
AcDbPoint
 10
886.9889344952385
 20
549.7828505155847
 30
0.0
  0
POINT
  5
FBEC
330
F6CB
100
AcDbEntity
  8
DEFPOINTS
 62
     0
440
 16777216
100
AcDbPoint
 10
906.9889344952368
 20
379.7828505155853
 30
0.0
  0
POINT
  5
FBED
330
F6CB
100
AcDbEntity
  8
DEFPOINTS
 62
     0
440
 16777216
100
AcDbPoint
 10
946.1485272015679
 20
379.7828505155853
 30
0.0
  0
ENDBLK
  5
F6D7
330
F6CB
100
AcDbEntity
  8
0
100
AcDbBlockEnd
  0
BLOCK
  5
F6E4
330
F6D9
100
AcDbEntity
  8
0
100
AcDbBlockBegin
  2
*D6
 70
     1
 10
0.0
 20
0.0
 30
0.0
  3
*D6
  1

  0
LINE
  5
FBEE
330
F6D9
100
AcDbEntity
  8
DIM
 62
     0
440
 16777216
370
    -2
100
AcDbLine
 10
867.0514344952385
 20
569.7828505155847
 30
0.0
 11
971.8738639646486
 21
569.7828505155847
 31
0.0
  0
LINE
  5
FBEF
330
F6D9
100
AcDbEntity
  8
DIM
 62
     0
440
 16777216
370
    -2
100
AcDbLine
 10
907.0514344952368
 20
379.7828505155853
 30
0.0
 11
971.8738639646486
 21
379.7828505155853
 31
0.0
  0
LINE
  5
FBF0
330
F6D9
100
AcDbEntity
  8
DIM
 62
     0
440
 16777216
370
    -2
100
AcDbLine
 10
971.6938639646487
 20
564.7828505155847
 30
0.0
 11
971.6938639646487
 21
477.4233191529318
 31
0.0
  0
LINE
  5
FBF1
330
F6D9
100
AcDbEntity
  8
DIM
 62
     0
440
 16777216
370
    -2
100
AcDbLine
 10
971.6938639646487
 20
384.7828505155853
 30
0.0
 11
971.6938639646487
 21
472.1423818782382
 31
0.0
  0
SOLID
  5
FBF2
330
F6D9
100
AcDbEntity
  8
DIM
 62
     0
440
 16777216
100
AcDbTrace
 10
970.8605306313152
 20
564.7828505155847
 30
0.0
 11
972.527197297982
 21
564.7828505155847
 31
0.0
 12
971.6938639646487
 22
569.7828505155847
 32
0.0
 13
971.6938639646487
 23
569.7828505155847
 33
0.0
  0
SOLID
  5
FBF3
330
F6D9
100
AcDbEntity
  8
DIM
 62
     0
440
 16777216
100
AcDbTrace
 10
970.8605306313152
 20
384.7828505155853
 30
0.0
 11
972.527197297982
 21
384.7828505155853
 31
0.0
 12
971.6938639646487
 22
379.7828505155853
 32
0.0
 13
971.6938639646487
 23
379.7828505155853
 33
0.0
  0
MTEXT
  5
FBF4
330
F6D9
100
AcDbEntity
  8
DIM
 62
     1
440
 16777216
100
AcDbMText
 10
971.6938639646485
 20
474.7828505155852
 30
0.0
 40
5.0
 41
0.0
 46
0.0
 71
     5
 72
     1
  1
\A1;190.00
 73
     1
 44
1.0
  0
POINT
  5
FBF5
330
F6D9
100
AcDbEntity
  8
DEFPOINTS
 62
     0
440
 16777216
100
AcDbPoint
 10
866.9889344952386
 20
569.7828505155847
 30
0.0
  0
POINT
  5
FBF6
330
F6D9
100
AcDbEntity
  8
DEFPOINTS
 62
     0
440
 16777216
100
AcDbPoint
 10
906.9889344952368
 20
379.7828505155853
 30
0.0
  0
POINT
  5
FBF7
330
F6D9
100
AcDbEntity
  8
DEFPOINTS
 62
     0
440
 16777216
100
AcDbPoint
 10
971.6938639646487
 20
379.7828505155853
 30
0.0
  0
ENDBLK
  5
F6E5
330
F6D9
100
AcDbEntity
  8
0
100
AcDbBlockEnd
  0
BLOCK
  5
F6F2
330
F6E7
100
AcDbEntity
  8
0
100
AcDbBlockBegin
  2
*D7
 70
     1
 10
0.0
 20
0.0
 30
0.0
  3
*D7
  1

  0
LINE
  5
FBF8
330
F6E7
100
AcDbEntity
  8
DIM
 62
     0
440
 16777216
370
    -2
100
AcDbLine
 10
867.0514344952367
 20
139.7828505155847
 30
0.0
 11
971.8738639646485
 21
139.7828505155847
 31
0.0
  0
LINE
  5
FBF9
330
F6E7
100
AcDbEntity
  8
DIM
 62
     0
440
 16777216
370
    -2
100
AcDbLine
 10
907.0514344952368
 20
379.7828505155853
 30
0.0
 11
971.8738639646486
 21
379.7828505155853
 31
0.0
  0
LINE
  5
FBFA
330
F6E7
100
AcDbEntity
  8
DIM
 62
     0
440
 16777216
370
    -2
100
AcDbLine
 10
971.6938639646485
 20
144.7828505155847
 30
0.0
 11
971.6938639646487
 21
257.1423818782383
 31
0.0
  0
LINE
  5
FBFB
330
F6E7
100
AcDbEntity
  8
DIM
 62
     0
440
 16777216
370
    -2
100
AcDbLine
 10
971.6938639646487
 20
374.7828505155853
 30
0.0
 11
971.6938639646487
 21
262.4233191529318
 31
0.0
  0
SOLID
  5
FBFC
330
F6E7
100
AcDbEntity
  8
DIM
 62
     0
440
 16777216
100
AcDbTrace
 10
970.8605306313152
 20
144.7828505155847
 30
0.0
 11
972.527197297982
 21
144.7828505155847
 31
0.0
 12
971.6938639646485
 22
139.7828505155847
 32
0.0
 13
971.6938639646485
 23
139.7828505155847
 33
0.0
  0
SOLID
  5
FBFD
330
F6E7
100
AcDbEntity
  8
DIM
 62
     0
440
 16777216
100
AcDbTrace
 10
970.8605306313152
 20
374.7828505155853
 30
0.0
 11
972.527197297982
 21
374.7828505155853
 31
0.0
 12
971.6938639646487
 22
379.7828505155853
 32
0.0
 13
971.6938639646487
 23
379.7828505155853
 33
0.0
  0
MTEXT
  5
FBFE
330
F6E7
100
AcDbEntity
  8
DIM
 62
     1
440
 16777216
100
AcDbMText
 10
971.6938639646485
 20
259.7828505155852
 30
0.0
 40
5.0
 41
0.0
 46
0.0
 71
     5
 72
     1
  1
\A1;240.00
 73
     1
 44
1.0
  0
POINT
  5
FBFF
330
F6E7
100
AcDbEntity
  8
DEFPOINTS
 62
     0
440
 16777216
100
AcDbPoint
 10
866.9889344952368
 20
139.7828505155847
 30
0.0
  0
POINT
  5
FC00
330
F6E7
100
AcDbEntity
  8
DEFPOINTS
 62
     0
440
 16777216
100
AcDbPoint
 10
906.9889344952368
 20
379.7828505155853
 30
0.0
  0
POINT
  5
FC01
330
F6E7
100
AcDbEntity
  8
DEFPOINTS
 62
     0
440
 16777216
100
AcDbPoint
 10
971.6938639646487
 20
379.7828505155853
 30
0.0
  0
ENDBLK
  5
F6F3
330
F6E7
100
AcDbEntity
  8
0
100
AcDbBlockEnd
  0
BLOCK
  5
F700
330
F6F5
100
AcDbEntity
  8
0
100
AcDbBlockBegin
  2
*D8
 70
     1
 10
0.0
 20
0.0
 30
0.0
  3
*D8
  1

  0
LINE
  5
FC02
330
F6F5
100
AcDbEntity
  8
DIM
 62
     0
440
 16777216
370
    -2
100
AcDbLine
 10
887.0514344952367
 20
159.7828505155847
 30
0.0
 11
946.3285272015678
 21
159.7828505155847
 31
0.0
  0
LINE
  5
FC03
330
F6F5
100
AcDbEntity
  8
DIM
 62
     0
440
 16777216
370
    -2
100
AcDbLine
 10
907.0514344952368
 20
379.7828505155853
 30
0.0
 11
946.328527201568
 21
379.7828505155853
 31
0.0
  0
LINE
  5
FC04
330
F6F5
100
AcDbEntity
  8
DIM
 62
     0
440
 16777216
370
    -2
100
AcDbLine
 10
946.1485272015679
 20
164.7828505155847
 30
0.0
 11
946.1485272015679
 21
267.1423818782383
 31
0.0
  0
LINE
  5
FC05
330
F6F5
100
AcDbEntity
  8
DIM
 62
     0
440
 16777216
370
    -2
100
AcDbLine
 10
946.1485272015679
 20
374.7828505155853
 30
0.0
 11
946.1485272015679
 21
272.4233191529318
 31
0.0
  0
SOLID
  5
FC06
330
F6F5
100
AcDbEntity
  8
DIM
 62
     0
440
 16777216
100
AcDbTrace
 10
945.3151938682344
 20
164.7828505155847
 30
0.0
 11
946.9818605349011
 21
164.7828505155847
 31
0.0
 12
946.1485272015679
 22
159.7828505155847
 32
0.0
 13
946.1485272015679
 23
159.7828505155847
 33
0.0
  0
SOLID
  5
FC07
330
F6F5
100
AcDbEntity
  8
DIM
 62
     0
440
 16777216
100
AcDbTrace
 10
945.3151938682346
 20
374.7828505155853
 30
0.0
 11
946.9818605349013
 21
374.7828505155853
 31
0.0
 12
946.1485272015679
 22
379.7828505155853
 32
0.0
 13
946.1485272015679
 23
379.7828505155853
 33
0.0
  0
MTEXT
  5
FC08
330
F6F5
100
AcDbEntity
  8
DIM
 62
     1
440
 16777216
100
AcDbMText
 10
946.1485272015679
 20
269.7828505155852
 30
0.0
 40
5.0
 41
0.0
 46
0.0
 71
     5
 72
     1
  1
\A1;220.00
 73
     1
 44
1.0
  0
POINT
  5
FC09
330
F6F5
100
AcDbEntity
  8
DEFPOINTS
 62
     0
440
 16777216
100
AcDbPoint
 10
886.9889344952367
 20
159.7828505155847
 30
0.0
  0
POINT
  5
FC0A
330
F6F5
100
AcDbEntity
  8
DEFPOINTS
 62
     0
440
 16777216
100
AcDbPoint
 10
906.9889344952368
 20
379.7828505155853
 30
0.0
  0
POINT
  5
FC0B
330
F6F5
100
AcDbEntity
  8
DEFPOINTS
 62
     0
440
 16777216
100
AcDbPoint
 10
946.1485272015679
 20
379.7828505155853
 30
0.0
  0
ENDBLK
  5
F701
330
F6F5
100
AcDbEntity
  8
0
100
AcDbBlockEnd
  0
BLOCK
  5
F722
330
F717
100
AcDbEntity
  8
0
100
AcDbBlockBegin
  2
*D9
 70
     1
 10
0.0
 20
0.0
 30
0.0
  3
*D9
  1

  0
LINE
  5
FC18
330
F717
100
AcDbEntity
  8
DIM
 62
     0
440
 16777216
370
    -2
100
AcDbLine
 10
867.0514344952376
 20
139.7203505155846
 30
0.0
 11
867.0514344952376
 21
101.9375424239413
 31
0.0
  0
LINE
  5
FC19
330
F717
100
AcDbEntity
  8
DIM
 62
     0
440
 16777216
370
    -2
100
AcDbLine
 10
557.0514344952377
 20
119.7203505155811
 30
0.0
 11
557.0514344952377
 21
101.9375424239413
 31
0.0
  0
LINE
  5
FC1A
330
F717
100
AcDbEntity
  8
DIM
 62
     0
440
 16777216
370
    -2
100
AcDbLine
 10
862.0514344952377
 20
102.1175424239413
 30
0.0
 11
722.011657999203
 21
102.1175424239413
 31
0.0
  0
LINE
  5
FC1B
330
F717
100
AcDbEntity
  8
DIM
 62
     0
440
 16777216
370
    -2
100
AcDbLine
 10
562.0514344952376
 20
102.1175424239413
 30
0.0
 11
702.0912109912723
 21
102.1175424239413
 31
0.0
  0
SOLID
  5
FC1C
330
F717
100
AcDbEntity
  8
DIM
 62
     0
440
 16777216
100
AcDbTrace
 10
862.0514344952377
 20
102.9508757572747
 30
0.0
 11
862.0514344952377
 21
101.284209090608
 31
0.0
 12
867.0514344952376
 22
102.1175424239413
 32
0.0
 13
867.0514344952376
 23
102.1175424239413
 33
0.0
  0
SOLID
  5
FC1D
330
F717
100
AcDbEntity
  8
DIM
 62
     0
440
 16777216
100
AcDbTrace
 10
562.0514344952376
 20
102.9508757572747
 30
0.0
 11
562.0514344952376
 21
101.284209090608
 31
0.0
 12
557.0514344952377
 22
102.1175424239413
 32
0.0
 13
557.0514344952377
 23
102.1175424239413
 33
0.0
  0
MTEXT
  5
FC1E
330
F717
100
AcDbEntity
  8
DIM
 62
     1
440
 16777216
100
AcDbMText
 10
712.0514344952376
 20
102.1175424239413
 30
0.0
 40
5.0
 41
0.0
 46
0.0
 71
     5
 72
     1
  1
\A1;310.00
 73
     1
 44
1.0
  0
POINT
  5
FC1F
330
F717
100
AcDbEntity
  8
DEFPOINTS
 62
     0
440
 16777216
100
AcDbPoint
 10
867.0514344952376
 20
139.7828505155846
 30
0.0
  0
POINT
  5
FC20
330
F717
100
AcDbEntity
  8
DEFPOINTS
 62
     0
440
 16777216
100
AcDbPoint
 10
557.0514344952377
 20
119.7828505155811
 30
0.0
  0
POINT
  5
FC21
330
F717
100
AcDbEntity
  8
DEFPOINTS
 62
     0
440
 16777216
100
AcDbPoint
 10
557.0514344952377
 20
102.1175424239413
 30
0.0
  0
ENDBLK
  5
F723
330
F717
100
AcDbEntity
  8
0
100
AcDbBlockEnd
  0
BLOCK
  5
F730
330
F725
100
AcDbEntity
  8
0
100
AcDbBlockBegin
  2
*D10
 70
     1
 10
0.0
 20
0.0
 30
0.0
  3
*D10
  1

  0
LINE
  5
FC22
330
F725
100
AcDbEntity
  8
DIM
 62
     0
440
 16777216
370
    -2
100
AcDbLine
 10
887.0514344952377
 20
159.7203505155846
 30
0.0
 11
887.0514344952377
 21
85.50167428227707
 31
0.0
  0
LINE
  5
FC23
330
F725
100
AcDbEntity
  8
DIM
 62
     0
440
 16777216
370
    -2
100
AcDbLine
 10
557.0514344952377
 20
119.7203505155811
 30
0.0
 11
557.0514344952377
 21
85.50167428227707
 31
0.0
  0
LINE
  5
FC24
330
F725
100
AcDbEntity
  8
DIM
 62
     0
440
 16777216
370
    -2
100
AcDbLine
 10
882.0514344952377
 20
85.68167428227708
 30
0.0
 11
732.011657999203
 21
85.68167428227708
 31
0.0
  0
LINE
  5
FC25
330
F725
100
AcDbEntity
  8
DIM
 62
     0
440
 16777216
370
    -2
100
AcDbLine
 10
562.0514344952376
 20
85.68167428227708
 30
0.0
 11
712.0912109912723
 21
85.68167428227708
 31
0.0
  0
SOLID
  5
FC26
330
F725
100
AcDbEntity
  8
DIM
 62
     0
440
 16777216
100
AcDbTrace
 10
882.0514344952377
 20
86.5150076156104
 30
0.0
 11
882.0514344952377
 21
84.84834094894374
 31
0.0
 12
887.0514344952377
 22
85.68167428227708
 32
0.0
 13
887.0514344952377
 23
85.68167428227708
 33
0.0
  0
SOLID
  5
FC27
330
F725
100
AcDbEntity
  8
DIM
 62
     0
440
 16777216
100
AcDbTrace
 10
562.0514344952376
 20
86.5150076156104
 30
0.0
 11
562.0514344952376
 21
84.84834094894374
 31
0.0
 12
557.0514344952377
 22
85.68167428227708
 32
0.0
 13
557.0514344952377
 23
85.68167428227708
 33
0.0
  0
MTEXT
  5
FC28
330
F725
100
AcDbEntity
  8
DIM
 62
     1
440
 16777216
100
AcDbMText
 10
722.0514344952377
 20
85.68167428227708
 30
0.0
 40
5.0
 41
0.0
 46
0.0
 71
     5
 72
     1
  1
\A1;330.00
 73
     1
 44
1.0
  0
POINT
  5
FC29
330
F725
100
AcDbEntity
  8
DEFPOINTS
 62
     0
440
 16777216
100
AcDbPoint
 10
887.0514344952377
 20
159.7828505155846
 30
0.0
  0
POINT
  5
FC2A
330
F725
100
AcDbEntity
  8
DEFPOINTS
 62
     0
440
 16777216
100
AcDbPoint
 10
557.0514344952377
 20
119.7828505155811
 30
0.0
  0
POINT
  5
FC2B
330
F725
100
AcDbEntity
  8
DEFPOINTS
 62
     0
440
 16777216
100
AcDbPoint
 10
557.0514344952377
 20
85.68167428227708
 30
0.0
  0
ENDBLK
  5
F731
330
F725
100
AcDbEntity
  8
0
100
AcDbBlockEnd
  0
BLOCK
  5
F754
330
F749
100
AcDbEntity
  8
0
100
AcDbBlockBegin
  2
*D11
 70
     1
 10
0.0
 20
0.0
 30
0.0
  3
*D11
  1

  0
LINE
  5
FB20
330
F749
100
AcDbEntity
  8
DIM
 62
     0
440
 16777216
370
    -2
100
AcDbLine
 10
907.0514344952377
 20
4.346445268332672
 30
0.0
 11
934.2876536708342
 21
4.346445268332664
 31
0.0
  0
LINE
  5
FB21
330
F749
100
AcDbEntity
  8
DIM
 62
     0
440
 16777216
370
    -2
100
AcDbLine
 10
806.3793408204054
 20
-186.6535547316685
 30
0.0
 11
934.2876536708343
 21
-186.6535547316685
 31
0.0
  0
LINE
  5
FB22
330
F749
100
AcDbEntity
  8
DIM
 62
     0
440
 16777216
370
    -2
100
AcDbLine
 10
934.1076536708342
 20
-0.6535547316673349
 30
0.0
 11
934.1076536708342
 21
-88.51308609432114
 31
0.0
  0
LINE
  5
FB23
330
F749
100
AcDbEntity
  8
DIM
 62
     0
440
 16777216
370
    -2
100
AcDbLine
 10
934.1076536708342
 20
-181.6535547316685
 30
0.0
 11
934.1076536708342
 21
-93.79402336901472
 31
0.0
  0
SOLID
  5
FB24
330
F749
100
AcDbEntity
  8
DIM
 62
     0
440
 16777216
100
AcDbTrace
 10
933.2743203375008
 20
-0.6535547316673349
 30
0.0
 11
934.9409870041675
 21
-0.6535547316673352
 31
0.0
 12
934.1076536708342
 22
4.346445268332664
 32
0.0
 13
934.1076536708342
 23
4.346445268332664
 33
0.0
  0
SOLID
  5
FB25
330
F749
100
AcDbEntity
  8
DIM
 62
     0
440
 16777216
100
AcDbTrace
 10
933.2743203375008
 20
-181.6535547316685
 30
0.0
 11
934.9409870041675
 21
-181.6535547316685
 31
0.0
 12
934.1076536708342
 22
-186.6535547316685
 32
0.0
 13
934.1076536708342
 23
-186.6535547316685
 33
0.0
  0
MTEXT
  5
FB26
330
F749
100
AcDbEntity
  8
DIM
 62
     1
440
 16777216
100
AcDbMText
 10
934.1076536708342
 20
-91.15355473166777
 30
0.0
 40
5.0
 41
0.0
 46
0.0
 71
     5
 72
     1
  1
\A1;191.00±1
 73
     1
 44
1.0
  0
POINT
  5
FB27
330
F749
100
AcDbEntity
  8
DEFPOINTS
 62
     0
440
 16777216
100
AcDbPoint
 10
906.9889344952377
 20
4.346445268332672
 30
0.0
  0
POINT
  5
FB28
330
F749
100
AcDbEntity
  8
DEFPOINTS
 62
     0
440
 16777216
100
AcDbPoint
 10
806.3168408204054
 20
-186.6535547316685
 30
0.0
  0
POINT
  5
FB29
330
F749
100
AcDbEntity
  8
DEFPOINTS
 62
     0
440
 16777216
100
AcDbPoint
 10
934.1076536708342
 20
-186.6535547316685
 30
0.0
  0
ENDBLK
  5
F755
330
F749
100
AcDbEntity
  8
0
100
AcDbBlockEnd
  0
BLOCK
  5
F762
330
F757
100
AcDbEntity
  8
0
100
AcDbBlockBegin
  2
*D12
 70
     1
 10
0.0
 20
0.0
 30
0.0
  3
*D12
  1

  0
LINE
  5
FB0C
330
F757
100
AcDbEntity
  8
DIM
 62
     0
440
 16777216
370
    -2
100
AcDbLine
 10
207.0514344952377
 20
4.346445268332672
 30
0.0
 11
190.2391469731231
 21
4.346445268332677
 31
0.0
  0
LINE
  5
FB0D
330
F757
100
AcDbEntity
  8
DIM
 62
     0
440
 16777216
370
    -2
100
AcDbLine
 10
369.0735281700623
 20
-212.65355473167
 30
0.0
 11
190.2391469731231
 21
-212.65355473167
 31
0.0
  0
LINE
  5
FB0E
330
F757
100
AcDbEntity
  8
DIM
 62
     0
440
 16777216
370
    -2
100
AcDbLine
 10
190.4191469731231
 20
-0.6535547316673226
 30
0.0
 11
190.4191469731231
 21
-101.5130860943219
 31
0.0
  0
LINE
  5
FB0F
330
F757
100
AcDbEntity
  8
DIM
 62
     0
440
 16777216
370
    -2
100
AcDbLine
 10
190.4191469731231
 20
-207.65355473167
 30
0.0
 11
190.4191469731231
 21
-106.7940233690154
 31
0.0
  0
SOLID
  5
FB10
330
F757
100
AcDbEntity
  8
DIM
 62
     0
440
 16777216
100
AcDbTrace
 10
189.5858136397898
 20
-0.6535547316673224
 30
0.0
 11
191.2524803064565
 21
-0.6535547316673229
 31
0.0
 12
190.4191469731231
 22
4.346445268332677
 32
0.0
 13
190.4191469731231
 23
4.346445268332677
 33
0.0
  0
SOLID
  5
FB11
330
F757
100
AcDbEntity
  8
DIM
 62
     0
440
 16777216
100
AcDbTrace
 10
189.5858136397897
 20
-207.65355473167
 30
0.0
 11
191.2524803064564
 21
-207.65355473167
 31
0.0
 12
190.4191469731231
 22
-212.65355473167
 32
0.0
 13
190.4191469731231
 23
-212.65355473167
 33
0.0
  0
MTEXT
  5
FB12
330
F757
100
AcDbEntity
  8
DIM
 62
     1
440
 16777216
100
AcDbMText
 10
190.4191469731231
 20
-104.1535547316686
 30
0.0
 40
5.0
 41
0.0
 46
0.0
 71
     5
 72
     1
  1
\A1;217.00±1
 73
     1
 44
1.0
  0
POINT
  5
FB13
330
F757
100
AcDbEntity
  8
DEFPOINTS
 62
     0
440
 16777216
100
AcDbPoint
 10
207.1139344952377
 20
4.346445268332672
 30
0.0
  0
POINT
  5
FB14
330
F757
100
AcDbEntity
  8
DEFPOINTS
 62
     0
440
 16777216
100
AcDbPoint
 10
369.1360281700623
 20
-212.65355473167
 30
0.0
  0
POINT
  5
FB15
330
F757
100
AcDbEntity
  8
DEFPOINTS
 62
     0
440
 16777216
100
AcDbPoint
 10
190.4191469731231
 20
-212.65355473167
 30
0.0
  0
ENDBLK
  5
F763
330
F757
100
AcDbEntity
  8
0
100
AcDbBlockEnd
  0
BLOCK
  5
FC16
330
FC0D
100
AcDbEntity
  8
0
100
AcDbBlockBegin
  2
*D13
 70
     1
 10
0.0
 20
0.0
 30
0.0
  3
*D13
  1

  0
LINE
  5
FC0E
330
FC0D
100
AcDbEntity
  8
DIM
 62
     0
440
 16777216
370
    -2
100
AcDbLine
 10
911.799065701995
 20
127.5577182912184
 30
0.0
 11
906.7990657019949
 21
127.5577182912184
 31
0.0
  0
LINE
  5
FC0F
330
FC0D
100
AcDbEntity
  8
DIM
 62
     0
440
 16777216
370
    -2
100
AcDbLine
 10
906.7990657019949
 20
127.5577182912184
 30
0.0
 11
886.470967993956
 21
144.0385906507272
 31
0.0
  0
MTEXT
  5
FC10
330
FC0D
100
AcDbEntity
  8
DIM
 62
     1
440
 16777216
100
AcDbMText
 10
922.4622452261478
 20
127.5577182912184
 30
0.0
 40
5.0
 41
0.0
 46
0.0
 71
     5
 72
     1
  1
\A1;R20.00
 73
     1
 44
1.0
  0
SOLID
  5
FC11
330
FC0D
100
AcDbEntity
  8
DIM
 62
     0
440
 16777216
100
AcDbTrace
 10
886.995776656118
 20
144.6859084340179
 30
0.0
 11
885.9461593317941
 21
143.3912728674366
 31
0.0
 12
882.5870612942123
 22
147.1874426236987
 32
0.0
 13
882.5870612942123
 23
147.1874426236987
 33
0.0
  0
LINE
  5
FC12
330
FC0D
100
AcDbEntity
  8
DIM
 62
     0
440
 16777216
370
    -2
100
AcDbLine
 10
866.961434495238
 20
159.7828505155849
 30
0.0
 11
867.1414344952381
 21
159.7828505155848
 31
0.0
  0
LINE
  5
FC13
330
FC0D
100
AcDbEntity
  8
DIM
 62
     0
440
 16777216
370
    -2
100
AcDbLine
 10
867.051434495238
 20
159.6928505155849
 30
0.0
 11
867.051434495238
 21
159.8728505155849
 31
0.0
  0
POINT
  5
FC14
330
FC0D
100
AcDbEntity
  8
DEFPOINTS
 62
     0
440
 16777216
100
AcDbPoint
 10
882.5870612942123
 20
147.1874426236987
 30
0.0
  0
POINT
  5
FC15
330
FC0D
100
AcDbEntity
  8
DEFPOINTS
 62
     0
440
 16777216
100
AcDbPoint
 10
867.051434495238
 20
159.7828505155848
 30
0.0
  0
ENDBLK
  5
FC17
330
FC0D
100
AcDbEntity
  8
0
100
AcDbBlockEnd
  0
BLOCK
  5
FCFD
330
FCF2
100
AcDbEntity
  8
0
100
AcDbBlockBegin
  2
*D14
 70
     1
 10
0.0
 20
0.0
 30
0.0
  3
*D14
  1

  0
LINE
  5
FD2B
330
FCF2
100
AcDbEntity
  8
DIM
 62
     0
440
 16777216
370
    -2
100
AcDbLine
 10
206.9889344952377
 20
579.7828505155838
 30
0.0
 11
158.169040482634
 21
579.7828505155838
 31
0.0
  0
LINE
  5
FD2C
330
FCF2
100
AcDbEntity
  8
DIM
 62
     0
440
 16777216
370
    -2
100
AcDbLine
 10
214.9889344952377
 20
119.7828505155837
 30
0.0
 11
158.1690404826338
 21
119.7828505155837
 31
0.0
  0
LINE
  5
FD2D
330
FCF2
100
AcDbEntity
  8
DIM
 62
     0
440
 16777216
370
    -2
100
AcDbLine
 10
158.3490404826339
 20
574.7828505155838
 30
0.0
 11
158.3490404826339
 21
352.4233191529305
 31
0.0
  0
LINE
  5
FD2E
330
FCF2
100
AcDbEntity
  8
DIM
 62
     0
440
 16777216
370
    -2
100
AcDbLine
 10
158.3490404826339
 20
124.7828505155837
 30
0.0
 11
158.3490404826339
 21
347.142381878237
 31
0.0
  0
SOLID
  5
FD2F
330
FCF2
100
AcDbEntity
  8
DIM
 62
     0
440
 16777216
100
AcDbTrace
 10
157.5157071493006
 20
574.7828505155838
 30
0.0
 11
159.1823738159673
 21
574.7828505155838
 31
0.0
 12
158.349040482634
 22
579.7828505155838
 32
0.0
 13
158.349040482634
 23
579.7828505155838
 33
0.0
  0
SOLID
  5
FD30
330
FCF2
100
AcDbEntity
  8
DIM
 62
     0
440
 16777216
100
AcDbTrace
 10
157.5157071493005
 20
124.7828505155837
 30
0.0
 11
159.1823738159672
 21
124.7828505155837
 31
0.0
 12
158.3490404826339
 22
119.7828505155837
 32
0.0
 13
158.3490404826339
 23
119.7828505155837
 33
0.0
  0
MTEXT
  5
FD31
330
FCF2
100
AcDbEntity
  8
DIM
 62
     1
440
 16777216
100
AcDbMText
 10
158.3490404826339
 20
349.7828505155838
 30
0.0
 40
5.0
 41
0.0
 46
0.0
 71
     5
 72
     1
  1
\A1;460.00±1
 73
     1
 44
1.0
  0
POINT
  5
FD32
330
FCF2
100
AcDbEntity
  8
DEFPOINTS
 62
     0
440
 16777216
100
AcDbPoint
 10
207.0514344952377
 20
579.7828505155838
 30
0.0
  0
POINT
  5
FD33
330
FCF2
100
AcDbEntity
  8
DEFPOINTS
 62
     0
440
 16777216
100
AcDbPoint
 10
215.0514344952377
 20
119.7828505155837
 30
0.0
  0
POINT
  5
FD34
330
FCF2
100
AcDbEntity
  8
DEFPOINTS
 62
     0
440
 16777216
100
AcDbPoint
 10
158.3490404826339
 20
119.7828505155837
 30
0.0
  0
ENDBLK
  5
FCFE
330
FCF2
100
AcDbEntity
  8
0
100
AcDbBlockEnd
  0
BLOCK
  5
FD0B
330
FD00
100
AcDbEntity
  8
0
100
AcDbBlockBegin
  2
*D15
 70
     1
 10
0.0
 20
0.0
 30
0.0
  3
*D15
  1

  0
LINE
  5
FD01
330
FD00
100
AcDbEntity
  8
DIM
 62
     0
440
 16777216
370
    -2
100
AcDbLine
 10
206.9889344952377
 20
379.7828505155836
 30
0.0
 11
189.0177769180226
 21
379.7828505155836
 31
0.0
  0
LINE
  5
FD02
330
FD00
100
AcDbEntity
  8
DIM
 62
     0
440
 16777216
370
    -2
100
AcDbLine
 10
214.9889344952377
 20
119.7828505155837
 30
0.0
 11
189.0177769180225
 21
119.7828505155837
 31
0.0
  0
LINE
  5
FD03
330
FD00
100
AcDbEntity
  8
DIM
 62
     0
440
 16777216
370
    -2
100
AcDbLine
 10
189.1977769180226
 20
374.7828505155836
 30
0.0
 11
189.1977769180226
 21
252.4233191529305
 31
0.0
  0
LINE
  5
FD04
330
FD00
100
AcDbEntity
  8
DIM
 62
     0
440
 16777216
370
    -2
100
AcDbLine
 10
189.1977769180225
 20
124.7828505155837
 30
0.0
 11
189.1977769180226
 21
247.1423818782369
 31
0.0
  0
SOLID
  5
FD05
330
FD00
100
AcDbEntity
  8
DIM
 62
     0
440
 16777216
100
AcDbTrace
 10
188.3644435846892
 20
374.7828505155836
 30
0.0
 11
190.0311102513559
 21
374.7828505155836
 31
0.0
 12
189.1977769180226
 22
379.7828505155836
 32
0.0
 13
189.1977769180226
 23
379.7828505155836
 33
0.0
  0
SOLID
  5
FD06
330
FD00
100
AcDbEntity
  8
DIM
 62
     0
440
 16777216
100
AcDbTrace
 10
188.3644435846892
 20
124.7828505155837
 30
0.0
 11
190.0311102513559
 21
124.7828505155837
 31
0.0
 12
189.1977769180225
 22
119.7828505155837
 32
0.0
 13
189.1977769180225
 23
119.7828505155837
 33
0.0
  0
MTEXT
  5
FD07
330
FD00
100
AcDbEntity
  8
DIM
 62
     1
440
 16777216
100
AcDbMText
 10
189.1977769180225
 20
249.7828505155837
 30
0.0
 40
5.0
 41
0.0
 46
0.0
 71
     5
 72
     1
  1
\A1;260.00
 73
     1
 44
1.0
  0
POINT
  5
FD08
330
FD00
100
AcDbEntity
  8
DEFPOINTS
 62
     0
440
 16777216
100
AcDbPoint
 10
207.0514344952377
 20
379.7828505155836
 30
0.0
  0
POINT
  5
FD09
330
FD00
100
AcDbEntity
  8
DEFPOINTS
 62
     0
440
 16777216
100
AcDbPoint
 10
215.0514344952377
 20
119.7828505155837
 30
0.0
  0
POINT
  5
FD0A
330
FD00
100
AcDbEntity
  8
DEFPOINTS
 62
     0
440
 16777216
100
AcDbPoint
 10
189.1977769180225
 20
119.7828505155837
 30
0.0
  0
ENDBLK
  5
FD0C
330
FD00
100
AcDbEntity
  8
0
100
AcDbBlockEnd
  0
ENDSEC
  0
SECTION
  2
ENTITIES
  0
DIMENSION
  5
F626
330
18
100
AcDbEntity
  8
DIM
100
AcDbDimension
280
     0
  2
*D0
 10
907.0514344952378
 20
620.9202219486383
 30
0.0
 11
557.0514344952377
 21
620.9202219486383
 31
0.0
 70
    32
 71
     5
 42
700.0
 73
     0
 74
     0
 75
     0
  3
STANDARD
100
AcDbAlignedDimension
 13
207.0514344952378
 23
571.7203505155859
 33
0.0
 14
907.0514344952378
 24
571.7203505155869
 34
0.0
100
AcDbRotatedDimension
  0
DIMENSION
  5
F634
330
18
100
AcDbEntity
  8
DIM
100
AcDbDimension
280
     0
  2
*D1
 10
557.0514344952377
 20
605.6063291035957
 30
0.0
 11
382.0514344952378
 21
605.6063291035957
 31
0.0
 70
    32
 71
     5
 42
350.0
 73
     0
 74
     0
 75
     0
  3
STANDARD
100
AcDbAlignedDimension
 13
207.0514344952378
 23
571.7203505155859
 33
0.0
 14
557.0514344952377
 24
579.7203505155843
 34
0.0
100
AcDbRotatedDimension
  0
DIMENSION
  5
F692
330
18
100
AcDbEntity
  8
DIM
100
AcDbDimension
280
     0
  2
*D2
 10
557.0514344952377
 20
509.4671139534234
 30
0.0
 11
490.9514344952358
 21
509.4671139534234
 31
0.0
 70
    32
 71
     5
 42
132.2000000000036
 73
     0
 74
     0
 75
     0
  3
STANDARD
100
AcDbAlignedDimension
 13
424.851434495234
 23
429.7828505155828
 33
0.0
 14
557.0514344952377
 24
379.7828505155814
 34
0.0
100
AcDbRotatedDimension
  0
DIMENSION
  5
F6A0
330
18
100
AcDbEntity
  8
DIM
100
AcDbDimension
280
     0
  2
*D3
 10
750.601434495236
 20
509.4671139534234
 30
0.0
 11
653.8264344952368
 21
509.4671139534234
 31
0.0
 70
    32
 71
     5
 42
193.5499999999983
 73
     0
 74
     0
 75
     0
  3
STANDARD
100
AcDbAlignedDimension
 13
557.0514344952377
 23
379.7828505155814
 33
0.0
 14
750.601434495236
 24
429.7828505155846
 34
0.0
100
AcDbRotatedDimension
  0
DIMENSION
  5
F6BC
330
18
100
AcDbEntity
  8
DIM
100
AcDbDimension
280
     0
  2
*D4
 10
329.6894551069954
 20
429.7828505155828
 30
0.0
 11
329.6894551069953
 21
404.7828505155829
 31
0.0
 70
    32
 71
     5
 42
50.0
 73
     0
 74
     0
 75
     0
  3
STANDARD
100
AcDbAlignedDimension
 13
354.913934495237
 23
379.7828505155828
 33
0.0
 14
354.9139344952351
 24
429.7828505155828
 34
0.0
 50
90.0
100
AcDbRotatedDimension
  0
DIMENSION
  5
F6CA
330
18
100
AcDbEntity
  8
DIM
100
AcDbDimension
280
     0
  2
*D5
 10
946.1485272015679
 20
379.7828505155853
 30
0.0
 11
946.1485272015679
 21
464.7828505155851
 31
0.0
 70
    32
 71
     5
 42
169.9999999999994
 73
     0
 74
     0
 75
     0
  3
STANDARD
100
AcDbAlignedDimension
 13
886.9889344952385
 23
549.7828505155847
 33
0.0
 14
906.9889344952368
 24
379.7828505155853
 34
0.0
 50
90.0
100
AcDbRotatedDimension
  0
DIMENSION
  5
F6D8
330
18
100
AcDbEntity
  8
DIM
100
AcDbDimension
280
     0
  2
*D6
 10
971.6938639646487
 20
379.7828505155853
 30
0.0
 11
971.6938639646485
 21
474.7828505155852
 31
0.0
 70
    32
 71
     5
 42
189.9999999999994
 73
     0
 74
     0
 75
     0
  3
STANDARD
100
AcDbAlignedDimension
 13
866.9889344952386
 23
569.7828505155847
 33
0.0
 14
906.9889344952368
 24
379.7828505155853
 34
0.0
 50
90.0
100
AcDbRotatedDimension
  0
DIMENSION
  5
F6E6
330
18
100
AcDbEntity
  8
DIM
100
AcDbDimension
280
     0
  2
*D7
 10
971.6938639646487
 20
379.7828505155853
 30
0.0
 11
971.6938639646485
 21
259.7828505155852
 31
0.0
 70
    32
 71
     5
 42
240.0000000000006
 73
     0
 74
     0
 75
     0
  3
STANDARD
100
AcDbAlignedDimension
 13
866.9889344952368
 23
139.7828505155847
 33
0.0
 14
906.9889344952368
 24
379.7828505155853
 34
0.0
 50
90.0
100
AcDbRotatedDimension
  0
DIMENSION
  5
F6F4
330
18
100
AcDbEntity
  8
DIM
100
AcDbDimension
280
     0
  2
*D8
 10
946.1485272015679
 20
379.7828505155853
 30
0.0
 11
946.1485272015679
 21
269.7828505155852
 31
0.0
 70
    32
 71
     5
 42
220.0000000000006
 73
     0
 74
     0
 75
     0
  3
STANDARD
100
AcDbAlignedDimension
 13
886.9889344952367
 23
159.7828505155847
 33
0.0
 14
906.9889344952368
 24
379.7828505155853
 34
0.0
 50
90.0
100
AcDbRotatedDimension
  0
DIMENSION
  5
F716
330
18
100
AcDbEntity
  8
DIM
100
AcDbDimension
280
     0
  2
*D9
 10
557.0514344952377
 20
102.1175424239413
 30
0.0
 11
712.0514344952376
 21
102.1175424239413
 31
0.0
 70
    32
 71
     5
 42
310.0
 73
     0
 74
     0
 75
     0
  3
STANDARD
100
AcDbAlignedDimension
 13
867.0514344952376
 23
139.7828505155846
 33
0.0
 14
557.0514344952377
 24
119.7828505155811
 34
0.0
100
AcDbRotatedDimension
  0
DIMENSION
  5
F724
330
18
100
AcDbEntity
  8
DIM
100
AcDbDimension
280
     0
  2
*D10
 10
557.0514344952377
 20
85.68167428227708
 30
0.0
 11
722.0514344952377
 21
85.68167428227708
 31
0.0
 70
    32
 71
     5
 42
330.0
 73
     0
 74
     0
 75
     0
  3
STANDARD
100
AcDbAlignedDimension
 13
887.0514344952377
 23
159.7828505155846
 33
0.0
 14
557.0514344952377
 24
119.7828505155811
 34
0.0
100
AcDbRotatedDimension
  0
DIMENSION
  5
F748
330
18
100
AcDbEntity
  8
DIM
100
AcDbDimension
280
     0
  2
*D11
 10
934.1076536708342
 20
-186.6535547316685
 30
0.0
 11
934.1076536708342
 21
-91.15355473166777
 31
0.0
 70
    32
 71
     5
 42
191.0000000000012
 73
     0
 74
     0
 75
     0
  3
STANDARD
100
AcDbAlignedDimension
 13
906.9889344952377
 23
4.346445268332672
 33
0.0
 14
806.3168408204054
 24
-186.6535547316685
 34
0.0
 50
90.0
100
AcDbRotatedDimension
1001
ACAD
1000
DSTYLE
1002
{
1070
    47
1040
1.0
1070
   272
1070
     0
1070
   147
1040
0.09
1070
    48
1040
1.0
1070
    72
1070
     0
1070
    71
1070
     1
1002
}
  0
DIMENSION
  5
F756
330
18
100
AcDbEntity
  8
DIM
100
AcDbDimension
280
     0
  2
*D12
 10
190.4191469731231
 20
-212.65355473167
 30
0.0
 11
190.4191469731231
 21
-104.1535547316686
 31
0.0
 70
    32
 71
     5
 42
217.0000000000027
 73
     0
 74
     0
 75
     0
  3
STANDARD
100
AcDbAlignedDimension
 13
207.1139344952377
 23
4.346445268332672
 33
0.0
 14
369.1360281700623
 24
-212.65355473167
 34
0.0
 50
90.0
100
AcDbRotatedDimension
1001
ACAD
1000
DSTYLE
1002
{
1070
    47
1040
1.0
1070
   272
1070
     0
1070
   147
1040
0.09
1070
    48
1040
1.0
1070
    72
1070
     0
1070
    71
1070
     1
1002
}
  0
ARC
  5
F9A4
330
18
100
AcDbEntity
  8
SINK
100
AcDbCircle
 39
0.4
 10
869.0514344952376
 20
157.7828505155846
 30
0.0
 40
8.0
100
AcDbArc
 50
270.0
 51
0.0
  0
ARC
  5
F9A5
330
18
100
AcDbEntity
  8
SINK
100
AcDbCircle
 39
0.4
 10
654.1514344952344
 20
179.7828505155874
 30
0.0
 40
20.0
100
AcDbArc
 50
180.0
 51
270.0
  0
LINE
  5
F9A6
330
18
100
AcDbEntity
  8
SINK
100
AcDbLine
 39
0.4
 10
654.1514344952344
 20
159.7828505155874
 30
0.0
 11
847.0514344952412
 21
159.7828505155846
 31
0.0
  0
LINE
  5
F9A7
330
18
100
AcDbEntity
  8
SINK
100
AcDbLine
 39
0.4
 10
654.1514344952344
 20
549.7828505155873
 30
0.0
 11
847.0514344952412
 21
549.7828505155846
 31
0.0
  0
ARC
  5
F9A8
330
18
100
AcDbEntity
  8
SINK
100
AcDbCircle
 39
0.4
 10
847.0514344952412
 20
529.7828505155846
 30
0.0
 40
20.0
100
AcDbArc
 50
0.0
 51
90.0
  0
CIRCLE
  5
F9A9
330
18
100
AcDbEntity
  8
SINK
100
AcDbCircle
 39
0.4
 10
751.3514344952351
 20
429.7828505155846
 30
0.0
 40
45.0
  0
CIRCLE
  5
F9AA
330
18
100
AcDbEntity
  8
SINK
100
AcDbCircle
 39
0.4
 10
751.3514344952351
 20
429.7828505155846
 30
0.0
 40
57.5
  0
CIRCLE
  5
F9AB
330
18
100
AcDbEntity
  8
SINK
100
AcDbCircle
 39
0.4
 10
751.3514344952351
 20
429.7828505155846
 30
0.0
 40
59.5
  0
ARC
  5
F9AC
330
18
100
AcDbEntity
  8
SINK
100
AcDbCircle
 39
0.4
 10
245.0514344952377
 20
157.7828505155837
 30
0.0
 40
8.0
100
AcDbArc
 50
180.0
 51
270.0
  0
LINE
  5
F9AD
330
18
100
AcDbEntity
  8
SINK
100
AcDbLine
 39
0.4
 10
869.0514344952376
 20
149.7828505155846
 30
0.0
 11
245.0514344952377
 21
149.7828505155837
 31
0.0
  0
LINE
  5
F9AE
330
18
100
AcDbEntity
  8
SINK
100
AcDbLine
 39
0.4
 10
582.6514344952344
 20
159.7828505155874
 30
0.0
 11
267.0514344952341
 21
159.7828505155837
 31
0.0
  0
CIRCLE
  5
F9AF
330
18
100
AcDbEntity
  8
SINK
100
AcDbCircle
 39
0.4
 10
424.8514344952351
 20
429.7828505155828
 30
0.0
 40
59.5
  0
CIRCLE
  5
F9B0
330
18
100
AcDbEntity
  8
SINK
100
AcDbCircle
 39
0.4
 10
424.8514344952351
 20
429.7828505155828
 30
0.0
 40
57.5
  0
CIRCLE
  5
F9B1
330
18
100
AcDbEntity
  8
SINK
100
AcDbCircle
 39
0.4
 10
424.8514344952351
 20
429.7828505155828
 30
0.0
 40
45.0
  0
ARC
  5
F9B2
330
18
100
AcDbEntity
  8
SINK
100
AcDbCircle
 39
0.4
 10
582.6514344952344
 20
179.7828505155874
 30
0.0
 40
20.0
100
AcDbArc
 50
270.0
 51
0.0
  0
ARC
  5
F9B3
330
18
100
AcDbEntity
  8
SINK
100
AcDbCircle
 39
0.4
 10
267.0514344952341
 20
529.7828505155837
 30
0.0
 40
20.0
100
AcDbArc
 50
90.0
 51
180.0
  0
LINE
  5
F9B4
330
18
100
AcDbEntity
  8
SINK
100
AcDbLine
 39
0.4
 10
582.6514344952344
 20
549.7828505155873
 30
0.0
 11
267.0514344952341
 21
549.7828505155837
 31
0.0
  0
LINE
  5
F9B5
330
18
100
AcDbEntity
  8
CL
  6
Continuous
100
AcDbLine
 39
0.4
 10
932.0514344952377
 20
379.7828505155856
 30
0.0
 11
932.0514344952377
 21
399.7828505155855
 31
0.0
  0
LINE
  5
F9B6
102
{ACAD_REACTORS
330
FA09
102
}
330
18
100
AcDbEntity
  8
CL
  6
Continuous
100
AcDbLine
 39
0.4
 10
934.0514344952376
 20
397.2828505155856
 30
0.0
 11
932.0514344952377
 21
404.7828505155855
 31
0.0
  0
LINE
  5
F9B7
102
{ACAD_REACTORS
330
FA09
102
}
330
18
100
AcDbEntity
  8
CL
  6
Continuous
100
AcDbLine
 39
0.4
 10
932.0514344952377
 20
399.7828505155855
 30
0.0
 11
934.0514344952376
 21
397.2828505155856
 31
0.0
  0
LINE
  5
F9B8
102
{ACAD_REACTORS
330
FA09
102
}
330
18
100
AcDbEntity
  8
CL
  6
Continuous
100
AcDbLine
 39
0.4
 10
930.0514344952377
 20
397.2828505155856
 30
0.0
 11
932.0514344952377
 21
399.7828505155855
 31
0.0
  0
LINE
  5
F9B9
102
{ACAD_REACTORS
330
FA09
102
}
330
18
100
AcDbEntity
  8
CL
  6
Continuous
100
AcDbLine
 39
0.4
 10
932.0514344952377
 20
404.7828505155855
 30
0.0
 11
930.0514344952377
 21
397.2828505155856
 31
0.0
  0
LINE
  5
F9BA
330
18
100
AcDbEntity
  8
CL
  6
Continuous
100
AcDbLine
 39
0.4
 10
182.0514344952377
 20
379.7828505155838
 30
0.0
 11
182.0514344952377
 21
399.7828505155837
 31
0.0
  0
LINE
  5
F9BB
102
{ACAD_REACTORS
330
F9DD
102
}
330
18
100
AcDbEntity
  8
CL
  6
Continuous
100
AcDbLine
 39
0.4
 10
184.0514344952377
 20
397.2828505155837
 30
0.0
 11
182.0514344952377
 21
404.7828505155837
 31
0.0
  0
LINE
  5
F9BC
102
{ACAD_REACTORS
330
F9DD
102
}
330
18
100
AcDbEntity
  8
CL
  6
Continuous
100
AcDbLine
 39
0.4
 10
182.0514344952377
 20
399.7828505155837
 30
0.0
 11
184.0514344952377
 21
397.2828505155837
 31
0.0
  0
LINE
  5
F9BD
102
{ACAD_REACTORS
330
F9DD
102
}
330
18
100
AcDbEntity
  8
CL
  6
Continuous
100
AcDbLine
 39
0.4
 10
180.0514344952377
 20
397.2828505155837
 30
0.0
 11
182.0514344952377
 21
399.7828505155837
 31
0.0
  0
LINE
  5
F9BE
102
{ACAD_REACTORS
330
F9DD
102
}
330
18
100
AcDbEntity
  8
CL
  6
Continuous
100
AcDbLine
 39
0.4
 10
182.0514344952377
 20
404.7828505155837
 30
0.0
 11
180.0514344952377
 21
397.2828505155837
 31
0.0
  0
LINE
  5
F9C9
330
18
100
AcDbEntity
  8
SINK
100
AcDbLine
 10
899.0514344952377
 20
119.7828505155846
 30
0.0
 11
215.0514344952377
 21
119.7828505155837
 31
0.0
  0
LINE
  5
F9CA
330
18
100
AcDbEntity
  8
SINK
  6
DASHED2
100
AcDbLine
 10
867.0514344952376
 20
139.7828505155846
 30
0.0
 11
247.0514344952359
 21
139.7828505155837
 31
0.0
  0
ARC
  5
F9CB
330
18
100
AcDbEntity
  8
SINK
  6
DASHED2
100
AcDbCircle
 10
247.0514344952359
 20
159.7828505155837
 30
0.0
 40
20.0
100
AcDbArc
 50
180.0
 51
270.0
  0
LINE
  5
F9CC
330
18
100
AcDbEntity
  8
CL
  6
CENTER2
100
AcDbLine
 10
932.0514344952377
 20
379.7828505155856
 30
0.0
 11
821.3514344952333
 21
379.7828505155846
 31
0.0
  0
LINE
  5
F9CE
330
18
100
AcDbEntity
  8
SINK
100
AcDbLine
 10
869.0514344952413
 20
559.7828505155837
 30
0.0
 11
245.051434495234
 21
559.7828505155828
 31
0.0
  0
LINE
  5
F9CF
330
18
100
AcDbEntity
  8
SINK
  6
DASHED2
100
AcDbLine
 10
867.0514344952358
 20
569.7828505155828
 30
0.0
 11
247.0514344952377
 21
569.7828505155837
 31
0.0
  0
ARC
  5
F9D0
330
18
100
AcDbEntity
  8
SINK
  6
DASHED2
100
AcDbCircle
 10
247.0514344952377
 20
549.7828505155837
 30
0.0
 40
20.0
100
AcDbArc
 50
90.0
 51
180.0
  0
LINE
  5
F9D1
330
18
100
AcDbEntity
  8
SINK
100
AcDbLine
 10
634.1514344952344
 20
179.7828505155874
 30
0.0
 11
634.1514344952344
 21
529.7828505155873
 31
0.0
  0
LINE
  5
F9D2
330
18
100
AcDbEntity
  8
CL
100
AcDbLine
 10
424.8514344952344
 20
359.7828505155828
 30
0.0
 11
424.8514344952338
 21
499.7828505155828
 31
0.0
  0
LINE
  5
F9D3
330
18
100
AcDbEntity
  8
SINK
100
AcDbLine
 10
602.6514344952344
 20
179.7828505155874
 30
0.0
 11
602.6514344952344
 21
529.7828505155873
 31
0.0
  0
LINE
  5
F9D4
330
18
100
AcDbEntity
  8
CL
  6
CENTER2
100
AcDbLine
 10
557.0514344952377
 20
94.78285051558373
 30
0.0
 11
557.0514344952377
 21
604.7828505155843
 31
0.0
  0
LINE
  5
F9D5
330
18
100
AcDbEntity
  8
SINK
100
AcDbLine
 10
247.0514344952377
 20
179.7828505155846
 30
0.0
 11
247.0514344952341
 21
529.7828505155837
 31
0.0
  0
LINE
  5
F9D6
330
18
100
AcDbEntity
  8
SINK
100
AcDbLine
 10
207.0514344952377
 20
127.7828505155837
 30
0.0
 11
207.0514344952377
 21
579.7828505155838
 31
0.0
  0
LINE
  5
F9D7
330
18
100
AcDbEntity
  8
SINK
  6
DASHED2
100
AcDbLine
 10
227.0514344952359
 20
159.7828505155837
 30
0.0
 11
227.0514344952377
 21
549.7828505155837
 31
0.0
  0
LINE
  5
F9D8
330
18
100
AcDbEntity
  8
SINK
100
AcDbLine
 10
237.0514344952377
 20
157.7828505155837
 30
0.0
 11
237.051434495234
 21
551.7828505155828
 31
0.0
  0
LINE
  5
F9D9
330
18
100
AcDbEntity
  8
CL
  6
CENTER2
100
AcDbLine
 10
354.8514344952388
 20
379.7828505155828
 30
0.0
 11
182.8014344952377
 21
379.7828505155838
 31
0.0
  0
ARC
  5
F9DA
330
18
100
AcDbEntity
  8
SINK
100
AcDbCircle
 10
267.0514344952377
 20
179.7828505155846
 30
0.0
 40
20.0
100
AcDbArc
 50
180.0
 51
270.0
  0
ARC
  5
F9DB
330
18
100
AcDbEntity
  8
SINK
100
AcDbCircle
 10
215.0514344952377
 20
127.7828505155837
 30
0.0
 40
8.0
100
AcDbArc
 50
180.0
 51
270.0
  0
MTEXT
  5
F9DC
330
18
100
AcDbEntity
  8
CL
100
AcDbMText
 10
179.3209970302401
 20
414.7574480709697
 30
0.0
 40
5.0
 41
5.4034
 46
0.0
 71
     1
 72
     5
  1
A
 73
     1
 44
1.0
  0
HATCH
  5
F9DD
330
18
100
AcDbEntity
  8
CL
100
AcDbHatch
 10
0.0
 20
0.0
 30
0.0
210
0.0
220
0.0
230
1.0
  2
SOLID
 70
     1
 71
     1
 91
        1
 92
        1
 93
        4
 72
     1
 10
184.0514344952377
 20
397.2828505155837
 11
182.0514344952377
 21
404.7828505155837
 72
     1
 10
182.0514344952377
 20
404.7828505155837
 11
180.0514344952377
 21
397.2828505155837
 72
     1
 10
180.0514344952377
 20
397.2828505155837
 11
182.0514344952377
 21
399.7828505155837
 72
     1
 10
182.0514344952377
 20
399.7828505155837
 11
184.0514344952377
 21
397.2828505155837
 97
        4
330
F9BB
330
F9BE
330
F9BD
330
F9BC
 75
     0
 76
     1
 98
        1
 10
-1590.574722154558
 20
1828.000562516173
450
        0
451
        0
460
0.0
461
0.0
452
        0
462
0.0
453
        0
470

  0
LINE
  5
F9E0
330
18
100
AcDbEntity
  8
CL
100
AcDbLine
 39
0.4
 10
494.8514344952351
 20
429.7828505155837
 30
0.0
 11
354.8514344952351
 21
429.7828505155819
 31
0.0
  0
LINE
  5
F9E1
330
18
100
AcDbEntity
  8
CL
100
AcDbLine
 39
0.4
 10
354.8514344952351
 20
379.7828505155828
 30
0.0
 11
354.8514344952351
 21
429.7828505155828
 31
0.0
  0
LINE
  5
F9E2
330
18
100
AcDbEntity
  8
CL
100
AcDbLine
 39
0.4
 10
494.8514344952333
 20
379.7828505155819
 30
0.0
 11
494.8514344952351
 21
429.7828505155837
 31
0.0
  0
LINE
  5
F9E3
330
18
100
AcDbEntity
  8
CL
100
AcDbLine
 39
0.4
 10
681.3514344952351
 20
429.7828505155855
 30
0.0
 11
821.3514344952351
 21
429.7828505155837
 31
0.0
  0
LINE
  5
F9E4
330
18
100
AcDbEntity
  8
CL
100
AcDbLine
 39
0.4
 10
681.3514344952332
 20
379.7828505155828
 30
0.0
 11
681.3514344952351
 21
429.7828505155855
 31
0.0
  0
LINE
  5
F9E5
330
18
100
AcDbEntity
  8
CL
100
AcDbLine
 10
750.6014344952351
 20
359.7828505155837
 30
0.0
 11
750.6014344952369
 21
499.7828505155846
 31
0.0
  0
LINE
  5
F9E6
330
18
100
AcDbEntity
  8
CL
100
AcDbLine
 39
0.4
 10
821.3514344952333
 20
379.7828505155846
 30
0.0
 11
821.3514344952351
 21
429.7828505155846
 31
0.0
  0
ARC
  5
F9E7
330
18
100
AcDbEntity
  8
SINK
100
AcDbCircle
 10
245.051434495234
 20
551.7828505155828
 30
0.0
 40
8.0
100
AcDbArc
 50
90.0
 51
180.0
  0
ARC
  5
F9E9
330
18
100
AcDbEntity
  8
SINK
100
AcDbCircle
 10
582.6514344952344
 20
529.7828505155873
 30
0.0
 40
20.0
100
AcDbArc
 50
0.0
 51
90.0
  0
ARC
  5
F9F8
330
18
100
AcDbEntity
  8
SINK
100
AcDbCircle
 10
654.1514344952344
 20
529.7828505155873
 30
0.0
 40
20.0
100
AcDbArc
 50
90.0
 51
180.0
  0
LINE
  5
FA00
330
18
100
AcDbEntity
  8
SINK
100
AcDbLine
 10
877.0514344952376
 20
157.7828505155846
 30
0.0
 11
877.0514344952413
 21
551.7828505155837
 31
0.0
  0
LINE
  5
FA01
330
18
100
AcDbEntity
  8
SINK
100
AcDbLine
 10
867.0514344952376
 20
179.7828505155855
 30
0.0
 11
867.0514344952414
 21
529.7828505155846
 31
0.0
  0
LINE
  5
FA02
330
18
100
AcDbEntity
  8
SINK
100
AcDbLine
 10
907.0514344952377
 20
127.7828505155846
 30
0.0
 11
907.0514344952361
 21
579.7828505155846
 31
0.0
  0
LINE
  5
FA03
330
18
100
AcDbEntity
  8
SINK
  6
DASHED2
100
AcDbLine
 10
887.0514344952377
 20
159.7828505155846
 30
0.0
 11
887.0514344952358
 21
549.7828505155828
 31
0.0
  0
ARC
  5
FA04
330
18
100
AcDbEntity
  8
SINK
  6
DASHED2
100
AcDbCircle
 10
867.0514344952358
 20
549.7828505155828
 30
0.0
 40
20.0
100
AcDbArc
 50
0.0
 51
90.0
  0
ARC
  5
FA05
330
18
100
AcDbEntity
  8
SINK
  6
DASHED2
100
AcDbCircle
 10
867.0514344952376
 20
159.7828505155846
 30
0.0
 40
20.0
100
AcDbArc
 50
270.0
 51
0.0
  0
ARC
  5
FA06
330
18
100
AcDbEntity
  8
SINK
100
AcDbCircle
 10
899.0514344952377
 20
127.7828505155846
 30
0.0
 40
8.0
100
AcDbArc
 50
270.0
 51
0.0
  0
ARC
  5
FA07
330
18
100
AcDbEntity
  8
SINK
100
AcDbCircle
 10
847.0514344952377
 20
179.7828505155855
 30
0.0
 40
20.0
100
AcDbArc
 50
270.0
 51
0.0
  0
MTEXT
  5
FA08
330
18
100
AcDbEntity
  8
CL
100
AcDbMText
 10
929.7508515204377
 20
413.825752825325
 30
0.0
 40
5.0
 41
5.4034
 46
0.0
 71
     1
 72
     5
  1
A
 73
     1
 44
1.0
  0
HATCH
  5
FA09
330
18
100
AcDbEntity
  8
CL
100
AcDbHatch
 10
0.0
 20
0.0
 30
0.0
210
0.0
220
0.0
230
1.0
  2
SOLID
 70
     1
 71
     1
 91
        1
 92
        1
 93
        4
 72
     1
 10
934.0514344952376
 20
397.2828505155856
 11
932.0514344952377
 21
404.7828505155855
 72
     1
 10
932.0514344952377
 20
404.7828505155855
 11
930.0514344952377
 21
397.2828505155856
 72
     1
 10
930.0514344952377
 20
397.2828505155856
 11
932.0514344952377
 21
399.7828505155855
 72
     1
 10
932.0514344952377
 20
399.7828505155855
 11
934.0514344952376
 21
397.2828505155856
 97
        4
330
F9B6
330
F9B9
330
F9B8
330
F9B7
 75
     0
 76
     1
 98
        1
 10
-840.5747221545574
 20
1828.000562516175
450
        0
451
        0
460
0.0
461
0.0
452
        0
462
0.0
453
        0
470

  0
ARC
  5
FA0A
330
18
100
AcDbEntity
  8
SINK
100
AcDbCircle
 10
869.0514344952413
 20
551.7828505155837
 30
0.0
 40
8.0
100
AcDbArc
 50
0.0
 51
90.0
  0
LINE
  5
FA20
330
18
100
AcDbEntity
  8
SINK
  6
DASHED2
100
AcDbLine
 39
0.4
 10
244.528062011014
 20
195.7828505155828
 30
0.0
 11
244.528062011014
 21
513.7828505155846
 31
0.0
  0
ARC
  5
FA21
330
18
100
AcDbEntity
  8
SINK
  6
DASHED2
100
AcDbCircle
 39
0.4
 10
243.528062011014
 20
195.7828505155828
 30
0.0
 40
1.0
100
AcDbArc
 50
270.0
 51
0.0
  0
LINE
  5
FA22
330
18
100
AcDbEntity
  8
SINK
  6
DASHED2
100
AcDbLine
 39
0.4
 10
236.6730678833379
 20
201.3128505155826
 30
0.0
 11
236.6730678833379
 21
508.2528505155848
 31
0.0
  0
ARC
  5
FA23
330
18
100
AcDbEntity
  8
SINK
  6
DASHED2
100
AcDbCircle
 39
0.4
 10
237.6730678833379
 20
201.3128505155826
 30
0.0
 40
1.0
100
AcDbArc
 50
180.0
 51
270.0
  0
LINE
  5
FA24
330
18
100
AcDbEntity
  8
SINK
  6
DASHED2
100
AcDbLine
 39
0.4
 10
231.0514344952377
 20
195.7828505155837
 30
0.0
 11
231.0514344952377
 21
513.7828505155837
 31
0.0
  0
ARC
  5
FA25
330
18
100
AcDbEntity
  8
SINK
  6
DASHED2
100
AcDbCircle
 39
0.4
 10
232.0514344952377
 20
195.7828505155837
 30
0.0
 40
1.0
100
AcDbArc
 50
180.0
 51
270.0
  0
LINE
  5
FA26
330
18
100
AcDbEntity
  8
SINK
  6
DASHED2
100
AcDbLine
 39
0.4
 10
243.528062011014
 20
194.7828505155828
 30
0.0
 11
232.0514344952377
 21
194.7828505155837
 31
0.0
  0
LINE
  5
FA27
330
18
100
AcDbEntity
  8
SINK
  6
DASHED2
100
AcDbLine
 39
0.4
 10
243.528062011014
 20
200.3128505155826
 30
0.0
 11
237.6730678833379
 21
200.3128505155826
 31
0.0
  0
ARC
  5
FA28
330
18
100
AcDbEntity
  8
SINK
  6
DASHED2
100
AcDbCircle
 39
0.4
 10
243.528062011014
 20
201.3128505155835
 30
0.0
 40
1.0
100
AcDbArc
 50
270.0
 51
0.0
  0
LINE
  5
FA29
330
18
100
AcDbEntity
  8
SINK
  6
DASHED2
100
AcDbLine
 39
0.4
 10
236.9659611021512
 20
200.6057437343959
 30
0.0
 11
231.344327714051
 21
195.075743734397
 31
0.0
  0
ARC
  5
FA2A
330
18
100
AcDbEntity
  8
SINK
  6
DASHED2
100
AcDbCircle
 39
0.4
 10
243.528062011014
 20
513.7828505155846
 30
0.0
 40
1.0
100
AcDbArc
 50
0.0
 51
90.0
  0
ARC
  5
FA2B
330
18
100
AcDbEntity
  8
SINK
  6
DASHED2
100
AcDbCircle
 39
0.4
 10
237.6730678833379
 20
508.2528505155848
 30
0.0
 40
1.0
100
AcDbArc
 50
90.0
 51
180.0
  0
ARC
  5
FA2C
330
18
100
AcDbEntity
  8
SINK
  6
DASHED2
100
AcDbCircle
 39
0.4
 10
232.0514344952377
 20
513.7828505155837
 30
0.0
 40
1.0
100
AcDbArc
 50
90.0
 51
180.0
  0
LINE
  5
FA2D
330
18
100
AcDbEntity
  8
SINK
  6
DASHED2
100
AcDbLine
 39
0.4
 10
243.528062011014
 20
514.7828505155846
 30
0.0
 11
232.0514344952377
 21
514.7828505155837
 31
0.0
  0
LINE
  5
FA2E
330
18
100
AcDbEntity
  8
SINK
  6
DASHED2
100
AcDbLine
 39
0.4
 10
243.528062011014
 20
509.2528505155849
 30
0.0
 11
237.6730678833379
 21
509.2528505155849
 31
0.0
  0
ARC
  5
FA2F
330
18
100
AcDbEntity
  8
SINK
  6
DASHED2
100
AcDbCircle
 39
0.4
 10
243.528062011014
 20
508.2528505155839
 30
0.0
 40
1.0
100
AcDbArc
 50
0.0
 51
90.0
  0
LINE
  5
FA30
330
18
100
AcDbEntity
  8
SINK
  6
DASHED2
100
AcDbLine
 39
0.4
 10
236.9659611021512
 20
508.9599572967715
 30
0.0
 11
231.344327714051
 21
514.4899572967704
 31
0.0
  0
ARC
  5
FA31
330
18
100
AcDbEntity
  8
SINK
  6
DASHED2
100
AcDbCircle
 39
0.4000000000000001
 10
273.851434495237
 20
553.3062229998129
 30
0.0
 40
1.0
100
AcDbArc
 50
180.0
 51
270.0
  0
ARC
  5
FA32
330
18
100
AcDbEntity
  8
SINK
  6
DASHED2
100
AcDbCircle
 39
0.4000000000000001
 10
279.3814344952358
 20
559.1612171274889
 30
0.0
 40
1.0
100
AcDbArc
 50
90.0
 51
180.0
  0
ARC
  5
FA33
330
18
100
AcDbEntity
  8
SINK
  6
DASHED2
100
AcDbCircle
 39
0.4000000000000001
 10
273.851434495237
 20
564.7828505155891
 30
0.0
 40
1.0
100
AcDbArc
 50
90.0
 51
180.0
  0
LINE
  5
FA34
330
18
100
AcDbEntity
  8
SINK
  6
DASHED2
100
AcDbLine
 39
0.4000000000000001
 10
272.8514344952369
 20
553.3062229998129
 30
0.0
 11
272.8514344952369
 21
564.7828505155891
 31
0.0
  0
LINE
  5
FA35
330
18
100
AcDbEntity
  8
SINK
  6
DASHED2
100
AcDbLine
 39
0.4000000000000001
 10
278.3814344952358
 20
553.3062229998129
 30
0.0
 11
278.3814344952358
 21
559.1612171274889
 31
0.0
  0
ARC
  5
FA36
330
18
100
AcDbEntity
  8
SINK
  6
DASHED2
100
AcDbCircle
 39
0.4000000000000001
 10
279.3814344952358
 20
553.3062229998129
 30
0.0
 40
1.0
100
AcDbArc
 50
180.0
 51
270.0
  0
LINE
  5
FA37
330
18
100
AcDbEntity
  8
SINK
  6
DASHED2
100
AcDbLine
 39
0.4000000000000001
 10
278.6743277140491
 20
559.8683239086756
 30
0.0
 11
273.1443277140503
 21
565.4899572967758
 31
0.0
  0
LINE
  5
FA38
330
18
100
AcDbEntity
  8
SINK
  6
DASHED2
100
AcDbLine
 39
0.4
 10
840.2514344952402
 20
552.3062229998129
 30
0.0
 11
660.9514344952336
 21
552.3062229998129
 31
0.0
  0
ARC
  5
FA39
330
18
100
AcDbEntity
  8
SINK
  6
DASHED2
100
AcDbCircle
 39
0.4
 10
840.2514344952402
 20
553.3062229998129
 30
0.0
 40
1.0
100
AcDbArc
 50
270.0
 51
0.0
  0
LINE
  5
FA3A
330
18
100
AcDbEntity
  8
SINK
  6
DASHED2
100
AcDbLine
 39
0.4
 10
834.7214344952414
 20
560.1612171274889
 30
0.0
 11
666.4814344952325
 21
560.1612171274889
 31
0.0
  0
ARC
  5
FA3B
330
18
100
AcDbEntity
  8
SINK
  6
DASHED2
100
AcDbCircle
 39
0.4
 10
834.7214344952414
 20
559.1612171274889
 30
0.0
 40
1.0
100
AcDbArc
 50
0.0
 51
90.0
  0
LINE
  5
FA3C
330
18
100
AcDbEntity
  8
SINK
  6
DASHED2
100
AcDbLine
 39
0.4
 10
840.2514344952402
 20
565.7828505155891
 30
0.0
 11
660.9514344952336
 21
565.7828505155891
 31
0.0
  0
ARC
  5
FA3D
330
18
100
AcDbEntity
  8
SINK
  6
DASHED2
100
AcDbCircle
 39
0.4
 10
840.2514344952402
 20
564.7828505155891
 30
0.0
 40
1.0
100
AcDbArc
 50
0.0
 51
90.0
  0
LINE
  5
FA3E
330
18
100
AcDbEntity
  8
SINK
  6
DASHED2
100
AcDbLine
 39
0.4
 10
841.2514344952402
 20
553.3062229998129
 30
0.0
 11
841.2514344952402
 21
564.7828505155891
 31
0.0
  0
LINE
  5
FA3F
330
18
100
AcDbEntity
  8
SINK
  6
DASHED2
100
AcDbLine
 39
0.4
 10
835.7214344952414
 20
553.3062229998129
 30
0.0
 11
835.7214344952414
 21
559.1612171274889
 31
0.0
  0
ARC
  5
FA40
330
18
100
AcDbEntity
  8
SINK
  6
DASHED2
100
AcDbCircle
 39
0.4
 10
834.7214344952414
 20
553.3062229998129
 30
0.0
 40
1.0
100
AcDbArc
 50
270.0
 51
0.0
  0
LINE
  5
FA41
330
18
100
AcDbEntity
  8
SINK
  6
DASHED2
100
AcDbLine
 39
0.4
 10
835.428541276428
 20
559.8683239086756
 30
0.0
 11
840.9585412764268
 21
565.4899572967758
 31
0.0
  0
LINE
  5
FA42
330
18
100
AcDbEntity
  8
SINK
  6
DASHED2
100
AcDbLine
 39
0.4
 10
575.8514344952315
 20
552.3062229998129
 30
0.0
 11
273.851434495237
 21
552.3062229998129
 31
0.0
  0
ARC
  5
FA43
330
18
100
AcDbEntity
  8
SINK
  6
DASHED2
100
AcDbCircle
 39
0.4
 10
575.8514344952315
 20
553.3062229998129
 30
0.0
 40
1.0
100
AcDbArc
 50
270.0
 51
0.0
  0
LINE
  5
FA44
330
18
100
AcDbEntity
  8
SINK
  6
DASHED2
100
AcDbLine
 39
0.4
 10
570.3214344952327
 20
560.1612171274889
 30
0.0
 11
279.3814344952358
 21
560.1612171274889
 31
0.0
  0
ARC
  5
FA45
330
18
100
AcDbEntity
  8
SINK
  6
DASHED2
100
AcDbCircle
 39
0.4
 10
570.3214344952327
 20
559.1612171274889
 30
0.0
 40
1.0
100
AcDbArc
 50
0.0
 51
90.0
  0
LINE
  5
FA46
330
18
100
AcDbEntity
  8
SINK
  6
DASHED2
100
AcDbLine
 39
0.4
 10
575.8514344952315
 20
565.7828505155891
 30
0.0
 11
273.851434495237
 21
565.7828505155891
 31
0.0
  0
ARC
  5
FA47
330
18
100
AcDbEntity
  8
SINK
  6
DASHED2
100
AcDbCircle
 39
0.4
 10
575.8514344952315
 20
564.7828505155891
 30
0.0
 40
1.0
100
AcDbArc
 50
0.0
 51
90.0
  0
LINE
  5
FA48
330
18
100
AcDbEntity
  8
SINK
  6
DASHED2
100
AcDbLine
 39
0.4
 10
576.8514344952315
 20
553.3062229998129
 30
0.0
 11
576.8514344952315
 21
564.7828505155891
 31
0.0
  0
LINE
  5
FA49
330
18
100
AcDbEntity
  8
SINK
  6
DASHED2
100
AcDbLine
 39
0.4
 10
571.3214344952326
 20
553.3062229998129
 30
0.0
 11
571.3214344952326
 21
559.1612171274889
 31
0.0
  0
ARC
  5
FA4A
330
18
100
AcDbEntity
  8
SINK
  6
DASHED2
100
AcDbCircle
 39
0.4
 10
570.3214344952327
 20
553.3062229998129
 30
0.0
 40
1.0
100
AcDbArc
 50
270.0
 51
0.0
  0
LINE
  5
FA4B
330
18
100
AcDbEntity
  8
SINK
  6
DASHED2
100
AcDbLine
 39
0.4
 10
571.0285412764193
 20
559.8683239086756
 30
0.0
 11
576.5585412764181
 21
565.4899572967758
 31
0.0
  0
LINE
  5
FA4C
102
{ACAD_REACTORS
330
FAFB
102
}
330
18
100
AcDbEntity
  8
SINK
100
AcDbLine
 39
0.4
 10
602.4517756850478
 20
-7.935665374799327
 30
0.0
 11
587.7045802204289
 21
-176.4968808545038
 31
0.0
  0
ARC
  5
FA4D
102
{ACAD_REACTORS
330
FAFB
102
}
330
18
100
AcDbEntity
  8
SINK
100
AcDbCircle
 39
0.4
 10
567.7806862585936
 20
-174.7537659995507
 30
0.0
 40
20.0
100
AcDbArc
 50
273.0000000000056
 51
355.0000000000232
  0
LINE
  5
FA4E
102
{ACAD_REACTORS
330
FAFB
102
}
330
18
100
AcDbEntity
  8
SINK
100
AcDbLine
 39
0.4
 10
607.4001492648609
 20
-20.21777601793042
 30
0.0
 11
593.2539359891603
 21
-181.9097336452416
 31
0.0
  0
ARC
  5
FA4F
102
{ACAD_REACTORS
330
FAFB
102
}
330
18
100
AcDbEntity
  8
SINK
100
AcDbCircle
 39
0.4
 10
612.3811227553202
 20
-20.65355473166824
 30
0.0
 40
5.0
100
AcDbArc
 50
90.0
 51
175.0000000000231
  0
ARC
  5
FA50
102
{ACAD_REACTORS
330
FAFB
102
}
330
18
100
AcDbEntity
  8
SINK
100
AcDbCircle
 39
0.4
 10
604.9422624302775
 20
-8.153554731668236
 30
0.0
 40
2.5
100
AcDbArc
 50
90.0
 51
175.0000000000231
  0
LINE
  5
FA51
102
{ACAD_REACTORS
330
FAFB
102
}
330
18
100
AcDbEntity
  8
SINK
100
AcDbLine
 39
0.4
 10
240.2171490655388
 20
-5.653554731669146
 30
0.0
 11
244.7606065601909
 21
-5.653554731669146
 31
0.0
  0
ARC
  5
FA52
102
{ACAD_REACTORS
330
FAFB
102
}
330
18
100
AcDbEntity
  8
SINK
100
AcDbCircle
 39
0.4
 10
240.2171490655388
 20
-3.153554731669146
 30
0.0
 40
2.5
100
AcDbArc
 50
185.0000000000292
 51
270.0
  0
ARC
  5
FA53
102
{ACAD_REACTORS
330
FAFB
102
}
330
18
100
AcDbEntity
  8
SINK
100
AcDbCircle
 39
0.4
 10
244.7606065601909
 20
-8.153554731669146
 30
0.0
 40
2.5
100
AcDbArc
 50
5.000000000029218
 51
90.0
  0
ARC
  5
FA54
102
{ACAD_REACTORS
330
FAFB
102
}
330
18
100
AcDbEntity
  8
SINK
100
AcDbCircle
 39
0.4
 10
234.7606065601909
 20
1.846445268330853
 30
0.0
 40
2.5
100
AcDbArc
 50
5.000000000029218
 51
90.0
  0
LINE
  5
FA55
102
{ACAD_REACTORS
330
FAFB
102
}
330
18
100
AcDbEntity
  8
SINK
100
AcDbLine
 39
0.4
 10
237.2510933054224
 20
2.064334625200672
 30
0.0
 11
237.7266623203074
 21
-3.371444088538055
 31
0.0
  0
LINE
  5
FA56
102
{ACAD_REACTORS
330
FAFB
102
}
330
18
100
AcDbEntity
  8
SINK
100
AcDbLine
 39
0.4
 10
247.2510933054224
 20
-7.935665374799327
 30
0.0
 11
261.9982887700395
 21
-176.4968808544984
 31
0.0
  0
LINE
  5
FA57
102
{ACAD_REACTORS
330
FAFB
102
}
330
18
100
AcDbEntity
  8
SINK
100
AcDbLine
 39
0.4
 10
250.1722037695969
 20
-110.1663902365364
 30
0.0
 11
256.4489330013044
 21
-181.9097336452425
 31
0.0
  0
ARC
  5
FA58
102
{ACAD_REACTORS
330
FAFB
102
}
330
18
100
AcDbEntity
  8
SINK
100
AcDbCircle
 39
0.4
 10
281.3538004535973
 20
-179.7308400765516
 30
0.0
 40
25.0
100
AcDbArc
 50
184.9999999999769
 51
266.9999999999944
  0
LINE
  5
FA59
330
18
100
AcDbEntity
  8
SINK
100
AcDbLine
 39
0.4
 10
244.7606065601909
 20
-5.653554731669146
 30
0.0
 11
604.9422624302775
 21
-5.653554731668236
 31
0.0
  0
LINE
  5
FA5A
102
{ACAD_REACTORS
330
FAFB
102
}
330
18
100
AcDbEntity
  8
SINK
100
AcDbLine
 39
0.4
 10
604.9422624302775
 20
-5.653554731668236
 30
0.0
 11
631.8606065601913
 21
-5.653554731670055
 31
0.0
  0
LINE
  5
FA5B
102
{ACAD_REACTORS
330
FAFB
102
}
330
18
100
AcDbEntity
  8
SINK
100
AcDbLine
 39
0.4
 10
612.3811227553202
 20
-15.65355473166824
 30
0.0
 11
624.4217462351468
 21
-15.65355473166824
 31
0.0
  0
LINE
  5
FA5C
330
18
100
AcDbEntity
  8
SINK
100
AcDbLine
 10
234.7606065601909
 20
4.346445268330853
 30
0.0
 11
879.3422624302845
 21
4.346445268330853
 31
0.0
  0
ARC
  5
FA5D
102
{ACAD_REACTORS
330
FAFB
102
}
330
18
100
AcDbEntity
  8
SINK
100
AcDbCircle
 10
211.3409093353336
 20
0.3464452683317631
 30
0.0
 40
4.0
100
AcDbArc
 50
90.0
 51
176.0000000000165
  0
LINE
  5
FA5E
102
{ACAD_REACTORS
330
FAFB
102
}
330
18
100
AcDbEntity
  8
SINK
100
AcDbLine
 10
211.3409093353336
 20
4.346445268331763
 30
0.0
 11
234.7606065601909
 21
4.346445268330853
 31
0.0
  0
LINE
  5
FA5F
102
{ACAD_REACTORS
330
FAFB
102
}
330
18
100
AcDbEntity
  8
SINK
100
AcDbLine
 10
207.0514344952359
 20
-3.653554731668236
 30
0.0
 11
227.051434495234
 21
-3.653554731663689
 31
0.0
  0
ARC
  5
FA60
102
{ACAD_REACTORS
330
FAFB
102
}
330
18
100
AcDbEntity
  8
SINK
100
AcDbCircle
 10
245.9748047032923
 20
-104.6535547316682
 30
0.0
 40
1.0
100
AcDbArc
 50
187.9999999999909
 51
262.4959809550703
  0
ARC
  5
FA61
102
{ACAD_REACTORS
330
FAFB
102
}
330
18
100
AcDbEntity
  8
SINK
100
AcDbCircle
 10
245.1912302791358
 20
-110.6021689502752
 30
0.0
 40
5.0
100
AcDbArc
 50
5.000000000029218
 51
82.49598095517534
  0
ARC
  5
FA62
102
{ACAD_REACTORS
330
FAFB
102
}
330
18
100
AcDbEntity
  8
SINK
100
AcDbCircle
 10
226.7050008061548
 20
-10.65355473166823
 30
0.0
 40
5.0
100
AcDbArc
 50
7.999999999990921
 51
86.02697916392882
  0
LINE
  5
FA63
102
{ACAD_REACTORS
330
FAFB
102
}
330
18
100
AcDbEntity
  8
SINK
100
AcDbLine
 39
0.4
 10
207.0514344952359
 20
-3.653554731668236
 30
0.0
 11
207.3506531342943
 21
0.6254711633080206
 31
0.0
  0
LINE
  5
FA64
330
18
100
AcDbEntity
  8
CL
100
AcDbLine
 39
0.4
 10
207.0514344952377
 20
6.846445268332672
 30
0.0
 11
207.0514344952377
 21
1.846445268331763
 31
0.0
  0
LINE
  5
FA65
102
{ACAD_REACTORS
330
FAFB
102
}
330
18
100
AcDbEntity
  8
SINK
100
AcDbLine
 39
0.4
 10
227.051434495234
 20
-3.653554731663689
 30
0.0
 11
227.0514344952377
 21
-5.665570800352043
 31
0.0
  0
LINE
  5
FA66
102
{ACAD_REACTORS
330
FAFB
102
}
330
18
100
AcDbEntity
  8
SINK
100
AcDbLine
 39
0.4
 10
231.6563411498634
 20
-9.957689226867159
 30
0.0
 11
244.9845366345513
 21
-104.7927278326281
 31
0.0
  0
LINE
  5
FA67
330
18
100
AcDbEntity
  8
CL
100
AcDbLine
 39
0.4
 10
209.5514344952359
 20
4.346445268332672
 30
0.0
 11
204.5514344952358
 21
4.346445268332672
 31
0.0
  0
LINE
  5
FA68
102
{ACAD_REACTORS
330
FAFB
102
}
330
18
100
AcDbEntity
  8
SINK
100
AcDbLine
 39
0.4
 10
356.4610023806005
 20
-208.7013503876554
 30
0.0
 11
280.0454015475249
 21
-204.6965784454162
 31
0.0
  0
ARC
  5
FA69
102
{ACAD_REACTORS
330
FAFB
102
}
330
18
100
AcDbEntity
  8
SINK
100
AcDbCircle
 39
0.4
 10
356.1993225993853
 20
-213.6944980614282
 30
0.0
 40
5.0
100
AcDbArc
 50
75.00000000000555
 51
86.99999999999441
  0
LINE
  5
FA6A
102
{ACAD_REACTORS
330
FAFB
102
}
330
18
100
AcDbEntity
  8
SINK
100
AcDbLine
 39
0.4
 10
493.2418666098643
 20
-208.7013503876554
 30
0.0
 11
569.6574674429418
 21
-204.6965784454153
 31
0.0
  0
ARC
  5
FA6B
102
{ACAD_REACTORS
330
FAFB
102
}
330
18
100
AcDbEntity
  8
SINK
100
AcDbCircle
 39
0.4
 10
568.3490685368675
 20
-179.7308400765507
 30
0.0
 40
25.0
100
AcDbArc
 50
273.0000000000056
 51
355.0000000000232
  0
LINE
  5
FA6C
102
{ACAD_REACTORS
330
FAFB
102
}
330
18
100
AcDbEntity
  8
SINK
100
AcDbLine
 39
0.4
 10
484.7347724579509
 20
-199.1334648403292
 30
0.0
 11
568.8274053834526
 21
-194.7263566946424
 31
0.0
  0
LINE
  5
FA6D
102
{ACAD_REACTORS
330
FAFB
102
}
330
18
100
AcDbEntity
  8
SINK
100
AcDbLine
 39
0.4
 10
364.9680965325157
 20
-199.1334648403292
 30
0.0
 11
280.8754636070158
 21
-194.7263566946378
 31
0.0
  0
ARC
  5
FA6E
102
{ACAD_REACTORS
330
FAFB
102
}
330
18
100
AcDbEntity
  8
SINK
100
AcDbCircle
 39
0.4
 10
281.9221827318748
 20
-174.7537659995462
 30
0.0
 40
20.0
100
AcDbArc
 50
184.9999999999769
 51
266.9999999999944
  0
LINE
  5
FA6F
102
{ACAD_REACTORS
330
FAFB
102
}
330
18
100
AcDbEntity
  8
SINK
100
AcDbLine
 39
0.4
 10
492.2094511655656
 20
-208.8648689299828
 30
0.0
 11
482.7744478861774
 21
-211.3929704392797
 31
0.0
  0
ARC
  5
FA70
102
{ACAD_REACTORS
330
FAFB
102
}
330
18
100
AcDbEntity
  8
SINK
100
AcDbCircle
 39
0.4
 10
493.5035463910777
 20
-213.6944980614282
 30
0.0
 40
5.0
100
AcDbArc
 50
93.00000000000558
 51
104.9999999999944
  0
LINE
  5
FA71
102
{ACAD_REACTORS
330
FAFB
102
}
330
18
100
AcDbEntity
  8
SINK
100
AcDbLine
 39
0.4
 10
357.4934178248974
 20
-208.8648689299828
 30
0.0
 11
366.9284211042892
 21
-211.3929704392806
 31
0.0
  0
LINE
  5
FA72
102
{ACAD_REACTORS
330
FAFB
102
}
330
18
100
AcDbEntity
  8
SINK
100
AcDbLine
 39
0.4
 10
365.6228673574593
 20
-199.4249875938978
 30
0.0
 11
367.1619658042515
 21
-200.9640860406892
 31
0.0
  0
ARC
  5
FA73
102
{ACAD_REACTORS
330
FAFB
102
}
330
18
100
AcDbEntity
  8
SINK
100
AcDbCircle
 39
0.4
 10
364.9157605762726
 20
-200.1320943750845
 30
0.0
 40
1.0
100
AcDbArc
 50
45.00000000000023
 51
86.99999999999441
  0
LINE
  5
FA74
102
{ACAD_REACTORS
330
FAFB
102
}
330
18
100
AcDbEntity
  8
SINK
100
AcDbLine
 39
0.4
 10
484.0800016330055
 20
-199.4249875938978
 30
0.0
 11
482.5409031862132
 21
-200.9640860406892
 31
0.0
  0
ARC
  5
FA75
102
{ACAD_REACTORS
330
FAFB
102
}
330
18
100
AcDbEntity
  8
SINK
100
AcDbCircle
 39
0.4
 10
484.787108414194
 20
-200.1320943750845
 30
0.0
 40
1.0
100
AcDbArc
 50
93.00000000000558
 51
134.9999999999997
  0
ARC
  5
FA76
102
{ACAD_REACTORS
330
FAFB
102
}
330
18
100
AcDbEntity
  8
SINK
100
AcDbCircle
 39
0.4
 10
365.6343258787753
 20
-216.222599570726
 30
0.0
 40
5.0
100
AcDbArc
 50
45.54567459977138
 51
75.00000000000555
  0
LINE
  5
FA77
330
18
100
AcDbEntity
  8
SINK
100
AcDbLine
 39
0.4
 10
365.1218192239163
 20
-199.15355473167
 30
0.0
 11
484.6111649598811
 21
-199.15355473167
 31
0.0
  0
LINE
  5
FA78
330
18
100
AcDbEntity
  8
SINK
100
AcDbLine
 39
0.4
 10
367.4261816025707
 20
-201.1535547316701
 30
0.0
 11
482.2766873878959
 21
-201.1535547316701
 31
0.0
  0
LINE
  5
FA79
330
18
100
AcDbEntity
  8
SINK
100
AcDbLine
 39
0.4
 10
470.1751010746471
 20
-204.502919637059
 30
0.0
 11
379.5277679158195
 21
-204.502919637059
 31
0.0
  0
LINE
  5
FA7A
102
{ACAD_REACTORS
330
FAFB
102
}
330
18
100
AcDbEntity
  8
SINK
100
AcDbLine
 39
0.4
 10
367.6102535403357
 20
-201.2229050857916
 30
0.0
 11
379.1624462992392
 21
-204.318305806348
 31
0.0
  0
LINE
  5
FA7B
102
{ACAD_REACTORS
330
FAFB
102
}
330
18
100
AcDbEntity
  8
SINK
100
AcDbLine
 39
0.4
 10
379.9011913043965
 20
-205.2144751588933
 30
0.0
 11
380.4213824227142
 21
-212.65355473167
 31
0.0
  0
ARC
  5
FA7C
102
{ACAD_REACTORS
330
FAFB
102
}
330
18
100
AcDbEntity
  8
SINK
100
AcDbCircle
 39
0.4
 10
367.8690725854382
 20
-200.2569792595025
 30
0.0
 40
1.0
100
AcDbArc
 50
225.0000000000002
 51
255.0000000000056
  0
ARC
  5
FA7D
102
{ACAD_REACTORS
330
FAFB
102
}
330
18
100
AcDbEntity
  8
SINK
100
AcDbCircle
 39
0.4
 10
378.9036272541367
 20
-205.2842316326371
 30
0.0
 40
1.0
100
AcDbArc
 50
3.99999999998344
 51
75.00000000000555
  0
ARC
  5
FA7E
102
{ACAD_REACTORS
330
FAFB
102
}
330
18
100
AcDbEntity
  8
SINK
100
AcDbCircle
 39
0.4
 10
484.0685431116895
 20
-216.2225995707252
 30
0.0
 40
5.0
100
AcDbArc
 50
104.9999999999944
 51
134.4543254002286
  0
LINE
  5
FA7F
102
{ACAD_REACTORS
330
FAFB
102
}
330
18
100
AcDbEntity
  8
SINK
100
AcDbLine
 39
0.4
 10
482.0926154501308
 20
-201.2229050857916
 30
0.0
 11
470.5404226912275
 21
-204.318305806348
 31
0.0
  0
ARC
  5
FA80
102
{ACAD_REACTORS
330
FAFB
102
}
330
18
100
AcDbEntity
  8
SINK
100
AcDbCircle
 39
0.4
 10
470.7992417363299
 20
-205.2842316326371
 30
0.0
 40
1.0
100
AcDbArc
 50
104.9999999999944
 51
176.0000000000165
  0
ARC
  5
FA81
102
{ACAD_REACTORS
330
FAFB
102
}
330
18
100
AcDbEntity
  8
SINK
100
AcDbCircle
 39
0.4
 10
481.8337964050284
 20
-200.2569792595025
 30
0.0
 40
1.0
100
AcDbArc
 50
284.9999999999944
 51
314.9999999999998
  0
LINE
  5
FA82
102
{ACAD_REACTORS
330
FAFB
102
}
330
18
100
AcDbEntity
  8
SINK
100
AcDbLine
 39
0.4
 10
469.8016776860701
 20
-205.2144751588924
 30
0.0
 11
469.2814865677525
 21
-212.65355473167
 31
0.0
  0
LINE
  5
FA83
330
18
100
AcDbEntity
  8
CL
100
AcDbLine
 39
0.4
 10
424.8514344952333
 20
-184.15355473167
 30
0.0
 11
424.8514344952333
 21
-227.6535547316701
 31
0.0
  0
LINE
  5
FA84
102
{ACAD_REACTORS
330
FAFB
102
}
330
18
100
AcDbEntity
  8
SINK
100
AcDbLine
 39
0.4
 10
369.1360281700623
 20
-212.65355473167
 30
0.0
 11
380.4213824227142
 21
-212.65355473167
 31
0.0
  0
LINE
  5
FA85
102
{ACAD_REACTORS
330
FAFB
102
}
330
18
100
AcDbEntity
  8
SINK
100
AcDbLine
 39
0.4
 10
469.2814865677525
 20
-212.65355473167
 30
0.0
 11
480.5668408204006
 21
-212.65355473167
 31
0.0
  0
LINE
  5
FA86
330
18
100
AcDbEntity
  8
SINK
100
AcDbLine
 39
0.4
 10
380.4213824227142
 20
-212.65355473167
 30
0.0
 11
469.2814865677525
 21
-212.65355473167
 31
0.0
  0
LINE
  5
FA87
102
{ACAD_REACTORS
330
FAFB
102
}
330
18
100
AcDbEntity
  8
SINK
100
AcDbLine
 39
0.4
 10
634.3510933054209
 20
-7.935665374799327
 30
0.0
 11
647.095696520481
 21
-153.6071467009062
 31
0.0
  0
LINE
  5
FA88
102
{ACAD_REACTORS
330
FAFB
102
}
330
18
100
AcDbEntity
  8
SINK
100
AcDbLine
 39
0.4
 10
629.4027197256061
 20
-20.21777601793042
 30
0.0
 11
641.5463407517496
 21
-159.0199994916449
 31
0.0
  0
ARC
  5
FA89
102
{ACAD_REACTORS
330
FAFB
102
}
330
18
100
AcDbEntity
  8
SINK
100
AcDbCircle
 39
0.4
 10
666.4512082040424
 20
-156.8411059229531
 30
0.0
 40
25.0
100
AcDbArc
 50
185.0000000000292
 51
266.9999999999944
  0
ARC
  5
FA8A
102
{ACAD_REACTORS
330
FAFB
102
}
330
18
100
AcDbEntity
  8
SINK
100
AcDbCircle
 39
0.4
 10
624.4217462351468
 20
-20.65355473166824
 30
0.0
 40
5.0
100
AcDbArc
 50
4.999999999976907
 51
90.0
  0
ARC
  5
FA8B
102
{ACAD_REACTORS
330
FAFB
102
}
330
18
100
AcDbEntity
  8
SINK
100
AcDbCircle
 39
0.4
 10
631.8606065601913
 20
-8.153554731668236
 30
0.0
 40
2.5
100
AcDbArc
 50
5.000000000029218
 51
90.0
  0
LINE
  5
FA8C
102
{ACAD_REACTORS
330
FAFB
102
}
330
18
100
AcDbEntity
  8
SINK
100
AcDbLine
 39
0.4
 10
873.8857199249364
 20
-5.653554731669146
 30
0.0
 11
869.3422624302844
 21
-5.653554731669146
 31
0.0
  0
ARC
  5
FA8D
102
{ACAD_REACTORS
330
FAFB
102
}
330
18
100
AcDbEntity
  8
SINK
100
AcDbCircle
 39
0.4
 10
873.8857199249364
 20
-3.153554731669146
 30
0.0
 40
2.5
100
AcDbArc
 50
270.0
 51
354.9999999999708
  0
ARC
  5
FA8E
102
{ACAD_REACTORS
330
FAFB
102
}
330
18
100
AcDbEntity
  8
SINK
100
AcDbCircle
 39
0.4
 10
869.3422624302844
 20
-8.153554731669146
 30
0.0
 40
2.5
100
AcDbArc
 50
90.0
 51
174.9999999999707
  0
ARC
  5
FA8F
102
{ACAD_REACTORS
330
FAFB
102
}
330
18
100
AcDbEntity
  8
SINK
100
AcDbCircle
 39
0.4
 10
879.3422624302845
 20
1.846445268330853
 30
0.0
 40
2.5
100
AcDbArc
 50
90.0
 51
174.9999999999707
  0
LINE
  5
FA90
102
{ACAD_REACTORS
330
FAFB
102
}
330
18
100
AcDbEntity
  8
SINK
100
AcDbLine
 39
0.4
 10
876.8517756850529
 20
2.064334625200672
 30
0.0
 11
876.376206670168
 21
-3.371444088538055
 31
0.0
  0
LINE
  5
FA91
102
{ACAD_REACTORS
330
FAFB
102
}
330
18
100
AcDbEntity
  8
SINK
100
AcDbLine
 39
0.4
 10
866.851775685053
 20
-7.935665374799327
 30
0.0
 11
854.1071724699964
 21
-153.6071467009026
 31
0.0
  0
ARC
  5
FA92
102
{ACAD_REACTORS
330
FAFB
102
}
330
18
100
AcDbEntity
  8
SINK
100
AcDbCircle
 39
0.4
 10
834.1832785081612
 20
-151.8640318459504
 30
0.0
 40
20.0
100
AcDbArc
 50
273.0000000000056
 51
355.0000000000232
  0
LINE
  5
FA93
102
{ACAD_REACTORS
330
FAFB
102
}
330
18
100
AcDbEntity
  8
SINK
100
AcDbLine
 39
0.4
 10
864.8015084434415
 20
-100.2126066551247
 30
0.0
 11
859.6565282387297
 21
-159.0199994916458
 31
0.0
  0
LINE
  5
FA94
330
18
100
AcDbEntity
  8
SINK
100
AcDbLine
 39
0.4
 10
869.3422624302844
 20
-5.653554731669146
 30
0.0
 11
631.8606065601913
 21
-5.653554731670055
 31
0.0
  0
ARC
  5
FA95
102
{ACAD_REACTORS
330
FAFB
102
}
330
18
100
AcDbEntity
  8
SINK
100
AcDbCircle
 10
902.7619596551417
 20
0.3464452683317631
 30
0.0
 40
4.0
100
AcDbArc
 50
3.99999999998344
 51
90.0
  0
LINE
  5
FA96
102
{ACAD_REACTORS
330
FAFB
102
}
330
18
100
AcDbEntity
  8
SINK
100
AcDbLine
 10
902.7619596551417
 20
4.346445268331763
 30
0.0
 11
879.3422624302845
 21
4.346445268330853
 31
0.0
  0
LINE
  5
FA97
102
{ACAD_REACTORS
330
FAFB
102
}
330
18
100
AcDbEntity
  8
SINK
100
AcDbLine
 10
907.0514344952394
 20
-3.653554731668236
 30
0.0
 11
887.0514344952413
 21
-3.653554731668236
 31
0.0
  0
ARC
  5
FA98
102
{ACAD_REACTORS
330
FAFB
102
}
330
18
100
AcDbEntity
  8
SINK
100
AcDbCircle
 10
887.3978681843206
 20
-10.65355473166823
 30
0.0
 40
5.0
100
AcDbArc
 50
93.97302083607115
 51
172.0000000000091
  0
LINE
  5
FA99
102
{ACAD_REACTORS
330
FAFB
102
}
330
18
100
AcDbEntity
  8
SINK
100
AcDbLine
 39
0.4
 10
907.0514344952394
 20
-3.653554731668236
 30
0.0
 11
906.7522158561811
 21
0.6254711633080206
 31
0.0
  0
LINE
  5
FA9A
330
18
100
AcDbEntity
  8
CL
100
AcDbLine
 39
0.4
 10
907.0514344952377
 20
6.846445268332672
 30
0.0
 11
907.0514344952377
 21
1.846445268331763
 31
0.0
  0
LINE
  5
FA9B
102
{ACAD_REACTORS
330
FAFB
102
}
330
18
100
AcDbEntity
  8
SINK
100
AcDbLine
 39
0.4
 10
887.0514344952413
 20
-3.653554731668236
 30
0.0
 11
887.0514344952377
 21
-5.665570800352043
 31
0.0
  0
LINE
  5
FA9C
102
{ACAD_REACTORS
330
FAFB
102
}
330
18
100
AcDbEntity
  8
SINK
100
AcDbLine
 39
0.4
 10
882.4465278406121
 20
-9.957689226868069
 30
0.0
 11
870.5237407029477
 21
-94.79272783262718
 31
0.0
  0
LINE
  5
FA9D
330
18
100
AcDbEntity
  8
CL
100
AcDbLine
 39
0.4
 10
904.5514344952394
 20
4.346445268332672
 30
0.0
 11
909.5514344952395
 21
4.346445268332672
 31
0.0
  0
ARC
  5
FA9E
102
{ACAD_REACTORS
330
FAFB
102
}
330
18
100
AcDbEntity
  8
SINK
100
AcDbCircle
 39
0.4
 10
869.5334726342068
 20
-94.65355473166733
 30
0.0
 40
1.0
100
AcDbArc
 50
272.3785467818824
 51
352.0000000000091
  0
ARC
  5
FA9F
102
{ACAD_REACTORS
330
FAFB
102
}
330
18
100
AcDbEntity
  8
SINK
100
AcDbCircle
 39
0.4
 10
869.7824819339027
 20
-100.6483853688635
 30
0.0
 40
5.0
100
AcDbArc
 50
92.37854678188236
 51
174.9999999999707
  0
LINE
  5
FAA0
102
{ACAD_REACTORS
330
FAFB
102
}
330
18
100
AcDbEntity
  8
SINK
100
AcDbLine
 39
0.4
 10
818.991866609868
 20
-182.7013503876535
 30
0.0
 11
836.0600596925074
 21
-181.8068442918195
 31
0.0
  0
ARC
  5
FAA1
102
{ACAD_REACTORS
330
FAFB
102
}
330
18
100
AcDbEntity
  8
SINK
100
AcDbCircle
 39
0.4
 10
834.7516607864369
 20
-156.8411059229549
 30
0.0
 40
25.0
100
AcDbArc
 50
273.0000000000056
 51
355.0000000000232
  0
ARC
  5
FAA2
102
{ACAD_REACTORS
330
FAFB
102
}
330
18
100
AcDbEntity
  8
SINK
100
AcDbCircle
 39
0.4
 10
819.2535463910832
 20
-187.6944980614264
 30
0.0
 40
5.0
100
AcDbArc
 50
93.00000000000558
 51
104.9999999999944
  0
LINE
  5
FAA3
102
{ACAD_REACTORS
330
FAFB
102
}
330
18
100
AcDbEntity
  8
SINK
100
AcDbLine
 39
0.4
 10
682.2110023806041
 20
-182.7013503876535
 30
0.0
 11
665.1428092979682
 21
-181.8068442918177
 31
0.0
  0
LINE
  5
FAA4
102
{ACAD_REACTORS
330
FAFB
102
}
330
18
100
AcDbEntity
  8
SINK
100
AcDbLine
 39
0.4
 10
690.7180965325174
 20
-173.1334648403274
 30
0.0
 11
665.9728713574573
 21
-171.8366225410448
 31
0.0
  0
ARC
  5
FAA5
102
{ACAD_REACTORS
330
FAFB
102
}
330
18
100
AcDbEntity
  8
SINK
100
AcDbCircle
 39
0.4
 10
667.0195904823164
 20
-151.8640318459531
 30
0.0
 40
20.0
100
AcDbArc
 50
184.9999999999769
 51
266.9999999999944
  0
LINE
  5
FAA6
102
{ACAD_REACTORS
330
FAFB
102
}
330
18
100
AcDbEntity
  8
SINK
100
AcDbLine
 39
0.4
 10
810.4847724579528
 20
-173.1334648403274
 30
0.0
 11
835.2299976330201
 21
-171.836622541042
 31
0.0
  0
LINE
  5
FAA7
102
{ACAD_REACTORS
330
FAFB
102
}
330
18
100
AcDbEntity
  8
SINK
100
AcDbLine
 39
0.4
 10
683.2434178249028
 20
-182.8648689299809
 30
0.0
 11
692.678421104291
 21
-185.3929704392778
 31
0.0
  0
ARC
  5
FAA8
102
{ACAD_REACTORS
330
FAFB
102
}
330
18
100
AcDbEntity
  8
SINK
100
AcDbCircle
 39
0.4
 10
681.9493225993907
 20
-187.6944980614264
 30
0.0
 40
5.0
100
AcDbArc
 50
75.00000000000555
 51
86.99999999999441
  0
LINE
  5
FAA9
102
{ACAD_REACTORS
330
FAFB
102
}
330
18
100
AcDbEntity
  8
SINK
100
AcDbLine
 39
0.4
 10
817.9594511655711
 20
-182.8648689299809
 30
0.0
 11
808.5244478861792
 21
-185.3929704392788
 31
0.0
  0
LINE
  5
FAAA
102
{ACAD_REACTORS
330
FAFB
102
}
330
18
100
AcDbEntity
  8
SINK
100
AcDbLine
 39
0.4
 10
809.8300016330091
 20
-173.424987593896
 30
0.0
 11
808.2909031862168
 21
-174.9640860406873
 31
0.0
  0
ARC
  5
FAAB
102
{ACAD_REACTORS
330
FAFB
102
}
330
18
100
AcDbEntity
  8
SINK
100
AcDbCircle
 39
0.4
 10
810.5371084141959
 20
-174.1320943750827
 30
0.0
 40
1.0
100
AcDbArc
 50
93.00000000000558
 51
134.9999999998892
  0
LINE
  5
FAAC
102
{ACAD_REACTORS
330
FAFB
102
}
330
18
100
AcDbEntity
  8
SINK
100
AcDbLine
 39
0.4
 10
691.3728673574629
 20
-173.424987593896
 30
0.0
 11
692.9119658042552
 21
-174.9640860406873
 31
0.0
  0
ARC
  5
FAAD
102
{ACAD_REACTORS
330
FAFB
102
}
330
18
100
AcDbEntity
  8
SINK
100
AcDbCircle
 39
0.4
 10
690.6657605762744
 20
-174.1320943750827
 30
0.0
 40
1.0
100
AcDbArc
 50
45.00000000011077
 51
86.99999999999441
  0
ARC
  5
FAAE
102
{ACAD_REACTORS
330
FAFB
102
}
330
18
100
AcDbEntity
  8
SINK
100
AcDbCircle
 39
0.4
 10
809.8185431116931
 20
-190.2225995707242
 30
0.0
 40
5.0
100
AcDbArc
 50
104.9999999999944
 51
134.4543254002286
  0
LINE
  5
FAAF
330
18
100
AcDbEntity
  8
SINK
100
AcDbLine
 39
0.4
 10
810.3310497665521
 20
-173.1535547316682
 30
0.0
 11
690.8417040305872
 21
-173.1535547316682
 31
0.0
  0
LINE
  5
FAB0
330
18
100
AcDbEntity
  8
SINK
100
AcDbLine
 39
0.4
 10
808.0266873878978
 20
-175.1535547316682
 30
0.0
 11
693.1761816025725
 21
-175.1535547316682
 31
0.0
  0
LINE
  5
FAB1
330
18
100
AcDbEntity
  8
SINK
100
AcDbLine
 39
0.4
 10
705.2777679158213
 20
-178.5029196370572
 30
0.0
 11
795.9251010746489
 21
-178.5029196370572
 31
0.0
  0
LINE
  5
FAB2
102
{ACAD_REACTORS
330
FAFB
102
}
330
18
100
AcDbEntity
  8
SINK
100
AcDbLine
 39
0.4
 10
807.8426154501327
 20
-175.2229050857897
 30
0.0
 11
796.2904226912293
 21
-178.3183058063462
 31
0.0
  0
LINE
  5
FAB3
102
{ACAD_REACTORS
330
FAFB
102
}
330
18
100
AcDbEntity
  8
SINK
100
AcDbLine
 39
0.4
 10
795.5516776860719
 20
-179.2144751588914
 30
0.0
 11
795.0314865677543
 21
-186.6535547316682
 31
0.0
  0
ARC
  5
FAB4
102
{ACAD_REACTORS
330
FAFB
102
}
330
18
100
AcDbEntity
  8
SINK
100
AcDbCircle
 39
0.4
 10
807.5837964050302
 20
-174.2569792595006
 30
0.0
 40
1.0
100
AcDbArc
 50
284.9999999999944
 51
314.9999999998892
  0
ARC
  5
FAB5
102
{ACAD_REACTORS
330
FAFB
102
}
330
18
100
AcDbEntity
  8
SINK
100
AcDbCircle
 39
0.4
 10
796.5492417363317
 20
-179.2842316326353
 30
0.0
 40
1.0
100
AcDbArc
 50
104.9999999999944
 51
176.0000000000165
  0
ARC
  5
FAB6
102
{ACAD_REACTORS
330
FAFB
102
}
330
18
100
AcDbEntity
  8
SINK
100
AcDbCircle
 39
0.4
 10
691.3843258787789
 20
-190.2225995707233
 30
0.0
 40
5.0
100
AcDbArc
 50
45.54567459977138
 51
75.00000000000555
  0
LINE
  5
FAB7
102
{ACAD_REACTORS
330
FAFB
102
}
330
18
100
AcDbEntity
  8
SINK
100
AcDbLine
 39
0.4
 10
693.3602535403375
 20
-175.2229050857897
 30
0.0
 11
704.9124462992409
 21
-178.3183058063462
 31
0.0
  0
ARC
  5
FAB8
102
{ACAD_REACTORS
330
FAFB
102
}
330
18
100
AcDbEntity
  8
SINK
100
AcDbCircle
 39
0.4
 10
704.6536272541385
 20
-179.2842316326353
 30
0.0
 40
1.0
100
AcDbArc
 50
3.99999999998344
 51
75.00000000000555
  0
ARC
  5
FAB9
102
{ACAD_REACTORS
330
FAFB
102
}
330
18
100
AcDbEntity
  8
SINK
100
AcDbCircle
 39
0.4
 10
693.61907258544
 20
-174.2569792595006
 30
0.0
 40
1.0
100
AcDbArc
 50
225.0000000001108
 51
255.0000000000056
  0
LINE
  5
FABA
102
{ACAD_REACTORS
330
FAFB
102
}
330
18
100
AcDbEntity
  8
SINK
100
AcDbLine
 39
0.4
 10
705.6511913043983
 20
-179.2144751588905
 30
0.0
 11
706.1713824227159
 21
-186.6535547316682
 31
0.0
  0
LINE
  5
FABB
330
18
100
AcDbEntity
  8
CL
100
AcDbLine
 39
0.4
 10
750.6014344952351
 20
-158.1535547316682
 30
0.0
 11
750.6014344952351
 21
-201.6535547316682
 31
0.0
  0
LINE
  5
FABC
102
{ACAD_REACTORS
330
FAFB
102
}
330
18
100
AcDbEntity
  8
SINK
100
AcDbLine
 39
0.4
 10
806.3168408204061
 20
-186.6535547316682
 30
0.0
 11
795.0314865677543
 21
-186.6535547316682
 31
0.0
  0
LINE
  5
FABD
102
{ACAD_REACTORS
330
FAFB
102
}
330
18
100
AcDbEntity
  8
SINK
100
AcDbLine
 39
0.4
 10
706.1713824227159
 20
-186.6535547316682
 30
0.0
 11
694.8860281700677
 21
-186.6535547316682
 31
0.0
  0
LINE
  5
FABE
330
18
100
AcDbEntity
  8
SINK
100
AcDbLine
 39
0.4
 10
795.0314865677543
 20
-186.6535547316682
 30
0.0
 11
706.1713824227159
 21
-186.6535547316682
 31
0.0
  0
MTEXT
  5
FABF
330
18
100
AcDbEntity
  8
CL
100
AcDbMText
 10
780.0426307138646
 20
-39.76375833475163
 30
0.0
 40
5.0
 41
54.4938
 46
0.0
 71
     1
 72
     5
  1
SECTION  A - A
 73
     1
 44
1.0
  0
ARC
  5
FAC0
330
18
100
AcDbEntity
  8
SINK
  6
DASHED2
100
AcDbCircle
 39
0.4
 10
660.9514344952336
 20
553.3062229998129
 30
0.0
 40
1.0
100
AcDbArc
 50
180.0
 51
270.0
  0
ARC
  5
FAC1
330
18
100
AcDbEntity
  8
SINK
  6
DASHED2
100
AcDbCircle
 39
0.4
 10
666.4814344952325
 20
559.1612171274889
 30
0.0
 40
1.0
100
AcDbArc
 50
90.0
 51
180.0
  0
ARC
  5
FAC2
330
18
100
AcDbEntity
  8
SINK
  6
DASHED2
100
AcDbCircle
 39
0.4
 10
660.9514344952336
 20
564.7828505155891
 30
0.0
 40
1.0
100
AcDbArc
 50
90.0
 51
180.0
  0
LINE
  5
FAC3
330
18
100
AcDbEntity
  8
SINK
  6
DASHED2
100
AcDbLine
 39
0.4
 10
659.9514344952337
 20
553.3062229998129
 30
0.0
 11
659.9514344952337
 21
564.7828505155891
 31
0.0
  0
LINE
  5
FAC4
330
18
100
AcDbEntity
  8
SINK
  6
DASHED2
100
AcDbLine
 39
0.4
 10
665.4814344952325
 20
553.3062229998129
 30
0.0
 11
665.4814344952325
 21
559.1612171274889
 31
0.0
  0
ARC
  5
FAC5
330
18
100
AcDbEntity
  8
SINK
  6
DASHED2
100
AcDbCircle
 39
0.4
 10
666.4814344952325
 20
553.3062229998129
 30
0.0
 40
1.0
100
AcDbArc
 50
180.0
 51
270.0
  0
LINE
  5
FAC6
330
18
100
AcDbEntity
  8
SINK
  6
DASHED2
100
AcDbLine
 39
0.4
 10
665.7743277140458
 20
559.8683239086756
 30
0.0
 11
660.244327714047
 21
565.4899572967758
 31
0.0
  0
ARC
  5
FAC7
330
18
100
AcDbEntity
  8
SINK
  6
DASHED2
100
AcDbCircle
 39
0.4000000000000001
 10
273.851434495237
 20
156.2594780313545
 30
0.0
 40
1.0
100
AcDbArc
 50
90.0
 51
180.0
  0
ARC
  5
FAC8
330
18
100
AcDbEntity
  8
SINK
  6
DASHED2
100
AcDbCircle
 39
0.4000000000000001
 10
279.3814344952358
 20
150.4044839036785
 30
0.0
 40
1.0
100
AcDbArc
 50
180.0
 51
270.0
  0
ARC
  5
FAC9
330
18
100
AcDbEntity
  8
SINK
  6
DASHED2
100
AcDbCircle
 39
0.4000000000000001
 10
273.851434495237
 20
144.7828505155783
 30
0.0
 40
1.0
100
AcDbArc
 50
180.0
 51
270.0
  0
LINE
  5
FACA
330
18
100
AcDbEntity
  8
SINK
  6
DASHED2
100
AcDbLine
 39
0.4000000000000001
 10
272.8514344952369
 20
156.2594780313545
 30
0.0
 11
272.8514344952369
 21
144.7828505155783
 31
0.0
  0
LINE
  5
FACB
330
18
100
AcDbEntity
  8
SINK
  6
DASHED2
100
AcDbLine
 39
0.4000000000000001
 10
278.3814344952358
 20
156.2594780313545
 30
0.0
 11
278.3814344952358
 21
150.4044839036785
 31
0.0
  0
ARC
  5
FACC
330
18
100
AcDbEntity
  8
SINK
  6
DASHED2
100
AcDbCircle
 39
0.4000000000000001
 10
279.3814344952358
 20
156.2594780313545
 30
0.0
 40
1.0
100
AcDbArc
 50
90.0
 51
180.0
  0
LINE
  5
FACD
330
18
100
AcDbEntity
  8
SINK
  6
DASHED2
100
AcDbLine
 39
0.4000000000000001
 10
278.6743277140491
 20
149.6973771224918
 30
0.0
 11
273.1443277140503
 21
144.0757437343916
 31
0.0
  0
LINE
  5
FACE
330
18
100
AcDbEntity
  8
SINK
  6
DASHED2
100
AcDbLine
 39
0.4
 10
575.8514344952315
 20
157.2594780313545
 30
0.0
 11
273.851434495237
 21
157.2594780313545
 31
0.0
  0
ARC
  5
FACF
330
18
100
AcDbEntity
  8
SINK
  6
DASHED2
100
AcDbCircle
 39
0.4
 10
575.8514344952315
 20
156.2594780313545
 30
0.0
 40
1.0
100
AcDbArc
 50
0.0
 51
90.0
  0
LINE
  5
FAD0
330
18
100
AcDbEntity
  8
SINK
  6
DASHED2
100
AcDbLine
 39
0.4
 10
570.3214344952327
 20
149.4044839036785
 30
0.0
 11
279.3814344952358
 21
149.4044839036785
 31
0.0
  0
ARC
  5
FAD1
330
18
100
AcDbEntity
  8
SINK
  6
DASHED2
100
AcDbCircle
 39
0.4
 10
570.3214344952327
 20
150.4044839036785
 30
0.0
 40
1.0
100
AcDbArc
 50
270.0
 51
0.0
  0
LINE
  5
FAD2
330
18
100
AcDbEntity
  8
SINK
  6
DASHED2
100
AcDbLine
 39
0.4
 10
575.8514344952315
 20
143.7828505155783
 30
0.0
 11
273.851434495237
 21
143.7828505155783
 31
0.0
  0
ARC
  5
FAD3
330
18
100
AcDbEntity
  8
SINK
  6
DASHED2
100
AcDbCircle
 39
0.4
 10
575.8514344952315
 20
144.7828505155783
 30
0.0
 40
1.0
100
AcDbArc
 50
270.0
 51
0.0
  0
LINE
  5
FAD4
330
18
100
AcDbEntity
  8
SINK
  6
DASHED2
100
AcDbLine
 39
0.4
 10
576.8514344952315
 20
156.2594780313545
 30
0.0
 11
576.8514344952315
 21
144.7828505155783
 31
0.0
  0
LINE
  5
FAD5
330
18
100
AcDbEntity
  8
SINK
  6
DASHED2
100
AcDbLine
 39
0.4
 10
571.3214344952326
 20
156.2594780313545
 30
0.0
 11
571.3214344952326
 21
150.4044839036785
 31
0.0
  0
ARC
  5
FAD6
330
18
100
AcDbEntity
  8
SINK
  6
DASHED2
100
AcDbCircle
 39
0.4
 10
570.3214344952327
 20
156.2594780313545
 30
0.0
 40
1.0
100
AcDbArc
 50
0.0
 51
90.0
  0
LINE
  5
FAD7
330
18
100
AcDbEntity
  8
SINK
  6
DASHED2
100
AcDbLine
 39
0.4
 10
571.0285412764193
 20
149.6973771224918
 30
0.0
 11
576.5585412764181
 21
144.0757437343916
 31
0.0
  0
LINE
  5
FAD8
330
18
100
AcDbEntity
  8
SINK
  6
DASHED2
100
AcDbLine
 39
0.4
 10
840.2514344952402
 20
157.2594780313618
 30
0.0
 11
660.9514344952336
 21
157.2594780313618
 31
0.0
  0
ARC
  5
FAD9
330
18
100
AcDbEntity
  8
SINK
  6
DASHED2
100
AcDbCircle
 39
0.4
 10
840.2514344952402
 20
156.2594780313618
 30
0.0
 40
1.0
100
AcDbArc
 50
0.0
 51
90.0
  0
LINE
  5
FADA
330
18
100
AcDbEntity
  8
SINK
  6
DASHED2
100
AcDbLine
 39
0.4
 10
834.7214344952414
 20
149.4044839036858
 30
0.0
 11
666.4814344952325
 21
149.4044839036858
 31
0.0
  0
ARC
  5
FADB
330
18
100
AcDbEntity
  8
SINK
  6
DASHED2
100
AcDbCircle
 39
0.4
 10
834.7214344952414
 20
150.4044839036858
 30
0.0
 40
1.0
100
AcDbArc
 50
270.0
 51
0.0
  0
LINE
  5
FADC
330
18
100
AcDbEntity
  8
SINK
  6
DASHED2
100
AcDbLine
 39
0.4
 10
840.2514344952402
 20
143.7828505155855
 30
0.0
 11
660.9514344952336
 21
143.7828505155855
 31
0.0
  0
ARC
  5
FADD
330
18
100
AcDbEntity
  8
SINK
  6
DASHED2
100
AcDbCircle
 39
0.4
 10
840.2514344952402
 20
144.7828505155855
 30
0.0
 40
1.0
100
AcDbArc
 50
270.0
 51
0.0
  0
LINE
  5
FADE
330
18
100
AcDbEntity
  8
SINK
  6
DASHED2
100
AcDbLine
 39
0.4
 10
841.2514344952402
 20
156.2594780313618
 30
0.0
 11
841.2514344952402
 21
144.7828505155855
 31
0.0
  0
LINE
  5
FADF
330
18
100
AcDbEntity
  8
SINK
  6
DASHED2
100
AcDbLine
 39
0.4
 10
835.7214344952414
 20
156.2594780313618
 30
0.0
 11
835.7214344952414
 21
150.4044839036858
 31
0.0
  0
ARC
  5
FAE0
330
18
100
AcDbEntity
  8
SINK
  6
DASHED2
100
AcDbCircle
 39
0.4
 10
834.7214344952414
 20
156.2594780313618
 30
0.0
 40
1.0
100
AcDbArc
 50
0.0
 51
90.0
  0
LINE
  5
FAE1
330
18
100
AcDbEntity
  8
SINK
  6
DASHED2
100
AcDbLine
 39
0.4
 10
835.428541276428
 20
149.6973771224991
 30
0.0
 11
840.9585412764268
 21
144.0757437343989
 31
0.0
  0
ARC
  5
FAE2
330
18
100
AcDbEntity
  8
SINK
  6
DASHED2
100
AcDbCircle
 39
0.4
 10
660.9514344952336
 20
156.2594780313618
 30
0.0
 40
1.0
100
AcDbArc
 50
90.0
 51
180.0
  0
ARC
  5
FAE3
330
18
100
AcDbEntity
  8
SINK
  6
DASHED2
100
AcDbCircle
 39
0.4
 10
666.4814344952325
 20
150.4044839036858
 30
0.0
 40
1.0
100
AcDbArc
 50
180.0
 51
270.0
  0
ARC
  5
FAE4
330
18
100
AcDbEntity
  8
SINK
  6
DASHED2
100
AcDbCircle
 39
0.4
 10
660.9514344952336
 20
144.7828505155855
 30
0.0
 40
1.0
100
AcDbArc
 50
180.0
 51
270.0
  0
LINE
  5
FAE5
330
18
100
AcDbEntity
  8
SINK
  6
DASHED2
100
AcDbLine
 39
0.4
 10
659.9514344952337
 20
156.2594780313618
 30
0.0
 11
659.9514344952337
 21
144.7828505155855
 31
0.0
  0
LINE
  5
FAE6
330
18
100
AcDbEntity
  8
SINK
  6
DASHED2
100
AcDbLine
 39
0.4
 10
665.4814344952325
 20
156.2594780313618
 30
0.0
 11
665.4814344952325
 21
150.4044839036858
 31
0.0
  0
ARC
  5
FAE7
330
18
100
AcDbEntity
  8
SINK
  6
DASHED2
100
AcDbCircle
 39
0.4
 10
666.4814344952325
 20
156.2594780313618
 30
0.0
 40
1.0
100
AcDbArc
 50
90.0
 51
180.0
  0
LINE
  5
FAE8
330
18
100
AcDbEntity
  8
SINK
  6
DASHED2
100
AcDbLine
 39
0.4
 10
665.7743277140458
 20
149.6973771224991
 30
0.0
 11
660.244327714047
 21
144.0757437343989
 31
0.0
  0
LINE
  5
FAE9
330
18
100
AcDbEntity
  8
SINK
  6
DASHED2
100
AcDbLine
 39
0.4
 10
869.5748069794614
 20
195.7828505155828
 30
0.0
 11
869.5748069794614
 21
513.7828505155846
 31
0.0
  0
ARC
  5
FAEA
330
18
100
AcDbEntity
  8
SINK
  6
DASHED2
100
AcDbCircle
 39
0.4
 10
870.5748069794614
 20
195.7828505155828
 30
0.0
 40
1.0
100
AcDbArc
 50
180.0
 51
270.0
  0
LINE
  5
FAEB
330
18
100
AcDbEntity
  8
SINK
  6
DASHED2
100
AcDbLine
 39
0.4
 10
877.4298011071374
 20
201.3128505155826
 30
0.0
 11
877.4298011071374
 21
508.2528505155848
 31
0.0
  0
ARC
  5
FAEC
330
18
100
AcDbEntity
  8
SINK
  6
DASHED2
100
AcDbCircle
 39
0.4
 10
876.4298011071375
 20
201.3128505155826
 30
0.0
 40
1.0
100
AcDbArc
 50
270.0
 51
0.0
  0
LINE
  5
FAED
330
18
100
AcDbEntity
  8
SINK
  6
DASHED2
100
AcDbLine
 39
0.4
 10
883.0514344952376
 20
195.7828505155837
 30
0.0
 11
883.0514344952376
 21
513.7828505155837
 31
0.0
  0
ARC
  5
FAEE
330
18
100
AcDbEntity
  8
SINK
  6
DASHED2
100
AcDbCircle
 39
0.4
 10
882.0514344952377
 20
195.7828505155837
 30
0.0
 40
1.0
100
AcDbArc
 50
270.0
 51
0.0
  0
LINE
  5
FAEF
330
18
100
AcDbEntity
  8
SINK
  6
DASHED2
100
AcDbLine
 39
0.4
 10
870.5748069794614
 20
194.7828505155828
 30
0.0
 11
882.0514344952377
 21
194.7828505155837
 31
0.0
  0
LINE
  5
FAF0
330
18
100
AcDbEntity
  8
SINK
  6
DASHED2
100
AcDbLine
 39
0.4
 10
870.5748069794614
 20
200.3128505155826
 30
0.0
 11
876.4298011071375
 21
200.3128505155826
 31
0.0
  0
ARC
  5
FAF1
330
18
100
AcDbEntity
  8
SINK
  6
DASHED2
100
AcDbCircle
 39
0.4
 10
870.5748069794614
 20
201.3128505155835
 30
0.0
 40
1.0
100
AcDbArc
 50
180.0
 51
270.0
  0
LINE
  5
FAF2
330
18
100
AcDbEntity
  8
SINK
  6
DASHED2
100
AcDbLine
 39
0.4
 10
877.1369078883241
 20
200.6057437343959
 30
0.0
 11
882.7585412764243
 21
195.075743734397
 31
0.0
  0
ARC
  5
FAF3
330
18
100
AcDbEntity
  8
SINK
  6
DASHED2
100
AcDbCircle
 39
0.4
 10
870.5748069794614
 20
513.7828505155846
 30
0.0
 40
1.0
100
AcDbArc
 50
90.0
 51
180.0
  0
ARC
  5
FAF4
330
18
100
AcDbEntity
  8
SINK
  6
DASHED2
100
AcDbCircle
 39
0.4
 10
876.4298011071375
 20
508.2528505155848
 30
0.0
 40
1.0
100
AcDbArc
 50
0.0
 51
90.0
  0
ARC
  5
FAF5
330
18
100
AcDbEntity
  8
SINK
  6
DASHED2
100
AcDbCircle
 39
0.4
 10
882.0514344952377
 20
513.7828505155837
 30
0.0
 40
1.0
100
AcDbArc
 50
0.0
 51
90.0
  0
LINE
  5
FAF6
330
18
100
AcDbEntity
  8
SINK
  6
DASHED2
100
AcDbLine
 39
0.4
 10
870.5748069794614
 20
514.7828505155846
 30
0.0
 11
882.0514344952377
 21
514.7828505155837
 31
0.0
  0
LINE
  5
FAF7
330
18
100
AcDbEntity
  8
SINK
  6
DASHED2
100
AcDbLine
 39
0.4
 10
870.5748069794614
 20
509.2528505155849
 30
0.0
 11
876.4298011071375
 21
509.2528505155849
 31
0.0
  0
ARC
  5
FAF8
330
18
100
AcDbEntity
  8
SINK
  6
DASHED2
100
AcDbCircle
 39
0.4
 10
870.5748069794614
 20
508.2528505155839
 30
0.0
 40
1.0
100
AcDbArc
 50
90.0
 51
180.0
  0
LINE
  5
FAF9
330
18
100
AcDbEntity
  8
SINK
  6
DASHED2
100
AcDbLine
 39
0.4
 10
877.1369078883241
 20
508.9599572967715
 30
0.0
 11
882.7585412764243
 21
514.4899572967704
 31
0.0
  0
LINE
  5
FAFA
330
18
100
AcDbEntity
  8
CL
100
AcDbLine
 39
0.4
 10
494.8514344952333
 20
379.7828505155819
 30
0.0
 11
681.3514344952351
 21
379.7828505155819
 31
0.0
  0
HATCH
  5
FAFB
330
18
100
AcDbEntity
  8
HATCH
100
AcDbHatch
 10
0.0
 20
0.0
 30
0.0
210
0.0
220
0.0
230
1.0
  2
ANSI34
 70
     0
 71
     1
 91
        3
 92
        1
 93
       30
 72
     2
 10
281.9221827318748
 20
-174.7537659995462
 40
20.0
 50
184.9999999999769
 51
266.9999999999944
 73
     1
 72
     1
 10
280.8754636070158
 20
-194.7263566946378
 11
364.9680965325157
 21
-199.1334648403292
 72
     2
 10
364.9157605762726
 20
-200.1320943750845
 40
1.0
 50
273.0000000000056
 51
314.9999999999998
 73
     0
 72
     1
 10
365.6228673574593
 20
-199.4249875938978
 11
367.1619658042515
 21
-200.9640860406892
 72
     2
 10
367.8690725854382
 20
-200.2569792595025
 40
1.0
 50
225.0000000000002
 51
255.0000000000056
 73
     1
 72
     1
 10
367.6102535403357
 20
-201.2229050857916
 11
379.1624462992392
 21
-204.318305806348
 72
     2
 10
378.9036272541367
 20
-205.2842316326371
 40
1.0
 50
284.9999999999944
 51
356.0000000000166
 73
     0
 72
     1
 10
379.9011913043965
 20
-205.2144751588933
 11
380.4213824227142
 21
-212.65355473167
 72
     1
 10
380.4213824227142
 20
-212.65355473167
 11
369.1360281700623
 21
-212.65355473167
 72
     2
 10
365.6343258787753
 20
-216.222599570726
 40
5.0
 50
45.54567459977138
 51
75.00000000000555
 73
     1
 72
     1
 10
366.9284211042892
 20
-211.3929704392806
 11
357.4934178248974
 21
-208.8648689299828
 72
     2
 10
356.1993225993853
 20
-213.6944980614282
 40
5.0
 50
75.00000000000555
 51
86.99999999999441
 73
     1
 72
     1
 10
356.4610023806005
 20
-208.7013503876554
 11
280.0454015475249
 21
-204.6965784454162
 72
     2
 10
281.3538004535973
 20
-179.7308400765516
 40
25.0
 50
93.00000000000562
 51
175.0000000000231
 73
     0
 72
     1
 10
256.4489330013044
 20
-181.9097336452425
 11
250.1722037695969
 21
-110.1663902365364
 72
     2
 10
245.1912302791358
 20
-110.6021689502752
 40
5.0
 50
5.000000000029218
 51
82.49598095517534
 73
     1
 72
     2
 10
245.9748047032923
 20
-104.6535547316682
 40
1.0
 50
97.50401904492967
 51
172.0000000000091
 73
     0
 72
     1
 10
244.9845366345513
 20
-104.7927278326281
 11
231.6563411498634
 21
-9.957689226867159
 72
     2
 10
226.7050008061548
 20
-10.65355473166823
 40
5.0
 50
7.999999999990921
 51
86.02697916392882
 73
     1
 72
     1
 10
227.0514344952377
 20
-5.665570800352043
 11
227.051434495234
 21
-3.653554731663689
 72
     1
 10
227.051434495234
 20
-3.653554731663689
 11
207.0514344952359
 21
-3.653554731668236
 72
     1
 10
207.0514344952359
 20
-3.653554731668236
 11
207.3506531342943
 21
0.6254711633080206
 72
     2
 10
211.3409093353336
 20
0.3464452683317631
 40
4.0
 50
183.9999999999834
 51
270.0
 73
     0
 72
     1
 10
211.3409093353336
 20
4.346445268331763
 11
234.7606065601909
 21
4.346445268330853
 72
     2
 10
234.7606065601909
 20
1.846445268330853
 40
2.5
 50
270.0
 51
354.9999999999708
 73
     0
 72
     1
 10
237.2510933054224
 20
2.064334625200672
 11
237.7266623203074
 21
-3.371444088538055
 72
     2
 10
240.2171490655388
 20
-3.153554731669146
 40
2.5
 50
185.0000000000292
 51
270.0
 73
     1
 72
     1
 10
240.2171490655388
 20
-5.653554731669146
 11
244.7606065601909
 21
-5.653554731669146
 72
     2
 10
244.7606065601909
 20
-8.153554731669146
 40
2.5
 50
270.0
 51
354.9999999999708
 73
     0
 72
     1
 10
247.2510933054224
 20
-7.935665374799327
 11
261.9982887700395
 21
-176.4968808544984
 97
       30
330
FA6E
330
FA6D
330
FA73
330
FA72
330
FA7C
330
FA7A
330
FA7D
330
FA7B
330
FA84
330
FA76
330
FA71
330
FA69
330
FA68
330
FA58
330
FA57
330
FA61
330
FA60
330
FA66
330
FA62
330
FA65
330
FA5F
330
FA63
330
FA5D
330
FA5E
330
FA54
330
FA55
330
FA52
330
FA51
330
FA53
330
FA56
 92
        1
 93
       38
 72
     1
 10
469.2814865677525
 20
-212.65355473167
 11
480.5668408204006
 21
-212.65355473167
 72
     2
 10
484.0685431116895
 20
-216.2225995707252
 40
5.0
 50
225.5456745997714
 51
255.0000000000056
 73
     0
 72
     1
 10
482.7744478861774
 20
-211.3929704392797
 11
492.2094511655656
 21
-208.8648689299828
 72
     2
 10
493.5035463910777
 20
-213.6944980614282
 40
5.0
 50
255.0000000000056
 51
266.9999999999944
 73
     0
 72
     1
 10
493.2418666098643
 20
-208.7013503876554
 11
569.6574674429418
 21
-204.6965784454153
 72
     2
 10
568.3490685368675
 20
-179.7308400765507
 40
25.0
 50
273.0000000000056
 51
355.0000000000232
 73
     1
 72
     1
 10
593.2539359891603
 20
-181.9097336452416
 11
607.4001492648609
 21
-20.21777601793042
 72
     2
 10
612.3811227553202
 20
-20.65355473166824
 40
5.0
 50
184.9999999999769
 51
270.0
 73
     0
 72
     1
 10
612.3811227553202
 20
-15.65355473166824
 11
624.4217462351468
 21
-15.65355473166824
 72
     2
 10
624.4217462351468
 20
-20.65355473166824
 40
5.0
 50
270.0
 51
355.0000000000232
 73
     0
 72
     1
 10
629.4027197256061
 20
-20.21777601793042
 11
641.5463407517496
 21
-159.0199994916449
 72
     2
 10
666.4512082040424
 20
-156.8411059229531
 40
25.0
 50
185.0000000000292
 51
266.9999999999944
 73
     1
 72
     1
 10
665.1428092979682
 20
-181.8068442918177
 11
682.2110023806041
 21
-182.7013503876535
 72
     2
 10
681.9493225993907
 20
-187.6944980614264
 40
5.0
 50
273.0000000000056
 51
284.9999999999944
 73
     0
 72
     1
 10
683.2434178249028
 20
-182.8648689299809
 11
692.678421104291
 21
-185.3929704392778
 72
     2
 10
691.3843258787789
 20
-190.2225995707233
 40
5.0
 50
284.9999999999944
 51
314.4543254002286
 73
     0
 72
     1
 10
694.8860281700677
 20
-186.6535547316682
 11
706.1713824227159
 21
-186.6535547316682
 72
     1
 10
706.1713824227159
 20
-186.6535547316682
 11
705.6511913043983
 21
-179.2144751588905
 72
     2
 10
704.6536272541385
 20
-179.2842316326353
 40
1.0
 50
3.99999999998344
 51
75.00000000000555
 73
     1
 72
     1
 10
704.9124462992409
 20
-178.3183058063462
 11
693.3602535403375
 21
-175.2229050857897
 72
     2
 10
693.61907258544
 20
-174.2569792595006
 40
1.0
 50
104.9999999999944
 51
134.9999999998892
 73
     0
 72
     1
 10
692.9119658042552
 20
-174.9640860406873
 11
691.3728673574629
 21
-173.424987593896
 72
     2
 10
690.6657605762744
 20
-174.1320943750827
 40
1.0
 50
45.00000000011077
 51
86.99999999999441
 73
     1
 72
     1
 10
690.7180965325174
 20
-173.1334648403274
 11
665.9728713574573
 21
-171.8366225410448
 72
     2
 10
667.0195904823164
 20
-151.8640318459531
 40
20.0
 50
93.00000000000562
 51
175.0000000000231
 73
     0
 72
     1
 10
647.095696520481
 20
-153.6071467009062
 11
634.3510933054209
 21
-7.935665374799327
 72
     2
 10
631.8606065601913
 20
-8.153554731668236
 40
2.5
 50
5.000000000029218
 51
90.0
 73
     1
 72
     1
 10
631.8606065601913
 20
-5.653554731670055
 11
604.9422624302775
 21
-5.653554731668236
 72
     2
 10
604.9422624302775
 20
-8.153554731668236
 40
2.5
 50
90.0
 51
175.0000000000231
 73
     1
 72
     1
 10
602.4517756850478
 20
-7.935665374799327
 11
587.7045802204289
 21
-176.4968808545038
 72
     2
 10
567.7806862585936
 20
-174.7537659995507
 40
20.0
 50
4.99999999997689
 51
86.99999999999439
 73
     0
 72
     1
 10
568.8274053834526
 20
-194.7263566946424
 11
484.7347724579509
 21
-199.1334648403292
 72
     2
 10
484.787108414194
 20
-200.1320943750845
 40
1.0
 50
93.00000000000558
 51
134.9999999999997
 73
     1
 72
     1
 10
484.0800016330055
 20
-199.4249875938978
 11
482.5409031862132
 21
-200.9640860406892
 72
     2
 10
481.8337964050284
 20
-200.2569792595025
 40
1.0
 50
45.00000000000025
 51
75.00000000000561
 73
     0
 72
     1
 10
482.0926154501308
 20
-201.2229050857916
 11
470.5404226912275
 21
-204.318305806348
 72
     2
 10
470.7992417363299
 20
-205.2842316326371
 40
1.0
 50
104.9999999999944
 51
176.0000000000165
 73
     1
 72
     1
 10
469.8016776860701
 20
-205.2144751588924
 11
469.2814865677525
 21
-212.65355473167
 97
       38
330
FA85
330
FA7E
330
FA6F
330
FA70
330
FA6A
330
FA6B
330
FA4E
330
FA4F
330
FA5B
330
FA8A
330
FA88
330
FA89
330
FAA3
330
FAA8
330
FAA7
330
FAB6
330
FABD
330
FABA
330
FAB8
330
FAB7
330
FAB9
330
FAAC
330
FAAD
330
FAA4
330
FAA5
330
FA87
330
FA8B
330
FA5A
330
FA50
330
FA4C
330
FA4D
330
FA6C
330
FA75
330
FA74
330
FA81
330
FA7F
330
FA80
330
FA82
 92
        1
 93
       30
 72
     1
 10
806.3168408204061
 20
-186.6535547316682
 11
795.0314865677543
 21
-186.6535547316682
 72
     1
 10
795.0314865677543
 20
-186.6535547316682
 11
795.5516776860719
 21
-179.2144751588914
 72
     2
 10
796.5492417363317
 20
-179.2842316326353
 40
1.0
 50
183.9999999999834
 51
255.0000000000056
 73
     0
 72
     1
 10
796.2904226912293
 20
-178.3183058063462
 11
807.8426154501327
 21
-175.2229050857897
 72
     2
 10
807.5837964050302
 20
-174.2569792595006
 40
1.0
 50
284.9999999999944
 51
314.9999999998892
 73
     1
 72
     1
 10
808.2909031862168
 20
-174.9640860406873
 11
809.8300016330091
 21
-173.424987593896
 72
     2
 10
810.5371084141959
 20
-174.1320943750827
 40
1.0
 50
225.0000000001108
 51
266.9999999999944
 73
     0
 72
     1
 10
810.4847724579528
 20
-173.1334648403274
 11
835.2299976330201
 21
-171.836622541042
 72
     2
 10
834.1832785081612
 20
-151.8640318459504
 40
20.0
 50
273.0000000000056
 51
355.0000000000232
 73
     1
 72
     1
 10
854.1071724699964
 20
-153.6071467009026
 11
866.851775685053
 21
-7.935665374799327
 72
     2
 10
869.3422624302844
 20
-8.153554731669146
 40
2.5
 50
185.0000000000292
 51
270.0
 73
     0
 72
     1
 10
869.3422624302844
 20
-5.653554731669146
 11
873.8857199249364
 21
-5.653554731669146
 72
     2
 10
873.8857199249364
 20
-3.153554731669146
 40
2.5
 50
270.0
 51
354.9999999999708
 73
     1
 72
     1
 10
876.376206670168
 20
-3.371444088538055
 11
876.8517756850529
 21
2.064334625200672
 72
     2
 10
879.3422624302845
 20
1.846445268330853
 40
2.5
 50
185.0000000000292
 51
270.0
 73
     0
 72
     1
 10
879.3422624302845
 20
4.346445268330853
 11
902.7619596551417
 21
4.346445268331763
 72
     2
 10
902.7619596551417
 20
0.3464452683317631
 40
4.0
 50
270.0
 51
356.0000000000166
 73
     0
 72
     1
 10
906.7522158561811
 20
0.6254711633080206
 11
907.0514344952394
 21
-3.653554731668236
 72
     1
 10
907.0514344952394
 20
-3.653554731668236
 11
887.0514344952413
 21
-3.653554731668236
 72
     1
 10
887.0514344952413
 20
-3.653554731668236
 11
887.0514344952377
 21
-5.665570800352043
 72
     2
 10
887.3978681843206
 20
-10.65355473166823
 40
5.0
 50
93.97302083607115
 51
172.0000000000091
 73
     1
 72
     1
 10
882.4465278406121
 20
-9.957689226868069
 11
870.5237407029477
 21
-94.79272783262718
 72
     2
 10
869.5334726342068
 20
-94.65355473166733
 40
1.0
 50
7.999999999990902
 51
87.62145321811763
 73
     0
 72
     2
 10
869.7824819339027
 20
-100.6483853688635
 40
5.0
 50
92.37854678188236
 51
174.9999999999707
 73
     1
 72
     1
 10
864.8015084434415
 20
-100.2126066551247
 11
859.6565282387297
 21
-159.0199994916458
 72
     2
 10
834.7516607864369
 20
-156.8411059229549
 40
25.0
 50
4.99999999997689
 51
86.99999999999439
 73
     0
 72
     1
 10
836.0600596925074
 20
-181.8068442918195
 11
818.991866609868
 21
-182.7013503876535
 72
     2
 10
819.2535463910832
 20
-187.6944980614264
 40
5.0
 50
93.00000000000558
 51
104.9999999999944
 73
     1
 72
     1
 10
817.9594511655711
 20
-182.8648689299809
 11
808.5244478861792
 21
-185.3929704392788
 72
     2
 10
809.8185431116931
 20
-190.2225995707242
 40
5.0
 50
104.9999999999944
 51
134.4543254002286
 73
     1
 97
       30
330
FABC
330
FAB3
330
FAB5
330
FAB2
330
FAB4
330
FAAA
330
FAAB
330
FAA6
330
FA92
330
FA91
330
FA8E
330
FA8C
330
FA8D
330
FA90
330
FA8F
330
FA96
330
FA95
330
FA99
330
FA97
330
FA9B
330
FA98
330
FA9C
330
FA9E
330
FA9F
330
FA93
330
FAA1
330
FAA0
330
FAA2
330
FAA9
330
FAAE
 75
     0
 76
     1
 52
0.0
 41
10.0
 77
     0
 78
     4
 53
45.0
 43
-8438.468986615445
 44
-5624.705133476776
 45
-5.303300858899105
 46
5.303300858899106
 79
     0
 53
45.0
 43
-8436.701219665446
 44
-5624.705133476776
 45
-5.303300858899105
 46
5.303300858899106
 79
     0
 53
45.0
 43
-8434.933452705445
 44
-5624.705133476776
 45
-5.303300858899105
 46
5.303300858899106
 79
     0
 53
45.0
 43
-8433.165685755446
 44
-5624.705133476776
 45
-5.303300858899105
 46
5.303300858899106
 79
     0
 98
        1
 10
-8438.468986615445
 20
-5624.705133476776
1001
ACAD
1010
0.0
1020
0.0
1030
0.0
  0
DIMENSION
  5
FC0C
330
18
100
AcDbEntity
  8
DIM
100
AcDbDimension
280
     0
  2
*D13
 10
867.051434495238
 20
159.7828505155848
 30
0.0
 11
922.4622452261478
 21
127.5577182912184
 31
0.0
 70
   164
 71
     5
 42
19.99999999999988
 73
     0
 74
     0
 75
     0
  3
STANDARD
100
AcDbRadialDimension
 15
882.5870612942123
 25
147.1874426236987
 35
0.0
 40
0.0
1001
ACAD
1000
DSTYLE
1002
{
1070
   288
1070
     1
1002
}
  0
LINE
  5
FCC9
330
18
100
AcDbEntity
  8
SINK
100
AcDbLine
 10
907.0514344952361
 20
579.7828505155846
 30
0.0
 11
207.0514344952377
 21
579.7828505155838
 31
0.0
  0
DIMENSION
  5
FCF1
330
18
100
AcDbEntity
  8
DIM
100
AcDbDimension
280
     0
  2
*D14
 10
158.3490404826339
 20
119.7828505155837
 30
0.0
 11
158.3490404826339
 21
349.7828505155838
 31
0.0
 70
   160
 71
     5
 42
460.0
 73
     0
 74
     0
 75
     0
  3
STANDARD
100
AcDbAlignedDimension
 13
207.0514344952377
 23
579.7828505155838
 33
0.0
 14
215.0514344952377
 24
119.7828505155837
 34
0.0
 50
90.0
100
AcDbRotatedDimension
1001
ACAD
1000
DSTYLE
1002
{
1070
   272
1070
     0
1070
    47
1040
1.0
1070
   147
1040
0.09
1070
    48
1040
1.0
1070
    72
1070
     0
1070
    71
1070
     1
1002
}
  0
DIMENSION
  5
FCFF
330
18
100
AcDbEntity
  8
DIM
100
AcDbDimension
280
     0
  2
*D15
 10
189.1977769180225
 20
119.7828505155837
 30
0.0
 11
189.1977769180225
 21
249.7828505155837
 31
0.0
 70
    32
 71
     5
 42
259.9999999999999
 73
     0
 74
     0
 75
     0
  3
STANDARD
100
AcDbAlignedDimension
 13
207.0514344952377
 23
379.7828505155836
 33
0.0
 14
215.0514344952377
 24
119.7828505155837
 34
0.0
 50
90.0
100
AcDbRotatedDimension
  0
VIEWPORT
  5
3D
330
15
100
AcDbEntity
 67
     1
  8
0
100
AcDbViewport
 10
648.4705430962849
 20
279.7201575167876
 30
0.0
 40
1402.280494834415
 41
611.625208012718
 68
     1
 69
     1
 12
648.4705430962849
 22
279.7201575167876
 13
0.0
 23
0.0
 14
0.5
 24
0.5
 15
0.5
 25
0.5
 16
0.0
 26
0.0
 36
1.0
 17
0.0
 27
0.0
 37
0.0
 42
50.0
 43
0.0
 44
0.0
 45
611.625208012718
 50
0.0
 51
0.0
 72
   100
 90
    32800
  1

281
     0
 71
     1
 74
     0
110
0.0
120
0.0
130
0.0
111
1.0
121
0.0
131
0.0
112
0.0
122
1.0
132
0.0
 79
     0
146
0.0
170
     0
 61
     5
348
1000A
292
     1
282
     1
141
0.0
142
0.0
 63
   250
421
  3355443
  0
VIEWPORT
  5
91
330
15
100
AcDbEntity
 67
     1
  8
VP
100
AcDbViewport
 10
413.0
 20
268.0
 30
0.0
 40
826.0
 41
536.0
 68
     2
 69
     2
 12
764.3823244817857
 22
220.606061364062
 13
0.0
 23
0.0
 14
0.5
 24
0.5
 15
0.5
 25
0.5
 16
0.0
 26
0.0
 36
1.0
 17
0.0
 27
0.0
 37
0.0
 42
50.0
 43
0.0
 44
0.0
 45
1072.000002202059
 50
0.0
 51
0.0
 72
   100
 90
    32800
  1

281
     0
 71
     1
 74
     0
110
0.0
120
0.0
130
0.0
111
1.0
121
0.0
131
0.0
112
0.0
122
1.0
132
0.0
 79
     0
146
0.0
170
     0
 61
     5
348
1000A
292
     1
282
     1
141
0.0
142
0.0
 63
   250
421
  3355443
  0
TEXT
  5
C3
330
15
100
AcDbEntity
 67
     1
  8
SHEET
100
AcDbText
 10
643.6074401272232
 20
29.1462164538458
 30
0.0
 40
7.0
  1
CARRON PHOENIX LIMITED
 41
1.25
  7
TITLE
100
AcDbText
  0
TEXT
  5
C4
330
15
100
AcDbEntity
 67
     1
  8
SHEET
100
AcDbText
 10
686.277084038376
 20
9.996084583200172
 30
0.0
 40
3.0
  1
T. PATON
100
AcDbText
  0
TEXT
  5
C5
330
15
100
AcDbEntity
 67
     1
  8
SHEET
100
AcDbText
 10
632.8414978404748
 20
9.996084583200172
 30
0.0
 40
3.0
  1
SCALE
100
AcDbText
  0
TEXT
  5
C6
330
15
100
AcDbEntity
 67
     1
  8
SHEET
100
AcDbText
 10
661.9584781159993
 20
20.99891592694101
 30
0.0
 40
4.0
  1
FALKIRK
 41
1.25
  7
TITLE
100
AcDbText
  0
TEXT
  5
C7
330
15
100
AcDbEntity
 67
     1
  8
SHEET
100
AcDbText
 10
660.8840537883387
 20
9.996084583200172
 30
0.0
 40
3.0
  1
DRN.
100
AcDbText
  0
TEXT
  5
C8
330
15
100
AcDbEntity
 67
     1
  8
SHEET
100
AcDbText
 10
741.4796427340283
 20
20.99891592694101
 30
0.0
 40
4.0
  1
SCOTLAND
 41
1.25
  7
TITLE
100
AcDbText
  0
TEXT
  5
C9
330
15
100
AcDbEntity
 67
     1
  8
SHEET
100
AcDbText
 10
742.6114569712799
 20
9.996084583200172
 30
0.0
 40
3.0
  1
11/05/07
100
AcDbText
  0
TEXT
  5
CA
330
15
100
AcDbEntity
 67
     1
  8
SHEET
100
AcDbText
 10
718.9266097362026
 20
9.996084583200172
 30
0.0
 40
3.0
  1
DATE
100
AcDbText
  0
TEXT
  5
CB
330
15
100
AcDbEntity
 67
     1
  8
SHEET
100
AcDbText
 10
768.4372487231684
 20
9.996084583200172
 30
0.0
 40
3.0
  1
DWG. No.
100
AcDbText
  0
TEXT
  5
CD
330
15
100
AcDbEntity
 67
     1
  8
SHEET
100
AcDbText
 10
665.0744164985917
 20
55.45675693379304
 30
0.0
 40
8.0
  1
KDC 2027 UNDERMOUNT
  7
TITLE
100
AcDbText
  0
TEXT
  5
CE
330
15
100
AcDbEntity
 67
     1
  8
SHEET
100
AcDbText
 10
628.4372487231686
 20
64.52122657551583
 30
0.0
 40
3.5
  1
TITLE
100
AcDbText
  0
LINE
  5
D0
330
15
100
AcDbEntity
 67
     1
  8
SHEET
100
AcDbLine
 10
626.0
 20
38.0
 30
0.0
 11
826.0
 21
38.0
 31
0.0
  0
LINE
  5
D1
330
15
100
AcDbEntity
 67
     1
  8
SHEET
100
AcDbLine
 10
626.0
 20
16.0
 30
0.0
 11
826.0
 21
16.0
 31
0.0
  0
LINE
  5
D2
330
15
100
AcDbEntity
 67
     1
  8
SHEET
100
AcDbLine
 10
626.0
 20
70.0
 30
0.0
 11
826.0
 21
70.0
 31
0.0
  0
LINE
  5
D3
330
15
100
AcDbEntity
 67
     1
  8
SHEET
100
AcDbLine
 10
626.0
 20
0.0
 30
0.0
 11
626.0
 21
70.0
 31
0.0
  0
LINE
  5
D4
330
15
100
AcDbEntity
 67
     1
  8
SHEET
100
AcDbLine
 10
766.0
 20
8.0
 30
0.0
 11
626.0
 21
8.0
 31
0.0
  0
TEXT
  5
D5
330
15
100
AcDbEntity
 67
     1
  8
SHEET
100
AcDbText
 10
636.0230835199595
 20
1.996084583200172
 30
0.0
 40
3.0
  1
1 : 2
100
AcDbText
  0
LINE
  5
D6
330
15
100
AcDbEntity
 67
     1
  8
SHEET
100
AcDbLine
 10
656.0
 20
16.0
 30
0.0
 11
656.0
 21
0.0
 31
0.0
  0
TEXT
  5
D7
330
15
100
AcDbEntity
 67
     1
  8
SHEET
100
AcDbText
 10
718.9266097362026
 20
1.996084583200172
 30
0.0
 40
3.0
  1
DATE
100
AcDbText
  0
LINE
  5
D8
330
15
100
AcDbEntity
 67
     1
  8
SHEET
100
AcDbLine
 10
716.0
 20
16.0
 30
0.0
 11
716.0
 21
0.0
 31
0.0
  0
LINE
  5
D9
330
15
100
AcDbEntity
 67
     1
  8
SHEET
100
AcDbLine
 10
736.0
 20
16.0
 30
0.0
 11
736.0
 21
0.0
 31
0.0
  0
LINE
  5
DA
330
15
100
AcDbEntity
 67
     1
  8
SHEET
100
AcDbLine
 10
766.0
 20
16.0
 30
0.0
 11
766.0
 21
0.0
 31
0.0
  0
TEXT
  5
14C
330
15
100
AcDbEntity
 67
     1
  8
SHEET
100
AcDbText
 10
394.3111155747608
 20
542.7165616792604
 30
0.0
 40
3.0
  1
UNTOLERANCED DIMENSIONS +/-2
  7
EUROROMAN
100
AcDbText
  0
TEXT
  5
14D
330
15
100
AcDbEntity
 67
     1
  8
SHEET
100
AcDbText
 10
394.3111155747608
 20
547.7165616792603
 30
0.0
 40
3.0
  1
UNLESS OTHERWISE SPECIFIED ALL
  7
EUROROMAN
100
AcDbText
  0
TEXT
  5
170
330
15
100
AcDbEntity
 67
     1
  8
SHEET
100
AcDbText
 10
645.7143374186281
 20
544.5964358029121
 30
0.0
 40
4.0
  1
THIRD ANGLE PROJECTION
 41
1.25
  7
TITLE
100
AcDbText
  0
TEXT
  5
171
330
15
100
AcDbEntity
 67
     1
  8
SHEET
100
AcDbText
 10
482.2548096935725
 20
542.0929519229177
 30
0.0
 40
3.0
  1
UNLESS OTHERWISE SPECIFIED
  7
TITLE
100
AcDbText
  0
TEXT
  5
172
330
15
100
AcDbEntity
 67
     1
  8
SHEET
100
AcDbText
 10
478.2731496697663
 20
547.7365066104174
 30
0.0
 40
3.0
  1
ALL DIMENSIONS IN MILLIMETRES
  7
TITLE
100
AcDbText
  0
TEXT
  5
173
330
15
100
AcDbEntity
 67
     1
  8
SHEET
100
AcDbText
 10
581.9291848841144
 20
542.0929519229177
 30
0.0
 40
3.0
  1
IF IN DOUBT ASK
  7
TITLE
100
AcDbText
  0
TEXT
  5
174
330
15
100
AcDbEntity
 67
     1
  8
SHEET
100
AcDbText
 10
560.6918259577939
 20
547.7365066104174
 30
0.0
 40
3.0
  1
DO NOT SCALE FROM THIS DRAWING
  7
TITLE
100
AcDbText
  0
LINE
  5
175
330
15
100
AcDbEntity
 67
     1
  8
SHEET
100
AcDbLine
 10
776.0
 20
551.4999604751336
 30
0.0
 11
811.0
 21
553.9999604751336
 31
0.0
  0
LINE
  5
176
330
15
100
AcDbEntity
 67
     1
  8
SHEET
  6
CENTER
100
AcDbLine
 10
741.0
 20
546.4999604751336
 30
0.0
 11
816.0
 21
546.4999604751336
 31
0.0
  0
LINE
  5
177
330
15
100
AcDbEntity
 67
     1
  8
SHEET
100
AcDbLine
 10
776.0
 20
541.4999604751336
 30
0.0
 11
811.0
 21
538.9999604751336
 31
0.0
  0
CIRCLE
  5
178
330
15
100
AcDbEntity
 67
     1
  8
SHEET
100
AcDbCircle
 10
751.0
 20
546.4999604751336
 30
0.0
 40
5.0
  0
CIRCLE
  5
179
330
15
100
AcDbEntity
 67
     1
  8
SHEET
100
AcDbCircle
 10
751.0
 20
546.4999604751336
 30
0.0
 40
7.5
  0
LINE
  5
17A
330
15
100
AcDbEntity
 67
     1
  8
SHEET
  6
CENTER
100
AcDbLine
 10
751.0
 20
536.4999604751337
 30
0.0
 11
751.0
 21
556.4999604751336
 31
0.0
  0
LINE
  5
17B
330
15
100
AcDbEntity
 67
     1
  8
SHEET
100
AcDbLine
 10
776.0
 20
541.4999604751336
 30
0.0
 11
776.0
 21
551.4999604751336
 31
0.0
  0
LINE
  5
17C
330
15
100
AcDbEntity
 67
     1
  8
SHEET
100
AcDbLine
 10
811.0
 20
538.9999604751336
 30
0.0
 11
811.0
 21
553.9999604751336
 31
0.0
  0
LINE
  5
1184
330
15
100
AcDbEntity
 67
     1
  8
SHEET
100
AcDbLine
 10
676.0
 20
16.0
 30
0.0
 11
676.0
 21
0.0
 31
0.0
  0
TEXT
  5
2F5D
330
15
100
AcDbEntity
 67
     1
  8
SHEET
100
AcDbText
 10
689.1696353061774
 20
45.22399627243316
 30
0.0
 40
5.0
  1
MACHINE DIMENSIONS
  7
TITLE
100
AcDbText
  0
LINE
  5
4B8C
330
15
100
AcDbEntity
 67
     1
  8
SHEET
100
AcDbLine
 10
48.10977352972173
 20
559.0
 30
0.0
 11
48.10977352972173
 21
534.0
 31
0.0
  0
TEXT
  5
4B8F
330
15
100
AcDbEntity
 67
     1
  8
SHEET
100
AcDbText
 10
0.8543636042879256
 20
544.3549735064748
 30
0.0
 40
4.5
  1
AMENDMENTS
  7
TITLE
100
AcDbText
  0
LINE
  5
4B90
330
15
100
AcDbEntity
 67
     1
  8
SHEET
100
AcDbLine
 10
0.0
 20
559.0
 30
0.0
 11
826.0
 21
559.0
 31
0.0
  0
LINE
  5
4B97
330
15
100
AcDbEntity
 67
     1
  8
SHEET
100
AcDbLine
 10
0.0
 20
534.0
 30
0.0
 11
826.0
 21
534.0
 31
0.0
  0
LINE
  5
4B98
330
15
100
AcDbEntity
 67
     1
  8
SHEET
100
AcDbLine
 10
0.0
 20
0.0
 30
0.0
 11
0.0
 21
559.0
 31
0.0
  0
LINE
  5
4B9A
330
15
100
AcDbEntity
 67
     1
  8
SHEET
100
AcDbLine
 10
826.0
 20
0.0
 30
0.0
 11
826.0
 21
559.0
 31
0.0
  0
LINE
  5
4B9B
330
15
100
AcDbEntity
 67
     1
  8
SHEET
100
AcDbLine
 10
0.0
 20
0.0
 30
0.0
 11
826.0
 21
0.0
 31
0.0
  0
LINE
  5
56E2
330
15
100
AcDbEntity
 67
     1
  8
SHEET
100
AcDbLine
 10
642.2710003186033
 20
533.9999999999998
 30
0.0
 11
642.2710003186031
 21
437.5741859439248
 31
0.0
  0
LINE
  5
577F
330
15
100
AcDbEntity
 67
     1
  8
SHEET
100
AcDbLine
 10
642.2710003186031
 20
437.5741859439248
 30
0.0
 11
826.0
 21
437.5717653225401
 31
0.0
  0
TEXT
  5
5780
330
15
100
AcDbEntity
 67
     1
  8
SHEET
100
AcDbText
 10
673.0291929433374
 20
487.4780727994376
 30
0.0
 40
2.5
  1
L
  7
ROMANS
100
AcDbText
  0
TEXT
  5
5799
330
15
100
AcDbEntity
 67
     1
  8
SHEET
  6
Continuous
100
AcDbText
 10
643.0947205781563
 20
440.072819308127
 30
0.0
 40
5.0
  1
SCALE 1 : 1
 72
     1
 11
662.2710003186035
 21
440.072819308127
 31
0.0
100
AcDbText
  0
TEXT
  5
579B
330
15
100
AcDbEntity
 67
     1
  8
SHEET
100
AcDbText
 10
644.5882541782881
 20
487.4726883680669
 30
0.0
 40
2.5
  1
SINK LENGTH
  7
ROMANS
100
AcDbText
  0
TEXT
  5
57E6
330
15
100
AcDbEntity
 67
     1
  8
SHEET
100
AcDbText
 10
691.7061955545217
 20
442.2512006541418
 30
0.0
 40
3.75
  1
SECTION A-A
  7
ROMANS
 72
     4
 11
710.7240526973789
 21
444.1262006541418
 31
0.0
100
AcDbText
  0
TEXT
  5
57F3
330
15
100
AcDbEntity
 67
     1
  8
SHEET
100
AcDbText
 10
738.350979939491
 20
442.3286335765225
 30
0.0
 40
2.5
  1
VIEW OF FOREDGE SECTION
  7
ROMANS
 72
     4
 11
764.4224085109195
 21
443.5786335765225
 31
0.0
100
AcDbText
  0
TEXT
  5
5802
330
15
100
AcDbEntity
 67
     1
  8
DIM
100
AcDbText
 10
721.5910248860534
 20
481.7579551733882
 30
0.0
 40
2.5
  1
330
  7
ROMANS
 72
     4
 11
725.162453457482
 21
483.0079551733883
 31
0.0
100
AcDbText
  0
TEXT
  5
5803
330
15
100
AcDbEntity
 67
     1
  8
SHEET
100
AcDbText
 10
712.3666910761096
 20
523.7220098944651
 30
0.0
 40
2.5
  1
TO 1mm THROUGHOUT SINK PERIMETER.
  7
ROMANS
 72
     4
 11
751.2952625046811
 21
524.9720098944651
 31
0.0
100
AcDbText
  0
TEXT
  5
5804
330
15
100
AcDbEntity
 67
     1
  8
SHEET
100
AcDbText
 10
726.5809366534194
 20
528.9728221660213
 30
0.0
 40
2.5
  1
RIM THICKNESS TO BE PARALLEL
  7
ROMANS
 72
     4
 11
758.4261747486574
 21
530.2228221660214
 31
0.0
100
AcDbText
  0
TEXT
  5
5809
330
15
100
AcDbEntity
 67
     1
  8
SHEET
100
AcDbText
 10
697.9729964251102
 20
478.9214239055382
 30
0.0
 40
2.5
  1
CUT EDGE
  7
ROMANS
 72
     4
 11
707.5563297584436
 21
480.1714239055383
 31
0.0
100
AcDbText
  0
TEXT
  5
580A
330
15
100
AcDbEntity
 67
     1
  8
SHEET
100
AcDbText
 10
698.7050202218159
 20
484.4391042393088
 30
0.0
 40
2.5
  1
TO FLASH
  7
ROMANS
 72
     4
 11
707.6931154599111
 21
485.6891042393089
 31
0.0
100
AcDbText
  0
LWPOLYLINE
  5
580B
330
15
100
AcDbEntity
 67
     1
  8
CL
100
AcDbPolyline
 90
        2
 70
     0
 43
0.0
 10
673.1331995168569
 20
494.111682012712
 10
673.1331995168569
 20
455.3840309224624
  0
LWPOLYLINE
  5
580C
330
15
100
AcDbEntity
 67
     1
  8
DIM
100
AcDbPolyline
 90
        2
 70
     0
 43
0.0
 10
687.732134106779
 20
480.8714448789281
 10
689.5629298143052
 20
484.9890852612612
  0
LWPOLYLINE
  5
580D
330
15
100
AcDbEntity
 67
     1
  8
DIM
100
AcDbPolyline
 90
        2
 70
     0
 43
0.0
 10
687.732134106779
 20
480.8714448789281
 10
686.8167362530158
 20
482.9302650700948
  0
LINE
  5
580E
330
15
100
AcDbEntity
 67
     1
  8
DIM
100
AcDbLine
 10
673.1331995168568
 20
482.9302650700948
 30
0.0
 11
686.8167362530158
 21
482.9302650700948
 31
0.0
  0
SOLID
  5
580F
330
15
100
AcDbEntity
 67
     1
  8
DIM
100
AcDbTrace
 10
675.633199516857
 20
483.3469317367614
 30
0.0
 11
675.633199516857
 21
482.5135984034282
 31
0.0
 12
673.1331995168569
 22
482.9302650700948
 32
0.0
 13
673.1331995168569
 23
482.9302650700948
 33
0.0
  0
LINE
  5
5810
330
15
100
AcDbEntity
 67
     1
  8
DIM
100
AcDbLine
 10
696.9719212195456
 20
482.9302650700948
 30
0.0
 11
690.4783276680683
 21
482.9302650700948
 31
0.0
  0
LWPOLYLINE
  5
5811
330
15
100
AcDbEntity
 67
     1
  8
DIM
100
AcDbPolyline
 90
        2
 70
     0
 43
0.0
 10
690.4783276680683
 20
482.9302650700948
 10
689.5629298143052
 20
484.9890852612612
  0
TEXT
  5
5812
330
15
100
AcDbEntity
 67
     1
  8
SHEET
100
AcDbText
 10
671.0190562664717
 20
488.6970284475963
 30
0.0
 40
2.5
  1
C
 41
1.5
  7
ROMANS
100
AcDbText
  0
TEXT
  5
5813
330
15
100
AcDbEntity
 67
     1
  8
DIM
100
AcDbText
 10
731.907370148907
 20
482.4772940926262
 30
0.0
 40
2.5
  1
-0
  7
ROMANS
 72
     4
 11
734.704989196526
 21
483.7272940926262
 31
0.0
100
AcDbText
  0
TEXT
  5
5814
330
15
100
AcDbEntity
 67
     1
  8
DIM
100
AcDbText
 10
732.6515032290245
 20
485.2919409924338
 30
0.0
 40
2.5
  1
+1
  7
ROMANS
 72
     4
 11
735.0919794195007
 21
486.5419409924337
 31
0.0
100
AcDbText
  0
LWPOLYLINE
  5
5816
330
15
100
AcDbEntity
 67
     1
  8
DIM
100
AcDbPolyline
 90
        2
 70
     0
 43
0.0
 10
780.6417768091598
 20
501.7027864878675
 10
780.6417768091599
 20
455.3840309224624
  0
LINE
  5
581A
330
15
100
AcDbEntity
 67
     1
  8
DIM
100
AcDbLine
 10
780.64177680916
 20
482.9302650700948
 30
0.0
 11
788.0593881050413
 21
482.9302650700948
 31
0.0
  0
SOLID
  5
581B
330
15
100
AcDbEntity
 67
     1
  8
DIM
100
AcDbTrace
 10
783.1417768091601
 20
483.3469317367613
 30
0.0
 11
783.1417768091601
 21
482.5135984034281
 31
0.0
 12
780.64177680916
 22
482.9302650700948
 32
0.0
 13
780.64177680916
 23
482.9302650700948
 33
0.0
  0
SOLID
  5
581D
330
15
100
AcDbEntity
 67
     1
  8
DIM
100
AcDbTrace
 10
758.1417768091595
 20
483.3469317367614
 30
0.0
 11
758.1417768091595
 21
482.5135984034282
 31
0.0
 12
760.6417768091595
 22
482.9302650700948
 32
0.0
 13
760.6417768091595
 23
482.9302650700948
 33
0.0
  0
LINE
  5
581E
330
15
100
AcDbEntity
 67
     1
  8
DIM
100
AcDbLine
 10
760.6417768091595
 20
482.9302650700948
 30
0.0
 11
741.0302427167841
 21
482.9302650700947
 31
0.0
  0
TEXT
  5
5827
330
15
100
AcDbEntity
 67
     1
  8
SHEET
100
AcDbText
 10
788.5575164109777
 20
486.5913114298082
 30
0.0
 40
2.5
  1
EQUAL EDGE
  7
ROMANS
 72
     4
 11
800.5218021252634
 21
487.7222638107605
 31
0.0
100
AcDbText
  0
TEXT
  5
5828
330
15
100
AcDbEntity
 67
     1
  8
SHEET
100
AcDbText
 10
794.6226670108488
 20
481.9540312500349
 30
0.0
 40
1.875
  1
+
  7
ROMANS
 72
     4
 11
795.7833812965631
 21
482.7576026786064
 31
0.0
100
AcDbText
  0
TEXT
  5
5829
330
15
100
AcDbEntity
 67
     1
  8
SHEET
100
AcDbText
 10
794.6226670108488
 20
480.5420391978338
 30
0.0
 40
1.875
  1
-
  7
ROMANS
 72
     4
 11
795.7833812965631
 21
481.3456106264053
 31
0.0
100
AcDbText
  0
TEXT
  5
582A
330
15
100
AcDbEntity
 67
     1
  8
SHEET
100
AcDbText
 10
792.2828733234279
 20
480.9545834769899
 30
0.0
 40
2.5
  1
1
  7
ROMANS
 72
     4
 11
793.2947780853327
 21
482.2045834769899
 31
0.0
100
AcDbText
  0
TEXT
  5
582B
330
15
100
AcDbEntity
 67
     1
  8
SHEET
100
AcDbText
 10
801.0523317358716
 20
480.9545834769899
 30
0.0
 40
2.5
  1
WIDTH
  7
ROMANS
 72
     4
 11
806.3499507834906
 21
482.2045834769899
 31
0.0
100
AcDbText
  0
LINE
  5
5834
330
15
100
AcDbEntity
 67
     1
  8
SHEET
100
AcDbLine
 10
771.5636066681484
 20
503.5006908234253
 30
0.0
 11
777.0073878758735
 21
521.8934741805521
 31
0.0
  0
SOLID
  5
5835
330
15
100
AcDbEntity
 67
     1
  8
SHEET
100
AcDbTrace
 10
772.695040615803
 20
505.1212176581596
 30
0.0
 11
771.4964377254315
 21
505.4759726598057
 31
0.0
 12
771.0314741656795
 22
501.7027864878678
 32
0.0
 13
771.0314741656795
 23
501.7027864878678
 33
0.0
  0
LINE
  5
5A42
330
15
100
AcDbEntity
 67
     1
  8
DIM
 62
     1
100
AcDbLine
 10
780.7042768091597
 20
509.7027864878675
 30
0.0
 11
794.5929035724154
 21
509.7027864878675
 31
0.0
  0
LINE
  5
5A43
330
15
100
AcDbEntity
 67
     1
  8
DIM
 62
     1
100
AcDbLine
 10
780.7042768091597
 20
501.7027864878675
 30
0.0
 11
794.5929035724154
 21
501.7027864878675
 31
0.0
  0
LINE
  5
5A44
330
15
100
AcDbEntity
 67
     1
  8
DIM
 62
     1
100
AcDbLine
 10
794.4129035724155
 20
514.7027864878675
 30
0.0
 11
794.4129035724155
 21
519.7027864878675
 31
0.0
  0
LINE
  5
5A45
330
15
100
AcDbEntity
 67
     1
  8
DIM
 62
     1
100
AcDbLine
 10
794.4129035724155
 20
496.7027864878676
 30
0.0
 11
794.4129035724155
 21
491.7027864878675
 31
0.0
  0
SOLID
  5
5A47
330
15
100
AcDbEntity
 67
     1
  8
DIM
 62
     1
100
AcDbTrace
 10
793.5795702390821
 20
514.7027864878675
 30
0.0
 11
795.2462369057489
 21
514.7027864878675
 31
0.0
 12
794.4129035724155
 22
509.7027864878675
 32
0.0
 13
794.4129035724155
 23
509.7027864878675
 33
0.0
  0
SOLID
  5
5A48
330
15
100
AcDbEntity
 67
     1
  8
DIM
 62
     1
100
AcDbTrace
 10
793.5795702390821
 20
496.7027864878676
 30
0.0
 11
795.2462369057489
 21
496.7027864878676
 31
0.0
 12
794.4129035724155
 22
501.7027864878675
 32
0.0
 13
794.4129035724155
 23
501.7027864878675
 33
0.0
  0
MTEXT
  5
5A49
330
15
100
AcDbEntity
 67
     1
  8
DIM
  6
ByBlock
 62
     1
100
AcDbMText
 10
795.9059938510781
 20
506.0279548961471
 30
0.0
 40
3.0
 41
0.0
 46
0.0
 71
     5
 72
     5
  1
\A1;8.00\S+2^ -0;
 73
     1
 44
1.0
  0
LINE
  5
5B7C
330
15
100
AcDbEntity
 67
     1
  8
SHEET
100
AcDbLine
 10
103.1097735297217
 20
559.0
 30
0.0
 11
103.1097735297217
 21
534.0
 31
0.0
  0
TEXT
  5
5B7D
330
15
100
AcDbEntity
 67
     1
  8
SHEET
100
AcDbText
 10
49.8179114701345
 20
542.5018345610635
 30
0.0
 40
3.0
  1
TP  COD1357  11/05/07
  7
EUROROMAN
100
AcDbText
  0
TEXT
  5
5B7E
330
15
100
AcDbEntity
 67
     1
  8
SHEET
100
AcDbText
 10
49.8179114701345
 20
547.5018345610635
 30
0.0
 40
3.0
  1
ISSUED TO PRODUCTION
  7
EUROROMAN
100
AcDbText
  0
TEXT
  5
5B7F
330
15
100
AcDbEntity
 67
     1
  8
SHEET
100
AcDbText
 10
48.9473677858723
 20
555.6444888966905
 30
0.0
 40
3.0
  1
A
  7
EUROROMAN
100
AcDbText
  0
LINE
  5
5B80
330
15
100
AcDbEntity
 67
     1
  8
SHEET
100
AcDbLine
 10
53.10977352972173
 20
559.0
 30
0.0
 11
53.10977352972173
 21
555.0
 31
0.0
  0
LINE
  5
5B81
330
15
100
AcDbEntity
 67
     1
  8
SHEET
100
AcDbLine
 10
53.10977352972173
 20
555.0
 30
0.0
 11
48.10977352972173
 21
555.0
 31
0.0
  0
LINE
  5
621A
330
15
100
AcDbEntity
 67
     1
  8
DIM
100
AcDbLine
 39
0.4
 10
760.6417768091595
 20
499.0726989622004
 30
0.0
 11
760.6417768091596
 21
455.3840309224624
 31
0.0
  0
TEXT
  5
B32E
330
15
100
AcDbEntity
 67
     1
  8
SHEET
100
AcDbText
 10
792.4529422835921
 20
5.462957233071165
 30
0.0
 40
2.5
  1
KCU278--X
100
AcDbText
  0
TEXT
  5
D171
330
15
100
AcDbEntity
 67
     1
  8
SHEET
100
AcDbText
 10
647.6834922735262
 20
468.7441088789074
 30
0.0
 40
2.5
  1
SINK WIDTH
  7
ROMANS
100
AcDbText
  0
TEXT
  5
D172
330
15
100
AcDbEntity
 67
     1
  8
DIM
100
AcDbText
 10
718.7970901671811
 20
464.9628040380365
 30
0.0
 40
2.5
  1
190 &
  7
ROMANS
 72
     4
 11
725.3447092148002
 21
466.2128040380365
 31
0.0
100
AcDbText
  0
TEXT
  5
D173
330
15
100
AcDbEntity
 67
     1
  8
SHEET
100
AcDbText
 10
698.7050202218159
 20
464.9045117572592
 30
0.0
 40
2.5
  1
TO FLASH
  7
ROMANS
 72
     4
 11
707.6931154599111
 21
466.1545117572592
 31
0.0
100
AcDbText
  0
TEXT
  5
D174
330
15
100
AcDbEntity
 67
     1
  8
SHEET
100
AcDbText
 10
697.9729964251102
 20
459.3868314234886
 30
0.0
 40
2.5
  1
CUT EDGE
  7
ROMANS
 72
     4
 11
707.5563297584436
 21
460.6368314234885
 31
0.0
100
AcDbText
  0
LWPOLYLINE
  5
D175
330
15
100
AcDbEntity
 67
     1
  8
DIM
100
AcDbPolyline
 90
        2
 70
     0
 43
0.0
 10
687.732134106779
 20
461.3368523968786
 10
689.5629298143052
 20
465.4544927792115
  0
LWPOLYLINE
  5
D177
330
15
100
AcDbEntity
 67
     1
  8
DIM
100
AcDbPolyline
 90
        2
 70
     0
 43
0.0
 10
687.732134106779
 20
461.3368523968786
 10
686.8167362530158
 20
463.3956725880451
  0
LINE
  5
D178
330
15
100
AcDbEntity
 67
     1
  8
DIM
100
AcDbLine
 10
673.1331995168569
 20
463.3956725880451
 30
0.0
 11
686.8167362530158
 21
463.3956725880451
 31
0.0
  0
SOLID
  5
D179
330
15
100
AcDbEntity
 67
     1
  8
DIM
100
AcDbTrace
 10
675.633199516857
 20
463.8123392547116
 30
0.0
 11
675.633199516857
 21
462.9790059213783
 31
0.0
 12
673.1331995168569
 22
463.3956725880451
 32
0.0
 13
673.1331995168569
 23
463.3956725880451
 33
0.0
  0
LINE
  5
D17A
330
15
100
AcDbEntity
 67
     1
  8
DIM
100
AcDbLine
 10
696.9719212195456
 20
463.3956725880451
 30
0.0
 11
690.4783276680683
 21
463.3956725880451
 31
0.0
  0
LWPOLYLINE
  5
D17B
330
15
100
AcDbEntity
 67
     1
  8
DIM
100
AcDbPolyline
 90
        2
 70
     0
 43
0.0
 10
690.4783276680683
 20
463.3956725880451
 10
689.5629298143052
 20
465.4544927792115
  0
TEXT
  5
D17C
330
15
100
AcDbEntity
 67
     1
  8
DIM
100
AcDbText
 10
731.9073720745701
 20
462.9427016105766
 30
0.0
 40
2.5
  1
-0
  7
ROMANS
 72
     4
 11
734.7049911221891
 21
464.1927016105766
 31
0.0
100
AcDbText
  0
TEXT
  5
D17D
330
15
100
AcDbEntity
 67
     1
  8
DIM
100
AcDbText
 10
732.6515051546877
 20
465.757348510384
 30
0.0
 40
2.5
  1
+1
  7
ROMANS
 72
     4
 11
735.0919813451638
 21
467.0073485103841
 31
0.0
100
AcDbText
  0
LINE
  5
D17E
330
15
100
AcDbEntity
 67
     1
  8
DIM
100
AcDbLine
 10
780.64177680916
 20
463.2049086101964
 30
0.0
 11
788.3759021870471
 21
463.2049086101964
 31
0.0
  0
SOLID
  5
D17F
330
15
100
AcDbEntity
 67
     1
  8
DIM
100
AcDbTrace
 10
783.1417768091601
 20
463.6215752768631
 30
0.0
 11
783.1417768091601
 21
462.7882419435299
 31
0.0
 12
780.64177680916
 22
463.2049086101964
 32
0.0
 13
780.64177680916
 23
463.2049086101964
 33
0.0
  0
SOLID
  5
D180
330
15
100
AcDbEntity
 67
     1
  8
DIM
100
AcDbTrace
 10
758.1417768091596
 20
463.7215362120579
 30
0.0
 11
758.1417768091596
 21
462.8882028787246
 31
0.0
 12
760.6417768091596
 22
463.3048695453914
 32
0.0
 13
760.6417768091596
 23
463.3048695453914
 33
0.0
  0
LINE
  5
D181
330
15
100
AcDbEntity
 67
     1
  8
DIM
100
AcDbLine
 10
760.6417768091596
 20
463.3048695453914
 30
0.0
 11
739.4105248396729
 21
463.3048695453914
 31
0.0
  0
TEXT
  5
D182
330
15
100
AcDbEntity
 67
     1
  8
SHEET
100
AcDbText
 10
788.5575164109777
 20
465.1143624189601
 30
0.0
 40
2.5
  1
EQUAL EDGE
  7
ROMANS
 72
     4
 11
800.5218021252634
 21
466.2453147999126
 31
0.0
100
AcDbText
  0
TEXT
  5
D183
330
15
100
AcDbEntity
 67
     1
  8
SHEET
100
AcDbText
 10
794.6226670108488
 20
460.477082239187
 30
0.0
 40
1.875
  1
+
  7
ROMANS
 72
     4
 11
795.7833812965631
 21
461.2806536677585
 31
0.0
100
AcDbText
  0
TEXT
  5
D184
330
15
100
AcDbEntity
 67
     1
  8
SHEET
100
AcDbText
 10
794.6226670108488
 20
459.0650901869858
 30
0.0
 40
1.875
  1
-
  7
ROMANS
 72
     4
 11
795.7833812965631
 21
459.8686616155573
 31
0.0
100
AcDbText
  0
TEXT
  5
D185
330
15
100
AcDbEntity
 67
     1
  8
SHEET
100
AcDbText
 10
792.2828733234279
 20
459.4776344661419
 30
0.0
 40
2.5
  1
1
  7
ROMANS
 72
     4
 11
793.2947780853327
 21
460.7276344661419
 31
0.0
100
AcDbText
  0
TEXT
  5
D186
330
15
100
AcDbEntity
 67
     1
  8
SHEET
100
AcDbText
 10
801.0523317358716
 20
459.4776344661419
 30
0.0
 40
2.5
  1
WIDTH
  7
ROMANS
 72
     4
 11
806.3499507834906
 21
460.7276344661419
 31
0.0
100
AcDbText
  0
TEXT
  5
D18F
330
15
100
AcDbEntity
 67
     1
  8
SHEET
100
AcDbText
 10
673.0291929433374
 20
467.9434803173879
 30
0.0
 40
2.5
  1
L
  7
ROMANS
100
AcDbText
  0
TEXT
  5
D190
330
15
100
AcDbEntity
 67
     1
  8
SHEET
100
AcDbText
 10
671.0190562664717
 20
469.1624359655467
 30
0.0
 40
2.5
  1
C
 41
1.5
  7
ROMANS
100
AcDbText
  0
LINE
  5
D193
330
15
100
AcDbEntity
 67
     1
  8
DIM
100
AcDbLine
 39
0.4
 10
780.64177680916
 20
482.9302650700948
 30
0.0
 11
780.64177680916
 21
482.0216394411636
 31
0.0
  0
LINE
  5
F335
330
15
100
AcDbEntity
 67
     1
  8
SINK
100
AcDbLine
 39
0.4
 10
726.0397729732443
 20
499.7027864878649
 30
0.0
 11
742.9326047442081
 21
499.702786487865
 31
0.0
  0
LINE
  5
F336
330
15
100
AcDbEntity
 67
     1
  8
SINK
100
AcDbLine
 10
726.0397729732443
 20
509.7027864878659
 30
0.0
 11
752.9326047442099
 21
509.7027864878659
 31
0.0
  0
LINE
  5
F337
102
{ACAD_REACTORS
330
F34C
102
}
330
15
100
AcDbEntity
 67
     1
  8
SINK
100
AcDbLine
 39
0.4
 10
747.4760622388584
 20
499.7027864878659
 30
0.0
 11
742.9326047442063
 21
499.7027864878659
 31
0.0
  0
ARC
  5
F338
102
{ACAD_REACTORS
330
F34C
102
}
330
15
100
AcDbEntity
 67
     1
  8
SINK
100
AcDbCircle
 39
0.4
 10
747.4760622388584
 20
502.2027864878658
 30
0.0
 40
2.5
100
AcDbArc
 50
270.0
 51
354.9999999999708
  0
ARC
  5
F339
102
{ACAD_REACTORS
330
F34C
102
}
330
15
100
AcDbEntity
 67
     1
  8
SINK
100
AcDbCircle
 39
0.4
 10
742.9326047442063
 20
497.2027864878659
 30
0.0
 40
2.5
100
AcDbArc
 50
90.0
 51
174.9999999999707
  0
ARC
  5
F33A
102
{ACAD_REACTORS
330
F34C
102
}
330
15
100
AcDbEntity
 67
     1
  8
SINK
100
AcDbCircle
 39
0.4
 10
752.9326047442062
 20
507.2027864878659
 30
0.0
 40
2.5
100
AcDbArc
 50
90.0
 51
174.9999999999707
  0
LINE
  5
F33B
102
{ACAD_REACTORS
330
F34C
102
}
330
15
100
AcDbEntity
 67
     1
  8
SINK
100
AcDbLine
 39
0.4
 10
750.4421179989748
 20
507.4206758447357
 30
0.0
 11
749.9665489840898
 21
501.9848971309969
 31
0.0
  0
LINE
  5
F33C
102
{ACAD_REACTORS
330
F34C
102
}
330
15
100
AcDbEntity
 67
     1
  8
SINK
100
AcDbLine
 39
0.4
 10
740.4421179989748
 20
497.4206758447357
 30
0.0
 11
738.0141600292573
 21
469.6689892619458
 31
0.0
  0
LINE
  5
F33D
330
15
100
AcDbEntity
 67
     1
  8
SINK
100
AcDbLine
 39
0.4
 10
742.9326047442063
 20
499.7027864878659
 30
0.0
 11
726.039772973244
 21
499.7027864878658
 31
0.0
  0
ARC
  5
F33E
102
{ACAD_REACTORS
330
F34C
102
}
330
15
100
AcDbEntity
 67
     1
  8
SINK
100
AcDbCircle
 10
776.3523019690636
 20
505.7027864878668
 30
0.0
 40
4.0
100
AcDbArc
 50
3.999999999983515
 51
90.0
  0
LINE
  5
F33F
102
{ACAD_REACTORS
330
F34C
102
}
330
15
100
AcDbEntity
 67
     1
  8
SINK
100
AcDbLine
 10
776.3523019690636
 20
509.7027864878667
 30
0.0
 11
752.9326047442062
 21
509.7027864878659
 31
0.0
  0
LINE
  5
F340
102
{ACAD_REACTORS
330
F34C
102
}
330
15
100
AcDbEntity
 67
     1
  8
SINK
100
AcDbLine
 10
780.6417768091614
 20
501.7027864878668
 30
0.0
 11
760.6417768091631
 21
501.7027864878668
 31
0.0
  0
ARC
  5
F341
102
{ACAD_REACTORS
330
F34C
102
}
330
15
100
AcDbEntity
 67
     1
  8
SINK
100
AcDbCircle
 10
760.9882104982424
 20
494.7027864878668
 30
0.0
 40
5.0
100
AcDbArc
 50
93.97302083607115
 51
172.0000000000088
  0
LINE
  5
F342
102
{ACAD_REACTORS
330
F34C
102
}
330
15
100
AcDbEntity
 67
     1
  8
SINK
100
AcDbLine
 39
0.4
 10
780.6417768091614
 20
501.7027864878668
 30
0.0
 11
780.3425581701029
 21
505.981812382843
 31
0.0
  0
LINE
  5
F343
330
15
100
AcDbEntity
 67
     1
  8
CL
100
AcDbLine
 39
0.4
 10
780.6417768091595
 20
512.2027864878678
 30
0.0
 11
780.6417768091595
 21
507.2027864878668
 31
0.0
  0
LINE
  5
F344
102
{ACAD_REACTORS
330
F34C
102
}
330
15
100
AcDbEntity
 67
     1
  8
SINK
100
AcDbLine
 39
0.4
 10
760.6417768091631
 20
501.7027864878668
 30
0.0
 11
760.6417768091613
 21
499.690770419183
 31
0.0
  0
LINE
  5
F345
102
{ACAD_REACTORS
330
F34C
102
}
330
15
100
AcDbEntity
 67
     1
  8
SINK
100
AcDbLine
 39
0.4
 10
756.0368701545338
 20
495.398651992667
 30
0.0
 11
752.4208018777468
 21
469.6689892619458
 31
0.0
  0
LINE
  5
F346
330
15
100
AcDbEntity
 67
     1
  8
CL
100
AcDbLine
 39
0.4
 10
778.1417768091613
 20
509.7027864878677
 30
0.0
 11
783.1417768091613
 21
509.7027864878677
 31
0.0
  0
LINE
  5
F347
102
{ACAD_REACTORS
330
F34C
102
}
330
15
100
AcDbEntity
 67
     1
  8
SINK
100
AcDbLine
 39
0.4
 10
738.0141600292573
 20
469.6689892619458
 30
0.0
 11
741.3669705590503
 21
468.9729027775767
 31
0.0
  0
LINE
  5
F348
102
{ACAD_REACTORS
330
F34C
102
}
330
15
100
AcDbEntity
 67
     1
  8
SINK
100
AcDbLine
 39
0.4
 10
741.3669705590503
 20
468.9729027775767
 30
0.0
 11
746.417981904195
 21
470.5390962706625
 31
0.0
  0
LINE
  5
F349
102
{ACAD_REACTORS
330
F34C
102
}
330
15
100
AcDbEntity
 67
     1
  8
SINK
100
AcDbLine
 39
0.4
 10
746.417981904195
 20
470.5390962706625
 30
0.0
 11
750.0756088041292
 21
468.1027957688599
 31
0.0
  0
LINE
  5
F34A
102
{ACAD_REACTORS
330
F34C
102
}
330
15
100
AcDbEntity
 67
     1
  8
SINK
100
AcDbLine
 39
0.4
 10
750.0756088041292
 20
468.1027957688599
 30
0.0
 11
752.4208018777468
 21
469.6689892619458
 31
0.0
  0
HATCH
  5
F34C
330
15
100
AcDbEntity
 67
     1
  8
HATCH
100
AcDbHatch
 10
0.0
 20
0.0
 30
0.0
210
0.0
220
0.0
230
1.0
  2
ANSI34
 70
     0
 71
     1
 91
        1
 92
        1
 93
       17
 72
     1
 10
750.0756088041292
 20
468.1027957688599
 11
752.4208018777468
 21
469.6689892619458
 72
     1
 10
752.4208018777468
 20
469.6689892619458
 11
756.0368701545338
 21
495.398651992667
 72
     2
 10
760.9882104982424
 20
494.7027864878668
 40
5.0
 50
187.9999999999912
 51
266.0269791639288
 73
     0
 72
     1
 10
760.6417768091613
 20
499.690770419183
 11
760.6417768091631
 21
501.7027864878668
 72
     1
 10
760.6417768091631
 20
501.7027864878668
 11
780.6417768091614
 21
501.7027864878668
 72
     1
 10
780.6417768091614
 20
501.7027864878668
 11
780.3425581701029
 21
505.981812382843
 72
     2
 10
776.3523019690636
 20
505.7027864878668
 40
4.0
 50
3.999999999983515
 51
90.0
 73
     1
 72
     1
 10
776.3523019690636
 20
509.7027864878667
 11
752.9326047442062
 21
509.7027864878659
 72
     2
 10
752.9326047442062
 20
507.2027864878659
 40
2.5
 50
90.0
 51
174.9999999999707
 73
     1
 72
     1
 10
750.4421179989748
 20
507.4206758447357
 11
749.9665489840898
 21
501.9848971309969
 72
     2
 10
747.4760622388584
 20
502.2027864878658
 40
2.5
 50
5.000000000029204
 51
90.0
 73
     0
 72
     1
 10
747.4760622388584
 20
499.7027864878659
 11
742.9326047442063
 21
499.7027864878659
 72
     2
 10
742.9326047442063
 20
497.2027864878659
 40
2.5
 50
90.0
 51
174.9999999999707
 73
     1
 72
     1
 10
740.4421179989748
 20
497.4206758447357
 11
738.0141600292573
 21
469.6689892619458
 72
     1
 10
738.0141600292573
 20
469.6689892619458
 11
741.3669705590503
 21
468.9729027775767
 72
     1
 10
741.3669705590503
 20
468.9729027775767
 11
746.417981904195
 21
470.5390962706625
 72
     1
 10
746.417981904195
 20
470.5390962706625
 11
750.0756088041292
 21
468.1027957688599
 97
       17
330
F34A
330
F345
330
F341
330
F344
330
F340
330
F342
330
F33E
330
F33F
330
F33A
330
F33B
330
F338
330
F337
330
F339
330
F33C
330
F347
330
F348
330
F349
 75
     0
 76
     1
 52
0.0
 41
10.0
 77
     0
 78
     4
 53
45.0
 43
0.0
 44
0.0
 45
-5.303300858899105
 46
5.303300858899106
 79
     0
 53
45.0
 43
1.76776695
 44
0.0
 45
-5.303300858899105
 46
5.303300858899106
 79
     0
 53
45.0
 43
3.535533909999999
 44
0.0
 45
-5.303300858899105
 46
5.303300858899106
 79
     0
 53
45.0
 43
5.30330086
 44
0.0
 45
-5.303300858899105
 46
5.303300858899106
 79
     0
 98
        1
 10
0.0
 20
0.0
1001
ACAD
1010
0.0
1020
0.0
1030
0.0
  0
TEXT
  5
F360
330
15
100
AcDbEntity
 67
     1
  8
DIM
100
AcDbText
 10
721.7732806433716
 20
461.0591000864288
 30
0.0
 40
2.5
  1
240
  7
ROMANS
 72
     4
 11
725.3447092148002
 21
462.3091000864288
 31
0.0
100
AcDbText
  0
LINE
  5
10053
330
15
100
AcDbEntity
 67
     1
  8
SHEET
100
AcDbLine
 10
158.1097735297217
 20
559.0
 30
0.0
 11
158.1097735297217
 21
534.0
 31
0.0
  0
TEXT
  5
10054
330
15
100
AcDbEntity
 67
     1
  8
SHEET
100
AcDbText
 10
104.8179114701345
 20
536.7421744225273
 30
0.0
 40
3.0
  1
TP  COD1809  13/02/09
  7
EUROROMAN
100
AcDbText
  0
TEXT
  5
10055
330
15
100
AcDbEntity
 67
     1
  8
SHEET
100
AcDbText
 10
104.8179114701345
 20
549.9016935855941
 30
0.0
 40
3.0
  1
REMOVE REFERENCE TO
  7
EUROROMAN
100
AcDbText
  0
TEXT
  5
10056
330
15
100
AcDbEntity
 67
     1
  8
SHEET
100
AcDbText
 10
103.9473677858723
 20
555.6444888966905
 30
0.0
 40
3.0
  1
B
  7
EUROROMAN
100
AcDbText
  0
LINE
  5
10057
330
15
100
AcDbEntity
 67
     1
  8
SHEET
100
AcDbLine
 10
108.1097735297217
 20
559.0
 30
0.0
 11
108.1097735297217
 21
555.0
 31
0.0
  0
LINE
  5
10058
330
15
100
AcDbEntity
 67
     1
  8
SHEET
100
AcDbLine
 10
108.1097735297217
 20
555.0
 30
0.0
 11
103.1097735297217
 21
555.0
 31
0.0
  0
TEXT
  5
10059
330
15
100
AcDbEntity
 67
     1
  8
SHEET
100
AcDbText
 10
104.8179114701345
 20
544.1420334470579
 30
0.0
 40
3.0
  1
BADGE IN B.O.M.s
  7
EUROROMAN
100
AcDbText
  0
LINE
  5
10091
330
15
100
AcDbEntity
 67
     1
  8
SHEET
100
AcDbLine
 10
213.1097735297217
 20
559.0
 30
0.0
 11
213.1097735297217
 21
534.0
 31
0.0
  0
TEXT
  5
10092
330
15
100
AcDbEntity
 67
     1
  8
SHEET
100
AcDbText
 10
159.8179114701345
 20
537.6677071493761
 30
0.0
 40
3.0
  1
TP  COD2091  22/03/10
  7
EUROROMAN
100
AcDbText
  0
TEXT
  5
10093
330
15
100
AcDbEntity
 67
     1
  8
SHEET
100
AcDbText
 10
159.8179114701345
 20
549.5290497572309
 30
0.0
 40
3.0
  1
WEDGES TO BE GLUED
  7
EUROROMAN
100
AcDbText
  0
TEXT
  5
10094
330
15
100
AcDbEntity
 67
     1
  8
SHEET
100
AcDbText
 10
158.9473677858723
 20
555.6444888966905
 30
0.0
 40
3.0
  1
C
  7
EUROROMAN
100
AcDbText
  0
LINE
  5
10095
330
15
100
AcDbEntity
 67
     1
  8
SHEET
100
AcDbLine
 10
163.1097735297217
 20
559.0
 30
0.0
 11
163.1097735297217
 21
555.0
 31
0.0
  0
LINE
  5
10096
330
15
100
AcDbEntity
 67
     1
  8
SHEET
100
AcDbLine
 10
163.1097735297217
 20
555.0
 30
0.0
 11
158.1097735297217
 21
555.0
 31
0.0
  0
TEXT
  5
10097
330
15
100
AcDbEntity
 67
     1
  8
SHEET
100
AcDbText
 10
159.8179114701345
 20
543.7592840476882
 30
0.0
 40
3.0
  1
BETWEEN BOWLS
  7
EUROROMAN
100
AcDbText
  0
ENDSEC
  0
SECTION
  2
OBJECTS
  0
DICTIONARY
  5
C
330
0
100
AcDbDictionary
281
     1
  3
ACAD_CIP_PREVIOUS_PRODUCT_INFO
350
1010188
  3
ACAD_COLOR
350
CCCA
  3
ACAD_DETAILVIEWSTYLE
350
101017D
  3
ACAD_GROUP
350
D
  3
ACAD_LAYOUT
350
5C1F
  3
ACAD_MATERIAL
350
CCC9
  3
ACAD_MLEADERSTYLE
350
10037
  3
ACAD_MLINESTYLE
350
1B
  3
ACAD_PLOTSETTINGS
350
5C20
  3
ACAD_PLOTSTYLENAME
350
5C1D
  3
ACAD_SCALELIST
350
10015
  3
ACAD_SECTIONVIEWSTYLE
350
101017B
  3
ACAD_TABLESTYLE
350
CCCB
  3
ACAD_VISUALSTYLE
350
10004
  3
AcadDim
350
EB0A
  3
ACDB_RECOMPOSE_DATA
350
10101A3
  3
ACDBVARIABLEDICTIONARY
350
2C7C
  0
DICTIONARY
  5
100A1
330
8
100
AcDbDictionary
280
     1
281
     1
  0
DICTIONARY
  5
CD00
330
2
100
AcDbDictionary
280
     1
281
     1
  3
ACAD_LAYERSTATES
360
CD01
  0
DICTIONARY
  5
1005A
330
E
100
AcDbDictionary
280
     1
281
     1
  3
ADSK_XREC_LAYER_RECONCILED
360
1005B
  0
DICTIONARY
  5
1005C
330
34
100
AcDbDictionary
280
     1
281
     1
  3
ADSK_XREC_LAYER_RECONCILED
360
1005D
  0
DICTIONARY
  5
1005E
330
36
100
AcDbDictionary
280
     1
281
     1
  3
ADSK_XREC_LAYER_RECONCILED
360
1005F
  0
DICTIONARY
  5
10060
330
38
100
AcDbDictionary
280
     1
281
     1
  3
ADSK_XREC_LAYER_RECONCILED
360
10061
  0
DICTIONARY
  5
10062
330
39
100
AcDbDictionary
280
     1
281
     1
  3
ADSK_XREC_LAYER_RECONCILED
360
10063
  0
DICTIONARY
  5
10064
330
1D50
100
AcDbDictionary
280
     1
281
     1
  3
ADSK_XREC_LAYER_RECONCILED
360
10065
  0
DICTIONARY
  5
10066
330
43B1
100
AcDbDictionary
280
     1
281
     1
  3
ADSK_XREC_LAYER_RECONCILED
360
10067
  0
DICTIONARY
  5
982C
330
18
100
AcDbDictionary
280
     1
281
     1
  3
ACAD_LAYOUTSELFREF
360
982D
  3
ACAD_SORTENTS
360
D018
  0
DICTIONARY
  5
982A
330
15
100
AcDbDictionary
280
     1
281
     1
  3
ACAD_LAYOUTSELFREF
360
982B
  3
ACAD_SORTENTS
360
D1D6
  0
XRECORD
  5
1010188
102
{ACAD_REACTORS
330
C
102
}
330
C
100
AcDbXrecord
280
     1
300
ACD
300
2017
300
ACD_F_S
  0
DICTIONARY
  5
CCCA
102
{ACAD_REACTORS
330
C
102
}
330
C
100
AcDbDictionary
281
     1
  0
DICTIONARY
  5
101017D
102
{ACAD_REACTORS
330
C
102
}
330
C
100
AcDbDictionary
281
     1
  3
Imperial24
350
101017E
  0
DICTIONARY
  5
D
102
{ACAD_REACTORS
330
C
102
}
330
0
100
AcDbDictionary
281
     1
  0
DICTIONARY
  5
5C1F
102
{ACAD_REACTORS
330
C
102
}
330
C
100
AcDbDictionary
281
     1
  3
Layout1
350
5C22
  3
Model
350
5C21
  0
DICTIONARY
  5
CCC9
102
{ACAD_REACTORS
330
C
102
}
330
C
100
AcDbDictionary
281
     1
  3
ByBlock
350
FFF4
  3
ByLayer
350
FFEC
  3
Global
350
FFFC
  0
DICTIONARY
  5
10037
102
{ACAD_REACTORS
330
C
102
}
330
C
100
AcDbDictionary
281
     1
  3
Standard
350
10038
  0
DICTIONARY
  5
1B
102
{ACAD_REACTORS
330
C
102
}
330
0
100
AcDbDictionary
281
     1
  3
STANDARD
350
1C
  0
DICTIONARY
  5
5C20
102
{ACAD_REACTORS
330
C
102
}
330
C
100
AcDbDictionary
281
     1
  0
ACDBDICTIONARYWDFLT
  5
5C1D
102
{ACAD_REACTORS
330
C
102
}
330
C
100
AcDbDictionary
281
     1
  3
Normal
350
5C1E
100
AcDbDictionaryWithDefault
340
5C1E
  0
DICTIONARY
  5
10015
102
{ACAD_REACTORS
330
C
102
}
330
C
100
AcDbDictionary
281
     1
  3
A0
350
10016
  3
A1
350
10017
  3
A2
350
10018
  3
A3
350
10019
  3
A4
350
1001A
  3
A5
350
1001B
  3
A6
350
1001C
  3
A7
350
1001D
  3
A8
350
1001E
  3
A9
350
1001F
  3
B0
350
10020
  3
B1
350
10021
  3
B2
350
10022
  3
B3
350
10023
  3
B4
350
10024
  3
B5
350
10025
  3
B6
350
10026
  3
B7
350
10027
  3
B8
350
10028
  3
B9
350
10029
  3
C0
350
1002A
  3
C1
350
1002B
  3
C2
350
1002C
  3
C3
350
1002D
  3
C4
350
1002E
  3
C5
350
1002F
  3
C6
350
10030
  3
C7
350
10031
  3
C8
350
10032
  3
C9
350
10033
  3
D0
350
10034
  3
D1
350
10035
  3
D2
350
10036
  0
DICTIONARY
  5
101017B
102
{ACAD_REACTORS
330
C
102
}
330
C
100
AcDbDictionary
281
     1
  3
Imperial24
350
101017C
  0
DICTIONARY
  5
CCCB
102
{ACAD_REACTORS
330
C
102
}
330
C
100
AcDbDictionary
281
     1
  3
Standard
350
CCCC
  0
DICTIONARY
  5
10004
102
{ACAD_REACTORS
330
C
102
}
330
C
100
AcDbDictionary
281
     1
  3
2dWireframe
350
1000A
  3
3D Hidden
350
1000C
  3
3dWireframe
350
1000B
  3
Basic
350
10009
  3
Brighten
350
10010
  3
ColorChange
350
10014
  3
Conceptual
350
1000D
  3
Dim
350
1000F
  3
EdgeColorOff
350
1007A
  3
Facepattern
350
10013
  3
Flat
350
10005
  3
FlatWithEdges
350
10006
  3
Gouraud
350
10007
  3
GouraudWithEdges
350
10008
  3
Hidden
350
1010175
  3
JitterOff
350
10078
  3
Linepattern
350
10012
  3
OverhangOff
350
10079
  3
Realistic
350
1000E
  3
Shaded
350
101017A
  3
Shaded with edges
350
1010179
  3
Shades of Gray
350
1010176
  3
Sketchy
350
1010177
  3
Thicken
350
10011
  3
Wireframe
350
1010174
  3
X-Ray
350
1010178
  0
XRECORD
  5
EB0A
102
{ACAD_REACTORS
330
C
102
}
330
C
100
AcDbXrecord
280
     1
 90
   990106
  3

 60
     0
 61
     0
 62
     1
 63
     3
 64
     0
 65
     0
 66
     0
 67
     3
 68
     1
 69
     0
 70
     0
 71
     0
 72
     0
 40
0.0
170
     0
  0
XRECORD
  5
10101A3
102
{ACAD_REACTORS
330
C
102
}
330
C
100
AcDbXrecord
280
     1
 90
        1
330
CCCC
330
101017C
330
101017E
  0
DICTIONARY
  5
2C7C
102
{ACAD_REACTORS
330
C
102
}
330
C
100
AcDbDictionary
281
     1
  3
CANNOSCALE
350
10075
  3
CMLEADERSTYLE
350
10073
  3
CTABLESTYLE
350
CCD1
  3
CVIEWDETAILSTYLE
350
101019A
  3
CVIEWSECTIONSTYLE
350
101019B
  3
DIMASSOC
350
CCC6
  3
LAYEREVAL
350
101019C
  3
LAYERNOTIFY
350
101019D
  3
LIGHTINGUNITS
350
10076
  3
MSLTSCALE
350
10074
  3
SORTENTS
350
2C7D
  0
DICTIONARY
  5
CD01
102
{ACAD_REACTORS
330
CD00
102
}
330
CD00
100
AcDbDictionary
281
     1
  0
XRECORD
  5
1005B
102
{ACAD_REACTORS
330
1005A
102
}
330
1005A
100
AcDbXrecord
280
     1
290
     1
  0
XRECORD
  5
1005D
102
{ACAD_REACTORS
330
1005C
102
}
330
1005C
100
AcDbXrecord
280
     1
290
     1
  0
XRECORD
  5
1005F
102
{ACAD_REACTORS
330
1005E
102
}
330
1005E
100
AcDbXrecord
280
     1
290
     1
  0
XRECORD
  5
10061
102
{ACAD_REACTORS
330
10060
102
}
330
10060
100
AcDbXrecord
280
     1
290
     1
  0
XRECORD
  5
10063
102
{ACAD_REACTORS
330
10062
102
}
330
10062
100
AcDbXrecord
280
     1
290
     1
  0
XRECORD
  5
10065
102
{ACAD_REACTORS
330
10064
102
}
330
10064
100
AcDbXrecord
280
     1
290
     1
  0
XRECORD
  5
10067
102
{ACAD_REACTORS
330
10066
102
}
330
10066
100
AcDbXrecord
280
     1
290
     1
  0
XRECORD
  5
982D
102
{ACAD_REACTORS
330
982C
102
}
330
982C
100
AcDbXrecord
280
     1
340
18
  0
SORTENTSTABLE
  5
D018
102
{ACAD_REACTORS
330
982C
102
}
330
982C
100
AcDbSortentsTable
330
18
331
FAFA
  5
FCC9
331
F716
  5
F716
331
F9A9
  5
F9A9
331
FAF2
  5
FAF7
331
F9AD
  5
F9AD
331
FAF6
  5
FAFB
331
FA42
  5
FA46
331
FA46
  5
FA4A
331
FA83
  5
FA88
331
FA87
  5
FA8C
331
FA7B
  5
FA80
331
FABA
  5
FABF
331
FA7F
  5
FA84
331
FABE
  5
FAC3
331
FAEA
  5
FAEF
331
F9A5
  5
F9A5
331
FAEE
  5
FAF3
331
FAE2
  5
FAE7
331
F6E6
  5
F6E6
331
FAE6
  5
FAEB
331
F9E3
  5
F9E7
331
FA3A
  5
FA3E
331
F9E7
  5
F9EC
331
FA3E
  5
FA42
331
F9DB
  5
F9DD
331
FA32
  5
FA36
331
FA36
  5
FA3A
331
FA73
  5
FA78
331
FAB2
  5
FAB7
331
FA77
  5
FA7C
331
FAB6
  5
FABB
331
FA6B
  5
FA70
331
FAAA
  5
FAAF
331
FA6F
  5
FA74
331
FAAE
  5
FAB3
331
FADB
  5
FAE0
331
F756
  5
F756
331
FADF
  5
FAE4
331
FAD3
  5
FAD8
331
FAD7
  5
FADC
331
F9D0
  5
F9D2
331
FA2B
  5
FA2F
331
FA2F
  5
FA33
331
F9D4
  5
F9D6
331
FA23
  5
FA27
331
FA27
  5
FA2B
331
F9CC
  5
F9CF
331
FAA3
  5
FAA8
331
FA60
  5
FA65
331
FA64
  5
FA69
331
FAA7
  5
FAAC
331
FA9B
  5
FAA0
331
FA58
  5
FA5C
331
FA5C
  5
FA60
331
FA9F
  5
FAA4
331
FCFF
  5
FFA4
331
FACB
  5
FAD0
331
FACF
  5
FAD4
331
FAC3
  5
FAC8
331
FAC7
  5
FACC
331
F9B8
  5
F9B8
331
F9BC
  5
F9BC
331
F9B0
  5
F9B0
331
FA03
  5
FA07
331
FA07
  5
FA0B
331
F9B4
  5
F9B4
331
FA93
  5
FA98
331
FA50
  5
FA54
331
FA54
  5
FA58
331
FA97
  5
FA9C
331
FA8B
  5
FA90
331
FA48
  5
FA4C
331
FA4C
  5
FA50
331
FA8F
  5
FA94
331
FAFB
  5
FCD1
331
F9AA
  5
F9AA
331
FAF3
  5
FAF8
331
F9AE
  5
F9AE
331
FAF7
  5
FBCC
331
F9F8
  5
FA03
331
FA43
  5
FA47
331
FA47
  5
FA4B
331
FA80
  5
FA85
331
FA84
  5
FA89
331
FABB
  5
FAC0
331
FA78
  5
FA7D
331
FA7C
  5
FA81
331
FABF
  5
FAC4
331
FAEB
  5
FAF0
331
F9A6
  5
F9A6
331
FAEF
  5
FAF4
331
FAE3
  5
FAE8
331
FAE7
  5
FAEC
331
F9E0
  5
F9E4
331
FA3B
  5
FA3F
331
FA3F
  5
FA43
331
F9E4
  5
F9E8
331
F9D8
  5
F9DA
331
FA33
  5
FA37
331
FA37
  5
FA3B
331
F9DC
  5
F9E0
331
FAB3
  5
FAB8
331
FA70
  5
FA75
331
FA74
  5
FA79
331
FAB7
  5
FABC
331
FAAB
  5
FAB0
331
FA68
  5
FA6D
331
FA6C
  5
FA71
331
FAAF
  5
FAB4
331
F6D8
  5
F6D8
331
FAD8
  5
FADD
331
FADC
  5
FAE1
331
FAD0
  5
FAD5
331
FAD4
  5
FAD9
331
F9D1
  5
F9D3
331
FA28
  5
FA2C
331
F9D5
  5
F9D7
331
FA2C
  5
FA30
331
FA20
  5
FA24
331
F9C9
  5
F9C9
331
FA24
  5
FA28
331
FA61
  5
FA66
331
FAA0
  5
FAA5
331
FA65
  5
FA6A
331
FAA4
  5
FAA9
331
FA98
  5
FA9D
331
FA59
  5
FA5D
331
FA9C
  5
FAA1
331
FA5D
  5
FA62
331
FAC8
  5
FACD
331
FACC
  5
FAD1
331
FAC0
  5
FAC5
331
F6BC
  5
F6BC
331
FAC4
  5
FAC9
331
FA08
  5
FA0C
331
F9B9
  5
F9B9
331
F9BD
  5
F9BD
331
FA00
  5
FA04
331
F9B1
  5
F9B1
331
FA04
  5
FA08
331
F9B5
  5
F9B5
331
FA90
  5
FA95
331
FA51
  5
FA55
331
F634
  5
F634
331
FA94
  5
FA99
331
FA55
  5
FA59
331
FA88
  5
FA8D
331
FA49
  5
FA4D
331
FA8C
  5
FA91
331
FA4D
  5
FA51
331
FC0C
  5
FCF1
331
FAF8
  5
FC0C
331
F9AB
  5
F9AB
331
F9AF
  5
F9AF
331
FAF0
  5
FAF5
331
FAF4
  5
FAF9
331
F9E9
  5
F9FB
331
FA40
  5
FA44
331
FA44
  5
FA48
331
FA81
  5
FA86
331
FA85
  5
FA8A
331
FA79
  5
FA7E
331
FAB8
  5
FABD
331
FA7D
  5
FA82
331
FABC
  5
FAC1
331
FAE8
  5
FAED
331
F9A7
  5
F9A7
331
F6F4
  5
F6F4
331
FAEC
  5
FAF1
331
FAE0
  5
FAE5
331
FAE4
  5
FAE9
331
F9E1
  5
F9E5
331
FA38
  5
FA3C
331
F9E5
  5
F9E9
331
FA3C
  5
FA40
331
F9D9
  5
F9DB
331
FA30
  5
FA34
331
F6A0
  5
F6A0
331
F9DD
  5
F9E3
331
FA34
  5
FA38
331
FA71
  5
FA76
331
FAB0
  5
FAB5
331
FA75
  5
FA7A
331
FAB4
  5
FAB9
331
FA69
  5
FA6E
331
FAA8
  5
FAAD
331
FA6D
  5
FA72
331
FAAC
  5
FAB1
331
FAD9
  5
FADE
331
F748
  5
F748
331
FADD
  5
FAE2
331
FAD1
  5
FAD6
331
FAD5
  5
FADA
331
F9D2
  5
F9D4
331
F9D6
  5
F9D8
331
FA29
  5
FA2D
331
FA2D
  5
FA31
331
F9CA
  5
F9CC
331
F9CE
  5
F9D0
331
FA21
  5
FA25
331
FA25
  5
FA29
331
FA62
  5
FA67
331
FA66
  5
FA6B
331
FAA1
  5
FAA6
331
FAA5
  5
FAAA
331
FA5A
  5
FA5E
331
FA5E
  5
FA63
331
FA99
  5
FA9E
331
FA9D
  5
FAA2
331
FCF1
  5
FCFF
331
FAC9
  5
FACE
331
FACD
  5
FAD2
331
FAC1
  5
FAC6
331
F724
  5
F724
331
FAC5
  5
FACA
331
F9BA
  5
F9BA
331
F9BE
  5
F9BE
331
FA09
  5
FA0D
331
F9B2
  5
F9B2
331
F9B6
  5
F9B6
331
FA01
  5
FA05
331
FA05
  5
FA09
331
FA52
  5
FA56
331
FA56
  5
FA5A
331
FA91
  5
FA96
331
FA95
  5
FA9A
331
FA4A
  5
FA4E
331
FA4E
  5
FA52
331
FA89
  5
FA8E
331
FA8D
  5
FA92
331
FAF9
  5
FC3D
331
F9A8
  5
F9A8
331
FAF1
  5
FAF6
331
F9AC
  5
F9AC
331
FAF5
  5
FAFA
331
FA41
  5
FA45
331
FA45
  5
FA49
331
FA82
  5
FA87
331
FA86
  5
FA8B
331
FA7A
  5
FA7F
331
FA7E
  5
FA83
331
FAB9
  5
FABE
331
FABD
  5
FAC2
331
FAE9
  5
FAEE
331
F9A4
  5
F9A4
331
FAED
  5
FAF2
331
FAE1
  5
FAE6
331
FAE5
  5
FAEA
331
F9E2
  5
F9E6
331
F9E6
  5
F9EA
331
FA39
  5
FA3D
331
FA3D
  5
FA41
331
F9DA
  5
F9DC
331
FA31
  5
FA35
331
FA35
  5
FA39
331
FA72
  5
FA77
331
FA76
  5
FA7B
331
FAB1
  5
FAB6
331
FAB5
  5
FABA
331
FA6A
  5
FA6F
331
FA6E
  5
FA73
331
FAA9
  5
FAAE
331
FAAD
  5
FAB2
331
FCC9
  5
F9CA
331
FADA
  5
FADF
331
FADE
  5
FAE3
331
FAD2
  5
FAD7
331
FAD6
  5
FADB
331
F9D3
  5
F9D5
331
FA2A
  5
FA2E
331
F9D7
  5
F9D9
331
FA2E
  5
FA32
331
FA22
  5
FA26
331
F9CB
  5
F9CD
331
FA26
  5
FA2A
331
F692
  5
F692
331
F9CF
  5
F9D1
331
FA63
  5
FA68
331
FAA2
  5
FAA7
331
FA67
  5
FA6C
331
FAA6
  5
FAAB
331
FA9A
  5
FA9F
331
FA5B
  5
FA5F
331
FA9E
  5
FAA3
331
FA5F
  5
FA64
331
F6CA
  5
F6CA
331
FACA
  5
FACF
331
FACE
  5
FAD3
331
FAC2
  5
FAC7
331
FAC6
  5
FACB
331
FA0A
  5
FA23
331
F9BB
  5
F9BB
331
FA02
  5
FA06
331
F9B3
  5
F9B3
331
FA06
  5
FA0A
331
F9B7
  5
F9B7
331
FA92
  5
FA97
331
FA53
  5
FA57
331
FA96
  5
FA9B
331
FA57
  5
FA5B
331
FA8A
  5
FA8F
331
FA4B
  5
FA4F
331
F626
  5
F626
331
FA8E
  5
FA93
331
FA4F
  5
FA53
  0
XRECORD
  5
982B
102
{ACAD_REACTORS
330
982A
102
}
330
982A
100
AcDbXrecord
280
     1
340
15
  0
SORTENTSTABLE
  5
D1D6
102
{ACAD_REACTORS
330
982A
102
}
330
982A
100
AcDbSortentsTable
330
15
331
5827
  5
5827
331
581B
  5
581B
331
14C
  5
14C
331
3D
  5
3D
331
D182
  5
D185
331
D186
  5
D193
331
D17A
  5
D17D
331
D17E
  5
D181
331
5813
  5
5813
331
580B
  5
580B
331
580F
  5
580F
331
5B7E
  5
5B7E
331
F343
  5
F343
331
F347
  5
F347
331
F33B
  5
F33B
331
F33F
  5
F33F
331
D9
  5
D9
331
D173
  5
D177
331
D177
  5
D17A
331
5804
  5
5804
331
5A43
  5
5A43
331
5A47
  5
5A47
331
17A
  5
17A
331
D1
  5
D1
331
D5
  5
D5
331
C9
  5
C9
331
CD
  5
CD
331
582B
  5
582B
331
D190
  5
D1B6
331
C6
  5
C6
331
171
  5
171
331
175
  5
175
331
D18F
  5
D1B5
331
F360
  5
F360
331
F348
  5
F348
331
F34C
  5
F34C
331
14D
  5
14D
331
D183
  5
D186
331
D17B
  5
D17E
331
D17F
  5
D182
331
5810
  5
5810
331
5814
  5
5814
331
580C
  5
580C
331
5B7F
  5
5B7F
331
F340
  5
F340
331
F344
  5
F344
331
F338
  5
F338
331
F33C
  5
F33C
331
4B9A
  5
4B9A
331
DA
  5
DA
331
D174
  5
D178
331
5A48
  5
5A48
331
5A44
  5
5A44
331
F335
  5
F335
331
17B
  5
17B
331
D2
  5
D2
331
D6
  5
D6
331
CA
  5
CA
331
CE
  5
CE
331
5834
  5
5834
331
5799
  5
5799
331
5828
  5
5828
331
C3
  5
C3
331
C7
  5
C7
331
172
  5
172
331
176
  5
176
331
581D
  5
581D
331
F349
  5
F349
331
56E2
  5
56E2
331
D180
  5
D183
331
D184
  5
D18F
331
D178
  5
D17B
331
D17C
  5
D17F
331
5811
  5
5811
331
5B80
  5
5B80
331
5809
  5
5809
331
580D
  5
580D
331
5B7C
  5
5B7C
331
F341
  5
F341
331
F345
  5
F345
331
F339
  5
F339
331
F33D
  5
F33D
331
4B9B
  5
4B9B
331
4B97
  5
4B97
331
1184
  5
1184
331
B32E
  5
B32E
331
D171
  5
D174
331
D175
  5
D179
331
5802
  5
5802
331
5A49
  5
5A49
331
5A45
  5
5A45
331
F336
  5
F336
331
4B8F
  5
4B8F
331
178
  5
178
331
17C
  5
17C
331
D3
  5
D3
331
D7
  5
D7
331
CB
  5
CB
331
621A
  5
621A
331
57E6
  5
57E6
331
5835
  5
5835
331
5829
  5
5829
331
C4
  5
C4
331
173
  5
173
331
177
  5
177
331
581A
  5
581A
331
581E
  5
581E
331
F34A
  5
F34A
331
577F
  5
577F
331
D181
  5
D184
331
D185
  5
D190
331
D179
  5
D17C
331
D17D
  5
D180
331
5812
  5
5812
331
5816
  5
5816
331
5B81
  5
5B81
331
580A
  5
580A
331
580E
  5
580E
331
5B7D
  5
5B7D
331
F342
  5
F342
331
F346
  5
F346
331
F33A
  5
F33A
331
F33E
  5
F33E
331
4B98
  5
4B98
331
4B90
  5
4B90
331
D8
  5
D8
331
D172
  5
D175
331
5803
  5
5803
331
57F3
  5
57F3
331
5A42
  5
5A42
331
F337
  5
F337
331
4B8C
  5
4B8C
331
179
  5
179
331
D0
  5
D0
331
D4
  5
D4
331
C8
  5
C8
331
579B
  5
579B
331
582A
  5
582A
331
D193
  5
D1B7
331
5780
  5
5780
331
2F5D
  5
2F5D
331
C5
  5
C5
331
91
  5
91
331
170
  5
170
331
174
  5
174
  0
ACDBDETAILVIEWSTYLE
  5
101017E
102
{ACAD_XDICTIONARY
360
10101A1
102
}
102
{ACAD_REACTORS
330
101017D
102
}
330
101017D
100
AcDbModelDocViewStyle
 70
     0
  3
Imperial24
290
     0
100
AcDbDetailViewStyle
 70
     0
 71
     0
 90
        3
 71
     1
340
F
 62
   256
 40
0.24
340
0
 62
   256
 40
0.24
300

 40
0.36
280
     3
 71
     2
340
14
 90
       25
 62
   256
 71
     3
340
F
 62
   256
 40
0.24
 90
        1
 40
0.75
 90
        1
300
%<\AcVar ViewType \f "%tc1">% %<\AcVar ViewDetailId>%\PSCALE %<\AcVar ViewScale \f "%sn">%
 71
     4
340
14
 90
       25
 62
   256
340
14
 90
       25
 62
   256
280
     0
  0
LAYOUT
  5
5C22
102
{ACAD_XDICTIONARY
360
CD03
102
}
102
{ACAD_REACTORS
330
5C1F
102
}
330
5C1F
100
AcDbPlotSettings
  1

  2
pdfFactory Pro
  4
A4
  6

 40
7.143749713897705
 41
7.143725872039794
 42
7.14373779296875
 43
7.14373779296875
 44
209.9733276367187
 45
297.0106506347656
 46
2.099437514849242
 47
0.0
 48
1.0
 49
1.0
140
283.535793
141
174.335932
142
1.0
143
2.921859477644063
 70
   692
 72
     1
 73
     1
 74
     1
  7
Carron Phoenix.ctb
 75
     0
147
0.342247807483991
 76
     0
 77
     2
 78
   300
148
0.0268790493087181
149
0.0288269791640232
100
AcDbLayout
  1
Layout1
 70
     1
 71
     1
 10
-20.89987702549854
 20
-27.03612118711686
 11
846.9235074929212
 21
586.4764362206919
 12
0.0
 22
0.0
 32
0.0
 14
0.0
 24
0.0
 34
0.0
 15
826.0
 25
559.4330351521971
 35
0.4
146
0.0
 13
0.0
 23
0.0
 33
0.0
 16
1.0
 26
0.0
 36
0.0
 17
0.0
 27
1.0
 37
0.0
 76
     0
330
15
331
3D
1001
ACAD_PSEXT
1000
pdfFactory Pro
1000
pdfFactory 2
1000
FPP2:
1000

1070
     0
  0
LAYOUT
  5
5C21
102
{ACAD_REACTORS
330
5C1F
102
}
330
5C1F
100
AcDbPlotSettings
  1

  2
AXISL3.pc3
  4
User1288
  6
P
 40
4.995332999999999
 41
16.933336
 42
4.995331
 43
16.933334
 44
296.925995
 45
209.804001
 46
0.0
 47
0.0
 48
80.83892073203015
 49
-120.0534720337518
140
1131.834676316042
141
462.3709243868811
142
1.0
143
4.0
 70
 11952
 72
     1
 73
     0
 74
     4
  7
Tommy.ctb
 75
    18
147
0.25
 76
     0
 77
     2
 78
   300
148
-80.83892073203015
149
120.0534720337518
100
AcDbLayout
  1
Model
 70
     1
 71
     0
 10
0.0
 20
0.0
 11
12.0
 21
9.0
 12
0.0
 22
0.0
 32
0.0
 14
0.0
 24
0.0
 34
0.0
 15
0.0
 25
0.0
 35
0.0
146
0.0
 13
0.0
 23
0.0
 33
0.0
 16
1.0
 26
0.0
 36
0.0
 17
0.0
 27
1.0
 37
0.0
 76
     0
330
18
331
FFDC
  0
MATERIAL
  5
FFF4
102
{ACAD_XDICTIONARY
360
FFF5
102
}
102
{ACAD_REACTORS
330
CCC9
102
}
330
CCC9
100
AcDbMaterial
  1
ByBlock
 72
     0
 43
0.0208333333333333
 43
0.0
 43
0.0
 43
0.0
 43
0.0
 43
0.0208333333333333
 43
0.0
 43
0.0
 43
0.0
 43
0.0
 43
1.0
 43
0.0
 43
0.0
 43
0.0
 43
0.0
 43
1.0
 77
     0
 47
0.0208333333333333
 47
0.0
 47
0.0
 47
0.0
 47
0.0
 47
0.0208333333333333
 47
0.0
 47
0.0
 47
0.0
 47
0.0
 47
1.0
 47
0.0
 47
0.0
 47
0.0
 47
0.0
 47
1.0
171
     0
 49
0.0208333333333333
 49
0.0
 49
0.0
 49
0.0
 49
0.0
 49
0.0208333333333333
 49
0.0
 49
0.0
 49
0.0
 49
0.0
 49
1.0
 49
0.0
 49
0.0
 49
0.0
 49
0.0
 49
1.0
175
     0
142
0.0208333333333333
142
0.0
142
0.0
142
0.0
142
0.0
142
0.0208333333333333
142
0.0
142
0.0
142
0.0
142
0.0
142
1.0
142
0.0
142
0.0
142
0.0
142
0.0
142
1.0
179
     0
144
0.0208333333333333
144
0.0
144
0.0
144
0.0
144
0.0
144
0.0208333333333333
144
0.0
144
0.0
144
0.0
144
0.0
144
1.0
144
0.0
144
0.0
144
0.0
144
0.0
144
1.0
147
0.0208333333333333
147
0.0
147
0.0
147
0.0
147
0.0
147
0.0208333333333333
147
0.0
147
0.0
147
0.0
147
0.0
147
1.0
147
0.0
147
0.0
147
0.0
147
0.0
147
1.0
  0
MATERIAL
  5
FFEC
102
{ACAD_XDICTIONARY
360
FFED
102
}
102
{ACAD_REACTORS
330
CCC9
102
}
330
CCC9
100
AcDbMaterial
  1
ByLayer
 72
     0
 43
0.0208333333333333
 43
0.0
 43
0.0
 43
0.0
 43
0.0
 43
0.0208333333333333
 43
0.0
 43
0.0
 43
0.0
 43
0.0
 43
1.0
 43
0.0
 43
0.0
 43
0.0
 43
0.0
 43
1.0
 77
     0
 47
0.0208333333333333
 47
0.0
 47
0.0
 47
0.0
 47
0.0
 47
0.0208333333333333
 47
0.0
 47
0.0
 47
0.0
 47
0.0
 47
1.0
 47
0.0
 47
0.0
 47
0.0
 47
0.0
 47
1.0
171
     0
 49
0.0208333333333333
 49
0.0
 49
0.0
 49
0.0
 49
0.0
 49
0.0208333333333333
 49
0.0
 49
0.0
 49
0.0
 49
0.0
 49
1.0
 49
0.0
 49
0.0
 49
0.0
 49
0.0
 49
1.0
175
     0
142
0.0208333333333333
142
0.0
142
0.0
142
0.0
142
0.0
142
0.0208333333333333
142
0.0
142
0.0
142
0.0
142
0.0
142
1.0
142
0.0
142
0.0
142
0.0
142
0.0
142
1.0
179
     0
144
0.0208333333333333
144
0.0
144
0.0
144
0.0
144
0.0
144
0.0208333333333333
144
0.0
144
0.0
144
0.0
144
0.0
144
1.0
144
0.0
144
0.0
144
0.0
144
0.0
144
1.0
147
0.0208333333333333
147
0.0
147
0.0
147
0.0
147
0.0
147
0.0208333333333333
147
0.0
147
0.0
147
0.0
147
0.0
147
1.0
147
0.0
147
0.0
147
0.0
147
0.0
147
1.0
  0
MATERIAL
  5
FFFC
102
{ACAD_XDICTIONARY
360
FFFD
102
}
102
{ACAD_REACTORS
330
CCC9
102
}
330
CCC9
100
AcDbMaterial
  1
Global
 72
     0
 43
0.0208333333333333
 43
0.0
 43
0.0
 43
0.0
 43
0.0
 43
0.0208333333333333
 43
0.0
 43
0.0
 43
0.0
 43
0.0
 43
1.0
 43
0.0
 43
0.0
 43
0.0
 43
0.0
 43
1.0
 77
     0
 47
0.0208333333333333
 47
0.0
 47
0.0
 47
0.0
 47
0.0
 47
0.0208333333333333
 47
0.0
 47
0.0
 47
0.0
 47
0.0
 47
1.0
 47
0.0
 47
0.0
 47
0.0
 47
0.0
 47
1.0
171
     0
 49
0.0208333333333333
 49
0.0
 49
0.0
 49
0.0
 49
0.0
 49
0.0208333333333333
 49
0.0
 49
0.0
 49
0.0
 49
0.0
 49
1.0
 49
0.0
 49
0.0
 49
0.0
 49
0.0
 49
1.0
175
     0
142
0.0208333333333333
142
0.0
142
0.0
142
0.0
142
0.0
142
0.0208333333333333
142
0.0
142
0.0
142
0.0
142
0.0
142
1.0
142
0.0
142
0.0
142
0.0
142
0.0
142
1.0
179
     0
144
0.0208333333333333
144
0.0
144
0.0
144
0.0
144
0.0
144
0.0208333333333333
144
0.0
144
0.0
144
0.0
144
0.0
144
1.0
144
0.0
144
0.0
144
0.0
144
0.0
144
1.0
147
0.0208333333333333
147
0.0
147
0.0
147
0.0
147
0.0
147
0.0208333333333333
147
0.0
147
0.0
147
0.0
147
0.0
147
1.0
147
0.0
147
0.0
147
0.0
147
0.0
147
1.0
  0
MLEADERSTYLE
  5
10038
102
{ACAD_REACTORS
330
10037
102
}
330
10037
100
AcDbMLeaderStyle
179
     2
170
     2
171
     1
172
     0
 90
        2
 40
0.0
 41
0.0
173
     1
 91
-1056964608
340
12
 92
       -2
290
     1
 42
0.09
291
     1
 43
0.36
  3
Standard
 44
0.18
300

342
F
174
     1
178
     6
175
     1
176
     0
 93
-1056964608
 45
0.18
292
     0
297
     0
 46
0.18
 94
-1056964608
 47
1.0
 49
1.0
140
1.0
293
     1
141
0.0
294
     1
177
     0
142
1.0
295
     0
296
     0
143
0.125
271
     0
272
     9
273
     9
298
     0
  0
MLINESTYLE
  5
1C
102
{ACAD_REACTORS
330
1B
102
}
330
0
100
AcDbMlineStyle
  2
STANDARD
 70
     0
  3

 62
   256
 51
90.0
 52
90.0
 71
     2
 49
0.5
 62
   256
  6
BYLAYER
 49
-0.5
 62
   256
  6
BYLAYER
  0
ACDBPLACEHOLDER
  5
5C1E
102
{ACAD_REACTORS
330
5C1D
102
}
330
5C1D
  0
SCALE
  5
10016
102
{ACAD_REACTORS
330
10015
102
}
330
10015
100
AcDbScale
 70
     0
300
1:1
140
1.0
141
1.0
290
     1
  0
SCALE
  5
10017
102
{ACAD_REACTORS
330
10015
102
}
330
10015
100
AcDbScale
 70
     0
300
1:2
140
1.0
141
2.0
290
     0
  0
SCALE
  5
10018
102
{ACAD_REACTORS
330
10015
102
}
330
10015
100
AcDbScale
 70
     0
300
1:4
140
1.0
141
4.0
290
     0
  0
SCALE
  5
10019
102
{ACAD_REACTORS
330
10015
102
}
330
10015
100
AcDbScale
 70
     0
300
1:5
140
1.0
141
5.0
290
     0
  0
SCALE
  5
1001A
102
{ACAD_REACTORS
330
10015
102
}
330
10015
100
AcDbScale
 70
     0
300
1:8
140
1.0
141
8.0
290
     0
  0
SCALE
  5
1001B
102
{ACAD_REACTORS
330
10015
102
}
330
10015
100
AcDbScale
 70
     0
300
1:10
140
1.0
141
10.0
290
     0
  0
SCALE
  5
1001C
102
{ACAD_REACTORS
330
10015
102
}
330
10015
100
AcDbScale
 70
     0
300
1:16
140
1.0
141
16.0
290
     0
  0
SCALE
  5
1001D
102
{ACAD_REACTORS
330
10015
102
}
330
10015
100
AcDbScale
 70
     0
300
1:20
140
1.0
141
20.0
290
     0
  0
SCALE
  5
1001E
102
{ACAD_REACTORS
330
10015
102
}
330
10015
100
AcDbScale
 70
     0
300
1:30
140
1.0
141
30.0
290
     0
  0
SCALE
  5
1001F
102
{ACAD_REACTORS
330
10015
102
}
330
10015
100
AcDbScale
 70
     0
300
1:40
140
1.0
141
40.0
290
     0
  0
SCALE
  5
10020
102
{ACAD_REACTORS
330
10015
102
}
330
10015
100
AcDbScale
 70
     0
300
1:50
140
1.0
141
50.0
290
     0
  0
SCALE
  5
10021
102
{ACAD_REACTORS
330
10015
102
}
330
10015
100
AcDbScale
 70
     0
300
1:100
140
1.0
141
100.0
290
     0
  0
SCALE
  5
10022
102
{ACAD_REACTORS
330
10015
102
}
330
10015
100
AcDbScale
 70
     0
300
2:1
140
2.0
141
1.0
290
     0
  0
SCALE
  5
10023
102
{ACAD_REACTORS
330
10015
102
}
330
10015
100
AcDbScale
 70
     0
300
4:1
140
4.0
141
1.0
290
     0
  0
SCALE
  5
10024
102
{ACAD_REACTORS
330
10015
102
}
330
10015
100
AcDbScale
 70
     0
300
8:1
140
8.0
141
1.0
290
     0
  0
SCALE
  5
10025
102
{ACAD_REACTORS
330
10015
102
}
330
10015
100
AcDbScale
 70
     0
300
10:1
140
10.0
141
1.0
290
     0
  0
SCALE
  5
10026
102
{ACAD_REACTORS
330
10015
102
}
330
10015
100
AcDbScale
 70
     0
300
100:1
140
100.0
141
1.0
290
     0
  0
SCALE
  5
10027
102
{ACAD_REACTORS
330
10015
102
}
330
10015
100
AcDbScale
 70
     0
300
1/128" = 1'-0"
140
0.0078125
141
12.0
290
     0
  0
SCALE
  5
10028
102
{ACAD_REACTORS
330
10015
102
}
330
10015
100
AcDbScale
 70
     0
300
1/64" = 1'-0"
140
0.015625
141
12.0
290
     0
  0
SCALE
  5
10029
102
{ACAD_REACTORS
330
10015
102
}
330
10015
100
AcDbScale
 70
     0
300
1/32" = 1'-0"
140
0.03125
141
12.0
290
     0
  0
SCALE
  5
1002A
102
{ACAD_REACTORS
330
10015
102
}
330
10015
100
AcDbScale
 70
     0
300
1/16" = 1'-0"
140
0.0625
141
12.0
290
     0
  0
SCALE
  5
1002B
102
{ACAD_REACTORS
330
10015
102
}
330
10015
100
AcDbScale
 70
     0
300
3/32" = 1'-0"
140
0.09375
141
12.0
290
     0
  0
SCALE
  5
1002C
102
{ACAD_REACTORS
330
10015
102
}
330
10015
100
AcDbScale
 70
     0
300
1/8" = 1'-0"
140
0.125
141
12.0
290
     0
  0
SCALE
  5
1002D
102
{ACAD_REACTORS
330
10015
102
}
330
10015
100
AcDbScale
 70
     0
300
3/16" = 1'-0"
140
0.1875
141
12.0
290
     0
  0
SCALE
  5
1002E
102
{ACAD_REACTORS
330
10015
102
}
330
10015
100
AcDbScale
 70
     0
300
1/4" = 1'-0"
140
0.25
141
12.0
290
     0
  0
SCALE
  5
1002F
102
{ACAD_REACTORS
330
10015
102
}
330
10015
100
AcDbScale
 70
     0
300
3/8" = 1'-0"
140
0.375
141
12.0
290
     0
  0
SCALE
  5
10030
102
{ACAD_REACTORS
330
10015
102
}
330
10015
100
AcDbScale
 70
     0
300
1/2" = 1'-0"
140
0.5
141
12.0
290
     0
  0
SCALE
  5
10031
102
{ACAD_REACTORS
330
10015
102
}
330
10015
100
AcDbScale
 70
     0
300
3/4" = 1'-0"
140
0.75
141
12.0
290
     0
  0
SCALE
  5
10032
102
{ACAD_REACTORS
330
10015
102
}
330
10015
100
AcDbScale
 70
     0
300
1" = 1'-0"
140
1.0
141
12.0
290
     0
  0
SCALE
  5
10033
102
{ACAD_REACTORS
330
10015
102
}
330
10015
100
AcDbScale
 70
     0
300
1-1/2" = 1'-0"
140
1.5
141
12.0
290
     0
  0
SCALE
  5
10034
102
{ACAD_REACTORS
330
10015
102
}
330
10015
100
AcDbScale
 70
     0
300
3" = 1'-0"
140
3.0
141
12.0
290
     0
  0
SCALE
  5
10035
102
{ACAD_REACTORS
330
10015
102
}
330
10015
100
AcDbScale
 70
     0
300
6" = 1'-0"
140
6.0
141
12.0
290
     0
  0
SCALE
  5
10036
102
{ACAD_REACTORS
330
10015
102
}
330
10015
100
AcDbScale
 70
     0
300
1'-0" = 1'-0"
140
12.0
141
12.0
290
     0
  0
ACDBSECTIONVIEWSTYLE
  5
101017C
102
{ACAD_XDICTIONARY
360
101019F
102
}
102
{ACAD_REACTORS
330
101017B
102
}
330
101017B
100
AcDbModelDocViewStyle
 70
     0
  3
Imperial24
290
     0
100
AcDbSectionViewStyle
 70
     0
 71
     0
 90
       78
 71
     1
340
F
 62
   256
 40
0.24
340
0
340
0
 62
   256
 40
0.24
300
I, O, Q, S, X, Z
 40
0.48
 90
        3
 40
0.18
 90
        1
 71
     2
340
14
 90
       25
 62
   256
340
14
 90
       50
 62
   256
 40
0.24
 40
0.0
 40
0.24
 71
     3
340
F
 62
   256
 40
0.24
 90
        1
 40
0.75
 90
        1
300
%<\AcVar ViewType \f "%tc1">% %<\AcVar ViewSectionStartId>%-%<\AcVar ViewSectionEndId>%\PSCALE %<\AcVar ViewScale \f "%sn">%
 71
     4
 62
   256
 62
   257
300
ANSI31
 40
1.0
 90
        0
290
     0
290
     0
 90
        6
 40
0.0
 40
1.570796326794896
 40
0.2617993877991494
 40
1.308996938995747
 40
-0.2617993877991494
 40
1.832595714594046
  0
TABLESTYLE
  5
CCCC
102
{ACAD_XDICTIONARY
360
10070
102
}
102
{ACAD_REACTORS
330
CCCB
102
}
330
CCCB
100
AcDbTableStyle
280
     0
  3
Standard
 70
     0
 71
     0
 40
0.06
 41
0.06
280
     0
281
     0
  7
STANDARD
140
0.18
170
     2
 62
     0
 63
     7
283
     0
 90
        4
 91
        0
  1

274
    -2
284
     1
 64
     0
275
    -2
285
     1
 65
     0
276
    -2
286
     1
 66
     0
277
    -2
287
     1
 67
     0
278
    -2
288
     1
 68
     0
279
    -2
289
     1
 69
     0
  7
STANDARD
140
0.25
170
     5
 62
     0
 63
     7
283
     0
 90
        4
 91
        0
  1

274
    -2
284
     1
 64
     0
275
    -2
285
     1
 65
     0
276
    -2
286
     1
 66
     0
277
    -2
287
     1
 67
     0
278
    -2
288
     1
 68
     0
279
    -2
289
     1
 69
     0
  7
STANDARD
140
0.18
170
     5
 62
     0
 63
     7
283
     0
 90
        4
 91
        0
  1

274
    -2
284
     1
 64
     0
275
    -2
285
     1
 65
     0
276
    -2
286
     1
 66
     0
277
    -2
287
     1
 67
     0
278
    -2
288
     1
 68
     0
279
    -2
289
     1
 69
     0
  0
VISUALSTYLE
  5
1000A
102
{ACAD_REACTORS
330
10004
102
}
330
10004
100
AcDbVisualStyle
  2
2dWireframe
 70
     4
177
     3
291
     0
 70
    58
 90
        0
176
     1
 90
        2
176
     1
 90
        0
176
     1
 90
        0
176
     1
 40
0.6
176
     1
 40
30.0
176
     1
 62
     7
420
 16777215
176
     1
 90
        1
176
     1
 90
        4
176
     1
 62
     7
176
     1
 62
   257
176
     1
 90
        1
176
     1
 90
        1
176
     1
 40
1.0
176
     1
 90
        0
176
     1
 62
   257
176
     1
 40
1.0
176
     1
 90
        1
176
     1
 90
        6
176
     1
 90
        2
176
     1
 62
     7
176
     1
 90
        5
176
     1
 90
        0
176
     1
 90
        0
176
     1
290
     0
176
     1
 90
        1
176
     1
 40
0.0
176
     1
 90
        0
176
     1
290
     1
176
     1
290
     1
176
     1
290
     0
176
     1
290
     0
176
     1
290
     0
176
     1
290
     0
176
     1
290
     0
176
     1
290
     0
176
     1
290
     0
176
     1
 90
       50
176
     1
 40
0.0
176
     1
 40
1.0
176
     1
 90
        0
176
     1
 62
    18
420
        0
176
     1
 90
       50
176
     1
 90
        3
176
     1
 62
     5
420
      255
176
     1
290
     0
176
     1
 90
       50
176
     1
 90
       50
176
     1
 90
       50
176
     1
290
     0
176
     1
 90
       50
176
     1
 62
   256
176
     0
 40
1.0
176
     0
 90
        2
176
     1
  1
strokes_ogs.tif
176
     1
290
     0
176
     1
 40
1.0
176
     1
 40
1.0
176
     1
  0
VISUALSTYLE
  5
1000C
102
{ACAD_REACTORS
330
10004
102
}
330
10004
100
AcDbVisualStyle
  2
3D Hidden
 70
     6
177
     3
291
     0
 70
    58
 90
        1
176
     1
 90
        2
176
     1
 90
        2
176
     1
 90
        0
176
     1
 40
0.6
176
     1
 40
30.0
176
     1
 62
     7
420
 16777215
176
     1
 90
        2
176
     1
 90
        2
176
     1
 62
     7
176
     1
 62
   257
176
     1
 90
        2
176
     1
 90
        1
176
     1
 40
40.0
176
     1
 90
        0
176
     1
 62
   257
176
     1
 40
1.0
176
     1
 90
        1
176
     1
 90
        6
176
     1
 90
        2
176
     1
 62
     7
176
     1
 90
        3
176
     1
 90
        0
176
     1
 90
        0
176
     1
290
     0
176
     1
 90
        1
176
     1
 40
0.0
176
     1
 90
        0
176
     1
290
     0
176
     1
290
     1
176
     1
290
     1
176
     1
290
     0
176
     1
290
     0
176
     1
290
     0
176
     1
290
     0
176
     1
290
     0
176
     1
290
     0
176
     1
 90
       50
176
     1
 40
0.0
176
     1
 40
1.0
176
     1
 90
        0
176
     1
 62
    18
420
        0
176
     1
 90
       50
176
     1
 90
        3
176
     1
 62
     5
420
      255
176
     1
290
     0
176
     1
 90
       50
176
     1
 90
       50
176
     1
 90
       50
176
     1
290
     0
176
     1
 90
       50
176
     1
 62
   256
176
     0
 40
1.0
176
     0
 90
        2
176
     1
  1
strokes_ogs.tif
176
     1
290
     0
176
     1
 40
1.0
176
     1
 40
1.0
176
     1
  0
VISUALSTYLE
  5
1000B
102
{ACAD_REACTORS
330
10004
102
}
330
10004
100
AcDbVisualStyle
  2
3dWireframe
 70
     5
177
     3
291
     0
 70
    58
 90
        0
176
     1
 90
        2
176
     1
 90
        0
176
     1
 90
        0
176
     1
 40
0.6
176
     1
 40
30.0
176
     1
 62
     7
420
 16777215
176
     1
 90
        1
176
     1
 90
        4
176
     1
 62
     7
176
     1
 62
   257
176
     1
 90
        1
176
     1
 90
        1
176
     1
 40
1.0
176
     1
 90
        0
176
     1
 62
   257
176
     1
 40
1.0
176
     1
 90
        1
176
     1
 90
        6
176
     1
 90
        2
176
     1
 62
     7
176
     1
 90
        5
176
     1
 90
        0
176
     1
 90
        0
176
     1
290
     0
176
     1
 90
        1
176
     1
 40
0.0
176
     1
 90
        0
176
     1
290
     0
176
     1
290
     1
176
     1
290
     1
176
     1
290
     0
176
     1
290
     0
176
     1
290
     0
176
     1
290
     0
176
     1
290
     0
176
     1
290
     0
176
     1
 90
       50
176
     1
 40
0.0
176
     1
 40
1.0
176
     1
 90
        0
176
     1
 62
    18
420
        0
176
     1
 90
       50
176
     1
 90
        3
176
     1
 62
     5
420
      255
176
     1
290
     0
176
     1
 90
       50
176
     1
 90
       50
176
     1
 90
       50
176
     1
290
     0
176
     1
 90
       50
176
     1
 62
   256
176
     0
 40
1.0
176
     0
 90
        2
176
     1
  1
strokes_ogs.tif
176
     1
290
     0
176
     1
 40
1.0
176
     1
 40
1.0
176
     1
  0
VISUALSTYLE
  5
10009
102
{ACAD_REACTORS
330
10004
102
}
330
10004
100
AcDbVisualStyle
  2
Basic
 70
     7
177
     3
291
     1
 70
    58
 90
        1
176
     1
 90
        0
176
     1
 90
        1
176
     1
 90
        0
176
     1
 40
0.6
176
     1
 40
30.0
176
     1
 62
     7
420
 16777215
176
     1
 90
        0
176
     1
 90
        4
176
     1
 62
     7
176
     1
 62
   257
176
     1
 90
        1
176
     1
 90
        1
176
     1
 40
1.0
176
     1
 90
        8
176
     1
 62
     7
176
     1
 40
1.0
176
     1
 90
        1
176
     1
 90
        6
176
     1
 90
        2
176
     1
 62
     7
176
     1
 90
        5
176
     1
 90
        0
176
     1
 90
        0
176
     1
290
     0
176
     1
 90
        1
176
     1
 40
0.0
176
     1
 90
        0
176
     1
290
     0
176
     1
290
     1
176
     1
290
     1
176
     1
290
     0
176
     1
290
     0
176
     1
290
     0
176
     1
290
     0
176
     1
290
     0
176
     1
290
     0
176
     1
 90
       50
176
     1
 40
0.0
176
     1
 40
1.0
176
     1
 90
        0
176
     1
 62
    18
420
        0
176
     1
 90
       50
176
     1
 90
        3
176
     1
 62
     5
420
      255
176
     1
290
     0
176
     1
 90
       50
176
     1
 90
       50
176
     1
 90
       50
176
     1
290
     0
176
     1
 90
       50
176
     1
 62
   256
176
     0
 40
1.0
176
     0
 90
        2
176
     1
  1
strokes_ogs.tif
176
     1
290
     0
176
     1
 40
1.0
176
     1
 40
1.0
176
     1
  0
VISUALSTYLE
  5
10010
102
{ACAD_REACTORS
330
10004
102
}
330
10004
100
AcDbVisualStyle
  2
Brighten
 70
    12
177
     3
291
     1
 70
    58
 90
        2
176
     1
 90
        2
176
     1
 90
        0
176
     1
 90
        0
176
     1
 40
0.6
176
     1
 40
30.0
176
     1
 62
     7
420
 16777215
176
     1
 90
        1
176
     1
 90
        4
176
     1
 62
     7
176
     1
 62
   257
176
     1
 90
        1
176
     1
 90
        1
176
     1
 40
1.0
176
     1
 90
        8
176
     1
 62
     7
176
     1
 40
1.0
176
     1
 90
        1
176
     1
 90
        6
176
     1
 90
        2
176
     1
 62
     7
176
     1
 90
        5
176
     1
 90
        0
176
     1
 90
        0
176
     1
290
     0
176
     1
 90
        1
176
     1
 40
50.0
176
     1
 90
        0
176
     1
290
     0
176
     1
290
     1
176
     1
290
     1
176
     1
290
     0
176
     1
290
     0
176
     1
290
     0
176
     1
290
     0
176
     1
290
     0
176
     1
290
     0
176
     1
 90
       50
176
     1
 40
0.0
176
     1
 40
1.0
176
     1
 90
        0
176
     1
 62
    18
420
        0
176
     1
 90
       50
176
     1
 90
        3
176
     1
 62
     5
420
      255
176
     1
290
     0
176
     1
 90
       50
176
     1
 90
       50
176
     1
 90
       50
176
     1
290
     0
176
     1
 90
       50
176
     1
 62
   256
176
     0
 40
1.0
176
     0
 90
        2
176
     1
  1
strokes_ogs.tif
176
     1
290
     0
176
     1
 40
1.0
176
     1
 40
1.0
176
     1
  0
VISUALSTYLE
  5
10014
102
{ACAD_REACTORS
330
10004
102
}
330
10004
100
AcDbVisualStyle
  2
ColorChange
 70
    16
177
     3
291
     1
 70
    58
 90
        2
176
     1
 90
        2
176
     1
 90
        3
176
     1
 90
        0
176
     1
 40
0.6
176
     1
 40
30.0
176
     1
 62
     8
420
  8421504
176
     1
 90
        1
176
     1
 90
        4
176
     1
 62
     7
176
     1
 62
   257
176
     1
 90
        1
176
     1
 90
        1
176
     1
 40
1.0
176
     1
 90
        8
176
     1
 62
     8
420
  8421504
176
     1
 40
1.0
176
     1
 90
        1
176
     1
 90
        6
176
     1
 90
        2
176
     1
 62
     7
176
     1
 90
        5
176
     1
 90
        0
176
     1
 90
        0
176
     1
290
     0
176
     1
 90
        1
176
     1
 40
0.0
176
     1
 90
        0
176
     1
290
     0
176
     1
290
     1
176
     1
290
     1
176
     1
290
     0
176
     1
290
     0
176
     1
290
     0
176
     1
290
     0
176
     1
290
     0
176
     1
290
     0
176
     1
 90
       50
176
     1
 40
0.0
176
     1
 40
1.0
176
     1
 90
        0
176
     1
 62
    18
420
        0
176
     1
 90
       50
176
     1
 90
        3
176
     1
 62
     5
420
      255
176
     1
290
     0
176
     1
 90
       50
176
     1
 90
       50
176
     1
 90
       50
176
     1
290
     0
176
     1
 90
       50
176
     1
 62
   256
176
     0
 40
1.0
176
     0
 90
        2
176
     1
  1
strokes_ogs.tif
176
     1
290
     0
176
     1
 40
1.0
176
     1
 40
1.0
176
     1
  0
VISUALSTYLE
  5
1000D
102
{ACAD_REACTORS
330
10004
102
}
330
10004
100
AcDbVisualStyle
  2
Conceptual
 70
     9
177
     3
291
     0
 70
    58
 90
        3
176
     1
 90
        2
176
     1
 90
        0
176
     1
 90
        0
176
     1
 40
0.6
176
     1
 40
30.0
176
     1
 62
     7
420
 16777215
176
     1
 90
        2
176
     1
 90
        2
176
     1
 62
     7
176
     1
 62
   257
176
     1
 90
        1
176
     1
 90
        1
176
     1
 40
40.0
176
     1
 90
        8
176
     1
 62
     7
176
     1
 40
1.0
176
     1
 90
        1
176
     1
 90
        6
176
     1
 90
        2
176
     1
 62
     7
176
     1
 90
        3
176
     1
 90
        0
176
     1
 90
        0
176
     1
290
     0
176
     1
 90
        1
176
     1
 40
0.0
176
     1
 90
        0
176
     1
290
     0
176
     1
290
     1
176
     1
290
     1
176
     1
290
     0
176
     1
290
     0
176
     1
290
     0
176
     1
290
     0
176
     1
290
     0
176
     1
290
     0
176
     1
 90
       50
176
     1
 40
0.0
176
     1
 40
1.0
176
     1
 90
        0
176
     1
 62
    18
420
        0
176
     1
 90
       50
176
     1
 90
        3
176
     1
 62
     5
420
      255
176
     1
290
     0
176
     1
 90
       50
176
     1
 90
       50
176
     1
 90
       50
176
     1
290
     0
176
     1
 90
       50
176
     1
 62
   256
176
     0
 40
1.0
176
     0
 90
        2
176
     1
  1
strokes_ogs.tif
176
     1
290
     0
176
     1
 40
1.0
176
     1
 40
1.0
176
     1
  0
VISUALSTYLE
  5
1000F
102
{ACAD_REACTORS
330
10004
102
}
330
10004
100
AcDbVisualStyle
  2
Dim
 70
    11
177
     3
291
     1
 70
    58
 90
        2
176
     1
 90
        2
176
     1
 90
        0
176
     1
 90
        0
176
     1
 40
0.6
176
     1
 40
30.0
176
     1
 62
     7
420
 16777215
176
     1
 90
        1
176
     1
 90
        4
176
     1
 62
     7
176
     1
 62
   257
176
     1
 90
        1
176
     1
 90
        1
176
     1
 40
1.0
176
     1
 90
        8
176
     1
 62
     7
176
     1
 40
1.0
176
     1
 90
        1
176
     1
 90
        6
176
     1
 90
        2
176
     1
 62
     7
176
     1
 90
        5
176
     1
 90
        0
176
     1
 90
        0
176
     1
290
     0
176
     1
 90
        1
176
     1
 40
-50.0
176
     1
 90
        0
176
     1
290
     0
176
     1
290
     1
176
     1
290
     1
176
     1
290
     0
176
     1
290
     0
176
     1
290
     0
176
     1
290
     0
176
     1
290
     0
176
     1
290
     0
176
     1
 90
       50
176
     1
 40
0.0
176
     1
 40
1.0
176
     1
 90
        0
176
     1
 62
    18
420
        0
176
     1
 90
       50
176
     1
 90
        3
176
     1
 62
     5
420
      255
176
     1
290
     0
176
     1
 90
       50
176
     1
 90
       50
176
     1
 90
       50
176
     1
290
     0
176
     1
 90
       50
176
     1
 62
   256
176
     0
 40
1.0
176
     0
 90
        2
176
     1
  1
strokes_ogs.tif
176
     1
290
     0
176
     1
 40
1.0
176
     1
 40
1.0
176
     1
  0
VISUALSTYLE
  5
1007A
102
{ACAD_REACTORS
330
10004
102
}
330
10004
100
AcDbVisualStyle
  2
EdgeColorOff
 70
    22
177
     3
291
     1
 70
    58
 90
        2
176
     0
 90
        2
176
     0
 90
        0
176
     0
 90
        0
176
     0
 40
0.6
176
     0
 40
30.0
176
     0
 62
     7
420
 16777215
176
     0
 90
        1
176
     0
 90
        4
176
     0
 62
     7
176
     0
 62
   257
176
     0
 90
        1
176
     0
 90
        1
176
     0
 40
1.0
176
     0
 90
        8
176
     2
 62
     7
176
     0
 40
1.0
176
     0
 90
        1
176
     0
 90
        6
176
     0
 90
        2
176
     0
 62
     7
176
     0
 90
        5
176
     0
 90
        0
176
     0
 90
        0
176
     0
290
     0
176
     0
 90
        1
176
     0
 40
0.0
176
     0
 90
        0
176
     0
290
     0
176
     1
290
     1
176
     1
290
     1
176
     1
290
     0
176
     1
290
     0
176
     1
290
     0
176
     1
290
     0
176
     1
290
     0
176
     1
290
     0
176
     1
 90
       50
176
     1
 40
0.0
176
     1
 40
1.0
176
     1
 90
        0
176
     1
 62
    18
420
        0
176
     1
 90
       50
176
     1
 90
        3
176
     1
 62
     5
420
      255
176
     1
290
     0
176
     1
 90
       50
176
     1
 90
       50
176
     1
 90
       50
176
     1
290
     0
176
     1
 90
       50
176
     1
 62
   256
176
     0
 40
1.0
176
     0
 90
        2
176
     1
  1
strokes_ogs.tif
176
     1
290
     0
176
     1
 40
1.0
176
     1
 40
1.0
176
     1
  0
VISUALSTYLE
  5
10013
102
{ACAD_REACTORS
330
10004
102
}
330
10004
100
AcDbVisualStyle
  2
Facepattern
 70
    15
177
     3
291
     1
 70
    58
 90
        2
176
     1
 90
        2
176
     1
 90
        0
176
     1
 90
        0
176
     1
 40
0.6
176
     1
 40
30.0
176
     1
 62
     7
420
 16777215
176
     1
 90
        1
176
     1
 90
        4
176
     1
 62
     7
176
     1
 62
   257
176
     1
 90
        1
176
     1
 90
        1
176
     1
 40
1.0
176
     1
 90
        8
176
     1
 62
     7
176
     1
 40
1.0
176
     1
 90
        1
176
     1
 90
        6
176
     1
 90
        2
176
     1
 62
     7
176
     1
 90
        5
176
     1
 90
        0
176
     1
 90
        0
176
     1
290
     0
176
     1
 90
        1
176
     1
 40
0.0
176
     1
 90
        0
176
     1
290
     0
176
     1
290
     1
176
     1
290
     1
176
     1
290
     0
176
     1
290
     0
176
     1
290
     0
176
     1
290
     0
176
     1
290
     0
176
     1
290
     0
176
     1
 90
       50
176
     1
 40
0.0
176
     1
 40
1.0
176
     1
 90
        0
176
     1
 62
    18
420
        0
176
     1
 90
       50
176
     1
 90
        3
176
     1
 62
     5
420
      255
176
     1
290
     0
176
     1
 90
       50
176
     1
 90
       50
176
     1
 90
       50
176
     1
290
     0
176
     1
 90
       50
176
     1
 62
   256
176
     0
 40
1.0
176
     0
 90
        2
176
     1
  1
strokes_ogs.tif
176
     1
290
     0
176
     1
 40
1.0
176
     1
 40
1.0
176
     1
  0
VISUALSTYLE
  5
10005
102
{ACAD_REACTORS
330
10004
102
}
330
10004
100
AcDbVisualStyle
  2
Flat
 70
     0
177
     3
291
     1
 70
    58
 90
        2
176
     1
 90
        1
176
     1
 90
        1
176
     1
 90
        2
176
     1
 40
0.6
176
     1
 40
30.0
176
     1
 62
     7
420
 16777215
176
     1
 90
        0
176
     1
 90
        4
176
     1
 62
     7
176
     1
 62
   257
176
     1
 90
        1
176
     1
 90
        1
176
     1
 40
1.0
176
     1
 90
        8
176
     1
 62
     7
176
     1
 40
1.0
176
     1
 90
        1
176
     1
 90
        6
176
     1
 90
        2
176
     1
 62
     7
176
     1
 90
        5
176
     1
 90
        0
176
     1
 90
        0
176
     1
290
     0
176
     1
 90
       13
176
     1
 40
0.0
176
     1
 90
        0
176
     1
290
     0
176
     1
290
     1
176
     1
290
     1
176
     1
290
     0
176
     1
290
     0
176
     1
290
     0
176
     1
290
     0
176
     1
290
     0
176
     1
290
     0
176
     1
 90
       50
176
     1
 40
0.0
176
     1
 40
1.0
176
     1
 90
        0
176
     1
 62
    18
420
        0
176
     1
 90
       50
176
     1
 90
        3
176
     1
 62
     5
420
      255
176
     1
290
     0
176
     1
 90
       50
176
     1
 90
       50
176
     1
 90
       50
176
     1
290
     0
176
     1
 90
       50
176
     1
 62
   256
176
     0
 40
1.0
176
     0
 90
        2
176
     1
  1
strokes_ogs.tif
176
     1
290
     0
176
     1
 40
1.0
176
     1
 40
1.0
176
     1
  0
VISUALSTYLE
  5
10006
102
{ACAD_REACTORS
330
10004
102
}
330
10004
100
AcDbVisualStyle
  2
FlatWithEdges
 70
     1
177
     3
291
     1
 70
    58
 90
        2
176
     1
 90
        1
176
     1
 90
        1
176
     1
 90
        2
176
     1
 40
0.6
176
     1
 40
30.0
176
     1
 62
     7
420
 16777215
176
     1
 90
        1
176
     1
 90
        4
176
     1
 62
     7
176
     1
 62
   257
176
     1
 90
        1
176
     1
 90
        1
176
     1
 40
1.0
176
     1
 90
        0
176
     1
 62
   257
176
     1
 40
1.0
176
     1
 90
        1
176
     1
 90
        6
176
     1
 90
        2
176
     1
 62
     7
176
     1
 90
        5
176
     1
 90
        0
176
     1
 90
        0
176
     1
290
     0
176
     1
 90
       13
176
     1
 40
0.0
176
     1
 90
        0
176
     1
290
     0
176
     1
290
     1
176
     1
290
     1
176
     1
290
     0
176
     1
290
     0
176
     1
290
     0
176
     1
290
     0
176
     1
290
     0
176
     1
290
     0
176
     1
 90
       50
176
     1
 40
0.0
176
     1
 40
1.0
176
     1
 90
        0
176
     1
 62
    18
420
        0
176
     1
 90
       50
176
     1
 90
        3
176
     1
 62
     5
420
      255
176
     1
290
     0
176
     1
 90
       50
176
     1
 90
       50
176
     1
 90
       50
176
     1
290
     0
176
     1
 90
       50
176
     1
 62
   256
176
     0
 40
1.0
176
     0
 90
        2
176
     1
  1
strokes_ogs.tif
176
     1
290
     0
176
     1
 40
1.0
176
     1
 40
1.0
176
     1
  0
VISUALSTYLE
  5
10007
102
{ACAD_REACTORS
330
10004
102
}
330
10004
100
AcDbVisualStyle
  2
Gouraud
 70
     2
177
     3
291
     1
 70
    58
 90
        2
176
     1
 90
        2
176
     1
 90
        1
176
     1
 90
        2
176
     1
 40
0.6
176
     1
 40
30.0
176
     1
 62
     7
420
 16777215
176
     1
 90
        0
176
     1
 90
        4
176
     1
 62
     7
176
     1
 62
   257
176
     1
 90
        1
176
     1
 90
        1
176
     1
 40
1.0
176
     1
 90
        0
176
     1
 62
     7
176
     1
 40
1.0
176
     1
 90
        1
176
     1
 90
        6
176
     1
 90
        2
176
     1
 62
     7
176
     1
 90
        5
176
     1
 90
        0
176
     1
 90
        0
176
     1
290
     0
176
     1
 90
       13
176
     1
 40
0.0
176
     1
 90
        0
176
     1
290
     0
176
     1
290
     1
176
     1
290
     1
176
     1
290
     0
176
     1
290
     0
176
     1
290
     0
176
     1
290
     0
176
     1
290
     0
176
     1
290
     0
176
     1
 90
       50
176
     1
 40
0.0
176
     1
 40
1.0
176
     1
 90
        0
176
     1
 62
    18
420
        0
176
     1
 90
       50
176
     1
 90
        3
176
     1
 62
     5
420
      255
176
     1
290
     0
176
     1
 90
       50
176
     1
 90
       50
176
     1
 90
       50
176
     1
290
     0
176
     1
 90
       50
176
     1
 62
   256
176
     0
 40
1.0
176
     0
 90
        2
176
     1
  1
strokes_ogs.tif
176
     1
290
     0
176
     1
 40
1.0
176
     1
 40
1.0
176
     1
  0
VISUALSTYLE
  5
10008
102
{ACAD_REACTORS
330
10004
102
}
330
10004
100
AcDbVisualStyle
  2
GouraudWithEdges
 70
     3
177
     3
291
     1
 70
    58
 90
        2
176
     1
 90
        2
176
     1
 90
        1
176
     1
 90
        2
176
     1
 40
0.6
176
     1
 40
30.0
176
     1
 62
     7
420
 16777215
176
     1
 90
        1
176
     1
 90
        4
176
     1
 62
     7
176
     1
 62
   257
176
     1
 90
        1
176
     1
 90
        1
176
     1
 40
1.0
176
     1
 90
        0
176
     1
 62
   257
176
     1
 40
1.0
176
     1
 90
        1
176
     1
 90
        6
176
     1
 90
        2
176
     1
 62
     7
176
     1
 90
        5
176
     1
 90
        0
176
     1
 90
        0
176
     1
290
     0
176
     1
 90
       13
176
     1
 40
0.0
176
     1
 90
        0
176
     1
290
     0
176
     1
290
     1
176
     1
290
     1
176
     1
290
     0
176
     1
290
     0
176
     1
290
     0
176
     1
290
     0
176
     1
290
     0
176
     1
290
     0
176
     1
 90
       50
176
     1
 40
0.0
176
     1
 40
1.0
176
     1
 90
        0
176
     1
 62
    18
420
        0
176
     1
 90
       50
176
     1
 90
        3
176
     1
 62
     5
420
      255
176
     1
290
     0
176
     1
 90
       50
176
     1
 90
       50
176
     1
 90
       50
176
     1
290
     0
176
     1
 90
       50
176
     1
 62
   256
176
     0
 40
1.0
176
     0
 90
        2
176
     1
  1
strokes_ogs.tif
176
     1
290
     0
176
     1
 40
1.0
176
     1
 40
1.0
176
     1
  0
VISUALSTYLE
  5
1010175
102
{ACAD_REACTORS
330
10004
102
}
330
10004
100
AcDbVisualStyle
  2
Hidden
 70
     6
177
     3
291
     0
 70
    58
 90
        1
176
     1
 90
        2
176
     1
 90
        2
176
     1
 90
        0
176
     1
 40
0.6
176
     1
 40
30.0
176
     1
 62
     7
420
 16777215
176
     1
 90
        2
176
     1
 90
        2
176
     1
 62
     7
176
     1
 62
   257
176
     1
 90
        2
176
     1
 90
        1
176
     1
 40
40.0
176
     1
 90
        0
176
     1
 62
   257
176
     1
 40
1.0
176
     1
 90
        1
176
     1
 90
        6
176
     1
 90
        2
176
     1
 62
     7
176
     1
 90
        3
176
     1
 90
        0
176
     1
 90
        0
176
     1
290
     0
176
     1
 90
        1
176
     1
 40
0.0
176
     1
 90
        0
176
     1
290
     0
176
     1
290
     1
176
     1
290
     1
176
     1
290
     0
176
     1
290
     0
176
     1
290
     0
176
     1
290
     0
176
     1
290
     0
176
     1
290
     0
176
     1
 90
       50
176
     1
 40
0.0
176
     1
 40
1.0
176
     1
 90
        0
176
     1
 62
    18
420
        0
176
     1
 90
       50
176
     1
 90
        3
176
     1
 62
     5
420
      255
176
     1
290
     0
176
     1
 90
       50
176
     1
 90
       50
176
     1
 90
       50
176
     1
290
     0
176
     1
 90
       50
176
     1
 62
   256
176
     0
 40
1.0
176
     0
 90
        2
176
     1
  1
strokes_ogs.tif
176
     1
290
     0
176
     1
 40
1.0
176
     1
 40
1.0
176
     1
  0
VISUALSTYLE
  5
10078
102
{ACAD_REACTORS
330
10004
102
}
330
10004
100
AcDbVisualStyle
  2
JitterOff
 70
    20
177
     3
291
     1
 70
    58
 90
        2
176
     0
 90
        2
176
     0
 90
        0
176
     0
 90
        0
176
     0
 40
0.6
176
     0
 40
30.0
176
     0
 62
     7
420
 16777215
176
     0
 90
        1
176
     0
 90
        4
176
     0
 62
     7
176
     0
 62
   257
176
     0
 90
        1
176
     0
 90
        1
176
     0
 40
1.0
176
     0
 90
       10
176
     2
 62
     7
176
     0
 40
1.0
176
     0
 90
        1
176
     0
 90
        6
176
     0
 90
        2
176
     0
 62
     7
176
     0
 90
        5
176
     0
 90
        0
176
     0
 90
        0
176
     0
290
     0
176
     0
 90
        1
176
     0
 40
0.0
176
     0
 90
        0
176
     0
290
     0
176
     1
290
     1
176
     1
290
     1
176
     1
290
     0
176
     1
290
     0
176
     1
290
     0
176
     1
290
     0
176
     1
290
     0
176
     1
290
     0
176
     1
 90
       50
176
     1
 40
0.0
176
     1
 40
1.0
176
     1
 90
        0
176
     1
 62
    18
420
        0
176
     1
 90
       50
176
     1
 90
        3
176
     1
 62
     5
420
      255
176
     1
290
     0
176
     1
 90
       50
176
     1
 90
       50
176
     1
 90
       50
176
     1
290
     0
176
     1
 90
       50
176
     1
 62
   256
176
     0
 40
1.0
176
     0
 90
        2
176
     1
  1
strokes_ogs.tif
176
     1
290
     0
176
     1
 40
1.0
176
     1
 40
1.0
176
     1
  0
VISUALSTYLE
  5
10012
102
{ACAD_REACTORS
330
10004
102
}
330
10004
100
AcDbVisualStyle
  2
Linepattern
 70
    14
177
     3
291
     1
 70
    58
 90
        2
176
     1
 90
        2
176
     1
 90
        0
176
     1
 90
        0
176
     1
 40
0.6
176
     1
 40
30.0
176
     1
 62
     7
420
 16777215
176
     1
 90
        1
176
     1
 90
        4
176
     1
 62
     7
176
     1
 62
   257
176
     1
 90
        7
176
     1
 90
        7
176
     1
 40
1.0
176
     1
 90
        8
176
     1
 62
     7
176
     1
 40
1.0
176
     1
 90
        1
176
     1
 90
        6
176
     1
 90
        2
176
     1
 62
     7
176
     1
 90
        5
176
     1
 90
        0
176
     1
 90
        0
176
     1
290
     0
176
     1
 90
        1
176
     1
 40
0.0
176
     1
 90
        0
176
     1
290
     0
176
     1
290
     1
176
     1
290
     1
176
     1
290
     0
176
     1
290
     0
176
     1
290
     0
176
     1
290
     0
176
     1
290
     0
176
     1
290
     0
176
     1
 90
       50
176
     1
 40
0.0
176
     1
 40
1.0
176
     1
 90
        0
176
     1
 62
    18
420
        0
176
     1
 90
       50
176
     1
 90
        3
176
     1
 62
     5
420
      255
176
     1
290
     0
176
     1
 90
       50
176
     1
 90
       50
176
     1
 90
       50
176
     1
290
     0
176
     1
 90
       50
176
     1
 62
   256
176
     0
 40
1.0
176
     0
 90
        2
176
     1
  1
strokes_ogs.tif
176
     1
290
     0
176
     1
 40
1.0
176
     1
 40
1.0
176
     1
  0
VISUALSTYLE
  5
10079
102
{ACAD_REACTORS
330
10004
102
}
330
10004
100
AcDbVisualStyle
  2
OverhangOff
 70
    21
177
     3
291
     1
 70
    58
 90
        2
176
     0
 90
        2
176
     0
 90
        0
176
     0
 90
        0
176
     0
 40
0.6
176
     0
 40
30.0
176
     0
 62
     7
420
 16777215
176
     0
 90
        1
176
     0
 90
        4
176
     0
 62
     7
176
     0
 62
   257
176
     0
 90
        1
176
     0
 90
        1
176
     0
 40
1.0
176
     0
 90
        9
176
     2
 62
     7
176
     0
 40
1.0
176
     0
 90
        1
176
     0
 90
        6
176
     0
 90
        2
176
     0
 62
     7
176
     0
 90
        5
176
     0
 90
        0
176
     0
 90
        0
176
     0
290
     0
176
     0
 90
        1
176
     0
 40
0.0
176
     0
 90
        0
176
     0
290
     0
176
     1
290
     1
176
     1
290
     1
176
     1
290
     0
176
     1
290
     0
176
     1
290
     0
176
     1
290
     0
176
     1
290
     0
176
     1
290
     0
176
     1
 90
       50
176
     1
 40
0.0
176
     1
 40
1.0
176
     1
 90
        0
176
     1
 62
    18
420
        0
176
     1
 90
       50
176
     1
 90
        3
176
     1
 62
     5
420
      255
176
     1
290
     0
176
     1
 90
       50
176
     1
 90
       50
176
     1
 90
       50
176
     1
290
     0
176
     1
 90
       50
176
     1
 62
   256
176
     0
 40
1.0
176
     0
 90
        2
176
     1
  1
strokes_ogs.tif
176
     1
290
     0
176
     1
 40
1.0
176
     1
 40
1.0
176
     1
  0
VISUALSTYLE
  5
1000E
102
{ACAD_REACTORS
330
10004
102
}
330
10004
100
AcDbVisualStyle
  2
Realistic
 70
     8
177
     3
291
     0
 70
    58
 90
        2
176
     1
 90
        2
176
     1
 90
        0
176
     1
 90
        0
176
     1
 40
0.6
176
     1
 40
30.0
176
     1
 62
     7
420
 16777215
176
     1
 90
        1
176
     1
 90
        0
176
     1
 62
     7
176
     1
 62
   257
176
     1
 90
        1
176
     1
 90
        1
176
     1
 40
1.0
176
     1
 90
        8
176
     1
 62
     8
420
  7895160
176
     1
 40
1.0
176
     1
 90
        1
176
     1
 90
        6
176
     1
 90
        2
176
     1
 62
     7
176
     1
 90
        5
176
     1
 90
        0
176
     1
 90
        0
176
     1
290
     0
176
     1
 90
       13
176
     1
 40
0.0
176
     1
 90
        0
176
     1
290
     0
176
     1
290
     1
176
     1
290
     1
176
     1
290
     0
176
     1
290
     0
176
     1
290
     0
176
     1
290
     0
176
     1
290
     0
176
     1
290
     0
176
     1
 90
       50
176
     1
 40
0.0
176
     1
 40
1.0
176
     1
 90
        0
176
     1
 62
    18
420
        0
176
     1
 90
       50
176
     1
 90
        3
176
     1
 62
     5
420
      255
176
     1
290
     0
176
     1
 90
       50
176
     1
 90
       50
176
     1
 90
       50
176
     1
290
     0
176
     1
 90
       50
176
     1
 62
   256
176
     0
 40
1.0
176
     0
 90
        2
176
     1
  1
strokes_ogs.tif
176
     1
290
     0
176
     1
 40
1.0
176
     1
 40
1.0
176
     1
  0
VISUALSTYLE
  5
101017A
102
{ACAD_REACTORS
330
10004
102
}
330
10004
100
AcDbVisualStyle
  2
Shaded
 70
    27
177
     3
291
     0
 70
    58
 90
        2
176
     1
 90
        2
176
     1
 90
        1
176
     1
 90
        2
176
     1
 40
0.6
176
     1
 40
30.0
176
     1
 62
     7
420
 16777215
176
     1
 90
        0
176
     1
 90
        4
176
     1
 62
     7
176
     1
 62
   257
176
     1
 90
        1
176
     1
 90
        1
176
     1
 40
1.0
176
     1
 90
        8
176
     1
 62
   257
176
     1
 40
1.0
176
     1
 90
        1
176
     1
 90
        6
176
     1
 90
        2
176
     1
 62
     8
420
  7895160
176
     1
 90
        3
176
     1
 90
        0
176
     1
 90
        0
176
     1
290
     0
176
     1
 90
        5
176
     1
 40
0.0
176
     1
 90
        0
176
     1
290
     0
176
     1
290
     1
176
     1
290
     1
176
     1
290
     0
176
     1
290
     0
176
     1
290
     0
176
     1
290
     0
176
     1
290
     0
176
     1
290
     0
176
     1
 90
       50
176
     1
 40
0.0
176
     1
 40
1.0
176
     1
 90
        0
176
     1
 62
    18
420
        0
176
     1
 90
       50
176
     1
 90
        3
176
     1
 62
     5
420
      255
176
     1
290
     0
176
     1
 90
       50
176
     1
 90
       50
176
     1
 90
       50
176
     1
290
     0
176
     1
 90
       50
176
     1
 62
   256
176
     0
 40
1.0
176
     0
 90
        2
176
     1
  1
strokes_ogs.tif
176
     1
290
     0
176
     1
 40
1.0
176
     1
 40
1.0
176
     1
  0
VISUALSTYLE
  5
1010179
102
{ACAD_REACTORS
330
10004
102
}
330
10004
100
AcDbVisualStyle
  2
Shaded with edges
 70
    26
177
     3
291
     0
 70
    58
 90
        2
176
     1
 90
        2
176
     1
 90
        1
176
     1
 90
        2
176
     1
 40
0.6
176
     1
 40
30.0
176
     1
 62
     7
420
 16777215
176
     1
 90
        1
176
     1
 90
        2
176
     1
 62
     7
176
     1
 62
   257
176
     1
 90
        2
176
     1
 90
        1
176
     1
 40
1.0
176
     1
 90
        8
176
     1
 62
   257
176
     1
 40
1.0
176
     1
 90
        1
176
     1
 90
        6
176
     1
 90
        2
176
     1
 62
     7
176
     1
 90
        3
176
     1
 90
        0
176
     1
 90
        0
176
     1
290
     0
176
     1
 90
        5
176
     1
 40
0.0
176
     1
 90
        0
176
     1
290
     0
176
     1
290
     1
176
     1
290
     1
176
     1
290
     0
176
     1
290
     0
176
     1
290
     0
176
     1
290
     0
176
     1
290
     0
176
     1
290
     0
176
     1
 90
       50
176
     1
 40
0.0
176
     1
 40
1.0
176
     1
 90
        0
176
     1
 62
    18
420
        0
176
     1
 90
       50
176
     1
 90
        3
176
     1
 62
     5
420
      255
176
     1
290
     0
176
     1
 90
       50
176
     1
 90
       50
176
     1
 90
       50
176
     1
290
     0
176
     1
 90
       50
176
     1
 62
   256
176
     0
 40
1.0
176
     0
 90
        2
176
     1
  1
strokes_ogs.tif
176
     1
290
     0
176
     1
 40
1.0
176
     1
 40
1.0
176
     1
  0
VISUALSTYLE
  5
1010176
102
{ACAD_REACTORS
330
10004
102
}
330
10004
100
AcDbVisualStyle
  2
Shades of Gray
 70
    23
177
     3
291
     0
 70
    58
 90
        2
176
     1
 90
        2
176
     1
 90
        3
176
     1
 90
        0
176
     1
 40
0.6
176
     1
 40
30.0
176
     1
 62
     7
420
 16777215
176
     1
 90
        2
176
     1
 90
        2
176
     1
 62
     7
176
     1
 62
     7
176
     1
 90
        1
176
     1
 90
        1
176
     1
 40
40.0
176
     1
 90
        8
176
     1
 62
     7
176
     1
 40
1.0
176
     1
 90
        1
176
     1
 90
        6
176
     1
 90
        2
176
     1
 62
     7
176
     1
 90
        3
176
     1
 90
        0
176
     1
 90
        0
176
     1
290
     0
176
     1
 90
        1
176
     1
 40
0.0
176
     1
 90
        0
176
     1
290
     0
176
     1
290
     1
176
     1
290
     1
176
     1
290
     0
176
     1
290
     0
176
     1
290
     0
176
     1
290
     0
176
     1
290
     0
176
     1
290
     0
176
     1
 90
       50
176
     1
 40
0.0
176
     1
 40
1.0
176
     1
 90
        0
176
     1
 62
    18
420
        0
176
     1
 90
       50
176
     1
 90
        3
176
     1
 62
     5
420
      255
176
     1
290
     0
176
     1
 90
       50
176
     1
 90
       50
176
     1
 90
       50
176
     1
290
     0
176
     1
 90
       50
176
     1
 62
   256
176
     0
 40
1.0
176
     0
 90
        2
176
     1
  1
strokes_ogs.tif
176
     1
290
     0
176
     1
 40
1.0
176
     1
 40
1.0
176
     1
  0
VISUALSTYLE
  5
1010177
102
{ACAD_REACTORS
330
10004
102
}
330
10004
100
AcDbVisualStyle
  2
Sketchy
 70
    24
177
     3
291
     0
 70
    58
 90
        1
176
     1
 90
        2
176
     1
 90
        2
176
     1
 90
        0
176
     1
 40
0.6
176
     1
 40
30.0
176
     1
 62
     7
420
 16777215
176
     1
 90
        2
176
     1
 90
        2
176
     1
 62
     7
176
     1
 62
     7
176
     1
 90
        1
176
     1
 90
        1
176
     1
 40
40.0
176
     1
 90
       11
176
     1
 62
     7
176
     1
 40
1.0
176
     1
 90
        1
176
     1
 90
        6
176
     1
 90
        2
176
     1
 62
     7
176
     1
 90
        6
176
     1
 90
        0
176
     1
 90
        0
176
     1
290
     0
176
     1
 90
        1
176
     1
 40
0.0
176
     1
 90
        0
176
     1
290
     0
176
     1
290
     1
176
     1
290
     1
176
     1
290
     0
176
     1
290
     0
176
     1
290
     0
176
     1
290
     0
176
     1
290
     0
176
     1
290
     0
176
     1
 90
       50
176
     1
 40
0.0
176
     1
 40
1.0
176
     1
 90
        0
176
     1
 62
    18
420
        0
176
     1
 90
       50
176
     1
 90
        3
176
     1
 62
     5
420
      255
176
     1
290
     0
176
     1
 90
       50
176
     1
 90
       50
176
     1
 90
       50
176
     1
290
     0
176
     1
 90
       50
176
     1
 62
   256
176
     0
 40
1.0
176
     0
 90
        2
176
     1
  1
strokes_ogs.tif
176
     1
290
     0
176
     1
 40
1.0
176
     1
 40
1.0
176
     1
  0
VISUALSTYLE
  5
10011
102
{ACAD_REACTORS
330
10004
102
}
330
10004
100
AcDbVisualStyle
  2
Thicken
 70
    13
177
     3
291
     1
 70
    58
 90
        2
176
     1
 90
        2
176
     1
 90
        0
176
     1
 90
        0
176
     1
 40
0.6
176
     1
 40
30.0
176
     1
 62
     7
420
 16777215
176
     1
 90
        1
176
     1
 90
        4
176
     1
 62
     7
176
     1
 62
   257
176
     1
 90
        1
176
     1
 90
        1
176
     1
 40
1.0
176
     1
 90
       12
176
     1
 62
     7
176
     1
 40
1.0
176
     1
 90
        1
176
     1
 90
        6
176
     1
 90
        2
176
     1
 62
     7
176
     1
 90
        5
176
     1
 90
        0
176
     1
 90
        0
176
     1
290
     0
176
     1
 90
        1
176
     1
 40
0.0
176
     1
 90
        0
176
     1
290
     0
176
     1
290
     1
176
     1
290
     1
176
     1
290
     0
176
     1
290
     0
176
     1
290
     0
176
     1
290
     0
176
     1
290
     0
176
     1
290
     0
176
     1
 90
       50
176
     1
 40
0.0
176
     1
 40
1.0
176
     1
 90
        0
176
     1
 62
    18
420
        0
176
     1
 90
       50
176
     1
 90
        3
176
     1
 62
     5
420
      255
176
     1
290
     0
176
     1
 90
       50
176
     1
 90
       50
176
     1
 90
       50
176
     1
290
     0
176
     1
 90
       50
176
     1
 62
   256
176
     0
 40
1.0
176
     0
 90
        2
176
     1
  1
strokes_ogs.tif
176
     1
290
     0
176
     1
 40
1.0
176
     1
 40
1.0
176
     1
  0
VISUALSTYLE
  5
1010174
102
{ACAD_REACTORS
330
10004
102
}
330
10004
100
AcDbVisualStyle
  2
Wireframe
 70
     5
177
     3
291
     0
 70
    58
 90
        0
176
     1
 90
        2
176
     1
 90
        0
176
     1
 90
        0
176
     1
 40
0.6
176
     1
 40
30.0
176
     1
 62
     7
420
 16777215
176
     1
 90
        1
176
     1
 90
        4
176
     1
 62
     7
176
     1
 62
   257
176
     1
 90
        1
176
     1
 90
        1
176
     1
 40
1.0
176
     1
 90
        0
176
     1
 62
   257
176
     1
 40
1.0
176
     1
 90
        1
176
     1
 90
        6
176
     1
 90
        2
176
     1
 62
     7
176
     1
 90
        3
176
     1
 90
        0
176
     1
 90
        0
176
     1
290
     0
176
     1
 90
        1
176
     1
 40
0.0
176
     1
 90
        0
176
     1
290
     0
176
     1
290
     1
176
     1
290
     1
176
     1
290
     0
176
     1
290
     0
176
     1
290
     0
176
     1
290
     0
176
     1
290
     0
176
     1
290
     0
176
     1
 90
       50
176
     1
 40
0.0
176
     1
 40
1.0
176
     1
 90
        0
176
     1
 62
    18
420
        0
176
     1
 90
       50
176
     1
 90
        3
176
     1
 62
     5
420
      255
176
     1
290
     0
176
     1
 90
       50
176
     1
 90
       50
176
     1
 90
       50
176
     1
290
     0
176
     1
 90
       50
176
     1
 62
   256
176
     0
 40
1.0
176
     0
 90
        2
176
     1
  1
strokes_ogs.tif
176
     1
290
     0
176
     1
 40
1.0
176
     1
 40
1.0
176
     1
  0
VISUALSTYLE
  5
1010178
102
{ACAD_REACTORS
330
10004
102
}
330
10004
100
AcDbVisualStyle
  2
X-Ray
 70
    25
177
     3
291
     0
 70
    58
 90
        2
176
     1
 90
        2
176
     1
 90
        1
176
     1
 90
        1
176
     1
 40
0.5
176
     1
 40
30.0
176
     1
 62
     7
420
 16777215
176
     1
 90
        1
176
     1
 90
        0
176
     1
 62
     7
176
     1
 62
   257
176
     1
 90
        1
176
     1
 90
        1
176
     1
 40
1.0
176
     1
 90
        8
176
     1
 62
     7
176
     1
 40
1.0
176
     1
 90
        1
176
     1
 90
        6
176
     1
 90
        2
176
     1
 62
     7
176
     1
 90
        3
176
     1
 90
        0
176
     1
 90
        0
176
     1
290
     0
176
     1
 90
       13
176
     1
 40
0.0
176
     1
 90
        0
176
     1
290
     0
176
     1
290
     1
176
     1
290
     1
176
     1
290
     0
176
     1
290
     0
176
     1
290
     0
176
     1
290
     0
176
     1
290
     0
176
     1
290
     0
176
     1
 90
       50
176
     1
 40
0.0
176
     1
 40
1.0
176
     1
 90
        0
176
     1
 62
    18
420
        0
176
     1
 90
       50
176
     1
 90
        3
176
     1
 62
     5
420
      255
176
     1
290
     0
176
     1
 90
       50
176
     1
 90
       50
176
     1
 90
       50
176
     1
290
     0
176
     1
 90
       50
176
     1
 62
   256
176
     0
 40
1.0
176
     0
 90
        2
176
     1
  1
strokes_ogs.tif
176
     1
290
     0
176
     1
 40
1.0
176
     1
 40
1.0
176
     1
  0
DICTIONARYVAR
  5
10075
102
{ACAD_REACTORS
330
2C7C
102
}
330
2C7C
100
DictionaryVariables
280
     0
  1
1:1
  0
DICTIONARYVAR
  5
10073
102
{ACAD_REACTORS
330
2C7C
102
}
330
2C7C
100
DictionaryVariables
280
     0
  1
STANDARD
  0
DICTIONARYVAR
  5
CCD1
102
{ACAD_REACTORS
330
2C7C
102
}
330
2C7C
100
DictionaryVariables
280
     0
  1
STANDARD
  0
DICTIONARYVAR
  5
101019A
102
{ACAD_REACTORS
330
2C7C
102
}
330
2C7C
100
DictionaryVariables
280
     0
  1
Imperial24
  0
DICTIONARYVAR
  5
101019B
102
{ACAD_REACTORS
330
2C7C
102
}
330
2C7C
100
DictionaryVariables
280
     0
  1
Imperial24
  0
DICTIONARYVAR
  5
CCC6
102
{ACAD_REACTORS
330
2C7C
102
}
330
2C7C
100
DictionaryVariables
280
     0
  1
1
  0
DICTIONARYVAR
  5
101019C
102
{ACAD_REACTORS
330
2C7C
102
}
330
2C7C
100
DictionaryVariables
280
     0
  1
1
  0
DICTIONARYVAR
  5
101019D
102
{ACAD_REACTORS
330
2C7C
102
}
330
2C7C
100
DictionaryVariables
280
     0
  1
15
  0
DICTIONARYVAR
  5
10076
102
{ACAD_REACTORS
330
2C7C
102
}
330
2C7C
100
DictionaryVariables
280
     0
  1
0
  0
DICTIONARYVAR
  5
10074
102
{ACAD_REACTORS
330
2C7C
102
}
330
2C7C
100
DictionaryVariables
280
     0
  1
0
  0
DICTIONARYVAR
  5
2C7D
102
{ACAD_REACTORS
330
2C7C
102
}
330
2C7C
100
DictionaryVariables
280
     0
  1
96
  0
DICTIONARY
  5
10101A1
330
101017E
100
AcDbDictionary
280
     1
281
     1
  3
ACAD_XREC_ROUNDTRIP
360
10101A2
  0
DICTIONARY
  5
CD03
330
5C22
100
AcDbDictionary
280
     1
281
     1
  0
DICTIONARY
  5
FFF5
330
FFF4
100
AcDbDictionary
280
     1
281
     1
  3
BUMPTILE
360
FFF7
  3
DIFFUSETILE
360
FFF6
  3
OPACITYTILE
360
FFFA
  3
REFLECTIONTILE
360
FFF9
  3
REFRACTIONTILE
360
FFFB
  3
SPECULARTILE
360
FFF8
  0
DICTIONARY
  5
FFED
330
FFEC
100
AcDbDictionary
280
     1
281
     1
  3
BUMPTILE
360
FFEF
  3
DIFFUSETILE
360
FFEE
  3
OPACITYTILE
360
FFF2
  3
REFLECTIONTILE
360
FFF1
  3
REFRACTIONTILE
360
FFF3
  3
SPECULARTILE
360
FFF0
  0
DICTIONARY
  5
FFFD
330
FFFC
100
AcDbDictionary
280
     1
281
     1
  3
BUMPTILE
360
FFFF
  3
DIFFUSETILE
360
FFFE
  3
OPACITYTILE
360
10002
  3
REFLECTIONTILE
360
10001
  3
REFRACTIONTILE
360
10003
  3
SPECULARTILE
360
10000
  0
DICTIONARY
  5
101019F
330
101017C
100
AcDbDictionary
280
     1
281
     1
  3
ACAD_XREC_ROUNDTRIP
360
10101A0
  0
DICTIONARY
  5
10070
330
CCCC
100
AcDbDictionary
280
     1
281
     1
  3
ACAD_ROUNDTRIP_2008_TABLESTYLE_CELLSTYLEMAP
360
101019E
  0
XRECORD
  5
10101A2
102
{ACAD_REACTORS
330
10101A1
102
}
330
10101A1
100
AcDbXrecord
280
     1
102
DISPLAYNAME
  1
Imperial24
102
FLAGS
 90
        0
  0
XRECORD
  5
FFF7
102
{ACAD_REACTORS
330
FFF5
102
}
330
FFF5
100
AcDbXrecord
280
     1
270
     1
271
     1
  0
XRECORD
  5
FFF6
102
{ACAD_REACTORS
330
FFF5
102
}
330
FFF5
100
AcDbXrecord
280
     1
270
     1
271
     1
  0
XRECORD
  5
FFFA
102
{ACAD_REACTORS
330
FFF5
102
}
330
FFF5
100
AcDbXrecord
280
     1
270
     1
271
     1
  0
XRECORD
  5
FFF9
102
{ACAD_REACTORS
330
FFF5
102
}
330
FFF5
100
AcDbXrecord
280
     1
270
     1
271
     1
  0
XRECORD
  5
FFFB
102
{ACAD_REACTORS
330
FFF5
102
}
330
FFF5
100
AcDbXrecord
280
     1
270
     1
271
     1
  0
XRECORD
  5
FFF8
102
{ACAD_REACTORS
330
FFF5
102
}
330
FFF5
100
AcDbXrecord
280
     1
270
     1
271
     1
  0
XRECORD
  5
FFEF
102
{ACAD_REACTORS
330
FFED
102
}
330
FFED
100
AcDbXrecord
280
     1
270
     1
271
     1
  0
XRECORD
  5
FFEE
102
{ACAD_REACTORS
330
FFED
102
}
330
FFED
100
AcDbXrecord
280
     1
270
     1
271
     1
  0
XRECORD
  5
FFF2
102
{ACAD_REACTORS
330
FFED
102
}
330
FFED
100
AcDbXrecord
280
     1
270
     1
271
     1
  0
XRECORD
  5
FFF1
102
{ACAD_REACTORS
330
FFED
102
}
330
FFED
100
AcDbXrecord
280
     1
270
     1
271
     1
  0
XRECORD
  5
FFF3
102
{ACAD_REACTORS
330
FFED
102
}
330
FFED
100
AcDbXrecord
280
     1
270
     1
271
     1
  0
XRECORD
  5
FFF0
102
{ACAD_REACTORS
330
FFED
102
}
330
FFED
100
AcDbXrecord
280
     1
270
     1
271
     1
  0
XRECORD
  5
FFFF
102
{ACAD_REACTORS
330
FFFD
102
}
330
FFFD
100
AcDbXrecord
280
     1
270
     1
271
     1
  0
XRECORD
  5
FFFE
102
{ACAD_REACTORS
330
FFFD
102
}
330
FFFD
100
AcDbXrecord
280
     1
270
     1
271
     1
  0
XRECORD
  5
10002
102
{ACAD_REACTORS
330
FFFD
102
}
330
FFFD
100
AcDbXrecord
280
     1
270
     1
271
     1
  0
XRECORD
  5
10001
102
{ACAD_REACTORS
330
FFFD
102
}
330
FFFD
100
AcDbXrecord
280
     1
270
     1
271
     1
  0
XRECORD
  5
10003
102
{ACAD_REACTORS
330
FFFD
102
}
330
FFFD
100
AcDbXrecord
280
     1
270
     1
271
     1
  0
XRECORD
  5
10000
102
{ACAD_REACTORS
330
FFFD
102
}
330
FFFD
100
AcDbXrecord
280
     1
270
     1
271
     1
  0
XRECORD
  5
10101A0
102
{ACAD_REACTORS
330
101019F
102
}
330
101019F
100
AcDbXrecord
280
     1
102
DISPLAYNAME
  1
Imperial24
102
FLAGS
 90
        0
  0
CELLSTYLEMAP
  5
101019E
102
{ACAD_REACTORS
330
10070
102
}
330
10070
100
AcDbCellStyleMap
 90
        3
300
CELLSTYLE
  1
TABLEFORMAT_BEGIN
 90
        5
170
     1
 91
        0
 92
    32768
 62
   257
 93
        1
300
CONTENTFORMAT
  1
CONTENTFORMAT_BEGIN
 90
        0
 91
        0
 92
        4
 93
        0
300

 40
0.0
140
1.0
 94
        5
 62
     0
340
F
144
0.25
309
CONTENTFORMAT_END
171
     0
 94
        6
 95
        1
302
GRIDFORMAT
  1
GRIDFORMAT_BEGIN
 90
        0
 91
        1
 62
     0
 92
       -2
340
0
 93
        0
 40
0.045
309
GRIDFORMAT_END
 95
        2
302
GRIDFORMAT
  1
GRIDFORMAT_BEGIN
 90
        0
 91
        1
 62
     0
 92
       -2
340
0
 93
        0
 40
0.045
309
GRIDFORMAT_END
 95
        4
302
GRIDFORMAT
  1
GRIDFORMAT_BEGIN
 90
        0
 91
        1
 62
     0
 92
       -2
340
0
 93
        0
 40
0.045
309
GRIDFORMAT_END
 95
        8
302
GRIDFORMAT
  1
GRIDFORMAT_BEGIN
 90
        0
 91
        1
 62
     0
 92
       -2
340
0
 93
        0
 40
0.045
309
GRIDFORMAT_END
 95
       16
302
GRIDFORMAT
  1
GRIDFORMAT_BEGIN
 90
        0
 91
        1
 62
     0
 92
       -2
340
0
 93
        0
 40
0.045
309
GRIDFORMAT_END
 95
       32
302
GRIDFORMAT
  1
GRIDFORMAT_BEGIN
 90
        0
 91
        1
 62
     0
 92
       -2
340
0
 93
        0
 40
0.045
309
GRIDFORMAT_END
309
TABLEFORMAT_END
  1
CELLSTYLE_BEGIN
 90
        1
 91
        1
300
_TITLE
309
CELLSTYLE_END
300
CELLSTYLE
  1
TABLEFORMAT_BEGIN
 90
        5
170
     1
 91
        0
 92
        0
 62
   257
 93
        1
300
CONTENTFORMAT
  1
CONTENTFORMAT_BEGIN
 90
        0
 91
        0
 92
        4
 93
        0
300

 40
0.0
140
1.0
 94
        5
 62
     0
340
F
144
0.18
309
CONTENTFORMAT_END
171
     0
 94
        6
 95
        1
302
GRIDFORMAT
  1
GRIDFORMAT_BEGIN
 90
        0
 91
        1
 62
     0
 92
       -2
340
0
 93
        0
 40
0.045
309
GRIDFORMAT_END
 95
        2
302
GRIDFORMAT
  1
GRIDFORMAT_BEGIN
 90
        0
 91
        1
 62
     0
 92
       -2
340
0
 93
        0
 40
0.045
309
GRIDFORMAT_END
 95
        4
302
GRIDFORMAT
  1
GRIDFORMAT_BEGIN
 90
        0
 91
        1
 62
     0
 92
       -2
340
0
 93
        0
 40
0.045
309
GRIDFORMAT_END
 95
        8
302
GRIDFORMAT
  1
GRIDFORMAT_BEGIN
 90
        0
 91
        1
 62
     0
 92
       -2
340
0
 93
        0
 40
0.045
309
GRIDFORMAT_END
 95
       16
302
GRIDFORMAT
  1
GRIDFORMAT_BEGIN
 90
        0
 91
        1
 62
     0
 92
       -2
340
0
 93
        0
 40
0.045
309
GRIDFORMAT_END
 95
       32
302
GRIDFORMAT
  1
GRIDFORMAT_BEGIN
 90
        0
 91
        1
 62
     0
 92
       -2
340
0
 93
        0
 40
0.045
309
GRIDFORMAT_END
309
TABLEFORMAT_END
  1
CELLSTYLE_BEGIN
 90
        2
 91
        1
300
_HEADER
309
CELLSTYLE_END
300
CELLSTYLE
  1
TABLEFORMAT_BEGIN
 90
        5
170
     1
 91
        0
 92
        0
 62
   257
 93
        1
300
CONTENTFORMAT
  1
CONTENTFORMAT_BEGIN
 90
        0
 91
        0
 92
        4
 93
        0
300

 40
0.0
140
1.0
 94
        2
 62
     0
340
F
144
0.18
309
CONTENTFORMAT_END
171
     0
 94
        6
 95
        1
302
GRIDFORMAT
  1
GRIDFORMAT_BEGIN
 90
        0
 91
        1
 62
     0
 92
       -2
340
0
 93
        0
 40
0.045
309
GRIDFORMAT_END
 95
        2
302
GRIDFORMAT
  1
GRIDFORMAT_BEGIN
 90
        0
 91
        1
 62
     0
 92
       -2
340
0
 93
        0
 40
0.045
309
GRIDFORMAT_END
 95
        4
302
GRIDFORMAT
  1
GRIDFORMAT_BEGIN
 90
        0
 91
        1
 62
     0
 92
       -2
340
0
 93
        0
 40
0.045
309
GRIDFORMAT_END
 95
        8
302
GRIDFORMAT
  1
GRIDFORMAT_BEGIN
 90
        0
 91
        1
 62
     0
 92
       -2
340
0
 93
        0
 40
0.045
309
GRIDFORMAT_END
 95
       16
302
GRIDFORMAT
  1
GRIDFORMAT_BEGIN
 90
        0
 91
        1
 62
     0
 92
       -2
340
0
 93
        0
 40
0.045
309
GRIDFORMAT_END
 95
       32
302
GRIDFORMAT
  1
GRIDFORMAT_BEGIN
 90
        0
 91
        1
 62
     0
 92
       -2
340
0
 93
        0
 40
0.045
309
GRIDFORMAT_END
309
TABLEFORMAT_END
  1
CELLSTYLE_BEGIN
 90
        3
 91
        2
300
_DATA
309
CELLSTYLE_END
  0
ENDSEC
  0
SECTION
  2
ACDSDATA
 70
     2
 71
     8
  0
ACDSSCHEMA
 90
        0
  1
AcDb_Thumbnail_Schema
  2
AcDbDs::ID
280
    10
 91
        8
  2
Thumbnail_Data
280
    15
 91
        0
101
ACDSRECORD
 95
        0
 90
        1
  2
AcDbDs::TreatedAsObjectData
280
     1
291
     1
101
ACDSRECORD
 95
        0
 90
        2
  2
AcDbDs::Legacy
280
     1
291
     1
101
ACDSRECORD
  1
AcDbDs::ID
 90
        3
  2
AcDs:Indexable
280
     1
291
     1
101
ACDSRECORD
  1
AcDbDs::ID
 90
        4
  2
AcDbDs::HandleAttribute
280
     7
282
     1
  0
ACDSSCHEMA
 90
        1
  1
AcDbDs::TreatedAsObjectDataSchema
  2
AcDbDs::TreatedAsObjectData
280
     1
 91
        0
  0
ACDSSCHEMA
 90
        2
  1
AcDbDs::LegacySchema
  2
AcDbDs::Legacy
280
     1
 91
        0
  0
ACDSSCHEMA
 90
        3
  1
AcDbDs::IndexedPropertySchema
  2
AcDs:Indexable
280
     1
 91
        0
  0
ACDSSCHEMA
 90
        4
  1
AcDbDs::HandleAttributeSchema
  2
AcDbDs::HandleAttribute
280
     7
 91
        1
284
     1
  0
ACDSRECORD
 90
        0
  2
AcDbDs::ID
280
    10
320
5C22
  2
Thumbnail_Data
280
    15
 94
     2200
310
89504E470D0A1A0A0000000D4948445200000100000000B5080300000087DCD12600000300504C5445FFFFFF000000C8C8C80000000000000000000000000000000000000000000000000000330000660000990000CC0000FF0033000033330033660033990033CC0033FF0066000066330066660066990066CC0066FF0099
310
000099330099660099990099CC0099FF00CC0000CC3300CC6600CC9900CCCC00CCFF00FF0000FF3300FF6600FF9900FFCC00FFFF3300003300333300663300993300CC3300FF3333003333333333663333993333CC3333FF3366003366333366663366993366CC3366FF3399003399333399663399993399CC3399FF33CC00
310
33CC3333CC6633CC9933CCCC33CCFF33FF0033FF3333FF6633FF9933FFCC33FFFF6600006600336600666600996600CC6600FF6633006633336633666633996633CC6633FF6666006666336666666666996666CC6666FF6699006699336699666699996699CC6699FF66CC0066CC3366CC6666CC9966CCCC66CCFF66FF0066
310
FF3366FF6666FF9966FFCC66FFFF9900009900339900669900999900CC9900FF9933009933339933669933999933CC9933FF9966009966339966669966999966CC9966FF9999009999339999669999999999CC9999FF99CC0099CC3399CC6699CC9999CCCC99CCFF99FF0099FF3399FF6699FF9999FFCC99FFFFCC0000CC00
310
33CC0066CC0099CC00CCCC00FFCC3300CC3333CC3366CC3399CC33CCCC33FFCC6600CC6633CC6666CC6699CC66CCCC66FFCC9900CC9933CC9966CC9999CC99CCCC99FFCCCC00CCCC33CCCC66CCCC99CCCCCCCCCCFFCCFF00CCFF33CCFF66CCFF99CCFFCCCCFFFFFF0000FF0033FF0066FF0099FF00CCFF00FFFF3300FF3333
310
FF3366FF3399FF33CCFF33FFFF6600FF6633FF6666FF6699FF66CCFF66FFFF9900FF9933FF9966FF9999FF99CCFF99FFFFCC00FFCC33FFCC66FFCC99FFCCCCFFCCFFFFFF00FFFF33FFFF66FFFF99FFFFCCFFFFFF0000000D0D0D1A1A1A2828283535354343435050505D5D5D6B6B6B787878868686939393A1A1A1AEAEAEBB
310
BBBBC9C9C9D6D6D6E4E4E4F1F1F1FFFFFF000000000000000000000000000000000000000000000000000000000000B0E2D235000005534944415478DAEDDD4992AC201000D03C8E1BEEBFCB93B072D9D18768071C901985063289F81DFDBBB04A9EC968A9F0FB433BC12F104F0CC0000CC0004B9A9744EC27F50898CD0820
310
961E00BACE0C81FFCF56CD468FF5ACEFFABEF78900BADD93726EBAF8B3DABFEBB8CF812A6016187C20B900AEC04CFAFBD1AEB95E74FC2105407FF599FB451570564C7785D55FF54ADE74E0B9971155E001E06841DFB5019F0144B601F632D9017CBB1A01D46687C7DD607C37D8E79026BE8E41A80A0C00E03FECD400806004
310
B8F2215D803D1B6900490D40A8341D4922528C80ABFC4B009C02C400F62840A405708BFFB301245705F6F2230D00DBFC702BBF181CC03341463D028E61E1A00072DE0FB1C258DA3B443D0262D7033AAD02A8D209800F0044181A406A21A1DA80B51500D487C1303880D6154E14003CAB84D31A021F02608D12E14B80FDF7BD
310
3D58C780023EEB05B052CAAC0278EF05EEEFF4592F8075823A13C0EC054013FDA017287F38DF00D87A013D0200FE2102647500D71B7ED008F60AE0D96A2400280870D467919E64C6366F00EE4BE1E6F9816C0035AED2D6DA4A00ECCC490DA8FDC46551805404DB4AA5359BB87FCC16788900C5CE0DDE018A56810740F91944
310
3AC0B2932FEA7428E35609C411FF2D02ACFB98DA0BDC01FC99F77717C7678E0270153BB4E9A8006A9BF096C302A8E613460010450144DF00B6C9A0BCC636223853EC1E20310270B42A201301E44800E7A82F12C09ABF6380EDCFD2D2D73900B66C46FE7E01F601B2DC47B311008EFC3A40D67ADAFF00ACE538477D7A062B80
310
2B7FB711A0F65AAA4284011CF92F8076274336007540CFC28A0080965F6873853E23E0287234802BFF1800BA4018E096BF3F806DB06B4B1E004FFE0E01D60209F3887A01CEB730F2770A60A9D35E0077FE9601A464003780D10D06008C6EF009B07C5A170088E7B2A73EB0F10338F3B70C009E080035A4D77EF30238F25F55
310
A03300551079CE6D0200AEFC4F80A62643AACB5F2771B63E7C9BDFC3C1237DE99C3F1BF95792F5E79272BF5D51B01B44FF8AD031BD8D5D11B2E56F7B1C80D497C418A0C279813601546B4417807C043000033000033000033000033040458016CF0D7204D406686B4568DD1B8E00066000066000066080820082019A0700EA
310
55001243200540F401107328B300D455791D00A408DCBF11EE8F9DF3C2AAD61B4148BE7A546FE53CD970BB72B2D50B271132CA9E9CB0DD4B67F10AD242174F2F1F80987AF1747580D62E9FAF0F909692EE20B1D57B14503E657D49AA1200943DF67900F9F7D09085EFA05107E045CA8880C1001C775772DD75693C004795F2
310
B6B7230160E1FCED0394BFF758DB008D260660000660000660000660000648029055A6EA42360AA06E563F955C139ECEA7A1B408B03DB002F20422E9CE67A2B409B0AE581FCF6C494B3B5D4CB6EBBC509300DB0DFBB300F67F6100016D034069006080D601047180BC10D8016CC388FB25E5625800B16E2326111D00E3011C
310
614014606200061808401007800A11507E3AD82A00B41B01E741114401AE7DCA10180B0072014243C1FBEB430284369C860510B1003028C0B1010330C0632D801EC0441E403B3F20F5D301138C0E700A4C1AC064963F1260CE4FEF001C0232D8BA3D63E00E90F16D39C7C3764B478053407A4701F160F1C5783E6C37F2B87F
310
00A025579D9E6CC1FD29406A6DF808E02E003703692FBEB3C9E80DC04C57692D75BAC217FFEB0284538D6F36B800FC0E9F34820CD05E6280AA03A1562320ABE40CC0000C30562FE06AEF5D3D01037037384804A887CCC3F6C0F94344D15CAF831103342360DC3660364AF1F88BB66A3216C01EE12680AA02AE49C313805E32
310
0188FDD401E82606600006200EF0433BC12FF1F4074EE78FBC0BB3F2310000000049454E44AE426082
  0
ENDSEC
  0
EOF
