  0
SECTION
  2
HEADER
  9
$ACADVER
  1
AC1027
  9
$ACADMAINTVER
 70
   125
  9
$DWGCODEPAGE
  3
ANSI_1252
  9
$LASTSAVEDBY
  1
fleminab
  9
$REQUIREDVERSIONS
160
                 0
  9
$INSBASE
 10
8.0
 20
5.0
 30
0.0
  9
$EXTMIN
 10
807.9637528631646
 20
340.3827697704183
 30
0.0
  9
$EXTMAX
 10
6473.843072992849
 20
4518.22554181432
 30
0.0
  9
$LIMMIN
 10
0.0
 20
0.0
  9
$LIMMAX
 10
420.0
 20
297.0
  9
$ORTHOMODE
 70
     1
  9
$REGENMODE
 70
     1
  9
$FILLMODE
 70
     1
  9
$QTEXTMODE
 70
     0
  9
$MIRRTEXT
 70
     1
  9
$LTSCALE
 40
0.5
  9
$ATTMODE
 70
     1
  9
$TEXTSIZE
 40
6.0
  9
$TRACEWID
 40
1.0
  9
$TEXTSTYLE
  7
黑体
  9
$CLAYER
  8
标注
  9
$CELTYPE
  6
ByLayer
  9
$CECOLOR
 62
   256
  9
$CELTSCALE
 40
1.0
  9
$DISPSILH
 70
     1
  9
$DIMSCALE
 40
1.0
  9
$DIMASZ
 40
2.5
  9
$DIMEXO
 40
0.625
  9
$DIMDLI
 40
3.75
  9
$DIMRND
 40
0.0
  9
$DIMDLE
 40
0.0
  9
$DIMEXE
 40
1.25
  9
$DIMTP
 40
0.0
  9
$DIMTM
 40
0.0
  9
$DIMTXT
 40
30.0
  9
$DIMCEN
 40
2.5
  9
$DIMTSZ
 40
0.0
  9
$DIMTOL
 70
     0
  9
$DIMLIM
 70
     0
  9
$DIMTIH
 70
     0
  9
$DIMTOH
 70
     0
  9
$DIMSE1
 70
     0
  9
$DIMSE2
 70
     0
  9
$DIMTAD
 70
     1
  9
$DIMZIN
 70
     8
  9
$DIMBLK
  1
ClosedBlank
  9
$DIMASO
 70
     1
  9
$DIMSHO
 70
     1
  9
$DIMPOST
  1

  9
$DIMAPOST
  1

  9
$DIMALT
 70
     0
  9
$DIMALTD
 70
     3
  9
$DIMALTF
 40
0.03937007874016
  9
$DIMLFAC
 40
1.0
  9
$DIMTOFL
 70
     1
  9
$DIMTVP
 40
0.0
  9
$DIMTIX
 70
     0
  9
$DIMSOXD
 70
     0
  9
$DIMSAH
 70
     0
  9
$DIMBLK1
  1

  9
$DIMBLK2
  1

  9
$DIMSTYLE
  2
线性标注
  9
$DIMCLRD
 70
     0
  9
$DIMCLRE
 70
     0
  9
$DIMCLRT
 70
     0
  9
$DIMTFAC
 40
1.0
  9
$DIMGAP
 40
0.625
  9
$DIMJUST
 70
     0
  9
$DIMSD1
 70
     0
  9
$DIMSD2
 70
     0
  9
$DIMTOLJ
 70
     0
  9
$DIMTZIN
 70
     8
  9
$DIMALTZ
 70
     0
  9
$DIMALTTZ
 70
     0
  9
$DIMUPT
 70
     0
  9
$DIMDEC
 70
     1
  9
$DIMTDEC
 70
     1
  9
$DIMALTU
 70
     2
  9
$DIMALTTD
 70
     3
  9
$DIMTXSTY
  7
样式 1
  9
$DIMAUNIT
 70
     0
  9
$DIMADEC
 70
     0
  9
$DIMALTRND
 40
0.0
  9
$DIMAZIN
 70
     0
  9
$DIMDSEP
 70
    46
  9
$DIMATFIT
 70
     3
  9
$DIMFRAC
 70
     0
  9
$DIMLDRBLK
  1

  9
$DIMLUNIT
 70
     2
  9
$DIMLWD
 70
    -2
  9
$DIMLWE
 70
    -2
  9
$DIMTMOVE
 70
     0
  9
$DIMFXL
 40
1.25
  9
$DIMFXLON
 70
     0
  9
$DIMJOGANG
 40
1.570796326794896
  9
$DIMTFILL
 70
     0
  9
$DIMTFILLCLR
 70
     0
  9
$DIMARCSYM
 70
     0
  9
$DIMLTYPE
  6

  9
$DIMLTEX1
  6

  9
$DIMLTEX2
  6

  9
$DIMTXTDIRECTION
 70
     0
  9
$LUNITS
 70
     2
  9
$LUPREC
 70
     4
  9
$SKETCHINC
 40
1.0
  9
$FILLETRAD
 40
55.0
  9
$AUNITS
 70
     0
  9
$AUPREC
 70
     0
  9
$MENU
  1
.
  9
$ELEVATION
 40
0.0
  9
$PELEVATION
 40
0.0
  9
$THICKNESS
 40
0.0
  9
$LIMCHECK
 70
     0
  9
$CHAMFERA
 40
1.0
  9
$CHAMFERB
 40
1.0
  9
$CHAMFERC
 40
0.5
  9
$CHAMFERD
 40
0.7853981633974483
  9
$SKPOLY
 70
     0
  9
$TDCREATE
 40
2454593.406203704
  9
$TDUCREATE
 40
2454592.989546620
  9
$TDUPDATE
 40
2458015.651111111
  9
$TDUUPDATE
 40
2458015.234444445
  9
$TDINDWG
 40
8.3333397917
  9
$TDUSRTIMER
 40
8.3333340046
  9
$USRTIMER
 70
     1
  9
$ANGBASE
 50
0.0
  9
$ANGDIR
 70
     0
  9
$PDMODE
 70
    34
  9
$PDSIZE
 40
-2.0
  9
$PLINEWID
 40
0.0
  9
$SPLFRAME
 70
     0
  9
$SPLINETYPE
 70
     6
  9
$SPLINESEGS
 70
     8
  9
$HANDSEED
  5
6063555
  9
$SURFTAB1
 70
     6
  9
$SURFTAB2
 70
     6
  9
$SURFTYPE
 70
     6
  9
$SURFU
 70
     6
  9
$SURFV
 70
     6
  9
$UCSBASE
  2

  9
$UCSNAME
  2

  9
$UCSORG
 10
0.0
 20
0.0
 30
0.0
  9
$UCSXDIR
 10
1.0
 20
0.0
 30
0.0
  9
$UCSYDIR
 10
0.0
 20
1.0
 30
0.0
  9
$UCSORTHOREF
  2

  9
$UCSORTHOVIEW
 70
     1
  9
$UCSORGTOP
 10
0.0
 20
0.0
 30
0.0
  9
$UCSORGBOTTOM
 10
0.0
 20
0.0
 30
0.0
  9
$UCSORGLEFT
 10
0.0
 20
0.0
 30
0.0
  9
$UCSORGRIGHT
 10
0.0
 20
0.0
 30
0.0
  9
$UCSORGFRONT
 10
0.0
 20
0.0
 30
0.0
  9
$UCSORGBACK
 10
0.0
 20
0.0
 30
0.0
  9
$PUCSBASE
  2

  9
$PUCSNAME
  2

  9
$PUCSORG
 10
0.0
 20
0.0
 30
0.0
  9
$PUCSXDIR
 10
1.0
 20
0.0
 30
0.0
  9
$PUCSYDIR
 10
0.0
 20
1.0
 30
0.0
  9
$PUCSORTHOREF
  2

  9
$PUCSORTHOVIEW
 70
     0
  9
$PUCSORGTOP
 10
0.0
 20
0.0
 30
0.0
  9
$PUCSORGBOTTOM
 10
0.0
 20
0.0
 30
0.0
  9
$PUCSORGLEFT
 10
0.0
 20
0.0
 30
0.0
  9
$PUCSORGRIGHT
 10
0.0
 20
0.0
 30
0.0
  9
$PUCSORGFRONT
 10
0.0
 20
0.0
 30
0.0
  9
$PUCSORGBACK
 10
0.0
 20
0.0
 30
0.0
  9
$USERI1
 70
     0
  9
$USERI2
 70
     0
  9
$USERI3
 70
     0
  9
$USERI4
 70
     0
  9
$USERI5
 70
     0
  9
$USERR1
 40
0.0
  9
$USERR2
 40
0.0
  9
$USERR3
 40
0.0
  9
$USERR4
 40
0.0
  9
$USERR5
 40
0.0
  9
$WORLDVIEW
 70
     1
  9
$SHADEDGE
 70
     3
  9
$SHADEDIF
 70
    70
  9
$TILEMODE
 70
     1
  9
$MAXACTVP
 70
    64
  9
$PINSBASE
 10
0.0
 20
0.0
 30
0.0
  9
$PLIMCHECK
 70
     0
  9
$PEXTMIN
 10
0.0451739414299368
 20
0.0000025706221436
 30
0.0
  9
$PEXTMAX
 10
287.29517394143
 20
200.4000025706222
 30
0.0
  9
$PLIMMIN
 10
-4.7730712890625
 20
-4.773083209991455
  9
$PLIMMAX
 10
292.2375793457031
 20
205.2425875663757
  9
$UNITMODE
 70
     0
  9
$VISRETAIN
 70
     1
  9
$PLINEGEN
 70
     0
  9
$PSLTSCALE
 70
     0
  9
$TREEDEPTH
 70
  3020
  9
$CMLSTYLE
  2
Standard
  9
$CMLJUST
 70
     0
  9
$CMLSCALE
 40
20.0
  9
$PROXYGRAPHICS
 70
     1
  9
$MEASUREMENT
 70
     1
  9
$CELWEIGHT
370
    -1
  9
$ENDCAPS
280
     0
  9
$JOINSTYLE
280
     0
  9
$LWDISPLAY
290
     0
  9
$INSUNITS
 70
     4
  9
$HYPERLINKBASE
  1

  9
$STYLESHEET
  1
grayscaleDS.ctb
  9
$XEDIT
290
     1
  9
$CEPSNTYPE
380
     0
  9
$PSTYLEMODE
290
     1
  9
$FINGERPRINTGUID
  2
{FDEAD578-A652-11D2-9A35-0060089B3A3F}
  9
$VERSIONGUID
  2
{D8E36EC4-0781-974C-8FBF-95117D108422}
  9
$EXTNAMES
290
     1
  9
$PSVPSCALE
 40
1.0
  9
$OLESTARTUP
290
     0
  9
$SORTENTS
280
   127
  9
$INDEXCTL
280
     0
  9
$HIDETEXT
280
     1
  9
$XCLIPFRAME
280
     2
  9
$HALOGAP
280
     0
  9
$OBSCOLOR
 70
   257
  9
$OBSLTYPE
280
     0
  9
$INTERSECTIONDISPLAY
280
     0
  9
$INTERSECTIONCOLOR
 70
   257
  9
$DIMASSOC
280
     1
  9
$PROJECTNAME
  1

  9
$CAMERADISPLAY
290
     0
  9
$LENSLENGTH
 40
50.0
  9
$CAMERAHEIGHT
 40
0.0
  9
$STEPSPERSEC
 40
2.0
  9
$STEPSIZE
 40
6.0
  9
$3DDWFPREC
 40
2.0
  9
$PSOLWIDTH
 40
0.25
  9
$PSOLHEIGHT
 40
4.0
  9
$LOFTANG1
 40
1.570795999999999
  9
$LOFTANG2
 40
1.570795999999999
  9
$LOFTMAG1
 40
0.0
  9
$LOFTMAG2
 40
0.0
  9
$LOFTPARAM
 70
     7
  9
$LOFTNORMALS
280
     1
  9
$LATITUDE
 40
37.795
  9
$LONGITUDE
 40
-122.394
  9
$NORTHDIRECTION
 40
0.0
  9
$TIMEZONE
 70
 -8000
  9
$LIGHTGLYPHDISPLAY
280
     1
  9
$TILEMODELIGHTSYNCH
280
     1
  9
$CMATERIAL
347
982F
  9
$SOLIDHIST
280
     0
  9
$SHOWHIST
280
     1
  9
$DWFFRAME
280
     2
  9
$DGNFRAME
280
     2
  9
$REALWORLDSCALE
290
     1
  9
$INTERFERECOLOR
 62
   256
  9
$INTERFEREOBJVS
345
9851
  9
$INTERFEREVPVS
346
6301C
  9
$CSHADOW
280
     0
  9
$SHADOWPLANELOCATION
 40
0.0
  0
ENDSEC
  0
SECTION
  2
CLASSES
  0
CLASS
  1
ACDBDICTIONARYWDFLT
  2
AcDbDictionaryWithDefault
  3
ObjectDBX Classes
 90
        0
 91
        1
280
     0
281
     0
  0
CLASS
  1
ACDBPLACEHOLDER
  2
AcDbPlaceHolder
  3
ObjectDBX Classes
 90
        0
 91
        1
280
     0
281
     0
  0
CLASS
  1
LAYOUT
  2
AcDbLayout
  3
ObjectDBX Classes
 90
        0
 91
        2
280
     0
281
     0
  0
CLASS
  1
PLOTSETTINGS
  2
AcDbPlotSettings
  3
ObjectDBX Classes
 90
        0
 91
        1
280
     0
281
     0
  0
CLASS
  1
DICTIONARYVAR
  2
AcDbDictionaryVar
  3
ObjectDBX Classes
 90
        0
 91
       20
280
     0
281
     0
  0
CLASS
  1
WIPEOUT
  2
AcDbWipeout
  3
WipeOut|Product Desc: Object Enabler for WipeOut entity | Company: Autodesk, Inc. | WEB Address: www.autodesk.com
 90
     2175
 91
        0
280
     0
281
     1
  0
CLASS
  1
WIPEOUTVARIABLES
  2
AcDbWipeoutVariables
  3
"WipeOut|Product Desc:     WipeOut Dbx Application|Company:          Autodesk, Inc.|WEB Address:      www.autodesk.com"
 90
        0
 91
        0
280
     0
281
     0
  0
CLASS
  1
DIMASSOC
  2
AcDbDimAssoc
  3
"AcDbDimAssoc|Product Desc:     AcDim ARX App For Dimension|Company:          Autodesk, Inc.|WEB Address:      www.autodesk.com"
 90
        0
 91
        0
280
     0
281
     0
  0
CLASS
  1
RASTERVARIABLES
  2
AcDbRasterVariables
  3
ISM
 90
        0
 91
        3
280
     0
281
     0
  0
CLASS
  1
IMAGEDEF
  2
AcDbRasterImageDef
  3
ISM
 90
        0
 91
        1
280
     0
281
     0
  0
CLASS
  1
IMAGEDEF_REACTOR
  2
AcDbRasterImageDefReactor
  3
ISM
 90
        1
 91
        0
280
     0
281
     0
  0
CLASS
  1
IMAGE
  2
AcDbRasterImage
  3
ISM
 90
     2175
 91
        0
280
     0
281
     1
  0
CLASS
  1
MATERIAL
  2
AcDbMaterial
  3
ObjectDBX Classes
 90
     1153
 91
        3
280
     0
281
     0
  0
CLASS
  1
VISUALSTYLE
  2
AcDbVisualStyle
  3
ObjectDBX Classes
 90
     4095
 91
       26
280
     0
281
     0
  0
CLASS
  1
TABLESTYLE
  2
AcDbTableStyle
  3
ObjectDBX Classes
 90
     4095
 91
        1
280
     0
281
     0
  0
CLASS
  1
SCALE
  2
AcDbScale
  3
ObjectDBX Classes
 90
     1153
 91
       33
280
     0
281
     0
  0
CLASS
  1
MLEADERSTYLE
  2
AcDbMLeaderStyle
  3
ACDB_MLEADERSTYLE_CLASS
 90
     4095
 91
        1
280
     0
281
     0
  0
CLASS
  1
CELLSTYLEMAP
  2
AcDbCellStyleMap
  3
ObjectDBX Classes
 90
     1152
 91
        2
280
     0
281
     0
  0
CLASS
  1
SORTENTSTABLE
  2
AcDbSortentsTable
  3
ObjectDBX Classes
 90
        0
 91
        1
280
     0
281
     0
  0
CLASS
  1
ACDBSECTIONVIEWSTYLE
  2
AcDbSectionViewStyle
  3
ObjectDBX Classes
 90
     1025
 91
        1
280
     0
281
     0
  0
CLASS
  1
ACDBDETAILVIEWSTYLE
  2
AcDbDetailViewStyle
  3
ObjectDBX Classes
 90
     1025
 91
        1
280
     0
281
     0
  0
ENDSEC
  0
SECTION
  2
TABLES
  0
TABLE
  2
VPORT
  5
1A
102
{ACAD_XDICTIONARY
360
62545
102
}
330
0
100
AcDbSymbolTable
 70
     1
1001
ACAD
1000
DbSaveVer
1071
        5
  0
VPORT
  5
6300D
330
1A
100
AcDbSymbolTableRecord
100
AcDbViewportTableRecord
  2
*Active
 70
     0
 10
0.0
 20
0.0
 11
1.0
 21
1.0
 12
5122.363610780588
 22
3601.389746704691
 13
0.0
 23
0.0
 14
10.0
 24
10.0
 15
10.0
 25
10.0
 16
0.0
 26
0.0
 36
1.0
 17
0.0
 27
0.0
 37
0.0
 40
2455.860376222513
 41
2.292712066905615
 42
50.0
 43
0.0
 44
0.0
 50
0.0
 51
0.0
 71
    16
 72
 20000
 73
     1
 74
     1
 75
     0
 76
     0
 77
     0
 78
     0
281
     0
 65
     1
110
0.0
120
0.0
130
0.0
111
1.0
121
0.0
131
0.0
112
0.0
122
1.0
132
0.0
 79
     0
146
0.0
348
984D
 60
     3
 61
     5
292
     1
282
     1
141
0.0
142
0.0
 63
   250
421
  3355443
1001
ACAD_NAV_VCDISPLAY
1070
     3
  0
ENDTAB
  0
TABLE
  2
LTYPE
  5
15
330
0
100
AcDbSymbolTable
 70
     3
  0
LTYPE
  5
16
330
15
100
AcDbSymbolTableRecord
100
AcDbLinetypeTableRecord
  2
ByBlock
 70
     0
  3

 72
    65
 73
     0
 40
0.0
  0
LTYPE
  5
17
330
15
100
AcDbSymbolTableRecord
100
AcDbLinetypeTableRecord
  2
ByLayer
 70
     0
  3

 72
    65
 73
     0
 40
0.0
  0
LTYPE
  5
8
330
15
100
AcDbSymbolTableRecord
100
AcDbLinetypeTableRecord
  2
Continuous
 70
     0
  3
Solid line
 72
    65
 73
     0
 40
0.0
  0
LTYPE
  5
3FE
330
15
100
AcDbSymbolTableRecord
100
AcDbLinetypeTableRecord
  2
CENTER
 70
     0
  3
Center ____ _ ____ _ ____ _ ____ _ ____ _ ____
 72
    65
 73
     4
 40
50.8
 49
31.75
 74
     0
 49
-6.349999999999998
 74
     0
 49
6.349999999999998
 74
     0
 49
-6.349999999999998
 74
     0
  0
LTYPE
  5
63491
330
15
100
AcDbSymbolTableRecord
100
AcDbLinetypeTableRecord
  2
ACAD_ISO02W100
 70
     0
  3
ISO dash __ __ __ __ __ __ __ __ __ __ __ __ __
 72
    65
 73
     2
 40
15.0
 49
12.0
 74
     0
 49
-3.0
 74
     0
  0
ENDTAB
  0
TABLE
  2
LAYER
  5
10
102
{ACAD_XDICTIONARY
360
3FD7
102
}
330
0
100
AcDbSymbolTable
 70
    10
  0
LAYER
  5
4
102
{ACAD_XDICTIONARY
360
9891
102
}
330
10
100
AcDbSymbolTableRecord
100
AcDbLayerTableRecord
  2
0
 70
     0
 62
     7
  6
Continuous
370
    30
390
5
347
983F
348
0
  0
LAYER
  5
400
102
{ACAD_XDICTIONARY
360
9893
102
}
330
10
100
AcDbSymbolTableRecord
100
AcDbLayerTableRecord
  2
标注
 70
     0
 62
     3
  6
Continuous
370
     9
390
5
347
983F
348
0
1001
AcadStringInfo
1000
MIFCodePage
1070
     5
  0
LAYER
  5
401
330
10
100
AcDbSymbolTableRecord
100
AcDbLayerTableRecord
  2
Defpoints
 70
     0
 62
     7
  6
Continuous
290
     0
370
    -3
390
5
347
983F
348
0
  0
LAYER
  5
403
102
{ACAD_XDICTIONARY
360
9897
102
}
330
10
100
AcDbSymbolTableRecord
100
AcDbLayerTableRecord
  2
中心线
 70
     0
 62
     1
  6
CENTER
370
     9
390
5
347
983F
348
0
1001
AcadStringInfo
1000
MIFCodePage
1070
     5
  0
LAYER
  5
405
102
{ACAD_XDICTIONARY
360
989B
102
}
330
10
100
AcDbSymbolTableRecord
100
AcDbLayerTableRecord
  2
剖面线
 70
     0
 62
    50
  6
Continuous
370
     9
390
5
347
983F
348
0
1001
AcadStringInfo
1000
MIFCodePage
1070
     5
  0
LAYER
  5
92F
102
{ACAD_XDICTIONARY
360
989F
102
}
330
10
100
AcDbSymbolTableRecord
100
AcDbLayerTableRecord
  2
ASHADE
 70
     4
 62
    -7
  6
Continuous
370
    -3
390
5
347
983F
348
0
  0
LAYER
  5
3FD5
102
{ACAD_XDICTIONARY
360
98A7
102
}
330
10
100
AcDbSymbolTableRecord
100
AcDbLayerTableRecord
  2
03___PRT_ALL_CURVES
 70
     0
 62
     7
  6
Continuous
370
    -3
390
5
347
983F
348
0
  0
LAYER
  5
4563
102
{ACAD_XDICTIONARY
360
98A9
102
}
330
10
100
AcDbSymbolTableRecord
100
AcDbLayerTableRecord
  2
图层1
 70
     0
 62
     7
  6
Continuous
370
    13
390
5
347
983F
348
0
1001
AcadStringInfo
1000
MIFCodePage
1070
     5
  0
LAYER
  5
6348E
330
10
100
AcDbSymbolTableRecord
100
AcDbLayerTableRecord
  2
Layer1
 70
     0
 62
     3
  6
Continuous
370
     9
390
5
347
983F
348
0
1001
AcAecLayerStandard
1000

1000

1001
AcCmTransparency
1071
        0
  0
LAYER
  5
63492
330
10
100
AcDbSymbolTableRecord
100
AcDbLayerTableRecord
  2
Hidden
 70
     0
 62
     2
  6
ACAD_ISO02W100
370
    30
390
5
347
983F
348
0
1001
AcAecLayerStandard
1000

1000

1001
AcCmTransparency
1071
        0
  0
ENDTAB
  0
TABLE
  2
STYLE
  5
11
330
0
100
AcDbSymbolTable
 70
     5
  0
STYLE
  5
12
330
11
100
AcDbSymbolTableRecord
100
AcDbTextStyleTableRecord
  2
Standard
 70
     0
 40
0.0
 41
1.0
 50
0.0
 71
     0
 42
4.5
  3
simhei.ttf
  4

1001
ACAD
1000
SimHei
1071
    34306
  0
STYLE
  5
406
330
11
100
AcDbSymbolTableRecord
100
AcDbTextStyleTableRecord
  2
样式 1
 70
     0
 40
0.0
 41
1.0
 50
0.0
 71
     0
 42
4.5
  3

  4

1001
ACAD
1000
LiSu
1071
    34353
1001
AcadStringInfo
1000
MIFCodePage
1070
     5
  0
STYLE
  5
3FD6
330
11
100
AcDbSymbolTableRecord
100
AcDbTextStyleTableRecord
  2
黑体
 70
     0
 40
0.0
 41
1.0
 50
0.0
 71
     0
 42
6.0
  3
simhei.ttf
  4

1001
ACAD
1000
SimHei
1071
    34306
1001
AcadStringInfo
1000
MIFCodePage
1070
     5
  0
STYLE
  5
62F3A
330
11
100
AcDbSymbolTableRecord
100
AcDbTextStyleTableRecord
  2
GN3
 70
     0
 40
0.156
 41
1.0
 50
0.0
 71
     0
 42
0.2
  3
ROMANK
  4

  0
STYLE
  5
62F3B
330
11
100
AcDbSymbolTableRecord
100
AcDbTextStyleTableRecord
  2
GN4
 70
     0
 40
0.188
 41
1.0
 50
0.0
 71
     0
 42
0.2
  3
ROMAND
  4

  0
ENDTAB
  0
TABLE
  2
VIEW
  5
18
330
0
100
AcDbSymbolTable
 70
     0
  0
ENDTAB
  0
TABLE
  2
UCS
  5
19
330
0
100
AcDbSymbolTable
 70
     0
  0
ENDTAB
  0
TABLE
  2
APPID
  5
1C
330
0
100
AcDbSymbolTable
 70
    22
  0
APPID
  5
13
330
1C
100
AcDbSymbolTableRecord
100
AcDbRegAppTableRecord
  2
ACAD
 70
     0
  0
APPID
  5
2BE8
330
1C
100
AcDbSymbolTableRecord
100
AcDbRegAppTableRecord
  2
DCO15
 70
     0
  0
APPID
  5
987D
330
1C
100
AcDbSymbolTableRecord
100
AcDbRegAppTableRecord
  2
ACAD_MLEADERVER
 70
     0
  0
APPID
  5
988A
330
1C
100
AcDbSymbolTableRecord
100
AcDbRegAppTableRecord
  2
ACAD_EXEMPT_FROM_CAD_STANDARDS
 70
     0
  0
APPID
  5
A534
330
1C
100
AcDbSymbolTableRecord
100
AcDbRegAppTableRecord
  2
ACAD_DSTYLE_DIMRADIAL_EXTENSION
 70
     0
  0
APPID
  5
30A41
330
1C
100
AcDbSymbolTableRecord
100
AcDbRegAppTableRecord
  2
ACAD_PSEXT
 70
     0
  0
APPID
  5
46FFE
330
1C
100
AcDbSymbolTableRecord
100
AcDbRegAppTableRecord
  2
ACAD_DSTYLE_DIMJAG
 70
     0
  0
APPID
  5
46FFF
330
1C
100
AcDbSymbolTableRecord
100
AcDbRegAppTableRecord
  2
ACAD_DSTYLE_DIMTALN
 70
     0
  0
APPID
  5
62C00
330
1C
100
AcDbSymbolTableRecord
100
AcDbRegAppTableRecord
  2
ACAD_DSTYLE_DIMTEXT_FILL
 70
     0
  0
APPID
  5
62C01
330
1C
100
AcDbSymbolTableRecord
100
AcDbRegAppTableRecord
  2
ACAD_DSTYLE_DIMEXT_LENGTH
 70
     0
  0
APPID
  5
62C02
330
1C
100
AcDbSymbolTableRecord
100
AcDbRegAppTableRecord
  2
ACAD_DSTYLE_DIMEXT_ENABLED
 70
     0
  0
APPID
  5
62C03
330
1C
100
AcDbSymbolTableRecord
100
AcDbRegAppTableRecord
  2
ACAD_DSTYLE_DIM_LINETYPE
 70
     0
  0
APPID
  5
62C04
330
1C
100
AcDbSymbolTableRecord
100
AcDbRegAppTableRecord
  2
ACAD_DSTYLE_DIM_EXT1_LINETYPE
 70
     0
  0
APPID
  5
62C05
330
1C
100
AcDbSymbolTableRecord
100
AcDbRegAppTableRecord
  2
ACAD_DSTYLE_DIM_EXT2_LINETYPE
 70
     0
  0
APPID
  5
62CC1
330
1C
100
AcDbSymbolTableRecord
100
AcDbRegAppTableRecord
  2
ACAD_DSTYLE_DIMJOGGED_JOGANGLE_SYMBOL
 70
     0
  0
APPID
  5
62D25
330
1C
100
AcDbSymbolTableRecord
100
AcDbRegAppTableRecord
  2
ACAD_DSTYLE_DIMARC_LENGTH_SYMBOL
 70
     0
  0
APPID
  5
62F3C
330
1C
100
AcDbSymbolTableRecord
100
AcDbRegAppTableRecord
  2
PSP
 70
     0
  0
APPID
  5
63026
330
1C
100
AcDbSymbolTableRecord
100
AcDbRegAppTableRecord
  2
AcadStringInfo
 70
     0
  0
APPID
  5
6303E
330
1C
100
AcDbSymbolTableRecord
100
AcDbRegAppTableRecord
  2
AcadAnnotative
 70
     0
  0
APPID
  5
6348F
330
1C
100
AcDbSymbolTableRecord
100
AcDbRegAppTableRecord
  2
AcAecLayerStandard
 70
     0
  0
APPID
  5
63490
330
1C
100
AcDbSymbolTableRecord
100
AcDbRegAppTableRecord
  2
AcCmTransparency
 70
     0
  0
APPID
  5
6063545
330
1C
100
AcDbSymbolTableRecord
100
AcDbRegAppTableRecord
  2
ACAD_NAV_VCDISPLAY
 70
     0
  0
ENDTAB
  0
TABLE
  2
DIMSTYLE
  5
1D
330
0
100
AcDbSymbolTable
 70
     4
100
AcDbDimStyleTable
 71
     1
340
18F2E
  0
DIMSTYLE
105
4564
330
1D
100
AcDbSymbolTableRecord
100
AcDbDimStyleTableRecord
  2
STANDARD
 70
     0
 41
15.0
 42
6.0
 44
5.0
140
15.0
271
     0
272
     0
340
12
  0
DIMSTYLE
105
18F2E
102
{ACAD_REACTORS
330
6272F
330
62839
330
6283A
330
6283B
330
6283C
330
6283D
330
6283E
330
6283F
330
62A3C
330
62A3D
330
62A3E
330
62DF5
330
62EA1
330
62EC4
330
63080
330
631C5
330
6325B
330
6325C
330
6325D
330
6326B
330
6326C
102
}
330
1D
100
AcDbSymbolTableRecord
100
AcDbDimStyleTableRecord
  2
线性标注
 70
     0
 41
2.5
 42
0.625
 43
3.75
 44
1.25
 49
1.25
 50
90.0
 73
     0
 74
     0
 77
     1
 78
     8
140
30.0
141
2.5
143
0.03937007874016
147
0.625
171
     3
172
     1
271
     1
272
     1
274
     3
283
     0
284
     8
340
406
342
18F26
1001
ACAD_DSTYLE_DIMJAG
1070
   388
1040
1.5
1001
ACAD_DSTYLE_DIMTALN
1070
   392
1070
     0
1001
ACAD_DSTYLE_DIMJOGGED_JOGANGLE_SYMBOL
1070
   384
1040
1.570796326794896
1001
AcadStringInfo
1000
MIFCodePage
1070
     5
  0
DIMSTYLE
105
6303C
330
1D
100
AcDbSymbolTableRecord
100
AcDbDimStyleTableRecord
  2
ISO-25
 70
     0
 41
2.5
 42
0.625
 43
3.75
 44
1.25
 73
     0
 74
     0
 77
     1
 78
     8
140
2.5
141
2.5
143
0.03937007874016
147
0.625
171
     3
172
     1
271
     2
272
     2
274
     3
278
    44
283
     0
284
     8
340
12
  0
DIMSTYLE
105
6303D
330
1D
100
AcDbSymbolTableRecord
100
AcDbDimStyleTableRecord
  2
Annotative
 70
     0
 40
0.0
 41
2.5
 42
0.625
 43
3.75
 44
1.25
 73
     0
 74
     0
 77
     1
 78
     8
140
2.5
141
2.5
143
0.03937007874016
147
0.625
171
     3
172
     1
271
     2
272
     2
274
     3
278
    44
283
     0
284
     8
340
12
1001
AcadAnnotative
1000
AnnotativeData
1002
{
1070
     1
1070
     1
1002
}
1001
ACAD_DSTYLE_DIMJAG
1070
   388
1040
1.5
1001
ACAD_DSTYLE_DIMTALN
1070
   392
1070
     0
  0
ENDTAB
  0
TABLE
  2
BLOCK_RECORD
  5
1
330
0
100
AcDbSymbolTable
 70
    22
  0
BLOCK_RECORD
  5
2
102
{ACAD_XDICTIONARY
360
98C5
102
}
330
1
100
AcDbSymbolTableRecord
100
AcDbBlockTableRecord
  2
*Model_Space
340
A
 70
     0
280
     1
281
     0
  0
BLOCK_RECORD
  5
C
330
1
100
AcDbSymbolTableRecord
100
AcDbBlockTableRecord
  2
*Paper_Space
340
F
 70
     0
280
     1
281
     0
  0
BLOCK_RECORD
  5
18F26
330
1
100
AcDbSymbolTableRecord
100
AcDbBlockTableRecord
  2
_ClosedBlank
340
0
102
{BLKREFS
331
63160
331
63161
331
63169
331
6316A
331
63172
331
63183
331
63184
331
631CC
331
631CD
331
631D5
331
631D6
331
632ED
331
632EE
331
633D0
331
633D1
331
633D9
331
633DA
331
633E2
331
6343F
331
63440
331
63449
331
6344A
331
63451
331
63452
331
63458
331
6345F
331
63460
331
62D3F
331
62D40
331
62D64
331
62D71
331
62D72
331
62E79
331
62E7A
331
62EA5
331
62EA6
331
62EEF
331
62EF0
102
}
 70
     0
280
     1
281
     0
  0
BLOCK_RECORD
  5
62730
330
1
100
AcDbSymbolTableRecord
100
AcDbBlockTableRecord
  2
*D1
340
0
 70
     0
280
     1
281
     0
  0
BLOCK_RECORD
  5
62858
330
1
100
AcDbSymbolTableRecord
100
AcDbBlockTableRecord
  2
*D2
340
0
 70
     0
280
     1
281
     0
  0
BLOCK_RECORD
  5
62864
330
1
100
AcDbSymbolTableRecord
100
AcDbBlockTableRecord
  2
*D3
340
0
 70
     0
280
     1
281
     0
  0
BLOCK_RECORD
  5
62870
330
1
100
AcDbSymbolTableRecord
100
AcDbBlockTableRecord
  2
*D4
340
0
 70
     0
280
     1
281
     0
  0
BLOCK_RECORD
  5
6287D
330
1
100
AcDbSymbolTableRecord
100
AcDbBlockTableRecord
  2
*D5
340
0
 70
     0
280
     1
281
     0
  0
BLOCK_RECORD
  5
62889
330
1
100
AcDbSymbolTableRecord
100
AcDbBlockTableRecord
  2
*D6
340
0
 70
     0
280
     1
281
     0
  0
BLOCK_RECORD
  5
62892
330
1
100
AcDbSymbolTableRecord
100
AcDbBlockTableRecord
  2
*D7
340
0
 70
     0
280
     1
281
     0
  0
BLOCK_RECORD
  5
6289B
330
1
100
AcDbSymbolTableRecord
100
AcDbBlockTableRecord
  2
*D8
340
0
 70
     0
280
     1
281
     0
  0
BLOCK_RECORD
  5
62A4B
330
1
100
AcDbSymbolTableRecord
100
AcDbBlockTableRecord
  2
*D9
340
0
 70
     0
280
     1
281
     0
  0
BLOCK_RECORD
  5
62A58
330
1
100
AcDbSymbolTableRecord
100
AcDbBlockTableRecord
  2
*D10
340
0
 70
     0
280
     1
281
     0
  0
BLOCK_RECORD
  5
62A64
330
1
100
AcDbSymbolTableRecord
100
AcDbBlockTableRecord
  2
*D11
340
0
 70
     0
280
     1
281
     0
  0
BLOCK_RECORD
  5
62DF6
330
1
100
AcDbSymbolTableRecord
100
AcDbBlockTableRecord
  2
*D12
340
0
 70
     0
280
     1
281
     0
  0
BLOCK_RECORD
  5
62EA2
330
1
100
AcDbSymbolTableRecord
100
AcDbBlockTableRecord
  2
*D13
340
0
 70
     0
280
     1
281
     0
  0
BLOCK_RECORD
  5
62EC5
330
1
100
AcDbSymbolTableRecord
100
AcDbBlockTableRecord
  2
*D14
340
0
 70
     0
280
     1
281
     0
  0
BLOCK_RECORD
  5
63086
330
1
100
AcDbSymbolTableRecord
100
AcDbBlockTableRecord
  2
*D15
340
0
 70
     0
280
     1
281
     0
  0
BLOCK_RECORD
  5
631C6
330
1
100
AcDbSymbolTableRecord
100
AcDbBlockTableRecord
  2
*D16
340
0
 70
     0
280
     1
281
     0
  0
BLOCK_RECORD
  5
63279
330
1
100
AcDbSymbolTableRecord
100
AcDbBlockTableRecord
  2
*D17
340
0
 70
     0
280
     1
281
     0
  0
BLOCK_RECORD
  5
63286
330
1
100
AcDbSymbolTableRecord
100
AcDbBlockTableRecord
  2
*D18
340
0
 70
     0
280
     1
281
     0
  0
BLOCK_RECORD
  5
63291
330
1
100
AcDbSymbolTableRecord
100
AcDbBlockTableRecord
  2
*D19
340
0
 70
     0
280
     1
281
     0
  0
BLOCK_RECORD
  5
6329C
330
1
100
AcDbSymbolTableRecord
100
AcDbBlockTableRecord
  2
*D20
340
0
 70
     0
280
     1
281
     0
  0
BLOCK_RECORD
  5
632A5
330
1
100
AcDbSymbolTableRecord
100
AcDbBlockTableRecord
  2
*D21
340
0
 70
     0
280
     1
281
     0
  0
ENDTAB
  0
ENDSEC
  0
SECTION
  2
BLOCKS
  0
BLOCK
  5
3
330
2
100
AcDbEntity
  8
0
100
AcDbBlockBegin
  2
*Model_Space
 70
     2
 10
0.0
 20
0.0
 30
0.0
  3
*Model_Space
  1

  0
ENDBLK
  5
9
330
2
100
AcDbEntity
  8
0
100
AcDbBlockEnd
  0
BLOCK
  5
D
330
C
100
AcDbEntity
 67
     1
  8
0
100
AcDbBlockBegin
  2
*Paper_Space
 70
     0
 10
0.0
 20
0.0
 30
0.0
  3
*Paper_Space
  1

  0
ENDBLK
  5
E
330
C
100
AcDbEntity
 67
     1
  8
0
100
AcDbBlockEnd
  0
BLOCK
  5
18F27
330
18F26
100
AcDbEntity
  8
0
 48
0.2
100
AcDbBlockBegin
  2
_ClosedBlank
 70
     0
 10
0.0
 20
0.0
 30
0.0
  3
_ClosedBlank
  1

  0
LINE
  5
18F28
330
18F26
100
AcDbEntity
  8
0
  6
ByBlock
 62
     0
370
    -2
100
AcDbLine
 10
-1.0
 20
0.1666666666666666
 30
0.0
 11
0.0
 21
0.0
 31
0.0
  0
LINE
  5
18F29
330
18F26
100
AcDbEntity
  8
0
  6
ByBlock
 62
     0
370
    -2
100
AcDbLine
 10
0.0
 20
0.0
 30
0.0
 11
-1.0
 21
-0.1666666666666666
 31
0.0
  0
LINE
  5
18F2A
330
18F26
100
AcDbEntity
  8
0
  6
ByBlock
 62
     0
370
    -2
100
AcDbLine
 10
-1.0
 20
0.1666666666666666
 30
0.0
 11
-1.0
 21
-0.1666666666666666
 31
0.0
  0
ENDBLK
  5
18F2B
330
18F26
100
AcDbEntity
  8
0
 48
0.2
100
AcDbBlockEnd
  0
BLOCK
  5
62731
330
62730
100
AcDbEntity
  8
0
100
AcDbBlockBegin
  2
*D1
 70
     1
 10
0.0
 20
0.0
 30
0.0
  3
*D1
  1

  0
LINE
  5
632EA
330
62730
100
AcDbEntity
  8
标注
 62
     0
440
 16777216
370
    -2
100
AcDbLine
 10
5537.303127080413
 20
3431.440184457347
 30
0.0
 11
5330.508457156359
 21
3379.62561121809
 31
0.0
  0
LINE
  5
632EB
330
62730
100
AcDbEntity
  8
标注
 62
     0
440
 16777216
370
    -2
100
AcDbLine
 10
5993.061362667932
 20
3129.430081867679
 30
0.0
 11
5786.266692743875
 21
3077.615508628423
 31
0.0
  0
LINE
  5
632EC
330
62730
100
AcDbEntity
  8
标注
 62
     0
440
 16777216
370
    -2
100
AcDbLine
 10
5334.23447600317
 20
3378.656085916082
 30
0.0
 11
5785.824757536739
 21
3079.407895527077
 31
0.0
  0
INSERT
  5
632ED
330
62730
100
AcDbEntity
  8
标注
 62
     0
440
 16777216
370
    -2
100
AcDbBlockReference
  2
_ClosedBlank
 10
5332.150498976196
 20
3380.037042016414
 30
0.0
 41
2.5
 42
2.5
 43
2.5
 50
146.4693876602811
  0
INSERT
  5
632EE
330
62730
100
AcDbEntity
  8
标注
 62
     0
440
 16777216
370
    -2
100
AcDbBlockReference
  2
_ClosedBlank
 10
5787.908734563714
 20
3078.026939426746
 30
0.0
 41
2.5
 42
2.5
 43
2.5
 50
326.4693876602811
  0
MTEXT
  5
632EF
330
62730
100
AcDbEntity
  8
标注
 62
     0
440
 16777216
100
AcDbMText
 10
5493.259153981941
 20
3292.021925931985
 30
0.0
 40
30.0
 41
0.0
 46
0.0
 71
     5
 72
     1
  1
940
  7
样式 1
 11
0.8335908107897115
 21
-0.5523824401326962
 31
0.0
 73
     1
 44
1.0
  0
POINT
  5
632F0
330
62730
100
AcDbEntity
  8
Defpoints
 62
     0
440
 16777216
100
AcDbPoint
 10
5538.124147990332
 20
3431.64589985651
 30
0.0
  0
POINT
  5
632F1
330
62730
100
AcDbEntity
  8
Defpoints
 62
     0
440
 16777216
100
AcDbPoint
 10
5993.882383577849
 20
3129.635797266841
 30
0.0
  0
POINT
  5
632F2
330
62730
100
AcDbEntity
  8
Defpoints
 62
     0
440
 16777216
100
AcDbPoint
 10
5787.908734563714
 20
3078.026939426746
 30
0.0
  0
ENDBLK
  5
62732
330
62730
100
AcDbEntity
  8
0
100
AcDbBlockEnd
  0
BLOCK
  5
62859
330
62858
100
AcDbEntity
  8
0
100
AcDbBlockBegin
  2
*D2
 70
     1
 10
0.0
 20
0.0
 30
0.0
  3
*D2
  1

  0
LINE
  5
62D3C
330
62858
100
AcDbEntity
  8
标注
 62
     0
440
 16777216
370
    -2
100
AcDbLine
 10
3866.972559393154
 20
4042.026501738646
 30
0.0
 11
3750.743969243829
 21
4042.026501738646
 31
0.0
  0
LINE
  5
62D3D
330
62858
100
AcDbEntity
  8
标注
 62
     0
440
 16777216
370
    -2
100
AcDbLine
 10
3963.699227585619
 20
3442.026501738646
 30
0.0
 11
3750.743969243829
 21
3442.026501738646
 31
0.0
  0
LINE
  5
62D3E
330
62858
100
AcDbEntity
  8
标注
 62
     0
440
 16777216
370
    -2
100
AcDbLine
 10
3751.993969243829
 20
4039.526501738646
 30
0.0
 11
3751.993969243829
 21
3444.526501738647
 31
0.0
  0
INSERT
  5
62D3F
330
62858
100
AcDbEntity
  8
标注
 62
     0
440
 16777216
370
    -2
100
AcDbBlockReference
  2
_ClosedBlank
 10
3751.993969243829
 20
4042.026501738646
 30
0.0
 41
2.5
 42
2.5
 43
2.5
 50
90.0
  0
INSERT
  5
62D40
330
62858
100
AcDbEntity
  8
标注
 62
     0
440
 16777216
370
    -2
100
AcDbBlockReference
  2
_ClosedBlank
 10
3751.993969243829
 20
3442.026501738646
 30
0.0
 41
2.5
 42
2.5
 43
2.5
 50
270.0
  0
MTEXT
  5
62D41
330
62858
100
AcDbEntity
  8
标注
 62
     0
440
 16777216
100
AcDbMText
 10
3736.368969243829
 20
3742.026501738647
 30
0.0
 40
30.0
 41
0.0
 46
0.0
 71
     5
 72
     1
  1
600
  7
样式 1
 11
0.0000000000000001
 21
1.0
 31
0.0
 73
     1
 44
1.0
  0
POINT
  5
62D42
330
62858
100
AcDbEntity
  8
Defpoints
 62
     0
440
 16777216
100
AcDbPoint
 10
3867.597559393154
 20
4042.026501738646
 30
0.0
  0
POINT
  5
62D43
330
62858
100
AcDbEntity
  8
Defpoints
 62
     0
440
 16777216
100
AcDbPoint
 10
3964.324227585619
 20
3442.026501738646
 30
0.0
  0
POINT
  5
62D44
330
62858
100
AcDbEntity
  8
Defpoints
 62
     0
440
 16777216
100
AcDbPoint
 10
3751.993969243829
 20
3442.026501738646
 30
0.0
  0
ENDBLK
  5
6285A
330
62858
100
AcDbEntity
  8
0
100
AcDbBlockEnd
  0
BLOCK
  5
62865
330
62864
100
AcDbEntity
  8
0
100
AcDbBlockBegin
  2
*D3
 70
     1
 10
0.0
 20
0.0
 30
0.0
  3
*D3
  1

  0
LINE
  5
631D2
330
62864
100
AcDbEntity
  8
标注
 62
     0
440
 16777216
370
    -2
100
AcDbLine
 10
3896.097559393156
 20
3496.401501738647
 30
0.0
 11
3896.097559393156
 21
3068.531308128459
 31
0.0
  0
LINE
  5
631D3
330
62864
100
AcDbEntity
  8
标注
 62
     0
440
 16777216
370
    -2
100
AcDbLine
 10
4836.097559393154
 20
3441.401501738647
 30
0.0
 11
4836.097559393154
 21
3068.531308128459
 31
0.0
  0
LINE
  5
631D4
330
62864
100
AcDbEntity
  8
标注
 62
     0
440
 16777216
370
    -2
100
AcDbLine
 10
3898.597559393156
 20
3069.781308128459
 30
0.0
 11
4833.597559393155
 21
3069.781308128459
 31
0.0
  0
INSERT
  5
631D5
330
62864
100
AcDbEntity
  8
标注
 62
     0
440
 16777216
370
    -2
100
AcDbBlockReference
  2
_ClosedBlank
 10
3896.097559393156
 20
3069.781308128459
 30
0.0
 41
2.5
 42
2.5
 43
2.5
 50
180.0
  0
INSERT
  5
631D6
330
62864
100
AcDbEntity
  8
标注
 62
     0
440
 16777216
370
    -2
100
AcDbBlockReference
  2
_ClosedBlank
 10
4836.097559393154
 20
3069.781308128459
 30
0.0
 41
2.5
 42
2.5
 43
2.5
  0
MTEXT
  5
631D7
330
62864
100
AcDbEntity
  8
标注
 62
     0
440
 16777216
100
AcDbMText
 10
4366.097559393155
 20
3085.406308128459
 30
0.0
 40
30.0
 41
0.0
 46
0.0
 71
     5
 72
     1
  1
940
  7
样式 1
 73
     1
 44
1.0
  0
POINT
  5
631D8
330
62864
100
AcDbEntity
  8
Defpoints
 62
     0
440
 16777216
100
AcDbPoint
 10
3896.097559393156
 20
3497.026501738647
 30
0.0
  0
POINT
  5
631D9
330
62864
100
AcDbEntity
  8
Defpoints
 62
     0
440
 16777216
100
AcDbPoint
 10
4836.097559393154
 20
3442.026501738646
 30
0.0
  0
POINT
  5
631DA
330
62864
100
AcDbEntity
  8
Defpoints
 62
     0
440
 16777216
100
AcDbPoint
 10
4836.097559393154
 20
3069.781308128459
 30
0.0
  0
ENDBLK
  5
62866
330
62864
100
AcDbEntity
  8
0
100
AcDbBlockEnd
  0
BLOCK
  5
62871
330
62870
100
AcDbEntity
  8
0
100
AcDbBlockBegin
  2
*D4
 70
     1
 10
0.0
 20
0.0
 30
0.0
  3
*D4
  1

  0
LINE
  5
6315C
330
62870
100
AcDbEntity
  8
标注
 62
     0
440
 16777216
370
    -2
100
AcDbLine
 10
4808.222559393156
 20
4215.792714254139
 30
0.0
 11
4907.771015034378
 21
4215.792714254139
 31
0.0
  0
LINE
  5
6315D
330
62870
100
AcDbEntity
  8
标注
 62
     0
440
 16777216
370
    -2
100
AcDbLine
 10
4808.222559393156
 20
4202.792714254139
 30
0.0
 11
4907.771015034378
 21
4202.792714254139
 31
0.0
  0
LINE
  5
6315E
330
62870
100
AcDbEntity
  8
标注
 62
     0
440
 16777216
370
    -2
100
AcDbLine
 10
4906.521015034378
 20
4205.292714254139
 30
0.0
 11
4906.521015034378
 21
4213.29271425414
 31
0.0
  0
LINE
  5
6315F
330
62870
100
AcDbEntity
  8
标注
 62
     0
440
 16777216
370
    -2
100
AcDbLine
 10
4906.521015034378
 20
4215.792714254139
 30
0.0
 11
4906.521015034378
 21
4268.261960007301
 31
0.0
  0
INSERT
  5
63160
330
62870
100
AcDbEntity
  8
标注
 62
     0
440
 16777216
370
    -2
100
AcDbBlockReference
  2
_ClosedBlank
 10
4906.521015034378
 20
4202.792714254139
 30
0.0
 41
2.5
 42
2.5
 43
2.5
 50
270.0
  0
INSERT
  5
63161
330
62870
100
AcDbEntity
  8
标注
 62
     0
440
 16777216
370
    -2
100
AcDbBlockReference
  2
_ClosedBlank
 10
4906.521015034378
 20
4215.792714254139
 30
0.0
 41
2.5
 42
2.5
 43
2.5
 50
90.0
  0
MTEXT
  5
63162
330
62870
100
AcDbEntity
  8
标注
 62
     0
440
 16777216
100
AcDbMText
 10
4890.896015034377
 20
4246.208388578731
 30
0.0
 40
30.0
 41
0.0
 46
0.0
 71
     5
 72
     1
  1
13
  7
样式 1
 11
0.0000000000000001
 21
1.0
 31
0.0
 73
     1
 44
1.0
  0
POINT
  5
63163
330
62870
100
AcDbEntity
  8
Defpoints
 62
     0
440
 16777216
100
AcDbPoint
 10
4807.597559393156
 20
4215.792714254139
 30
0.0
  0
POINT
  5
63164
330
62870
100
AcDbEntity
  8
Defpoints
 62
     0
440
 16777216
100
AcDbPoint
 10
4807.597559393156
 20
4202.792714254139
 30
0.0
  0
POINT
  5
63165
330
62870
100
AcDbEntity
  8
Defpoints
 62
     0
440
 16777216
100
AcDbPoint
 10
4906.521015034378
 20
4202.792714254139
 30
0.0
  0
ENDBLK
  5
62872
330
62870
100
AcDbEntity
  8
0
100
AcDbBlockEnd
  0
BLOCK
  5
6287E
330
6287D
100
AcDbEntity
  8
0
100
AcDbBlockBegin
  2
*D5
 70
     1
 10
0.0
 20
0.0
 30
0.0
  3
*D5
  1

  0
LINE
  5
63166
330
6287D
100
AcDbEntity
  8
标注
 62
     0
440
 16777216
370
    -2
100
AcDbLine
 10
4781.722559393156
 20
4111.892714254139
 30
0.0
 11
4931.295100071841
 21
4111.892714254139
 31
0.0
  0
LINE
  5
63167
330
6287D
100
AcDbEntity
  8
标注
 62
     0
440
 16777216
370
    -2
100
AcDbLine
 10
4865.222559393155
 20
4215.792714254139
 30
0.0
 11
4931.295100071841
 21
4215.792714254139
 31
0.0
  0
LINE
  5
63168
330
6287D
100
AcDbEntity
  8
标注
 62
     0
440
 16777216
370
    -2
100
AcDbLine
 10
4930.04510007184
 20
4114.392714254139
 30
0.0
 11
4930.04510007184
 21
4213.29271425414
 31
0.0
  0
INSERT
  5
63169
330
6287D
100
AcDbEntity
  8
标注
 62
     0
440
 16777216
370
    -2
100
AcDbBlockReference
  2
_ClosedBlank
 10
4930.04510007184
 20
4111.892714254139
 30
0.0
 41
2.5
 42
2.5
 43
2.5
 50
270.0
  0
INSERT
  5
6316A
330
6287D
100
AcDbEntity
  8
标注
 62
     0
440
 16777216
370
    -2
100
AcDbBlockReference
  2
_ClosedBlank
 10
4930.04510007184
 20
4215.792714254139
 30
0.0
 41
2.5
 42
2.5
 43
2.5
 50
90.0
  0
MTEXT
  5
6316B
330
6287D
100
AcDbEntity
  8
标注
 62
     0
440
 16777216
100
AcDbMText
 10
4914.42010007184
 20
4164.044919911239
 30
0.0
 40
30.0
 41
0.0
 46
0.0
 71
     5
 72
     1
  1
88
  7
样式 1
 11
0.0000000000000001
 21
1.0
 31
0.0
 73
     1
 44
1.0
  0
POINT
  5
6316C
330
6287D
100
AcDbEntity
  8
Defpoints
 62
     0
440
 16777216
100
AcDbPoint
 10
4781.097559393156
 20
4111.892714254139
 30
0.0
  0
POINT
  5
6316D
330
6287D
100
AcDbEntity
  8
Defpoints
 62
     0
440
 16777216
100
AcDbPoint
 10
4864.597559393154
 20
4215.792714254139
 30
0.0
  0
POINT
  5
6316E
330
6287D
100
AcDbEntity
  8
Defpoints
 62
     0
440
 16777216
100
AcDbPoint
 10
4930.04510007184
 20
4215.792714254139
 30
0.0
  0
ENDBLK
  5
6287F
330
6287D
100
AcDbEntity
  8
0
100
AcDbBlockEnd
  0
BLOCK
  5
6288A
330
62889
100
AcDbEntity
  8
0
100
AcDbBlockBegin
  2
*D6
 70
     1
 10
0.0
 20
0.0
 30
0.0
  3
*D6
  1

  0
LINE
  5
62D61
330
62889
100
AcDbEntity
  8
标注
 62
     0
440
 16777216
370
    -2
100
AcDbLine
 10
3808.906863867099
 20
3359.075220265579
 30
0.0
 11
3909.828353842955
 21
3456.987737106663
 31
0.0
  0
MTEXT
  5
62D62
330
62889
100
AcDbEntity
  8
标注
 62
     0
440
 16777216
100
AcDbMText
 10
3826.67169472167
 20
3398.080559957786
 30
0.0
 40
30.0
 41
0.0
 46
0.0
 71
     5
 72
     1
  1
R55
  7
样式 1
 11
0.7177253139165406
 21
0.6963263414257738
 31
0.0
 73
     1
 44
1.0
  0
LINE
  5
62D63
330
62889
100
AcDbEntity
  8
标注
 62
     0
440
 16777216
370
    -2
100
AcDbLine
 10
3951.097559393153
 20
3497.026501738642
 30
0.0
 11
3911.622667127747
 21
3458.728552960227
 31
0.0
  0
INSERT
  5
62D64
330
62889
100
AcDbEntity
  8
标注
 62
     0
440
 16777216
370
    -2
100
AcDbBlockReference
  2
_ClosedBlank
 10
3911.622667127747
 20
3458.728552960227
 30
0.0
 41
2.5
 42
2.5
 43
2.5
 50
44.13300392986123
  0
POINT
  5
62D65
330
62889
100
AcDbEntity
  8
Defpoints
 62
     0
440
 16777216
100
AcDbPoint
 10
3911.622667127747
 20
3458.728552960227
 30
0.0
  0
POINT
  5
62D66
330
62889
100
AcDbEntity
  8
Defpoints
 62
     0
440
 16777216
100
AcDbPoint
 10
3951.097559393153
 20
3497.026501738642
 30
0.0
  0
ENDBLK
  5
6288B
330
62889
100
AcDbEntity
  8
0
100
AcDbBlockEnd
  0
BLOCK
  5
62893
330
62892
100
AcDbEntity
  8
0
100
AcDbBlockBegin
  2
*D7
 70
     1
 10
0.0
 20
0.0
 30
0.0
  3
*D7
  1

  0
LINE
  5
6316F
330
62892
100
AcDbEntity
  8
标注
 62
     0
440
 16777216
370
    -2
100
AcDbLine
 10
4938.474544012554
 20
3993.679618812789
 30
0.0
 11
4817.878187575758
 21
4138.595028901924
 31
0.0
  0
MTEXT
  5
63170
330
62892
100
AcDbEntity
  8
标注
 62
     0
440
 16777216
100
AcDbMText
 10
4903.937871602337
 20
4059.607760884233
 30
0.0
 40
30.0
 41
0.0
 46
0.0
 71
     5
 72
     1
  1
2-R55
  7
样式 1
 11
0.6396630988277855
 21
-0.7686553974298463
 31
0.0
 73
     1
 44
1.0
  0
LINE
  5
63171
330
62892
100
AcDbEntity
  8
标注
 62
     0
440
 16777216
370
    -2
100
AcDbLine
 10
4781.097559393155
 20
4182.792714254148
 30
0.0
 11
4816.279029828689
 21
4140.5166673955
 31
0.0
  0
INSERT
  5
63172
330
62892
100
AcDbEntity
  8
标注
 62
     0
440
 16777216
370
    -2
100
AcDbBlockReference
  2
_ClosedBlank
 10
4816.279029828689
 20
4140.5166673955
 30
0.0
 41
2.5
 42
2.5
 43
2.5
 50
129.7667022134537
  0
ARC
  5
63173
330
62892
100
AcDbEntity
  8
标注
 62
     0
440
 16777216
370
    -2
100
AcDbCircle
 10
4781.097559393155
 20
4182.792714254148
 30
0.0
 40
55.00000000001
100
AcDbArc
 50
270.6510884035576
 51
311.0688790205689
  0
POINT
  5
63174
330
62892
100
AcDbEntity
  8
Defpoints
 62
     0
440
 16777216
100
AcDbPoint
 10
4816.279029828689
 20
4140.5166673955
 30
0.0
  0
POINT
  5
63175
330
62892
100
AcDbEntity
  8
Defpoints
 62
     0
440
 16777216
100
AcDbPoint
 10
4781.097559393155
 20
4182.792714254148
 30
0.0
  0
ENDBLK
  5
62894
330
62892
100
AcDbEntity
  8
0
100
AcDbBlockEnd
  0
BLOCK
  5
6289C
330
6289B
100
AcDbEntity
  8
0
100
AcDbBlockBegin
  2
*D8
 70
     1
 10
0.0
 20
0.0
 30
0.0
  3
*D8
  1

  0
LINE
  5
62D6D
330
6289B
100
AcDbEntity
  8
标注
 62
     0
440
 16777216
370
    -2
100
AcDbLine
 10
4695.785979511294
 20
3524.806807907813
 30
0.0
 11
4809.397918769717
 21
3457.778618757613
 31
0.0
  0
LINE
  5
62D6E
330
6289B
100
AcDbEntity
  8
标注
 62
     0
440
 16777216
370
    -2
100
AcDbLine
 10
4862.797200016595
 20
3426.274384719683
 30
0.0
 11
4864.950396841067
 21
3425.004052702024
 31
0.0
  0
MTEXT
  5
62D6F
102
{ACAD_XDICTIONARY
360
63518
102
}
330
6289B
100
AcDbEntity
  8
标注
 62
     0
440
 16777216
100
AcDbMText
 10
4758.32535464498
 20
3507.373628966551
 30
0.0
 40
30.0
 41
0.0
 46
0.0
 71
     5
 72
     1
  1
{\fGulim|b0|i0|c129|p34;3-∅57}
  7
样式 1
 11
0.8612787297883706
 21
-0.5081328070634005
 31
0.0
 73
     1
 44
1.0
  0
LINE
  5
62D70
330
6289B
100
AcDbEntity
  8
标注
 62
     0
440
 16777216
370
    -2
100
AcDbLine
 10
4860.644003192124
 20
3427.544716737341
 30
0.0
 11
4811.551115594188
 21
3456.508286739955
 31
0.0
  0
INSERT
  5
62D71
330
6289B
100
AcDbEntity
  8
标注
 62
     0
440
 16777216
370
    -2
100
AcDbBlockReference
  2
_ClosedBlank
 10
4860.644003192124
 20
3427.544716737341
 30
0.0
 41
2.5
 42
2.5
 43
2.5
 50
149.4604631947156
  0
INSERT
  5
62D72
330
6289B
100
AcDbEntity
  8
标注
 62
     0
440
 16777216
370
    -2
100
AcDbBlockReference
  2
_ClosedBlank
 10
4811.551115594188
 20
3456.508286739955
 30
0.0
 41
2.5
 42
2.5
 43
2.5
 50
329.4604631947156
  0
POINT
  5
62D73
330
6289B
100
AcDbEntity
  8
Defpoints
 62
     0
440
 16777216
100
AcDbPoint
 10
4811.551115594188
 20
3456.508286739955
 30
0.0
  0
POINT
  5
62D74
330
6289B
100
AcDbEntity
  8
Defpoints
 62
     0
440
 16777216
100
AcDbPoint
 10
4860.644003192124
 20
3427.544716737341
 30
0.0
  0
ENDBLK
  5
6289D
330
6289B
100
AcDbEntity
  8
0
100
AcDbBlockEnd
  0
BLOCK
  5
62A4C
330
62A4B
100
AcDbEntity
  8
0
100
AcDbBlockBegin
  2
*D9
 70
     1
 10
0.0
 20
0.0
 30
0.0
  3
*D9
  1

  0
LINE
  5
633CC
330
62A4B
100
AcDbEntity
  8
标注
 62
     0
440
 16777216
370
    -2
100
AcDbLine
 10
3486.824608787623
 20
4012.901501738645
 30
0.0
 11
3486.824608787623
 21
3959.602884419979
 31
0.0
  0
LINE
  5
633CD
330
62A4B
100
AcDbEntity
  8
标注
 62
     0
440
 16777216
370
    -2
100
AcDbLine
 10
3473.824608787623
 20
4012.901501738645
 30
0.0
 11
3473.824608787623
 21
3959.602884419979
 31
0.0
  0
LINE
  5
633CE
330
62A4B
100
AcDbEntity
  8
标注
 62
     0
440
 16777216
370
    -2
100
AcDbLine
 10
3484.324608787623
 20
3960.852884419979
 30
0.0
 11
3476.324608787623
 21
3960.852884419979
 31
0.0
  0
LINE
  5
633CF
330
62A4B
100
AcDbEntity
  8
标注
 62
     0
440
 16777216
370
    -2
100
AcDbLine
 10
3473.824608787623
 20
3960.852884419979
 30
0.0
 11
3427.217465930481
 21
3960.852884419979
 31
0.0
  0
INSERT
  5
633D0
330
62A4B
100
AcDbEntity
  8
标注
 62
     0
440
 16777216
370
    -2
100
AcDbBlockReference
  2
_ClosedBlank
 10
3486.824608787623
 20
3960.852884419979
 30
0.0
 41
2.5
 42
2.5
 43
2.5
  0
INSERT
  5
633D1
330
62A4B
100
AcDbEntity
  8
标注
 62
     0
440
 16777216
370
    -2
100
AcDbBlockReference
  2
_ClosedBlank
 10
3473.824608787623
 20
3960.852884419979
 30
0.0
 41
2.5
 42
2.5
 43
2.5
 50
180.0
  0
MTEXT
  5
633D2
330
62A4B
100
AcDbEntity
  8
标注
 62
     0
440
 16777216
100
AcDbMText
 10
3449.271037359052
 20
3976.477884419979
 30
0.0
 40
30.0
 41
0.0
 46
0.0
 71
     5
 72
     1
  1
13
  7
样式 1
 73
     1
 44
1.0
  0
POINT
  5
633D3
330
62A4B
100
AcDbEntity
  8
Defpoints
 62
     0
440
 16777216
100
AcDbPoint
 10
3486.824608787623
 20
4013.526501738645
 30
0.0
  0
POINT
  5
633D4
330
62A4B
100
AcDbEntity
  8
Defpoints
 62
     0
440
 16777216
100
AcDbPoint
 10
3473.824608787623
 20
4013.526501738645
 30
0.0
  0
POINT
  5
633D5
330
62A4B
100
AcDbEntity
  8
Defpoints
 62
     0
440
 16777216
100
AcDbPoint
 10
3473.824608787623
 20
3960.852884419979
 30
0.0
  0
ENDBLK
  5
62A4D
330
62A4B
100
AcDbEntity
  8
0
100
AcDbBlockEnd
  0
BLOCK
  5
62A59
330
62A58
100
AcDbEntity
  8
0
100
AcDbBlockBegin
  2
*D10
 70
     1
 10
0.0
 20
0.0
 30
0.0
  3
*D10
  1

  0
LINE
  5
633D6
330
62A58
100
AcDbEntity
  8
标注
 62
     0
440
 16777216
370
    -2
100
AcDbLine
 10
3473.824608787623
 20
4071.151501738646
 30
0.0
 11
3473.824608787623
 21
4093.480057756925
 31
0.0
  0
LINE
  5
633D7
330
62A58
100
AcDbEntity
  8
标注
 62
     0
440
 16777216
370
    -2
100
AcDbLine
 10
3577.724608787623
 20
3987.651501738646
 30
0.0
 11
3577.724608787623
 21
4093.480057756925
 31
0.0
  0
LINE
  5
633D8
330
62A58
100
AcDbEntity
  8
标注
 62
     0
440
 16777216
370
    -2
100
AcDbLine
 10
3476.324608787623
 20
4092.230057756926
 30
0.0
 11
3575.224608787623
 21
4092.230057756926
 31
0.0
  0
INSERT
  5
633D9
330
62A58
100
AcDbEntity
  8
标注
 62
     0
440
 16777216
370
    -2
100
AcDbBlockReference
  2
_ClosedBlank
 10
3473.824608787623
 20
4092.230057756926
 30
0.0
 41
2.5
 42
2.5
 43
2.5
 50
180.0
  0
INSERT
  5
633DA
330
62A58
100
AcDbEntity
  8
标注
 62
     0
440
 16777216
370
    -2
100
AcDbBlockReference
  2
_ClosedBlank
 10
3577.724608787623
 20
4092.230057756926
 30
0.0
 41
2.5
 42
2.5
 43
2.5
  0
MTEXT
  5
633DB
330
62A58
100
AcDbEntity
  8
标注
 62
     0
440
 16777216
100
AcDbMText
 10
3525.774608787623
 20
4107.855057756926
 30
0.0
 40
30.0
 41
0.0
 46
0.0
 71
     5
 72
     1
  1
88
  7
样式 1
 73
     1
 44
1.0
  0
POINT
  5
633DC
330
62A58
100
AcDbEntity
  8
Defpoints
 62
     0
440
 16777216
100
AcDbPoint
 10
3473.824608787623
 20
4070.526501738647
 30
0.0
  0
POINT
  5
633DD
330
62A58
100
AcDbEntity
  8
Defpoints
 62
     0
440
 16777216
100
AcDbPoint
 10
3577.724608787623
 20
3987.026501738646
 30
0.0
  0
POINT
  5
633DE
330
62A58
100
AcDbEntity
  8
Defpoints
 62
     0
440
 16777216
100
AcDbPoint
 10
3577.724608787623
 20
4092.230057756926
 30
0.0
  0
ENDBLK
  5
62A5A
330
62A58
100
AcDbEntity
  8
0
100
AcDbBlockEnd
  0
BLOCK
  5
62A65
330
62A64
100
AcDbEntity
  8
0
100
AcDbBlockBegin
  2
*D11
 70
     1
 10
0.0
 20
0.0
 30
0.0
  3
*D11
  1

  0
LINE
  5
633DF
330
62A64
100
AcDbEntity
  8
标注
 62
     0
440
 16777216
370
    -2
100
AcDbLine
 10
3680.386647298743
 20
4038.796862936599
 30
0.0
 11
3561.925612045759
 21
4003.462116724004
 31
0.0
  0
MTEXT
  5
633E0
330
62A64
100
AcDbEntity
  8
标注
 62
     0
440
 16777216
100
AcDbMText
 10
3637.674875437214
 20
4042.362011495165
 30
0.0
 40
30.0
 41
0.0
 46
0.0
 71
     5
 72
     1
  1
R55
  7
样式 1
 11
0.9582783175327708
 21
0.2858367823541296
 31
0.0
 73
     1
 44
1.0
  0
LINE
  5
633E1
330
62A64
100
AcDbEntity
  8
标注
 62
     0
440
 16777216
370
    -2
100
AcDbLine
 10
3506.82460878763
 20
3987.026501738644
 30
0.0
 11
3559.529916251927
 21
4002.747524768119
 31
0.0
  0
INSERT
  5
633E2
330
62A64
100
AcDbEntity
  8
标注
 62
     0
440
 16777216
370
    -2
100
AcDbBlockReference
  2
_ClosedBlank
 10
3559.529916251927
 20
4002.747524768119
 30
0.0
 41
2.5
 42
2.5
 43
2.5
 50
196.608873574276
  0
POINT
  5
633E3
330
62A64
100
AcDbEntity
  8
Defpoints
 62
     0
440
 16777216
100
AcDbPoint
 10
3559.529916251927
 20
4002.747524768119
 30
0.0
  0
POINT
  5
633E4
330
62A64
100
AcDbEntity
  8
Defpoints
 62
     0
440
 16777216
100
AcDbPoint
 10
3506.82460878763
 20
3987.026501738644
 30
0.0
  0
ENDBLK
  5
62A66
330
62A64
100
AcDbEntity
  8
0
100
AcDbBlockEnd
  0
BLOCK
  5
62E00
330
62DF6
100
AcDbEntity
  8
0
100
AcDbBlockBegin
  2
*D12
 70
     1
 10
0.0
 20
0.0
 30
0.0
  3
*D12
  1

  0
LINE
  5
62E76
330
62DF6
100
AcDbEntity
  8
标注
 62
     0
440
 16777216
370
    -2
100
AcDbLine
 10
5561.504811789244
 20
3913.608143383491
 30
0.0
 11
5561.556369996442
 21
3958.729682305445
 31
0.0
  0
LINE
  5
62E77
330
62DF6
100
AcDbEntity
  8
标注
 62
     0
440
 16777216
370
    -2
100
AcDbLine
 10
5634.427733669308
 20
3934.564355187046
 30
0.0
 11
5634.479291876505
 21
3979.685894109001
 31
0.0
  0
LINE
  5
62E78
330
62DF6
100
AcDbEntity
  8
标注
 62
     0
440
 16777216
370
    -2
100
AcDbLine
 10
5563.957636498159
 20
3958.119154457102
 30
0.0
 11
5632.075052152324
 21
3977.694384757217
 31
0.0
  0
INSERT
  5
62E79
330
62DF6
100
AcDbEntity
  8
标注
 62
     0
440
 16777216
370
    -2
100
AcDbBlockReference
  2
_ClosedBlank
 10
5561.55488338521
 20
3957.428663705382
 30
0.0
 41
2.5
 42
2.5
 43
2.5
 50
196.0333185586484
  0
INSERT
  5
62E7A
330
62DF6
100
AcDbEntity
  8
标注
 62
     0
440
 16777216
370
    -2
100
AcDbBlockReference
  2
_ClosedBlank
 10
5634.477805265273
 20
3978.384875508938
 30
0.0
 41
2.5
 42
2.5
 43
2.5
 50
16.03331855864836
  0
MTEXT
  5
62E7B
330
62DF6
100
AcDbEntity
  8
标注
 62
     0
440
 16777216
100
AcDbMText
 10
5591.379578207014
 20
3982.256922433185
 30
0.0
 40
30.0
 41
0.0
 46
0.0
 71
     5
 72
     1
  1
88
  7
样式 1
 11
0.9611012451797918
 21
0.2761963006882127
 31
0.0
 73
     1
 44
1.0
  0
POINT
  5
62E7C
330
62DF6
100
AcDbEntity
  8
Defpoints
 62
     0
440
 16777216
100
AcDbPoint
 10
5561.504068483629
 20
3912.95763408346
 30
0.0
  0
POINT
  5
62E7D
330
62DF6
100
AcDbEntity
  8
Defpoints
 62
     0
440
 16777216
100
AcDbPoint
 10
5634.426990363693
 20
3933.913845887015
 30
0.0
  0
POINT
  5
62E7E
330
62DF6
100
AcDbEntity
  8
Defpoints
 62
     0
440
 16777216
100
AcDbPoint
 10
5634.477805265273
 20
3978.384875508938
 30
0.0
  0
ENDBLK
  5
62E01
330
62DF6
100
AcDbEntity
  8
0
100
AcDbBlockEnd
  0
BLOCK
  5
62EAD
330
62EA2
100
AcDbEntity
  8
0
100
AcDbBlockBegin
  2
*D13
 70
     1
 10
0.0
 20
0.0
 30
0.0
  3
*D13
  1

  0
LINE
  5
62EA3
330
62EA2
100
AcDbEntity
  8
标注
 62
     0
440
 16777216
370
    -2
100
AcDbLine
 10
5573.70532065946
 20
3559.549182017305
 30
0.0
 11
5573.825816298942
 21
3665.001805412932
 31
0.0
  0
ARC
  5
62EA4
330
62EA2
100
AcDbEntity
  8
标注
 62
     0
440
 16777216
370
    -2
100
AcDbCircle
 10
5573.561247277204
 20
3433.46232787421
 30
0.0
 40
230.2896286938194
100
AcDbArc
 50
327.5540289422853
 51
89.31253088419875
  0
INSERT
  5
62EA5
330
62EA2
100
AcDbEntity
  8
标注
 62
     0
440
 16777216
370
    -2
100
AcDbBlockReference
  2
_ClosedBlank
 10
5766.549451366275
 20
3307.808572791393
 30
0.0
 41
2.5
 42
2.5
 43
2.5
 50
237.2430289355274
  0
INSERT
  5
62EA6
330
62EA2
100
AcDbEntity
  8
标注
 62
     0
440
 16777216
370
    -2
100
AcDbBlockReference
  2
_ClosedBlank
 10
5573.824387985011
 20
3663.751806228964
 30
0.0
 41
2.5
 42
2.5
 43
2.5
 50
179.6235308909566
  0
MTEXT
  5
62EA7
330
62EA2
100
AcDbEntity
  8
标注
 62
     0
440
 16777216
100
AcDbMText
 10
5789.811725732531
 20
3550.550906196185
 30
0.0
 40
30.0
 41
0.0
 46
0.0
 71
     5
 72
     1
  1
90%%D
  7
样式 1
 11
0.4761350674577298
 21
-0.8793721609972783
 31
0.0
 73
     1
 44
1.0
  0
POINT
  5
62EA8
330
62EA2
100
AcDbEntity
  8
Defpoints
 62
     0
440
 16777216
100
AcDbPoint
 10
5801.647111718684
 20
3465.245208894024
 30
0.0
  0
POINT
  5
62EA9
330
62EA2
100
AcDbEntity
  8
Defpoints
 62
     0
440
 16777216
100
AcDbPoint
 10
5573.598292213254
 20
3465.882469439397
 30
0.0
  0
POINT
  5
62EAA
330
62EA2
100
AcDbEntity
  8
Defpoints
 62
     0
440
 16777216
100
AcDbPoint
 10
5982.553709148486
 20
3167.169168262374
 30
0.0
  0
POINT
  5
62EAB
330
62EA2
100
AcDbEntity
  8
Defpoints
 62
     0
440
 16777216
100
AcDbPoint
 10
5591.970396307708
 20
3421.476213414622
 30
0.0
  0
POINT
  5
62EAC
330
62EA2
100
AcDbEntity
  8
Defpoints
 62
     0
440
 16777216
100
AcDbPoint
 10
5573.704606502494
 20
3558.924182425322
 30
0.0
  0
ENDBLK
  5
62EAE
330
62EA2
100
AcDbEntity
  8
0
100
AcDbBlockEnd
  0
BLOCK
  5
62ECF
330
62EC5
100
AcDbEntity
  8
0
100
AcDbBlockBegin
  2
*D14
 70
     1
 10
0.0
 20
0.0
 30
0.0
  3
*D14
  1

  0
LINE
  5
62EEC
330
62EC5
100
AcDbEntity
  8
标注
 62
     0
440
 16777216
370
    -2
100
AcDbLine
 10
5547.820348543253
 20
3940.711061906595
 30
0.0
 11
5483.539318680559
 21
3992.854917763552
 31
0.0
  0
LINE
  5
62EED
330
62EC5
100
AcDbEntity
  8
标注
 62
     0
440
 16777216
370
    -2
100
AcDbLine
 10
5538.12414799033
 20
3431.645899856509
 30
0.0
 11
5483.539318680559
 21
3475.924335929875
 31
0.0
  0
LINE
  5
62EEE
330
62EC5
100
AcDbEntity
  8
标注
 62
     0
440
 16777216
370
    -2
100
AcDbLine
 10
5484.789318680558
 20
3989.340935567554
 30
0.0
 11
5484.789318680558
 21
3477.410353733876
 31
0.0
  0
INSERT
  5
62EEF
330
62EC5
100
AcDbEntity
  8
标注
 62
     0
440
 16777216
370
    -2
100
AcDbBlockReference
  2
_ClosedBlank
 10
5484.789318680558
 20
3991.840935567554
 30
0.0
 41
2.5
 42
2.5
 43
2.5
 50
90.0
  0
INSERT
  5
62EF0
330
62EC5
100
AcDbEntity
  8
标注
 62
     0
440
 16777216
370
    -2
100
AcDbBlockReference
  2
_ClosedBlank
 10
5484.789318680558
 20
3474.910353733876
 30
0.0
 41
2.5
 42
2.5
 43
2.5
 50
270.0
  0
MTEXT
  5
62EF1
330
62EC5
100
AcDbEntity
  8
标注
 62
     0
440
 16777216
100
AcDbMText
 10
5469.164318680558
 20
3712.462786332062
 30
0.0
 40
30.0
 41
0.0
 46
0.0
 71
     5
 72
     1
  1
600
  7
样式 1
 11
0.0000000000000001
 21
1.0
 31
0.0
 73
     1
 44
1.0
  0
POINT
  5
62EF2
330
62EC5
100
AcDbEntity
  8
Defpoints
 62
     0
440
 16777216
100
AcDbPoint
 10
5548.445348543253
 20
3940.204070808596
 30
0.0
  0
POINT
  5
62EF3
330
62EC5
100
AcDbEntity
  8
Defpoints
 62
     0
440
 16777216
100
AcDbPoint
 10
5538.749147990331
 20
3431.13890875851
 30
0.0
  0
POINT
  5
62EF4
330
62EC5
100
AcDbEntity
  8
Defpoints
 62
     0
440
 16777216
100
AcDbPoint
 10
5484.789318680558
 20
3474.910353733876
 30
0.0
  0
ENDBLK
  5
62ED0
330
62EC5
100
AcDbEntity
  8
0
100
AcDbBlockEnd
  0
BLOCK
  5
63087
330
63086
100
AcDbEntity
  8
0
100
AcDbBlockBegin
  2
*D15
 70
     1
 10
0.0
 20
0.0
 30
0.0
  3
*D15
  1

  0
LINE
  5
6317F
330
63086
100
AcDbEntity
  8
标注
 62
     0
440
 16777216
370
    -2
100
AcDbLine
 10
4130.161916117973
 20
3282.277612140172
 30
0.0
 11
4006.89354485734
 21
3354.216970085603
 31
0.0
  0
LINE
  5
63180
330
63086
100
AcDbEntity
  8
标注
 62
     0
440
 16777216
370
    -2
100
AcDbLine
 10
3985.301573928975
 20
3366.818033192689
 30
0.0
 11
3983.142376836138
 21
3368.078139503398
 31
0.0
  0
MTEXT
  5
63181
102
{ACAD_XDICTIONARY
360
6352E
102
}
330
63086
100
AcDbEntity
  8
标注
 62
     0
440
 16777216
100
AcDbMText
 10
4104.8013681666
 20
3315.169230395949
 30
0.0
 40
30.0
 41
0.0
 46
0.0
 71
     5
 72
     1
  1
∅20
  7
样式 1
 11
0.8636788371345108
 21
-0.5040425242833972
 31
0.0
 73
     1
 44
1.0
  0
LINE
  5
63182
330
63086
100
AcDbEntity
  8
标注
 62
     0
440
 16777216
370
    -2
100
AcDbLine
 10
3987.460771021811
 20
3365.55792688198
 30
0.0
 11
4004.734347764503
 21
3355.477076396311
 31
0.0
  0
INSERT
  5
63183
330
63086
100
AcDbEntity
  8
标注
 62
     0
440
 16777216
370
    -2
100
AcDbBlockReference
  2
_ClosedBlank
 10
3987.460771021811
 20
3365.55792688198
 30
0.0
 41
2.5
 42
2.5
 43
2.5
 50
329.7321864017811
  0
INSERT
  5
63184
330
63086
100
AcDbEntity
  8
标注
 62
     0
440
 16777216
370
    -2
100
AcDbBlockReference
  2
_ClosedBlank
 10
4004.734347764503
 20
3355.477076396311
 30
0.0
 41
2.5
 42
2.5
 43
2.5
 50
149.732186401781
  0
POINT
  5
63185
330
63086
100
AcDbEntity
  8
Defpoints
 62
     0
440
 16777216
100
AcDbPoint
 10
4004.734347764503
 20
3355.477076396311
 30
0.0
  0
POINT
  5
63186
330
63086
100
AcDbEntity
  8
Defpoints
 62
     0
440
 16777216
100
AcDbPoint
 10
3987.460771021811
 20
3365.55792688198
 30
0.0
  0
ENDBLK
  5
63088
330
63086
100
AcDbEntity
  8
0
100
AcDbBlockEnd
  0
BLOCK
  5
631C7
330
631C6
100
AcDbEntity
  8
0
100
AcDbBlockBegin
  2
*D16
 70
     1
 10
0.0
 20
0.0
 30
0.0
  3
*D16
  1

  0
LINE
  5
631C9
330
631C6
100
AcDbEntity
  8
标注
 62
     0
440
 16777216
370
    -2
100
AcDbLine
 10
3896.097559393156
 20
3495.776501738646
 30
0.0
 11
3896.097559393156
 21
3286.461352614717
 31
0.0
  0
LINE
  5
631CA
330
631C6
100
AcDbEntity
  8
标注
 62
     0
440
 16777216
370
    -2
100
AcDbLine
 10
3996.097559393156
 20
3321.841680168422
 30
0.0
 11
3996.097559393156
 21
3286.461352614717
 31
0.0
  0
LINE
  5
631CB
330
631C6
100
AcDbEntity
  8
标注
 62
     0
440
 16777216
370
    -2
100
AcDbLine
 10
3898.597559393156
 20
3287.711352614717
 30
0.0
 11
3993.597559393156
 21
3287.711352614717
 31
0.0
  0
INSERT
  5
631CC
330
631C6
100
AcDbEntity
  8
标注
 62
     0
440
 16777216
370
    -2
100
AcDbBlockReference
  2
_ClosedBlank
 10
3896.097559393156
 20
3287.711352614717
 30
0.0
 41
2.5
 42
2.5
 43
2.5
 50
180.0
  0
INSERT
  5
631CD
330
631C6
100
AcDbEntity
  8
标注
 62
     0
440
 16777216
370
    -2
100
AcDbBlockReference
  2
_ClosedBlank
 10
3996.097559393156
 20
3287.711352614717
 30
0.0
 41
2.5
 42
2.5
 43
2.5
  0
MTEXT
  5
631CE
330
631C6
100
AcDbEntity
  8
标注
 62
     0
440
 16777216
100
AcDbMText
 10
3946.097559393156
 20
3303.336352614717
 30
0.0
 40
30.0
 41
0.0
 46
0.0
 71
     5
 72
     1
  1
100
  7
样式 1
 73
     1
 44
1.0
  0
POINT
  5
631CF
330
631C6
100
AcDbEntity
  8
Defpoints
 62
     0
440
 16777216
100
AcDbPoint
 10
3896.097559393156
 20
3496.401501738647
 30
0.0
  0
POINT
  5
631D0
330
631C6
100
AcDbEntity
  8
Defpoints
 62
     0
440
 16777216
100
AcDbPoint
 10
3996.097559393156
 20
3322.466680168421
 30
0.0
  0
POINT
  5
631D1
330
631C6
100
AcDbEntity
  8
Defpoints
 62
     0
440
 16777216
100
AcDbPoint
 10
3996.097559393156
 20
3287.711352614717
 30
0.0
  0
ENDBLK
  5
631C8
330
631C6
100
AcDbEntity
  8
0
100
AcDbBlockEnd
  0
BLOCK
  5
6327A
330
63279
100
AcDbEntity
  8
0
100
AcDbBlockBegin
  2
*D17
 70
     1
 10
0.0
 20
0.0
 30
0.0
  3
*D17
  1

  0
LINE
  5
6343B
330
63279
100
AcDbEntity
  8
标注
 62
     0
440
 16777216
370
    -2
100
AcDbLine
 10
5181.810399659063
 20
3071.004806652247
 30
0.0
 11
5181.810399659063
 21
3027.657692318091
 31
0.0
  0
LINE
  5
6343C
330
63279
100
AcDbEntity
  8
标注
 62
     0
440
 16777216
370
    -2
100
AcDbLine
 10
5168.810399659063
 20
3071.004806652247
 30
0.0
 11
5168.810399659063
 21
3027.657692318091
 31
0.0
  0
LINE
  5
6343D
330
63279
100
AcDbEntity
  8
标注
 62
     0
440
 16777216
370
    -2
100
AcDbLine
 10
5179.310399659062
 20
3028.907692318091
 30
0.0
 11
5171.310399659063
 21
3028.907692318091
 31
0.0
  0
LINE
  5
6343E
330
63279
100
AcDbEntity
  8
标注
 62
     0
440
 16777216
370
    -2
100
AcDbLine
 10
5168.810399659063
 20
3028.907692318091
 30
0.0
 11
5122.20325680192
 21
3028.907692318091
 31
0.0
  0
INSERT
  5
6343F
330
63279
100
AcDbEntity
  8
标注
 62
     0
440
 16777216
370
    -2
100
AcDbBlockReference
  2
_ClosedBlank
 10
5181.810399659063
 20
3028.907692318091
 30
0.0
 41
2.5
 42
2.5
 43
2.5
  0
INSERT
  5
63440
330
63279
100
AcDbEntity
  8
标注
 62
     0
440
 16777216
370
    -2
100
AcDbBlockReference
  2
_ClosedBlank
 10
5168.810399659063
 20
3028.907692318091
 30
0.0
 41
2.5
 42
2.5
 43
2.5
 50
180.0
  0
MTEXT
  5
63441
330
63279
100
AcDbEntity
  8
标注
 62
     0
440
 16777216
100
AcDbMText
 10
5144.256828230492
 20
3044.532692318091
 30
0.0
 40
30.0
 41
0.0
 46
0.0
 71
     5
 72
     1
  1
13
  7
样式 1
 73
     1
 44
1.0
  0
POINT
  5
63442
330
63279
100
AcDbEntity
  8
Defpoints
 62
     0
440
 16777216
100
AcDbPoint
 10
5181.810399659063
 20
3071.629806652247
 30
0.0
  0
POINT
  5
63443
330
63279
100
AcDbEntity
  8
Defpoints
 62
     0
440
 16777216
100
AcDbPoint
 10
5168.810399659063
 20
3071.629806652247
 30
0.0
  0
POINT
  5
63444
330
63279
100
AcDbEntity
  8
Defpoints
 62
     0
440
 16777216
100
AcDbPoint
 10
5168.810399659063
 20
3028.907692318091
 30
0.0
  0
ENDBLK
  5
6327B
330
63279
100
AcDbEntity
  8
0
100
AcDbBlockEnd
  0
BLOCK
  5
63287
330
63286
100
AcDbEntity
  8
0
100
AcDbBlockBegin
  2
*D18
 70
     1
 10
0.0
 20
0.0
 30
0.0
  3
*D18
  1

  0
LINE
  5
63445
330
63286
100
AcDbEntity
  8
标注
 62
     0
440
 16777216
370
    -2
100
AcDbLine
 10
5315.794994074498
 20
3308.535722392262
 30
0.0
 11
5250.826858011487
 21
3206.99228059272
 31
0.0
  0
LINE
  5
63446
330
63286
100
AcDbEntity
  8
标注
 62
     0
440
 16777216
370
    -2
100
AcDbLine
 10
5230.993941306635
 20
3175.993967493803
 30
0.0
 11
5229.646596421795
 21
3173.888103832192
 31
0.0
  0
MTEXT
  5
63447
102
{ACAD_XDICTIONARY
360
63530
102
}
330
63286
100
AcDbEntity
  8
标注
 62
     0
440
 16777216
100
AcDbMText
 10
5271.885011138962
 20
3268.89781078789
 30
0.0
 40
30.0
 41
0.0
 46
0.0
 71
     5
 72
     1
  1
∅31.8
  7
样式 1
 11
0.5389379539361761
 21
0.842345464644458
 31
0.0
 73
     1
 44
1.0
  0
LINE
  5
63448
330
63286
100
AcDbEntity
  8
标注
 62
     0
440
 16777216
370
    -2
100
AcDbLine
 10
5232.341286191476
 20
3178.099831155415
 30
0.0
 11
5249.479513126646
 21
3204.886416931108
 31
0.0
  0
INSERT
  5
63449
330
63286
100
AcDbEntity
  8
标注
 62
     0
440
 16777216
370
    -2
100
AcDbBlockReference
  2
_ClosedBlank
 10
5232.341286191476
 20
3178.099831155415
 30
0.0
 41
2.5
 42
2.5
 43
2.5
 50
57.38863000208875
  0
INSERT
  5
6344A
330
63286
100
AcDbEntity
  8
标注
 62
     0
440
 16777216
370
    -2
100
AcDbBlockReference
  2
_ClosedBlank
 10
5249.479513126646
 20
3204.886416931108
 30
0.0
 41
2.5
 42
2.5
 43
2.5
 50
237.3886300020887
  0
POINT
  5
6344B
330
63286
100
AcDbEntity
  8
Defpoints
 62
     0
440
 16777216
100
AcDbPoint
 10
5249.479513126646
 20
3204.886416931108
 30
0.0
  0
POINT
  5
6344C
330
63286
100
AcDbEntity
  8
Defpoints
 62
     0
440
 16777216
100
AcDbPoint
 10
5232.341286191476
 20
3178.099831155415
 30
0.0
  0
ENDBLK
  5
63288
330
63286
100
AcDbEntity
  8
0
100
AcDbBlockEnd
  0
BLOCK
  5
63292
330
63291
100
AcDbEntity
  8
0
100
AcDbBlockBegin
  2
*D19
 70
     1
 10
0.0
 20
0.0
 30
0.0
  3
*D19
  1

  0
LINE
  5
6344D
330
63291
100
AcDbEntity
  8
标注
 62
     0
440
 16777216
370
    -2
100
AcDbLine
 10
5380.309160315727
 20
3165.581110384155
 30
0.0
 11
5257.919046036128
 21
3188.331487059052
 31
0.0
  0
LINE
  5
6344E
330
63291
100
AcDbEntity
  8
标注
 62
     0
440
 16777216
370
    -2
100
AcDbLine
 10
5223.901753281998
 20
3194.654761027476
 30
0.0
 11
5221.4438564067
 21
3195.111644984732
 31
0.0
  0
MTEXT
  5
6344F
102
{ACAD_XDICTIONARY
360
63532
102
}
330
63291
100
AcDbEntity
  8
标注
 62
     0
440
 16777216
100
AcDbMText
 10
5324.965198322761
 20
3191.761325271228
 30
0.0
 40
30.0
 41
0.0
 46
0.0
 71
     5
 72
     1
  1
∅29.6
  7
样式 1
 11
0.9831587501193894
 21
-0.1827535829024425
 31
0.0
 73
     1
 44
1.0
  0
LINE
  5
63450
330
63291
100
AcDbEntity
  8
标注
 62
     0
440
 16777216
370
    -2
100
AcDbLine
 10
5226.359650157297
 20
3194.197877070219
 30
0.0
 11
5255.461149160829
 21
3188.788371016307
 31
0.0
  0
INSERT
  5
63451
330
63291
100
AcDbEntity
  8
标注
 62
     0
440
 16777216
370
    -2
100
AcDbBlockReference
  2
_ClosedBlank
 10
5226.359650157297
 20
3194.197877070219
 30
0.0
 41
2.5
 42
2.5
 43
2.5
 50
349.4698105204338
  0
INSERT
  5
63452
330
63291
100
AcDbEntity
  8
标注
 62
     0
440
 16777216
370
    -2
100
AcDbBlockReference
  2
_ClosedBlank
 10
5255.461149160829
 20
3188.788371016307
 30
0.0
 41
2.5
 42
2.5
 43
2.5
 50
169.4698105204338
  0
POINT
  5
63453
330
63291
100
AcDbEntity
  8
Defpoints
 62
     0
440
 16777216
100
AcDbPoint
 10
5255.461149160829
 20
3188.788371016307
 30
0.0
  0
POINT
  5
63454
330
63291
100
AcDbEntity
  8
Defpoints
 62
     0
440
 16777216
100
AcDbPoint
 10
5226.359650157297
 20
3194.197877070219
 30
0.0
  0
ENDBLK
  5
63293
330
63291
100
AcDbEntity
  8
0
100
AcDbBlockEnd
  0
BLOCK
  5
6329D
330
6329C
100
AcDbEntity
  8
0
100
AcDbBlockBegin
  2
*D20
 70
     1
 10
0.0
 20
0.0
 30
0.0
  3
*D20
  1

  0
LINE
  5
63455
330
6329C
100
AcDbEntity
  8
标注
 62
     0
440
 16777216
370
    -2
100
AcDbLine
 10
5316.570226347272
 20
3113.43182526774
 30
0.0
 11
5240.511847255692
 21
3140.977737971733
 31
0.0
  0
MTEXT
  5
63456
330
6329C
100
AcDbEntity
  8
标注
 62
     0
440
 16777216
100
AcDbMText
 10
5285.037010345059
 20
3141.470315353921
 30
0.0
 40
30.0
 41
0.0
 46
0.0
 71
     5
 72
     1
  1
R46
  7
样式 1
 11
0.9402360329202052
 21
-0.3405234241553359
 31
0.0
 73
     1
 44
1.0
  0
LINE
  5
63457
330
6329C
100
AcDbEntity
  8
标注
 62
     0
440
 16777216
370
    -2
100
AcDbLine
 10
5194.910399659069
 20
3157.493124043265
 30
0.0
 11
5238.161257173391
 21
3141.829046532122
 31
0.0
  0
INSERT
  5
63458
330
6329C
100
AcDbEntity
  8
标注
 62
     0
440
 16777216
370
    -2
100
AcDbBlockReference
  2
_ClosedBlank
 10
5238.161257173391
 20
3141.829046532122
 30
0.0
 41
2.5
 42
2.5
 43
2.5
 50
160.0912329021509
  0
ARC
  5
63459
330
6329C
100
AcDbEntity
  8
标注
 62
     0
440
 16777216
370
    -2
100
AcDbCircle
 10
5194.910399659069
 20
3157.493124043265
 30
0.0
 40
45.99999999999272
100
AcDbArc
 50
270.7784752651235
 51
341.6481834323974
  0
POINT
  5
6345A
330
6329C
100
AcDbEntity
  8
Defpoints
 62
     0
440
 16777216
100
AcDbPoint
 10
5238.161257173391
 20
3141.829046532122
 30
0.0
  0
POINT
  5
6345B
330
6329C
100
AcDbEntity
  8
Defpoints
 62
     0
440
 16777216
100
AcDbPoint
 10
5194.910399659069
 20
3157.493124043265
 30
0.0
  0
ENDBLK
  5
6329E
330
6329C
100
AcDbEntity
  8
0
100
AcDbBlockEnd
  0
BLOCK
  5
632A6
330
632A5
100
AcDbEntity
  8
0
100
AcDbBlockBegin
  2
*D21
 70
     1
 10
0.0
 20
0.0
 30
0.0
  3
*D21
  1

  0
LINE
  5
6345C
330
632A5
100
AcDbEntity
  8
标注
 62
     0
440
 16777216
370
    -2
100
AcDbLine
 10
5122.257794516416
 20
3191.493124043264
 30
0.0
 11
5054.508637396859
 21
3191.493124043264
 31
0.0
  0
LINE
  5
6345D
330
632A5
100
AcDbEntity
  8
标注
 62
     0
440
 16777216
370
    -2
100
AcDbLine
 10
5137.174271265998
 20
3111.493124043264
 30
0.0
 11
5054.508637396859
 21
3111.493124043264
 31
0.0
  0
LINE
  5
6345E
330
632A5
100
AcDbEntity
  8
标注
 62
     0
440
 16777216
370
    -2
100
AcDbLine
 10
5055.758637396859
 20
3188.993124043264
 30
0.0
 11
5055.758637396859
 21
3113.993124043264
 31
0.0
  0
INSERT
  5
6345F
330
632A5
100
AcDbEntity
  8
标注
 62
     0
440
 16777216
370
    -2
100
AcDbBlockReference
  2
_ClosedBlank
 10
5055.758637396859
 20
3191.493124043264
 30
0.0
 41
2.5
 42
2.5
 43
2.5
 50
90.0
  0
INSERT
  5
63460
330
632A5
100
AcDbEntity
  8
标注
 62
     0
440
 16777216
370
    -2
100
AcDbBlockReference
  2
_ClosedBlank
 10
5055.758637396859
 20
3111.493124043264
 30
0.0
 41
2.5
 42
2.5
 43
2.5
 50
270.0
  0
MTEXT
  5
63461
330
632A5
100
AcDbEntity
  8
标注
 62
     0
440
 16777216
100
AcDbMText
 10
5040.133637396858
 20
3151.493124043265
 30
0.0
 40
30.0
 41
0.0
 46
0.0
 71
     5
 72
     1
  1
80
  7
样式 1
 11
0.0000000000000001
 21
1.0
 31
0.0
 73
     1
 44
1.0
  0
POINT
  5
63462
330
632A5
100
AcDbEntity
  8
Defpoints
 62
     0
440
 16777216
100
AcDbPoint
 10
5122.882794516415
 20
3191.493124043264
 30
0.0
  0
POINT
  5
63463
330
632A5
100
AcDbEntity
  8
Defpoints
 62
     0
440
 16777216
100
AcDbPoint
 10
5137.799271265998
 20
3111.493124043264
 30
0.0
  0
POINT
  5
63464
330
632A5
100
AcDbEntity
  8
Defpoints
 62
     0
440
 16777216
100
AcDbPoint
 10
5055.758637396859
 20
3111.493124043264
 30
0.0
  0
ENDBLK
  5
632A7
330
632A5
100
AcDbEntity
  8
0
100
AcDbBlockEnd
  0
ENDSEC
  0
SECTION
  2
ENTITIES
  0
HATCH
  5
47A0
330
2
100
AcDbEntity
  8
标注
100
AcDbHatch
 10
0.0
 20
0.0
 30
0.0
210
0.0
220
0.0
230
1.0
  2
ANSI31
 70
     0
 71
     0
 91
        1
 92
        7
 72
     0
 73
     1
 93
        6
 10
808.9637528631646
 20
341.4077636669027
 10
807.9637528631646
 20
340.4077636669027
 10
807.9637528631646
 20
340.3827697704183
 10
808.9637528631646
 20
340.3827697704183
 10
817.9637528631646
 20
340.3827697704183
 10
817.9637528631646
 20
341.4077636669027
 97
        0
 75
     0
 76
     1
 52
0.0
 41
1.0
 77
     0
 78
     1
 53
45.0
 43
0.0
 44
0.0
 45
-57.02462636878911
 46
57.02462636878912
 79
     0
 47
0.0
 98
        2
 10
811.6304195298312
 20
290.00483008513
 10
814.540916511757
 20
290.1885128832553
  0
HATCH
  5
47AF
330
2
100
AcDbEntity
  8
标注
100
AcDbHatch
 10
0.0
 20
0.0
 30
0.0
210
0.0
220
0.0
230
1.0
  2
ANSI31
 70
     0
 71
     0
 91
        1
 92
        7
 72
     0
 73
     1
 93
        6
 10
807.9637528631646
 20
340.4077636669027
 10
807.9637528631646
 20
340.3827697704183
 10
808.9637528631646
 20
340.3827697704183
 10
817.9637528631646
 20
340.3827697704183
 10
817.9637528631646
 20
341.4077636669027
 10
808.9637528631646
 20
341.4077636669027
 97
        0
 75
     0
 76
     1
 52
0.0
 41
1.0
 77
     0
 78
     1
 53
45.0
 43
0.0
 44
0.0
 45
-57.02462636878911
 46
57.02462636878912
 79
     0
 47
0.0
 98
        2
 10
811.6304195298312
 20
290.00483008513
 10
815.1155934479202
 20
290.0208102015142
  0
HATCH
  5
47C4
330
2
100
AcDbEntity
  8
标注
100
AcDbHatch
 10
0.0
 20
0.0
 30
0.0
210
0.0
220
0.0
230
1.0
  2
ANSI31
 70
     0
 71
     0
 91
        1
 92
        7
 72
     0
 73
     1
 93
        6
 10
807.9637528631646
 20
340.4077636669027
 10
807.9637528631646
 20
340.3827697704183
 10
808.9637528631646
 20
340.3827697704183
 10
817.9637528631646
 20
340.3827697704183
 10
817.9637528631646
 20
341.4077636669027
 10
808.9637528631646
 20
341.4077636669027
 97
        0
 75
     0
 76
     1
 52
0.0
 41
1.0
 77
     0
 78
     1
 53
45.0
 43
0.0
 44
0.0
 45
-57.02462636878911
 46
57.02462636878912
 79
     0
 47
0.0
 98
        2
 10
811.6304195298312
 20
290.00483008513
 10
811.6304195298312
 20
290.00483008513
  0
HATCH
  5
7FDE
330
2
100
AcDbEntity
  8
剖面线
100
AcDbHatch
 10
0.0
 20
0.0
 30
0.0
210
0.0
220
0.0
230
1.0
  2
ANSI31
 70
     0
 71
     1
 91
        0
 75
     0
 76
     1
 52
0.0
 41
0.25
 77
     0
 78
     1
 53
45.0
 43
0.0
 44
0.0
 45
-0.5612660075668221
 46
0.5612660075668221
 79
     0
 98
        1
 10
267.1978866720704
 20
1009.396111914461
  0
HATCH
  5
807B
330
2
100
AcDbEntity
  8
剖面线
100
AcDbHatch
 10
0.0
 20
0.0
 30
0.0
210
0.0
220
0.0
230
1.0
  2
ANSI31
 70
     0
 71
     1
 91
        0
 75
     0
 76
     1
 52
0.0
 41
0.25
 77
     0
 78
     1
 53
45.0
 43
0.0
 44
0.0
 45
-0.5612660075668221
 46
0.5612660075668221
 79
     0
 98
        1
 10
260.9063311437414
 20
1015.611866868925
  0
HATCH
  5
80BB
330
2
100
AcDbEntity
  8
0
100
AcDbHatch
 10
0.0
 20
0.0
 30
0.0
210
0.0
220
0.0
230
1.0
  2
ANSI31
 70
     0
 71
     1
 91
        0
 75
     0
 76
     1
 52
0.0
 41
0.25
 77
     0
 78
     1
 53
45.0
 43
0.0
 44
0.0
 45
-0.5612660075668221
 46
0.5612660075668221
 79
     0
 98
        1
 10
0.0
 20
0.0
  0
HATCH
  5
8127
330
2
100
AcDbEntity
  8
0
100
AcDbHatch
 10
0.0
 20
0.0
 30
0.0
210
0.0
220
0.0
230
1.0
  2
ANSI31
 70
     0
 71
     1
 91
        0
 75
     0
 76
     1
 52
0.0
 41
0.25
 77
     0
 78
     1
 53
45.0
 43
0.0
 44
0.0
 45
-0.5612660075668221
 46
0.5612660075668221
 79
     0
 98
        1
 10
0.0
 20
0.0
  0
HATCH
  5
8151
330
2
100
AcDbEntity
  8
0
100
AcDbHatch
 10
0.0
 20
0.0
 30
0.0
210
0.0
220
0.0
230
1.0
  2
ANSI31
 70
     0
 71
     1
 91
        0
 75
     0
 76
     1
 52
0.0
 41
0.25
 77
     0
 78
     1
 53
45.0
 43
0.0
 44
0.0
 45
-0.5612660075668221
 46
0.5612660075668221
 79
     0
 98
        1
 10
0.0
 20
0.0
  0
HATCH
  5
8184
330
2
100
AcDbEntity
  8
剖面线
100
AcDbHatch
 10
0.0
 20
0.0
 30
0.0
210
0.0
220
0.0
230
1.0
  2
ANSI31
 70
     0
 71
     0
 91
        0
 75
     0
 76
     1
 52
0.0
 41
0.25
 77
     0
 78
     1
 53
45.00000000000436
 43
1662.819978524104
 44
0.3206117319112991
 45
-0.5612660075669284
 46
0.5612660075668221
 79
     0
 98
        2
 10
2060.042234542995
 20
923.3992186555811
 10
2042.482776698473
 20
923.3050660666023
  0
HATCH
  5
81A8
330
2
100
AcDbEntity
  8
0
100
AcDbHatch
 10
0.0
 20
0.0
 30
0.0
210
0.0
220
0.0
230
1.0
  2
ANSI31
 70
     0
 71
     1
 91
        0
 75
     0
 76
     1
 52
0.0
 41
0.1
 77
     0
 78
     1
 53
45.0
 43
0.0
 44
0.0
 45
-0.2245064030267288
 46
0.2245064030267288
 79
     0
 98
        1
 10
0.0
 20
0.0
  0
HATCH
  5
81BF
330
2
100
AcDbEntity
  8
0
100
AcDbHatch
 10
0.0
 20
0.0
 30
0.0
210
0.0
220
0.0
230
1.0
  2
ANSI31
 70
     0
 71
     1
 91
        0
 75
     0
 76
     1
 52
0.0
 41
0.1
 77
     0
 78
     1
 53
45.0
 43
0.0
 44
0.0
 45
-0.2245064030267288
 46
0.2245064030267288
 79
     0
 98
        1
 10
0.0
 20
0.0
  0
HATCH
  5
81C7
330
2
100
AcDbEntity
  8
0
100
AcDbHatch
 10
0.0
 20
0.0
 30
0.0
210
0.0
220
0.0
230
1.0
  2
ANSI31
 70
     0
 71
     1
 91
        0
 75
     0
 76
     1
 52
0.0
 41
0.25
 77
     0
 78
     1
 53
45.0
 43
0.0
 44
0.0
 45
-0.5612660075668221
 46
0.5612660075668221
 79
     0
 98
        1
 10
0.0
 20
0.0
  0
HATCH
  5
8D7A
330
2
100
AcDbEntity
  8
标注
100
AcDbHatch
 10
0.0
 20
0.0
 30
0.0
210
0.0
220
0.0
230
1.0
  2
ANSI31
 70
     0
 71
     0
 91
        1
 92
       10
 72
     0
 73
     1
 93
        4
 10
2048.785847868912
 20
971.5216843808956
 10
2048.785847868912
 20
966.6558651718558
 10
2053.651667077952
 20
966.6558651718558
 10
2053.651667077952
 20
971.5216843808956
 97
        0
 75
     0
 76
     1
 52
0.0
 41
0.25
 77
     0
 78
     1
 53
45.0
 43
0.0
 44
0.0
 45
-0.5612660075668221
 46
0.5612660075668221
 79
     0
 98
        1
 10
0.0
 20
0.0
  0
HATCH
  5
8ED7
330
2
100
AcDbEntity
  8
标注
100
AcDbHatch
 10
0.0
 20
0.0
 30
0.0
210
0.0
220
0.0
230
1.0
  2
ANSI31
 70
     0
 71
     1
 91
        0
 75
     0
 76
     1
 52
0.0
 41
0.25
 77
     0
 78
     1
 53
45.0
 43
0.0
 44
0.0
 45
-0.5612660075668221
 46
0.5612660075668221
 79
     0
 98
        1
 10
0.0
 20
0.0
  0
MTEXT
  5
47027
330
2
100
AcDbEntity
  8
标注
100
AcDbMText
 10
851.2901663856801
 20
335.199601009439
 30
0.0
 40
6.0
 41
13.70396488517739
 46
0.0
 71
     1
 72
     1
  1

 73
     1
 44
1.0
  0
LINE
  5
62645
330
2
100
AcDbEntity
  8
0
  6
Continuous
 62
     7
100
AcDbLine
 10
6056.58315928702
 20
3135.795114060476
 30
0.0
 11
6065.15067105046
 21
3138.257201241231
 31
0.0
  0
LINE
  5
62646
330
2
100
AcDbEntity
  8
0
  6
Continuous
 62
     7
100
AcDbLine
 10
6053.827675960796
 20
3145.383578675339
 30
0.0
 11
6034.056494976669
 21
3139.701839029863
 31
0.0
  0
LINE
  5
62647
330
2
100
AcDbEntity
  8
0
  6
Continuous
 62
     7
100
AcDbLine
 10
6046.873360891563
 20
3169.583037016233
 30
0.0
 11
6027.102179907434
 21
3163.901297370758
 31
0.0
  0
LINE
  5
62648
330
2
100
AcDbEntity
  8
0
  6
Continuous
 62
     7
100
AcDbLine
 10
6044.117877565366
 20
3179.171501631002
 30
0.0
 11
6052.685389328808
 21
3181.633588811757
 31
0.0
  0
LINE
  5
6264D
330
2
100
AcDbEntity
  8
0
  6
Continuous
 62
     7
100
AcDbLine
 10
5982.553709148486
 20
3167.169168262373
 30
0.0
 11
5591.970396307706
 21
3421.476213414622
 31
0.0
  0
LINE
  5
6264F
330
2
100
AcDbEntity
  8
0
  6
Continuous
 62
     7
100
AcDbLine
 10
5968.815263589106
 20
3146.068661258115
 30
0.0
 11
5658.624736461689
 21
3348.032323797248
 31
0.0
  0
LINE
  5
62650
330
2
100
AcDbEntity
  8
0
  6
Continuous
 62
     7
100
AcDbLine
 10
5573.598292213254
 20
3465.882469439396
 30
0.0
 11
5573.704606502493
 21
3558.924182425321
 31
0.0
  0
LINE
  5
62651
330
2
100
AcDbEntity
  8
0
  6
Continuous
 62
     7
100
AcDbLine
 10
5573.726104212699
 20
3577.738069421981
 30
0.0
 11
5574.048818916319
 21
3860.164180839152
 31
0.0
  0
LINE
  5
62652
330
2
100
AcDbEntity
  8
0
  6
Continuous
 62
     7
100
AcDbLine
 10
5548.419423022387
 20
3465.911240105582
 30
0.0
 11
5548.869949725506
 21
3860.192951505149
 31
0.0
  0
LINE
  5
62653
330
2
100
AcDbEntity
  8
0
  6
Continuous
 62
     7
100
AcDbLine
 10
5620.453976462206
 20
3887.599504339399
 30
0.0
 11
5629.021488225646
 21
3890.061591520154
 31
0.0
  0
LINE
  5
62654
330
2
100
AcDbEntity
  8
0
  6
Continuous
 62
     7
100
AcDbLine
 10
5617.69849313601
 20
3897.187968954167
 30
0.0
 11
5596.330988001267
 21
3891.047485937678
 31
0.0
  0
LINE
  5
62655
330
2
100
AcDbEntity
  8
0
  6
Continuous
 62
     7
100
AcDbLine
 10
5610.744178066777
 20
3921.387427295061
 30
0.0
 11
5589.376672932034
 21
3915.246944278573
 31
0.0
  0
LINE
  5
62656
330
2
100
AcDbEntity
  8
0
  6
Continuous
 62
     7
100
AcDbLine
 10
5607.988694740581
 20
3930.97589190983
 30
0.0
 11
5616.556206504021
 21
3933.437979090584
 31
0.0
  0
SPLINE
  5
62657
330
2
100
AcDbEntity
  8
0
  6
Continuous
 62
     7
100
AcDbSpline
210
0.0
220
0.0
230
1.0
 70
  1064
 71
     3
 72
     9
 73
     5
 74
     3
 42
0.000000001
 43
0.0000000001
 44
0.0000000001
 12
0.8380238624113145
 22
-0.5456335822044152
 32
0.0
 13
0.9631070494944687
 23
0.2691185820675698
 33
0.0
 40
0.0
 40
0.0
 40
0.0
 40
0.0
 40
3.819077522051682
 40
6.556245900079574
 40
6.556245900079574
 40
6.556245900079574
 40
6.556245900079574
 10
5614.198092499334
 20
3888.946320077479
 30
0.0
 10
5615.264918531293
 20
3888.251714427788
 30
0.0
 10
5617.309154237228
 20
3887.280068462212
 30
0.0
 10
5619.578237420173
 20
3887.358354841112
 30
0.0
 10
5620.45696614035
 20
3887.603895798704
 30
0.0
 11
5614.198092499334
 21
3888.946320077479
 31
0.0
 11
5617.722787939669
 21
3887.475988423627
 31
0.0
 11
5620.45696614035
 21
3887.603895798704
 31
0.0
  0
SPLINE
  5
62659
330
2
100
AcDbEntity
  8
0
  6
Continuous
 62
     7
100
AcDbSpline
210
0.0
220
0.0
230
1.0
 70
  1064
 71
     3
 72
     9
 73
     5
 74
     3
 42
0.000000001
 43
0.0000000001
 44
0.0000000001
 12
-0.8380238624113145
 22
0.5456335822044152
 32
0.0
 13
-0.9631070494944687
 23
-0.2691185820675698
 33
0.0
 40
0.0
 40
0.0
 40
0.0
 40
0.0
 40
3.819077538870341
 40
6.556245916921069
 40
6.556245916921069
 40
6.556245916921069
 40
6.556245916921069
 10
5622.812090474327
 20
3932.091163326638
 30
0.0
 10
5621.74526443767
 20
3932.785768979388
 30
0.0
 10
5619.701028737594
 20
3933.757414974294
 30
0.0
 10
5617.431945546035
 20
3933.679128588968
 30
0.0
 10
5616.553216825851
 20
3933.433587631374
 30
0.0
 11
5622.812090474327
 21
3932.091163326638
 31
0.0
 11
5619.287395026558
 21
3933.561495006355
 31
0.0
 11
5616.553216825851
 21
3933.433587631374
 31
0.0
  0
SPLINE
  5
6265B
330
2
100
AcDbEntity
  8
0
  6
Continuous
 62
     7
100
AcDbSpline
210
0.0
220
0.0
230
1.0
 70
  1064
 71
     3
 72
    11
 73
     7
 74
     5
 42
0.000000001
 43
0.0000000001
 44
0.0000000001
 12
0.9591335949699889
 22
0.2829536128059602
 32
0.0
 13
0.0011426505929852
 23
0.999999347174598
 33
0.0
 40
0.0
 40
0.0
 40
0.0
 40
0.0
 40
2.176266987903139
 40
5.86744541690715
 40
10.42007297258374
 40
15.84535705397295
 40
15.84535705397295
 40
15.84535705397295
 40
15.84535705397295
 10
6065.144637094678
 20
3138.266162659061
 30
0.0
 10
6065.840414021252
 20
3138.471423527947
 30
0.0
 10
6067.635566982776
 20
3139.3717000553
 30
0.0
 10
6069.778223216073
 20
3142.264831950115
 30
0.0
 10
6071.152441301819
 20
3146.652088460543
 30
0.0
 10
6071.423406946649
 20
3149.993427976638
 30
0.0
 10
6071.425473348007
 20
3151.80185482318
 30
0.0
 11
6065.144637094678
 21
3138.266162659061
 31
0.0
 11
6067.091097625636
 21
3139.239522512383
 31
0.0
 11
6069.427394780168
 21
3142.097233799491
 31
0.0
 11
6070.912285694145
 21
3146.400896964087
 31
0.0
 11
6071.425473348007
 21
3151.80185482318
 31
0.0
  0
SPLINE
  5
6265C
330
2
100
AcDbEntity
  8
0
  6
Continuous
 62
     7
100
AcDbSpline
210
0.0
220
0.0
230
1.0
 70
  1064
 71
     3
 72
    12
 73
     8
 74
     6
 42
0.000000001
 43
0.0000000001
 44
0.0000000001
 12
0.5686783278323225
 22
-0.8225600035583019
 32
0.0
 13
0.9591335953463012
 23
0.2829536115303671
 33
0.0
 40
0.0
 40
0.0
 40
0.0
 40
0.0
 40
0.516779544829983
 40
5.666261336069949
 40
9.91433787299244
 40
13.38302354622627
 40
14.45514386512287
 40
14.45514386512287
 40
14.45514386512287
 40
14.45514386512287
 10
6044.836115925385
 20
3142.785659879967
 30
0.0
 10
6044.934076367856
 20
3142.643965818555
 30
0.0
 10
6046.020973995146
 20
3141.099712006188
 30
0.0
 10
6048.188465272357
 20
3138.566724628966
 30
0.0
 10
6051.739916609131
 20
3136.061535982829
 30
0.0
 10
6054.738864834177
 20
3135.40349103128
 30
0.0
 10
6056.234356433524
 20
3135.702955365518
 30
0.0
 10
6056.577125305559
 20
3135.804075470927
 30
0.0
 11
6044.836115925385
 21
3142.785659879967
 31
0.0
 11
6045.133596089063
 21
3142.363088406518
 31
0.0
 11
6048.547517153687
 21
3138.507922303374
 31
0.0
 11
6052.107506662384
 21
3136.190029087214
 31
0.0
 11
6055.525155406864
 21
3135.597190695195
 31
0.0
 11
6056.577125305559
 21
3135.804075470927
 31
0.0
  0
SPLINE
  5
6265D
330
2
100
AcDbEntity
  8
0
  6
Continuous
 62
     7
100
AcDbSpline
210
0.0
220
0.0
230
1.0
 70
  1064
 71
     3
 72
    15
 73
    11
 74
     9
 42
0.000000001
 43
0.0000000001
 44
0.0000000001
 12
0.0011426507418328
 22
0.9999993471744282
 32
0.0
 13
-0.9591335951600779
 23
-0.282953612161612
 33
0.0
 40
0.0
 40
0.0
 40
0.0
 40
0.0
 40
6.081296221203871
 40
12.48248407842737
 40
18.81849787829121
 40
24.71386218431167
 40
29.86334397555232
 40
34.11142049498308
 40
37.58010620399884
 40
38.65222652060293
 40
38.65222652060293
 40
38.65222652060293
 40
38.65222652060293
 10
6071.425473348007
 20
3151.80185482318
 30
0.0
 10
6071.427789613887
 20
3153.828952240239
 30
0.0
 10
6071.057218028538
 20
3157.994318443817
 30
0.0
 10
6069.600838551753
 20
3164.115086239865
 30
0.0
 10
6067.329048537814
 20
3169.918841824276
 30
0.0
 10
6064.420341200837
 20
3174.958845826856
 30
0.0
 10
6061.08072318196
 20
3178.861152124261
 30
0.0
 10
6057.528501268101
 20
3181.367335684708
 30
0.0
 10
6054.529693501214
 20
3182.025199341022
 30
0.0
 10
6053.03419218891
 20
3181.725747480951
 30
0.0
 10
6052.691423317674
 20
3181.624627375533
 30
0.0
 11
6071.425473348007
 21
3151.80185482318
 31
0.0
 11
6070.925382361556
 21
3157.862553853432
 31
0.0
 11
6069.452527115858
 21
3164.091992303942
 31
0.0
 11
6067.126229568478
 21
3169.985498102116
 31
0.0
 11
6064.134952534198
 21
3175.065614439848
 31
0.0
 11
6060.721031469573
 21
3178.920780542992
 31
0.0
 11
6057.161041986553
 21
3181.238673766532
 31
0.0
 11
6053.743393208964
 21
3181.831512177038
 31
0.0
 11
6052.691423317674
 21
3181.624627375533
 31
0.0
  0
SPLINE
  5
6265E
330
2
100
AcDbEntity
  8
0
  6
Continuous
 62
     7
100
AcDbSpline
210
0.0
220
0.0
230
1.0
 70
  1064
 71
     3
 72
    11
 73
     7
 74
     5
 42
0.000000001
 43
0.0000000001
 44
0.0000000001
 12
-0.9591335952815487
 22
-0.2829536117498593
 32
0.0
 13
-0.045158009403476
 23
-0.9989798567472297
 33
0.0
 40
0.0
 40
0.0
 40
0.0
 40
0.0
 40
2.176267009634312
 40
5.867445416295003
 40
10.42007297213117
 40
14.44601238063636
 40
14.44601238063636
 40
14.44601238063636
 40
14.44601238063636
 10
6044.12391155461
 20
3179.162540194886
 30
0.0
 10
6043.428134620863
 20
3178.957279324717
 30
0.0
 10
6041.632981053108
 20
3178.056974242146
 30
0.0
 10
6039.490329361053
 20
3175.164065450064
 30
0.0
 10
6038.25677289343
 20
3171.224900690352
 30
0.0
 10
6037.935577152232
 20
3168.371348905303
 30
0.0
 10
6037.874976015677
 20
3167.03073811411
 30
0.0
 11
6044.12391155461
 21
3179.162540194886
 31
0.0
 11
6042.177450990164
 21
3178.189180359944
 31
0.0
 11
6039.841153861658
 21
3175.331469080418
 31
0.0
 11
6038.356262947738
 21
3171.027805915634
 31
0.0
 11
6037.874976015677
 21
3167.03073811411
 31
0.0
  0
SPLINE
  5
6265F
330
2
100
AcDbEntity
  8
0
  6
Continuous
 62
     7
100
AcDbSpline
210
0.0
220
0.0
230
1.0
 70
  1064
 71
     3
 72
    14
 73
    10
 74
     8
 42
0.000000001
 43
0.0000000001
 44
0.0000000001
 12
-0.9611012451797941
 22
-0.2761963006882044
 32
0.0
 13
-0.8380238623173859
 23
0.5456335823486774
 33
0.0
 40
0.0
 40
0.0
 40
0.0
 40
0.0
 40
9.625353045974465
 40
19.44753915169876
 40
29.34886950142285
 40
39.18613261704118
 40
48.83681769336785
 40
58.2193247777166
 40
67.18939079815183
 40
67.18939079815183
 40
67.18939079815183
 40
67.18939079815183
 10
6034.056494976669
 20
3139.701839029863
 30
0.0
 10
6030.972848710741
 20
3138.815676728491
 30
0.0
 10
6024.620385722413
 20
3137.435715946768
 30
0.0
 10
6014.879489801975
 20
3136.383691306459
 30
0.0
 10
6005.011511642824
 20
3136.26894518271
 30
0.0
 10
5995.233963347712
 20
3137.083193577156
 30
0.0
 10
5985.755322844891
 20
3138.859933494582
 30
0.0
 10
5976.831594312557
 20
3141.67953539542
 30
0.0
 10
5971.320973379667
 20
3144.437204839237
 30
0.0
 10
5968.815263589106
 20
3146.068661258115
 30
0.0
 11
6034.056494976669
 21
3139.701839029863
 31
0.0
 11
6024.659650118969
 21
3137.616958222726
 31
0.0
 11
6014.896367564714
 21
3136.542875515826
 31
0.0
 11
6004.995731978653
 21
3136.425582351461
 31
0.0
 11
5995.19361412717
 21
3137.256383911129
 31
0.0
 11
5985.714490284395
 21
3139.067994690455
 31
0.0
 11
5976.788437484041
 21
3141.958845878797
 31
0.0
 11
5968.815263589106
 21
3146.068661258115
 31
0.0
  0
SPLINE
  5
62660
330
2
100
AcDbEntity
  8
0
  6
Continuous
 62
     7
100
AcDbSpline
210
0.0
220
0.0
230
1.0
 70
  1064
 71
     3
 72
    15
 73
    11
 74
     9
 42
0.000000001
 43
0.0000000001
 44
0.0000000001
 12
-0.9611012451797941
 22
-0.2761963006882044
 32
0.0
 13
-0.8380238623053756
 23
0.5456335823671239
 33
0.0
 40
0.0
 40
0.0
 40
0.0
 40
0.0
 40
5.746519675028094
 40
12.30457857653425
 40
19.27327415035
 40
26.21081261002468
 40
32.67549929482693
 40
38.2619772944921
 40
42.64276048976671
 40
45.63496698021332
 40
45.63496698021332
 40
45.63496698021332
 40
45.63496698021332
 10
6027.102179907434
 20
3163.901297370758
 30
0.0
 10
6025.26118416906
 20
3163.3722415454
 30
0.0
 10
6021.249846515066
 20
3162.475618643553
 30
0.0
 10
6014.8666580082
 20
3161.678478810366
 30
0.0
 10
6008.040348109489
 20
3161.439237665836
 30
0.0
 10
6001.250439995676
 20
3161.794995330446
 30
0.0
 10
5994.976052013708
 20
3162.695295021598
 30
0.0
 10
5989.645727461123
 20
3164.000878200833
 30
0.0
 10
5985.581021129551
 20
3165.488866617308
 30
0.0
 10
5983.389555961799
 20
3166.624952146851
 30
0.0
 10
5982.553709148486
 20
3167.169168262373
 30
0.0
 11
6027.102179907434
 21
3163.901297370758
 31
0.0
 11
6021.500482259284
 21
3162.619317716396
 31
0.0
 11
6014.995097610384
 21
3161.789795489151
 31
0.0
 11
6008.03085591028
 21
3161.540685989057
 31
0.0
 11
6001.103197310118
 21
3161.910802455961
 31
0.0
 11
5994.706812284987
 21
3162.848049778143
 31
0.0
 11
5989.288243717228
 21
3164.207406654479
 31
0.0
 11
5985.188234044702
 21
3165.750514586283
 31
0.0
 11
5982.553709148486
 21
3167.169168262373
 31
0.0
  0
SPLINE
  5
62661
330
2
100
AcDbEntity
  8
0
  6
Continuous
 62
     7
100
AcDbSpline
210
0.0
220
0.0
230
1.0
 70
  1064
 71
     3
 72
    14
 73
    10
 74
     8
 42
0.000000001
 43
0.0000000001
 44
0.0000000001
 12
-0.8380238623852712
 22
0.5456335822444143
 32
0.0
 13
0.0011426509098748
 23
0.999999347174236
 33
0.0
 40
0.0
 40
0.0
 40
0.0
 40
0.0
 40
9.598311681743123
 40
19.95301417351991
 40
30.68829828515948
 40
41.66247574753429
 40
52.73073961692002
 40
63.72646230956146
 40
74.49216013007436
 40
74.49216013007436
 40
74.49216013007436
 40
74.49216013007436
 10
5578.231950748325
 20
3400.375706410365
 30
0.0
 10
5575.550746005689
 20
3402.121426805834
 30
0.0
 10
5570.429486313478
 20
3406.462560495027
 30
0.0
 10
5563.975873767333
 20
3414.452713861087
 30
0.0
 10
5558.533983161121
 20
3423.6895235366
 30
0.0
 10
5554.178718143829
 20
3433.736095656686
 30
0.0
 10
5550.948441864568
 20
3444.288230077208
 30
0.0
 10
5548.913835064841
 20
3455.062381704097
 30
0.0
 10
5548.415322544251
 20
3462.322676508119
 30
0.0
 10
5548.419423022387
 20
3465.911240105582
 30
0.0
 11
5578.231950748325
 21
3400.375706410365
 31
0.0
 11
5570.837728820514
 21
3406.495597685719
 31
0.0
 11
5564.262197582671
 21
3414.494488398397
 31
0.0
 11
5558.770128005163
 21
3423.718559989263
 31
0.0
 11
5554.382986841639
 21
3433.77766349738
 31
0.0
 11
5551.140119621963
 21
3444.360209376227
 31
0.0
 11
5549.116631989146
 21
3455.16814235776
 31
0.0
 11
5548.419423022387
 21
3465.911240105582
 31
0.0
  0
SPLINE
  5
62662
330
2
100
AcDbEntity
  8
0
  6
Continuous
 62
     7
100
AcDbSpline
210
0.0
220
0.0
230
1.0
 70
  1064
 71
     3
 72
    15
 73
    11
 74
     9
 42
0.000000001
 43
0.0000000001
 44
0.0000000001
 12
-0.8380238624489793
 22
0.545633582146567
 32
0.0
 13
0.001142651073773
 23
0.9999993471740486
 33
0.0
 40
0.0
 40
0.0
 40
0.0
 40
0.0
 40
3.241067693742472
 40
7.838498028924259
 40
13.66930335342518
 40
20.46517274288839
 40
27.8686096750568
 40
35.46026604888393
 40
42.80371308898614
 40
49.47958046676861
 40
49.47958046676861
 40
49.47958046676861
 40
49.47958046676861
 10
5591.970396307706
 20
3421.476213414622
 30
0.0
 10
5591.065032285317
 20
3422.065691873194
 30
0.0
 10
5589.046695130416
 20
3423.751257919442
 30
0.0
 10
5586.025768996322
 20
3427.179319369688
 30
0.0
 10
5582.815884456511
 20
3431.958107168037
 30
0.0
 10
5579.746592288667
 20
3437.902250401673
 30
0.0
 10
5577.104677697983
 20
3444.682180280644
 30
0.0
 10
5575.108704148607
 20
3451.869231591385
 30
0.0
 10
5573.890238778126
 20
3458.981239105462
 30
0.0
 10
5573.595749484245
 20
3463.657181766196
 30
0.0
 10
5573.598292213254
 20
3465.882469439396
 30
0.0
 11
5591.970396307706
 21
3421.476213414622
 31
0.0
 11
5589.444845688493
 21
3423.507497211932
 31
0.0
 11
5586.368556977548
 21
3426.92404714626
 31
0.0
 11
5583.084928425048
 21
3431.742353307292
 31
0.0
 11
5579.943756988726
 21
3437.768702348485
 31
0.0
 11
5577.244055562996
 21
3444.662358172538
 31
0.0
 11
5575.213752067092
 21
3451.977487304193
 31
0.0
 11
5573.988674882511
 21
3459.218025980466
 31
0.0
 11
5573.598292213254
 21
3465.882469439396
 31
0.0
  0
SPLINE
  5
62666
330
2
100
AcDbEntity
  8
0
  6
Continuous
 62
     7
100
AcDbSpline
210
0.0
220
0.0
230
1.0
 70
  1064
 71
     3
 72
    17
 73
    13
 74
    11
 42
0.000000001
 43
0.0000000001
 44
0.0000000001
 12
0.9631070496304857
 22
0.269118581580799
 32
0.0
 13
-0.8380238622301284
 23
0.5456335824826938
 33
0.0
 40
0.0
 40
0.0
 40
0.0
 40
0.0
 40
0.534224817820682
 40
3.91393580171356
 40
8.014203669551722
 40
13.01923657335338
 40
18.80900022980902
 40
25.09674517974744
 40
31.51421776069062
 40
37.67398391875938
 40
43.22746023663945
 40
47.93211856395597
 40
47.93211856395597
 40
47.93211856395597
 40
47.93211856395597
 10
5629.024477903412
 20
3890.06598297935
 30
0.0
 10
5629.195983132788
 20
3890.113906254422
 30
0.0
 10
5630.436592081156
 20
3890.525440293306
 30
0.0
 10
5632.611574997349
 20
3892.307768169555
 30
0.0
 10
5634.44730176567
 20
3896.122871479454
 30
0.0
 10
5635.363546364903
 20
3901.042672739271
 30
0.0
 10
5635.313102876583
 20
3906.764320436308
 30
0.0
 10
5634.310371853815
 20
3912.869017499123
 30
0.0
 10
5632.428337349962
 20
3918.890182719841
 30
0.0
 10
5629.810801260282
 20
3924.364941756884
 30
0.0
 10
5626.665918614159
 20
3928.872905277128
 30
0.0
 10
5624.126295788304
 20
3931.235490134141
 30
0.0
 10
5622.812090474327
 20
3932.091163326638
 30
0.0
 11
5629.024477903412
 21
3890.06598297935
 31
0.0
 11
5629.5313283056
 21
3890.234798931727
 31
0.0
 11
5632.226121214372
 21
3892.274538501742
 31
0.0
 11
5634.156362314365
 21
3895.892046744155
 31
0.0
 11
5635.165674956617
 21
3900.794254650632
 31
0.0
 11
5635.172290638667
 21
3906.584014527377
 31
0.0
 11
5634.175673371977
 21
3912.792274394618
 31
0.0
 11
5632.256563203351
 21
3918.916077991065
 31
0.0
 11
5629.570435003002
 21
3924.459311200427
 31
0.0
 11
5626.334902922294
 21
3928.972894186034
 31
0.0
 11
5622.812090474327
 21
3932.091163326638
 31
0.0
  0
SPLINE
  5
62667
330
2
100
AcDbEntity
  8
0
  6
Continuous
 62
     7
100
AcDbSpline
210
0.0
220
0.0
230
1.0
 70
  1064
 71
     3
 72
    14
 73
    10
 74
     8
 42
0.000000001
 43
0.0000000001
 44
0.0000000001
 12
-0.9611012451797941
 22
-0.2761963006882044
 32
0.0
 13
-0.0011426508826143
 23
-0.9999993471742671
 33
0.0
 40
0.0
 40
0.0
 40
0.0
 40
0.0
 40
9.915748993881313
 40
20.29310153733306
 40
30.89589415420153
 40
41.58707483827885
 40
52.22902089912398
 40
62.68768533098597
 40
72.82254914842586
 40
72.82254914842586
 40
72.82254914842586
 40
72.82254914842586
 10
5589.376672932034
 20
3915.246944278573
 30
0.0
 10
5586.199993363731
 20
3914.334046548352
 30
0.0
 10
5579.889245781235
 20
3911.745087760519
 30
0.0
 10
5571.260654114992
 20
3906.017750756372
 30
0.0
 10
5563.62256226248
 20
3898.64969056308
 30
0.0
 10
5557.309516492503
 20
3890.015266218687
 30
0.0
 10
5552.563397915625
 20
3880.481557511292
 30
0.0
 10
5549.588118693794
 20
3870.449643195156
 30
0.0
 10
5548.873809929202
 20
3863.571237238862
 30
0.0
 10
5548.869949725506
 20
3860.192951505149
 30
0.0
 11
5589.376672932034
 21
3915.246944278573
 31
0.0
 11
5580.18638672376
 21
3911.523945820384
 31
0.0
 11
5571.519241560466
 21
3905.816929040187
 31
0.0
 11
5563.873473395343
 21
3898.471083926008
 31
0.0
 11
5557.559059258171
 21
3889.843829523599
 31
0.0
 11
5552.826048886256
 21
3880.312322361493
 31
0.0
 11
5549.878981304534
 21
3870.27746041092
 31
0.0
 11
5548.869949725506
 21
3860.192951505149
 31
0.0
  0
SPLINE
  5
62668
330
2
100
AcDbEntity
  8
0
  6
Continuous
 62
     7
100
AcDbSpline
210
0.0
220
0.0
230
1.0
 70
  1064
 71
     3
 72
    14
 73
    10
 74
     8
 42
0.000000001
 43
0.0000000001
 44
0.0000000001
 12
-0.9611012451797941
 22
-0.2761963006882044
 32
0.0
 13
-0.001142651149234
 23
-0.9999993471739625
 33
0.0
 40
0.0
 40
0.0
 40
0.0
 40
0.0
 40
4.965284106212406
 40
10.52872056756077
 40
16.56573125538376
 40
22.84095999040605
 40
29.07832324156243
 40
35.0023085882353
 40
40.39277011991224
 40
40.39277011991224
 40
40.39277011991224
 40
40.39277011991224
 10
5596.330988001267
 20
3891.047485937678
 30
0.0
 10
5594.740274422218
 20
3890.590354903678
 30
0.0
 10
5591.48084762817
 20
3889.205725279264
 30
0.0
 10
5586.89030894416
 20
3886.085499912562
 30
0.0
 10
5582.604592147351
 20
3881.902628764399
 30
0.0
 10
5578.944498262405
 20
3876.884185713639
 30
0.0
 10
5576.177299310706
 20
3871.363845139257
 30
0.0
 10
5574.47176806113
 20
3865.738026400109
 30
0.0
 10
5574.05087205534
 20
3861.9610001767
 30
0.0
 10
5574.048818916319
 20
3860.164180839152
 30
0.0
 11
5596.330988001267
 21
3891.047485937678
 31
0.0
 11
5591.742038888398
 21
3889.151281229612
 31
0.0
 11
5587.121221657917
 21
3886.052914985613
 31
0.0
 11
5582.787324450163
 21
3881.850197645901
 31
0.0
 11
5579.085636503531
 21
3876.783048346482
 31
0.0
 11
5576.29956219835
 21
3871.202502647996
 31
0.0
 11
5574.60593587532
 21
3865.525775398468
 31
0.0
 11
5574.048818916319
 21
3860.164180839152
 31
0.0
  0
SPLINE
  5
62669
330
2
100
AcDbEntity
  8
0
  6
Continuous
 62
     7
100
AcDbSpline
210
0.0
220
0.0
230
1.0
 70
  1064
 71
     3
 72
    12
 73
     8
 74
     6
 42
0.000000001
 43
0.0000000001
 44
0.0000000001
 12
-0.963107049800797
 22
-0.2691185809712987
 32
0.0
 13
-0.0460197135429474
 23
-0.9989405317462221
 33
0.0
 40
0.0
 40
0.0
 40
0.0
 40
0.0
 40
0.5342248178286882
 40
3.913935802017724
 40
8.014203689317596
 40
13.0192365928507
 40
14.43202904570362
 40
14.43202904570362
 40
14.43202904570362
 40
14.43202904570362
 10
5607.985705062787
 20
3930.971500450727
 30
0.0
 10
5607.814199833378
 20
3930.923577175764
 30
0.0
 10
5606.573591498378
 20
3930.512048731875
 30
0.0
 10
5604.398591437497
 20
3928.729564406993
 30
0.0
 10
5602.562960482013
 20
3924.915335682703
 30
0.0
 10
5601.915626533283
 20
3921.438211694299
 30
0.0
 10
5601.767219671949
 20
3919.304338334991
 30
0.0
 10
5601.745547570624
 20
3918.833906453624
 30
0.0
 11
5607.985705062787
 21
3930.971500450727
 31
0.0
 11
5607.478854660654
 21
3930.802684498161
 31
0.0
 11
5604.784061751451
 21
3928.762944928227
 31
0.0
 11
5602.853820658946
 21
3925.14543665976
 31
0.0
 11
5601.844508017045
 21
3920.243228753485
 31
0.0
 11
5601.745547570624
 21
3918.833906453624
 31
0.0
  0
SPLINE
  5
6266A
330
2
100
AcDbEntity
  8
0
  6
Continuous
 62
     7
100
AcDbSpline
210
0.0
220
0.0
230
1.0
 70
  1064
 71
     3
 72
     9
 73
     5
 74
     3
 42
0.000000001
 43
0.0000000001
 44
0.0000000001
 12
0.5690266284817489
 22
-0.822319096262937
 32
0.0
 13
0.8380238621479342
 23
-0.5456335826089339
 33
0.0
 40
0.0
 40
0.0
 40
0.0
 40
0.0
 40
3.172712197961918
 40
7.877370525277153
 40
7.877370525277153
 40
7.877370525277153
 40
7.877370525277153
 10
5608.722611359834
 20
3894.565226671253
 30
0.0
 10
5609.324397268217
 20
3893.695566062143
 30
0.0
 10
5610.93214210232
 20
3891.618262738194
 30
0.0
 10
5612.883887185486
 20
3889.801993270174
 30
0.0
 10
5614.198092499334
 20
3888.946320077479
 30
0.0
 11
5608.722611359834
 21
3894.565226671253
 31
0.0
 11
5610.675280051369
 21
3892.064589218082
 31
0.0
 11
5614.198092499334
 21
3888.946320077479
 31
0.0
  0
SPLINE
  5
6266B
330
2
100
AcDbEntity
  8
0
  6
Continuous
 62
     7
100
AcDbSpline
210
0.0
220
0.0
230
1.0
 70
  1064
 71
     3
 72
    11
 73
     7
 74
     5
 42
0.000000001
 43
0.0000000001
 44
0.0000000001
 12
-0.0011426506417609
 22
-0.9999993471745423
 32
0.0
 13
-0.9637719053821932
 23
-0.2667277908204862
 33
0.0
 40
0.0
 40
0.0
 40
0.0
 40
0.0
 40
3.302595118610777
 40
6.010185534448054
 40
8.168537362416646
 40
8.827305407204679
 40
8.827305407204679
 40
8.827305407204679
 40
8.827305407204679
 10
6057.328355140237
 20
3152.940069611913
 30
0.0
 10
6057.327097236092
 20
3151.839205291048
 30
0.0
 10
6057.148089973667
 20
3149.82496250396
 30
0.0
 10
6056.240702020143
 20
3147.222612319723
 30
0.0
 10
6054.924381164103
 20
3145.791558689455
 30
0.0
 10
6054.039214383529
 20
3145.451506786935
 30
0.0
 10
6053.827580338953
 20
3145.392936205186
 30
0.0
 11
6057.328355140237
 21
3152.940069611913
 31
0.0
 11
6056.982828424081
 21
3149.655599212306
 31
0.0
 11
6055.988084979546
 21
3147.13735948196
 31
0.0
 11
6054.441497260655
 21
3145.631853241166
 31
0.0
 11
6053.827580338953
 21
3145.392936205186
 31
0.0
  0
SPLINE
  5
6266C
330
2
100
AcDbEntity
  8
0
  6
Continuous
 62
     7
100
AcDbSpline
210
0.0
220
0.0
230
1.0
 70
  1064
 71
     3
 72
    11
 73
     7
 74
     5
 42
0.000000001
 43
0.0000000001
 44
0.0000000001
 12
0.9591335949699889
 22
0.2829536128059602
 32
0.0
 13
0.0011426505929852
 23
0.999999347174598
 33
0.0
 40
0.0
 40
0.0
 40
0.0
 40
0.0
 40
2.176267014556035
 40
5.867445443239084
 40
10.42007299913934
 40
15.84535708038537
 40
15.84535708038537
 40
15.84535708038537
 40
15.84535708038537
 10
6056.577125305559
 20
3135.804075470927
 30
0.0
 10
6057.272902240654
 20
3136.009336342327
 30
0.0
 10
6059.068055215178
 20
3136.909612864599
 30
0.0
 10
6061.210711452115
 20
3139.802744770668
 30
0.0
 10
6062.584929539195
 20
3144.190001279298
 30
0.0
 10
6062.855895183211
 20
3147.53134079593
 30
0.0
 10
6062.857961584569
 20
3149.339767642425
 30
0.0
 11
6056.577125305559
 21
3135.804075470927
 31
0.0
 11
6058.523585862573
 21
3136.777435331736
 31
0.0
 11
6060.85988301673
 21
3139.635146618737
 31
0.0
 11
6062.344773931081
 21
3143.93880978344
 31
0.0
 11
6062.857961584569
 21
3149.339767642425
 31
0.0
  0
SPLINE
  5
6266D
330
2
100
AcDbEntity
  8
0
  6
Continuous
 62
     7
100
AcDbSpline
210
0.0
220
0.0
230
1.0
 70
  1064
 71
     3
 72
    10
 73
     6
 74
     4
 42
0.000000001
 43
0.0000000001
 44
0.0000000001
 12
-0.001142652580413
 22
-0.999999347172327
 32
0.0
 13
-0.9611056564751576
 23
-0.2761809499068612
 33
0.0
 40
0.0
 40
0.0
 40
0.0
 40
0.0
 40
3.632351255435914
 40
6.52450398251582
 40
8.807961714633316
 40
8.807961714633316
 40
8.807961714633316
 40
8.807961714633316
 10
6037.557174156106
 20
3147.258329966437
 30
0.0
 10
6037.555790650927
 20
3146.047547005058
 30
0.0
 10
6037.340958773457
 20
3143.863830162166
 30
0.0
 10
6036.246626102992
 20
3141.067721174024
 30
0.0
 10
6034.788043024222
 20
3139.912054871706
 30
0.0
 10
6034.056494976669
 20
3139.701839029863
 30
0.0
 11
6037.557174156106
 21
3147.258329966437
 31
0.0
 11
6037.131924051733
 21
3143.650957239424
 31
0.0
 11
6035.916335323627
 21
3141.026668489904
 31
0.0
 11
6034.056494976669
 21
3139.701839029863
 31
0.0
  0
SPLINE
  5
6266E
330
2
100
AcDbEntity
  8
0
  6
Continuous
 62
     7
100
AcDbSpline
210
0.0
220
0.0
230
1.0
 70
  1064
 71
     3
 72
    15
 73
    11
 74
     9
 42
0.000000001
 43
0.0000000001
 44
0.0000000001
 12
0.0011426507418328
 22
0.9999993471744282
 32
0.0
 13
-0.9591335951600779
 23
-0.282953612161612
 33
0.0
 40
0.0
 40
0.0
 40
0.0
 40
0.0
 40
6.081296221280621
 40
12.48248407850584
 40
18.81849787837053
 40
24.71386218438929
 40
29.86334397579906
 40
34.1114204949723
 40
37.58010620434399
 40
38.65222652055577
 40
38.65222652055577
 40
38.65222652055577
 40
38.65222652055577
 10
6062.857961584569
 20
3149.339767642425
 30
0.0
 10
6062.860277850449
 20
3151.36686505951
 30
0.0
 10
6062.489706265671
 20
3155.532231263157
 30
0.0
 10
6061.033326788648
 20
3161.652999059226
 30
0.0
 10
6058.761536774722
 20
3167.456754643585
 30
0.0
 10
6055.852829437884
 20
3172.496758646405
 30
0.0
 10
6052.513211418467
 20
3176.399064943193
 30
0.0
 10
6048.960989504929
 20
3178.905248504336
 30
0.0
 10
6045.962181738025
 20
3179.563112160197
 30
0.0
 10
6044.466680425721
 20
3179.263660300268
 30
0.0
 10
6044.12391155461
 20
3179.162540194886
 30
0.0
 11
6062.857961584569
 21
3149.339767642425
 31
0.0
 11
6062.357870598496
 21
3155.400466672785
 31
0.0
 11
6060.885015352795
 21
3161.629905123295
 31
0.0
 11
6058.558717805414
 21
3167.52341092147
 31
0.0
 11
6055.567440771135
 21
3172.603527259202
 31
0.0
 11
6052.153519706133
 21
3176.458693362237
 31
0.0
 11
6048.593530223492
 21
3178.776586585885
 31
0.0
 11
6045.175881445523
 21
3179.369424996282
 31
0.0
 11
6044.12391155461
 21
3179.162540194886
 31
0.0
  0
SPLINE
  5
6266F
330
2
100
AcDbEntity
  8
0
  6
Continuous
 62
     7
100
AcDbSpline
210
0.0
220
0.0
230
1.0
 70
  1064
 71
     3
 72
    10
 73
     6
 74
     4
 42
0.000000001
 43
0.0000000001
 44
0.0000000001
 12
-0.0011426502165784
 22
-0.9999993471750281
 32
0.0
 13
0.8383931321763839
 23
-0.5450660106074055
 33
0.0
 40
0.0
 40
0.0
 40
0.0
 40
0.0
 40
3.752596668235914
 40
7.165903152778737
 40
8.669025252189799
 40
8.669025252189799
 40
8.669025252189799
 40
8.669025252189799
 10
5965.205760437488
 20
3153.60759275935
 30
0.0
 10
5965.204331135689
 20
3152.356728019868
 30
0.0
 10
5965.564358982948
 20
3149.938976258564
 30
0.0
 10
5967.110983324521
 20
3147.381693399159
 30
0.0
 10
5968.397250752562
 20
3146.344924348206
 30
0.0
 10
5968.817319834218
 20
3146.071824092813
 30
0.0
 11
5965.205760437488
 21
3153.60759275935
 31
0.0
 11
5965.833269886502
 21
3149.907834166434
 31
0.0
 11
5967.648981446889
 21
3147.017530949314
 31
0.0
 11
5968.817319834218
 21
3146.071824092813
 31
0.0
  0
SPLINE
  5
62670
330
2
100
AcDbEntity
  8
0
  6
Continuous
 62
     7
100
AcDbSpline
210
0.0
220
0.0
230
1.0
 70
  1064
 71
     3
 72
    14
 73
    10
 74
     8
 42
0.000000001
 43
0.0000000001
 44
0.0000000001
 12
-0.9611012451797941
 22
-0.2761963006882044
 32
0.0
 13
0.8373177328828852
 23
-0.5467165757500549
 33
0.0
 40
0.0
 40
0.0
 40
0.0
 40
0.0
 40
3.973549820881748
 40
8.242088075209156
 40
12.61412509962382
 40
16.86306829089197
 40
20.80431065387932
 40
24.37271697944082
 40
27.54098867262238
 40
27.54098867262238
 40
27.54098867262238
 40
27.54098867262238
 10
5585.11414072945
 20
3422.274307663856
 30
0.0
 10
5583.841146169238
 20
3421.908481076813
 30
0.0
 10
5581.329646613789
 20
3420.66505940203
 30
0.0
 10
5578.209503046643
 20
3417.777143788256
 30
0.0
 10
5575.879488050397
 20
3414.109906665046
 30
0.0
 10
5574.603412500807
 20
3410.06761695371
 30
0.0
 10
5574.538472645786
 20
3406.08335710248
 30
0.0
 10
5575.733815522895
 20
3402.634286235187
 30
0.0
 10
5577.347738835108
 20
3400.953198100362
 30
0.0
 10
5578.232022192206
 20
3400.375815883315
 30
0.0
 11
5585.11414072945
 21
3422.274307663856
 31
0.0
 11
5581.529423368033
 21
3420.559985751907
 31
0.0
 11
5578.375511775675
 21
3417.683658146045
 31
0.0
 11
5576.032814272485
 21
3413.992252431226
 31
0.0
 11
5574.7838947175
 21
3409.931006540148
 31
0.0
 11
5574.779391258509
 21
3405.989766750098
 31
0.0
 11
5576.019847061551
 21
3402.643904663131
 31
0.0
 11
5578.232022192206
 21
3400.375815883315
 31
0.0
  0
SPLINE
  5
62671
330
2
100
AcDbEntity
  8
0
  6
Continuous
 62
     7
100
AcDbSpline
210
0.0
220
0.0
230
1.0
 70
  1064
 71
     3
 72
     9
 73
     5
 74
     3
 42
0.000000001
 43
0.0000000001
 44
0.0000000001
 12
-0.8380238624113145
 22
0.5456335822044152
 32
0.0
 13
-0.9631070494944687
 23
-0.2691185820675698
 33
0.0
 40
0.0
 40
0.0
 40
0.0
 40
0.0
 40
3.819077538870341
 40
6.556245916921069
 40
6.556245916921069
 40
6.556245916921069
 40
6.556245916921069
 10
5614.244578711264
 20
3929.629076145991
 30
0.0
 10
5613.177752674608
 20
3930.323681798741
 30
0.0
 10
5611.133516974532
 20
3931.295327793648
 30
0.0
 10
5608.864433782972
 20
3931.217041408321
 30
0.0
 10
5607.985705062787
 20
3930.971500450727
 30
0.0
 11
5614.244578711264
 21
3929.629076145991
 31
0.0
 11
5610.719883263495
 21
3931.099407825709
 31
0.0
 11
5607.985705062787
 21
3930.971500450727
 31
0.0
  0
SPLINE
  5
62672
330
2
100
AcDbEntity
  8
0
  6
Continuous
 62
     7
100
AcDbSpline
210
0.0
220
0.0
230
1.0
 70
  1064
 71
     3
 72
     9
 73
     5
 74
     3
 42
0.000000001
 43
0.0000000001
 44
0.0000000001
 12
-0.838393131448125
 22
0.5450660117275771
 32
0.0
 13
-0.9711872059648761
 23
0.2383178779910082
 33
0.0
 40
0.0
 40
0.0
 40
0.0
 40
0.0
 40
1.797758665492671
 40
2.433553357216049
 40
2.433553357216049
 40
2.433553357216049
 40
2.433553357216049
 10
5982.551652895889
 20
3167.166005453732
 30
0.0
 10
5982.049243390171
 20
3167.492637835681
 30
0.0
 10
5981.309972636585
 20
3167.853508094533
 30
0.0
 10
5980.530555699548
 20
3168.080097042996
 30
0.0
 10
5980.324730476141
 20
3168.130604123585
 30
0.0
 11
5982.551652895889
 21
3167.166005453732
 31
0.0
 11
5980.935079257996
 21
3167.952533198075
 31
0.0
 11
5980.324730476141
 21
3168.130604123585
 31
0.0
  0
SPLINE
  5
62673
330
2
100
AcDbEntity
  8
0
  6
Continuous
 62
     7
100
AcDbSpline
210
0.0
220
0.0
230
1.0
 70
  1064
 71
     3
 72
    13
 73
     9
 74
     7
 42
0.000000001
 43
0.0000000001
 44
0.0000000001
 12
-0.9711872045270403
 22
0.2383178838504421
 32
0.0
 13
-0.0011426510022295
 23
-0.9999993471741305
 33
0.0
 40
0.0
 40
0.0
 40
0.0
 40
0.0
 40
2.814093108982819
 40
6.60060710187478
 40
10.74036026803037
 40
15.08858706778633
 40
19.42659010624305
 40
23.53909439106317
 40
23.53909439106317
 40
23.53909439106317
 40
23.53909439106317
 10
5980.324730476141
 20
3168.130604123585
 30
0.0
 10
5979.41372673621
 20
3168.354153695149
 30
0.0
 10
5977.167814434003
 20
3168.478636390993
 30
0.0
 10
5973.676060118934
 20
3167.405237078539
 30
0.0
 10
5970.274171175869
 20
3165.034483991242
 30
0.0
 10
5967.509712186213
 20
3161.708908400713
 30
0.0
 10
5965.681000909344
 20
3157.804919454301
 30
0.0
 10
5965.207326823201
 20
3154.97842662604
 30
0.0
 10
5965.205760437488
 20
3153.60759275935
 30
0.0
 11
5980.324730476141
 21
3168.130604123585
 31
0.0
 11
5977.516868230934
 21
3168.317766186962
 31
0.0
 11
5973.877644917475
 21
3167.271945029622
 31
0.0
 11
5970.456353343241
 21
3164.941211187937
 31
0.0
 11
5967.665651765221
 21
3161.606685583814
 31
0.0
 11
5965.842139985745
 21
3157.670561201662
 31
0.0
 11
5965.205760437488
 21
3153.60759275935
 31
0.0
  0
SPLINE
  5
62674
330
2
100
AcDbEntity
  8
0
  6
Continuous
 62
     7
100
AcDbSpline
210
0.0
220
0.0
230
1.0
 70
  1064
 71
     3
 72
    13
 73
     9
 74
     7
 42
0.000000001
 43
0.0000000001
 44
0.0000000001
 12
0.9611056560294379
 22
0.2761809514579597
 32
0.0
 13
-0.0011426504102338
 23
-0.9999993471748069
 33
0.0
 40
0.0
 40
0.0
 40
0.0
 40
0.0
 40
2.282227311020814
 40
5.17400326316782
 40
8.806013400615293
 40
12.98198324859663
 40
17.35425085182672
 40
21.53041437075976
 40
21.53041437075976
 40
21.53041437075976
 40
21.53041437075976
 10
6027.102179907434
 20
3163.901297370758
 30
0.0
 10
6027.833333766423
 20
3164.111399940825
 30
0.0
 10
6029.682160266546
 20
3163.907029273682
 30
0.0
 10
6032.094616983069
 20
3162.118712699879
 30
0.0
 10
6034.291070034241
 20
3159.274239710851
 30
0.0
 10
6036.071074319254
 20
3155.596829213147
 30
0.0
 10
6037.248348017948
 20
3151.503943211333
 30
0.0
 10
6037.558764787758
 20
3148.65038356398
 30
0.0
 10
6037.557174156106
 20
3147.258329966437
 30
0.0
 11
6027.102179907434
 21
3163.901297370758
 31
0.0
 11
6029.380419006246
 21
3163.766434077708
 31
0.0
 11
6031.803796262289
 21
3162.188584011223
 31
0.0
 11
6034.079485730725
 21
3159.357906516034
 31
0.0
 11
6035.933005641958
 21
3155.615823124404
 31
0.0
 11
6037.14079415133
 21
3151.413684274855
 31
0.0
 11
6037.557174156106
 21
3147.258329966437
 31
0.0
  0
SPLINE
  5
62675
330
2
100
AcDbEntity
  8
0
  6
Continuous
 62
     7
100
AcDbSpline
210
0.0
220
0.0
230
1.0
 70
  1064
 71
     3
 72
    14
 73
    10
 74
     8
 42
0.000000001
 43
0.0000000001
 44
0.0000000001
 12
-0.9611012451797941
 22
-0.2761963006882044
 32
0.0
 13
0.0306665612739344
 23
0.999529670404852
 33
0.0
 40
0.0
 40
0.0
 40
0.0
 40
0.0
 40
4.075472233843983
 40
8.440383251575688
 40
12.67020290806462
 40
16.36743595735107
 40
19.2592119098298
 40
21.36946394412416
 40
21.72020127785995
 40
21.72020127785995
 40
21.72020127785995
 40
21.72020127785995
 10
5567.986694328133
 20
3461.353616551644
 30
0.0
 10
5566.681047181918
 20
3460.978406433463
 30
0.0
 10
5563.894516955694
 20
3460.481268381816
 30
0.0
 10
5559.659203248042
 20
3460.374719831185
 30
0.0
 10
5555.575552955101
 20
3460.866377109905
 30
0.0
 10
5552.097870220681
 20
3461.920700566631
 30
0.0
 10
5549.561737931554
 20
3463.368777845737
 30
0.0
 10
5548.461456036488
 20
3464.968474277799
 30
0.0
 10
5548.425232013584
 20
3465.794094412509
 30
0.0
 10
5548.42881731623
 20
3465.910951869704
 30
0.0
 11
5567.986694328133
 21
3461.353616551644
 31
0.0
 11
5563.98194394718
 21
3460.597674546533
 31
0.0
 11
5559.618595461688
 21
3460.48089189854
 31
0.0
 11
5555.422933127254
 21
3461.01735429409
 31
0.0
 11
5551.901015706222
 21
3462.142356471939
 31
0.0
 11
5549.477638449774
 21
3463.72020653841
 31
0.0
 11
5548.445096413173
 21
3465.560592528059
 31
0.0
 11
5548.42881731623
 21
3465.910951869704
 31
0.0
  0
SPLINE
  5
62676
330
2
100
AcDbEntity
  8
0
  6
Continuous
 62
     7
100
AcDbSpline
210
0.0
220
0.0
230
1.0
 70
  1064
 71
     3
 72
    14
 73
    10
 74
     8
 42
0.000000001
 43
0.0000000001
 44
0.0000000001
 12
0.9637719054741989
 22
0.2667277904880398
 32
0.0
 13
-0.0011426503877489
 23
-0.9999993471748327
 33
0.0
 40
0.0
 40
0.0
 40
0.0
 40
0.0
 40
1.337370497763554
 40
3.655172839790679
 40
6.568225767460514
 40
10.04125988577158
 40
13.87981813775879
 40
17.81462929625669
 40
21.55906575147741
 40
21.55906575147741
 40
21.55906575147741
 40
21.55906575147741
 10
6046.873456513434
 20
3169.573679486292
 30
0.0
 10
6047.303096551086
 20
3169.69258411227
 30
0.0
 10
6048.556245831451
 20
3169.79088881374
 30
0.0
 10
6050.626485086477
 20
3168.835238558834
 30
0.0
 10
6052.731007891738
 20
3166.804513029188
 30
0.0
 10
6054.614688387521
 20
3163.935189476026
 30
0.0
 10
6056.108032748347
 20
3160.479854061354
 30
0.0
 10
6057.078858507255
 20
3156.751038433455
 30
0.0
 10
6057.329781334159
 20
3154.188214282165
 30
0.0
 10
6057.328355140237
 20
3152.940069611913
 30
0.0
 11
6046.873456513434
 21
3169.573679486292
 31
0.0
 11
6048.206580862037
 21
3169.680165726957
 31
0.0
 11
6050.363485644548
 21
3168.831655588014
 31
0.0
 11
6052.519121101571
 21
3166.872290094843
 31
0.0
 11
6054.462478629824
 21
3163.993865611843
 31
0.0
 11
6056.003328852433
 21
3160.478142351206
 31
0.0
 11
6056.990842600908
 21
3156.669263848337
 31
0.0
 11
6057.328355140237
 21
3152.940069611913
 31
0.0
  0
SPLINE
  5
62678
330
2
100
AcDbEntity
  8
0
  6
Continuous
 62
     7
100
AcDbSpline
210
0.0
220
0.0
230
1.0
 70
  1064
 71
     3
 72
    10
 73
     6
 74
     4
 42
0.000000001
 43
0.0000000001
 44
0.0000000001
 12
-0.8373177328355449
 22
0.5467165758225584
 32
0.0
 13
-0.9611012451797941
 23
-0.2761963006882044
 33
0.0
 40
0.0
 40
0.0
 40
0.0
 40
0.0
 40
0.1466204235531614
 40
3.471197014159061
 40
7.070973142071199
 40
7.070973142071199
 40
7.070973142071199
 40
7.070973142071199
 10
5591.970324837366
 20
3421.47610393417
 30
0.0
 10
5591.929402210487
 20
3421.502823872807
 30
0.0
 10
5590.95401184278
 20
3422.124982849086
 30
0.0
 10
5588.623761828736
 20
3422.885751422148
 30
0.0
 10
5586.267390502419
 20
3422.605722613801
 30
0.0
 10
5585.11414072945
 20
3422.274307663856
 30
0.0
 11
5591.970324837366
 21
3421.47610393417
 31
0.0
 11
5591.846702169426
 21
3421.55493910763
 31
0.0
 11
5588.697294054277
 21
3422.619851325155
 31
0.0
 11
5585.11414072945
 21
3422.274307663856
 31
0.0
  0
SPLINE
  5
62679
330
2
100
AcDbEntity
  8
0
  6
Continuous
 62
     7
100
AcDbSpline
210
0.0
220
0.0
230
1.0
 70
  1064
 71
     3
 72
    10
 73
     6
 74
     4
 42
0.000000001
 43
0.0000000001
 44
0.0000000001
 12
-0.0306665603175476
 22
-0.9995296704341948
 32
0.0
 13
-0.9611012451797941
 23
-0.2761963006882044
 33
0.0
 40
0.0
 40
0.0
 40
0.0
 40
0.0
 40
1.609907654806472
 40
4.185809141062063
 40
7.607146122023538
 40
7.607146122023538
 40
7.607146122023538
 40
7.607146122023538
 10
5573.588897926843
 20
3465.882757649409
 30
0.0
 10
5573.572441150109
 20
3465.346374160195
 30
0.0
 10
5573.074016604579
 20
3463.950566493666
 30
0.0
 10
5570.948765530072
 20
3462.390391941685
 30
0.0
 10
5569.082778072326
 20
3461.66860342416
 30
0.0
 10
5567.986694328133
 20
3461.353616551644
 30
0.0
 11
5573.588897926843
 21
3465.882757649409
 31
0.0
 11
5573.089785855439
 21
3464.352172860126
 31
0.0
 11
5571.149814633424
 21
3462.657540119781
 31
0.0
 11
5567.986694328133
 21
3461.353616551644
 31
0.0
  0
SPLINE
  5
6267D
330
2
100
AcDbEntity
  8
0
  6
Continuous
 62
     7
100
AcDbSpline
210
0.0
220
0.0
230
1.0
 70
  1064
 71
     3
 72
    16
 73
    12
 74
    10
 42
0.000000001
 43
0.0000000001
 44
0.0000000001
 12
0.8380238624570081
 22
-0.5456335821342356
 32
0.0
 13
-0.0156035366423521
 23
0.9998782574114965
 33
0.0
 40
0.0
 40
0.0
 40
0.0
 40
0.0
 40
2.950120372840534
 40
6.484680662680851
 40
10.3614685232566
 40
14.27854734155106
 40
17.92755244655826
 40
21.04514900640276
 40
23.48020589620452
 40
25.32225218647834
 40
25.54218796235177
 40
25.54218796235177
 40
25.54218796235177
 40
25.54218796235177
 10
5550.980658383848
 20
3857.167244141498
 30
0.0
 10
5551.804748807035
 20
3856.630682559244
 30
0.0
 10
5553.807870109416
 20
3855.751125598948
 30
0.0
 10
5557.181910870681
 20
3854.965625884815
 30
0.0
 10
5560.957628757269
 20
3854.646719326402
 30
0.0
 10
5564.778209536251
 20
3854.829837242093
 30
0.0
 10
5568.292005894792
 20
3855.490822891667
 30
0.0
 10
5571.180139009681
 20
3856.582103856289
 30
0.0
 10
5573.245270102941
 20
3857.987955229182
 30
0.0
 10
5574.02410302863
 20
3859.40190392121
 30
0.0
 10
5574.047009965902
 20
3860.090831754951
 30
0.0
 10
5574.045866040588
 20
3860.164134755058
 30
0.0
 11
5550.980658383848
 21
3857.167244141498
 31
0.0
 11
5553.649793871489
 21
3855.91069093416
 31
0.0
 11
5557.083386458831
 21
3855.071907060532
 31
0.0
 11
5560.945332230095
 21
3854.732998554111
 31
0.0
 11
5564.857596983651
 21
3854.927140169471
 31
0.0
 11
5568.437221031253
 21
3855.63532795121
 31
0.0
 11
5571.333805779477
 21
3856.788239529047
 31
0.0
 11
5573.263813373188
 21
3858.273019898255
 31
0.0
 11
5574.03832116941
 21
3859.944328430245
 31
0.0
 11
5574.045866040588
 21
3860.164134755058
 31
0.0
  0
SPLINE
  5
6267E
330
2
100
AcDbEntity
  8
0
  6
Continuous
 62
     7
100
AcDbSpline
210
0.0
220
0.0
230
1.0
 70
  1064
 71
     3
 72
     9
 73
     5
 74
     3
 42
0.000000001
 43
0.0000000001
 44
0.0000000001
 12
0.9635894240333639
 22
0.2673862784270172
 32
0.0
 13
0.838023860690926
 23
-0.5456335848467134
 33
0.0
 40
0.0
 40
0.0
 40
0.0
 40
0.0
 40
1.337467002709769
 40
3.655269366243052
 40
3.655269366243052
 40
3.655269366243052
 40
3.655269366243052
 10
5610.744135906578
 20
3921.378583625797
 30
0.0
 10
5611.173725592847
 20
3921.497790400588
 30
0.0
 10
5612.424914337446
 20
3921.596273276831
 30
0.0
 10
5613.58684492476
 20
3921.057602804369
 30
0.0
 10
5614.234302819761
 20
3920.636045866842
 30
0.0
 11
5610.744135906578
 21
3921.378583625797
 31
0.0
 11
5612.077398011194
 21
3921.484555998297
 31
0.0
 11
5614.234302819761
 21
3920.636045866842
 31
0.0
  0
SPLINE
  5
6267F
330
2
100
AcDbEntity
  8
0
  6
Continuous
 62
     7
100
AcDbSpline
210
0.0
220
0.0
230
1.0
 70
  1064
 71
     3
 72
     9
 73
     5
 74
     3
 42
0.000000001
 43
0.0000000001
 44
0.0000000001
 12
0.9637791267966921
 22
0.2667016961907175
 32
0.0
 13
0.83802385990355
 23
-0.5456335860560227
 33
0.0
 40
0.0
 40
0.0
 40
0.0
 40
0.0
 40
1.335111493208439
 40
3.652913835547182
 40
3.652913835547182
 40
3.652913835547182
 40
3.652913835547182
 10
5589.378942888885
 20
3915.238741315229
 30
0.0
 10
5589.807860418584
 20
3915.357433481843
 30
0.0
 10
5591.058134201758
 20
3915.45544364182
 30
0.0
 10
5592.219339796545
 20
3914.917119784961
 30
0.0
 10
5592.866797685019
 20
3914.495562850354
 30
0.0
 11
5589.378942888885
 21
3915.238741315229
 31
0.0
 11
5590.70989290213
 21
3915.344072989189
 31
0.0
 11
5592.866797685019
 21
3914.495562850354
 31
0.0
  0
SPLINE
  5
62681
330
2
100
AcDbEntity
  8
0
  6
Continuous
 62
     7
100
AcDbSpline
210
0.0
220
0.0
230
1.0
 70
  1064
 71
     3
 72
    16
 73
    12
 74
    10
 42
0.000000001
 43
0.0000000001
 44
0.0000000001
 12
0.8380238621920858
 22
-0.5456335825411227
 32
0.0
 13
-0.9635894239716591
 23
-0.2673862786493844
 33
0.0
 40
0.0
 40
0.0
 40
0.0
 40
0.0
 40
2.913052927670508
 40
6.386087045982325
 40
10.22464529806712
 40
14.15945645716511
 40
17.90389290744807
 40
21.20648802605875
 40
23.91407846322223
 40
26.07243030232037
 40
26.73125649408493
 40
26.73125649408493
 40
26.73125649408493
 40
26.73125649408493
 10
5614.234302819761
 20
3920.636045866842
 30
0.0
 10
5615.048038774833
 20
3920.106226031823
 30
0.0
 10
5616.607207223575
 20
3918.604827976616
 30
0.0
 10
5618.483769535535
 20
3915.740816810109
 30
0.0
 10
5619.979384490974
 20
3912.284186058921
 30
0.0
 10
5620.949405502334
 20
3908.554330608753
 30
0.0
 10
5621.309018734275
 20
3904.894402346844
 30
0.0
 10
5621.018954098439
 20
3901.630284384711
 30
0.0
 10
5620.111617579036
 20
3899.026571187683
 30
0.0
 10
5618.794944229613
 20
3897.596498605885
 30
0.0
 10
5617.910147946442
 20
3897.255532984568
 30
0.0
 10
5617.698535296235
 20
3897.196812623337
 30
0.0
 11
5614.234302819761
 21
3920.636045866842
 31
0.0
 11
5616.389938276785
 21
3918.676680373672
 31
0.0
 11
5618.333295805038
 21
3915.79825589067
 31
0.0
 11
5619.874146027675
 21
3912.282532629939
 31
0.0
 11
5620.861659750445
 21
3908.473654119786
 31
0.0
 11
5621.199172315476
 21
3904.744459890645
 31
0.0
 11
5620.853645599321
 21
3901.459989491038
 31
0.0
 11
5619.858902162221
 21
3898.941749734827
 31
0.0
 11
5618.312314409815
 21
3897.436243512505
 31
0.0
 11
5617.698535296235
 21
3897.196812623337
 31
0.0
  0
SPLINE
  5
62682
330
2
100
AcDbEntity
  8
0
  6
Continuous
 62
     7
100
AcDbSpline
210
0.0
220
0.0
230
1.0
 70
  1064
 71
     3
 72
    17
 73
    13
 74
    11
 42
0.000000001
 43
0.0000000001
 44
0.0000000001
 12
0.9631070496304857
 22
0.269118581580799
 32
0.0
 13
-0.8380238622301284
 23
0.5456335824826938
 33
0.0
 40
0.0
 40
0.0
 40
0.0
 40
0.0
 40
0.5342248174275186
 40
3.913935801687216
 40
8.014203669523773
 40
13.0192365731442
 40
18.80900022959984
 40
25.09674517953737
 40
31.51421776047236
 40
37.67398391860793
 40
43.22746023648853
 40
47.93211856359415
 40
47.93211856359415
 40
47.93211856359415
 40
47.93211856359415
 10
5620.45696614035
 20
3887.603895798704
 30
0.0
 10
5620.628471369601
 20
3887.651819073741
 30
0.0
 10
5621.869080317923
 20
3888.063353112716
 30
0.0
 10
5624.044063234246
 20
3889.845680988734
 30
0.0
 10
5625.879790002674
 20
3893.660784298755
 30
0.0
 10
5626.796034601312
 20
3898.580585558597
 30
0.0
 10
5626.745591113232
 20
3904.302233255561
 30
0.0
 10
5625.742860090197
 20
3910.406930318311
 30
0.0
 10
5623.860825587151
 20
3916.428095539313
 30
0.0
 10
5621.243289496746
 20
3921.902854576088
 30
0.0
 10
5618.098406850676
 20
3926.410818096196
 30
0.0
 10
5615.558784025182
 20
3928.773402953532
 30
0.0
 10
5614.244578711264
 20
3929.629076145991
 30
0.0
 11
5620.45696614035
 21
3887.603895798704
 31
0.0
 11
5620.96381654216
 21
3887.772711750973
 31
0.0
 11
5623.658609451308
 21
3889.812451321097
 31
0.0
 11
5625.588850551302
 21
3893.429959563508
 31
0.0
 11
5626.598163193177
 21
3898.332167469877
 31
0.0
 11
5626.604778875229
 21
3904.121927346622
 31
0.0
 11
5625.608161608539
 21
3910.330187213863
 31
0.0
 11
5623.689051440289
 21
3916.453990810417
 31
0.0
 11
5621.002923239562
 21
3921.997224019672
 31
0.0
 11
5617.767391158853
 21
3926.510807005279
 31
0.0
 11
5614.244578711264
 21
3929.629076145991
 31
0.0
  0
SPLINE
  5
62683
330
2
100
AcDbEntity
  8
0
  6
Continuous
 62
     7
100
AcDbSpline
210
0.0
220
0.0
230
1.0
 70
  1064
 71
     3
 72
     9
 73
     5
 74
     3
 42
0.000000001
 43
0.0000000001
 44
0.0000000001
 12
0.0156035372490526
 22
-0.9998782574020285
 32
0.0
 13
0.8380238640787657
 23
-0.545633579643422
 33
0.0
 40
0.0
 40
0.0
 40
0.0
 40
0.0
 40
1.545822991532793
 40
3.805774430635899
 40
3.805774430635899
 40
3.805774430635899
 40
3.805774430635899
 10
5548.872902575588
 20
3860.192997581769
 30
0.0
 10
5548.880942677798
 20
3859.677785982094
 30
0.0
 10
5549.324666493786
 20
3858.407372461584
 30
0.0
 10
5550.349360637973
 20
3857.578279272676
 30
0.0
 10
5550.980658383848
 20
3857.167244141498
 30
0.0
 11
5548.872902575588
 21
3860.192997581769
 31
0.0
 11
5549.337253605546
 21
3858.718566558584
 31
0.0
 11
5550.980658383848
 21
3857.167244141498
 31
0.0
  0
SPLINE
  5
62684
330
2
100
AcDbEntity
  8
0
  6
Continuous
 62
     7
100
AcDbSpline
210
0.0
220
0.0
230
1.0
 70
  1064
 71
     3
 72
    16
 73
    12
 74
    10
 42
0.000000001
 43
0.0000000001
 44
0.0000000001
 12
0.8380238622991436
 22
-0.5456335823766955
 32
0.0
 13
-0.9637791266280718
 23
-0.2667016968000597
 33
0.0
 40
0.0
 40
0.0
 40
0.0
 40
0.0
 40
2.913052927670508
 40
6.386087045981571
 40
10.2246452980672
 40
14.15945645646692
 40
17.90389291185782
 40
21.20648803032048
 40
23.91407846748481
 40
26.07243030692889
 40
26.73364341491006
 40
26.73364341491006
 40
26.73364341491006
 40
26.73364341491006
 10
5592.866797685019
 20
3914.495562850354
 30
0.0
 10
5593.680533640196
 20
3913.965743015495
 30
0.0
 10
5595.239702086476
 20
3912.464344959364
 30
0.0
 10
5597.116264410972
 20
3909.600333796639
 30
0.0
 10
5598.611879313769
 20
3906.14370303018
 30
0.0
 10
5599.581900526455
 20
3902.413847637689
 30
0.0
 10
5599.941513208747
 20
3898.753919207829
 30
0.0
 10
5599.651450107343
 20
3895.489801737772
 30
0.0
 10
5598.744109303883
 20
3892.886087154977
 30
0.0
 10
5597.426876778739
 20
3891.455399857689
 30
0.0
 10
5596.541139175344
 20
3891.114471120507
 30
0.0
 10
5596.328718044769
 20
3891.055688901225
 30
0.0
 11
5592.866797685019
 21
3914.495562850354
 31
0.0
 11
5595.022433142043
 21
3912.536197357184
 31
0.0
 11
5596.965790670296
 21
3909.657772874183
 31
0.0
 11
5598.506640892932
 21
3906.14204961345
 31
0.0
 11
5599.49415464138
 21
3902.333171110676
 31
0.0
 11
5599.831667180356
 21
3898.603976874049
 31
0.0
 11
5599.486140464579
 21
3895.319506474551
 31
0.0
 11
5598.491397027477
 21
3892.801266718339
 31
0.0
 11
5596.944809274695
 21
3891.295760495909
 31
0.0
 11
5596.328718044769
 21
3891.055688901225
 31
0.0
  0
DIMENSION
  5
6272F
330
2
100
AcDbEntity
  8
标注
100
AcDbDimension
280
     0
  2
*D1
 10
5787.908734563714
 20
3078.026939426746
 30
0.0
 11
5484.628178354867
 21
3278.997069513395
 31
0.0
 70
   161
  1
940
 71
     5
 42
546.740954540694
 73
     0
 74
     0
 75
     0
  3
线性标注
100
AcDbAlignedDimension
 13
5538.12414799033
 23
3431.645899856509
 33
0.0
 14
5993.882383577849
 24
3129.635797266841
 34
0.0
  0
LINE
  5
6280F
330
2
100
AcDbEntity
  8
中心线
100
AcDbLine
 10
4867.999225793716
 20
3442.026501738646
 30
0.0
 11
3951.097559393156
 21
3442.026501738646
 31
0.0
  0
LINE
  5
62810
330
2
100
AcDbEntity
  8
中心线
100
AcDbLine
 10
3896.097559393156
 20
3497.026501738647
 30
0.0
 11
3896.097559393155
 21
4078.120755151567
 31
0.0
  0
LINE
  5
62811
330
2
100
AcDbEntity
  8
0
100
AcDbLine
 10
3880.197559393156
 20
3497.026501738647
 30
0.0
 11
3880.197559393155
 21
4042.026501738646
 31
0.0
  0
LINE
  5
62812
330
2
100
AcDbEntity
  8
0
100
AcDbLine
 10
3911.997559393156
 20
3497.026501738647
 30
0.0
 11
3911.997559393153
 21
4042.026501738646
 31
0.0
  0
ARC
  5
62813
330
2
100
AcDbEntity
  8
中心线
100
AcDbCircle
 10
3951.097559393156
 20
3497.026501738647
 30
0.0
 40
55.0
100
AcDbArc
 50
180.0
 51
270.0
  0
ARC
  5
62814
330
2
100
AcDbEntity
  8
0
100
AcDbCircle
 10
3951.097559393156
 20
3497.026501738647
 30
0.0
 40
70.9
100
AcDbArc
 50
180.0
 51
270.0
  0
ARC
  5
62815
330
2
100
AcDbEntity
  8
0
100
AcDbCircle
 10
3951.097559393156
 20
3497.026501738647
 30
0.0
 40
39.1
100
AcDbArc
 50
180.0
 51
270.0
  0
LINE
  5
62816
330
2
100
AcDbEntity
  8
0
100
AcDbLine
 10
4836.097559393154
 20
3457.926501738647
 30
0.0
 11
3951.097559393156
 21
3457.926501738647
 31
0.0
  0
LINE
  5
62817
330
2
100
AcDbEntity
  8
0
100
AcDbLine
 10
4836.097559393154
 20
3426.126501738647
 30
0.0
 11
3951.097559393156
 21
3426.126501738647
 31
0.0
  0
ARC
  5
62818
330
2
100
AcDbEntity
  8
0
100
AcDbCircle
 10
3896.097559393155
 20
4042.026501738646
 30
0.0
 40
15.89999999999963
100
AcDbArc
 50
0.0
 51
180.0
  0
ARC
  5
62819
330
2
100
AcDbEntity
  8
0
100
AcDbCircle
 10
3896.097559393155
 20
4042.026501738646
 30
0.0
 40
28.5
100
AcDbArc
 50
303.910329442758
 51
236.0896705572438
  0
ARC
  5
6281A
330
2
100
AcDbEntity
  8
0
100
AcDbCircle
 10
4836.097559393154
 20
3442.026501738646
 30
0.0
 40
15.90000000000009
100
AcDbArc
 50
270.0
 51
90.0
  0
ARC
  5
6281B
330
2
100
AcDbEntity
  8
0
100
AcDbCircle
 10
4836.097559393154
 20
3442.026501738646
 30
0.0
 40
28.5
100
AcDbArc
 50
213.9103294427433
 51
146.0896705572566
  0
LINE
  5
6281E
330
2
100
AcDbEntity
  8
0
100
AcDbLine
 10
4851.997559393156
 20
4202.792714254139
 30
0.0
 11
4851.997559393156
 21
4182.792714254139
 31
0.0
  0
LINE
  5
6281F
330
2
100
AcDbEntity
  8
0
100
AcDbLine
 10
4820.197559393155
 20
4202.792714254139
 30
0.0
 11
4820.197559393156
 21
4182.792714254139
 31
0.0
  0
LINE
  5
62820
330
2
100
AcDbEntity
  8
中心线
100
AcDbLine
 10
3896.097559393156
 20
4231.519816805231
 30
0.0
 11
3896.097559393156
 21
4105.006409448079
 31
0.0
  0
LINE
  5
62821
330
2
100
AcDbEntity
  8
中心线
100
AcDbLine
 10
4781.097559393156
 20
4127.792714254139
 30
0.0
 11
3870.947547066675
 21
4127.79271425414
 31
0.0
  0
LINE
  5
62822
330
2
100
AcDbEntity
  8
0
100
AcDbLine
 10
4781.097559393156
 20
4111.892714254139
 30
0.0
 11
3896.097559393156
 21
4111.892714254139
 31
0.0
  0
LINE
  5
62823
330
2
100
AcDbEntity
  8
0
100
AcDbLine
 10
4781.097559393156
 20
4143.692714254139
 30
0.0
 11
4005.996533520414
 21
4143.692714254139
 31
0.0
  0
ARC
  5
62824
330
2
100
AcDbEntity
  8
中心线
100
AcDbCircle
 10
4781.097559393156
 20
4182.792714254139
 30
0.0
 40
55.0
100
AcDbArc
 50
270.0
 51
0.0
  0
ARC
  5
62825
330
2
100
AcDbEntity
  8
0
100
AcDbCircle
 10
4781.097559393156
 20
4182.792714254139
 30
0.0
 40
70.9
100
AcDbArc
 50
270.0
 51
0.0
  0
ARC
  5
62826
330
2
100
AcDbEntity
  8
0
100
AcDbCircle
 10
4781.097559393156
 20
4182.792714254139
 30
0.0
 40
39.1
100
AcDbArc
 50
270.0
 51
0.0
  0
LINE
  5
62827
330
2
100
AcDbEntity
  8
0
100
AcDbLine
 10
4836.097559393154
 20
4215.792714254139
 30
0.0
 11
4864.597559393154
 21
4215.792714254139
 31
0.0
  0
LINE
  5
62828
330
2
100
AcDbEntity
  8
0
100
AcDbLine
 10
4864.597559393154
 20
4215.792714254139
 30
0.0
 11
4864.597559393154
 21
4202.792714254139
 31
0.0
  0
LINE
  5
62829
330
2
100
AcDbEntity
  8
0
100
AcDbLine
 10
4864.597559393154
 20
4202.792714254139
 30
0.0
 11
4836.097559393156
 21
4202.792714254139
 31
0.0
  0
LINE
  5
6282A
330
2
100
AcDbEntity
  8
0
100
AcDbLine
 10
4836.097559393156
 20
4215.792714254139
 30
0.0
 11
4807.597559393156
 21
4215.792714254139
 31
0.0
  0
LINE
  5
6282B
330
2
100
AcDbEntity
  8
0
100
AcDbLine
 10
4807.597559393156
 20
4215.792714254139
 30
0.0
 11
4807.597559393156
 21
4202.792714254139
 31
0.0
  0
LINE
  5
6282C
330
2
100
AcDbEntity
  8
0
100
AcDbLine
 10
4807.597559393156
 20
4202.792714254139
 30
0.0
 11
4836.097559393154
 21
4202.792714254139
 31
0.0
  0
LINE
  5
6282D
330
2
100
AcDbEntity
  8
中心线
100
AcDbLine
 10
4882.821908378076
 20
4215.792714254139
 30
0.0
 11
3841.049246507214
 21
4215.792714254139
 31
0.0
  0
LINE
  5
6282E
330
2
100
AcDbEntity
  8
中心线
100
AcDbLine
 10
4836.097559393156
 20
4182.792714254139
 30
0.0
 11
4836.097559393156
 21
4227.288991302969
 31
0.0
  0
LINE
  5
6282F
330
2
100
AcDbEntity
  8
中心线
100
AcDbLine
 10
4836.097559393154
 20
3478.39036030377
 30
0.0
 11
4836.097559393154
 21
3408.474765465248
 31
0.0
  0
LINE
  5
62830
330
2
100
AcDbEntity
  8
0
100
AcDbLine
 10
3924.59755939316
 20
4215.79271425414
 30
0.0
 11
3896.097559393162
 21
4215.792714254139
 31
0.0
  0
LINE
  5
62831
330
2
100
AcDbEntity
  8
0
100
AcDbLine
 10
3867.597559393161
 20
4215.79271425414
 30
0.0
 11
3896.09755939316
 21
4215.792714254139
 31
0.0
  0
LINE
  5
62832
330
2
100
AcDbEntity
  8
0
100
AcDbLine
 10
3924.59755939316
 20
4215.79271425414
 30
0.0
 11
3924.59755939316
 21
4202.792714254139
 31
0.0
  0
LINE
  5
62833
330
2
100
AcDbEntity
  8
0
100
AcDbLine
 10
3867.597559393161
 20
4202.468048812547
 30
0.0
 11
3867.52166363194
 21
4215.792714254139
 31
0.0
  0
LINE
  5
62834
330
2
100
AcDbEntity
  8
0
100
AcDbLine
 10
3924.59755939316
 20
4202.792714254139
 30
0.0
 11
3867.597559393161
 21
4202.468048812547
 31
0.0
  0
ARC
  5
62835
330
2
100
AcDbEntity
  8
0
100
AcDbCircle
 10
3896.097559393156
 20
4127.79271425414
 30
0.0
 40
15.90000000000009
100
AcDbArc
 50
180.0
 51
0.6526932771456556
  0
LINE
  5
62836
330
2
100
AcDbEntity
  8
0
100
AcDbLine
 10
3911.997559393156
 20
4127.79271425414
 30
0.0
 11
3911.570790651467
 21
4202.718515278244
 31
0.0
  0
LINE
  5
62837
330
2
100
AcDbEntity
  8
0
100
AcDbLine
 10
3880.197559393156
 20
4127.79271425414
 30
0.0
 11
3879.771822308745
 21
4202.537392013346
 31
0.0
  0
LINE
  5
62838
330
2
100
AcDbEntity
  8
中心线
100
AcDbLine
 10
3929.829795329298
 20
4042.026501738646
 30
0.0
 11
3860.398010540836
 21
4042.026501738646
 31
0.0
  0
DIMENSION
  5
62839
330
2
100
AcDbEntity
  8
标注
100
AcDbDimension
280
     0
  2
*D2
 10
3751.993969243829
 20
3442.026501738646
 30
0.0
 11
3736.368969243829
 21
3742.026501738647
 31
0.0
 70
    32
 71
     5
 42
600.0
 73
     0
 74
     0
 75
     0
  3
线性标注
100
AcDbAlignedDimension
 13
3867.597559393154
 23
4042.026501738646
 33
0.0
 14
3964.324227585619
 24
3442.026501738646
 34
0.0
 50
90.0
100
AcDbRotatedDimension
  0
DIMENSION
  5
6283A
330
2
100
AcDbEntity
  8
标注
100
AcDbDimension
280
     0
  2
*D3
 10
4836.097559393154
 20
3069.781308128459
 30
0.0
 11
4366.097559393155
 21
3085.406308128459
 31
0.0
 70
    32
 71
     5
 42
939.9999999999986
 73
     0
 74
     0
 75
     0
  3
线性标注
100
AcDbAlignedDimension
 13
3896.097559393156
 23
3497.026501738647
 33
0.0
 14
4836.097559393154
 24
3442.026501738646
 34
0.0
 50
180.0
100
AcDbRotatedDimension
  0
DIMENSION
  5
6283B
330
2
100
AcDbEntity
  8
标注
100
AcDbDimension
280
     0
  2
*D4
 10
4906.521015034378
 20
4202.792714254139
 30
0.0
 11
4906.521015034377
 21
4246.208388578731
 31
0.0
 70
   160
 71
     5
 42
13.0
 73
     0
 74
     0
 75
     0
  3
线性标注
100
AcDbAlignedDimension
 13
4807.597559393156
 23
4215.792714254139
 33
0.0
 14
4807.597559393156
 24
4202.792714254139
 34
0.0
 50
90.0
100
AcDbRotatedDimension
  0
DIMENSION
  5
6283C
330
2
100
AcDbEntity
  8
标注
100
AcDbDimension
280
     0
  2
*D5
 10
4930.04510007184
 20
4215.792714254139
 30
0.0
 11
4930.04510007184
 21
4164.044919911239
 31
0.0
 70
   160
  1
88
 71
     5
 42
103.8999999999996
 73
     0
 74
     0
 75
     0
  3
线性标注
100
AcDbAlignedDimension
 13
4781.097559393156
 23
4111.892714254139
 33
0.0
 14
4864.597559393154
 24
4215.792714254139
 34
0.0
 50
90.0
100
AcDbRotatedDimension
  0
DIMENSION
  5
6283D
330
2
100
AcDbEntity
  8
标注
100
AcDbDimension
280
     0
  2
*D6
 10
3951.097559393153
 20
3497.026501738642
 30
0.0
 11
3837.551793806447
 21
3386.86610192784
 31
0.0
 70
   164
 71
     5
 42
54.99999999999545
 73
     0
 74
     0
 75
     0
  3
线性标注
100
AcDbRadialDimension
 15
3911.622667127747
 25
3458.728552960227
 35
0.0
 40
0.0
1001
ACAD
1000
DSTYLE
1002
{
1070
   288
1070
     1
1002
}
1001
ACAD_DSTYLE_DIMRADIAL_EXTENSION
1070
   387
1070
     1
1070
   388
1040
4.712388980384689
1070
   390
1040
0.0
  0
DIMENSION
  5
6283E
330
2
100
AcDbEntity
  8
标注
100
AcDbDimension
280
     0
  2
*D7
 10
4781.097559393155
 20
4182.792714254148
 30
0.0
 11
4891.927631017496
 21
4049.61302496505
 31
0.0
 70
   164
  1
2-<>
 71
     5
 42
55.00000000001
 73
     0
 74
     0
 75
     0
  3
线性标注
100
AcDbRadialDimension
 15
4816.279029828689
 25
4140.5166673955
 35
0.0
 40
0.0
1001
ACAD
1000
DSTYLE
1002
{
1070
   288
1070
     1
1002
}
1001
ACAD_DSTYLE_DIMRADIAL_EXTENSION
1070
   387
1070
     1
1070
   388
1040
3.141592653589793
1070
   390
1040
4.712388980384689
  0
DIMENSION
  5
6283F
330
2
100
AcDbEntity
  8
标注
100
AcDbDimension
280
     0
  2
*D8
 10
4860.644003192124
 20
3427.544716737341
 30
0.0
 11
4749.807279467985
 21
3492.935598462118
 31
0.0
 70
   163
  1
{\fGulim|b0|i0|c129|p34;3-<>}
 71
     5
 42
57.0
 73
     0
 74
     0
 75
     0
  3
线性标注
100
AcDbDiametricDimension
 15
4811.551115594188
 25
3456.508286739955
 35
0.0
 40
0.0
1001
ACAD
1000
DSTYLE
1002
{
1070
   288
1070
     1
1002
}
1001
ACAD_DSTYLE_DIMRADIAL_EXTENSION
1070
   387
1070
     1
1070
   388
1040
0.5918468992120046
1070
   390
1040
5.691338407967581
  0
LINE
  5
62A16
330
2
100
AcDbEntity
  8
中心线
100
AcDbLine
 10
3453.438490898474
 20
4042.026501738646
 30
0.0
 11
3506.824608787623
 21
4042.026501738646
 31
0.0
  0
LINE
  5
62A17
330
2
100
AcDbEntity
  8
0
100
AcDbLine
 10
3486.824608787623
 20
4057.926501738646
 30
0.0
 11
3506.824608787623
 21
4057.926501738646
 31
0.0
  0
LINE
  5
62A18
330
2
100
AcDbEntity
  8
0
100
AcDbLine
 10
3486.824608787623
 20
4026.126501738645
 30
0.0
 11
3506.824608787623
 21
4026.126501738645
 31
0.0
  0
LINE
  5
62A19
330
2
100
AcDbEntity
  8
中心线
100
AcDbLine
 10
3464.251495043426
 20
3442.026501738646
 30
0.0
 11
3591.013105156699
 21
3442.026501738646
 31
0.0
  0
LINE
  5
62A1B
330
2
100
AcDbEntity
  8
中心线
100
AcDbLine
 10
3561.824608787623
 20
3987.026501738646
 30
0.0
 11
3561.824608787623
 21
3392.549214828198
 31
0.0
  0
LINE
  5
62A1C
330
2
100
AcDbEntity
  8
0
100
AcDbLine
 10
3577.724608787623
 20
3987.026501738646
 30
0.0
 11
3577.724608787623
 21
3442.026501738646
 31
0.0
  0
LINE
  5
62A1D
330
2
100
AcDbEntity
  8
0
100
AcDbLine
 10
3545.924608787624
 20
3987.026501738646
 30
0.0
 11
3545.924608787621
 21
3442.026501738646
 31
0.0
  0
ARC
  5
62A1F
330
2
100
AcDbEntity
  8
中心线
100
AcDbCircle
 10
3506.824608787623
 20
3987.026501738646
 30
0.0
 40
55.0
100
AcDbArc
 50
0.000000000000007
 51
90.0
  0
ARC
  5
62A20
330
2
100
AcDbEntity
  8
0
100
AcDbCircle
 10
3506.824608787623
 20
3987.026501738646
 30
0.0
 40
70.9
100
AcDbArc
 50
0.000000000000007
 51
90.0
  0
ARC
  5
62A21
330
2
100
AcDbEntity
  8
0
100
AcDbCircle
 10
3506.824608787623
 20
3987.026501738646
 30
0.0
 40
39.1
100
AcDbArc
 50
0.000000000000007
 51
90.0
  0
LINE
  5
62A22
330
2
100
AcDbEntity
  8
0
100
AcDbLine
 10
3473.824608787623
 20
4042.026501738646
 30
0.0
 11
3473.824608787623
 21
4070.526501738647
 31
0.0
  0
LINE
  5
62A23
330
2
100
AcDbEntity
  8
0
100
AcDbLine
 10
3486.824608787623
 20
4042.026501738646
 30
0.0
 11
3486.824608787623
 21
4070.526501738647
 31
0.0
  0
LINE
  5
62A24
330
2
100
AcDbEntity
  8
0
100
AcDbLine
 10
3473.824608787622
 20
4070.526501738647
 30
0.0
 11
3486.824608787623
 21
4070.526501738647
 31
0.0
  0
LINE
  5
62A25
330
2
100
AcDbEntity
  8
0
100
AcDbLine
 10
3473.824608787623
 20
4042.026501738646
 30
0.0
 11
3473.824608787623
 21
4013.526501738645
 31
0.0
  0
LINE
  5
62A26
330
2
100
AcDbEntity
  8
0
100
AcDbLine
 10
3486.824608787623
 20
4042.026501738646
 30
0.0
 11
3486.824608787623
 21
4013.526501738645
 31
0.0
  0
LINE
  5
62A27
330
2
100
AcDbEntity
  8
0
100
AcDbLine
 10
3473.824608787622
 20
4013.526501738645
 30
0.0
 11
3486.824608787623
 21
4013.526501738645
 31
0.0
  0
LINE
  5
62A28
330
2
100
AcDbEntity
  8
中心线
100
AcDbLine
 10
3473.824608787622
 20
4013.526501738645
 30
0.0
 11
3473.824608787622
 21
3399.505805991426
 31
0.0
  0
LINE
  5
62A2D
330
2
100
AcDbEntity
  8
0
100
AcDbLine
 10
3473.824608787622
 20
3442.026501738646
 30
0.0
 11
3473.824608787622
 21
3470.526501738647
 31
0.0
  0
LINE
  5
62A2E
330
2
100
AcDbEntity
  8
0
100
AcDbLine
 10
3486.824608787622
 20
3442.026501738646
 30
0.0
 11
3486.824608787622
 21
3470.526501738647
 31
0.0
  0
LINE
  5
62A2F
330
2
100
AcDbEntity
  8
0
100
AcDbLine
 10
3473.824608787622
 20
3442.026501738646
 30
0.0
 11
3473.824608787622
 21
3413.526501738646
 31
0.0
  0
LINE
  5
62A30
330
2
100
AcDbEntity
  8
0
100
AcDbLine
 10
3486.824608787622
 20
3442.026501738646
 30
0.0
 11
3486.824608787622
 21
3413.526501738646
 31
0.0
  0
ARC
  5
62A31
330
2
100
AcDbEntity
  8
0
100
AcDbCircle
 10
3561.824608787623
 20
3442.026501738646
 30
0.0
 40
15.89999999999963
100
AcDbArc
 50
180.0
 51
0.000000000000007
  0
LINE
  5
62A32
330
2
100
AcDbEntity
  8
0
100
AcDbLine
 10
3545.924608787622
 20
3457.926501738647
 30
0.0
 11
3486.824608787622
 21
3457.926501738646
 31
0.0
  0
LINE
  5
62A33
330
2
100
AcDbEntity
  8
0
100
AcDbLine
 10
3561.824608787623
 20
3426.126501738647
 30
0.0
 11
3486.824608787622
 21
3426.126501738647
 31
0.0
  0
LINE
  5
62A38
330
2
100
AcDbEntity
  8
0
100
AcDbLine
 10
3473.824608787622
 20
3413.526501738646
 30
0.0
 11
3486.824608787622
 21
3413.526501738646
 31
0.0
  0
LINE
  5
62A39
330
2
100
AcDbEntity
  8
0
100
AcDbLine
 10
3473.824608787622
 20
3470.526501738647
 30
0.0
 11
3486.824608787622
 21
3470.526501738647
 31
0.0
  0
DIMENSION
  5
62A3C
330
2
100
AcDbEntity
  8
标注
100
AcDbDimension
280
     0
  2
*D9
 10
3473.824608787623
 20
3960.852884419979
 30
0.0
 11
3449.271037359052
 21
3960.852884419979
 31
0.0
 70
   160
 71
     5
 42
13.0
 73
     0
 74
     0
 75
     0
  3
线性标注
100
AcDbAlignedDimension
 13
3486.824608787623
 23
4013.526501738645
 33
0.0
 14
3473.824608787623
 24
4013.526501738645
 34
0.0
 50
0.000000000000007
100
AcDbRotatedDimension
  0
DIMENSION
  5
62A3D
330
2
100
AcDbEntity
  8
标注
100
AcDbDimension
280
     0
  2
*D10
 10
3577.724608787623
 20
4092.230057756926
 30
0.0
 11
3525.774608787623
 21
4107.855057756926
 31
0.0
 70
    32
  1
88
 71
     5
 42
103.8999999999996
 73
     0
 74
     0
 75
     0
  3
线性标注
100
AcDbAlignedDimension
 13
3473.824608787623
 23
4070.526501738647
 33
0.0
 14
3577.724608787623
 24
3987.026501738646
 34
0.0
 50
0.000000000000007
100
AcDbRotatedDimension
  0
DIMENSION
  5
62A3E
330
2
100
AcDbEntity
  8
标注
100
AcDbDimension
280
     0
  2
*D11
 10
3506.82460878763
 20
3987.026501738644
 30
0.0
 11
3642.141075161497
 21
4027.388912783716
 31
0.0
 70
   164
 71
     5
 42
54.99999999999545
 73
     0
 74
     0
 75
     0
  3
线性标注
100
AcDbRadialDimension
 15
3559.529916251927
 25
4002.747524768119
 35
0.0
 40
0.0
1001
ACAD
1000
DSTYLE
1002
{
1070
   288
1070
     1
1002
}
1001
ACAD_DSTYLE_DIMRADIAL_EXTENSION
1070
   387
1070
     1
1070
   388
1040
0.0
1070
   390
1040
1.570796326794896
  0
DIMENSION
  5
62DF5
330
2
100
AcDbEntity
  8
标注
100
AcDbDimension
280
     0
  2
*D12
 10
5634.477805265273
 20
3978.384875508938
 30
0.0
 11
5595.695145405267
 21
3967.23971547725
 31
0.0
 70
   161
  1
88
 71
     5
 42
75.87433919765863
 73
     0
 74
     0
 75
     0
  3
线性标注
100
AcDbAlignedDimension
 13
5561.504068483628
 23
3912.957634083459
 33
0.0
 14
5634.426990363692
 24
3933.913845887015
 34
0.0
  0
DIMENSION
  5
62EA1
330
2
100
AcDbEntity
  8
标注
100
AcDbDimension
280
     0
  2
*D13
 10
5573.704606502493
 20
3558.924182425321
 30
0.0
 11
5789.811725732533
 21
3550.550906196184
 31
0.0
 70
    34
  1
90%%D
 71
     5
 42
2.1467986475489
 73
     0
 74
     0
 75
     0
  3
线性标注
100
AcDb2LineAngularDimension
 13
5982.553709148486
 23
3167.169168262373
 33
0.0
 14
5591.970396307706
 24
3421.476213414622
 34
0.0
 15
5573.598292213254
 25
3465.882469439396
 35
0.0
 16
5801.647111718684
 26
3465.245208894024
 36
0.0
  0
DIMENSION
  5
62EC4
330
2
100
AcDbEntity
  8
标注
100
AcDbDimension
280
     0
  2
*D14
 10
5484.789318680558
 20
3474.910353733876
 30
0.0
 11
5484.789318680558
 21
3712.462786332062
 31
0.0
 70
   160
  1
600
 71
     5
 42
509.0651620500852
 73
     0
 74
     0
 75
     0
  3
线性标注
100
AcDbAlignedDimension
 13
5548.445348543253
 23
3940.204070808596
 33
0.0
 14
5538.749147990331
 24
3431.13890875851
 34
0.0
 50
90.0
100
AcDbRotatedDimension
  0
LINE
  5
63079
330
2
100
AcDbEntity
  8
中心线
100
AcDbLine
 10
3932.626191235002
 20
3360.517501639146
 30
0.0
 11
4059.387801348274
 21
3360.517501639146
 31
0.0
  0
LINE
  5
6307A
330
2
100
AcDbEntity
  8
中心线
100
AcDbLine
 10
3996.097559393156
 20
3469.732647033161
 30
0.0
 11
3996.097559393156
 21
3322.466680168421
 31
0.0
  0
LINE
  5
6307B
330
2
100
AcDbEntity
  8
0
100
AcDbLine
 10
4006.097559393156
 20
3424.617501639146
 30
0.0
 11
4006.097559393156
 21
3360.517501639146
 31
0.0
  0
LINE
  5
6307C
330
2
100
AcDbEntity
  8
0
100
AcDbLine
 10
3986.097559393156
 20
3424.617501639146
 30
0.0
 11
3986.097559393156
 21
3360.517501639146
 31
0.0
  0
ARC
  5
6307D
330
2
100
AcDbEntity
  8
0
100
AcDbCircle
 10
3996.097559393156
 20
3360.517501639146
 30
0.0
 40
10.00000000000091
100
AcDbArc
 50
180.0
 51
0.0
  0
ARC
  5
6307E
330
2
100
AcDbEntity
  8
0
100
AcDbCircle
 10
3996.097559393156
 20
3360.517501639146
 30
0.0
 40
28.5
100
AcDbArc
 50
110.5409775375132
 51
69.45902246248675
  0
DIMENSION
  5
63080
330
2
100
AcDbEntity
  8
标注
100
AcDbDimension
280
     0
  2
*D15
 10
3987.460771021811
 20
3365.55792688198
 30
0.0
 11
4096.925703724672
 21
3301.674248565721
 31
0.0
 70
   163
 71
     5
 42
20.00000000000318
 73
     0
 74
     0
 75
     0
  3
线性标注
100
AcDbDiametricDimension
 15
4004.734347764503
 25
3355.477076396311
 35
0.0
 40
0.0
1001
ACAD
1000
DSTYLE
1002
{
1070
   288
1070
     1
1002
}
1001
ACAD_DSTYLE_DIMRADIAL_EXTENSION
1070
   387
1070
     1
1070
   388
1040
3.141592653589793
1070
   390
1040
0.0
  0
MTEXT
  5
63084
330
2
100
AcDbEntity
  8
标注
100
AcDbMText
 10
3907.48209320737
 20
3265.817167218027
 30
0.0
 40
21.0
 41
81.096921757764
 46
0.0
 71
     1
 72
     5
  1
{\fSimHei|b0|i0|c134|p2; B}
  7
黑体
 73
     1
 44
1.0
1001
ACAD
1000
ACAD_MTEXT_COLUMN_INFO_BEGIN
1070
    75
1070
     2
1070
    79
1070
     0
1070
    76
1070
     1
1070
    78
1070
     0
1070
    48
1040
81.096921757764
1070
    49
1040
30.0
1070
    50
1070
     1
1040
0.0
1000
ACAD_MTEXT_COLUMN_INFO_END
  0
LWPOLYLINE
  5
63085
330
2
100
AcDbEntity
  8
标注
100
AcDbPolyline
 90
        3
 70
     1
 43
0.0
 10
3952.562442489978
 20
3239.111489256854
 10
3929.063842479723
 20
3279.384086152099
 10
3905.936050497199
 20
3238.897403142225
  0
LINE
  5
631AE
330
2
100
AcDbEntity
  8
中心线
100
AcDbLine
 10
3996.097559393156
 20
4231.519816805231
 30
0.0
 11
3996.097559393156
 21
4105.006409448079
 31
0.0
  0
ARC
  5
631AF
330
2
100
AcDbEntity
  8
中心线
100
AcDbCircle
 10
3515.824608787624
 20
3406.549214828198
 30
0.0
 40
46.0
100
AcDbArc
 50
270.0
 51
0.000000000000007
  0
ARC
  5
631B0
330
2
100
AcDbEntity
  8
0
100
AcDbCircle
 10
3515.824608787624
 20
3406.549214828198
 30
0.0
 40
36.0
100
AcDbArc
 50
270.0
 51
0.000000000000007
  0
ARC
  5
631B1
330
2
100
AcDbEntity
  8
0
100
AcDbCircle
 10
3515.824608787624
 20
3406.549214828198
 30
0.0
 40
56.0
100
AcDbArc
 50
270.0
 51
0.000000000000007
  0
LINE
  5
631B2
330
2
100
AcDbEntity
  8
0
100
AcDbLine
 10
3473.824608787622
 20
3332.049214828197
 30
0.0
 11
3473.824608787622
 21
3389.049214828196
 31
0.0
  0
LINE
  5
631B3
330
2
100
AcDbEntity
  8
0
100
AcDbLine
 10
3486.824608787622
 20
3332.049214828197
 30
0.0
 11
3486.824608787622
 21
3389.049214828196
 31
0.0
  0
LINE
  5
631B4
330
2
100
AcDbEntity
  8
0
100
AcDbLine
 10
3486.824608787622
 20
3389.049214828196
 30
0.0
 11
3473.824608787622
 21
3389.049214828196
 31
0.0
  0
LINE
  5
631B5
330
2
100
AcDbEntity
  8
0
100
AcDbLine
 10
3486.824608787622
 20
3332.049214828197
 30
0.0
 11
3473.824608787622
 21
3332.049214828197
 31
0.0
  0
LINE
  5
631B6
330
2
100
AcDbEntity
  8
0
100
AcDbLine
 10
3551.824608787624
 20
3424.689423638414
 30
0.0
 11
3551.824608787624
 21
3406.549214828198
 31
0.0
  0
LINE
  5
631B7
330
2
100
AcDbEntity
  8
0
100
AcDbLine
 10
3571.824608787623
 20
3428.187580632024
 30
0.0
 11
3571.824608787623
 21
3406.549214828198
 31
0.0
  0
LINE
  5
631B8
330
2
100
AcDbEntity
  8
中心线
100
AcDbLine
 10
3515.824608787624
 20
3360.549214828198
 30
0.0
 11
3464.427161952932
 21
3360.549214828197
 31
0.0
  0
LINE
  5
631B9
330
2
100
AcDbEntity
  8
0
100
AcDbLine
 10
3515.824608787624
 20
3370.549214828198
 30
0.0
 11
3486.824608787622
 21
3370.549214828198
 31
0.0
  0
LINE
  5
631BA
330
2
100
AcDbEntity
  8
0
100
AcDbLine
 10
3515.824608787624
 20
3350.549214828197
 30
0.0
 11
3486.824608787622
 21
3350.549214828197
 31
0.0
  0
LINE
  5
631BB
330
2
100
AcDbEntity
  8
0
100
AcDbLine
 10
3986.097559393158
 20
4202.792714254139
 30
0.0
 11
3986.097559393156
 21
4143.722127001725
 31
0.0
  0
LINE
  5
631BC
330
2
100
AcDbEntity
  8
0
100
AcDbLine
 10
4006.097559393156
 20
4202.792714254139
 30
0.0
 11
4006.097559393156
 21
4143.722127001725
 31
0.0
  0
LINE
  5
631BE
330
2
100
AcDbEntity
  8
0
100
AcDbLine
 10
3967.597559393156
 20
4215.79271425414
 30
0.0
 11
4024.597559393156
 21
4215.792714254138
 31
0.0
  0
LINE
  5
631BF
330
2
100
AcDbEntity
  8
0
100
AcDbLine
 10
3967.597559393156
 20
4215.79271425414
 30
0.0
 11
4024.597559393156
 21
4215.792714254138
 31
0.0
  0
LINE
  5
631C0
330
2
100
AcDbEntity
  8
0
100
AcDbLine
 10
3967.597559393156
 20
4202.792714254139
 30
0.0
 11
4024.597559393156
 21
4202.792714254139
 31
0.0
  0
LINE
  5
631C1
330
2
100
AcDbEntity
  8
0
100
AcDbLine
 10
3967.597559393156
 20
4215.79271425414
 30
0.0
 11
3967.597559393156
 21
4202.792714254139
 31
0.0
  0
LINE
  5
631C2
330
2
100
AcDbEntity
  8
0
100
AcDbLine
 10
4024.597559393156
 20
4215.792714254138
 30
0.0
 11
4024.597559393156
 21
4202.792714254139
 31
0.0
  0
LINE
  5
631C3
330
2
100
AcDbEntity
  8
中心线
100
AcDbLine
 10
3996.097559393156
 20
4231.519816805231
 30
0.0
 11
3996.097559393156
 21
4105.006409448079
 31
0.0
  0
LINE
  5
631C4
330
2
100
AcDbEntity
  8
0
100
AcDbLine
 10
3986.198585265898
 20
4143.692714254139
 30
0.0
 11
3911.906994822606
 21
4143.69271425414
 31
0.0
  0
DIMENSION
  5
631C5
330
2
100
AcDbEntity
  8
标注
100
AcDbDimension
280
     0
  2
*D16
 10
3996.097559393156
 20
3287.711352614717
 30
0.0
 11
3946.097559393156
 21
3303.336352614717
 31
0.0
 70
    32
 71
     5
 42
100.0
 73
     0
 74
     0
 75
     0
  3
线性标注
100
AcDbAlignedDimension
 13
3896.097559393156
 23
3496.401501738647
 33
0.0
 14
3996.097559393156
 24
3322.466680168421
 34
0.0
100
AcDbRotatedDimension
  0
MTEXT
  5
631E7
330
2
100
AcDbEntity
  8
0
100
AcDbMText
 10
3970.969632240983
 20
3190.771770913704
 30
0.0
 40
30.0
 41
201.7942574699391
 46
0.0
 71
     1
 72
     5
  1
A
  7
黑体
 73
     1
 44
1.0
  0
LINE
  5
631E8
330
2
100
AcDbEntity
  8
0
100
AcDbLine
 10
3993.521647699078
 20
3616.120672647328
 30
0.0
 11
3993.521647699078
 21
3644.500834655725
 31
0.0
  0
LWPOLYLINE
  5
631E9
330
2
100
AcDbEntity
  8
0
100
AcDbPolyline
 90
        2
 70
     0
 10
3993.521647699078
 20
3644.500834655725
 40
2.0
 41
0.0
 10
4062.436009072766
 20
3644.500834655725
 40
0.0
 41
0.0
  0
LINE
  5
631EA
330
2
100
AcDbEntity
  8
0
100
AcDbLine
 10
3995.083311372286
 20
3201.720687471262
 30
0.0
 11
3995.796686519501
 21
3173.349492721617
 31
0.0
  0
LWPOLYLINE
  5
631EB
330
2
100
AcDbEntity
  8
0
100
AcDbPolyline
 90
        2
 70
     0
 10
3995.796686519501
 20
3173.349492721617
 40
1.999999999999999
 41
0.0
 10
4064.689273073505
 20
3175.081751779039
 40
0.0
 41
0.0
  0
MTEXT
  5
631EC
330
2
100
AcDbEntity
  8
0
100
AcDbMText
 10
3966.480648577872
 20
3659.2827893202
 30
0.0
 40
30.0
 41
201.7942574699391
 46
0.0
 71
     1
 72
     5
  1
A
  7
黑体
 73
     1
 44
1.0
  0
MTEXT
  5
63256
330
2
100
AcDbEntity
  8
标注
100
AcDbMText
 10
5188.28783055283
 20
2961.340112557781
 30
0.0
 40
21.0
 41
81.096921757764
 46
0.0
 71
     1
 72
     5
  1
{\fSimHei|b0|i0|c134|p2; B}
  7
黑体
 73
     1
 44
1.0
1001
ACAD
1000
ACAD_MTEXT_COLUMN_INFO_BEGIN
1070
    75
1070
     2
1070
    79
1070
     0
1070
    76
1070
     1
1070
    78
1070
     0
1070
    48
1040
81.096921757764
1070
    49
1040
30.0
1070
    50
1070
     1
1040
0.0
1000
ACAD_MTEXT_COLUMN_INFO_END
  0
LWPOLYLINE
  5
63257
330
2
100
AcDbEntity
  8
标注
100
AcDbPolyline
 90
        3
 70
     1
 43
0.0
 10
5233.368179835438
 20
2934.634434596609
 10
5209.869579825183
 20
2974.907031491853
 10
5186.741787842659
 20
2934.42034848198
  0
LINE
  5
63258
330
2
100
AcDbEntity
  8
中心线
100
AcDbLine
 10
5168.810399659061
 20
3191.493124043264
 30
0.0
 11
5256.810399659062
 21
3191.493124043264
 31
0.0
  0
ARC
  5
63259
330
2
100
AcDbEntity
  8
0
100
AcDbCircle
 10
5240.910399659062
 20
3191.493124043264
 30
0.0
 40
14.8
100
AcDbArc
 50
270.0
 51
90.0
  0
ARC
  5
6325A
330
2
100
AcDbEntity
  8
0
100
AcDbCircle
 10
5240.910399659062
 20
3191.493124043264
 30
0.0
 40
15.9
100
AcDbArc
 50
270.0
 51
90.0
  0
DIMENSION
  5
6325B
330
2
100
AcDbEntity
  8
标注
100
AcDbDimension
280
     0
  2
*D17
 10
5168.810399659063
 20
3028.907692318091
 30
0.0
 11
5144.256828230492
 21
3044.532692318091
 31
0.0
 70
    32
 71
     5
 42
12.99999999999909
 73
     0
 74
     0
 75
     0
  3
线性标注
100
AcDbAlignedDimension
 13
5181.810399659063
 23
3071.629806652247
 33
0.0
 14
5168.810399659063
 24
3071.629806652247
 34
0.0
 50
180.0
100
AcDbRotatedDimension
  0
DIMENSION
  5
6325C
330
2
100
AcDbEntity
  8
标注
100
AcDbDimension
280
     0
  2
*D18
 10
5232.341286191476
 20
3178.099831155415
 30
0.0
 11
5285.046659024033
 21
3260.476905257637
 31
0.0
 70
   163
 71
     5
 42
31.80000000000018
 73
     0
 74
     0
 75
     0
  3
线性标注
100
AcDbDiametricDimension
 15
5249.479513126646
 25
3204.886416931108
 35
0.0
 40
0.0
1001
ACAD
1000
DSTYLE
1002
{
1070
   288
1070
     1
1002
}
1001
ACAD_DSTYLE_DIMRADIAL_EXTENSION
1070
   387
1070
     1
1070
   388
1040
0.0
1070
   390
1040
0.0
  0
DIMENSION
  5
6325D
330
2
100
AcDbEntity
  8
标注
100
AcDbDimension
280
     0
  2
*D19
 10
5226.359650157297
 20
3194.197877070219
 30
0.0
 11
5322.10967358991
 21
3176.399469800612
 31
0.0
 70
   163
 71
     5
 42
29.59999999999855
 73
     0
 74
     0
 75
     0
  3
线性标注
100
AcDbDiametricDimension
 15
5255.461149160829
 25
3188.788371016307
 35
0.0
 40
0.0
1001
ACAD
1000
DSTYLE
1002
{
1070
   288
1070
     1
1002
}
1001
ACAD_DSTYLE_DIMRADIAL_EXTENSION
1070
   387
1070
     1
1070
   388
1040
0.0
1070
   390
1040
0.0
  0
ARC
  5
6325E
330
2
100
AcDbEntity
  8
中心线
100
AcDbCircle
 10
5194.910399659063
 20
3157.493124043265
 30
0.0
 40
46.0
100
AcDbArc
 50
270.0
 51
0.000000000000007
  0
ARC
  5
6325F
330
2
100
AcDbEntity
  8
0
100
AcDbCircle
 10
5194.910399659063
 20
3157.493124043265
 30
0.0
 40
36.0
100
AcDbArc
 50
270.0
 51
0.000000000000007
  0
ARC
  5
63260
330
2
100
AcDbEntity
  8
0
100
AcDbCircle
 10
5194.910399659063
 20
3157.493124043265
 30
0.0
 40
56.0
100
AcDbArc
 50
270.0
 51
0.000000000000007
  0
LINE
  5
63261
330
2
100
AcDbEntity
  8
0
100
AcDbLine
 10
5168.810399659061
 20
3082.993124043264
 30
0.0
 11
5168.810399659061
 21
3139.993124043264
 31
0.0
  0
LINE
  5
63262
330
2
100
AcDbEntity
  8
0
100
AcDbLine
 10
5181.810399659061
 20
3082.993124043264
 30
0.0
 11
5181.810399659061
 21
3139.993124043264
 31
0.0
  0
LINE
  5
63263
330
2
100
AcDbEntity
  8
0
100
AcDbLine
 10
5181.810399659061
 20
3139.993124043264
 30
0.0
 11
5168.810399659061
 21
3139.993124043264
 31
0.0
  0
LINE
  5
63264
330
2
100
AcDbEntity
  8
0
100
AcDbLine
 10
5181.810399659061
 20
3082.993124043264
 30
0.0
 11
5168.810399659061
 21
3082.993124043264
 31
0.0
  0
LINE
  5
63265
330
2
100
AcDbEntity
  8
中心线
100
AcDbLine
 10
5240.910399659063
 20
3212.142982108498
 30
0.0
 11
5240.910399659063
 21
3157.493124043265
 31
0.0
  0
LINE
  5
63266
330
2
100
AcDbEntity
  8
0
100
AcDbLine
 10
5230.910399659062
 20
3179.13148984709
 30
0.0
 11
5230.910399659062
 21
3157.493124043265
 31
0.0
  0
LINE
  5
63267
330
2
100
AcDbEntity
  8
0
100
AcDbLine
 10
5250.910399659063
 20
3179.131489847091
 30
0.0
 11
5250.910399659063
 21
3157.493124043265
 31
0.0
  0
LINE
  5
63268
330
2
100
AcDbEntity
  8
中心线
100
AcDbLine
 10
5194.910399659063
 20
3111.493124043264
 30
0.0
 11
5159.412952824371
 21
3111.493124043264
 31
0.0
  0
LINE
  5
63269
330
2
100
AcDbEntity
  8
0
100
AcDbLine
 10
5194.910399659063
 20
3121.493124043265
 30
0.0
 11
5181.810399659061
 21
3121.493124043265
 31
0.0
  0
LINE
  5
6326A
330
2
100
AcDbEntity
  8
0
100
AcDbLine
 10
5194.910399659063
 20
3101.493124043265
 30
0.0
 11
5181.810399659061
 21
3101.493124043265
 31
0.0
  0
DIMENSION
  5
6326B
330
2
100
AcDbEntity
  8
标注
100
AcDbDimension
280
     0
  2
*D20
 10
5194.910399659069
 20
3157.493124043265
 30
0.0
 11
5285.037010345059
 21
3141.470315353921
 31
0.0
 70
    36
 71
     5
 42
45.99999999999272
 73
     0
 74
     0
 75
     0
  3
线性标注
100
AcDbRadialDimension
 15
5238.161257173391
 25
3141.829046532122
 35
0.0
 40
0.0
1001
ACAD
1000
DSTYLE
1002
{
1070
   288
1070
     1
1002
}
1001
ACAD_DSTYLE_DIMRADIAL_EXTENSION
1070
   387
1070
     1
1070
   388
1040
3.141592653589793
1070
   390
1040
4.712388980384689
  0
DIMENSION
  5
6326C
330
2
100
AcDbEntity
  8
标注
100
AcDbDimension
280
     0
  2
*D21
 10
5055.758637396859
 20
3111.493124043264
 30
0.0
 11
5040.133637396858
 21
3151.493124043265
 31
0.0
 70
    32
 71
     5
 42
80.0
 73
     0
 74
     0
 75
     0
  3
线性标注
100
AcDbAlignedDimension
 13
5122.882794516415
 23
3191.493124043264
 33
0.0
 14
5137.799271265998
 24
3111.493124043264
 34
0.0
 50
90.0
100
AcDbRotatedDimension
  0
MTEXT
  5
6326D
330
2
100
AcDbEntity
  8
0
100
AcDbMText
 10
5138.505827693601
 20
2991.646726197429
 30
0.0
 40
25.0
 41
173.5631402998115
 46
0.0
 71
     1
 72
     5
  1
A-A
  7
黑体
 73
     1
 44
1.0
  0
ARC
  5
6326E
330
2
100
AcDbEntity
  8
0
100
AcDbCircle
 10
5240.910399659064
 20
3191.493124043264
 30
0.0
 40
14.8
100
AcDbArc
 50
90.0
 51
270.0
  0
ARC
  5
6326F
330
2
100
AcDbEntity
  8
0
100
AcDbCircle
 10
5240.910399659064
 20
3191.493124043264
 30
0.0
 40
15.9
100
AcDbArc
 50
90.0
 51
270.0
  0
LINE
  5
63270
330
2
100
AcDbEntity
  8
中心线
100
AcDbLine
 10
5137.183297107974
 20
3191.493124043264
 30
0.0
 11
5263.696704465125
 21
3191.493124043264
 31
0.0
  0
LINE
  5
63271
330
2
100
AcDbEntity
  8
0
100
AcDbLine
 10
5152.910399659064
 20
3219.993124043268
 30
0.0
 11
5152.910399659064
 21
3191.493124043269
 31
0.0
  0
LINE
  5
63272
330
2
100
AcDbEntity
  8
0
100
AcDbLine
 10
5152.910399659064
 20
3162.99312404327
 30
0.0
 11
5152.910399659064
 21
3191.493124043268
 31
0.0
  0
LINE
  5
63273
330
2
100
AcDbEntity
  8
0
100
AcDbLine
 10
5152.910399659064
 20
3219.993124043268
 30
0.0
 11
5165.910399659064
 21
3219.993124043268
 31
0.0
  0
LINE
  5
63274
330
2
100
AcDbEntity
  8
0
100
AcDbLine
 10
5166.235065100657
 20
3162.99312404327
 30
0.0
 11
5152.910399659064
 21
3162.917228282048
 31
0.0
  0
LINE
  5
63275
330
2
100
AcDbEntity
  8
0
100
AcDbLine
 10
5165.910399659064
 20
3219.993124043268
 30
0.0
 11
5166.235065100657
 21
3162.99312404327
 31
0.0
  0
ARC
  5
63276
330
2
100
AcDbEntity
  8
0
100
AcDbCircle
 10
5240.910399659064
 20
3191.493124043264
 30
0.0
 40
15.90000000000009
100
AcDbArc
 50
270.0
 51
90.65269327717169
  0
LINE
  5
63277
330
2
100
AcDbEntity
  8
0
100
AcDbLine
 10
5240.910399659064
 20
3207.393124043264
 30
0.0
 11
5165.98459863496
 21
3206.966355301575
 31
0.0
  0
LINE
  5
63278
330
2
100
AcDbEntity
  8
0
100
AcDbLine
 10
5240.910399659064
 20
3175.593124043264
 30
0.0
 11
5166.165721899858
 21
3175.167386958853
 31
0.0
  0
LINE
  5
6335F
330
2
100
AcDbEntity
  8
0
  6
Continuous
 62
     7
100
AcDbLine
 10
5636.724965720356
 20
3347.785735996805
 30
0.0
 11
5606.386321829023
 21
3340.404286109533
 31
0.0
  0
LINE
  5
63360
330
2
100
AcDbEntity
  8
0
  6
Continuous
 62
     7
100
AcDbLine
 10
5643.927113420697
 20
3324.409301951617
 30
0.0
 11
5620.623622631514
 21
3318.187876941717
 31
0.0
  0
LINE
  5
63361
330
2
100
AcDbEntity
  8
0
  6
Continuous
 62
     7
100
AcDbLine
 10
5606.555421350607
 20
3381.934421592189
 30
0.0
 11
5606.091479594501
 21
3341.548437613334
 31
0.0
  0
LINE
  5
63362
330
2
100
AcDbEntity
  8
0
  6
Continuous
 62
     7
100
AcDbLine
 10
5583.769465362278
 20
3396.770255453641
 30
0.0
 11
5582.96587324175
 21
3339.087240201467
 31
0.0
  0
ELLIPSE
  5
63363
330
2
100
AcDbEntity
  8
0
  6
Continuous
 62
     7
100
AcDbEllipse
 10
5616.108418096613
 20
3343.774666399545
 30
0.0
 11
32.25194324842517
 21
11.17832046301389
 31
0.0
210
0.0
220
0.0
230
1.0
 40
0.7570945933797778
 41
2.775040015392413
 42
4.591601047888881
  0
ELLIPSE
  5
63364
330
2
100
AcDbEntity
  8
0
  6
Continuous
 62
     7
100
AcDbEllipse
 10
5614.020289181017
 20
3345.378359788457
 30
0.0
 11
6.157016760134572
 21
6.895313133297099
 31
0.0
210
0.0
220
0.0
230
1.0
 40
0.7440484587964502
 41
2.206606313343419
 42
2.274776273589344
  0
ELLIPSE
  5
63365
330
2
100
AcDbEntity
  8
0
  6
Continuous
 62
     7
100
AcDbEllipse
 10
5614.020289181017
 20
3345.378359788457
 30
0.0
 11
6.157016760134572
 21
6.895313133297099
 31
0.0
210
0.0
220
0.0
230
1.0
 40
0.7440484587964502
 41
2.596189347944107
 42
3.575532831716598
  0
LINE
  5
633F6
330
2
100
AcDbEntity
  8
0
  6
Continuous
 62
     7
100
AcDbLine
 10
5647.609957964303
 20
3314.850688055719
 30
0.0
 11
5656.177469727744
 21
3317.312775236473
 31
0.0
  0
LINE
  5
633F7
330
2
100
AcDbEntity
  8
0
  6
Continuous
 62
     7
100
AcDbLine
 10
5635.144676242649
 20
3358.227075626244
 30
0.0
 11
5643.712188006091
 21
3360.689162807
 31
0.0
  0
SPLINE
  5
633F8
330
2
100
AcDbEntity
  8
0
  6
Continuous
 62
     7
100
AcDbSpline
210
0.0
220
0.0
230
1.0
 70
  1064
 71
     3
 72
    11
 73
     7
 74
     5
 42
0.000000001
 43
0.0000000001
 44
0.0000000001
 12
0.9591335949699889
 22
0.2829536128059602
 32
0.0
 13
0.0011426505929852
 23
0.999999347174598
 33
0.0
 40
0.0
 40
0.0
 40
0.0
 40
0.0
 40
2.176266987903139
 40
5.86744541690715
 40
10.42007297258374
 40
15.84535705397295
 40
15.84535705397295
 40
15.84535705397295
 40
15.84535705397295
 10
5656.171435771961
 20
3317.321736654303
 30
0.0
 10
5656.867212698535
 20
3317.52699752319
 30
0.0
 10
5658.66236566006
 20
3318.427274050542
 30
0.0
 10
5660.805021893357
 20
3321.320405945357
 30
0.0
 10
5662.179239979102
 20
3325.707662455787
 30
0.0
 10
5662.450205623933
 20
3329.04900197188
 30
0.0
 10
5662.45227202529
 20
3330.857428818422
 30
0.0
 11
5656.171435771961
 21
3317.321736654303
 31
0.0
 11
5658.117896302919
 21
3318.295096507624
 31
0.0
 11
5660.454193457452
 21
3321.152807794734
 31
0.0
 11
5661.939084371429
 21
3325.456470959329
 31
0.0
 11
5662.45227202529
 21
3330.857428818422
 31
0.0
  0
SPLINE
  5
633F9
330
2
100
AcDbEntity
  8
0
  6
Continuous
 62
     7
100
AcDbSpline
210
0.0
220
0.0
230
1.0
 70
  1064
 71
     3
 72
    12
 73
     8
 74
     6
 42
0.000000001
 43
0.0000000001
 44
0.0000000001
 12
0.5686783278323225
 22
-0.8225600035583019
 32
0.0
 13
0.9591335953463012
 23
0.2829536115303671
 33
0.0
 40
0.0
 40
0.0
 40
0.0
 40
0.0
 40
0.516779544829983
 40
5.666261336069949
 40
9.91433787299244
 40
13.38302354622627
 40
14.45514386512287
 40
14.45514386512287
 40
14.45514386512287
 40
14.45514386512287
 10
5635.862914602668
 20
3321.841233875209
 30
0.0
 10
5635.96087504514
 20
3321.699539813798
 30
0.0
 10
5637.047772672428
 20
3320.155286001432
 30
0.0
 10
5639.21526394964
 20
3317.622298624208
 30
0.0
 10
5642.766715286413
 20
3315.11710997807
 30
0.0
 10
5645.765663511461
 20
3314.459065026522
 30
0.0
 10
5647.261155110807
 20
3314.758529360761
 30
0.0
 10
5647.603923982842
 20
3314.85964946617
 30
0.0
 11
5635.862914602668
 21
3321.841233875209
 31
0.0
 11
5636.160394766346
 21
3321.41866240176
 31
0.0
 11
5639.57431583097
 21
3317.563496298617
 31
0.0
 11
5643.134305339667
 21
3315.245603082455
 31
0.0
 11
5646.551954084147
 21
3314.652764690438
 31
0.0
 11
5647.603923982842
 21
3314.85964946617
 31
0.0
  0
SPLINE
  5
633FA
330
2
100
AcDbEntity
  8
0
  6
Continuous
 62
     7
100
AcDbSpline
210
0.0
220
0.0
230
1.0
 70
  1064
 71
     3
 72
    15
 73
    11
 74
     9
 42
0.000000001
 43
0.0000000001
 44
0.0000000001
 12
0.0011426507418328
 22
0.9999993471744282
 32
0.0
 13
-0.9591335951600779
 23
-0.282953612161612
 33
0.0
 40
0.0
 40
0.0
 40
0.0
 40
0.0
 40
6.081296221203871
 40
12.48248407842737
 40
18.81849787829121
 40
24.71386218431167
 40
29.86334397555232
 40
34.11142049498308
 40
37.58010620399884
 40
38.65222652060293
 40
38.65222652060293
 40
38.65222652060293
 40
38.65222652060293
 10
5662.45227202529
 20
3330.857428818422
 30
0.0
 10
5662.454588291169
 20
3332.884526235482
 30
0.0
 10
5662.084016705821
 20
3337.049892439059
 30
0.0
 10
5660.627637229036
 20
3343.170660235107
 30
0.0
 10
5658.3558472151
 20
3348.974415819518
 30
0.0
 10
5655.447139878122
 20
3354.014419822099
 30
0.0
 10
5652.107521859243
 20
3357.916726119503
 30
0.0
 10
5648.555299945385
 20
3360.42290967995
 30
0.0
 10
5645.556492178498
 20
3361.080773336265
 30
0.0
 10
5644.060990866194
 20
3360.781321476194
 30
0.0
 10
5643.718221994958
 20
3360.680201370775
 30
0.0
 11
5662.45227202529
 21
3330.857428818422
 31
0.0
 11
5661.95218103884
 21
3336.918127848675
 31
0.0
 11
5660.479325793142
 21
3343.147566299184
 31
0.0
 11
5658.15302824576
 21
3349.041072097359
 31
0.0
 11
5655.161751211481
 21
3354.12118843509
 31
0.0
 11
5651.747830146856
 21
3357.976354538234
 31
0.0
 11
5648.187840663837
 21
3360.294247761774
 31
0.0
 11
5644.770191886248
 21
3360.887086172281
 31
0.0
 11
5643.718221994958
 21
3360.680201370775
 31
0.0
  0
SPLINE
  5
633FB
330
2
100
AcDbEntity
  8
0
  6
Continuous
 62
     7
100
AcDbSpline
210
0.0
220
0.0
230
1.0
 70
  1064
 71
     3
 72
    11
 73
     7
 74
     5
 42
0.000000001
 43
0.0000000001
 44
0.0000000001
 12
-0.9591335952815487
 22
-0.2829536117498593
 32
0.0
 13
-0.045158009403476
 23
-0.9989798567472297
 33
0.0
 40
0.0
 40
0.0
 40
0.0
 40
0.0
 40
2.176267009634312
 40
5.867445416295003
 40
10.42007297213117
 40
14.44601238063636
 40
14.44601238063636
 40
14.44601238063636
 40
14.44601238063636
 10
5635.150710231894
 20
3358.218114190129
 30
0.0
 10
5634.454933298146
 20
3358.01285331996
 30
0.0
 10
5632.659779730393
 20
3357.112548237389
 30
0.0
 10
5630.517128038335
 20
3354.219639445306
 30
0.0
 10
5629.283571570716
 20
3350.280474685594
 30
0.0
 10
5628.962375829516
 20
3347.426922900546
 30
0.0
 10
5628.90177469296
 20
3346.086312109353
 30
0.0
 11
5635.150710231894
 21
3358.218114190129
 31
0.0
 11
5633.204249667447
 21
3357.244754355187
 31
0.0
 11
5630.867952538942
 21
3354.38704307566
 31
0.0
 11
5629.383061625022
 21
3350.083379910876
 31
0.0
 11
5628.90177469296
 21
3346.086312109353
 31
0.0
  0
SPLINE
  5
633FC
330
2
100
AcDbEntity
  8
0
  6
Continuous
 62
     7
100
AcDbSpline
210
0.0
220
0.0
230
1.0
 70
  1064
 71
     3
 72
    11
 73
     7
 74
     5
 42
0.000000001
 43
0.0000000001
 44
0.0000000001
 12
-0.0011426506417609
 22
-0.9999993471745423
 32
0.0
 13
-0.9637719053821932
 23
-0.2667277908204862
 33
0.0
 40
0.0
 40
0.0
 40
0.0
 40
0.0
 40
3.302595118610777
 40
6.010185534448054
 40
8.168537362416646
 40
8.827305407204679
 40
8.827305407204679
 40
8.827305407204679
 40
8.827305407204679
 10
5648.35515381752
 20
3331.995643607155
 30
0.0
 10
5648.353895913376
 20
3330.89477928629
 30
0.0
 10
5648.174888650951
 20
3328.880536499202
 30
0.0
 10
5647.267500697426
 20
3326.278186314965
 30
0.0
 10
5645.951179841388
 20
3324.847132684698
 30
0.0
 10
5645.066013060812
 20
3324.507080782178
 30
0.0
 10
5644.854379016237
 20
3324.448510200428
 30
0.0
 11
5648.35515381752
 21
3331.995643607155
 31
0.0
 11
5648.009627101364
 21
3328.711173207548
 31
0.0
 11
5647.014883656829
 21
3326.192933477203
 31
0.0
 11
5645.468295937939
 21
3324.687427236408
 31
0.0
 11
5644.854379016237
 21
3324.448510200428
 31
0.0
  0
SPLINE
  5
633FD
330
2
100
AcDbEntity
  8
0
  6
Continuous
 62
     7
100
AcDbSpline
210
0.0
220
0.0
230
1.0
 70
  1064
 71
     3
 72
    11
 73
     7
 74
     5
 42
0.000000001
 43
0.0000000001
 44
0.0000000001
 12
0.9591335949699889
 22
0.2829536128059602
 32
0.0
 13
0.0011426505929852
 23
0.999999347174598
 33
0.0
 40
0.0
 40
0.0
 40
0.0
 40
0.0
 40
2.176267014556035
 40
5.867445443239084
 40
10.42007299913934
 40
15.84535708038537
 40
15.84535708038537
 40
15.84535708038537
 40
15.84535708038537
 10
5647.603923982842
 20
3314.85964946617
 30
0.0
 10
5648.299700917938
 20
3315.064910337569
 30
0.0
 10
5650.09485389246
 20
3315.965186859841
 30
0.0
 10
5652.237510129398
 20
3318.85831876591
 30
0.0
 10
5653.611728216478
 20
3323.245575274541
 30
0.0
 10
5653.882693860494
 20
3326.586914791173
 30
0.0
 10
5653.884760261852
 20
3328.395341637667
 30
0.0
 11
5647.603923982842
 21
3314.85964946617
 31
0.0
 11
5649.550384539856
 21
3315.833009326978
 31
0.0
 11
5651.886681694014
 21
3318.690720613979
 31
0.0
 11
5653.371572608365
 21
3322.994383778682
 31
0.0
 11
5653.884760261852
 21
3328.395341637667
 31
0.0
  0
SPLINE
  5
633FE
330
2
100
AcDbEntity
  8
0
  6
Continuous
 62
     7
100
AcDbSpline
210
0.0
220
0.0
230
1.0
 70
  1064
 71
     3
 72
    15
 73
    11
 74
     9
 42
0.000000001
 43
0.0000000001
 44
0.0000000001
 12
0.0011426507418328
 22
0.9999993471744282
 32
0.0
 13
-0.9591335951600779
 23
-0.282953612161612
 33
0.0
 40
0.0
 40
0.0
 40
0.0
 40
0.0
 40
6.081296221280621
 40
12.48248407850584
 40
18.81849787837053
 40
24.71386218438929
 40
29.86334397579906
 40
34.1114204949723
 40
37.58010620434399
 40
38.65222652055577
 40
38.65222652055577
 40
38.65222652055577
 40
38.65222652055577
 10
5653.884760261852
 20
3328.395341637667
 30
0.0
 10
5653.887076527731
 20
3330.422439054752
 30
0.0
 10
5653.516504942954
 20
3334.587805258401
 30
0.0
 10
5652.060125465929
 20
3340.708573054468
 30
0.0
 10
5649.788335452008
 20
3346.512328638828
 30
0.0
 10
5646.879628115165
 20
3351.552332641649
 30
0.0
 10
5643.540010095752
 20
3355.454638938435
 30
0.0
 10
5639.987788182211
 20
3357.96082249958
 30
0.0
 10
5636.988980415309
 20
3358.618686155438
 30
0.0
 10
5635.493479103004
 20
3358.31923429551
 30
0.0
 10
5635.150710231894
 20
3358.218114190129
 30
0.0
 11
5653.884760261852
 21
3328.395341637667
 31
0.0
 11
5653.38466927578
 21
3334.456040668027
 31
0.0
 11
5651.911814030079
 21
3340.685479118537
 31
0.0
 11
5649.585516482697
 21
3346.578984916713
 31
0.0
 11
5646.594239448419
 21
3351.659101254444
 31
0.0
 11
5643.180318383416
 21
3355.514267357479
 31
0.0
 11
5639.620328900775
 21
3357.832160581128
 31
0.0
 11
5636.202680122806
 21
3358.424998991525
 31
0.0
 11
5635.150710231894
 21
3358.218114190129
 31
0.0
  0
SPLINE
  5
633FF
330
2
100
AcDbEntity
  8
0
  6
Continuous
 62
     7
100
AcDbSpline
210
0.0
220
0.0
230
1.0
 70
  1064
 71
     3
 72
    14
 73
    10
 74
     8
 42
0.000000001
 43
0.0000000001
 44
0.0000000001
 12
0.9637719054741989
 22
0.2667277904880398
 32
0.0
 13
-0.0011426503877489
 23
-0.9999993471748327
 33
0.0
 40
0.0
 40
0.0
 40
0.0
 40
0.0
 40
1.337370497763554
 40
3.655172839790679
 40
6.568225767460514
 40
10.04125988577158
 40
13.87981813775879
 40
17.81462929625669
 40
21.55906575147741
 40
21.55906575147741
 40
21.55906575147741
 40
21.55906575147741
 10
5637.900255190718
 20
3348.629253481534
 30
0.0
 10
5638.32989522837
 20
3348.748158107512
 30
0.0
 10
5639.583044508735
 20
3348.846462808982
 30
0.0
 10
5641.653283763758
 20
3347.890812554077
 30
0.0
 10
5643.757806569023
 20
3345.86008702443
 30
0.0
 10
5645.641487064803
 20
3342.99076347127
 30
0.0
 10
5647.13483142563
 20
3339.535428056596
 30
0.0
 10
5648.105657184538
 20
3335.806612428697
 30
0.0
 10
5648.356580011442
 20
3333.243788277407
 30
0.0
 10
5648.35515381752
 20
3331.995643607155
 30
0.0
 11
5637.900255190718
 21
3348.629253481534
 31
0.0
 11
5639.23337953932
 21
3348.735739722199
 31
0.0
 11
5641.390284321831
 21
3347.887229583256
 31
0.0
 11
5643.545919778855
 21
3345.927864090086
 31
0.0
 11
5645.489277307108
 21
3343.049439607085
 31
0.0
 11
5647.030127529717
 21
3339.533716346448
 31
0.0
 11
5648.017641278191
 21
3335.724837843579
 31
0.0
 11
5648.35515381752
 21
3331.995643607155
 31
0.0
  0
LINE
  5
63400
330
2
100
AcDbEntity
  8
0
  6
Continuous
 62
     7
100
AcDbLine
 10
5640.571603393971
 20
3359.786637858441
 30
0.0
 11
5578.231950748325
 21
3400.375706410365
 31
0.0
  0
CIRCLE
  5
6349C
330
2
100
AcDbEntity
  8
Hidden
100
AcDbCircle
 10
3996.097559393156
 20
4127.79271425414
 30
0.0
 40
9.999999999998181
  0
LINE
  5
6349D
330
2
100
AcDbEntity
  8
Hidden
100
AcDbLine
 10
4006.097559393156
 20
4143.722127001725
 30
0.0
 11
4006.097559393153
 21
4127.79271425414
 31
0.0
  0
LINE
  5
6349E
330
2
100
AcDbEntity
  8
Hidden
100
AcDbLine
 10
3986.198585265899
 20
4143.69271425414
 30
0.0
 11
3986.097559393158
 21
4127.79271425414
 31
0.0
  0
VIEWPORT
  5
99
330
C
100
AcDbEntity
 67
     1
  8
0
100
AcDbViewport
 10
143.6764787904317
 20
100.2046656547372
 30
0.0
 40
390.1005202556985
 41
202.9375384062431
 68
     1
 69
     1
 12
116.7325519153533
 22
100.551332739372
 13
0.0
 23
0.0
 14
10.0
 24
10.0
 15
10.0
 25
10.0
 16
0.0
 26
0.0
 36
1.0
 17
0.0
 27
0.0
 37
0.0
 42
50.0
 43
0.0
 44
0.0
 45
831.2321573119717
 50
0.0
 51
0.0
 72
   100
 90
    38944
  1

281
     0
 71
     1
 74
     0
110
0.0
120
0.0
130
0.0
111
1.0
121
0.0
131
0.0
112
0.0
122
1.0
132
0.0
 79
     0
146
0.0
170
     2
 61
     5
348
984D
292
     1
282
     1
141
0.0
142
0.0
 63
   250
421
  3355443
  0
MTEXT
  5
2C09
102
{ACAD_XDICTIONARY
360
634F2
102
}
330
C
100
AcDbEntity
 67
     1
  8
ASHADE
 62
     5
100
AcDbMText
 10
231.8996211309493
 20
125.8491204523215
 30
0.0
 40
2.5
 41
66.6875
 46
0.0
 71
     1
 72
     5
  3
\pt24;技术要求:\P\ptz;1.注："☆"号为特注受控处.\P2.所注尺寸为电镀后尺寸.{\fSimSun|b0|i0|c134|p0;\P}3.未注公差为%%p0.1.\P4.未注缧纹倒角为{\fArial|b0|i0|c0|p32;C0.5}.\P5.无毛刺.\P6.壁厚为2.5{\fArial|b0|i0|c134|p32;mm.\P\fSimSun|b0|i0|c134|p0;7\fArial|b0|i0|c134|p32;.}未注铸造圆角{\fArial|b0|i0|c134|
  1
p32;R1\fSimSun|b0|i0|c134|p0;～\fArial|b0|i0|c134|p32;R3.}\P8.表面抛光电镀铬.
 73
     1
 44
1.0
  0
ENDSEC
  0
SECTION
  2
OBJECTS
  0
DICTIONARY
  5
7
330
0
100
AcDbDictionary
281
     1
  3
ACAD_CIP_PREVIOUS_PRODUCT_INFO
350
6063544
  3
ACAD_COLOR
350
29
  3
ACAD_DETAILVIEWSTYLE
350
606353A
  3
ACAD_GROUP
350
25
  3
ACAD_IMAGE_DICT
350
2BE1
  3
ACAD_IMAGE_VARS
350
2BE2
  3
ACAD_LAYOUT
350
B
  3
ACAD_MATERIAL
350
28
  3
ACAD_MLEADERSTYLE
350
987B
  3
ACAD_MLINESTYLE
350
26
  3
ACAD_PLOTSETTINGS
350
27
  3
ACAD_PLOTSTYLENAME
350
6
  3
ACAD_SCALELIST
350
9859
  3
ACAD_SECTIONVIEWSTYLE
350
6063538
  3
ACAD_TABLESTYLE
350
46A6
  3
ACAD_VISUALSTYLE
350
9847
  3
AcadDim
350
61415
  3
ACDB_RECOMPOSE_DATA
350
6063554
  3
ACDBHEADERROUNDTRIPXREC
350
6300F
  3
ACDBVARIABLEDICTIONARY
350
4557
  3
ASE_INDEX_DICTIONARY
350
62E91
  0
DICTIONARY
  5
62545
330
1A
100
AcDbDictionary
280
     1
281
     1
  0
DICTIONARY
  5
3FD7
330
10
100
AcDbDictionary
280
     1
281
     1
  3
ACAD_LAYERFILTERS
360
158C4
  3
ACAD_LAYERSTATES
360
3FD8
  3
ACLYDICTIONARY
360
158C3
  0
DICTIONARY
  5
9891
330
4
100
AcDbDictionary
280
     1
281
     1
  3
ADSK_XREC_LAYER_RECONCILED
360
9892
  0
DICTIONARY
  5
9893
330
400
100
AcDbDictionary
280
     1
281
     1
  3
ADSK_XREC_LAYER_RECONCILED
360
9894
  0
DICTIONARY
  5
9897
330
403
100
AcDbDictionary
280
     1
281
     1
  3
ADSK_XREC_LAYER_RECONCILED
360
9898
  0
DICTIONARY
  5
989B
330
405
100
AcDbDictionary
280
     1
281
     1
  3
ADSK_XREC_LAYER_RECONCILED
360
989C
  0
DICTIONARY
  5
989F
330
92F
100
AcDbDictionary
280
     1
281
     1
  3
ADSK_XREC_LAYER_RECONCILED
360
98A0
  0
DICTIONARY
  5
98A7
330
3FD5
100
AcDbDictionary
280
     1
281
     1
  3
ADSK_XREC_LAYER_RECONCILED
360
98A8
  0
DICTIONARY
  5
98A9
330
4563
100
AcDbDictionary
280
     1
281
     1
  3
ADSK_XREC_LAYER_RECONCILED
360
98AA
  0
DICTIONARY
  5
98C5
330
2
100
AcDbDictionary
280
     1
281
     1
  3
ACAD_SORTENTS
360
98C6
  0
DICTIONARY
  5
63518
330
62D6F
100
AcDbDictionary
280
     1
281
     1
  0
DICTIONARY
  5
6352E
330
63181
100
AcDbDictionary
280
     1
281
     1
  0
DICTIONARY
  5
63530
330
63447
100
AcDbDictionary
280
     1
281
     1
  0
DICTIONARY
  5
63532
330
6344F
100
AcDbDictionary
280
     1
281
     1
  0
DICTIONARY
  5
634F2
330
2C09
100
AcDbDictionary
280
     1
281
     1
  0
XRECORD
  5
6063544
102
{ACAD_REACTORS
330
7
102
}
330
7
100
AcDbXrecord
280
     1
300
ACD
300
2017
300
ACD_F_S
  0
DICTIONARY
  5
29
102
{ACAD_REACTORS
330
7
102
}
330
7
100
AcDbDictionary
281
     1
  0
DICTIONARY
  5
606353A
102
{ACAD_REACTORS
330
7
102
}
330
7
100
AcDbDictionary
281
     1
  3
Metric50
350
606353B
  0
DICTIONARY
  5
25
102
{ACAD_REACTORS
330
7
102
}
330
7
100
AcDbDictionary
281
     1
  0
DICTIONARY
  5
2BE1
102
{ACAD_REACTORS
330
7
102
}
330
7
100
AcDbDictionary
281
     1
  3
irunin
350
2BE3
  0
ACAD_PROXY_OBJECT
  5
2BE2
102
{ACAD_REACTORS
330
7
102
}
330
7
100
AcDbProxyObject
 90
      499
 91
      508
 95
       27
 70
     0
162
                 0
161
                40
310
409014050100
 94
        0
1001
ACAD
1000
AcRTDxfName
1000
RASTERVARIABLES
1000
AcRTDxfName
1000
RASTERVARIABLES
1000
AcRTDxfName
1000
RASTERVARIABLES
1000
AcRTDxfName
1000
RASTERVARIABLES
1000
AcRTDxfName
1000
RASTERVARIABLES
1000
AcRTDxfName
1000
RASTERVARIABLES
1000
AcRTDxfName
1000
RASTERVARIABLES
1000
AcRTDxfName
1000
RASTERVARIABLES
1000
AcRTDxfName
1000
RASTERVARIABLES
  0
DICTIONARY
  5
B
102
{ACAD_REACTORS
330
7
102
}
330
7
100
AcDbDictionary
281
     1
  3
Model
350
A
  3
布局1
350
F
1001
AcadStringInfo
1000
MIFCodePage
1070
     5
  0
DICTIONARY
  5
28
102
{ACAD_REACTORS
330
7
102
}
330
7
100
AcDbDictionary
281
     1
  3
ByBlock
350
9837
  3
ByLayer
350
982F
  3
Global
350
983F
  0
DICTIONARY
  5
987B
102
{ACAD_REACTORS
330
7
102
}
330
7
100
AcDbDictionary
281
     1
  3
Standard
350
987C
  0
DICTIONARY
  5
26
102
{ACAD_REACTORS
330
7
102
}
330
7
100
AcDbDictionary
281
     1
  3
Standard
350
2A
  0
DICTIONARY
  5
27
102
{ACAD_REACTORS
330
7
102
}
330
7
100
AcDbDictionary
281
     1
  3
设置1
350
30A40
1001
AcadStringInfo
1000
MIFCodePage
1070
     5
  0
ACDBDICTIONARYWDFLT
  5
6
102
{ACAD_REACTORS
330
7
102
}
330
7
100
AcDbDictionary
281
     1
  3
Normal
350
5
100
AcDbDictionaryWithDefault
340
5
  0
DICTIONARY
  5
9859
102
{ACAD_REACTORS
330
7
102
}
330
7
100
AcDbDictionary
281
     1
  3
A0
350
985A
  3
A1
350
985B
  3
A2
350
985C
  3
A3
350
985D
  3
A4
350
985E
  3
A5
350
985F
  3
A6
350
9860
  3
A7
350
9861
  3
A8
350
9862
  3
A9
350
9863
  3
B0
350
9864
  3
B1
350
9865
  3
B2
350
9866
  3
B3
350
9867
  3
B4
350
9868
  3
B5
350
9869
  3
B6
350
986A
  3
B7
350
986B
  3
B8
350
986C
  3
B9
350
986D
  3
C0
350
986E
  3
C1
350
986F
  3
C2
350
9870
  3
C3
350
9871
  3
C4
350
9872
  3
C5
350
9873
  3
C6
350
9874
  3
C7
350
9875
  3
C8
350
9876
  3
C9
350
9877
  3
D0
350
9878
  3
D1
350
9879
  3
D2
350
987A
  0
DICTIONARY
  5
6063538
102
{ACAD_REACTORS
330
7
102
}
330
7
100
AcDbDictionary
281
     1
  3
Metric50
350
6063539
  0
DICTIONARY
  5
46A6
102
{ACAD_REACTORS
330
7
102
}
330
7
100
AcDbDictionary
281
     1
  3
Standard
350
9858
  0
DICTIONARY
  5
9847
102
{ACAD_REACTORS
330
7
102
}
330
7
100
AcDbDictionary
281
     1
  3
2dWireframe
350
984D
  3
3D Hidden
350
984F
  3
3dWireframe
350
984E
  3
Basic
350
984C
  3
Brighten
350
9853
  3
ColorChange
350
9857
  3
Conceptual
350
9850
  3
Dim
350
9852
  3
EdgeColorOff
350
63025
  3
Facepattern
350
9856
  3
Flat
350
9848
  3
FlatWithEdges
350
9849
  3
Gouraud
350
984A
  3
GouraudWithEdges
350
984B
  3
Hidden
350
6301D
  3
JitterOff
350
63023
  3
Linepattern
350
9855
  3
OverhangOff
350
63024
  3
Realistic
350
9851
  3
Shaded
350
63022
  3
Shaded with edges
350
63021
  3
Shades of Gray
350
6301E
  3
Sketchy
350
6301F
  3
Thicken
350
9854
  3
Wireframe
350
6301C
  3
X-Ray
350
63020
  0
XRECORD
  5
61415
102
{ACAD_REACTORS
330
7
102
}
330
7
100
AcDbXrecord
280
     1
 90
   990106
  3

 60
     0
 61
     0
 62
     1
 63
     3
 64
     0
 65
     0
 66
     0
 67
     3
 68
     1
 69
     0
 70
     0
 71
     0
 72
     0
 40
13.70396488517739
170
     1
340
47027
  0
XRECORD
  5
6063554
102
{ACAD_REACTORS
330
7
102
}
330
7
100
AcDbXrecord
280
     1
 90
        1
330
9858
330
63084
330
63256
330
6063539
330
606353B
  0
DICTIONARY
  5
6300F
102
{ACAD_REACTORS
330
7
102
}
330
7
100
AcDbDictionary
281
     1
  0
DICTIONARY
  5
4557
102
{ACAD_REACTORS
330
7
102
}
330
7
100
AcDbDictionary
281
     1
  3
CANNOSCALE
350
B806
  3
CMLEADERSTYLE
350
B804
  3
CTABLESTYLE
350
B803
  3
CVIEWDETAILSTYLE
350
606354D
  3
CVIEWSECTIONSTYLE
350
606354E
  3
DGNFRAME
350
62576
  3
DIMASSOC
350
4558
  3
HIDETEXT
350
62575
  3
INDEXCTL
350
62574
  3
LAYEREVAL
350
6302F
  3
LAYERNOTIFY
350
63030
  3
LIGHTINGUNITS
350
B807
  3
MSLTSCALE
350
B805
  3
PROJECTNAME
350
627A9
  3
SORTENTS
350
62573
  0
DICTIONARY
  5
62E91
102
{ACAD_REACTORS
330
7
102
}
330
7
100
AcDbDictionary
281
     1
  3
ASEBlockHierarchyIndexRecord
350
62E92
1001
DCO15
1040
1674705737.125
  0
DICTIONARY
  5
158C4
102
{ACAD_REACTORS
330
3FD7
102
}
330
3FD7
100
AcDbDictionary
281
     1
  0
DICTIONARY
  5
3FD8
102
{ACAD_REACTORS
330
3FD7
102
}
330
3FD7
100
AcDbDictionary
281
     1
  0
DICTIONARY
  5
158C3
102
{ACAD_REACTORS
330
3FD7
102
}
330
3FD7
100
AcDbDictionary
281
     1
1001
ACAD
1000
<All
  0
XRECORD
  5
9892
102
{ACAD_REACTORS
330
9891
102
}
330
9891
100
AcDbXrecord
280
     1
290
     1
  0
XRECORD
  5
9894
102
{ACAD_REACTORS
330
9893
102
}
330
9893
100
AcDbXrecord
280
     1
290
     1
  0
XRECORD
  5
9898
102
{ACAD_REACTORS
330
9897
102
}
330
9897
100
AcDbXrecord
280
     1
290
     1
  0
XRECORD
  5
989C
102
{ACAD_REACTORS
330
989B
102
}
330
989B
100
AcDbXrecord
280
     1
290
     1
  0
XRECORD
  5
98A0
102
{ACAD_REACTORS
330
989F
102
}
330
989F
100
AcDbXrecord
280
     1
290
     1
  0
XRECORD
  5
98A8
102
{ACAD_REACTORS
330
98A7
102
}
330
98A7
100
AcDbXrecord
280
     1
290
     1
  0
XRECORD
  5
98AA
102
{ACAD_REACTORS
330
98A9
102
}
330
98A9
100
AcDbXrecord
280
     1
290
     1
  0
SORTENTSTABLE
  5
98C6
102
{ACAD_REACTORS
330
98C5
102
}
330
98C5
100
AcDbSortentsTable
330
2
331
63264
  5
63265
331
63260
  5
63261
331
6325C
  5
6325D
331
63258
  5
63259
331
62A32
  5
62A37
331
62646
  5
62646
331
62A2E
  5
62A33
331
62681
  5
62682
331
8D7A
  5
9332
331
6267D
  5
6267E
331
62679
  5
6267D
331
62826
  5
6282B
331
62822
  5
62826
331
6281E
  5
6281F
331
6281A
  5
6281B
331
631EC
  5
63256
331
631E8
  5
631E9
331
63364
  5
63365
331
63360
  5
63361
331
6307E
  5
630CF
331
6307A
  5
6307F
331
62676
  5
62678
331
62DF5
  5
62FAF
331
62672
  5
62673
331
6266E
  5
6266F
331
62815
  5
62816
331
6266A
  5
6266B
331
62811
  5
62812
331
62A25
  5
62A2A
331
62A21
  5
62A26
331
63278
  5
6335F
331
63400
  5
62650
331
633FC
  5
633FD
331
633F8
  5
633F9
331
631C5
  5
631E7
331
631C1
  5
631C4
331
81A8
  5
88B6
331
8184
  5
88B5
331
62666
  5
62667
331
62662
  5
62666
331
6265E
  5
6265F
331
62A1D
  5
62A23
331
62A19
  5
62A1F
331
6283E
  5
62843
331
6283A
  5
6283F
331
63274
  5
63275
331
63270
  5
63271
331
6326C
  5
6326D
331
63268
  5
63269
331
631B9
  5
631BC
331
631B5
  5
631B8
331
631B1
  5
631B4
331
8151
  5
8822
331
62657
  5
62659
331
62653
  5
62654
331
6264F
  5
6264F
331
8ED7
  5
9333
331
62837
  5
6283C
331
62833
  5
62838
331
6282F
  5
62834
331
6282B
  5
62830
331
63265
  5
63266
331
63261
  5
63262
331
6325D
  5
6325E
331
63259
  5
6325A
331
631AE
  5
631B1
331
62A33
  5
62A3C
331
62647
  5
62647
331
62A2F
  5
62A34
331
62682
  5
62683
331
6267E
  5
6267F
331
81C7
  5
88BB
331
62827
  5
6282C
331
62823
  5
62827
331
6281F
  5
62820
331
6281B
  5
6281E
331
631E9
  5
631EA
331
63365
  5
633F6
331
63361
  5
63362
331
6307B
  5
63080
331
7FDE
  5
86EB
331
62673
  5
62674
331
6266F
  5
62670
331
62816
  5
62817
331
6266B
  5
6266C
331
62812
  5
62813
331
62A26
  5
62A2B
331
62A22
  5
62A27
331
633FD
  5
633FE
331
633F9
  5
633FA
331
631C2
  5
631C5
331
62667
  5
62668
331
6265F
  5
62660
331
6265B
  5
6265C
331
6283F
  5
62A1A
331
62A16
  5
62A1B
331
6283B
  5
62840
331
63275
  5
63276
331
63271
  5
63272
331
6326D
  5
6326E
331
63269
  5
6326A
331
631BE
  5
631C1
331
631BA
  5
631BD
331
631B6
  5
631B9
331
631B2
  5
631B5
331
62654
  5
62655
331
62A3C
  5
62EC4
331
62650
  5
62651
331
62A38
  5
62A3D
331
62648
  5
62648
331
6272F
  5
6280F
331
62834
  5
62839
331
62830
  5
62835
331
6282C
  5
62831
331
62828
  5
6282D
331
63266
  5
63267
331
63262
  5
63263
331
6325E
  5
6325F
331
6325A
  5
6325B
331
631AF
  5
631B2
331
63084
  5
631AF
331
63080
  5
631AE
331
62A30
  5
62A35
331
62A28
  5
62A31
331
62683
  5
62684
331
6267F
  5
62681
331
62824
  5
62829
331
62820
  5
62822
331
62818
  5
62819
331
63256
  5
63257
331
631EA
  5
631EB
331
63362
  5
63363
331
6307C
  5
63085
331
62674
  5
62675
331
62670
  5
62671
331
6266C
  5
6266D
331
62668
  5
62669
331
62817
  5
62818
331
62813
  5
62814
331
62EC4
  5
62FB1
331
62A27
  5
62A2C
331
62A23
  5
62A28
331
631E7
  5
631E8
331
6335F
  5
63360
331
633FE
  5
633FF
331
633FA
  5
633FB
331
631C3
  5
62823
331
47AF
  5
47AF
331
6280F
  5
62810
331
62660
  5
62661
331
6265C
  5
6265D
331
47027
  5
4724F
331
62A1F
  5
62A24
331
6283C
  5
62841
331
62A1B
  5
62A20
331
62838
  5
6283D
331
62A17
  5
62A1C
331
63276
  5
63277
331
63272
  5
63273
331
6326E
  5
6326F
331
6326A
  5
6326B
331
633F6
  5
633F7
331
631BF
  5
631C2
331
631BB
  5
631BE
331
631B7
  5
631BA
331
631B3
  5
631B6
331
8127
  5
87FF
331
62655
  5
62656
331
62A3D
  5
62FAD
331
62651
  5
62652
331
62A39
  5
62EA1
331
6264D
  5
6264D
331
62835
  5
6283A
331
62831
  5
62836
331
6282D
  5
62832
331
62829
  5
6282E
331
63267
  5
63268
331
63263
  5
63264
331
6325F
  5
63260
331
6325B
  5
6325C
331
63085
  5
631B0
331
80BB
  5
87FB
331
807B
  5
87F7
331
62A31
  5
62A36
331
62684
  5
6272F
331
62645
  5
62645
331
62A2D
  5
62A32
331
62678
  5
62679
331
62825
  5
6282A
331
62821
  5
62825
331
62819
  5
6281A
331
63257
  5
63258
331
631EB
  5
631EC
331
63363
  5
63364
331
6307D
  5
630B8
331
63079
  5
6307E
331
47C4
  5
47C4
331
81BF
  5
88BA
331
62675
  5
62676
331
62671
  5
62672
331
6266D
  5
6266E
331
62814
  5
62815
331
62669
  5
6266A
331
62810
  5
62811
331
62A24
  5
62A29
331
62A20
  5
62A25
331
633FF
  5
63400
331
633FB
  5
633FC
331
631C4
  5
62828
331
631C0
  5
631C3
331
47A0
  5
47A0
331
62661
  5
62662
331
6265D
  5
6265E
331
62659
  5
6265B
331
62EA1
  5
62FB0
331
62A1C
  5
62A21
331
62A18
  5
62A1D
331
6283D
  5
62842
331
62839
  5
6283E
331
63277
  5
63278
331
63273
  5
63274
331
6326F
  5
63270
331
6326B
  5
6326C
331
633F7
  5
633F8
331
631BC
  5
631BF
331
631B8
  5
631BB
331
631B4
  5
631B7
331
631B0
  5
631B3
331
62656
  5
62657
331
62A3E
  5
62FAE
331
62652
  5
62653
331
62836
  5
6283B
331
62832
  5
62837
331
6282E
  5
62833
331
6282A
  5
6282F
  0
ACDBDETAILVIEWSTYLE
  5
606353B
102
{ACAD_XDICTIONARY
360
6063552
102
}
102
{ACAD_REACTORS
330
606353A
102
}
330
606353A
100
AcDbModelDocViewStyle
 70
     0
  3
Metric50
290
     0
100
AcDbDetailViewStyle
 70
     0
 71
     0
 90
        3
 71
     1
340
12
 62
   256
 40
5.0
340
0
 62
   256
 40
5.0
300

 40
0.0
280
     1
 71
     2
340
8
 90
       25
 62
   256
 71
     3
340
12
 62
   256
 40
5.0
 90
        0
 40
15.0
 90
        1
300
%<\AcVar ViewDetailId>% (%<\AcVar ViewScale \f "%sn">%)
 71
     4
340
8
 90
       25
 62
   256
340
8
 90
       25
 62
   256
280
     0
  0
IMAGEDEF
  5
2BE3
102
{ACAD_REACTORS
330
2BE1
102
}
330
2BE1
100
AcDbRasterImageDef
 90
        0
  1
C:\boot\irunin.bmp
 10
111.0
 20
63.0
 11
0.009009009009009
 21
0.009009009009009
280
     1
281
     0
  0
LAYOUT
  5
A
102
{ACAD_XDICTIONARY
360
6318E
102
}
102
{ACAD_REACTORS
330
B
102
}
330
B
100
AcDbPlotSettings
  1

  2
Adobe PDF
  4
A4
  6

 40
3.174999952316284
 41
3.174999952316284
 42
3.175003051757812
 43
3.17498779296875
 44
209.9733276367187
 45
297.0318298339844
 46
0.0
 47
0.0
 48
3286.784249463452
 49
2072.343188873138
140
6399.725425934039
141
4444.107894755491
142
1.0
143
11.64780464203321
 70
  3760
 72
     1
 73
     1
 74
     4
  7
grayscaleDS.ctb
 75
     0
147
0.0858530882627718
 76
     1
 77
     2
 78
   300
148
-3286.784249463452
149
-2072.343188873138
100
AcDbLayout
  1
Model
 70
     1
 71
     0
 10
0.0
 20
0.0
 11
12.0
 21
9.0
 12
0.0
 22
0.0
 32
0.0
 14
0.2380952380952381
 24
-0.6113291389338498
 34
0.0
 15
2371.078652631803
 25
1364.802114083393
 35
0.0
146
0.0
 13
0.0
 23
0.0
 33
0.0
 16
1.0
 26
0.0
 36
0.0
 17
0.0
 27
1.0
 37
0.0
 76
     0
330
2
331
6300D
1001
AcadStringInfo
1000
MIFCodePage
1070
     5
1001
ACAD_PSEXT
1000
Adobe PDF
1000
Adobe PDF Converter
1000
Documents\*.pdf
1000

1070
     0
  0
LAYOUT
  5
F
102
{ACAD_REACTORS
330
B
102
}
330
B
100
AcDbPlotSettings
  1

  2
在 SKF 上自动 HP LaserJet 1020
  4
A4
  6

 40
4.773083209991455
 41
4.942401409149169
 42
4.815414428710936
 43
4.7730712890625
 44
210.0156707763672
 45
297.0106506347656
 46
0.0
 47
0.0
 48
0.0
 49
0.0
140
0.0
141
0.0
142
1.0
143
1.0
 70
   688
 72
     1
 73
     1
 74
     5
  7
acad.ctb
 75
    16
147
1.0
 76
     1
 77
     2
 78
   300
148
0.0
149
0.0
100
AcDbLayout
  1
布局1
 70
     0
 71
     1
 10
-4.7730712890625
 20
-4.773083209991455
 11
292.2375793457031
 21
205.2425875663757
 12
0.0
 22
0.0
 32
0.0
 14
0.0451739414299368
 24
0.0000025706221436
 34
0.0
 15
287.29517394143
 25
200.4000025706222
 35
0.0
146
0.0
 13
0.0
 23
0.0
 33
0.0
 16
1.0
 26
0.0
 36
0.0
 17
0.0
 27
1.0
 37
0.0
 76
     0
330
C
331
99
1001
AcadStringInfo
1000
MIFCodePage
1070
     5
  0
MATERIAL
  5
9837
102
{ACAD_XDICTIONARY
360
9838
102
}
102
{ACAD_REACTORS
330
28
102
}
330
28
100
AcDbMaterial
  1
ByBlock
 72
     0
 43
0.0008202099737533
 43
0.0
 43
0.0
 43
0.0
 43
0.0
 43
0.0008202099737533
 43
0.0
 43
0.0
 43
0.0
 43
0.0
 43
1.0
 43
0.0
 43
0.0
 43
0.0
 43
0.0
 43
1.0
 77
     0
 47
0.0008202099737533
 47
0.0
 47
0.0
 47
0.0
 47
0.0
 47
0.0008202099737533
 47
0.0
 47
0.0
 47
0.0
 47
0.0
 47
1.0
 47
0.0
 47
0.0
 47
0.0
 47
0.0
 47
1.0
171
     0
 49
0.0008202099737533
 49
0.0
 49
0.0
 49
0.0
 49
0.0
 49
0.0008202099737533
 49
0.0
 49
0.0
 49
0.0
 49
0.0
 49
1.0
 49
0.0
 49
0.0
 49
0.0
 49
0.0
 49
1.0
175
     0
142
0.0008202099737533
142
0.0
142
0.0
142
0.0
142
0.0
142
0.0008202099737533
142
0.0
142
0.0
142
0.0
142
0.0
142
1.0
142
0.0
142
0.0
142
0.0
142
0.0
142
1.0
179
     0
144
0.0008202099737533
144
0.0
144
0.0
144
0.0
144
0.0
144
0.0008202099737533
144
0.0
144
0.0
144
0.0
144
0.0
144
1.0
144
0.0
144
0.0
144
0.0
144
0.0
144
1.0
147
0.0008202099737533
147
0.0
147
0.0
147
0.0
147
0.0
147
0.0008202099737533
147
0.0
147
0.0
147
0.0
147
0.0
147
1.0
147
0.0
147
0.0
147
0.0
147
0.0
147
1.0
  0
MATERIAL
  5
982F
102
{ACAD_XDICTIONARY
360
9830
102
}
102
{ACAD_REACTORS
330
28
102
}
330
28
100
AcDbMaterial
  1
ByLayer
 72
     0
 43
0.0008202099737533
 43
0.0
 43
0.0
 43
0.0
 43
0.0
 43
0.0008202099737533
 43
0.0
 43
0.0
 43
0.0
 43
0.0
 43
1.0
 43
0.0
 43
0.0
 43
0.0
 43
0.0
 43
1.0
 77
     0
 47
0.0008202099737533
 47
0.0
 47
0.0
 47
0.0
 47
0.0
 47
0.0008202099737533
 47
0.0
 47
0.0
 47
0.0
 47
0.0
 47
1.0
 47
0.0
 47
0.0
 47
0.0
 47
0.0
 47
1.0
171
     0
 49
0.0008202099737533
 49
0.0
 49
0.0
 49
0.0
 49
0.0
 49
0.0008202099737533
 49
0.0
 49
0.0
 49
0.0
 49
0.0
 49
1.0
 49
0.0
 49
0.0
 49
0.0
 49
0.0
 49
1.0
175
     0
142
0.0008202099737533
142
0.0
142
0.0
142
0.0
142
0.0
142
0.0008202099737533
142
0.0
142
0.0
142
0.0
142
0.0
142
1.0
142
0.0
142
0.0
142
0.0
142
0.0
142
1.0
179
     0
144
0.0008202099737533
144
0.0
144
0.0
144
0.0
144
0.0
144
0.0008202099737533
144
0.0
144
0.0
144
0.0
144
0.0
144
1.0
144
0.0
144
0.0
144
0.0
144
0.0
144
1.0
147
0.0008202099737533
147
0.0
147
0.0
147
0.0
147
0.0
147
0.0008202099737533
147
0.0
147
0.0
147
0.0
147
0.0
147
1.0
147
0.0
147
0.0
147
0.0
147
0.0
147
1.0
  0
MATERIAL
  5
983F
102
{ACAD_XDICTIONARY
360
9840
102
}
102
{ACAD_REACTORS
330
28
102
}
330
28
100
AcDbMaterial
  1
Global
 72
     0
 43
0.0008202099737533
 43
0.0
 43
0.0
 43
0.0
 43
0.0
 43
0.0008202099737533
 43
0.0
 43
0.0
 43
0.0
 43
0.0
 43
1.0
 43
0.0
 43
0.0
 43
0.0
 43
0.0
 43
1.0
 77
     0
 47
0.0008202099737533
 47
0.0
 47
0.0
 47
0.0
 47
0.0
 47
0.0008202099737533
 47
0.0
 47
0.0
 47
0.0
 47
0.0
 47
1.0
 47
0.0
 47
0.0
 47
0.0
 47
0.0
 47
1.0
171
     0
 49
0.0008202099737533
 49
0.0
 49
0.0
 49
0.0
 49
0.0
 49
0.0008202099737533
 49
0.0
 49
0.0
 49
0.0
 49
0.0
 49
1.0
 49
0.0
 49
0.0
 49
0.0
 49
0.0
 49
1.0
175
     0
142
0.0008202099737533
142
0.0
142
0.0
142
0.0
142
0.0
142
0.0008202099737533
142
0.0
142
0.0
142
0.0
142
0.0
142
1.0
142
0.0
142
0.0
142
0.0
142
0.0
142
1.0
179
     0
144
0.0008202099737533
144
0.0
144
0.0
144
0.0
144
0.0
144
0.0008202099737533
144
0.0
144
0.0
144
0.0
144
0.0
144
1.0
144
0.0
144
0.0
144
0.0
144
0.0
144
1.0
147
0.0008202099737533
147
0.0
147
0.0
147
0.0
147
0.0
147
0.0008202099737533
147
0.0
147
0.0
147
0.0
147
0.0
147
1.0
147
0.0
147
0.0
147
0.0
147
0.0
147
1.0
  0
MLEADERSTYLE
  5
987C
102
{ACAD_REACTORS
330
987B
102
}
330
987B
100
AcDbMLeaderStyle
179
     2
170
     2
171
     1
172
     0
 90
        2
 40
0.0
 41
0.0
173
     1
 91
-1056964608
340
16
 92
       -2
290
     1
 42
2.0
291
     1
 43
0.36
  3
Standard
 44
4.0
300

342
12
174
     1
178
     6
175
     1
176
     0
 93
-1056964608
 45
4.0
292
     0
297
     0
 46
4.0
 94
-1056964608
 47
1.0
 49
1.0
140
1.0
293
     1
141
0.0
294
     1
177
     0
142
1.0
295
     0
296
     0
143
0.125
271
     0
272
     9
273
     9
298
     0
1001
ACAD
1000
AcRTDxfName
1000
MLEADERSTYLE
1000
AcRTDxfName
1000
MLEADERSTYLE
1000
AcRTDxfName
1000
MLEADERSTYLE
1000
AcRTDxfName
1000
MLEADERSTYLE
1000
AcRTDxfName
1000
MLEADERSTYLE
1000
AcRTDxfName
1000
MLEADERSTYLE
  0
MLINESTYLE
  5
2A
102
{ACAD_REACTORS
330
26
102
}
330
26
100
AcDbMlineStyle
  2
STANDARD
 70
     0
  3

 62
   256
 51
90.0
 52
90.0
 71
     2
 49
0.5
 62
   256
  6
BYLAYER
 49
-0.5
 62
   256
  6
BYLAYER
  0
PLOTSETTINGS
  5
30A40
102
{ACAD_REACTORS
330
27
102
}
330
27
100
AcDbPlotSettings
  1
设置1
  2
\\192.168.1.102\HP LaserJet 1020
  4
A4
  6

 40
4.773083209991455
 41
4.942401409149169
 42
4.815414428710936
 43
4.7730712890625
 44
210.0156707763672
 45
297.0106506347656
 46
0.0
 47
8.162242915879204
 48
4678.397198801646
 49
199.7202550513075
140
4813.122570352224
141
299.3717161006835
142
1.0
143
0.4971953627312283
 70
  3764
 72
     1
 73
     1
 74
     4
  7
acad.ctb
 75
     0
147
2.01128183196788
 76
     1
 77
     2
 78
   300
148
-4678.397198801646
149
-199.7202550513075
1001
ACAD_PSEXT
1000
\\192.168.1.102\HP LaserJet 1020
1000
HP LaserJet 1020
1000
\\192.168.1.102
1000

1070
     0
1001
AcadStringInfo
1000
MIFCodePage
1070
     5
  0
ACDBPLACEHOLDER
  5
5
102
{ACAD_REACTORS
330
6
102
}
330
6
  0
SCALE
  5
985A
102
{ACAD_REACTORS
330
9859
102
}
330
9859
100
AcDbScale
 70
     0
300
1:1
140
1.0
141
1.0
290
     1
1001
ACAD
1000
AcRTDxfName
1000
SCALE
1000
AcRTDxfName
1000
SCALE
1000
AcRTDxfName
1000
SCALE
1000
AcRTDxfName
1000
SCALE
1000
AcRTDxfName
1000
SCALE
1000
AcRTDxfName
1000
SCALE
  0
SCALE
  5
985B
102
{ACAD_REACTORS
330
9859
102
}
330
9859
100
AcDbScale
 70
     0
300
1:2
140
1.0
141
2.0
290
     0
1001
ACAD
1000
AcRTDxfName
1000
SCALE
1000
AcRTDxfName
1000
SCALE
1000
AcRTDxfName
1000
SCALE
1000
AcRTDxfName
1000
SCALE
1000
AcRTDxfName
1000
SCALE
1000
AcRTDxfName
1000
SCALE
  0
SCALE
  5
985C
102
{ACAD_REACTORS
330
9859
102
}
330
9859
100
AcDbScale
 70
     0
300
1:4
140
1.0
141
4.0
290
     0
1001
ACAD
1000
AcRTDxfName
1000
SCALE
1000
AcRTDxfName
1000
SCALE
1000
AcRTDxfName
1000
SCALE
1000
AcRTDxfName
1000
SCALE
1000
AcRTDxfName
1000
SCALE
1000
AcRTDxfName
1000
SCALE
  0
SCALE
  5
985D
102
{ACAD_REACTORS
330
9859
102
}
330
9859
100
AcDbScale
 70
     0
300
1:5
140
1.0
141
5.0
290
     0
1001
ACAD
1000
AcRTDxfName
1000
SCALE
1000
AcRTDxfName
1000
SCALE
1000
AcRTDxfName
1000
SCALE
1000
AcRTDxfName
1000
SCALE
1000
AcRTDxfName
1000
SCALE
1000
AcRTDxfName
1000
SCALE
  0
SCALE
  5
985E
102
{ACAD_REACTORS
330
9859
102
}
330
9859
100
AcDbScale
 70
     0
300
1:8
140
1.0
141
8.0
290
     0
1001
ACAD
1000
AcRTDxfName
1000
SCALE
1000
AcRTDxfName
1000
SCALE
1000
AcRTDxfName
1000
SCALE
1000
AcRTDxfName
1000
SCALE
1000
AcRTDxfName
1000
SCALE
1000
AcRTDxfName
1000
SCALE
  0
SCALE
  5
985F
102
{ACAD_REACTORS
330
9859
102
}
330
9859
100
AcDbScale
 70
     0
300
1:10
140
1.0
141
10.0
290
     0
1001
ACAD
1000
AcRTDxfName
1000
SCALE
1000
AcRTDxfName
1000
SCALE
1000
AcRTDxfName
1000
SCALE
1000
AcRTDxfName
1000
SCALE
1000
AcRTDxfName
1000
SCALE
1000
AcRTDxfName
1000
SCALE
  0
SCALE
  5
9860
102
{ACAD_REACTORS
330
9859
102
}
330
9859
100
AcDbScale
 70
     0
300
1:16
140
1.0
141
16.0
290
     0
1001
ACAD
1000
AcRTDxfName
1000
SCALE
1000
AcRTDxfName
1000
SCALE
1000
AcRTDxfName
1000
SCALE
1000
AcRTDxfName
1000
SCALE
1000
AcRTDxfName
1000
SCALE
1000
AcRTDxfName
1000
SCALE
  0
SCALE
  5
9861
102
{ACAD_REACTORS
330
9859
102
}
330
9859
100
AcDbScale
 70
     0
300
1:20
140
1.0
141
20.0
290
     0
1001
ACAD
1000
AcRTDxfName
1000
SCALE
1000
AcRTDxfName
1000
SCALE
1000
AcRTDxfName
1000
SCALE
1000
AcRTDxfName
1000
SCALE
1000
AcRTDxfName
1000
SCALE
1000
AcRTDxfName
1000
SCALE
  0
SCALE
  5
9862
102
{ACAD_REACTORS
330
9859
102
}
330
9859
100
AcDbScale
 70
     0
300
1:30
140
1.0
141
30.0
290
     0
1001
ACAD
1000
AcRTDxfName
1000
SCALE
1000
AcRTDxfName
1000
SCALE
1000
AcRTDxfName
1000
SCALE
1000
AcRTDxfName
1000
SCALE
1000
AcRTDxfName
1000
SCALE
1000
AcRTDxfName
1000
SCALE
  0
SCALE
  5
9863
102
{ACAD_REACTORS
330
9859
102
}
330
9859
100
AcDbScale
 70
     0
300
1:40
140
1.0
141
40.0
290
     0
1001
ACAD
1000
AcRTDxfName
1000
SCALE
1000
AcRTDxfName
1000
SCALE
1000
AcRTDxfName
1000
SCALE
1000
AcRTDxfName
1000
SCALE
1000
AcRTDxfName
1000
SCALE
1000
AcRTDxfName
1000
SCALE
  0
SCALE
  5
9864
102
{ACAD_REACTORS
330
9859
102
}
330
9859
100
AcDbScale
 70
     0
300
1:50
140
1.0
141
50.0
290
     0
1001
ACAD
1000
AcRTDxfName
1000
SCALE
1000
AcRTDxfName
1000
SCALE
1000
AcRTDxfName
1000
SCALE
1000
AcRTDxfName
1000
SCALE
1000
AcRTDxfName
1000
SCALE
1000
AcRTDxfName
1000
SCALE
  0
SCALE
  5
9865
102
{ACAD_REACTORS
330
9859
102
}
330
9859
100
AcDbScale
 70
     0
300
1:100
140
1.0
141
100.0
290
     0
1001
ACAD
1000
AcRTDxfName
1000
SCALE
1000
AcRTDxfName
1000
SCALE
1000
AcRTDxfName
1000
SCALE
1000
AcRTDxfName
1000
SCALE
1000
AcRTDxfName
1000
SCALE
1000
AcRTDxfName
1000
SCALE
  0
SCALE
  5
9866
102
{ACAD_REACTORS
330
9859
102
}
330
9859
100
AcDbScale
 70
     0
300
2:1
140
2.0
141
1.0
290
     0
1001
ACAD
1000
AcRTDxfName
1000
SCALE
1000
AcRTDxfName
1000
SCALE
1000
AcRTDxfName
1000
SCALE
1000
AcRTDxfName
1000
SCALE
1000
AcRTDxfName
1000
SCALE
1000
AcRTDxfName
1000
SCALE
  0
SCALE
  5
9867
102
{ACAD_REACTORS
330
9859
102
}
330
9859
100
AcDbScale
 70
     0
300
4:1
140
4.0
141
1.0
290
     0
1001
ACAD
1000
AcRTDxfName
1000
SCALE
1000
AcRTDxfName
1000
SCALE
1000
AcRTDxfName
1000
SCALE
1000
AcRTDxfName
1000
SCALE
1000
AcRTDxfName
1000
SCALE
1000
AcRTDxfName
1000
SCALE
  0
SCALE
  5
9868
102
{ACAD_REACTORS
330
9859
102
}
330
9859
100
AcDbScale
 70
     0
300
8:1
140
8.0
141
1.0
290
     0
1001
ACAD
1000
AcRTDxfName
1000
SCALE
1000
AcRTDxfName
1000
SCALE
1000
AcRTDxfName
1000
SCALE
1000
AcRTDxfName
1000
SCALE
1000
AcRTDxfName
1000
SCALE
1000
AcRTDxfName
1000
SCALE
  0
SCALE
  5
9869
102
{ACAD_REACTORS
330
9859
102
}
330
9859
100
AcDbScale
 70
     0
300
10:1
140
10.0
141
1.0
290
     0
1001
ACAD
1000
AcRTDxfName
1000
SCALE
1000
AcRTDxfName
1000
SCALE
1000
AcRTDxfName
1000
SCALE
1000
AcRTDxfName
1000
SCALE
1000
AcRTDxfName
1000
SCALE
1000
AcRTDxfName
1000
SCALE
  0
SCALE
  5
986A
102
{ACAD_REACTORS
330
9859
102
}
330
9859
100
AcDbScale
 70
     0
300
100:1
140
100.0
141
1.0
290
     0
1001
ACAD
1000
AcRTDxfName
1000
SCALE
1000
AcRTDxfName
1000
SCALE
1000
AcRTDxfName
1000
SCALE
1000
AcRTDxfName
1000
SCALE
1000
AcRTDxfName
1000
SCALE
1000
AcRTDxfName
1000
SCALE
  0
SCALE
  5
986B
102
{ACAD_REACTORS
330
9859
102
}
330
9859
100
AcDbScale
 70
     0
300
1/128" = 1'-0"
140
0.0078125
141
12.0
290
     0
1001
ACAD
1000
AcRTDxfName
1000
SCALE
1000
AcRTDxfName
1000
SCALE
1000
AcRTDxfName
1000
SCALE
1000
AcRTDxfName
1000
SCALE
1000
AcRTDxfName
1000
SCALE
1000
AcRTDxfName
1000
SCALE
  0
SCALE
  5
986C
102
{ACAD_REACTORS
330
9859
102
}
330
9859
100
AcDbScale
 70
     0
300
1/64" = 1'-0"
140
0.015625
141
12.0
290
     0
1001
ACAD
1000
AcRTDxfName
1000
SCALE
1000
AcRTDxfName
1000
SCALE
1000
AcRTDxfName
1000
SCALE
1000
AcRTDxfName
1000
SCALE
1000
AcRTDxfName
1000
SCALE
1000
AcRTDxfName
1000
SCALE
  0
SCALE
  5
986D
102
{ACAD_REACTORS
330
9859
102
}
330
9859
100
AcDbScale
 70
     0
300
1/32" = 1'-0"
140
0.03125
141
12.0
290
     0
1001
ACAD
1000
AcRTDxfName
1000
SCALE
1000
AcRTDxfName
1000
SCALE
1000
AcRTDxfName
1000
SCALE
1000
AcRTDxfName
1000
SCALE
1000
AcRTDxfName
1000
SCALE
1000
AcRTDxfName
1000
SCALE
  0
SCALE
  5
986E
102
{ACAD_REACTORS
330
9859
102
}
330
9859
100
AcDbScale
 70
     0
300
1/16" = 1'-0"
140
0.0625
141
12.0
290
     0
1001
ACAD
1000
AcRTDxfName
1000
SCALE
1000
AcRTDxfName
1000
SCALE
1000
AcRTDxfName
1000
SCALE
1000
AcRTDxfName
1000
SCALE
1000
AcRTDxfName
1000
SCALE
1000
AcRTDxfName
1000
SCALE
  0
SCALE
  5
986F
102
{ACAD_REACTORS
330
9859
102
}
330
9859
100
AcDbScale
 70
     0
300
3/32" = 1'-0"
140
0.09375
141
12.0
290
     0
1001
ACAD
1000
AcRTDxfName
1000
SCALE
1000
AcRTDxfName
1000
SCALE
1000
AcRTDxfName
1000
SCALE
1000
AcRTDxfName
1000
SCALE
1000
AcRTDxfName
1000
SCALE
1000
AcRTDxfName
1000
SCALE
  0
SCALE
  5
9870
102
{ACAD_REACTORS
330
9859
102
}
330
9859
100
AcDbScale
 70
     0
300
1/8" = 1'-0"
140
0.125
141
12.0
290
     0
1001
ACAD
1000
AcRTDxfName
1000
SCALE
1000
AcRTDxfName
1000
SCALE
1000
AcRTDxfName
1000
SCALE
1000
AcRTDxfName
1000
SCALE
1000
AcRTDxfName
1000
SCALE
1000
AcRTDxfName
1000
SCALE
  0
SCALE
  5
9871
102
{ACAD_REACTORS
330
9859
102
}
330
9859
100
AcDbScale
 70
     0
300
3/16" = 1'-0"
140
0.1875
141
12.0
290
     0
1001
ACAD
1000
AcRTDxfName
1000
SCALE
1000
AcRTDxfName
1000
SCALE
1000
AcRTDxfName
1000
SCALE
1000
AcRTDxfName
1000
SCALE
1000
AcRTDxfName
1000
SCALE
1000
AcRTDxfName
1000
SCALE
  0
SCALE
  5
9872
102
{ACAD_REACTORS
330
9859
102
}
330
9859
100
AcDbScale
 70
     0
300
1/4" = 1'-0"
140
0.25
141
12.0
290
     0
1001
ACAD
1000
AcRTDxfName
1000
SCALE
1000
AcRTDxfName
1000
SCALE
1000
AcRTDxfName
1000
SCALE
1000
AcRTDxfName
1000
SCALE
1000
AcRTDxfName
1000
SCALE
1000
AcRTDxfName
1000
SCALE
  0
SCALE
  5
9873
102
{ACAD_REACTORS
330
9859
102
}
330
9859
100
AcDbScale
 70
     0
300
3/8" = 1'-0"
140
0.375
141
12.0
290
     0
1001
ACAD
1000
AcRTDxfName
1000
SCALE
1000
AcRTDxfName
1000
SCALE
1000
AcRTDxfName
1000
SCALE
1000
AcRTDxfName
1000
SCALE
1000
AcRTDxfName
1000
SCALE
1000
AcRTDxfName
1000
SCALE
  0
SCALE
  5
9874
102
{ACAD_REACTORS
330
9859
102
}
330
9859
100
AcDbScale
 70
     0
300
1/2" = 1'-0"
140
0.5
141
12.0
290
     0
1001
ACAD
1000
AcRTDxfName
1000
SCALE
1000
AcRTDxfName
1000
SCALE
1000
AcRTDxfName
1000
SCALE
1000
AcRTDxfName
1000
SCALE
1000
AcRTDxfName
1000
SCALE
1000
AcRTDxfName
1000
SCALE
  0
SCALE
  5
9875
102
{ACAD_REACTORS
330
9859
102
}
330
9859
100
AcDbScale
 70
     0
300
3/4" = 1'-0"
140
0.75
141
12.0
290
     0
1001
ACAD
1000
AcRTDxfName
1000
SCALE
1000
AcRTDxfName
1000
SCALE
1000
AcRTDxfName
1000
SCALE
1000
AcRTDxfName
1000
SCALE
1000
AcRTDxfName
1000
SCALE
1000
AcRTDxfName
1000
SCALE
  0
SCALE
  5
9876
102
{ACAD_REACTORS
330
9859
102
}
330
9859
100
AcDbScale
 70
     0
300
1" = 1'-0"
140
1.0
141
12.0
290
     0
1001
ACAD
1000
AcRTDxfName
1000
SCALE
1000
AcRTDxfName
1000
SCALE
1000
AcRTDxfName
1000
SCALE
1000
AcRTDxfName
1000
SCALE
1000
AcRTDxfName
1000
SCALE
1000
AcRTDxfName
1000
SCALE
  0
SCALE
  5
9877
102
{ACAD_REACTORS
330
9859
102
}
330
9859
100
AcDbScale
 70
     0
300
1-1/2" = 1'-0"
140
1.5
141
12.0
290
     0
1001
ACAD
1000
AcRTDxfName
1000
SCALE
1000
AcRTDxfName
1000
SCALE
1000
AcRTDxfName
1000
SCALE
1000
AcRTDxfName
1000
SCALE
1000
AcRTDxfName
1000
SCALE
1000
AcRTDxfName
1000
SCALE
  0
SCALE
  5
9878
102
{ACAD_REACTORS
330
9859
102
}
330
9859
100
AcDbScale
 70
     0
300
3" = 1'-0"
140
3.0
141
12.0
290
     0
1001
ACAD
1000
AcRTDxfName
1000
SCALE
1000
AcRTDxfName
1000
SCALE
1000
AcRTDxfName
1000
SCALE
1000
AcRTDxfName
1000
SCALE
1000
AcRTDxfName
1000
SCALE
1000
AcRTDxfName
1000
SCALE
  0
SCALE
  5
9879
102
{ACAD_REACTORS
330
9859
102
}
330
9859
100
AcDbScale
 70
     0
300
6" = 1'-0"
140
6.0
141
12.0
290
     0
1001
ACAD
1000
AcRTDxfName
1000
SCALE
1000
AcRTDxfName
1000
SCALE
1000
AcRTDxfName
1000
SCALE
1000
AcRTDxfName
1000
SCALE
1000
AcRTDxfName
1000
SCALE
1000
AcRTDxfName
1000
SCALE
  0
SCALE
  5
987A
102
{ACAD_REACTORS
330
9859
102
}
330
9859
100
AcDbScale
 70
     0
300
1'-0" = 1'-0"
140
12.0
141
12.0
290
     0
1001
ACAD
1000
AcRTDxfName
1000
SCALE
1000
AcRTDxfName
1000
SCALE
1000
AcRTDxfName
1000
SCALE
1000
AcRTDxfName
1000
SCALE
1000
AcRTDxfName
1000
SCALE
1000
AcRTDxfName
1000
SCALE
  0
ACDBSECTIONVIEWSTYLE
  5
6063539
102
{ACAD_XDICTIONARY
360
6063550
102
}
102
{ACAD_REACTORS
330
6063538
102
}
330
6063538
100
AcDbModelDocViewStyle
 70
     0
  3
Metric50
290
     0
100
AcDbSectionViewStyle
 70
     0
 71
     0
 90
      102
 71
     1
340
12
 62
   256
 40
5.0
340
0
340
0
 62
   256
 40
5.0
300
I, O, Q, S, X, Z
 40
10.0
 90
        0
 40
2.5
 90
        0
 71
     2
340
8
 90
       25
 62
   256
340
8
 90
       50
 62
   256
 40
5.0
 40
2.5
 40
5.0
 71
     3
340
12
 62
   256
 40
5.0
 90
        0
 40
15.0
 90
        1
300
%<\AcVar ViewSectionStartId>%-%<\AcVar ViewSectionEndId>% (%<\AcVar ViewScale \f "%sn">%)
 71
     4
 62
   256
 62
   257
300
ANSI31
 40
1.0
 90
        0
290
     0
290
     0
 90
        6
 40
0.0
 40
1.570796326794896
 40
0.2617993877991494
 40
1.308996938995747
 40
-0.2617993877991494
 40
1.832595714594046
  0
TABLESTYLE
  5
9858
102
{ACAD_XDICTIONARY
360
B800
102
}
102
{ACAD_REACTORS
330
46A6
102
}
330
46A6
100
AcDbTableStyle
280
     0
  3
Standard
 70
     0
 71
     0
 40
1.5
 41
1.5
280
     0
281
     0
  7
Standard
140
4.5
170
     2
 62
     0
 63
     7
283
     0
 90
      512
 91
        0
  1

274
    -2
284
     1
 64
     0
275
    -2
285
     1
 65
     0
276
    -2
286
     1
 66
     0
277
    -2
287
     1
 67
     0
278
    -2
288
     1
 68
     0
279
    -2
289
     1
 69
     0
  7
Standard
140
6.0
170
     5
 62
     0
 63
     7
283
     0
 90
      512
 91
        0
  1

274
    -2
284
     1
 64
     0
275
    -2
285
     1
 65
     0
276
    -2
286
     1
 66
     0
277
    -2
287
     1
 67
     0
278
    -2
288
     1
 68
     0
279
    -2
289
     1
 69
     0
  7
Standard
140
4.5
170
     5
 62
     0
 63
     7
283
     0
 90
      512
 91
        0
  1

274
    -2
284
     1
 64
     0
275
    -2
285
     1
 65
     0
276
    -2
286
     1
 66
     0
277
    -2
287
     1
 67
     0
278
    -2
288
     1
 68
     0
279
    -2
289
     1
 69
     0
  0
VISUALSTYLE
  5
984D
102
{ACAD_REACTORS
330
9847
102
}
330
9847
100
AcDbVisualStyle
  2
2dWireframe
 70
     4
177
     3
291
     0
 70
    58
 90
        0
176
     1
 90
        2
176
     1
 90
        0
176
     1
 90
        0
176
     1
 40
0.6
176
     1
 40
30.0
176
     1
 62
     7
176
     1
 90
        1
176
     1
 90
        4
176
     1
 62
     7
176
     1
 62
   257
176
     1
 90
        1
176
     1
 90
        1
176
     1
 40
1.0
176
     1
 90
        0
176
     1
 62
   257
176
     1
 40
1.0
176
     1
 90
        1
176
     1
 90
        6
176
     1
 90
        2
176
     1
 62
     7
176
     1
 90
        5
176
     1
 90
        0
176
     1
 90
        0
176
     1
290
     0
176
     1
 90
        1
176
     1
 40
0.0
176
     1
 90
        0
176
     1
290
     1
176
     1
290
     1
176
     1
290
     0
176
     1
290
     0
176
     1
290
     0
176
     1
290
     0
176
     1
290
     0
176
     1
290
     0
176
     1
290
     0
176
     1
 90
       50
176
     1
 40
0.0
176
     1
 40
1.0
176
     1
 90
        0
176
     1
 62
    18
420
        0
176
     1
 90
       50
176
     1
 90
        3
176
     1
 62
     5
420
      255
176
     1
290
     0
176
     1
 90
       50
176
     1
 90
       50
176
     1
 90
       50
176
     1
290
     0
176
     1
 90
       50
176
     1
 62
   256
176
     0
 40
1.0
176
     0
 90
        2
176
     1
  1
strokes_ogs.tif
176
     1
290
     0
176
     1
 40
1.0
176
     1
 40
1.0
176
     1
1001
ACAD
1000
AcRTDxfName
1000
VISUALSTYLE
1000
AcRTDxfName
1000
VISUALSTYLE
1000
AcRTDxfName
1000
VISUALSTYLE
1000
AcRTDxfName
1000
VISUALSTYLE
1000
AcRTDxfName
1000
VISUALSTYLE
1000
AcRTDxfName
1000
VISUALSTYLE
  0
VISUALSTYLE
  5
984F
102
{ACAD_REACTORS
330
9847
102
}
330
9847
100
AcDbVisualStyle
  2
3D Hidden
 70
     6
177
     3
291
     0
 70
    58
 90
        1
176
     1
 90
        2
176
     1
 90
        2
176
     1
 90
        0
176
     1
 40
0.6
176
     1
 40
30.0
176
     1
 62
     7
176
     1
 90
        2
176
     1
 90
        2
176
     1
 62
     7
176
     1
 62
   257
176
     1
 90
        2
176
     1
 90
        1
176
     1
 40
40.0
176
     1
 90
        0
176
     1
 62
   257
176
     1
 40
1.0
176
     1
 90
        1
176
     1
 90
        6
176
     1
 90
        2
176
     1
 62
     7
176
     1
 90
        3
176
     1
 90
        0
176
     1
 90
        0
176
     1
290
     0
176
     1
 90
        1
176
     1
 40
0.0
176
     1
 90
        0
176
     1
290
     0
176
     1
290
     1
176
     1
290
     1
176
     1
290
     0
176
     1
290
     0
176
     1
290
     0
176
     1
290
     0
176
     1
290
     0
176
     1
290
     0
176
     1
 90
       50
176
     1
 40
0.0
176
     1
 40
1.0
176
     1
 90
        0
176
     1
 62
    18
420
        0
176
     1
 90
       50
176
     1
 90
        3
176
     1
 62
     5
420
      255
176
     1
290
     0
176
     1
 90
       50
176
     1
 90
       50
176
     1
 90
       50
176
     1
290
     0
176
     1
 90
       50
176
     1
 62
   256
176
     0
 40
1.0
176
     0
 90
        2
176
     1
  1
strokes_ogs.tif
176
     1
290
     0
176
     1
 40
1.0
176
     1
 40
1.0
176
     1
1001
ACAD
1000
AcRTDxfName
1000
VISUALSTYLE
1000
AcRTDxfName
1000
VISUALSTYLE
1000
AcRTDxfName
1000
VISUALSTYLE
1000
AcRTDxfName
1000
VISUALSTYLE
1000
AcRTDxfName
1000
VISUALSTYLE
1000
AcRTDxfName
1000
VISUALSTYLE
  0
VISUALSTYLE
  5
984E
102
{ACAD_REACTORS
330
9847
102
}
330
9847
100
AcDbVisualStyle
  2
3dWireframe
 70
     5
177
     3
291
     0
 70
    58
 90
        0
176
     1
 90
        2
176
     1
 90
        0
176
     1
 90
        0
176
     1
 40
0.6
176
     1
 40
30.0
176
     1
 62
     7
176
     1
 90
        1
176
     1
 90
        4
176
     1
 62
     7
176
     1
 62
   257
176
     1
 90
        1
176
     1
 90
        1
176
     1
 40
1.0
176
     1
 90
        0
176
     1
 62
   257
176
     1
 40
1.0
176
     1
 90
        1
176
     1
 90
        6
176
     1
 90
        2
176
     1
 62
     7
176
     1
 90
        5
176
     1
 90
        0
176
     1
 90
        0
176
     1
290
     0
176
     1
 90
        1
176
     1
 40
0.0
176
     1
 90
        0
176
     1
290
     0
176
     1
290
     1
176
     1
290
     1
176
     1
290
     0
176
     1
290
     0
176
     1
290
     0
176
     1
290
     0
176
     1
290
     0
176
     1
290
     0
176
     1
 90
       50
176
     1
 40
0.0
176
     1
 40
1.0
176
     1
 90
        0
176
     1
 62
    18
420
        0
176
     1
 90
       50
176
     1
 90
        3
176
     1
 62
     5
420
      255
176
     1
290
     0
176
     1
 90
       50
176
     1
 90
       50
176
     1
 90
       50
176
     1
290
     0
176
     1
 90
       50
176
     1
 62
   256
176
     0
 40
1.0
176
     0
 90
        2
176
     1
  1
strokes_ogs.tif
176
     1
290
     0
176
     1
 40
1.0
176
     1
 40
1.0
176
     1
1001
ACAD
1000
AcRTDxfName
1000
VISUALSTYLE
1000
AcRTDxfName
1000
VISUALSTYLE
1000
AcRTDxfName
1000
VISUALSTYLE
1000
AcRTDxfName
1000
VISUALSTYLE
1000
AcRTDxfName
1000
VISUALSTYLE
1000
AcRTDxfName
1000
VISUALSTYLE
  0
VISUALSTYLE
  5
984C
102
{ACAD_REACTORS
330
9847
102
}
330
9847
100
AcDbVisualStyle
  2
Basic
 70
     7
177
     3
291
     1
 70
    58
 90
        1
176
     1
 90
        0
176
     1
 90
        1
176
     1
 90
        0
176
     1
 40
0.6
176
     1
 40
30.0
176
     1
 62
     7
176
     1
 90
        0
176
     1
 90
        4
176
     1
 62
     7
176
     1
 62
   257
176
     1
 90
        1
176
     1
 90
        1
176
     1
 40
1.0
176
     1
 90
        8
176
     1
 62
     7
176
     1
 40
1.0
176
     1
 90
        1
176
     1
 90
        6
176
     1
 90
        2
176
     1
 62
     7
176
     1
 90
        5
176
     1
 90
        0
176
     1
 90
        0
176
     1
290
     0
176
     1
 90
        1
176
     1
 40
0.0
176
     1
 90
        0
176
     1
290
     0
176
     1
290
     1
176
     1
290
     1
176
     1
290
     0
176
     1
290
     0
176
     1
290
     0
176
     1
290
     0
176
     1
290
     0
176
     1
290
     0
176
     1
 90
       50
176
     1
 40
0.0
176
     1
 40
1.0
176
     1
 90
        0
176
     1
 62
    18
420
        0
176
     1
 90
       50
176
     1
 90
        3
176
     1
 62
     5
420
      255
176
     1
290
     0
176
     1
 90
       50
176
     1
 90
       50
176
     1
 90
       50
176
     1
290
     0
176
     1
 90
       50
176
     1
 62
   256
176
     0
 40
1.0
176
     0
 90
        2
176
     1
  1
strokes_ogs.tif
176
     1
290
     0
176
     1
 40
1.0
176
     1
 40
1.0
176
     1
1001
ACAD
1000
AcRTDxfName
1000
VISUALSTYLE
1000
AcRTDxfName
1000
VISUALSTYLE
1000
AcRTDxfName
1000
VISUALSTYLE
1000
AcRTDxfName
1000
VISUALSTYLE
1000
AcRTDxfName
1000
VISUALSTYLE
1000
AcRTDxfName
1000
VISUALSTYLE
  0
VISUALSTYLE
  5
9853
102
{ACAD_REACTORS
330
9847
102
}
330
9847
100
AcDbVisualStyle
  2
Brighten
 70
    12
177
     3
291
     1
 70
    58
 90
        2
176
     1
 90
        2
176
     1
 90
        0
176
     1
 90
        0
176
     1
 40
0.6
176
     1
 40
30.0
176
     1
 62
     7
176
     1
 90
        1
176
     1
 90
        4
176
     1
 62
     7
176
     1
 62
   257
176
     1
 90
        1
176
     1
 90
        1
176
     1
 40
1.0
176
     1
 90
        8
176
     1
 62
     7
176
     1
 40
1.0
176
     1
 90
        1
176
     1
 90
        6
176
     1
 90
        2
176
     1
 62
     7
176
     1
 90
        5
176
     1
 90
        0
176
     1
 90
        0
176
     1
290
     0
176
     1
 90
        1
176
     1
 40
50.0
176
     1
 90
        0
176
     1
290
     0
176
     1
290
     1
176
     1
290
     1
176
     1
290
     0
176
     1
290
     0
176
     1
290
     0
176
     1
290
     0
176
     1
290
     0
176
     1
290
     0
176
     1
 90
       50
176
     1
 40
0.0
176
     1
 40
1.0
176
     1
 90
        0
176
     1
 62
    18
420
        0
176
     1
 90
       50
176
     1
 90
        3
176
     1
 62
     5
420
      255
176
     1
290
     0
176
     1
 90
       50
176
     1
 90
       50
176
     1
 90
       50
176
     1
290
     0
176
     1
 90
       50
176
     1
 62
   256
176
     0
 40
1.0
176
     0
 90
        2
176
     1
  1
strokes_ogs.tif
176
     1
290
     0
176
     1
 40
1.0
176
     1
 40
1.0
176
     1
1001
ACAD
1000
AcRTDxfName
1000
VISUALSTYLE
1000
AcRTDxfName
1000
VISUALSTYLE
1000
AcRTDxfName
1000
VISUALSTYLE
1000
AcRTDxfName
1000
VISUALSTYLE
1000
AcRTDxfName
1000
VISUALSTYLE
1000
AcRTDxfName
1000
VISUALSTYLE
  0
VISUALSTYLE
  5
9857
102
{ACAD_REACTORS
330
9847
102
}
330
9847
100
AcDbVisualStyle
  2
ColorChange
 70
    16
177
     3
291
     1
 70
    58
 90
        2
176
     1
 90
        2
176
     1
 90
        3
176
     1
 90
        0
176
     1
 40
0.6
176
     1
 40
30.0
176
     1
 62
     8
176
     1
 90
        1
176
     1
 90
        4
176
     1
 62
     7
176
     1
 62
   257
176
     1
 90
        1
176
     1
 90
        1
176
     1
 40
1.0
176
     1
 90
        8
176
     1
 62
     8
176
     1
 40
1.0
176
     1
 90
        1
176
     1
 90
        6
176
     1
 90
        2
176
     1
 62
     7
176
     1
 90
        5
176
     1
 90
        0
176
     1
 90
        0
176
     1
290
     0
176
     1
 90
        1
176
     1
 40
0.0
176
     1
 90
        0
176
     1
290
     0
176
     1
290
     1
176
     1
290
     1
176
     1
290
     0
176
     1
290
     0
176
     1
290
     0
176
     1
290
     0
176
     1
290
     0
176
     1
290
     0
176
     1
 90
       50
176
     1
 40
0.0
176
     1
 40
1.0
176
     1
 90
        0
176
     1
 62
    18
420
        0
176
     1
 90
       50
176
     1
 90
        3
176
     1
 62
     5
420
      255
176
     1
290
     0
176
     1
 90
       50
176
     1
 90
       50
176
     1
 90
       50
176
     1
290
     0
176
     1
 90
       50
176
     1
 62
   256
176
     0
 40
1.0
176
     0
 90
        2
176
     1
  1
strokes_ogs.tif
176
     1
290
     0
176
     1
 40
1.0
176
     1
 40
1.0
176
     1
1001
ACAD
1000
AcRTDxfName
1000
VISUALSTYLE
1000
AcRTDxfName
1000
VISUALSTYLE
1000
AcRTDxfName
1000
VISUALSTYLE
1000
AcRTDxfName
1000
VISUALSTYLE
1000
AcRTDxfName
1000
VISUALSTYLE
1000
AcRTDxfName
1000
VISUALSTYLE
  0
VISUALSTYLE
  5
9850
102
{ACAD_REACTORS
330
9847
102
}
330
9847
100
AcDbVisualStyle
  2
Conceptual
 70
     9
177
     3
291
     0
 70
    58
 90
        3
176
     1
 90
        2
176
     1
 90
        0
176
     1
 90
        0
176
     1
 40
0.6
176
     1
 40
30.0
176
     1
 62
     7
176
     1
 90
        2
176
     1
 90
        2
176
     1
 62
     7
176
     1
 62
   257
176
     1
 90
        1
176
     1
 90
        1
176
     1
 40
40.0
176
     1
 90
        8
176
     1
 62
     7
176
     1
 40
1.0
176
     1
 90
        1
176
     1
 90
        6
176
     1
 90
        2
176
     1
 62
     7
176
     1
 90
        3
176
     1
 90
        0
176
     1
 90
        0
176
     1
290
     0
176
     1
 90
        1
176
     1
 40
0.0
176
     1
 90
        0
176
     1
290
     0
176
     1
290
     1
176
     1
290
     1
176
     1
290
     0
176
     1
290
     0
176
     1
290
     0
176
     1
290
     0
176
     1
290
     0
176
     1
290
     0
176
     1
 90
       50
176
     1
 40
0.0
176
     1
 40
1.0
176
     1
 90
        0
176
     1
 62
    18
420
        0
176
     1
 90
       50
176
     1
 90
        3
176
     1
 62
     5
420
      255
176
     1
290
     0
176
     1
 90
       50
176
     1
 90
       50
176
     1
 90
       50
176
     1
290
     0
176
     1
 90
       50
176
     1
 62
   256
176
     0
 40
1.0
176
     0
 90
        2
176
     1
  1
strokes_ogs.tif
176
     1
290
     0
176
     1
 40
1.0
176
     1
 40
1.0
176
     1
1001
ACAD
1000
AcRTDxfName
1000
VISUALSTYLE
1000
AcRTDxfName
1000
VISUALSTYLE
1000
AcRTDxfName
1000
VISUALSTYLE
1000
AcRTDxfName
1000
VISUALSTYLE
1000
AcRTDxfName
1000
VISUALSTYLE
1000
AcRTDxfName
1000
VISUALSTYLE
  0
VISUALSTYLE
  5
9852
102
{ACAD_REACTORS
330
9847
102
}
330
9847
100
AcDbVisualStyle
  2
Dim
 70
    11
177
     3
291
     1
 70
    58
 90
        2
176
     1
 90
        2
176
     1
 90
        0
176
     1
 90
        0
176
     1
 40
0.6
176
     1
 40
30.0
176
     1
 62
     7
176
     1
 90
        1
176
     1
 90
        4
176
     1
 62
     7
176
     1
 62
   257
176
     1
 90
        1
176
     1
 90
        1
176
     1
 40
1.0
176
     1
 90
        8
176
     1
 62
     7
176
     1
 40
1.0
176
     1
 90
        1
176
     1
 90
        6
176
     1
 90
        2
176
     1
 62
     7
176
     1
 90
        5
176
     1
 90
        0
176
     1
 90
        0
176
     1
290
     0
176
     1
 90
        1
176
     1
 40
-50.0
176
     1
 90
        0
176
     1
290
     0
176
     1
290
     1
176
     1
290
     1
176
     1
290
     0
176
     1
290
     0
176
     1
290
     0
176
     1
290
     0
176
     1
290
     0
176
     1
290
     0
176
     1
 90
       50
176
     1
 40
0.0
176
     1
 40
1.0
176
     1
 90
        0
176
     1
 62
    18
420
        0
176
     1
 90
       50
176
     1
 90
        3
176
     1
 62
     5
420
      255
176
     1
290
     0
176
     1
 90
       50
176
     1
 90
       50
176
     1
 90
       50
176
     1
290
     0
176
     1
 90
       50
176
     1
 62
   256
176
     0
 40
1.0
176
     0
 90
        2
176
     1
  1
strokes_ogs.tif
176
     1
290
     0
176
     1
 40
1.0
176
     1
 40
1.0
176
     1
1001
ACAD
1000
AcRTDxfName
1000
VISUALSTYLE
1000
AcRTDxfName
1000
VISUALSTYLE
1000
AcRTDxfName
1000
VISUALSTYLE
1000
AcRTDxfName
1000
VISUALSTYLE
1000
AcRTDxfName
1000
VISUALSTYLE
1000
AcRTDxfName
1000
VISUALSTYLE
  0
VISUALSTYLE
  5
63025
102
{ACAD_REACTORS
330
9847
102
}
330
9847
100
AcDbVisualStyle
  2
EdgeColorOff
 70
    22
177
     3
291
     1
 70
    58
 90
        2
176
     0
 90
        2
176
     0
 90
        0
176
     0
 90
        0
176
     0
 40
0.6
176
     0
 40
30.0
176
     0
 62
     7
420
 16777215
176
     0
 90
        1
176
     0
 90
        4
176
     0
 62
     7
176
     0
 62
   257
176
     0
 90
        1
176
     0
 90
        1
176
     0
 40
1.0
176
     0
 90
        8
176
     2
 62
     7
176
     0
 40
1.0
176
     0
 90
        1
176
     0
 90
        6
176
     0
 90
        2
176
     0
 62
     7
176
     0
 90
        5
176
     0
 90
        0
176
     0
 90
        0
176
     0
290
     0
176
     0
 90
        1
176
     0
 40
0.0
176
     0
 90
        0
176
     0
290
     0
176
     1
290
     1
176
     1
290
     1
176
     1
290
     0
176
     1
290
     0
176
     1
290
     0
176
     1
290
     0
176
     1
290
     0
176
     1
290
     0
176
     1
 90
       50
176
     1
 40
0.0
176
     1
 40
1.0
176
     1
 90
        0
176
     1
 62
    18
420
        0
176
     1
 90
       50
176
     1
 90
        3
176
     1
 62
     5
420
      255
176
     1
290
     0
176
     1
 90
       50
176
     1
 90
       50
176
     1
 90
       50
176
     1
290
     0
176
     1
 90
       50
176
     1
 62
   256
176
     0
 40
1.0
176
     0
 90
        2
176
     1
  1
strokes_ogs.tif
176
     1
290
     0
176
     1
 40
1.0
176
     1
 40
1.0
176
     1
  0
VISUALSTYLE
  5
9856
102
{ACAD_REACTORS
330
9847
102
}
330
9847
100
AcDbVisualStyle
  2
Facepattern
 70
    15
177
     3
291
     1
 70
    58
 90
        2
176
     1
 90
        2
176
     1
 90
        0
176
     1
 90
        0
176
     1
 40
0.6
176
     1
 40
30.0
176
     1
 62
     7
176
     1
 90
        1
176
     1
 90
        4
176
     1
 62
     7
176
     1
 62
   257
176
     1
 90
        1
176
     1
 90
        1
176
     1
 40
1.0
176
     1
 90
        8
176
     1
 62
     7
176
     1
 40
1.0
176
     1
 90
        1
176
     1
 90
        6
176
     1
 90
        2
176
     1
 62
     7
176
     1
 90
        5
176
     1
 90
        0
176
     1
 90
        0
176
     1
290
     0
176
     1
 90
        1
176
     1
 40
0.0
176
     1
 90
        0
176
     1
290
     0
176
     1
290
     1
176
     1
290
     1
176
     1
290
     0
176
     1
290
     0
176
     1
290
     0
176
     1
290
     0
176
     1
290
     0
176
     1
290
     0
176
     1
 90
       50
176
     1
 40
0.0
176
     1
 40
1.0
176
     1
 90
        0
176
     1
 62
    18
420
        0
176
     1
 90
       50
176
     1
 90
        3
176
     1
 62
     5
420
      255
176
     1
290
     0
176
     1
 90
       50
176
     1
 90
       50
176
     1
 90
       50
176
     1
290
     0
176
     1
 90
       50
176
     1
 62
   256
176
     0
 40
1.0
176
     0
 90
        2
176
     1
  1
strokes_ogs.tif
176
     1
290
     0
176
     1
 40
1.0
176
     1
 40
1.0
176
     1
1001
ACAD
1000
AcRTDxfName
1000
VISUALSTYLE
1000
AcRTDxfName
1000
VISUALSTYLE
1000
AcRTDxfName
1000
VISUALSTYLE
1000
AcRTDxfName
1000
VISUALSTYLE
1000
AcRTDxfName
1000
VISUALSTYLE
1000
AcRTDxfName
1000
VISUALSTYLE
  0
VISUALSTYLE
  5
9848
102
{ACAD_REACTORS
330
9847
102
}
330
9847
100
AcDbVisualStyle
  2
Flat
 70
     0
177
     3
291
     1
 70
    58
 90
        2
176
     1
 90
        1
176
     1
 90
        1
176
     1
 90
        2
176
     1
 40
0.6
176
     1
 40
30.0
176
     1
 62
     7
176
     1
 90
        0
176
     1
 90
        4
176
     1
 62
     7
176
     1
 62
   257
176
     1
 90
        1
176
     1
 90
        1
176
     1
 40
1.0
176
     1
 90
        8
176
     1
 62
     7
176
     1
 40
1.0
176
     1
 90
        1
176
     1
 90
        6
176
     1
 90
        2
176
     1
 62
     7
176
     1
 90
        5
176
     1
 90
        0
176
     1
 90
        0
176
     1
290
     0
176
     1
 90
       13
176
     1
 40
0.0
176
     1
 90
        0
176
     1
290
     0
176
     1
290
     1
176
     1
290
     1
176
     1
290
     0
176
     1
290
     0
176
     1
290
     0
176
     1
290
     0
176
     1
290
     0
176
     1
290
     0
176
     1
 90
       50
176
     1
 40
0.0
176
     1
 40
1.0
176
     1
 90
        0
176
     1
 62
    18
420
        0
176
     1
 90
       50
176
     1
 90
        3
176
     1
 62
     5
420
      255
176
     1
290
     0
176
     1
 90
       50
176
     1
 90
       50
176
     1
 90
       50
176
     1
290
     0
176
     1
 90
       50
176
     1
 62
   256
176
     0
 40
1.0
176
     0
 90
        2
176
     1
  1
strokes_ogs.tif
176
     1
290
     0
176
     1
 40
1.0
176
     1
 40
1.0
176
     1
1001
ACAD
1000
AcRTDxfName
1000
VISUALSTYLE
1000
AcRTDxfName
1000
VISUALSTYLE
1000
AcRTDxfName
1000
VISUALSTYLE
1000
AcRTDxfName
1000
VISUALSTYLE
1000
AcRTDxfName
1000
VISUALSTYLE
1000
AcRTDxfName
1000
VISUALSTYLE
  0
VISUALSTYLE
  5
9849
102
{ACAD_REACTORS
330
9847
102
}
330
9847
100
AcDbVisualStyle
  2
FlatWithEdges
 70
     1
177
     3
291
     1
 70
    58
 90
        2
176
     1
 90
        1
176
     1
 90
        1
176
     1
 90
        2
176
     1
 40
0.6
176
     1
 40
30.0
176
     1
 62
     7
176
     1
 90
        1
176
     1
 90
        4
176
     1
 62
     7
176
     1
 62
   257
176
     1
 90
        1
176
     1
 90
        1
176
     1
 40
1.0
176
     1
 90
        0
176
     1
 62
   257
176
     1
 40
1.0
176
     1
 90
        1
176
     1
 90
        6
176
     1
 90
        2
176
     1
 62
     7
176
     1
 90
        5
176
     1
 90
        0
176
     1
 90
        0
176
     1
290
     0
176
     1
 90
       13
176
     1
 40
0.0
176
     1
 90
        0
176
     1
290
     0
176
     1
290
     1
176
     1
290
     1
176
     1
290
     0
176
     1
290
     0
176
     1
290
     0
176
     1
290
     0
176
     1
290
     0
176
     1
290
     0
176
     1
 90
       50
176
     1
 40
0.0
176
     1
 40
1.0
176
     1
 90
        0
176
     1
 62
    18
420
        0
176
     1
 90
       50
176
     1
 90
        3
176
     1
 62
     5
420
      255
176
     1
290
     0
176
     1
 90
       50
176
     1
 90
       50
176
     1
 90
       50
176
     1
290
     0
176
     1
 90
       50
176
     1
 62
   256
176
     0
 40
1.0
176
     0
 90
        2
176
     1
  1
strokes_ogs.tif
176
     1
290
     0
176
     1
 40
1.0
176
     1
 40
1.0
176
     1
1001
ACAD
1000
AcRTDxfName
1000
VISUALSTYLE
1000
AcRTDxfName
1000
VISUALSTYLE
1000
AcRTDxfName
1000
VISUALSTYLE
1000
AcRTDxfName
1000
VISUALSTYLE
1000
AcRTDxfName
1000
VISUALSTYLE
1000
AcRTDxfName
1000
VISUALSTYLE
  0
VISUALSTYLE
  5
984A
102
{ACAD_REACTORS
330
9847
102
}
330
9847
100
AcDbVisualStyle
  2
Gouraud
 70
     2
177
     3
291
     1
 70
    58
 90
        2
176
     1
 90
        2
176
     1
 90
        1
176
     1
 90
        2
176
     1
 40
0.6
176
     1
 40
30.0
176
     1
 62
     7
176
     1
 90
        0
176
     1
 90
        4
176
     1
 62
     7
176
     1
 62
   257
176
     1
 90
        1
176
     1
 90
        1
176
     1
 40
1.0
176
     1
 90
        0
176
     1
 62
     7
176
     1
 40
1.0
176
     1
 90
        1
176
     1
 90
        6
176
     1
 90
        2
176
     1
 62
     7
176
     1
 90
        5
176
     1
 90
        0
176
     1
 90
        0
176
     1
290
     0
176
     1
 90
       13
176
     1
 40
0.0
176
     1
 90
        0
176
     1
290
     0
176
     1
290
     1
176
     1
290
     1
176
     1
290
     0
176
     1
290
     0
176
     1
290
     0
176
     1
290
     0
176
     1
290
     0
176
     1
290
     0
176
     1
 90
       50
176
     1
 40
0.0
176
     1
 40
1.0
176
     1
 90
        0
176
     1
 62
    18
420
        0
176
     1
 90
       50
176
     1
 90
        3
176
     1
 62
     5
420
      255
176
     1
290
     0
176
     1
 90
       50
176
     1
 90
       50
176
     1
 90
       50
176
     1
290
     0
176
     1
 90
       50
176
     1
 62
   256
176
     0
 40
1.0
176
     0
 90
        2
176
     1
  1
strokes_ogs.tif
176
     1
290
     0
176
     1
 40
1.0
176
     1
 40
1.0
176
     1
1001
ACAD
1000
AcRTDxfName
1000
VISUALSTYLE
1000
AcRTDxfName
1000
VISUALSTYLE
1000
AcRTDxfName
1000
VISUALSTYLE
1000
AcRTDxfName
1000
VISUALSTYLE
1000
AcRTDxfName
1000
VISUALSTYLE
1000
AcRTDxfName
1000
VISUALSTYLE
  0
VISUALSTYLE
  5
984B
102
{ACAD_REACTORS
330
9847
102
}
330
9847
100
AcDbVisualStyle
  2
GouraudWithEdges
 70
     3
177
     3
291
     1
 70
    58
 90
        2
176
     1
 90
        2
176
     1
 90
        1
176
     1
 90
        2
176
     1
 40
0.6
176
     1
 40
30.0
176
     1
 62
     7
176
     1
 90
        1
176
     1
 90
        4
176
     1
 62
     7
176
     1
 62
   257
176
     1
 90
        1
176
     1
 90
        1
176
     1
 40
1.0
176
     1
 90
        0
176
     1
 62
   257
176
     1
 40
1.0
176
     1
 90
        1
176
     1
 90
        6
176
     1
 90
        2
176
     1
 62
     7
176
     1
 90
        5
176
     1
 90
        0
176
     1
 90
        0
176
     1
290
     0
176
     1
 90
       13
176
     1
 40
0.0
176
     1
 90
        0
176
     1
290
     0
176
     1
290
     1
176
     1
290
     1
176
     1
290
     0
176
     1
290
     0
176
     1
290
     0
176
     1
290
     0
176
     1
290
     0
176
     1
290
     0
176
     1
 90
       50
176
     1
 40
0.0
176
     1
 40
1.0
176
     1
 90
        0
176
     1
 62
    18
420
        0
176
     1
 90
       50
176
     1
 90
        3
176
     1
 62
     5
420
      255
176
     1
290
     0
176
     1
 90
       50
176
     1
 90
       50
176
     1
 90
       50
176
     1
290
     0
176
     1
 90
       50
176
     1
 62
   256
176
     0
 40
1.0
176
     0
 90
        2
176
     1
  1
strokes_ogs.tif
176
     1
290
     0
176
     1
 40
1.0
176
     1
 40
1.0
176
     1
1001
ACAD
1000
AcRTDxfName
1000
VISUALSTYLE
1000
AcRTDxfName
1000
VISUALSTYLE
1000
AcRTDxfName
1000
VISUALSTYLE
1000
AcRTDxfName
1000
VISUALSTYLE
1000
AcRTDxfName
1000
VISUALSTYLE
1000
AcRTDxfName
1000
VISUALSTYLE
  0
VISUALSTYLE
  5
6301D
102
{ACAD_REACTORS
330
9847
102
}
330
9847
100
AcDbVisualStyle
  2
Hidden
 70
     6
177
     3
291
     0
 70
    58
 90
        1
176
     1
 90
        2
176
     1
 90
        2
176
     1
 90
        0
176
     1
 40
0.6
176
     1
 40
30.0
176
     1
 62
     7
420
 16777215
176
     1
 90
        2
176
     1
 90
        2
176
     1
 62
     7
176
     1
 62
   257
176
     1
 90
        2
176
     1
 90
        1
176
     1
 40
40.0
176
     1
 90
        0
176
     1
 62
   257
176
     1
 40
1.0
176
     1
 90
        1
176
     1
 90
        6
176
     1
 90
        2
176
     1
 62
     7
176
     1
 90
        3
176
     1
 90
        0
176
     1
 90
        0
176
     1
290
     0
176
     1
 90
        1
176
     1
 40
0.0
176
     1
 90
        0
176
     1
290
     0
176
     1
290
     1
176
     1
290
     1
176
     1
290
     0
176
     1
290
     0
176
     1
290
     0
176
     1
290
     0
176
     1
290
     0
176
     1
290
     0
176
     1
 90
       50
176
     1
 40
0.0
176
     1
 40
1.0
176
     1
 90
        0
176
     1
 62
    18
420
        0
176
     1
 90
       50
176
     1
 90
        3
176
     1
 62
     5
420
      255
176
     1
290
     0
176
     1
 90
       50
176
     1
 90
       50
176
     1
 90
       50
176
     1
290
     0
176
     1
 90
       50
176
     1
 62
   256
176
     0
 40
1.0
176
     0
 90
        2
176
     1
  1
strokes_ogs.tif
176
     1
290
     0
176
     1
 40
1.0
176
     1
 40
1.0
176
     1
  0
VISUALSTYLE
  5
63023
102
{ACAD_REACTORS
330
9847
102
}
330
9847
100
AcDbVisualStyle
  2
JitterOff
 70
    20
177
     3
291
     1
 70
    58
 90
        2
176
     0
 90
        2
176
     0
 90
        0
176
     0
 90
        0
176
     0
 40
0.6
176
     0
 40
30.0
176
     0
 62
     7
420
 16777215
176
     0
 90
        1
176
     0
 90
        4
176
     0
 62
     7
176
     0
 62
   257
176
     0
 90
        1
176
     0
 90
        1
176
     0
 40
1.0
176
     0
 90
       10
176
     2
 62
     7
176
     0
 40
1.0
176
     0
 90
        1
176
     0
 90
        6
176
     0
 90
        2
176
     0
 62
     7
176
     0
 90
        5
176
     0
 90
        0
176
     0
 90
        0
176
     0
290
     0
176
     0
 90
        1
176
     0
 40
0.0
176
     0
 90
        0
176
     0
290
     0
176
     1
290
     1
176
     1
290
     1
176
     1
290
     0
176
     1
290
     0
176
     1
290
     0
176
     1
290
     0
176
     1
290
     0
176
     1
290
     0
176
     1
 90
       50
176
     1
 40
0.0
176
     1
 40
1.0
176
     1
 90
        0
176
     1
 62
    18
420
        0
176
     1
 90
       50
176
     1
 90
        3
176
     1
 62
     5
420
      255
176
     1
290
     0
176
     1
 90
       50
176
     1
 90
       50
176
     1
 90
       50
176
     1
290
     0
176
     1
 90
       50
176
     1
 62
   256
176
     0
 40
1.0
176
     0
 90
        2
176
     1
  1
strokes_ogs.tif
176
     1
290
     0
176
     1
 40
1.0
176
     1
 40
1.0
176
     1
  0
VISUALSTYLE
  5
9855
102
{ACAD_REACTORS
330
9847
102
}
330
9847
100
AcDbVisualStyle
  2
Linepattern
 70
    14
177
     3
291
     1
 70
    58
 90
        2
176
     1
 90
        2
176
     1
 90
        0
176
     1
 90
        0
176
     1
 40
0.6
176
     1
 40
30.0
176
     1
 62
     7
176
     1
 90
        1
176
     1
 90
        4
176
     1
 62
     7
176
     1
 62
   257
176
     1
 90
        7
176
     1
 90
        7
176
     1
 40
1.0
176
     1
 90
        8
176
     1
 62
     7
176
     1
 40
1.0
176
     1
 90
        1
176
     1
 90
        6
176
     1
 90
        2
176
     1
 62
     7
176
     1
 90
        5
176
     1
 90
        0
176
     1
 90
        0
176
     1
290
     0
176
     1
 90
        1
176
     1
 40
0.0
176
     1
 90
        0
176
     1
290
     0
176
     1
290
     1
176
     1
290
     1
176
     1
290
     0
176
     1
290
     0
176
     1
290
     0
176
     1
290
     0
176
     1
290
     0
176
     1
290
     0
176
     1
 90
       50
176
     1
 40
0.0
176
     1
 40
1.0
176
     1
 90
        0
176
     1
 62
    18
420
        0
176
     1
 90
       50
176
     1
 90
        3
176
     1
 62
     5
420
      255
176
     1
290
     0
176
     1
 90
       50
176
     1
 90
       50
176
     1
 90
       50
176
     1
290
     0
176
     1
 90
       50
176
     1
 62
   256
176
     0
 40
1.0
176
     0
 90
        2
176
     1
  1
strokes_ogs.tif
176
     1
290
     0
176
     1
 40
1.0
176
     1
 40
1.0
176
     1
1001
ACAD
1000
AcRTDxfName
1000
VISUALSTYLE
1000
AcRTDxfName
1000
VISUALSTYLE
1000
AcRTDxfName
1000
VISUALSTYLE
1000
AcRTDxfName
1000
VISUALSTYLE
1000
AcRTDxfName
1000
VISUALSTYLE
1000
AcRTDxfName
1000
VISUALSTYLE
  0
VISUALSTYLE
  5
63024
102
{ACAD_REACTORS
330
9847
102
}
330
9847
100
AcDbVisualStyle
  2
OverhangOff
 70
    21
177
     3
291
     1
 70
    58
 90
        2
176
     0
 90
        2
176
     0
 90
        0
176
     0
 90
        0
176
     0
 40
0.6
176
     0
 40
30.0
176
     0
 62
     7
420
 16777215
176
     0
 90
        1
176
     0
 90
        4
176
     0
 62
     7
176
     0
 62
   257
176
     0
 90
        1
176
     0
 90
        1
176
     0
 40
1.0
176
     0
 90
        9
176
     2
 62
     7
176
     0
 40
1.0
176
     0
 90
        1
176
     0
 90
        6
176
     0
 90
        2
176
     0
 62
     7
176
     0
 90
        5
176
     0
 90
        0
176
     0
 90
        0
176
     0
290
     0
176
     0
 90
        1
176
     0
 40
0.0
176
     0
 90
        0
176
     0
290
     0
176
     1
290
     1
176
     1
290
     1
176
     1
290
     0
176
     1
290
     0
176
     1
290
     0
176
     1
290
     0
176
     1
290
     0
176
     1
290
     0
176
     1
 90
       50
176
     1
 40
0.0
176
     1
 40
1.0
176
     1
 90
        0
176
     1
 62
    18
420
        0
176
     1
 90
       50
176
     1
 90
        3
176
     1
 62
     5
420
      255
176
     1
290
     0
176
     1
 90
       50
176
     1
 90
       50
176
     1
 90
       50
176
     1
290
     0
176
     1
 90
       50
176
     1
 62
   256
176
     0
 40
1.0
176
     0
 90
        2
176
     1
  1
strokes_ogs.tif
176
     1
290
     0
176
     1
 40
1.0
176
     1
 40
1.0
176
     1
  0
VISUALSTYLE
  5
9851
102
{ACAD_REACTORS
330
9847
102
}
330
9847
100
AcDbVisualStyle
  2
Realistic
 70
     8
177
     3
291
     0
 70
    58
 90
        2
176
     1
 90
        2
176
     1
 90
        0
176
     1
 90
        0
176
     1
 40
0.6
176
     1
 40
30.0
176
     1
 62
     7
176
     1
 90
        1
176
     1
 90
        0
176
     1
 62
     7
176
     1
 62
   257
176
     1
 90
        1
176
     1
 90
        1
176
     1
 40
1.0
176
     1
 90
        8
176
     1
 62
     8
176
     1
 40
1.0
176
     1
 90
        1
176
     1
 90
        6
176
     1
 90
        2
176
     1
 62
     7
176
     1
 90
        5
176
     1
 90
        0
176
     1
 90
        0
176
     1
290
     0
176
     1
 90
       13
176
     1
 40
0.0
176
     1
 90
        0
176
     1
290
     0
176
     1
290
     1
176
     1
290
     1
176
     1
290
     0
176
     1
290
     0
176
     1
290
     0
176
     1
290
     0
176
     1
290
     0
176
     1
290
     0
176
     1
 90
       50
176
     1
 40
0.0
176
     1
 40
1.0
176
     1
 90
        0
176
     1
 62
    18
420
        0
176
     1
 90
       50
176
     1
 90
        3
176
     1
 62
     5
420
      255
176
     1
290
     0
176
     1
 90
       50
176
     1
 90
       50
176
     1
 90
       50
176
     1
290
     0
176
     1
 90
       50
176
     1
 62
   256
176
     0
 40
1.0
176
     0
 90
        2
176
     1
  1
strokes_ogs.tif
176
     1
290
     0
176
     1
 40
1.0
176
     1
 40
1.0
176
     1
1001
ACAD
1000
AcRTDxfName
1000
VISUALSTYLE
1000
AcRTDxfName
1000
VISUALSTYLE
1000
AcRTDxfName
1000
VISUALSTYLE
1000
AcRTDxfName
1000
VISUALSTYLE
1000
AcRTDxfName
1000
VISUALSTYLE
1000
AcRTDxfName
1000
VISUALSTYLE
  0
VISUALSTYLE
  5
63022
102
{ACAD_REACTORS
330
9847
102
}
330
9847
100
AcDbVisualStyle
  2
Shaded
 70
    27
177
     3
291
     0
 70
    58
 90
        2
176
     1
 90
        2
176
     1
 90
        1
176
     1
 90
        2
176
     1
 40
0.6
176
     1
 40
30.0
176
     1
 62
     7
420
 16777215
176
     1
 90
        0
176
     1
 90
        4
176
     1
 62
     7
176
     1
 62
   257
176
     1
 90
        1
176
     1
 90
        1
176
     1
 40
1.0
176
     1
 90
        8
176
     1
 62
   257
176
     1
 40
1.0
176
     1
 90
        1
176
     1
 90
        6
176
     1
 90
        2
176
     1
 62
     8
420
  7895160
176
     1
 90
        3
176
     1
 90
        0
176
     1
 90
        0
176
     1
290
     0
176
     1
 90
        5
176
     1
 40
0.0
176
     1
 90
        0
176
     1
290
     0
176
     1
290
     1
176
     1
290
     1
176
     1
290
     0
176
     1
290
     0
176
     1
290
     0
176
     1
290
     0
176
     1
290
     0
176
     1
290
     0
176
     1
 90
       50
176
     1
 40
0.0
176
     1
 40
1.0
176
     1
 90
        0
176
     1
 62
    18
420
        0
176
     1
 90
       50
176
     1
 90
        3
176
     1
 62
     5
420
      255
176
     1
290
     0
176
     1
 90
       50
176
     1
 90
       50
176
     1
 90
       50
176
     1
290
     0
176
     1
 90
       50
176
     1
 62
   256
176
     0
 40
1.0
176
     0
 90
        2
176
     1
  1
strokes_ogs.tif
176
     1
290
     0
176
     1
 40
1.0
176
     1
 40
1.0
176
     1
  0
VISUALSTYLE
  5
63021
102
{ACAD_REACTORS
330
9847
102
}
330
9847
100
AcDbVisualStyle
  2
Shaded with edges
 70
    26
177
     3
291
     0
 70
    58
 90
        2
176
     1
 90
        2
176
     1
 90
        1
176
     1
 90
        2
176
     1
 40
0.6
176
     1
 40
30.0
176
     1
 62
     7
420
 16777215
176
     1
 90
        1
176
     1
 90
        2
176
     1
 62
     7
176
     1
 62
   257
176
     1
 90
        2
176
     1
 90
        1
176
     1
 40
1.0
176
     1
 90
        8
176
     1
 62
   257
176
     1
 40
1.0
176
     1
 90
        1
176
     1
 90
        6
176
     1
 90
        2
176
     1
 62
     7
176
     1
 90
        3
176
     1
 90
        0
176
     1
 90
        0
176
     1
290
     0
176
     1
 90
        5
176
     1
 40
0.0
176
     1
 90
        0
176
     1
290
     0
176
     1
290
     1
176
     1
290
     1
176
     1
290
     0
176
     1
290
     0
176
     1
290
     0
176
     1
290
     0
176
     1
290
     0
176
     1
290
     0
176
     1
 90
       50
176
     1
 40
0.0
176
     1
 40
1.0
176
     1
 90
        0
176
     1
 62
    18
420
        0
176
     1
 90
       50
176
     1
 90
        3
176
     1
 62
     5
420
      255
176
     1
290
     0
176
     1
 90
       50
176
     1
 90
       50
176
     1
 90
       50
176
     1
290
     0
176
     1
 90
       50
176
     1
 62
   256
176
     0
 40
1.0
176
     0
 90
        2
176
     1
  1
strokes_ogs.tif
176
     1
290
     0
176
     1
 40
1.0
176
     1
 40
1.0
176
     1
  0
VISUALSTYLE
  5
6301E
102
{ACAD_REACTORS
330
9847
102
}
330
9847
100
AcDbVisualStyle
  2
Shades of Gray
 70
    23
177
     3
291
     0
 70
    58
 90
        2
176
     1
 90
        2
176
     1
 90
        3
176
     1
 90
        0
176
     1
 40
0.6
176
     1
 40
30.0
176
     1
 62
     7
420
 16777215
176
     1
 90
        2
176
     1
 90
        2
176
     1
 62
     7
176
     1
 62
     7
176
     1
 90
        1
176
     1
 90
        1
176
     1
 40
40.0
176
     1
 90
        8
176
     1
 62
     7
176
     1
 40
1.0
176
     1
 90
        1
176
     1
 90
        6
176
     1
 90
        2
176
     1
 62
     7
176
     1
 90
        3
176
     1
 90
        0
176
     1
 90
        0
176
     1
290
     0
176
     1
 90
        1
176
     1
 40
0.0
176
     1
 90
        0
176
     1
290
     0
176
     1
290
     1
176
     1
290
     1
176
     1
290
     0
176
     1
290
     0
176
     1
290
     0
176
     1
290
     0
176
     1
290
     0
176
     1
290
     0
176
     1
 90
       50
176
     1
 40
0.0
176
     1
 40
1.0
176
     1
 90
        0
176
     1
 62
    18
420
        0
176
     1
 90
       50
176
     1
 90
        3
176
     1
 62
     5
420
      255
176
     1
290
     0
176
     1
 90
       50
176
     1
 90
       50
176
     1
 90
       50
176
     1
290
     0
176
     1
 90
       50
176
     1
 62
   256
176
     0
 40
1.0
176
     0
 90
        2
176
     1
  1
strokes_ogs.tif
176
     1
290
     0
176
     1
 40
1.0
176
     1
 40
1.0
176
     1
  0
VISUALSTYLE
  5
6301F
102
{ACAD_REACTORS
330
9847
102
}
330
9847
100
AcDbVisualStyle
  2
Sketchy
 70
    24
177
     3
291
     0
 70
    58
 90
        1
176
     1
 90
        2
176
     1
 90
        2
176
     1
 90
        0
176
     1
 40
0.6
176
     1
 40
30.0
176
     1
 62
     7
420
 16777215
176
     1
 90
        2
176
     1
 90
        2
176
     1
 62
     7
176
     1
 62
     7
176
     1
 90
        1
176
     1
 90
        1
176
     1
 40
40.0
176
     1
 90
       11
176
     1
 62
     7
176
     1
 40
1.0
176
     1
 90
        1
176
     1
 90
        6
176
     1
 90
        2
176
     1
 62
     7
176
     1
 90
        6
176
     1
 90
        0
176
     1
 90
        0
176
     1
290
     0
176
     1
 90
        1
176
     1
 40
0.0
176
     1
 90
        0
176
     1
290
     0
176
     1
290
     1
176
     1
290
     1
176
     1
290
     0
176
     1
290
     0
176
     1
290
     0
176
     1
290
     0
176
     1
290
     0
176
     1
290
     0
176
     1
 90
       50
176
     1
 40
0.0
176
     1
 40
1.0
176
     1
 90
        0
176
     1
 62
    18
420
        0
176
     1
 90
       50
176
     1
 90
        3
176
     1
 62
     5
420
      255
176
     1
290
     0
176
     1
 90
       50
176
     1
 90
       50
176
     1
 90
       50
176
     1
290
     0
176
     1
 90
       50
176
     1
 62
   256
176
     0
 40
1.0
176
     0
 90
        2
176
     1
  1
strokes_ogs.tif
176
     1
290
     0
176
     1
 40
1.0
176
     1
 40
1.0
176
     1
  0
VISUALSTYLE
  5
9854
102
{ACAD_REACTORS
330
9847
102
}
330
9847
100
AcDbVisualStyle
  2
Thicken
 70
    13
177
     3
291
     1
 70
    58
 90
        2
176
     1
 90
        2
176
     1
 90
        0
176
     1
 90
        0
176
     1
 40
0.6
176
     1
 40
30.0
176
     1
 62
     7
176
     1
 90
        1
176
     1
 90
        4
176
     1
 62
     7
176
     1
 62
   257
176
     1
 90
        1
176
     1
 90
        1
176
     1
 40
1.0
176
     1
 90
       12
176
     1
 62
     7
176
     1
 40
1.0
176
     1
 90
        1
176
     1
 90
        6
176
     1
 90
        2
176
     1
 62
     7
176
     1
 90
        5
176
     1
 90
        0
176
     1
 90
        0
176
     1
290
     0
176
     1
 90
        1
176
     1
 40
0.0
176
     1
 90
        0
176
     1
290
     0
176
     1
290
     1
176
     1
290
     1
176
     1
290
     0
176
     1
290
     0
176
     1
290
     0
176
     1
290
     0
176
     1
290
     0
176
     1
290
     0
176
     1
 90
       50
176
     1
 40
0.0
176
     1
 40
1.0
176
     1
 90
        0
176
     1
 62
    18
420
        0
176
     1
 90
       50
176
     1
 90
        3
176
     1
 62
     5
420
      255
176
     1
290
     0
176
     1
 90
       50
176
     1
 90
       50
176
     1
 90
       50
176
     1
290
     0
176
     1
 90
       50
176
     1
 62
   256
176
     0
 40
1.0
176
     0
 90
        2
176
     1
  1
strokes_ogs.tif
176
     1
290
     0
176
     1
 40
1.0
176
     1
 40
1.0
176
     1
1001
ACAD
1000
AcRTDxfName
1000
VISUALSTYLE
1000
AcRTDxfName
1000
VISUALSTYLE
1000
AcRTDxfName
1000
VISUALSTYLE
1000
AcRTDxfName
1000
VISUALSTYLE
1000
AcRTDxfName
1000
VISUALSTYLE
1000
AcRTDxfName
1000
VISUALSTYLE
  0
VISUALSTYLE
  5
6301C
102
{ACAD_REACTORS
330
9847
102
}
330
9847
100
AcDbVisualStyle
  2
Wireframe
 70
     5
177
     3
291
     0
 70
    58
 90
        0
176
     1
 90
        2
176
     1
 90
        0
176
     1
 90
        0
176
     1
 40
0.6
176
     1
 40
30.0
176
     1
 62
     7
420
 16777215
176
     1
 90
        1
176
     1
 90
        4
176
     1
 62
     7
176
     1
 62
   257
176
     1
 90
        1
176
     1
 90
        1
176
     1
 40
1.0
176
     1
 90
        0
176
     1
 62
   257
176
     1
 40
1.0
176
     1
 90
        1
176
     1
 90
        6
176
     1
 90
        2
176
     1
 62
     7
176
     1
 90
        3
176
     1
 90
        0
176
     1
 90
        0
176
     1
290
     0
176
     1
 90
        1
176
     1
 40
0.0
176
     1
 90
        0
176
     1
290
     0
176
     1
290
     1
176
     1
290
     1
176
     1
290
     0
176
     1
290
     0
176
     1
290
     0
176
     1
290
     0
176
     1
290
     0
176
     1
290
     0
176
     1
 90
       50
176
     1
 40
0.0
176
     1
 40
1.0
176
     1
 90
        0
176
     1
 62
    18
420
        0
176
     1
 90
       50
176
     1
 90
        3
176
     1
 62
     5
420
      255
176
     1
290
     0
176
     1
 90
       50
176
     1
 90
       50
176
     1
 90
       50
176
     1
290
     0
176
     1
 90
       50
176
     1
 62
   256
176
     0
 40
1.0
176
     0
 90
        2
176
     1
  1
strokes_ogs.tif
176
     1
290
     0
176
     1
 40
1.0
176
     1
 40
1.0
176
     1
  0
VISUALSTYLE
  5
63020
102
{ACAD_REACTORS
330
9847
102
}
330
9847
100
AcDbVisualStyle
  2
X-Ray
 70
    25
177
     3
291
     0
 70
    58
 90
        2
176
     1
 90
        2
176
     1
 90
        1
176
     1
 90
        1
176
     1
 40
0.5
176
     1
 40
30.0
176
     1
 62
     7
420
 16777215
176
     1
 90
        1
176
     1
 90
        0
176
     1
 62
     7
176
     1
 62
   257
176
     1
 90
        1
176
     1
 90
        1
176
     1
 40
1.0
176
     1
 90
        8
176
     1
 62
     7
176
     1
 40
1.0
176
     1
 90
        1
176
     1
 90
        6
176
     1
 90
        2
176
     1
 62
     7
176
     1
 90
        3
176
     1
 90
        0
176
     1
 90
        0
176
     1
290
     0
176
     1
 90
       13
176
     1
 40
0.0
176
     1
 90
        0
176
     1
290
     0
176
     1
290
     1
176
     1
290
     1
176
     1
290
     0
176
     1
290
     0
176
     1
290
     0
176
     1
290
     0
176
     1
290
     0
176
     1
290
     0
176
     1
 90
       50
176
     1
 40
0.0
176
     1
 40
1.0
176
     1
 90
        0
176
     1
 62
    18
420
        0
176
     1
 90
       50
176
     1
 90
        3
176
     1
 62
     5
420
      255
176
     1
290
     0
176
     1
 90
       50
176
     1
 90
       50
176
     1
 90
       50
176
     1
290
     0
176
     1
 90
       50
176
     1
 62
   256
176
     0
 40
1.0
176
     0
 90
        2
176
     1
  1
strokes_ogs.tif
176
     1
290
     0
176
     1
 40
1.0
176
     1
 40
1.0
176
     1
  0
DICTIONARYVAR
  5
B806
102
{ACAD_REACTORS
330
4557
102
}
330
4557
100
DictionaryVariables
280
     0
  1
1:1
  0
DICTIONARYVAR
  5
B804
102
{ACAD_REACTORS
330
4557
102
}
330
4557
100
DictionaryVariables
280
     0
  1
STANDARD
  0
DICTIONARYVAR
  5
B803
102
{ACAD_REACTORS
330
4557
102
}
330
4557
100
DictionaryVariables
280
     0
  1
STANDARD
  0
DICTIONARYVAR
  5
606354D
102
{ACAD_REACTORS
330
4557
102
}
330
4557
100
DictionaryVariables
280
     0
  1
Metric50
  0
DICTIONARYVAR
  5
606354E
102
{ACAD_REACTORS
330
4557
102
}
330
4557
100
DictionaryVariables
280
     0
  1
Metric50
  0
DICTIONARYVAR
  5
62576
102
{ACAD_REACTORS
330
4557
102
}
330
4557
100
DictionaryVariables
280
     0
  1
2
  0
DICTIONARYVAR
  5
4558
102
{ACAD_REACTORS
330
4557
102
}
330
4557
100
DictionaryVariables
280
     0
  1
1
  0
DICTIONARYVAR
  5
62575
102
{ACAD_REACTORS
330
4557
102
}
330
4557
100
DictionaryVariables
280
     0
  1
1
  0
DICTIONARYVAR
  5
62574
102
{ACAD_REACTORS
330
4557
102
}
330
4557
100
DictionaryVariables
280
     0
  1
0
  0
DICTIONARYVAR
  5
6302F
102
{ACAD_REACTORS
330
4557
102
}
330
4557
100
DictionaryVariables
280
     0
  1
1
  0
DICTIONARYVAR
  5
63030
102
{ACAD_REACTORS
330
4557
102
}
330
4557
100
DictionaryVariables
280
     0
  1
15
  0
DICTIONARYVAR
  5
B807
102
{ACAD_REACTORS
330
4557
102
}
330
4557
100
DictionaryVariables
280
     0
  1
0
  0
DICTIONARYVAR
  5
B805
102
{ACAD_REACTORS
330
4557
102
}
330
4557
100
DictionaryVariables
280
     0
  1
0
  0
DICTIONARYVAR
  5
627A9
102
{ACAD_REACTORS
330
4557
102
}
330
4557
100
DictionaryVariables
280
     0
  1

  0
DICTIONARYVAR
  5
62573
102
{ACAD_REACTORS
330
4557
102
}
330
4557
100
DictionaryVariables
280
     0
  1
127
  0
XRECORD
  5
62E92
102
{ACAD_REACTORS
330
62E91
102
}
330
62E91
100
AcDbXrecord
280
     1
330
0
330
0
330
0
330
0
330
62D3F
330
62D40
330
0
330
0
330
0
330
0
330
0
330
0
330
62D64
330
0
330
62D71
330
62D72
330
0
330
0
330
0
330
0
330
0
330
0
330
0
330
0
330
0
330
0
330
0
330
0
330
0
330
0
330
0
330
62E79
330
62E7A
330
62EA5
330
62EA6
330
62EEF
330
62EF0
  0
DICTIONARY
  5
6063552
330
606353B
100
AcDbDictionary
280
     1
281
     1
  3
ACAD_XREC_ROUNDTRIP
360
6063553
  0
DICTIONARY
  5
6318E
330
A
100
AcDbDictionary
280
     1
281
     1
  0
DICTIONARY
  5
9838
330
9837
100
AcDbDictionary
280
     1
281
     1
  3
BUMPTILE
360
983A
  3
DIFFUSETILE
360
9839
  3
OPACITYTILE
360
983D
  3
REFLECTIONTILE
360
983C
  3
REFRACTIONTILE
360
983E
  3
SPECULARTILE
360
983B
  0
DICTIONARY
  5
9830
330
982F
100
AcDbDictionary
280
     1
281
     1
  3
BUMPTILE
360
9832
  3
DIFFUSETILE
360
9831
  3
OPACITYTILE
360
9835
  3
REFLECTIONTILE
360
9834
  3
REFRACTIONTILE
360
9836
  3
SPECULARTILE
360
9833
  0
DICTIONARY
  5
9840
330
983F
100
AcDbDictionary
280
     1
281
     1
  3
BUMPTILE
360
9842
  3
DIFFUSETILE
360
9841
  3
OPACITYTILE
360
9845
  3
REFLECTIONTILE
360
9844
  3
REFRACTIONTILE
360
9846
  3
SPECULARTILE
360
9843
  0
DICTIONARY
  5
6063550
330
6063539
100
AcDbDictionary
280
     1
281
     1
  3
ACAD_XREC_ROUNDTRIP
360
6063551
  0
DICTIONARY
  5
B800
330
9858
100
AcDbDictionary
280
     1
281
     1
  3
ACAD_ROUNDTRIP_2008_TABLESTYLE_CELLSTYLEMAP
360
606354F
  0
XRECORD
  5
6063553
102
{ACAD_REACTORS
330
6063552
102
}
330
6063552
100
AcDbXrecord
280
     1
102
DISPLAYNAME
  1
Metric50
102
FLAGS
 90
        0
  0
XRECORD
  5
983A
102
{ACAD_REACTORS
330
9838
102
}
330
9838
100
AcDbXrecord
280
     1
270
     1
271
     1
  0
XRECORD
  5
9839
102
{ACAD_REACTORS
330
9838
102
}
330
9838
100
AcDbXrecord
280
     1
270
     1
271
     1
  0
XRECORD
  5
983D
102
{ACAD_REACTORS
330
9838
102
}
330
9838
100
AcDbXrecord
280
     1
270
     1
271
     1
  0
XRECORD
  5
983C
102
{ACAD_REACTORS
330
9838
102
}
330
9838
100
AcDbXrecord
280
     1
270
     1
271
     1
  0
XRECORD
  5
983E
102
{ACAD_REACTORS
330
9838
102
}
330
9838
100
AcDbXrecord
280
     1
270
     1
271
     1
  0
XRECORD
  5
983B
102
{ACAD_REACTORS
330
9838
102
}
330
9838
100
AcDbXrecord
280
     1
270
     1
271
     1
  0
XRECORD
  5
9832
102
{ACAD_REACTORS
330
9830
102
}
330
9830
100
AcDbXrecord
280
     1
270
     1
271
     1
  0
XRECORD
  5
9831
102
{ACAD_REACTORS
330
9830
102
}
330
9830
100
AcDbXrecord
280
     1
270
     1
271
     1
  0
XRECORD
  5
9835
102
{ACAD_REACTORS
330
9830
102
}
330
9830
100
AcDbXrecord
280
     1
270
     1
271
     1
  0
XRECORD
  5
9834
102
{ACAD_REACTORS
330
9830
102
}
330
9830
100
AcDbXrecord
280
     1
270
     1
271
     1
  0
XRECORD
  5
9836
102
{ACAD_REACTORS
330
9830
102
}
330
9830
100
AcDbXrecord
280
     1
270
     1
271
     1
  0
XRECORD
  5
9833
102
{ACAD_REACTORS
330
9830
102
}
330
9830
100
AcDbXrecord
280
     1
270
     1
271
     1
  0
XRECORD
  5
9842
102
{ACAD_REACTORS
330
9840
102
}
330
9840
100
AcDbXrecord
280
     1
270
     1
271
     1
  0
XRECORD
  5
9841
102
{ACAD_REACTORS
330
9840
102
}
330
9840
100
AcDbXrecord
280
     1
270
     1
271
     1
  0
XRECORD
  5
9845
102
{ACAD_REACTORS
330
9840
102
}
330
9840
100
AcDbXrecord
280
     1
270
     1
271
     1
  0
XRECORD
  5
9844
102
{ACAD_REACTORS
330
9840
102
}
330
9840
100
AcDbXrecord
280
     1
270
     1
271
     1
  0
XRECORD
  5
9846
102
{ACAD_REACTORS
330
9840
102
}
330
9840
100
AcDbXrecord
280
     1
270
     1
271
     1
  0
XRECORD
  5
9843
102
{ACAD_REACTORS
330
9840
102
}
330
9840
100
AcDbXrecord
280
     1
270
     1
271
     1
  0
XRECORD
  5
6063551
102
{ACAD_REACTORS
330
6063550
102
}
330
6063550
100
AcDbXrecord
280
     1
102
DISPLAYNAME
  1
Metric50
102
FLAGS
 90
        0
  0
CELLSTYLEMAP
  5
606354F
102
{ACAD_REACTORS
330
B800
102
}
330
B800
100
AcDbCellStyleMap
 90
        3
300
CELLSTYLE
  1
TABLEFORMAT_BEGIN
 90
        5
170
     1
 91
        0
 92
    32768
 62
   257
 93
        1
300
CONTENTFORMAT
  1
CONTENTFORMAT_BEGIN
 90
        0
 91
        0
 92
      512
 93
        0
300

 40
0.0
140
1.0
 94
        5
 62
     0
340
12
144
6.0
309
CONTENTFORMAT_END
171
     1
301
MARGIN
  1
CELLMARGIN_BEGIN
 40
1.5
 40
1.5
 40
1.5
 40
1.5
 40
0.18
 40
0.18
309
CELLMARGIN_END
 94
        6
 95
        1
302
GRIDFORMAT
  1
GRIDFORMAT_BEGIN
 90
        0
 91
        1
 62
     0
 92
       -2
340
0
 93
        0
 40
1.125
309
GRIDFORMAT_END
 95
        2
302
GRIDFORMAT
  1
GRIDFORMAT_BEGIN
 90
        0
 91
        1
 62
     0
 92
       -2
340
0
 93
        0
 40
1.125
309
GRIDFORMAT_END
 95
        4
302
GRIDFORMAT
  1
GRIDFORMAT_BEGIN
 90
        0
 91
        1
 62
     0
 92
       -2
340
0
 93
        0
 40
1.125
309
GRIDFORMAT_END
 95
        8
302
GRIDFORMAT
  1
GRIDFORMAT_BEGIN
 90
        0
 91
        1
 62
     0
 92
       -2
340
0
 93
        0
 40
1.125
309
GRIDFORMAT_END
 95
       16
302
GRIDFORMAT
  1
GRIDFORMAT_BEGIN
 90
        0
 91
        1
 62
     0
 92
       -2
340
0
 93
        0
 40
1.125
309
GRIDFORMAT_END
 95
       32
302
GRIDFORMAT
  1
GRIDFORMAT_BEGIN
 90
        0
 91
        1
 62
     0
 92
       -2
340
0
 93
        0
 40
1.125
309
GRIDFORMAT_END
309
TABLEFORMAT_END
  1
CELLSTYLE_BEGIN
 90
        1
 91
        1
300
_TITLE
309
CELLSTYLE_END
300
CELLSTYLE
  1
TABLEFORMAT_BEGIN
 90
        5
170
     1
 91
        0
 92
        0
 62
   257
 93
        1
300
CONTENTFORMAT
  1
CONTENTFORMAT_BEGIN
 90
        0
 91
        0
 92
      512
 93
        0
300

 40
0.0
140
1.0
 94
        5
 62
     0
340
12
144
4.5
309
CONTENTFORMAT_END
171
     1
301
MARGIN
  1
CELLMARGIN_BEGIN
 40
1.5
 40
1.5
 40
1.5
 40
1.5
 40
0.18
 40
0.18
309
CELLMARGIN_END
 94
        6
 95
        1
302
GRIDFORMAT
  1
GRIDFORMAT_BEGIN
 90
        0
 91
        1
 62
     0
 92
       -2
340
0
 93
        0
 40
1.125
309
GRIDFORMAT_END
 95
        2
302
GRIDFORMAT
  1
GRIDFORMAT_BEGIN
 90
        0
 91
        1
 62
     0
 92
       -2
340
0
 93
        0
 40
1.125
309
GRIDFORMAT_END
 95
        4
302
GRIDFORMAT
  1
GRIDFORMAT_BEGIN
 90
        0
 91
        1
 62
     0
 92
       -2
340
0
 93
        0
 40
1.125
309
GRIDFORMAT_END
 95
        8
302
GRIDFORMAT
  1
GRIDFORMAT_BEGIN
 90
        0
 91
        1
 62
     0
 92
       -2
340
0
 93
        0
 40
1.125
309
GRIDFORMAT_END
 95
       16
302
GRIDFORMAT
  1
GRIDFORMAT_BEGIN
 90
        0
 91
        1
 62
     0
 92
       -2
340
0
 93
        0
 40
1.125
309
GRIDFORMAT_END
 95
       32
302
GRIDFORMAT
  1
GRIDFORMAT_BEGIN
 90
        0
 91
        1
 62
     0
 92
       -2
340
0
 93
        0
 40
1.125
309
GRIDFORMAT_END
309
TABLEFORMAT_END
  1
CELLSTYLE_BEGIN
 90
        2
 91
        1
300
_HEADER
309
CELLSTYLE_END
300
CELLSTYLE
  1
TABLEFORMAT_BEGIN
 90
        5
170
     1
 91
        0
 92
        0
 62
   257
 93
        1
300
CONTENTFORMAT
  1
CONTENTFORMAT_BEGIN
 90
        0
 91
        0
 92
      512
 93
        0
300

 40
0.0
140
1.0
 94
        2
 62
     0
340
12
144
4.5
309
CONTENTFORMAT_END
171
     1
301
MARGIN
  1
CELLMARGIN_BEGIN
 40
1.5
 40
1.5
 40
1.5
 40
1.5
 40
0.18
 40
0.18
309
CELLMARGIN_END
 94
        6
 95
        1
302
GRIDFORMAT
  1
GRIDFORMAT_BEGIN
 90
        0
 91
        1
 62
     0
 92
       -2
340
0
 93
        0
 40
1.125
309
GRIDFORMAT_END
 95
        2
302
GRIDFORMAT
  1
GRIDFORMAT_BEGIN
 90
        0
 91
        1
 62
     0
 92
       -2
340
0
 93
        0
 40
1.125
309
GRIDFORMAT_END
 95
        4
302
GRIDFORMAT
  1
GRIDFORMAT_BEGIN
 90
        0
 91
        1
 62
     0
 92
       -2
340
0
 93
        0
 40
1.125
309
GRIDFORMAT_END
 95
        8
302
GRIDFORMAT
  1
GRIDFORMAT_BEGIN
 90
        0
 91
        1
 62
     0
 92
       -2
340
0
 93
        0
 40
1.125
309
GRIDFORMAT_END
 95
       16
302
GRIDFORMAT
  1
GRIDFORMAT_BEGIN
 90
        0
 91
        1
 62
     0
 92
       -2
340
0
 93
        0
 40
1.125
309
GRIDFORMAT_END
 95
       32
302
GRIDFORMAT
  1
GRIDFORMAT_BEGIN
 90
        0
 91
        1
 62
     0
 92
       -2
340
0
 93
        0
 40
1.125
309
GRIDFORMAT_END
309
TABLEFORMAT_END
  1
CELLSTYLE_BEGIN
 90
        3
 91
        2
300
_DATA
309
CELLSTYLE_END
  0
ENDSEC
  0
SECTION
  2
ACDSDATA
 70
     2
 71
     8
  0
ACDSSCHEMA
 90
        0
  1
AcDb_Thumbnail_Schema
  2
AcDbDs::ID
280
    10
 91
        8
  2
Thumbnail_Data
280
    15
 91
        0
101
ACDSRECORD
 95
        0
 90
        1
  2
AcDbDs::TreatedAsObjectData
280
     1
291
     1
101
ACDSRECORD
 95
        0
 90
        2
  2
AcDbDs::Legacy
280
     1
291
     1
101
ACDSRECORD
  1
AcDbDs::ID
 90
        3
  2
AcDs:Indexable
280
     1
291
     1
101
ACDSRECORD
  1
AcDbDs::ID
 90
        4
  2
AcDbDs::HandleAttribute
280
     7
282
     1
  0
ACDSSCHEMA
 90
        1
  1
AcDbDs::TreatedAsObjectDataSchema
  2
AcDbDs::TreatedAsObjectData
280
     1
 91
        0
  0
ACDSSCHEMA
 90
        2
  1
AcDbDs::LegacySchema
  2
AcDbDs::Legacy
280
     1
 91
        0
  0
ACDSSCHEMA
 90
        3
  1
AcDbDs::IndexedPropertySchema
  2
AcDs:Indexable
280
     1
 91
        0
  0
ACDSSCHEMA
 90
        4
  1
AcDbDs::HandleAttributeSchema
  2
AcDbDs::HandleAttribute
280
     7
 91
        1
284
     1
  0
ACDSRECORD
 90
        0
  2
AcDbDs::ID
280
    10
320
A
  2
Thumbnail_Data
280
    15
 94
     2550
310
89504E470D0A1A0A0000000D4948445200000100000000C10803000000176F9EF100000300504C5445212830000000FFFFFF0000000000000000000000000000000000000000000000000000330000660000990000CC0000FF0033000033330033660033990033CC0033FF0066000066330066660066990066CC0066FF0099
310
000099330099660099990099CC0099FF00CC0000CC3300CC6600CC9900CCCC00CCFF00FF0000FF3300FF6600FF9900FFCC00FFFF3300003300333300663300993300CC3300FF3333003333333333663333993333CC3333FF3366003366333366663366993366CC3366FF3399003399333399663399993399CC3399FF33CC00
310
33CC3333CC6633CC9933CCCC33CCFF33FF0033FF3333FF6633FF9933FFCC33FFFF6600006600336600666600996600CC6600FF6633006633336633666633996633CC6633FF6666006666336666666666996666CC6666FF6699006699336699666699996699CC6699FF66CC0066CC3366CC6666CC9966CCCC66CCFF66FF0066
310
FF3366FF6666FF9966FFCC66FFFF9900009900339900669900999900CC9900FF9933009933339933669933999933CC9933FF9966009966339966669966999966CC9966FF9999009999339999669999999999CC9999FF99CC0099CC3399CC6699CC9999CCCC99CCFF99FF0099FF3399FF6699FF9999FFCC99FFFFCC0000CC00
310
33CC0066CC0099CC00CCCC00FFCC3300CC3333CC3366CC3399CC33CCCC33FFCC6600CC6633CC6666CC6699CC66CCCC66FFCC9900CC9933CC9966CC9999CC99CCCC99FFCCCC00CCCC33CCCC66CCCC99CCCCCCCCCCFFCCFF00CCFF33CCFF66CCFF99CCFFCCCCFFFFFF0000FF0033FF0066FF0099FF00CCFF00FFFF3300FF3333
310
FF3366FF3399FF33CCFF33FFFF6600FF6633FF6666FF6699FF66CCFF66FFFF9900FF9933FF9966FF9999FF99CCFF99FFFFCC00FFCC33FFCC66FFCC99FFCCCCFFCCFFFFFF00FFFF33FFFF66FFFF99FFFFCCFFFFFF0000000D0D0D1A1A1A2828283535354343435050505D5D5D6B6B6B787878868686939393A1A1A1AEAEAEBB
310
BBBBC9C9C9D6D6D6E4E4E4F1F1F1FFFFFF0000000000000000000000000000000000000000000000000000000000007BFF0FCC000006B14944415478DAED9D6D9AA3200C80739CDCFF009E846BE4FF8C228A0A0A242894F0EC4EA7BB6D85D7902F0205D00660066D3B80AA78895ABDEF0AE02D00343600E80540355D438DEA
310
BF0B8091EC9E0250000A4001280005A00014800250000A40017C0D00110707005D02980E0F034A801080A94B0998269ADBF650DC706BBD49C032F2ED8123FD76F8FD01808956121CED07B47CCC071230DFB8CF0100D2F000A69E012CCD18623444EA15C0BFEC2E7ADC18960D20DCD4417B4AF0D63AB97BC89100C4B6CDE07D
310
BFA43CC12FFCC02400AFDD9B6601C0FDEC9C2409608B006807709503925CF3FE60162400A0D5CD0DCF049224D0A2129CE39C69FE7104B06BEDD98C41BF0452256072B6EAAC10164708FA25906405ACBB73E81A5E5CE14ED5402280CBE4AF082023841490990700DBBCA709DE01908B8AEBA23C4980FBF87F00D41A008BA02E
310
006C1A808580AC082A41072C46AE51006E1E8C0B60C9A6D1D80078AE68FF0088E78C770F80606C00EC50AC7B00C0BCFA0F4800EF536C3E53254001280005A000D201F801E89812303A80162460ED820250000A605033A8004607000E007329490AC0071BC31D00DECA802000D185F21C0027D76C3C09000E82DF01505863D4
310
7F3488C022F053004A0824548A7604A0C02018FA2509282897F85A0218163CEC09E61230F03900FC18C0A753C0EE92414100B93BAFBEB6028C3AE418804C1DC0064073292DB2118801809701C00C8057DA67C73F350B6071726F01E0C6A93CB4A5EC9914348375002CB5B27100E88A69597B86F22B6E6D096B7509588BA5E7
310
3F01E575A8996635442A5003EF4C8168A86FAB6849A4617EAD17DA6BBFA20382DB020F9B5D79F1F00C80F23567A846AE8E15088D6F355F2200B2FA7D48CBD3F9CAB5AC0045C6EFAAB55E0210DAB312D3CF7200823A60DB3CB2298AFA00420ED35943895B81C9DAB8689711662B31EB23D6E6996409B80238E0C74A56E0D923
310
437A470760100000950840BA1578EAD0E2CC70E27BCCD081E71B64EB256D47E50124F4672DDB676DDFC08C81A3FFCCB9295619E65E5D08C0693B5D2D0018CCFD6D377F9E875F0328CFF1609EEC07415F9D8277009C6E7B1D00E78DC56159DB95613180438E305907F0DB2380F32BC2A2962B04667EB5F19F667B34429B3D31
310
FF2AE1EB5256CDC0B558BA400244086009E5F09B7284C000B1750088B4470019EFCA100209255817C07A33A788A641A610C801A06A000E27ADE40801F50D604DB5B933DA1C80545D98380FA400F04B643032E93709B859448948CFE621DEF44B1080A804EC77DA8D01EF8A81A24240F870675A050027D7929E828CA810C0FD
310
DEBA56AD80375AFF0017CC4B16F913A86700CB596BCF0E1766F80F3DF801FB8A0BAE8B26F8E82EE7FBE86F00404C4914E1ADB79EDB9764F7FC050089EBDF3700F20293BCE84C301FC06D79DA0D845EDEFAD9E258FB602105D03A001C1C40F5A6008607C03D56B776B381F0F000705C004911CDAFEB809AA65095A00250000A
310
4001280005A00014C0F7004EDF4E7EFFDB2F7EF7F872D53D037CFF1B2FC06A5402460740DF34950005A05340254001E814684202B6AFEE743B60C86D03D86FDDED50522BD55402CEAD151D409DEA00B767098838F57286BA05B00E7FF9602AEE67BF4AF000004694003B7602B7798F0A75C0E88ED0F009113B935C65EFC5BC
310
2795BF534AD9BAFB78492528A08B2200601C00AF4D01129E025200240CE72759E1E101485A019E68D3FA935649B78EBEFD5EEC5ED2E2E41D0590D913130E0FBD20D1B42D016C001007007D01A04200058C5B03903DA65200D42A806344CDD301DBFC3F851BAB7BD5288083C7570340DB3AE0B9C72B9D80C93781F0210100F5
310
A4030EDAFD4602209C286D1C40CC4D110410F49EA82B09C8D301CFB97209007B3A703DD56A7D22E0D9339420240290CA0ABB31BBFC1865A747A3294B393FE015006E51275B02CC6E0188190B40600E5C1483785ADC5B1FF07E2F910038FA690200E29173537EC0762A1E17C0D50AC494438BC190AFEDFB0090B70AF36530F4
310
794AAC7246E8AB75813A1260D8D3C957D1810E98F6A6803F4DEB00A0B30FD89C15882589D72333697F425E5478416B62B7E7F29AB600401C001CDD8A6D2861B132C952D26E4A2C0080C877BAFCF364CB00343705EE00EC27C79EBCBBE031496953A02300B4C599E4AB00AF3427FE66DADFDD3300F7F73C03C26157A74AB08A
310
1FD091127CBD2D6B86CD4A40CCCB3AFE1B5CE21D4F61D06D5ECA469FFD01B8C478A727702E2B797060FB00E087B717BDE65BC53D3DF508C0EC1E77CB002A5EEF068050F9CD7BDA8CF1BE1080871428E37FE936A62C7D2BAB4FAD00A05E002494E095BD97CA85E7272400A89C9D2480411B6803F803C2A5BCDD8AA1108E0000
310
000049454E44AE426082
  0
ENDSEC
  0
EOF
