  0
SECTION
  2
HEADER
  9
$ACADVER
  1
AC1032
  9
$ACADMAINTVER
 90
      174
  9
$DWGCODEPAGE
  3
ANSI_1252
  9
$LASTSAVEDBY
  1
pengb
  9
$REQUIREDVERSIONS
160
                 0
  9
$INSBASE
 10
0.0
 20
0.0
 30
0.0
  9
$EXTMIN
 10
8.222352061679544
 20
8.760086761275374
 30
-0.0015258207003583
  9
$EXTMAX
 10
529.4412242498262
 20
469.5143288952697
 30
0.0000000349246037
  9
$LIMMIN
 10
0.0
 20
0.0
  9
$LIMMAX
 10
420.0
 20
297.0
  9
$ORTHOMODE
 70
     0
  9
$REGENMODE
 70
     1
  9
$FILLMODE
 70
     1
  9
$QTEXTMODE
 70
     0
  9
$MIRRTEXT
 70
     1
  9
$LTSCALE
 40
1.0
  9
$ATTMODE
 70
     1
  9
$TEXTSIZE
 40
3.5
  9
$TRACEWID
 40
1.0
  9
$TEXTSTYLE
  7
Standard
  9
$CLAYER
  8
0
  9
$CELTYPE
  6
ByLayer
  9
$CECOLOR
 62
   256
  9
$CELTSCALE
 40
1.0
  9
$DISPSILH
 70
     0
  9
$DIMSCALE
 40
1.0
  9
$DIMASZ
 40
3.302
  9
$DIMEXO
 40
1.0
  9
$DIMDLI
 40
3.75
  9
$DIMRND
 40
0.0
  9
$DIMDLE
 40
0.0
  9
$DIMEXE
 40
1.0
  9
$DIMTP
 40
0.0
  9
$DIMTM
 40
0.0
  9
$DIMTXT
 40
3.5
  9
$DIMCEN
 40
2.5
  9
$DIMTSZ
 40
0.0
  9
$DIMTOL
 70
     0
  9
$DIMLIM
 70
     0
  9
$DIMTIH
 70
     1
  9
$DIMTOH
 70
     1
  9
$DIMSE1
 70
     0
  9
$DIMSE2
 70
     0
  9
$DIMTAD
 70
     1
  9
$DIMZIN
 70
     1
  9
$DIMBLK
  1

  9
$DIMASO
 70
     1
  9
$DIMSHO
 70
     1
  9
$DIMPOST
  1

  9
$DIMAPOST
  1

  9
$DIMALT
 70
     0
  9
$DIMALTD
 70
     3
  9
$DIMALTF
 40
0.0393700787
  9
$DIMLFAC
 40
5.0
  9
$DIMTOFL
 70
     1
  9
$DIMTVP
 40
0.0
  9
$DIMTIX
 70
     0
  9
$DIMSOXD
 70
     0
  9
$DIMSAH
 70
     0
  9
$DIMBLK1
  1

  9
$DIMBLK2
  1

  9
$DIMSTYLE
  2
ISO-25
  9
$DIMCLRD
 70
     0
  9
$DIMCLRE
 70
     0
  9
$DIMCLRT
 70
     0
  9
$DIMTFAC
 40
1.0
  9
$DIMGAP
 40
1.524
  9
$DIMJUST
 70
     0
  9
$DIMSD1
 70
     0
  9
$DIMSD2
 70
     0
  9
$DIMTOLJ
 70
     0
  9
$DIMTZIN
 70
     1
  9
$DIMALTZ
 70
     0
  9
$DIMALTTZ
 70
     0
  9
$DIMUPT
 70
     0
  9
$DIMDEC
 70
     2
  9
$DIMTDEC
 70
     2
  9
$DIMALTU
 70
     2
  9
$DIMALTTD
 70
     3
  9
$DIMTXSTY
  7
Standard
  9
$DIMAUNIT
 70
     0
  9
$DIMADEC
 70
     2
  9
$DIMALTRND
 40
0.0
  9
$DIMAZIN
 70
     0
  9
$DIMDSEP
 70
    44
  9
$DIMATFIT
 70
     3
  9
$DIMFRAC
 70
     0
  9
$DIMLDRBLK
  1

  9
$DIMLUNIT
 70
     2
  9
$DIMLWD
 70
    -2
  9
$DIMLWE
 70
    -2
  9
$DIMTMOVE
 70
     0
  9
$DIMFXL
 40
1.0
  9
$DIMFXLON
 70
     0
  9
$DIMJOGANG
 40
0.7853981633974483
  9
$DIMTFILL
 70
     0
  9
$DIMTFILLCLR
 70
     0
  9
$DIMARCSYM
 70
     0
  9
$DIMLTYPE
  6

  9
$DIMLTEX1
  6

  9
$DIMLTEX2
  6

  9
$DIMTXTDIRECTION
 70
     0
  9
$LUNITS
 70
     2
  9
$LUPREC
 70
     2
  9
$SKETCHINC
 40
1.0
  9
$FILLETRAD
 40
10.0
  9
$AUNITS
 70
     0
  9
$AUPREC
 70
     2
  9
$MENU
  1
.
  9
$ELEVATION
 40
0.0
  9
$PELEVATION
 40
0.0
  9
$THICKNESS
 40
0.0
  9
$LIMCHECK
 70
     0
  9
$CHAMFERA
 40
0.0
  9
$CHAMFERB
 40
0.0
  9
$CHAMFERC
 40
0.0
  9
$CHAMFERD
 40
0.0
  9
$SKPOLY
 70
     0
  9
$TDCREATE
 40
2459979.496446760
  9
$TDUCREATE
 40
2459979.038115555
  9
$TDUPDATE
 40
2460007.465949074
  9
$TDUUPDATE
 40
2460007.007615741
  9
$TDINDWG
 40
0.0032407523
  9
$TDUSRTIMER
 40
0.0032407523
  9
$USRTIMER
 70
     1
  9
$ANGBASE
 50
0.0
  9
$ANGDIR
 70
     0
  9
$PDMODE
 70
     0
  9
$PDSIZE
 40
-1.0
  9
$PLINEWID
 40
0.0
  9
$SPLFRAME
 70
     0
  9
$SPLINETYPE
 70
     6
  9
$SPLINESEGS
 70
     8
  9
$HANDSEED
  5
45D
  9
$SURFTAB1
 70
     6
  9
$SURFTAB2
 70
     6
  9
$SURFTYPE
 70
     6
  9
$SURFU
 70
     6
  9
$SURFV
 70
     6
  9
$UCSBASE
  2

  9
$UCSNAME
  2

  9
$UCSORG
 10
0.0
 20
0.0
 30
0.0
  9
$UCSXDIR
 10
1.0
 20
0.0
 30
0.0
  9
$UCSYDIR
 10
0.0
 20
1.0
 30
0.0
  9
$UCSORTHOREF
  2

  9
$UCSORTHOVIEW
 70
     0
  9
$UCSORGTOP
 10
0.0
 20
0.0
 30
0.0
  9
$UCSORGBOTTOM
 10
0.0
 20
0.0
 30
0.0
  9
$UCSORGLEFT
 10
0.0
 20
0.0
 30
0.0
  9
$UCSORGRIGHT
 10
0.0
 20
0.0
 30
0.0
  9
$UCSORGFRONT
 10
0.0
 20
0.0
 30
0.0
  9
$UCSORGBACK
 10
0.0
 20
0.0
 30
0.0
  9
$PUCSBASE
  2

  9
$PUCSNAME
  2

  9
$PUCSORG
 10
0.0
 20
0.0
 30
0.0
  9
$PUCSXDIR
 10
1.0
 20
0.0
 30
0.0
  9
$PUCSYDIR
 10
0.0
 20
1.0
 30
0.0
  9
$PUCSORTHOREF
  2

  9
$PUCSORTHOVIEW
 70
     0
  9
$PUCSORGTOP
 10
0.0
 20
0.0
 30
0.0
  9
$PUCSORGBOTTOM
 10
0.0
 20
0.0
 30
0.0
  9
$PUCSORGLEFT
 10
0.0
 20
0.0
 30
0.0
  9
$PUCSORGRIGHT
 10
0.0
 20
0.0
 30
0.0
  9
$PUCSORGFRONT
 10
0.0
 20
0.0
 30
0.0
  9
$PUCSORGBACK
 10
0.0
 20
0.0
 30
0.0
  9
$USERI1
 70
     0
  9
$USERI2
 70
     0
  9
$USERI3
 70
     0
  9
$USERI4
 70
     0
  9
$USERI5
 70
     0
  9
$USERR1
 40
0.0
  9
$USERR2
 40
0.0
  9
$USERR3
 40
0.0
  9
$USERR4
 40
0.0
  9
$USERR5
 40
0.0
  9
$WORLDVIEW
 70
     1
  9
$SHADEDGE
 70
     3
  9
$SHADEDIF
 70
    70
  9
$TILEMODE
 70
     1
  9
$MAXACTVP
 70
    64
  9
$PINSBASE
 10
0.0
 20
0.0
 30
0.0
  9
$PLIMCHECK
 70
     0
  9
$PEXTMIN
 10
1.000000000000000E+20
 20
1.000000000000000E+20
 30
1.000000000000000E+20
  9
$PEXTMAX
 10
-1.000000000000000E+20
 20
-1.000000000000000E+20
 30
-1.000000000000000E+20
  9
$PLIMMIN
 10
0.0
 20
0.0
  9
$PLIMMAX
 10
420.0
 20
297.0
  9
$UNITMODE
 70
     0
  9
$VISRETAIN
 70
     1
  9
$PLINEGEN
 70
     0
  9
$PSLTSCALE
 70
     1
  9
$TREEDEPTH
 70
  3020
  9
$CMLSTYLE
  2
Standard
  9
$CMLJUST
 70
     0
  9
$CMLSCALE
 40
20.0
  9
$PROXYGRAPHICS
 70
     1
  9
$MEASUREMENT
 70
     1
  9
$CELWEIGHT
370
    -1
  9
$ENDCAPS
280
     0
  9
$JOINSTYLE
280
     0
  9
$LWDISPLAY
290
     1
  9
$INSUNITS
 70
     4
  9
$HYPERLINKBASE
  1

  9
$STYLESHEET
  1

  9
$XEDIT
290
     1
  9
$CEPSNTYPE
380
     0
  9
$PSTYLEMODE
290
     1
  9
$FINGERPRINTGUID
  2
{6F5B6DBF-A4F1-4BC8-8260-7264E1A03501}
  9
$VERSIONGUID
  2
{363354B1-252B-2940-9264-1B30C3D24D6D}
  9
$EXTNAMES
290
     1
  9
$PSVPSCALE
 40
0.0
  9
$OLESTARTUP
290
     0
  9
$SORTENTS
280
   127
  9
$INDEXCTL
280
     0
  9
$HIDETEXT
280
     0
  9
$XCLIPFRAME
280
     2
  9
$HALOGAP
280
     0
  9
$OBSCOLOR
 70
   257
  9
$OBSLTYPE
280
     0
  9
$INTERSECTIONDISPLAY
280
     0
  9
$INTERSECTIONCOLOR
 70
   257
  9
$DIMASSOC
280
     1
  9
$PROJECTNAME
  1

  9
$CAMERADISPLAY
290
     0
  9
$LENSLENGTH
 40
50.0
  9
$CAMERAHEIGHT
 40
0.0
  9
$STEPSPERSEC
 40
2.0
  9
$STEPSIZE
 40
6.0
  9
$3DDWFPREC
 40
2.0
  9
$PSOLWIDTH
 40
0.25
  9
$PSOLHEIGHT
 40
4.0
  9
$LOFTANG1
 40
1.570796326794896
  9
$LOFTANG2
 40
1.570796326794896
  9
$LOFTMAG1
 40
0.0
  9
$LOFTMAG2
 40
0.0
  9
$LOFTPARAM
 70
     7
  9
$LOFTNORMALS
280
     1
  9
$LATITUDE
 40
37.795
  9
$LONGITUDE
 40
-122.394
  9
$NORTHDIRECTION
 40
0.0
  9
$TIMEZONE
 70
 -8000
  9
$LIGHTGLYPHDISPLAY
280
     1
  9
$TILEMODELIGHTSYNCH
280
     1
  9
$CMATERIAL
347
374
  9
$SOLIDHIST
280
     0
  9
$SHOWHIST
280
     1
  9
$DWFFRAME
280
     2
  9
$DGNFRAME
280
     0
  9
$REALWORLDSCALE
290
     1
  9
$INTERFERECOLOR
 62
     1
  9
$INTERFEREOBJVS
345
396
  9
$INTERFEREVPVS
346
393
  9
$CSHADOW
280
     0
  9
$SHADOWPLANELOCATION
 40
0.0
  0
ENDSEC
  0
SECTION
  2
CLASSES
  0
CLASS
  1
ACDBDICTIONARYWDFLT
  2
AcDbDictionaryWithDefault
  3
ObjectDBX Classes
 90
        0
 91
        1
280
     0
281
     0
  0
CLASS
  1
VISUALSTYLE
  2
AcDbVisualStyle
  3
ObjectDBX Classes
 90
     4095
 91
       24
280
     0
281
     0
  0
CLASS
  1
MATERIAL
  2
AcDbMaterial
  3
ObjectDBX Classes
 90
     1153
 91
        3
280
     0
281
     0
  0
CLASS
  1
SCALE
  2
AcDbScale
  3
ObjectDBX Classes
 90
     1153
 91
       33
280
     0
281
     0
  0
CLASS
  1
TABLESTYLE
  2
AcDbTableStyle
  3
ObjectDBX Classes
 90
     4095
 91
        1
280
     0
281
     0
  0
CLASS
  1
MLEADERSTYLE
  2
AcDbMLeaderStyle
  3
ACDB_MLEADERSTYLE_CLASS
 90
     4095
 91
        1
280
     0
281
     0
  0
CLASS
  1
SUN
  2
AcDbSun
  3
SCENEOE
 90
     1153
 91
        0
280
     0
281
     0
  0
CLASS
  1
ACDBSECTIONVIEWSTYLE
  2
AcDbSectionViewStyle
  3
ObjectDBX Classes
 90
     1025
 91
        1
280
     0
281
     0
  0
CLASS
  1
ACDBDETAILVIEWSTYLE
  2
AcDbDetailViewStyle
  3
ObjectDBX Classes
 90
     1025
 91
        1
280
     0
281
     0
  0
CLASS
  1
ACDB_ALDIMOBJECTCONTEXTDATA_CLASS
  2
AcDbAlignedDimensionObjectContextData
  3
ObjectDBX Classes
 90
     1153
 91
        7
280
     0
281
     0
  0
CLASS
  1
DICTIONARYVAR
  2
AcDbDictionaryVar
  3
ObjectDBX Classes
 90
        0
 91
       18
280
     0
281
     0
  0
CLASS
  1
CELLSTYLEMAP
  2
AcDbCellStyleMap
  3
ObjectDBX Classes
 90
     1152
 91
        1
280
     0
281
     0
  0
ENDSEC
  0
SECTION
  2
TABLES
  0
TABLE
  2
VPORT
  5
8
330
0
100
AcDbSymbolTable
 70
     1
  0
VPORT
  5
29
330
8
100
AcDbSymbolTableRecord
100
AcDbViewportTableRecord
  2
*Active
 70
     0
 10
0.0
 20
0.0
 11
1.0
 21
1.0
 12
268.8317881557529
 22
239.1372078282726
 13
0.0
 23
0.0
 14
10.0
 24
10.0
 15
10.0
 25
10.0
 16
0.0
 26
0.0
 36
1.0
 17
0.0
 27
0.0
 37
0.0
 40
462.4724058709763
 41
1.907960199004975
 42
50.0
 43
0.0
 44
0.0
 50
0.0
 51
0.0
 71
     0
 72
  2000
 73
     1
 74
     3
 75
     0
 76
     0
 77
     0
 78
     0
281
     0
 65
     1
110
0.0
120
0.0
130
0.0
111
1.0
121
0.0
131
0.0
112
0.0
122
1.0
132
0.0
 79
     0
146
0.0
348
392
 60
     3
 61
     5
292
     1
282
     1
141
0.0
142
0.0
 63
   250
421
  3355443
1001
ACAD_NAV_VCDISPLAY
1070
     3
  0
ENDTAB
  0
TABLE
  2
LTYPE
  5
5
330
0
100
AcDbSymbolTable
 70
     6
  0
LTYPE
  5
14
330
5
100
AcDbSymbolTableRecord
100
AcDbLinetypeTableRecord
  2
ByBlock
 70
     0
  3

 72
    65
 73
     0
 40
0.0
  0
LTYPE
  5
15
330
5
100
AcDbSymbolTableRecord
100
AcDbLinetypeTableRecord
  2
ByLayer
 70
     0
  3

 72
    65
 73
     0
 40
0.0
  0
LTYPE
  5
16
330
5
100
AcDbSymbolTableRecord
100
AcDbLinetypeTableRecord
  2
Continuous
 70
     0
  3
Solid line
 72
    65
 73
     0
 40
0.0
  0
LTYPE
  5
6E
330
5
100
AcDbSymbolTableRecord
100
AcDbLinetypeTableRecord
  2
HIDDEN
 70
     0
  3
Hidden __ __ __ __ __ __ __ __ __ __ __ __ __ __
 72
    65
 73
     2
 40
1.905
 49
1.27
 74
     0
 49
-0.635
 74
     0
  0
LTYPE
  5
6F
330
5
100
AcDbSymbolTableRecord
100
AcDbLinetypeTableRecord
  2
PHANTOM
 70
     0
  3
Phantom ______  __  __  ______  __  __  ______
 72
    65
 73
     6
 40
12.7
 49
6.349999999999999
 74
     0
 49
-1.27
 74
     0
 49
1.27
 74
     0
 49
-1.27
 74
     0
 49
1.27
 74
     0
 49
-1.27
 74
     0
  0
LTYPE
  5
70
330
5
100
AcDbSymbolTableRecord
100
AcDbLinetypeTableRecord
  2
CENTER
 70
     0
  3
Center ____ _ ____ _ ____ _ ____ _ ____ _ ____
 72
    65
 73
     4
 40
10.16
 49
6.349999999999999
 74
     0
 49
-1.27
 74
     0
 49
1.27
 74
     0
 49
-1.27
 74
     0
  0
LTYPE
  5
71
330
5
100
AcDbSymbolTableRecord
100
AcDbLinetypeTableRecord
  2
CENTERX2
 70
     0
  3
Center (2x) ________  __  ________  __  _____
 72
    65
 73
     4
 40
20.32
 49
12.7
 74
     0
 49
-2.54
 74
     0
 49
2.54
 74
     0
 49
-2.54
 74
     0
  0
LTYPE
  5
72
330
5
100
AcDbSymbolTableRecord
100
AcDbLinetypeTableRecord
  2
DOT2
 70
     0
  3
Dot (.5x) ........................................
 72
    65
 73
     2
 40
0.635
 49
0.0
 74
     0
 49
-0.635
 74
     0
  0
ENDTAB
  0
TABLE
  2
LAYER
  5
2
102
{ACAD_XDICTIONARY
360
3C4
102
}
330
0
100
AcDbSymbolTable
 70
     4
  0
LAYER
  5
10
102
{ACAD_XDICTIONARY
360
440
102
}
330
2
100
AcDbSymbolTableRecord
100
AcDbLayerTableRecord
  2
0
 70
     0
 62
     7
  6
Continuous
370
    -3
390
F
347
384
348
0
  0
LAYER
  5
73
102
{ACAD_XDICTIONARY
360
442
102
}
330
2
100
AcDbSymbolTableRecord
100
AcDbLayerTableRecord
  2
FORMAT
 70
     0
 62
     7
  6
Continuous
370
    -3
390
F
347
384
348
0
  0
LAYER
  5
3BB
330
2
100
AcDbSymbolTableRecord
100
AcDbLayerTableRecord
  2
Defpoints
 70
     0
 62
     7
  6
Continuous
290
     0
370
    -3
390
F
347
384
348
0
  0
LAYER
  5
3BC
102
{ACAD_XDICTIONARY
360
444
102
}
330
2
100
AcDbSymbolTableRecord
100
AcDbLayerTableRecord
  2
DIMENSION
 70
     0
 62
   255
  6
Continuous
370
    -3
390
F
347
384
348
0
  0
ENDTAB
  0
TABLE
  2
STYLE
  5
3
330
0
100
AcDbSymbolTable
 70
     2
  0
STYLE
  5
11
330
3
100
AcDbSymbolTableRecord
100
AcDbTextStyleTableRecord
  2
Standard
 70
     0
 40
0.0
 41
1.0
 50
0.0
 71
     0
 42
3.5
  3
txt
  4

  0
STYLE
  5
2F0
330
3
100
AcDbSymbolTableRecord
100
AcDbTextStyleTableRecord
  2
SLDTEXTSTYLE0
 70
     0
 40
0.0
 41
0.75
 50
0.0
 71
     0
 42
3.5
  3
TXT
  4

  0
ENDTAB
  0
TABLE
  2
VIEW
  5
6
330
0
100
AcDbSymbolTable
 70
     0
  0
ENDTAB
  0
TABLE
  2
UCS
  5
7
330
0
100
AcDbSymbolTable
 70
     0
  0
ENDTAB
  0
TABLE
  2
APPID
  5
9
330
0
100
AcDbSymbolTable
 70
     7
  0
APPID
  5
12
330
9
100
AcDbSymbolTableRecord
100
AcDbRegAppTableRecord
  2
ACAD
 70
     0
  0
APPID
  5
3BE
330
9
100
AcDbSymbolTableRecord
100
AcDbRegAppTableRecord
  2
ACAD_PSEXT
 70
     0
  0
APPID
  5
3BF
330
9
100
AcDbSymbolTableRecord
100
AcDbRegAppTableRecord
  2
AcadAnnotative
 70
     0
  0
APPID
  5
3C0
330
9
100
AcDbSymbolTableRecord
100
AcDbRegAppTableRecord
  2
ACAD_DSTYLE_DIMJAG
 70
     0
  0
APPID
  5
3C1
330
9
100
AcDbSymbolTableRecord
100
AcDbRegAppTableRecord
  2
ACAD_DSTYLE_DIMTALN
 70
     0
  0
APPID
  5
3C2
330
9
100
AcDbSymbolTableRecord
100
AcDbRegAppTableRecord
  2
ACAD_NAV_VCDISPLAY
 70
     0
  0
APPID
  5
3C3
330
9
100
AcDbSymbolTableRecord
100
AcDbRegAppTableRecord
  2
ACAD_DSTYLE_DIMBREAK
 70
     0
  0
ENDTAB
  0
TABLE
  2
DIMSTYLE
  5
A
330
0
100
AcDbSymbolTable
 70
     3
100
AcDbDimStyleTable
 71
     2
340
3BD
340
27
  0
DIMSTYLE
105
27
330
A
100
AcDbSymbolTableRecord
100
AcDbDimStyleTableRecord
  2
ISO-25
 70
     0
 41
2.5
 42
0.625
 43
3.75
 44
1.25
 73
     0
 74
     0
 77
     1
 78
     8
140
2.5
141
2.5
143
0.0393700787
147
0.625
171
     3
172
     1
271
     2
272
     2
274
     3
278
    44
283
     0
284
     8
340
11
  0
DIMSTYLE
105
2F1
330
A
100
AcDbSymbolTableRecord
100
AcDbDimStyleTableRecord
  2
SLDDIMSTYLE0
 70
     0
 41
3.302
 44
0.0
 45
0.000000001
 73
     0
 74
     0
 77
     1
 78
     4
 79
     1
140
3.5
147
0.875
173
     1
271
     2
272
     2
276
     2
284
    12
340
2F0
341
2F2
343
2F2
344
2F2
  0
DIMSTYLE
105
3BD
102
{ACAD_REACTORS
330
3C7
330
3DF
330
333
330
2FC
330
2EF
330
368
102
}
330
A
100
AcDbSymbolTableRecord
100
AcDbDimStyleTableRecord
  2
RG Dimension Lines
 70
     0
 40
12.0
 41
3.5
 42
1.0
 43
10.0
 44
5.0
 49
5.0
 77
     2
140
8.0
141
0.0
147
4.0
172
     1
176
   256
177
   256
178
     7
271
     0
272
     0
290
     1
340
11
341
2F2
342
2F2
371
     0
372
     0
1001
ACAD_DSTYLE_DIMBREAK
1070
   391
1040
0.125
1001
AcadAnnotative
1000
AnnotativeData
1002
{
1070
     1
1070
     1
1002
}
1001
ACAD_DSTYLE_DIMJAG
1070
   388
1040
1.5
1001
ACAD_DSTYLE_DIMTALN
1070
   392
1070
     0
  0
ENDTAB
  0
TABLE
  2
BLOCK_RECORD
  5
1
330
0
100
AcDbSymbolTable
 70
    15
  0
BLOCK_RECORD
  5
1F
330
1
100
AcDbSymbolTableRecord
100
AcDbBlockTableRecord
  2
*Model_Space
340
22
 70
     0
280
     1
281
     0
  0
BLOCK_RECORD
  5
1B
330
1
100
AcDbSymbolTableRecord
100
AcDbBlockTableRecord
  2
*Paper_Space
340
1E
 70
     0
280
     1
281
     0
  0
BLOCK_RECORD
  5
23
330
1
100
AcDbSymbolTableRecord
100
AcDbBlockTableRecord
  2
*Paper_Space0
340
26
 70
     0
280
     1
281
     0
  0
BLOCK_RECORD
  5
2F2
330
1
100
AcDbSymbolTableRecord
100
AcDbBlockTableRecord
  2
_None
340
0
 70
     0
280
     1
281
     0
  0
BLOCK_RECORD
  5
2F5
330
1
100
AcDbSymbolTableRecord
100
AcDbBlockTableRecord
  2
_D
340
0
 70
     0
280
     1
281
     0
  0
BLOCK_RECORD
  5
2FD
330
1
100
AcDbSymbolTableRecord
100
AcDbBlockTableRecord
  2
_D_1
340
0
 70
     0
280
     1
281
     0
  0
BLOCK_RECORD
  5
334
330
1
100
AcDbSymbolTableRecord
100
AcDbBlockTableRecord
  2
_D_2
340
0
 70
     0
280
     1
281
     0
  0
BLOCK_RECORD
  5
369
330
1
100
AcDbSymbolTableRecord
100
AcDbBlockTableRecord
  2
_D_3
340
0
 70
     0
280
     1
281
     0
  0
BLOCK_RECORD
  5
3B1
330
1
100
AcDbSymbolTableRecord
100
AcDbBlockTableRecord
  2
*D6
340
0
 70
     0
280
     1
281
     0
  0
BLOCK_RECORD
  5
3D5
330
1
100
AcDbSymbolTableRecord
100
AcDbBlockTableRecord
  2
*D8
340
0
 70
     0
280
     1
281
     0
  0
BLOCK_RECORD
  5
3E0
330
1
100
AcDbSymbolTableRecord
100
AcDbBlockTableRecord
  2
*D9
340
0
 70
     0
280
     1
281
     0
  0
BLOCK_RECORD
  5
3EC
330
1
100
AcDbSymbolTableRecord
100
AcDbBlockTableRecord
  2
*D10
340
0
 70
     0
280
     1
281
     0
  0
BLOCK_RECORD
  5
3FA
330
1
100
AcDbSymbolTableRecord
100
AcDbBlockTableRecord
  2
*D11
340
0
 70
     0
280
     1
281
     0
  0
BLOCK_RECORD
  5
408
330
1
100
AcDbSymbolTableRecord
100
AcDbBlockTableRecord
  2
*D12
340
0
 70
     0
280
     1
281
     0
  0
BLOCK_RECORD
  5
416
330
1
100
AcDbSymbolTableRecord
100
AcDbBlockTableRecord
  2
*D13
340
0
 70
     0
280
     1
281
     0
  0
BLOCK_RECORD
  5
424
330
1
100
AcDbSymbolTableRecord
100
AcDbBlockTableRecord
  2
*D14
340
0
 70
     0
280
     1
281
     0
  0
ENDTAB
  0
ENDSEC
  0
SECTION
  2
BLOCKS
  0
BLOCK
  5
20
330
1F
100
AcDbEntity
  8
0
100
AcDbBlockBegin
  2
*Model_Space
 70
     0
 10
0.0
 20
0.0
 30
0.0
  3
*Model_Space
  1

  0
ENDBLK
  5
21
330
1F
100
AcDbEntity
  8
0
100
AcDbBlockEnd
  0
BLOCK
  5
1C
330
1B
100
AcDbEntity
 67
     1
  8
0
100
AcDbBlockBegin
  2
*Paper_Space
 70
     0
 10
0.0
 20
0.0
 30
0.0
  3
*Paper_Space
  1

  0
ENDBLK
  5
1D
330
1B
100
AcDbEntity
 67
     1
  8
0
100
AcDbBlockEnd
  0
BLOCK
  5
24
330
23
100
AcDbEntity
 67
     1
  8
0
100
AcDbBlockBegin
  2
*Paper_Space0
 70
     0
 10
0.0
 20
0.0
 30
0.0
  3
*Paper_Space0
  1

  0
ENDBLK
  5
25
330
23
100
AcDbEntity
 67
     1
  8
0
100
AcDbBlockEnd
  0
BLOCK
  5
2F3
330
2F2
100
AcDbEntity
  8
0
100
AcDbBlockBegin
  2
_None
 70
     0
 10
0.0
 20
0.0
 30
0.0
  3
_None
  1

  0
ENDBLK
  5
2F4
330
2F2
100
AcDbEntity
  8
0
100
AcDbBlockEnd
  0
BLOCK
  5
2F6
330
2F5
100
AcDbEntity
  8
0
100
AcDbBlockBegin
  2
_D
 70
     0
 10
0.0
 20
0.0
 30
0.0
  3
_D
  1

  0
LINE
  5
2F8
330
2F5
100
AcDbEntity
  8
0
  6
Continuous
 62
     7
440
 16777216
370
     0
100
AcDbLine
 10
37.2233057607
 20
42.766839504
 30
0.0
 11
23.245170376
 21
42.766839504
 31
0.0
  0
LINE
  5
2F9
330
2F5
100
AcDbEntity
  8
0
  6
Continuous
 62
     7
440
 16777216
370
     0
100
AcDbLine
 10
36.8787846156
 20
122.766839504
 30
0.0
 11
23.245170376
 21
122.766839504
 31
0.0
  0
LINE
  5
2FA
330
2F5
100
AcDbEntity
  8
0
  6
Continuous
 62
     7
440
 16777216
370
     0
100
AcDbLine
 10
24.245170376
 20
42.766839504
 30
0.0
 11
24.245170376
 21
122.766839504
 31
0.0
  0
MTEXT
  5
2FB
330
2F5
100
AcDbEntity
  8
0
  6
Continuous
 62
     7
440
 16777216
370
    18
100
AcDbMText
 10
19.7334334614
 20
79.1790081212
 30
0.0
 40
3.5
 41
0.0
 46
0.0
 71
     1
 72
     1
  1
80.00
  7
SLDTEXTSTYLE0
 11
-0.0000000000000002
 21
1.0
 31
0.0
 73
     1
 44
1.0
  0
ENDBLK
  5
2F7
330
2F5
100
AcDbEntity
  8
0
100
AcDbBlockEnd
  0
BLOCK
  5
2FE
330
2FD
100
AcDbEntity
  8
0
100
AcDbBlockBegin
  2
_D_1
 70
     0
 10
0.0
 20
0.0
 30
0.0
  3
_D_1
  1

  0
LINE
  5
300
330
2FD
100
AcDbEntity
  8
0
  6
Continuous
 62
     7
440
 16777216
370
     0
100
AcDbLine
 10
157.8301761447
 20
106.5576147994
 30
0.0
 11
157.8301761447
 21
155.3536959182
 31
0.0
  0
LINE
  5
301
330
2FD
100
AcDbEntity
  8
0
  6
Continuous
 62
     7
440
 16777216
370
     0
100
AcDbLine
 10
202.6301761447
 20
106.5576147994
 30
0.0
 11
202.6301761447
 21
155.3536959182
 31
0.0
  0
LINE
  5
302
330
2FD
100
AcDbEntity
  8
0
  6
Continuous
 62
     7
440
 16777216
370
     0
100
AcDbLine
 10
157.8301761447
 20
154.3536959182
 30
0.0
 11
202.6301761447
 21
154.3536959182
 31
0.0
  0
MTEXT
  5
303
330
2FD
100
AcDbEntity
  8
0
  6
Continuous
 62
     7
440
 16777216
370
    18
100
AcDbMText
 10
172.1502926408
 20
158.8654330074
 30
0.0
 40
3.5
 41
0.0
 46
0.0
 71
     1
 72
     1
  1
%%c
  7
SLDTEXTSTYLE0
 73
     1
 44
1.0
  0
MTEXT
  5
304
330
2FD
100
AcDbEntity
  8
0
  6
Continuous
 62
     7
440
 16777216
370
    18
100
AcDbMText
 10
177.4287300392
 20
158.9189051841
 30
0.0
 40
3.5
 41
0.0
 46
0.0
 71
     1
 72
     1
  1
45.00
  7
SLDTEXTSTYLE0
 73
     1
 44
1.0
  0
ENDBLK
  5
2FF
330
2FD
100
AcDbEntity
  8
0
100
AcDbBlockEnd
  0
BLOCK
  5
335
330
334
100
AcDbEntity
  8
0
100
AcDbBlockBegin
  2
_D_2
 70
     0
 10
0.0
 20
0.0
 30
0.0
  3
_D_2
  1

  0
LINE
  5
337
330
334
100
AcDbEntity
  8
0
  6
Continuous
 62
     7
440
 16777216
370
     0
100
AcDbLine
 10
278.5116170832
 20
54.9355345937
 30
0.0
 11
278.5116170832
 21
19.766839504
 31
0.0
  0
LINE
  5
338
330
334
100
AcDbEntity
  8
0
  6
Continuous
 62
     7
440
 16777216
370
     0
100
AcDbLine
 10
529.4401288801
 20
36.1616310656
 30
0.0
 11
529.4401288801
 21
19.766839504
 31
0.0
  0
LINE
  5
339
330
334
100
AcDbEntity
  8
0
  6
Continuous
 62
     7
440
 16777216
370
     0
100
AcDbLine
 10
278.5116170832
 20
20.766839504
 30
0.0
 11
529.4401288801
 21
20.766839504
 31
0.0
  0
MTEXT
  5
33A
330
334
100
AcDbEntity
  8
0
  6
Continuous
 62
     7
440
 16777216
370
    18
100
AcDbMText
 10
394.3299449365
 20
25.2785764186
 30
0.0
 40
3.5
 41
0.0
 46
0.0
 71
     1
 72
     1
  1
250.00
  7
SLDTEXTSTYLE0
 73
     1
 44
1.0
  0
ENDBLK
  5
336
330
334
100
AcDbEntity
  8
0
100
AcDbBlockEnd
  0
BLOCK
  5
36A
330
369
100
AcDbEntity
  8
0
100
AcDbBlockBegin
  2
_D_3
 70
     0
 10
0.0
 20
0.0
 30
0.0
  3
_D_3
  1

  0
LINE
  5
36C
330
369
100
AcDbEntity
  8
0
  6
Continuous
 62
     7
440
 16777216
370
     0
100
AcDbLine
 10
40.24517037599999
 20
438.7180958405999
 30
0.0
 11
40.24517037599999
 21
458.5023878574999
 31
0.0
  0
LINE
  5
36D
330
369
100
AcDbEntity
  8
0
  6
Continuous
 62
     7
440
 16777216
370
     0
100
AcDbLine
 10
220.245170376
 20
439.2175575145
 30
0.0
 11
220.245170376
 21
458.5023878574999
 31
0.0
  0
LINE
  5
36E
330
369
100
AcDbEntity
  8
0
  6
Continuous
 62
     7
440
 16777216
370
     0
100
AcDbLine
 10
40.24517037599999
 20
457.5023878575
 30
0.0
 11
220.245170376
 21
457.5023878575
 31
0.0
  0
MTEXT
  5
36F
330
369
100
AcDbEntity
  8
0
  6
Continuous
 62
     7
440
 16777216
370
    18
100
AcDbMText
 10
121.6067677065
 20
462.0141247721
 30
0.0
 40
3.5
 41
0.0
 46
0.0
 71
     1
 72
     1
  1
180.00
  7
SLDTEXTSTYLE0
 73
     1
 44
1.0
  0
ENDBLK
  5
36B
330
369
100
AcDbEntity
  8
0
100
AcDbBlockEnd
  0
BLOCK
  5
3B2
330
3B1
100
AcDbEntity
  8
0
100
AcDbBlockBegin
  2
*D6
 70
     1
 10
0.0
 20
0.0
 30
0.0
  3
*D6
  1

  0
LINE
  5
3B3
330
3B1
100
AcDbEntity
  8
DIMENSION
440
 16777216
370
     0
100
AcDbLine
 10
1092.625159377854
 20
969.7937323929265
 30
0.0
 11
1092.569709633547
 21
979.7935786580374
 31
0.0
  0
LINE
  5
3B4
330
3B1
100
AcDbEntity
  8
DIMENSION
440
 16777216
370
     0
100
AcDbLine
 10
1454.657182624691
 20
971.8012215670347
 30
0.0
 11
1454.601732880384
 21
981.8010678321458
 31
0.0
  0
LINE
  5
3B5
330
3B1
100
AcDbEntity
  8
DIMENSION
440
 16777216
370
     0
100
AcDbLine
 10
1092.597434505701
 20
974.793655525482
 30
0.0
 11
1454.629457752537
 21
976.8011446995902
 31
0.0
  0
MTEXT
  5
3B6
330
3B1
100
AcDbEntity
  8
DIMENSION
 62
     7
440
 16777216
100
AcDbMText
 10
1273.568105608173
 20
983.9741418578535
 30
0.0
 40
8.0
 41
0.0
 46
0.0
 71
     5
 72
     1
  1
\A1;362
 73
     1
 44
1.0
  0
POINT
  5
3B7
330
3B1
100
AcDbEntity
  8
Defpoints
 62
     0
440
 16777216
100
AcDbPoint
 10
1092.771920384362
 20
943.3267482592359
 30
0.0
  0
POINT
  5
3B8
330
3B1
100
AcDbEntity
  8
Defpoints
 62
     0
440
 16777216
100
AcDbPoint
 10
1454.803943631198
 20
945.3342374333443
 30
0.0
  0
POINT
  5
3B9
330
3B1
100
AcDbEntity
  8
Defpoints
 62
     0
440
 16777216
100
AcDbPoint
 10
1454.629457752537
 20
976.8011446995902
 30
0.0
  0
ENDBLK
  5
3BA
330
3B1
100
AcDbEntity
  8
0
100
AcDbBlockEnd
  0
BLOCK
  5
3D6
330
3D5
100
AcDbEntity
  8
0
100
AcDbBlockBegin
  2
*D8
 70
     1
 10
0.0
 20
0.0
 30
0.0
  3
*D8
  1

  0
LINE
  5
3D8
330
3D5
100
AcDbEntity
  8
DIMENSION
440
 16777216
370
     0
100
AcDbLine
 10
323.0993223794167
 20
217.0573435628964
 30
0.0
 11
323.0438726351098
 21
227.0571898280075
 31
0.0
  0
LINE
  5
3D9
330
3D5
100
AcDbEntity
  8
DIMENSION
440
 16777216
370
     0
100
AcDbLine
 10
685.1313456262532
 20
219.0648327370046
 30
0.0
 11
685.0758958819463
 21
229.0646790021157
 31
0.0
  0
LINE
  5
3DA
330
3D5
100
AcDbEntity
  8
DIMENSION
440
 16777216
370
     0
100
AcDbLine
 10
323.0715975072633
 20
222.0572666954519
 30
0.0
 11
685.1036207540999
 21
224.0647558695602
 31
0.0
  0
MTEXT
  5
3DB
330
3D5
100
AcDbEntity
  8
DIMENSION
 62
     7
440
 16777216
100
AcDbMText
 10
504.0427990649931
 20
231.1420903499559
 30
0.0
 40
8.0
 41
0.0
 46
0.0
 71
     5
 72
     1
  1
\A1;362
 73
     1
 44
1.0
  0
POINT
  5
3DC
330
3D5
100
AcDbEntity
  8
Defpoints
 62
     0
440
 16777216
100
AcDbPoint
 10
323.2460833859243
 20
190.5903594292058
 30
0.0
  0
POINT
  5
3DD
330
3D5
100
AcDbEntity
  8
Defpoints
 62
     0
440
 16777216
100
AcDbPoint
 10
685.2781066327609
 20
192.5978486033141
 30
0.0
  0
POINT
  5
3DE
330
3D5
100
AcDbEntity
  8
Defpoints
 62
     0
440
 16777216
100
AcDbPoint
 10
685.1036207540999
 20
224.0647558695602
 30
0.0
  0
ENDBLK
  5
3D7
330
3D5
100
AcDbEntity
  8
0
100
AcDbBlockEnd
  0
BLOCK
  5
3E1
330
3E0
100
AcDbEntity
  8
0
100
AcDbBlockBegin
  2
*D9
 70
     1
 10
0.0
 20
0.0
 30
0.0
  3
*D9
  1

  0
LINE
  5
3E3
330
3E0
100
AcDbEntity
  8
0
 62
     0
440
 16777216
370
    -2
100
AcDbLine
 10
268.9401288801
 20
96.4668395041
 30
0.0
 11
268.9401288801
 21
164.9738313233519
 31
0.0
  0
LINE
  5
3E4
330
3E0
100
AcDbEntity
  8
0
 62
     0
440
 16777216
370
    -2
100
AcDbLine
 10
529.4401288801
 20
123.766839504
 30
0.0
 11
529.4401288801
 21
164.9738313233519
 31
0.0
  0
LINE
  5
3E5
330
3E0
100
AcDbEntity
  8
0
 62
     0
440
 16777216
370
    -2
100
AcDbLine
 10
272.2421288801
 20
163.9738313233519
 30
0.0
 11
526.1381288801
 21
163.9738313233519
 31
0.0
  0
SOLID
  5
3E6
330
3E0
100
AcDbEntity
  8
0
 62
     0
440
 16777216
100
AcDbTrace
 10
272.2421288801
 20
164.5241646566852
 30
0.0
 11
272.2421288801
 21
163.4234979900185
 31
0.0
 12
268.9401288801
 22
163.9738313233519
 32
0.0
 13
268.9401288801
 23
163.9738313233519
 33
0.0
  0
SOLID
  5
3E7
330
3E0
100
AcDbEntity
  8
0
 62
     0
440
 16777216
100
AcDbTrace
 10
526.1381288801
 20
164.5241646566852
 30
0.0
 11
526.1381288801
 21
163.4234979900185
 31
0.0
 12
529.4401288801
 22
163.9738313233519
 32
0.0
 13
529.4401288801
 23
163.9738313233519
 33
0.0
  0
MTEXT
  5
3E8
330
3E0
100
AcDbEntity
  8
0
 62
     0
440
 16777216
100
AcDbMText
 10
399.1901288801
 20
167.5394979900185
 30
0.0
 40
3.5
 41
0.0
 46
0.0
 71
     5
 72
     1
  1
1302,50
 73
     1
 44
1.0
  0
POINT
  5
3E9
330
3E0
100
AcDbEntity
  8
Defpoints
 62
     0
440
 16777216
100
AcDbPoint
 10
268.9401288801
 20
95.46683950409999
 30
0.0
  0
POINT
  5
3EA
330
3E0
100
AcDbEntity
  8
Defpoints
 62
     0
440
 16777216
100
AcDbPoint
 10
529.4401288801
 20
122.766839504
 30
0.0
  0
POINT
  5
3EB
330
3E0
100
AcDbEntity
  8
Defpoints
 62
     0
440
 16777216
100
AcDbPoint
 10
529.4401288801
 20
163.9738313233519
 30
0.0
  0
ENDBLK
  5
3E2
330
3E0
100
AcDbEntity
  8
0
100
AcDbBlockEnd
  0
BLOCK
  5
3ED
330
3EC
100
AcDbEntity
  8
0
100
AcDbBlockBegin
  2
*D10
 70
     1
 10
0.0
 20
0.0
 30
0.0
  3
*D10
  1

  0
LINE
  5
432
330
3EC
100
AcDbEntity
  8
DIMENSION
440
 16777216
370
     0
100
AcDbLine
 10
268.9401288801
 20
158.9738313233518
 30
0.0
 11
268.9401288801
 21
168.9738313233519
 31
0.0
  0
LINE
  5
433
330
3EC
100
AcDbEntity
  8
DIMENSION
440
 16777216
370
     0
100
AcDbLine
 10
529.4401288801
 20
158.9738313233518
 30
0.0
 11
529.4401288801
 21
168.9738313233519
 31
0.0
  0
LINE
  5
434
330
3EC
100
AcDbEntity
  8
DIMENSION
440
 16777216
370
     0
100
AcDbLine
 10
268.9401288801
 20
163.9738313233519
 30
0.0
 11
529.4401288801
 21
163.9738313233519
 31
0.0
  0
MTEXT
  5
435
330
3EC
100
AcDbEntity
  8
DIMENSION
 62
     7
440
 16777216
100
AcDbMText
 10
399.1901288801
 20
171.9738313233518
 30
0.0
 40
8.0
 41
0.0
 46
0.0
 71
     5
 72
     1
  1
\A1;260
 73
     1
 44
1.0
  0
POINT
  5
436
330
3EC
100
AcDbEntity
  8
Defpoints
 62
     0
440
 16777216
100
AcDbPoint
 10
268.9401288801
 20
95.46683950409999
 30
0.0
  0
POINT
  5
437
330
3EC
100
AcDbEntity
  8
Defpoints
 62
     0
440
 16777216
100
AcDbPoint
 10
529.4401288801
 20
122.766839504
 30
0.0
  0
POINT
  5
438
330
3EC
100
AcDbEntity
  8
Defpoints
 62
     0
440
 16777216
100
AcDbPoint
 10
529.4401288801
 20
163.9738313233519
 30
0.0
  0
ENDBLK
  5
3EE
330
3EC
100
AcDbEntity
  8
0
100
AcDbBlockEnd
  0
BLOCK
  5
3FB
330
3FA
100
AcDbEntity
  8
0
100
AcDbBlockBegin
  2
*D11
 70
     1
 10
0.0
 20
0.0
 30
0.0
  3
*D11
  1

  0
LINE
  5
439
330
3FA
100
AcDbEntity
  8
DIMENSION
440
 16777216
370
     0
100
AcDbLine
 10
278.5116170832
 20
25.766839504
 30
0.0
 11
278.5116170832
 21
15.766839504
 31
0.0
  0
LINE
  5
43A
330
3FA
100
AcDbEntity
  8
DIMENSION
440
 16777216
370
     0
100
AcDbLine
 10
529.4401288801
 20
25.766839504
 30
0.0
 11
529.4401288801
 21
15.766839504
 31
0.0
  0
LINE
  5
43B
330
3FA
100
AcDbEntity
  8
DIMENSION
440
 16777216
370
     0
100
AcDbLine
 10
278.5116170832
 20
20.766839504
 30
0.0
 11
529.4401288801
 21
20.766839504
 31
0.0
  0
MTEXT
  5
43C
330
3FA
100
AcDbEntity
  8
DIMENSION
 62
     7
440
 16777216
100
AcDbMText
 10
401.4417508933
 20
16.766839504
 30
0.0
 40
8.0
 41
0.0
 46
0.0
 71
     2
 72
     1
  1
\A1;250
 73
     1
 44
1.0
  0
POINT
  5
43D
330
3FA
100
AcDbEntity
  8
Defpoints
 62
     0
440
 16777216
100
AcDbPoint
 10
278.5116170832
 20
60.6470807597
 30
0.0
  0
POINT
  5
43E
330
3FA
100
AcDbEntity
  8
Defpoints
 62
     0
440
 16777216
100
AcDbPoint
 10
529.4401288801
 20
42.766839504
 30
0.0
  0
POINT
  5
43F
330
3FA
100
AcDbEntity
  8
Defpoints
 62
     0
440
 16777216
100
AcDbPoint
 10
529.4401288801
 20
20.766839504
 30
0.0
  0
ENDBLK
  5
3FC
330
3FA
100
AcDbEntity
  8
0
100
AcDbBlockEnd
  0
BLOCK
  5
409
330
408
100
AcDbEntity
  8
0
100
AcDbBlockBegin
  2
*D12
 70
     1
 10
0.0
 20
0.0
 30
0.0
  3
*D12
  1

  0
LINE
  5
40B
330
408
100
AcDbEntity
  8
DIMENSION
440
 16777216
370
     0
100
AcDbLine
 10
157.8301761447
 20
149.3536959182
 30
0.0
 11
157.8301761447
 21
159.3536959182
 31
0.0
  0
LINE
  5
40C
330
408
100
AcDbEntity
  8
DIMENSION
440
 16777216
370
     0
100
AcDbLine
 10
202.6301761447
 20
149.3536959182
 30
0.0
 11
202.6301761447
 21
159.3536959182
 31
0.0
  0
LINE
  5
40D
330
408
100
AcDbEntity
  8
DIMENSION
440
 16777216
370
     0
100
AcDbLine
 10
157.8301761447
 20
154.3536959182
 30
0.0
 11
202.6301761447
 21
154.3536959182
 31
0.0
  0
MTEXT
  5
40E
330
408
100
AcDbEntity
  8
DIMENSION
 62
     7
440
 16777216
100
AcDbMText
 10
180.6082615836
 20
166.3536959182
 30
0.0
 40
8.0
 41
0.0
 46
0.0
 71
     2
 72
     1
  1
\A1;%%c45
 73
     1
 44
1.0
  0
POINT
  5
40F
330
408
100
AcDbEntity
  8
Defpoints
 62
     0
440
 16777216
100
AcDbPoint
 10
157.8301761447
 20
82.76642353939999
 30
0.0
  0
POINT
  5
410
330
408
100
AcDbEntity
  8
Defpoints
 62
     0
440
 16777216
100
AcDbPoint
 10
202.6301761447
 20
82.76642353939999
 30
0.0
  0
POINT
  5
411
330
408
100
AcDbEntity
  8
Defpoints
 62
     0
440
 16777216
100
AcDbPoint
 10
202.6301761447
 20
154.3536959182
 30
0.0
  0
ENDBLK
  5
40A
330
408
100
AcDbEntity
  8
0
100
AcDbBlockEnd
  0
BLOCK
  5
417
330
416
100
AcDbEntity
  8
0
100
AcDbBlockBegin
  2
*D13
 70
     1
 10
0.0
 20
0.0
 30
0.0
  3
*D13
  1

  0
LINE
  5
419
330
416
100
AcDbEntity
  8
DIMENSION
440
 16777216
370
     0
100
AcDbLine
 10
29.24517037599999
 20
42.76683950400001
 30
0.0
 11
19.24517037599999
 21
42.76683950400001
 31
0.0
  0
LINE
  5
41A
330
416
100
AcDbEntity
  8
DIMENSION
440
 16777216
370
     0
100
AcDbLine
 10
29.24517037599997
 20
122.766839504
 30
0.0
 11
19.24517037599997
 21
122.766839504
 31
0.0
  0
LINE
  5
41B
330
416
100
AcDbEntity
  8
DIMENSION
440
 16777216
370
     0
100
AcDbLine
 10
24.24517037599999
 20
42.76683950400001
 30
0.0
 11
24.24517037599998
 21
122.766839504
 31
0.0
  0
MTEXT
  5
41C
330
416
100
AcDbEntity
  8
DIMENSION
 62
     7
440
 16777216
100
AcDbMText
 10
14.245170376
 20
88.99775836479999
 30
0.0
 40
8.0
 41
0.0
 46
0.0
 71
     2
 72
     1
  1
\A1;80
 73
     1
 44
1.0
  0
POINT
  5
41D
330
416
100
AcDbEntity
  8
Defpoints
 62
     0
440
 16777216
100
AcDbPoint
 10
40.24517037600001
 20
42.76683950400001
 30
0.0
  0
POINT
  5
41E
330
416
100
AcDbEntity
  8
Defpoints
 62
     0
440
 16777216
100
AcDbPoint
 10
40.24517037600001
 20
122.766839504
 30
0.0
  0
POINT
  5
41F
330
416
100
AcDbEntity
  8
Defpoints
 62
     0
440
 16777216
100
AcDbPoint
 10
24.24517037599998
 20
122.766839504
 30
0.0
  0
ENDBLK
  5
418
330
416
100
AcDbEntity
  8
0
100
AcDbBlockEnd
  0
BLOCK
  5
425
330
424
100
AcDbEntity
  8
0
100
AcDbBlockBegin
  2
*D14
 70
     1
 10
0.0
 20
0.0
 30
0.0
  3
*D14
  1

  0
LINE
  5
427
330
424
100
AcDbEntity
  8
DIMENSION
440
 16777216
370
     0
100
AcDbLine
 10
40.24517037599999
 20
452.5023878575
 30
0.0
 11
40.24517037599999
 21
462.5023878574999
 31
0.0
  0
LINE
  5
428
330
424
100
AcDbEntity
  8
DIMENSION
440
 16777216
370
     0
100
AcDbLine
 10
220.245170376
 20
452.5023878575
 30
0.0
 11
220.245170376
 21
462.5023878574999
 31
0.0
  0
LINE
  5
429
330
424
100
AcDbEntity
  8
DIMENSION
440
 16777216
370
     0
100
AcDbLine
 10
40.24517037599999
 20
457.5023878575
 30
0.0
 11
220.245170376
 21
457.5023878575
 31
0.0
  0
MTEXT
  5
42A
330
424
100
AcDbEntity
  8
DIMENSION
 62
     7
440
 16777216
100
AcDbMText
 10
128.7185736633
 20
469.5023878575
 30
0.0
 40
8.0
 41
0.0
 46
0.0
 71
     2
 72
     1
  1
\A1;180
 73
     1
 44
1.0
  0
POINT
  5
42B
330
424
100
AcDbEntity
  8
Defpoints
 62
     0
440
 16777216
100
AcDbPoint
 10
40.24517037599999
 20
435.5023878575
 30
0.0
  0
POINT
  5
42C
330
424
100
AcDbEntity
  8
Defpoints
 62
     0
440
 16777216
100
AcDbPoint
 10
220.245170376
 20
435.5023878575
 30
0.0
  0
POINT
  5
42D
330
424
100
AcDbEntity
  8
Defpoints
 62
     0
440
 16777216
100
AcDbPoint
 10
220.245170376
 20
457.5023878575
 30
0.0
  0
ENDBLK
  5
426
330
424
100
AcDbEntity
  8
0
100
AcDbBlockEnd
  0
ENDSEC
  0
SECTION
  2
ENTITIES
  0
LINE
  5
74
330
1F
100
AcDbEntity
  8
DIMENSION
100
AcDbLine
 10
73.32686021509999
 20
61.5764606225
 30
0.0
 11
73.32686021509999
 21
60.92898854600001
 31
0.0
  0
LINE
  5
75
330
1F
100
AcDbEntity
  8
DIMENSION
100
AcDbLine
 10
87.163480537
 20
60.92898854600001
 30
0.0
 11
87.163480537
 21
61.5764606225
 31
0.0
  0
LINE
  5
76
330
1F
100
AcDbEntity
  8
DIMENSION
100
AcDbLine
 10
73.8013830963
 20
60.06776165609999
 30
0.0
 11
74.0808062703
 21
59.8231994154
 31
0.0
  0
LINE
  5
77
330
1F
100
AcDbEntity
  8
DIMENSION
100
AcDbLine
 10
86.40953448180001
 20
59.8231994154
 30
0.0
 11
86.6889576558
 21
60.06776165609999
 31
0.0
  0
LINE
  5
78
330
1F
100
AcDbEntity
  8
DIMENSION
100
AcDbLine
 10
70.295170376
 20
74.87459647699999
 30
0.0
 11
70.295170376
 21
61.1169270701
 31
0.0
  0
LINE
  5
79
330
1F
100
AcDbEntity
  8
DIMENSION
100
AcDbLine
 10
90.19517037600001
 20
61.1169270701
 30
0.0
 11
90.19517037600001
 21
74.87459647689999
 31
0.0
  0
LINE
  5
7A
330
1F
100
AcDbEntity
  8
DIMENSION
100
AcDbLine
 10
70.9776351049
 20
59.8782998108
 30
0.0
 11
71.44334039489999
 21
59.4706960763
 31
0.0
  0
LINE
  5
7B
330
1F
100
AcDbEntity
  8
DIMENSION
100
AcDbLine
 10
89.04700035719999
 20
59.4706960763
 30
0.0
 11
89.51270564719999
 21
59.8782998108
 31
0.0
  0
LINE
  5
7C
330
1F
100
AcDbEntity
  8
DIMENSION
100
AcDbLine
 10
174.5262597272
 20
144.1318481489
 30
0.0
 11
175.6177066649
 21
104.7885743267
 31
0.0
  0
LINE
  5
7D
330
1F
100
AcDbEntity
  8
DIMENSION
100
AcDbLine
 10
183.6146300463
 20
105.0104220961
 30
0.0
 11
182.5231831086
 21
144.3536959182
 31
0.0
  0
CIRCLE
  5
7E
330
1F
100
AcDbEntity
  8
DIMENSION
100
AcDbCircle
 10
80.24517037609999
 20
82.76683950410001
 30
0.0
 40
12.7
  0
ARC
  5
7F
330
1F
100
AcDbEntity
  8
DIMENSION
100
AcDbCircle
 10
80.24517037669999
 20
82.76683950469999
 30
0.0
 40
12.9
100
AcDbArc
 50
320.4723767131
 51
140.120922456
  0
ARC
  5
80
330
1F
100
AcDbEntity
  8
DIMENSION
100
AcDbCircle
 10
80.24517037669999
 20
82.76683950469999
 30
0.0
 40
12.9
100
AcDbArc
 50
140.120922456
 51
219.5276232773
  0
ARC
  5
81
330
1F
100
AcDbEntity
  8
DIMENSION
100
AcDbCircle
 10
80.24517037669999
 20
82.76683950469999
 30
0.0
 40
20.00000000000001
100
AcDbArc
 50
299.8347387032
 51
140.120922456
  0
ARC
  5
82
330
1F
100
AcDbEntity
  8
DIMENSION
100
AcDbCircle
 10
80.24517037669999
 20
82.76683950469999
 30
0.0
 40
20.00000000000001
100
AcDbArc
 50
140.120922456
 51
240.1652612922
  0
CIRCLE
  5
83
330
1F
100
AcDbEntity
  8
DIMENSION
100
AcDbCircle
 10
80.24517037669999
 20
82.76683950469999
 30
0.0
 40
26.99999999999999
  0
LINE
  5
84
330
1F
100
AcDbEntity
  8
DIMENSION
100
AcDbLine
 10
220.245170376
 20
42.766839504
 30
0.0
 11
40.24517037599999
 21
42.766839504
 31
0.0
  0
LINE
  5
85
330
1F
100
AcDbEntity
  8
DIMENSION
100
AcDbLine
 10
40.24517037599999
 20
42.766839504
 30
0.0
 11
40.24517037599999
 21
122.766839504
 31
0.0
  0
LINE
  5
86
330
1F
100
AcDbEntity
  8
DIMENSION
100
AcDbLine
 10
40.24517037599999
 20
122.766839504
 30
0.0
 11
175.1189601051
 21
122.766839504
 31
0.0
  0
LINE
  5
87
330
1F
100
AcDbEntity
  8
DIMENSION
100
AcDbLine
 10
183.1220379074
 20
122.766839504
 30
0.0
 11
220.245170376
 21
122.766839504
 31
0.0
  0
LINE
  5
88
330
1F
100
AcDbEntity
  8
DIMENSION
100
AcDbLine
 10
220.245170376
 20
122.766839504
 30
0.0
 11
220.245170376
 21
42.766839504
 31
0.0
  0
LWPOLYLINE
  5
89
330
1F
100
AcDbEntity
  8
DIMENSION
100
AcDbPolyline
 90
        8
 70
   128
 43
0.0
 10
73.8013830963
 20
60.06776165609999
 10
73.6420752391
 20
60.2228888011
 10
73.37515505409999
 20
60.6498898486
 10
73.34218500119999
 20
61.0863952674
 10
73.5442878361
 20
61.5175403891
 10
73.97458118899999
 20
61.92864308369999
 10
74.6184119359
 20
62.3057037419
 10
74.7645939299
 20
62.3730386338
  0
LWPOLYLINE
  5
8A
330
1F
100
AcDbEntity
  8
DIMENSION
100
AcDbPolyline
 90
        7
 70
   128
 43
0.0
 10
85.7257468218
 20
62.373038634
 10
86.3564848426
 20
62.0380439583
 10
86.84826551299998
 20
61.6350882908
 10
87.11518569799999
 20
61.2080872434
 10
87.14815575080001
 20
60.77158182449999
 10
86.946052916
 20
60.34043670279999
 10
86.6889576558
 20
60.06776165609999
  0
LWPOLYLINE
  5
8B
330
1F
100
AcDbEntity
  8
DIMENSION
100
AcDbPolyline
 90
       34
 70
   128
 43
0.0
 10
83.8734158291
 20
58.75394861850001
 10
84.8553823699
 20
59.0230081026
 10
85.67072383740001
 20
59.350765804
 10
86.2899716667
 20
59.7253757055
 10
86.6907446277
 20
60.13329842899999
 10
86.85855774149999
 20
60.55979058470001
 10
86.78734580489999
 20
60.9894376347
 10
86.47968260290001
 20
61.40671101529999
 10
85.9466878851
 20
61.7965293792
 10
85.2076254694
 20
62.1448036751
 10
84.28920699699999
 20
62.4389463627
 10
83.22462650449999
 20
62.6683263586
 10
82.0523607047
 20
62.82465327229999
 10
80.81477833779999
 20
62.90227704180001
 10
79.55660885499999
 20
62.8983921418
 10
78.32332577969999
 20
62.8131389827
 10
77.1595031753
 20
62.6495988359
 10
76.10720462329999
 20
62.41368246819999
 10
75.2044629349
 20
62.11391651199999
 10
74.4839055468
 20
61.7611352899
 10
73.97157528060001
 20
61.3680892344
 10
73.68598908670001
 20
60.94898405409999
 10
73.63746879449999
 20
60.5189673021
 10
73.82776805359999
 20
60.09358090420001
 10
74.25000895300001
 20
59.6881994333
 10
74.88893060649999
 20
59.31747443189999
 10
75.7214407208
 20
58.99480486739999
 10
76.7174502113
 20
58.73185285859999
 10
77.84096069989999
 20
58.53812217619999
 10
79.05136559039999
 20
58.4206147519
 10
80.30491769619999
 20
58.38357761010001
 10
81.55631037819999
 20
58.4283493696
 10
82.7603150444
 20
58.5533118624
 10
83.8734158291
 20
58.75394861850001
  0
LWPOLYLINE
  5
8C
330
1F
100
AcDbEntity
  8
DIMENSION
100
AcDbPolyline
 90
       33
 70
   128
 43
0.0
 10
83.67150331149998
 20
58.8593017655
 10
84.62542704609999
 20
59.12227488560001
 10
85.41101997330001
 20
59.4438454404
 10
85.9980921975
 20
59.8116556536
 10
86.3640828624
 20
60.2115707852
 10
86.494927152
 20
60.6282223209
 10
86.3855967936
 20
61.04559857579999
 10
86.0402932915
 20
61.44766001449999
 10
85.4722864658
 20
61.8189556414
 10
84.70340450010001
 20
62.1452167738
 10
83.7631950972
 20
62.4139053794
 10
82.68778997730001
 20
62.6146959056
 10
81.5185163559
 20
62.7398720853
 10
80.30030876259999
 20
62.784623468
 10
79.07998223199999
 20
62.7472302831
 10
77.90443322829999
 20
62.62912952989999
 10
76.81883744060001
 20
62.43485975390001
 10
75.86491370600001
 20
62.17188663379999
 10
75.07932077879999
 20
61.8503160791
 10
74.49224855459999
 20
61.4825058658
 10
74.1262578897
 20
61.08259073420001
 10
73.99541360010001
 20
60.66593919859999
 10
74.10474395850001
 20
60.2485629437
 10
74.4500474606
 20
59.846501505
 10
75.01805428629999
 20
59.475205878
 10
75.786936252
 20
59.1489447456
 10
76.7271456549
 20
58.8802561401
 10
77.80255077479999
 20
58.6794656138
 10
78.9718243962
 20
58.5542894341
 10
80.19003198950001
 20
58.50953805149999
 10
81.4103585201
 20
58.5469312363
 10
82.58590752379999
 20
58.6650319896
 10
83.67150331149998
 20
58.8593017655
  0
ARC
  5
8D
330
1F
100
AcDbEntity
  8
DIMENSION
100
AcDbCircle
 10
74.74466441069999
 20
60.8365624678
 30
0.0
 40
0.749561313320171
100
AcDbArc
 50
184.4644239475
 51
190.9786827609
  0
LINE
  5
8E
330
1F
100
AcDbEntity
  8
DIMENSION
100
AcDbLine
 10
74.1992861983
 20
60.6975060176
 30
0.0
 11
74.1992861983
 21
60.29318073199999
 31
0.0
  0
ARC
  5
8F
330
1F
100
AcDbEntity
  8
DIMENSION
100
AcDbCircle
 10
75.3327571092
 20
61.1633668609
 30
0.0
 40
1.428978727843685
100
AcDbArc
 50
217.5141016489
 51
221.8783267283
  0
LINE
  5
90
330
1F
100
AcDbEntity
  8
DIMENSION
100
AcDbLine
 10
74.71028118060001
 20
60.1619180699
 30
0.0
 11
74.71028118060001
 21
59.8421293533
 31
0.0
  0
ARC
  5
91
330
1F
100
AcDbEntity
  8
DIMENSION
100
AcDbCircle
 10
77.02830329290001
 20
63.4741132181
 30
0.0
 40
4.3086579474251
100
AcDbArc
 50
237.4529720676
 51
247.4380654745
  0
LINE
  5
92
330
1F
100
AcDbEntity
  8
DIMENSION
100
AcDbLine
 10
76.1838465078
 20
59.39304674649999
 30
0.0
 11
76.1838465078
 21
59.2102202601
 31
0.0
  0
ARC
  5
93
330
1F
100
AcDbEntity
  8
DIMENSION
100
AcDbCircle
 10
78.8377391059
 20
68.29164163289999
 30
0.0
 40
9.461255734432713
100
AcDbArc
 50
253.7098860801
 51
254.9474579025
  0
LINE
  5
94
330
1F
100
AcDbEntity
  8
DIMENSION
100
AcDbLine
 10
77.37875348830001
 20
59.2062898011
 30
0.0
 11
77.37875348830001
 21
58.93546286340001
 31
0.0
  0
ARC
  5
95
330
1F
100
AcDbEntity
  8
DIMENSION
100
AcDbCircle
 10
79.77213168609999
 20
72.49972250449999
 30
0.0
 40
13.77379391488678
100
AcDbArc
 50
259.9933092762
 51
260.9285842348
  0
LINE
  5
96
330
1F
100
AcDbEntity
  8
DIMENSION
100
AcDbLine
 10
78.7226635369
 20
58.9417866005
 30
0.0
 11
78.7226635369
 21
58.7617882758
 31
0.0
  0
ARC
  5
97
330
1F
100
AcDbEntity
  8
DIMENSION
100
AcDbCircle
 10
80.18359994550001
 20
75.774572233
 30
0.0
 40
17.07539613491678
100
AcDbArc
 50
265.0918883166
 51
265.936183127
  0
ARC
  5
98
330
1F
100
AcDbEntity
  8
DIMENSION
100
AcDbCircle
 10
80.2451613672
 20
76.9641723766
 30
0.0
 40
18.26677902573832
100
AcDbArc
 50
269.3109941343
 51
270.1282683531
  0
LINE
  5
99
330
1F
100
AcDbEntity
  8
DIMENSION
100
AcDbLine
 10
80.28605526419999
 20
59.08102413289999
 30
0.0
 11
80.28605526419999
 21
58.6974391255
 31
0.0
  0
LINE
  5
9A
330
1F
100
AcDbEntity
  8
DIMENSION
100
AcDbLine
 10
81.0472206532
 20
59.03903926219999
 30
0.0
 11
81.0472206532
 21
58.7150677605
 31
0.0
  0
ARC
  5
9B
330
1F
100
AcDbEntity
  8
DIMENSION
100
AcDbCircle
 10
80.26494975330001
 20
76.40257170569999
 30
0.0
 40
17.70479436683464
100
AcDbArc
 50
272.5323884806
 51
273.5430533307
  0
ARC
  5
9C
330
1F
100
AcDbEntity
  8
DIMENSION
100
AcDbCircle
 10
80.47544753809999
 20
74.1464343575
 30
0.0
 40
15.43840236250673
100
AcDbArc
 50
276.8213947786
 51
277.5985315933001
  0
LINE
  5
9D
330
1F
100
AcDbEntity
  8
DIMENSION
100
AcDbLine
 10
82.51688271729999
 20
58.98152025209999
 30
0.0
 11
82.51688271729999
 21
58.8435976951
 31
0.0
  0
ARC
  5
9E
330
1F
100
AcDbEntity
  8
DIMENSION
100
AcDbCircle
 10
81.15424531229999
 20
70.2733887207
 30
0.0
 40
11.50491184145223
100
AcDbArc
 50
282.175567317
 51
283.0969989986
  0
LINE
  5
9F
330
1F
100
AcDbEntity
  8
DIMENSION
100
AcDbLine
 10
83.7612617047
 20
59.2938855761
 30
0.0
 11
83.7612617047
 21
59.06774451739999
 31
0.0
  0
ARC
  5
A0
330
1F
100
AcDbEntity
  8
DIMENSION
100
AcDbCircle
 10
82.3189428661
 20
66.18729277469999
 30
0.0
 40
7.253537268994464
100
AcDbArc
 50
288.9801885205
 51
290.2660876564
  0
LINE
  5
A1
330
1F
100
AcDbEntity
  8
DIMENSION
100
AcDbLine
 10
84.8314265233
 20
59.49263013260001
 30
0.0
 11
84.8314265233
 21
59.3827921475
 31
0.0
  0
ARC
  5
A2
330
1F
100
AcDbEntity
  8
DIMENSION
100
AcDbCircle
 10
83.5739154356
 20
63.3019704526
 30
0.0
 40
4.104261572037446
100
AcDbArc
 50
297.0467696015
 51
299.7252014066
  0
LINE
  5
A3
330
1F
100
AcDbEntity
  8
DIMENSION
100
AcDbLine
 10
85.6089753086
 20
60.1434215031
 30
0.0
 11
85.6089753086
 21
59.7377742788
 31
0.0
  0
ARC
  5
A4
330
1F
100
AcDbEntity
  8
DIMENSION
100
AcDbCircle
 10
84.5785400003
 20
61.7607603601
 30
0.0
 40
2.262048163562443
100
AcDbArc
 50
307.6373762899
 51
310.9272977151
  0
LINE
  5
A5
330
1F
100
AcDbEntity
  8
DIMENSION
100
AcDbLine
 10
86.06040968509999
 20
60.35765659399999
 30
0.0
 11
86.06040968509999
 21
60.0516892289
 31
0.0
  0
ARC
  5
A6
330
1F
100
AcDbEntity
  8
DIMENSION
100
AcDbCircle
 10
85.4860907874
 20
60.93495601449999
 30
0.0
 40
1.02838451663232
100
AcDbArc
 50
328.5853433892
 51
334.0814263546
  0
LINE
  5
A7
330
1F
100
AcDbEntity
  8
DIMENSION
100
AcDbLine
 10
86.41103641269999
 20
60.8898791252
 30
0.0
 11
86.41103641269999
 21
60.4854559541
 31
0.0
  0
LINE
  5
A8
330
1F
100
AcDbEntity
  8
DIMENSION
100
AcDbLine
 10
79.93739818209999
 20
60.6262284289
 30
0.0
 11
80.61996128249999
 21
60.6394623072
 31
0.0
  0
LINE
  5
A9
330
1F
100
AcDbEntity
  8
DIMENSION
100
AcDbLine
 10
80.92773347640001
 20
60.8482531622
 30
0.0
 11
80.61996128249999
 21
60.6394623072
 31
0.0
  0
LINE
  5
AA
330
1F
100
AcDbEntity
  8
DIMENSION
100
AcDbLine
 10
80.92773347640001
 20
60.8482531622
 30
0.0
 11
80.55294256999999
 21
61.04381013890001
 31
0.0
  0
LINE
  5
AB
330
1F
100
AcDbEntity
  8
DIMENSION
100
AcDbLine
 10
80.55294256999999
 20
61.04381013890001
 30
0.0
 11
79.8703794696
 21
61.0305762605
 31
0.0
  0
LINE
  5
AC
330
1F
100
AcDbEntity
  8
DIMENSION
100
AcDbLine
 10
79.56260727570001
 20
60.8217854055
 30
0.0
 11
79.8703794696
 21
61.0305762605
 31
0.0
  0
LINE
  5
AD
330
1F
100
AcDbEntity
  8
DIMENSION
100
AcDbLine
 10
79.56260727570001
 20
60.8217854055
 30
0.0
 11
79.93739818209999
 21
60.6262284289
 31
0.0
  0
LINE
  5
AE
330
1F
100
AcDbEntity
  8
DIMENSION
100
AcDbLine
 10
78.185733462
 20
62.2789635223
 30
0.0
 11
77.81094255560001
 21
62.4745204989
 31
0.0
  0
LINE
  5
AF
330
1F
100
AcDbEntity
  8
DIMENSION
100
AcDbLine
 10
77.81094255560001
 20
62.4745204989
 30
0.0
 11
77.1283794552
 21
62.46128662060001
 31
0.0
  0
LINE
  5
B0
330
1F
100
AcDbEntity
  8
DIMENSION
100
AcDbLine
 10
76.8206072613
 20
62.2524957656
 30
0.0
 11
77.1283794552
 21
62.46128662060001
 31
0.0
  0
LINE
  5
B1
330
1F
100
AcDbEntity
  8
DIMENSION
100
AcDbLine
 10
77.19539816770001
 20
62.056938789
 30
0.0
 11
76.8206072613
 21
62.2524957656
 31
0.0
  0
LINE
  5
B2
330
1F
100
AcDbEntity
  8
DIMENSION
100
AcDbLine
 10
77.8779612681
 20
62.07017266729999
 30
0.0
 11
77.19539816770001
 21
62.056938789
 31
0.0
  0
LINE
  5
B3
330
1F
100
AcDbEntity
  8
DIMENSION
100
AcDbLine
 10
77.8779612681
 20
62.07017266729999
 30
0.0
 11
78.185733462
 21
62.2789635223
 31
0.0
  0
LINE
  5
B4
330
1F
100
AcDbEntity
  8
DIMENSION
100
AcDbLine
 10
77.02027290709999
 20
62.01363893979999
 30
0.0
 11
76.707087264
 21
61.8076726938
 31
0.0
  0
LINE
  5
B5
330
1F
100
AcDbEntity
  8
DIMENSION
100
AcDbLine
 10
76.6454820006
 20
62.20919591649999
 30
0.0
 11
77.02027290709999
 21
62.01363893979999
 31
0.0
  0
LINE
  5
B6
330
1F
100
AcDbEntity
  8
DIMENSION
100
AcDbLine
 10
75.96291890020001
 20
62.19596203810001
 30
0.0
 11
76.6454820006
 21
62.20919591649999
 31
0.0
  0
LINE
  5
B7
330
1F
100
AcDbEntity
  8
DIMENSION
100
AcDbLine
 10
75.6551467063
 20
61.9871711832
 30
0.0
 11
75.96291890020001
 21
62.19596203810001
 31
0.0
  0
LINE
  5
B8
330
1F
100
AcDbEntity
  8
DIMENSION
100
AcDbLine
 10
76.0299376128
 20
61.79161420649999
 30
0.0
 11
75.6551467063
 21
61.9871711832
 31
0.0
  0
LINE
  5
B9
330
1F
100
AcDbEntity
  8
DIMENSION
100
AcDbLine
 10
76.707087264
 20
61.8076726938
 30
0.0
 11
76.0299376128
 21
61.79161420649999
 31
0.0
  0
LINE
  5
BA
330
1F
100
AcDbEntity
  8
DIMENSION
100
AcDbLine
 10
74.5924558775
 20
61.2315067195
 30
0.0
 11
74.9002280714
 21
61.4402975745
 31
0.0
  0
LINE
  5
BB
330
1F
100
AcDbEntity
  8
DIMENSION
100
AcDbLine
 10
74.96724678390001
 20
61.0359497429
 30
0.0
 11
74.5924558775
 21
61.2315067195
 31
0.0
  0
LINE
  5
BC
330
1F
100
AcDbEntity
  8
DIMENSION
100
AcDbLine
 10
75.6443964352
 20
61.0520082301
 30
0.0
 11
74.96724678390001
 21
61.0359497429
 31
0.0
  0
LINE
  5
BD
330
1F
100
AcDbEntity
  8
DIMENSION
100
AcDbLine
 10
75.95758207819999
 20
61.2579744762
 30
0.0
 11
75.6443964352
 21
61.0520082301
 31
0.0
  0
LINE
  5
BE
330
1F
100
AcDbEntity
  8
DIMENSION
100
AcDbLine
 10
75.58279117179999
 20
61.4535314528
 30
0.0
 11
75.95758207819999
 21
61.2579744762
 31
0.0
  0
LINE
  5
BF
330
1F
100
AcDbEntity
  8
DIMENSION
100
AcDbLine
 10
74.9002280714
 20
61.4402975745
 30
0.0
 11
75.58279117179999
 21
61.4535314528
 31
0.0
  0
LINE
  5
C0
330
1F
100
AcDbEntity
  8
DIMENSION
100
AcDbLine
 10
77.1230426332
 20
61.5232990586
 30
0.0
 11
76.8152704393
 21
61.3145082036
 31
0.0
  0
LINE
  5
C1
330
1F
100
AcDbEntity
  8
DIMENSION
100
AcDbLine
 10
76.74825172670001
 20
61.7188560352
 30
0.0
 11
77.1230426332
 21
61.5232990586
 31
0.0
  0
LINE
  5
C2
330
1F
100
AcDbEntity
  8
DIMENSION
100
AcDbLine
 10
76.0656886263
 20
61.7056221569
 30
0.0
 11
76.74825172670001
 21
61.7188560352
 31
0.0
  0
LINE
  5
C3
330
1F
100
AcDbEntity
  8
DIMENSION
100
AcDbLine
 10
75.75791643239999
 20
61.49683130189999
 30
0.0
 11
76.0656886263
 21
61.7056221569
 31
0.0
  0
LINE
  5
C4
330
1F
100
AcDbEntity
  8
DIMENSION
100
AcDbLine
 10
76.13270733890001
 20
61.3012743253
 30
0.0
 11
75.75791643239999
 21
61.49683130189999
 31
0.0
  0
LINE
  5
C5
330
1F
100
AcDbEntity
  8
DIMENSION
100
AcDbLine
 10
76.8152704393
 20
61.3145082036
 30
0.0
 11
76.13270733890001
 21
61.3012743253
 31
0.0
  0
LINE
  5
C6
330
1F
100
AcDbEntity
  8
DIMENSION
100
AcDbLine
 10
78.28850318819999
 20
61.788623641
 30
0.0
 11
77.9753175451
 21
61.582657395
 31
0.0
  0
LINE
  5
C7
330
1F
100
AcDbEntity
  8
DIMENSION
100
AcDbLine
 10
77.9137122817
 20
61.9841806177
 30
0.0
 11
78.28850318819999
 21
61.788623641
 31
0.0
  0
LINE
  5
C8
330
1F
100
AcDbEntity
  8
DIMENSION
100
AcDbLine
 10
77.2311491813
 20
61.9709467393
 30
0.0
 11
77.9137122817
 21
61.9841806177
 31
0.0
  0
LINE
  5
C9
330
1F
100
AcDbEntity
  8
DIMENSION
100
AcDbLine
 10
76.92337698740001
 20
61.76215588439999
 30
0.0
 11
77.2311491813
 21
61.9709467393
 31
0.0
  0
LINE
  5
CA
330
1F
100
AcDbEntity
  8
DIMENSION
100
AcDbLine
 10
77.2981678938
 20
61.56659890770001
 30
0.0
 11
76.92337698740001
 21
61.76215588439999
 31
0.0
  0
LINE
  5
CB
330
1F
100
AcDbEntity
  8
DIMENSION
100
AcDbLine
 10
77.9753175451
 20
61.582657395
 30
0.0
 11
77.2981678938
 21
61.56659890770001
 31
0.0
  0
LINE
  5
CC
330
1F
100
AcDbEntity
  8
DIMENSION
100
AcDbLine
 10
79.5567334692
 20
61.5636083423
 30
0.0
 11
79.1819425628
 21
61.7591653189
 31
0.0
  0
LINE
  5
CD
330
1F
100
AcDbEntity
  8
DIMENSION
100
AcDbLine
 10
79.1819425628
 20
61.7591653189
 30
0.0
 11
78.4993794624
 21
61.7459314405
 31
0.0
  0
LINE
  5
CE
330
1F
100
AcDbEntity
  8
DIMENSION
100
AcDbLine
 10
78.1916072685
 20
61.53714058560001
 30
0.0
 11
78.4993794624
 21
61.7459314405
 31
0.0
  0
LINE
  5
CF
330
1F
100
AcDbEntity
  8
DIMENSION
100
AcDbLine
 10
78.5663981749
 20
61.3415836089
 30
0.0
 11
78.1916072685
 21
61.53714058560001
 31
0.0
  0
LINE
  5
D0
330
1F
100
AcDbEntity
  8
DIMENSION
100
AcDbLine
 10
79.24896127529999
 20
61.3548174873
 30
0.0
 11
78.5663981749
 21
61.3415836089
 31
0.0
  0
LINE
  5
D1
330
1F
100
AcDbEntity
  8
DIMENSION
100
AcDbLine
 10
79.24896127529999
 20
61.3548174873
 30
0.0
 11
79.5567334692
 21
61.5636083423
 31
0.0
  0
LINE
  5
D2
330
1F
100
AcDbEntity
  8
DIMENSION
100
AcDbLine
 10
77.0261467135
 20
61.27181600310001
 30
0.0
 11
77.3339189074
 21
61.4806068581
 31
0.0
  0
LINE
  5
D3
330
1F
100
AcDbEntity
  8
DIMENSION
100
AcDbLine
 10
77.40093761999999
 20
61.07625902649999
 30
0.0
 11
77.0261467135
 21
61.27181600310001
 31
0.0
  0
LINE
  5
D4
330
1F
100
AcDbEntity
  8
DIMENSION
100
AcDbLine
 10
78.07808727120001
 20
61.0923175138
 30
0.0
 11
77.40093761999999
 21
61.07625902649999
 31
0.0
  0
LINE
  5
D5
330
1F
100
AcDbEntity
  8
DIMENSION
100
AcDbLine
 10
78.3912729143
 20
61.29828375979999
 30
0.0
 11
78.07808727120001
 21
61.0923175138
 31
0.0
  0
LINE
  5
D6
330
1F
100
AcDbEntity
  8
DIMENSION
100
AcDbLine
 10
78.01648200779999
 20
61.4938407364
 30
0.0
 11
78.3912729143
 21
61.29828375979999
 31
0.0
  0
LINE
  5
D7
330
1F
100
AcDbEntity
  8
DIMENSION
100
AcDbLine
 10
77.3339189074
 20
61.4806068581
 30
0.0
 11
78.01648200779999
 21
61.4938407364
 31
0.0
  0
LINE
  5
D8
330
1F
100
AcDbEntity
  8
DIMENSION
100
AcDbLine
 10
75.8606861585
 20
61.00649142069999
 30
0.0
 11
76.1684583525
 21
61.21528227569999
 31
0.0
  0
LINE
  5
D9
330
1F
100
AcDbEntity
  8
DIMENSION
100
AcDbLine
 10
76.235477065
 20
60.8109344441
 30
0.0
 11
75.8606861585
 21
61.00649142069999
 31
0.0
  0
LINE
  5
DA
330
1F
100
AcDbEntity
  8
DIMENSION
100
AcDbLine
 10
76.91262671629999
 20
60.8269929313
 30
0.0
 11
76.235477065
 21
60.8109344441
 31
0.0
  0
LINE
  5
DB
330
1F
100
AcDbEntity
  8
DIMENSION
100
AcDbLine
 10
77.2258123593
 20
61.03295917739999
 30
0.0
 11
76.91262671629999
 21
60.8269929313
 31
0.0
  0
LINE
  5
DC
330
1F
100
AcDbEntity
  8
DIMENSION
100
AcDbLine
 10
76.8510214529
 20
61.228516154
 30
0.0
 11
77.2258123593
 21
61.03295917739999
 31
0.0
  0
LINE
  5
DD
330
1F
100
AcDbEntity
  8
DIMENSION
100
AcDbLine
 10
76.1684583525
 20
61.21528227569999
 30
0.0
 11
76.8510214529
 21
61.228516154
 31
0.0
  0
LINE
  5
DE
330
1F
100
AcDbEntity
  8
DIMENSION
100
AcDbLine
 10
75.0646030609
 20
60.54843447060001
 30
0.0
 11
74.6898121544
 21
60.7439914472
 31
0.0
  0
LINE
  5
DF
330
1F
100
AcDbEntity
  8
DIMENSION
100
AcDbLine
 10
75.74175271219999
 20
60.5644929578
 30
0.0
 11
75.0646030609
 21
60.54843447060001
 31
0.0
  0
LINE
  5
E0
330
1F
100
AcDbEntity
  8
DIMENSION
100
AcDbLine
 10
76.0549383552
 20
60.7704592039
 30
0.0
 11
75.74175271219999
 21
60.5644929578
 31
0.0
  0
LINE
  5
E1
330
1F
100
AcDbEntity
  8
DIMENSION
100
AcDbLine
 10
75.6801474488
 20
60.9660161805
 30
0.0
 11
76.0549383552
 21
60.7704592039
 31
0.0
  0
LINE
  5
E2
330
1F
100
AcDbEntity
  8
DIMENSION
100
AcDbLine
 10
74.9975843484
 20
60.95278230219999
 30
0.0
 11
75.6801474488
 21
60.9660161805
 31
0.0
  0
LINE
  5
E3
330
1F
100
AcDbEntity
  8
DIMENSION
100
AcDbLine
 10
74.6898121544
 20
60.7439914472
 30
0.0
 11
74.9975843484
 21
60.95278230219999
 31
0.0
  0
LINE
  5
E4
330
1F
100
AcDbEntity
  8
DIMENSION
100
AcDbLine
 10
75.8391089892
 20
60.0769776856
 30
0.0
 11
75.1619593379
 21
60.0609191983
 31
0.0
  0
LINE
  5
E5
330
1F
100
AcDbEntity
  8
DIMENSION
100
AcDbLine
 10
76.1522946322
 20
60.2829439316
 30
0.0
 11
75.8391089892
 21
60.0769776856
 31
0.0
  0
LINE
  5
E6
330
1F
100
AcDbEntity
  8
DIMENSION
100
AcDbLine
 10
75.7775037257
 20
60.47850090819999
 30
0.0
 11
76.1522946322
 21
60.2829439316
 31
0.0
  0
LINE
  5
E7
330
1F
100
AcDbEntity
  8
DIMENSION
100
AcDbLine
 10
75.09494062539999
 20
60.4652670299
 30
0.0
 11
75.7775037257
 21
60.47850090819999
 31
0.0
  0
LINE
  5
E8
330
1F
100
AcDbEntity
  8
DIMENSION
100
AcDbLine
 10
74.7871684314
 20
60.25647617489999
 30
0.0
 11
75.09494062539999
 21
60.4652670299
 31
0.0
  0
LINE
  5
E9
330
1F
100
AcDbEntity
  8
DIMENSION
100
AcDbLine
 10
75.1619593379
 20
60.0609191983
 30
0.0
 11
74.7871684314
 21
60.25647617489999
 31
0.0
  0
LINE
  5
EA
330
1F
100
AcDbEntity
  8
DIMENSION
100
AcDbLine
 10
77.0099829932
 20
60.33947765909999
 30
0.0
 11
76.332833342
 21
60.32341917180001
 31
0.0
  0
LINE
  5
EB
330
1F
100
AcDbEntity
  8
DIMENSION
100
AcDbLine
 10
77.3231686363
 20
60.5454439051
 30
0.0
 11
77.0099829932
 21
60.33947765909999
 31
0.0
  0
LINE
  5
EC
330
1F
100
AcDbEntity
  8
DIMENSION
100
AcDbLine
 10
76.9483777298
 20
60.7410008817
 30
0.0
 11
77.3231686363
 21
60.5454439051
 31
0.0
  0
LINE
  5
ED
330
1F
100
AcDbEntity
  8
DIMENSION
100
AcDbLine
 10
76.26581462939999
 20
60.7277670034
 30
0.0
 11
76.9483777298
 21
60.7410008817
 31
0.0
  0
LINE
  5
EE
330
1F
100
AcDbEntity
  8
DIMENSION
100
AcDbLine
 10
75.9580424355
 20
60.5189761484
 30
0.0
 11
76.26581462939999
 21
60.7277670034
 31
0.0
  0
LINE
  5
EF
330
1F
100
AcDbEntity
  8
DIMENSION
100
AcDbLine
 10
76.332833342
 20
60.32341917180001
 30
0.0
 11
75.9580424355
 21
60.5189761484
 31
0.0
  0
LINE
  5
F0
330
1F
100
AcDbEntity
  8
DIMENSION
100
AcDbLine
 10
78.1808569973
 20
60.6019776325
 30
0.0
 11
77.5037073461
 21
60.5859191453
 31
0.0
  0
LINE
  5
F1
330
1F
100
AcDbEntity
  8
DIMENSION
100
AcDbLine
 10
78.4940426404
 20
60.8079438786
 30
0.0
 11
78.1808569973
 21
60.6019776325
 31
0.0
  0
LINE
  5
F2
330
1F
100
AcDbEntity
  8
DIMENSION
100
AcDbLine
 10
78.1192517339
 20
61.0035008552
 30
0.0
 11
78.4940426404
 21
60.8079438786
 31
0.0
  0
LINE
  5
F3
330
1F
100
AcDbEntity
  8
DIMENSION
100
AcDbLine
 10
77.43668863349999
 20
60.9902669769
 30
0.0
 11
78.1192517339
 21
61.0035008552
 31
0.0
  0
LINE
  5
F4
330
1F
100
AcDbEntity
  8
DIMENSION
100
AcDbLine
 10
77.1289164396
 20
60.7814761219
 30
0.0
 11
77.43668863349999
 21
60.9902669769
 31
0.0
  0
LINE
  5
F5
330
1F
100
AcDbEntity
  8
DIMENSION
100
AcDbLine
 10
77.5037073461
 20
60.5859191453
 30
0.0
 11
77.1289164396
 21
60.7814761219
 31
0.0
  0
LINE
  5
F6
330
1F
100
AcDbEntity
  8
DIMENSION
100
AcDbLine
 10
79.3517310014
 20
60.864477606
 30
0.0
 11
78.66916790100001
 21
60.8512437277
 31
0.0
  0
LINE
  5
F7
330
1F
100
AcDbEntity
  8
DIMENSION
100
AcDbLine
 10
79.6595031954
 20
61.07326846100001
 30
0.0
 11
79.3517310014
 21
60.864477606
 31
0.0
  0
LINE
  5
F8
330
1F
100
AcDbEntity
  8
DIMENSION
100
AcDbLine
 10
79.28471228890001
 20
61.2688254376
 30
0.0
 11
79.6595031954
 21
61.07326846100001
 31
0.0
  0
LINE
  5
F9
330
1F
100
AcDbEntity
  8
DIMENSION
100
AcDbLine
 10
78.60214918850001
 20
61.2555915593
 30
0.0
 11
79.28471228890001
 21
61.2688254376
 31
0.0
  0
LINE
  5
FA
330
1F
100
AcDbEntity
  8
DIMENSION
100
AcDbLine
 10
78.2943769946
 20
61.0468007043
 30
0.0
 11
78.60214918850001
 21
61.2555915593
 31
0.0
  0
LINE
  5
FB
330
1F
100
AcDbEntity
  8
DIMENSION
100
AcDbLine
 10
78.66916790100001
 20
60.8512437277
 30
0.0
 11
78.2943769946
 21
61.0468007043
 31
0.0
  0
LINE
  5
FC
330
1F
100
AcDbEntity
  8
DIMENSION
100
AcDbLine
 10
78.39173327160001
 20
60.559285432
 30
0.0
 11
78.6995054655
 21
60.768076287
 31
0.0
  0
LINE
  5
FD
330
1F
100
AcDbEntity
  8
DIMENSION
100
AcDbLine
 10
78.39173327160001
 20
60.559285432
 30
0.0
 11
78.76652417799999
 21
60.3637284554
 31
0.0
  0
LINE
  5
FE
330
1F
100
AcDbEntity
  8
DIMENSION
100
AcDbLine
 10
78.76652417799999
 20
60.3637284554
 30
0.0
 11
79.4490872784
 21
60.3769623338
 31
0.0
  0
LINE
  5
FF
330
1F
100
AcDbEntity
  8
DIMENSION
100
AcDbLine
 10
79.4490872784
 20
60.3769623338
 30
0.0
 11
79.75685947229999
 21
60.5857531887
 31
0.0
  0
LINE
  5
100
330
1F
100
AcDbEntity
  8
DIMENSION
100
AcDbLine
 10
79.75685947229999
 20
60.5857531887
 30
0.0
 11
79.38206856589999
 21
60.7813101654
 31
0.0
  0
LINE
  5
101
330
1F
100
AcDbEntity
  8
DIMENSION
100
AcDbLine
 10
78.6995054655
 20
60.768076287
 30
0.0
 11
79.38206856589999
 21
60.7813101654
 31
0.0
  0
LINE
  5
102
330
1F
100
AcDbEntity
  8
DIMENSION
100
AcDbLine
 10
77.22085926750001
 20
60.2967854585
 30
0.0
 11
77.52863146140001
 21
60.5055763135
 31
0.0
  0
LINE
  5
103
330
1F
100
AcDbEntity
  8
DIMENSION
100
AcDbLine
 10
77.22085926750001
 20
60.2967854585
 30
0.0
 11
77.59565017389999
 21
60.10122848189999
 31
0.0
  0
LINE
  5
104
330
1F
100
AcDbEntity
  8
DIMENSION
100
AcDbLine
 10
77.59565017389999
 20
60.10122848189999
 30
0.0
 11
78.2782132743
 21
60.1144623603
 31
0.0
  0
LINE
  5
105
330
1F
100
AcDbEntity
  8
DIMENSION
100
AcDbLine
 10
78.2782132743
 20
60.1144623603
 30
0.0
 11
78.58598546819999
 21
60.32325321520001
 31
0.0
  0
LINE
  5
106
330
1F
100
AcDbEntity
  8
DIMENSION
100
AcDbLine
 10
78.58598546819999
 20
60.32325321520001
 30
0.0
 11
78.21119456179999
 21
60.51881019189999
 31
0.0
  0
LINE
  5
107
330
1F
100
AcDbEntity
  8
DIMENSION
100
AcDbLine
 10
77.52863146140001
 20
60.5055763135
 30
0.0
 11
78.21119456179999
 21
60.51881019189999
 31
0.0
  0
LINE
  5
108
330
1F
100
AcDbEntity
  8
DIMENSION
100
AcDbLine
 10
76.04998526340001
 20
60.0342854851
 30
0.0
 11
76.3577574573
 21
60.24307634
 31
0.0
  0
LINE
  5
109
330
1F
100
AcDbEntity
  8
DIMENSION
100
AcDbLine
 10
76.04998526340001
 20
60.0342854851
 30
0.0
 11
76.42477616979999
 21
59.8387285084
 31
0.0
  0
LINE
  5
10A
330
1F
100
AcDbEntity
  8
DIMENSION
100
AcDbLine
 10
76.42477616979999
 20
59.8387285084
 30
0.0
 11
77.1073392702
 21
59.8519623868
 31
0.0
  0
LINE
  5
10B
330
1F
100
AcDbEntity
  8
DIMENSION
100
AcDbLine
 10
77.1073392702
 20
59.8519623868
 30
0.0
 11
77.41511146419999
 21
60.0607532417
 31
0.0
  0
LINE
  5
10C
330
1F
100
AcDbEntity
  8
DIMENSION
100
AcDbLine
 10
77.41511146419999
 20
60.0607532417
 30
0.0
 11
77.04032055769999
 21
60.2563102184
 31
0.0
  0
LINE
  5
10D
330
1F
100
AcDbEntity
  8
DIMENSION
100
AcDbLine
 10
76.3577574573
 20
60.24307634
 30
0.0
 11
77.04032055769999
 21
60.2563102184
 31
0.0
  0
LINE
  5
10E
330
1F
100
AcDbEntity
  8
DIMENSION
100
AcDbLine
 10
74.87911125930001
 20
59.7717855116
 30
0.0
 11
75.1868834532
 21
59.98057636649999
 31
0.0
  0
LINE
  5
10F
330
1F
100
AcDbEntity
  8
DIMENSION
100
AcDbLine
 10
74.87911125930001
 20
59.7717855116
 30
0.0
 11
75.25390216569999
 21
59.5762285349
 31
0.0
  0
LINE
  5
110
330
1F
100
AcDbEntity
  8
DIMENSION
100
AcDbLine
 10
75.25390216569999
 20
59.5762285349
 30
0.0
 11
75.9364652661
 21
59.5894624133
 31
0.0
  0
LINE
  5
111
330
1F
100
AcDbEntity
  8
DIMENSION
100
AcDbLine
 10
75.9364652661
 20
59.5894624133
 30
0.0
 11
76.24423746009999
 21
59.7982532682
 31
0.0
  0
LINE
  5
112
330
1F
100
AcDbEntity
  8
DIMENSION
100
AcDbLine
 10
76.24423746009999
 20
59.7982532682
 30
0.0
 11
75.86944655359999
 21
59.99381024489999
 31
0.0
  0
LINE
  5
113
330
1F
100
AcDbEntity
  8
DIMENSION
100
AcDbLine
 10
75.1868834532
 20
59.98057636649999
 30
0.0
 11
75.86944655359999
 21
59.99381024489999
 31
0.0
  0
LINE
  5
114
330
1F
100
AcDbEntity
  8
DIMENSION
100
AcDbLine
 10
74.57087870810001
 20
60.30199298439999
 30
0.0
 11
74.1992861983
 21
60.29318073199999
 31
0.0
  0
LINE
  5
115
330
1F
100
AcDbEntity
  8
DIMENSION
100
AcDbLine
 10
74.88406435109999
 20
60.50795923039999
 30
0.0
 11
74.57087870810001
 21
60.30199298439999
 31
0.0
  0
LINE
  5
116
330
1F
100
AcDbEntity
  8
DIMENSION
100
AcDbLine
 10
74.5092734447
 20
60.703516207
 30
0.0
 11
74.88406435109999
 21
60.50795923039999
 31
0.0
  0
LINE
  5
117
330
1F
100
AcDbEntity
  8
DIMENSION
100
AcDbLine
 10
74.0088214882
 20
60.6938131916
 30
0.0
 11
74.5092734447
 21
60.703516207
 31
0.0
  0
LINE
  5
118
330
1F
100
AcDbEntity
  8
DIMENSION
100
AcDbLine
 10
74.4735224311
 20
60.7895082566
 30
0.0
 11
74.0069830244
 21
60.778444355
 31
0.0
  0
LINE
  5
119
330
1F
100
AcDbEntity
  8
DIMENSION
100
AcDbLine
 10
74.78670807410001
 20
60.99547450270001
 30
0.0
 11
74.4735224311
 21
60.7895082566
 31
0.0
  0
LINE
  5
11A
330
1F
100
AcDbEntity
  8
DIMENSION
100
AcDbLine
 10
74.41191716770001
 20
61.1910314793
 30
0.0
 11
74.78670807410001
 21
60.99547450270001
 31
0.0
  0
LINE
  5
11B
330
1F
100
AcDbEntity
  8
DIMENSION
100
AcDbLine
 10
74.1977259017
 20
61.1868786308
 30
0.0
 11
74.41191716770001
 21
61.1910314793
 31
0.0
  0
LINE
  5
11C
330
1F
100
AcDbEntity
  8
DIMENSION
100
AcDbLine
 10
74.3761661541
 20
61.2770235289
 30
0.0
 11
74.2704646573
 21
61.2745168362
 31
0.0
  0
LINE
  5
11D
330
1F
100
AcDbEntity
  8
DIMENSION
100
AcDbLine
 10
74.6893517972
 20
61.482989775
 30
0.0
 11
74.3761661541
 21
61.2770235289
 31
0.0
  0
LINE
  5
11E
330
1F
100
AcDbEntity
  8
DIMENSION
100
AcDbLine
 10
74.5721458319
 20
61.5441450587
 30
0.0
 11
74.6893517972
 21
61.482989775
 31
0.0
  0
LINE
  5
11F
330
1F
100
AcDbEntity
  8
DIMENSION
100
AcDbLine
 10
74.8644770578
 20
61.52628962409999
 30
0.0
 11
74.6821644909
 21
61.62141598319999
 31
0.0
  0
LINE
  5
120
330
1F
100
AcDbEntity
  8
DIMENSION
100
AcDbLine
 10
75.54704015819999
 20
61.53952350239999
 30
0.0
 11
74.8644770578
 21
61.52628962409999
 31
0.0
  0
LINE
  5
121
330
1F
100
AcDbEntity
  8
DIMENSION
100
AcDbLine
 10
75.8548123521
 20
61.74831435739999
 30
0.0
 11
75.54704015819999
 21
61.53952350239999
 31
0.0
  0
LINE
  5
122
330
1F
100
AcDbEntity
  8
DIMENSION
100
AcDbLine
 10
75.4800214457
 20
61.94387133399999
 30
0.0
 11
75.8548123521
 21
61.74831435739999
 31
0.0
  0
LINE
  5
123
330
1F
100
AcDbEntity
  8
DIMENSION
100
AcDbLine
 10
75.2674404268
 20
61.9397497058
 30
0.0
 11
75.4800214457
 21
61.94387133399999
 31
0.0
  0
LINE
  5
124
330
1F
100
AcDbEntity
  8
DIMENSION
100
AcDbLine
 10
76.60973098699999
 20
62.29518796609999
 30
0.0
 11
76.23968103119999
 21
62.2880132505
 31
0.0
  0
LINE
  5
125
330
1F
100
AcDbEntity
  8
DIMENSION
100
AcDbLine
 10
76.8140248525
 20
62.4337797287
 30
0.0
 11
76.60973098699999
 21
62.29518796609999
 31
0.0
  0
LINE
  5
126
330
1F
100
AcDbEntity
  8
DIMENSION
100
AcDbLine
 10
77.3996048683
 20
62.55030091670001
 30
0.0
 11
77.78060499109999
 21
62.5576879396
 31
0.0
  0
LINE
  5
127
330
1F
100
AcDbEntity
  8
DIMENSION
100
AcDbLine
 10
77.78060499109999
 20
62.5576879396
 30
0.0
 11
77.88114498270001
 21
62.6258936814
 31
0.0
  0
LINE
  5
128
330
1F
100
AcDbEntity
  8
DIMENSION
100
AcDbLine
 10
79.2056038977
 20
62.7549296075
 30
0.0
 11
79.5479730742
 21
62.57628951810001
 31
0.0
  0
LINE
  5
129
330
1F
100
AcDbEntity
  8
DIMENSION
100
AcDbLine
 10
79.5479730742
 20
62.57628951810001
 30
0.0
 11
80.2305361746
 21
62.5895233964
 31
0.0
  0
LINE
  5
12A
330
1F
100
AcDbEntity
  8
DIMENSION
100
AcDbLine
 10
80.2305361746
 20
62.5895233964
 30
0.0
 11
80.5153052456
 21
62.7827090674
 31
0.0
  0
LINE
  5
12B
330
1F
100
AcDbEntity
  8
DIMENSION
100
AcDbLine
 10
81.78591694279999
 20
62.7187349114
 30
0.0
 11
81.9924908085
 21
62.6109495838
 31
0.0
  0
LINE
  5
12C
330
1F
100
AcDbEntity
  8
DIMENSION
100
AcDbLine
 10
81.9924908085
 20
62.6109495838
 30
0.0
 11
82.61114673999999
 21
62.62562090260001
 31
0.0
  0
LINE
  5
12D
330
1F
100
AcDbEntity
  8
DIMENSION
100
AcDbLine
 10
82.88954948249999
 20
62.5839465732
 30
0.0
 11
82.88593018310001
 21
62.5814912617
 31
0.0
  0
LINE
  5
12E
330
1F
100
AcDbEntity
  8
DIMENSION
100
AcDbLine
 10
82.88593018310001
 20
62.5814912617
 30
0.0
 11
83.2607210896
 21
62.38593428499999
 31
0.0
  0
LINE
  5
12F
330
1F
100
AcDbEntity
  8
DIMENSION
100
AcDbLine
 10
83.2607210896
 20
62.38593428499999
 30
0.0
 11
83.8250267345
 21
62.39931669609999
 31
0.0
  0
LINE
  5
130
330
1F
100
AcDbEntity
  8
DIMENSION
100
AcDbLine
 10
84.3289176807
 20
62.2652918057
 30
0.0
 11
84.52895137069999
 21
62.1609189862
 31
0.0
  0
LINE
  5
131
330
1F
100
AcDbEntity
  8
DIMENSION
100
AcDbLine
 10
84.52895137069999
 20
62.1609189862
 30
0.0
 11
84.64943261
 21
62.1637761781
 31
0.0
  0
LINE
  5
132
330
1F
100
AcDbEntity
  8
DIMENSION
100
AcDbLine
 10
85.508920124
 20
61.6495946097
 30
0.0
 11
85.6324138959
 21
61.7308101735
 31
0.0
  0
LINE
  5
133
330
1F
100
AcDbEntity
  8
DIMENSION
100
AcDbLine
 10
85.8837110304
 20
61.454037633
 30
0.0
 11
85.508920124
 21
61.6495946097
 31
0.0
  0
LINE
  5
134
330
1F
100
AcDbEntity
  8
DIMENSION
100
AcDbLine
 10
86.0293539359
 20
61.45686143129999
 30
0.0
 11
85.8837110304
 21
61.454037633
 31
0.0
  0
LINE
  5
135
330
1F
100
AcDbEntity
  8
DIMENSION
100
AcDbLine
 10
85.91946204400001
 20
61.3680455834
 30
0.0
 11
86.12386511610001
 21
61.372892967
 31
0.0
  0
LINE
  5
136
330
1F
100
AcDbEntity
  8
DIMENSION
100
AcDbLine
 10
85.60627640099999
 20
61.1620793374
 30
0.0
 11
85.91946204400001
 21
61.3680455834
 31
0.0
  0
LINE
  5
137
330
1F
100
AcDbEntity
  8
DIMENSION
100
AcDbLine
 10
85.98106730739999
 20
60.96652236069999
 30
0.0
 11
85.60627640099999
 21
61.1620793374
 31
0.0
  0
LINE
  5
138
330
1F
100
AcDbEntity
  8
DIMENSION
100
AcDbLine
 10
86.42116802610001
 20
60.9750552559
 30
0.0
 11
85.98106730739999
 21
60.96652236069999
 31
0.0
  0
LINE
  5
139
330
1F
100
AcDbEntity
  8
DIMENSION
100
AcDbLine
 10
86.016818321
 20
60.8805303111
 30
0.0
 11
86.45437912570001
 21
60.8909069902
 31
0.0
  0
LINE
  5
13A
330
1F
100
AcDbEntity
  8
DIMENSION
100
AcDbLine
 10
85.7036326779
 20
60.6745640651
 30
0.0
 11
86.016818321
 21
60.8805303111
 31
0.0
  0
LINE
  5
13B
330
1F
100
AcDbEntity
  8
DIMENSION
100
AcDbLine
 10
86.07842358440001
 20
60.4790070884
 30
0.0
 11
85.7036326779
 21
60.6745640651
 31
0.0
  0
LINE
  5
13C
330
1F
100
AcDbEntity
  8
DIMENSION
100
AcDbLine
 10
86.41103641269999
 20
60.4854559541
 30
0.0
 11
86.07842358440001
 21
60.4790070884
 31
0.0
  0
LINE
  5
13D
330
1F
100
AcDbEntity
  8
DIMENSION
100
AcDbLine
 10
86.114174598
 20
60.3930150388
 30
0.0
 11
86.36373212229999
 21
60.3989332525
 31
0.0
  0
LINE
  5
13E
330
1F
100
AcDbEntity
  8
DIMENSION
100
AcDbLine
 10
85.80098895489999
 20
60.1870487928
 30
0.0
 11
86.114174598
 21
60.3930150388
 31
0.0
  0
LINE
  5
13F
330
1F
100
AcDbEntity
  8
DIMENSION
100
AcDbLine
 10
86.06040968509999
 20
60.0516892289
 30
0.0
 11
85.80098895489999
 21
60.1870487928
 31
0.0
  0
LINE
  5
140
330
1F
100
AcDbEntity
  8
DIMENSION
100
AcDbLine
 10
85.6258636943
 20
60.1437489437
 30
0.0
 11
85.9598865749
 21
59.9694637528
 31
0.0
  0
LINE
  5
141
330
1F
100
AcDbEntity
  8
DIMENSION
100
AcDbLine
 10
84.9433005939
 20
60.1305150653
 30
0.0
 11
85.6258636943
 21
60.1437489437
 31
0.0
  0
LINE
  5
142
330
1F
100
AcDbEntity
  8
DIMENSION
100
AcDbLine
 10
84.63552840000001
 20
59.9217242104
 30
0.0
 11
84.9433005939
 21
60.1305150653
 31
0.0
  0
LINE
  5
143
330
1F
100
AcDbEntity
  8
DIMENSION
100
AcDbLine
 10
85.01031930640001
 20
59.72616723369999
 30
0.0
 11
84.63552840000001
 21
59.9217242104
 31
0.0
  0
LINE
  5
144
330
1F
100
AcDbEntity
  8
DIMENSION
100
AcDbLine
 10
85.6089753086
 20
59.7377742788
 30
0.0
 11
85.01031930640001
 21
59.72616723369999
 31
0.0
  0
LINE
  5
145
330
1F
100
AcDbEntity
  8
DIMENSION
100
AcDbLine
 10
85.05148376920001
 20
59.6373505751
 30
0.0
 11
85.4401956633
 21
59.64656881069999
 31
0.0
  0
LINE
  5
146
330
1F
100
AcDbEntity
  8
DIMENSION
100
AcDbLine
 10
84.73829812609999
 20
59.4313843291
 30
0.0
 11
85.05148376920001
 21
59.6373505751
 31
0.0
  0
LINE
  5
147
330
1F
100
AcDbEntity
  8
DIMENSION
100
AcDbLine
 10
84.8314265233
 20
59.3827921475
 30
0.0
 11
84.73829812609999
 21
59.4313843291
 31
0.0
  0
LINE
  5
148
330
1F
100
AcDbEntity
  8
DIMENSION
100
AcDbLine
 10
84.56317286550001
 20
59.38808448
 30
0.0
 11
84.6780920157
 21
59.32812240189999
 31
0.0
  0
LINE
  5
149
330
1F
100
AcDbEntity
  8
DIMENSION
100
AcDbLine
 10
83.88060976510001
 20
59.37485060170001
 30
0.0
 11
84.56317286550001
 21
59.38808448
 31
0.0
  0
LINE
  5
14A
330
1F
100
AcDbEntity
  8
DIMENSION
100
AcDbLine
 10
83.5728375711
 20
59.1660597467
 30
0.0
 11
83.88060976510001
 21
59.37485060170001
 31
0.0
  0
LINE
  5
14B
330
1F
100
AcDbEntity
  8
DIMENSION
100
AcDbLine
 10
83.7612617047
 20
59.06774451739999
 30
0.0
 11
83.5728375711
 21
59.1660597467
 31
0.0
  0
LINE
  5
14C
330
1F
100
AcDbEntity
  8
DIMENSION
100
AcDbLine
 10
83.5807229949
 20
59.02726927729999
 30
0.0
 11
83.39229886140001
 21
59.12558450649999
 31
0.0
  0
LINE
  5
14D
330
1F
100
AcDbEntity
  8
DIMENSION
100
AcDbLine
 10
83.39229886140001
 20
59.12558450649999
 30
0.0
 11
82.70973576100001
 21
59.1123506282
 31
0.0
  0
LINE
  5
14E
330
1F
100
AcDbEntity
  8
DIMENSION
100
AcDbLine
 10
82.70973576100001
 20
59.1123506282
 30
0.0
 11
82.401963567
 21
58.90355977319999
 31
0.0
  0
LINE
  5
14F
330
1F
100
AcDbEntity
  8
DIMENSION
100
AcDbLine
 10
82.401963567
 20
58.90355977319999
 30
0.0
 11
82.51688271729999
 21
58.8435976951
 31
0.0
  0
LINE
  5
150
330
1F
100
AcDbEntity
  8
DIMENSION
100
AcDbLine
 10
82.30913980529999
 20
58.8173169604
 30
0.0
 11
82.21601140809999
 21
58.865909142
 31
0.0
  0
LINE
  5
151
330
1F
100
AcDbEntity
  8
DIMENSION
100
AcDbLine
 10
82.21601140809999
 20
58.865909142
 30
0.0
 11
81.53886175689999
 21
58.84985065470001
 31
0.0
  0
LINE
  5
152
330
1F
100
AcDbEntity
  8
DIMENSION
100
AcDbLine
 10
81.53886175689999
 20
58.84985065470001
 30
0.0
 11
81.3590802502
 21
58.73161751449999
 31
0.0
  0
LINE
  5
153
330
1F
100
AcDbEntity
  8
DIMENSION
100
AcDbLine
 10
81.0472206532
 20
58.7150677605
 30
0.0
 11
81.31715858439999
 21
58.89819207310001
 31
0.0
  0
LINE
  5
154
330
1F
100
AcDbEntity
  8
DIMENSION
100
AcDbLine
 10
81.31715858439999
 20
58.89819207310001
 30
0.0
 11
80.94236767789999
 21
59.0937490497
 31
0.0
  0
LINE
  5
155
330
1F
100
AcDbEntity
  8
DIMENSION
100
AcDbLine
 10
80.94236767789999
 20
59.0937490497
 30
0.0
 11
80.2598045775
 21
59.0805151713
 31
0.0
  0
LINE
  5
156
330
1F
100
AcDbEntity
  8
DIMENSION
100
AcDbLine
 10
80.2598045775
 20
59.0805151713
 30
0.0
 11
79.9520323836
 21
58.8717243164
 31
0.0
  0
LINE
  5
157
330
1F
100
AcDbEntity
  8
DIMENSION
100
AcDbLine
 10
79.9520323836
 20
58.8717243164
 30
0.0
 11
80.28605526419999
 21
58.6974391255
 31
0.0
  0
LINE
  5
158
330
1F
100
AcDbEntity
  8
DIMENSION
100
AcDbLine
 10
80.0255009548
 20
58.6987141212
 30
0.0
 11
79.7660802247
 21
58.8340736851
 31
0.0
  0
LINE
  5
159
330
1F
100
AcDbEntity
  8
DIMENSION
100
AcDbLine
 10
79.7660802247
 20
58.8340736851
 30
0.0
 11
79.08893057340001
 21
58.8180151979
 31
0.0
  0
LINE
  5
15A
330
1F
100
AcDbEntity
  8
DIMENSION
100
AcDbLine
 10
79.08893057340001
 20
58.8180151979
 30
0.0
 11
78.9735087703
 21
58.7421081567
 31
0.0
  0
LINE
  5
15B
330
1F
100
AcDbEntity
  8
DIMENSION
100
AcDbLine
 10
78.7226635369
 20
58.7617882758
 30
0.0
 11
78.87264085009999
 21
58.86353200729999
 31
0.0
  0
LINE
  5
15C
330
1F
100
AcDbEntity
  8
DIMENSION
100
AcDbLine
 10
78.87264085009999
 20
58.86353200729999
 30
0.0
 11
78.4978499436
 21
59.0590889839
 31
0.0
  0
LINE
  5
15D
330
1F
100
AcDbEntity
  8
DIMENSION
100
AcDbLine
 10
78.4978499436
 20
59.0590889839
 30
0.0
 11
77.82070029229998
 21
59.0430304967
 31
0.0
  0
LINE
  5
15E
330
1F
100
AcDbEntity
  8
DIMENSION
100
AcDbLine
 10
77.82070029229998
 20
59.0430304967
 30
0.0
 11
77.60048043979999
 21
58.89820311600001
 31
0.0
  0
LINE
  5
15F
330
1F
100
AcDbEntity
  8
DIMENSION
100
AcDbLine
 10
77.37875348830001
 20
58.93546286340001
 30
0.0
 11
77.60441056899999
 21
59.08854730609999
 31
0.0
  0
LINE
  5
160
330
1F
100
AcDbEntity
  8
DIMENSION
100
AcDbLine
 10
77.60441056899999
 20
59.08854730609999
 30
0.0
 11
77.2296196625
 21
59.28410428270001
 31
0.0
  0
LINE
  5
161
330
1F
100
AcDbEntity
  8
DIMENSION
100
AcDbLine
 10
77.2296196625
 20
59.28410428270001
 30
0.0
 11
76.5524700113
 21
59.2680457954
 31
0.0
  0
LINE
  5
162
330
1F
100
AcDbEntity
  8
DIMENSION
100
AcDbLine
 10
76.5524700113
 20
59.2680457954
 30
0.0
 11
76.3806063192
 21
59.1550197987
 31
0.0
  0
LINE
  5
163
330
1F
100
AcDbEntity
  8
DIMENSION
100
AcDbLine
 10
76.1838465078
 20
59.2102202601
 30
0.0
 11
76.3361802879
 21
59.3135626049
 31
0.0
  0
LINE
  5
164
330
1F
100
AcDbEntity
  8
DIMENSION
100
AcDbLine
 10
76.3361802879
 20
59.3135626049
 30
0.0
 11
75.9613893814
 21
59.50911958149999
 31
0.0
  0
LINE
  5
165
330
1F
100
AcDbEntity
  8
DIMENSION
100
AcDbLine
 10
75.9613893814
 20
59.50911958149999
 30
0.0
 11
75.37514928250001
 21
59.4952169986
 31
0.0
  0
LINE
  5
166
330
1F
100
AcDbEntity
  8
DIMENSION
100
AcDbLine
 10
74.98142062810001
 20
60.0204439581
 30
0.0
 11
74.71028118060001
 21
59.8421293533
 31
0.0
  0
LINE
  5
167
330
1F
100
AcDbEntity
  8
DIMENSION
100
AcDbLine
 10
74.6066297216
 20
60.2160009347
 30
0.0
 11
74.98142062810001
 21
60.0204439581
 31
0.0
  0
LINE
  5
168
330
1F
100
AcDbEntity
  8
DIMENSION
100
AcDbLine
 10
74.26879082880001
 20
60.20945074350001
 30
0.0
 11
74.6066297216
 21
60.2160009347
 31
0.0
  0
LINE
  5
169
330
1F
100
AcDbEntity
  8
DIMENSION
100
AcDbLine
 10
83.47006784500001
 20
59.6563996279
 30
0.0
 11
83.78325348809999
 21
59.8623658739
 31
0.0
  0
LINE
  5
16A
330
1F
100
AcDbEntity
  8
DIMENSION
100
AcDbLine
 10
83.8448587515
 20
59.4608426513
 30
0.0
 11
83.47006784500001
 21
59.6563996279
 31
0.0
  0
LINE
  5
16B
330
1F
100
AcDbEntity
  8
DIMENSION
100
AcDbLine
 10
84.5274218519
 20
59.47407652959999
 30
0.0
 11
83.8448587515
 21
59.4608426513
 31
0.0
  0
LINE
  5
16C
330
1F
100
AcDbEntity
  8
DIMENSION
100
AcDbLine
 10
84.83519404579999
 20
59.6828673846
 30
0.0
 11
84.5274218519
 21
59.47407652959999
 31
0.0
  0
LINE
  5
16D
330
1F
100
AcDbEntity
  8
DIMENSION
100
AcDbLine
 10
84.4604031393
 20
59.8784243612
 30
0.0
 11
84.83519404579999
 21
59.6828673846
 31
0.0
  0
LINE
  5
16E
330
1F
100
AcDbEntity
  8
DIMENSION
100
AcDbLine
 10
83.78325348809999
 20
59.8623658739
 30
0.0
 11
84.4604031393
 21
59.8784243612
 31
0.0
  0
LINE
  5
16F
330
1F
100
AcDbEntity
  8
DIMENSION
100
AcDbLine
 10
85.89788487459999
 20
60.4385318483
 30
0.0
 11
85.59011268069999
 21
60.22974099329999
 31
0.0
  0
LINE
  5
170
330
1F
100
AcDbEntity
  8
DIMENSION
100
AcDbLine
 10
85.5230939682
 20
60.6340888249
 30
0.0
 11
85.89788487459999
 21
60.4385318483
 31
0.0
  0
LINE
  5
171
330
1F
100
AcDbEntity
  8
DIMENSION
100
AcDbLine
 10
84.8459443169
 20
60.6180303376
 30
0.0
 11
85.5230939682
 21
60.6340888249
 31
0.0
  0
LINE
  5
172
330
1F
100
AcDbEntity
  8
DIMENSION
100
AcDbLine
 10
84.53275867390001
 20
60.4120640916
 30
0.0
 11
84.8459443169
 21
60.6180303376
 31
0.0
  0
LINE
  5
173
330
1F
100
AcDbEntity
  8
DIMENSION
100
AcDbLine
 10
84.90754958030001
 20
60.216507115
 30
0.0
 11
84.53275867390001
 21
60.4120640916
 31
0.0
  0
LINE
  5
174
330
1F
100
AcDbEntity
  8
DIMENSION
100
AcDbLine
 10
85.59011268069999
 20
60.22974099329999
 30
0.0
 11
84.90754958030001
 21
60.216507115
 31
0.0
  0
LINE
  5
175
330
1F
100
AcDbEntity
  8
DIMENSION
100
AcDbLine
 10
83.3672981189
 20
60.1467395091
 30
0.0
 11
83.6750703128
 21
60.3555303641
 31
0.0
  0
LINE
  5
176
330
1F
100
AcDbEntity
  8
DIMENSION
100
AcDbLine
 10
83.74208902540001
 20
59.9511825325
 30
0.0
 11
83.3672981189
 21
60.1467395091
 31
0.0
  0
LINE
  5
177
330
1F
100
AcDbEntity
  8
DIMENSION
100
AcDbLine
 10
84.4246521258
 20
59.9644164109
 30
0.0
 11
83.74208902540001
 21
59.9511825325
 31
0.0
  0
LINE
  5
178
330
1F
100
AcDbEntity
  8
DIMENSION
100
AcDbLine
 10
84.7324243197
 20
60.1732072658
 30
0.0
 11
84.4246521258
 21
59.9644164109
 31
0.0
  0
LINE
  5
179
330
1F
100
AcDbEntity
  8
DIMENSION
100
AcDbLine
 10
84.35763341319999
 20
60.36876424249999
 30
0.0
 11
84.7324243197
 21
60.1732072658
 31
0.0
  0
LINE
  5
17A
330
1F
100
AcDbEntity
  8
DIMENSION
100
AcDbLine
 10
83.6750703128
 20
60.3555303641
 30
0.0
 11
84.35763341319999
 21
60.36876424249999
 31
0.0
  0
LINE
  5
17B
330
1F
100
AcDbEntity
  8
DIMENSION
100
AcDbLine
 10
82.20183756389999
 20
59.8814149267
 30
0.0
 11
82.515023207
 21
60.0873811727
 31
0.0
  0
LINE
  5
17C
330
1F
100
AcDbEntity
  8
DIMENSION
100
AcDbLine
 10
82.5766284704
 20
59.6858579501
 30
0.0
 11
82.20183756389999
 21
59.8814149267
 31
0.0
  0
LINE
  5
17D
330
1F
100
AcDbEntity
  8
DIMENSION
100
AcDbLine
 10
83.25919157079999
 20
59.6990918284
 30
0.0
 11
82.5766284704
 21
59.6858579501
 31
0.0
  0
LINE
  5
17E
330
1F
100
AcDbEntity
  8
DIMENSION
100
AcDbLine
 10
83.56696376470001
 20
59.90788268340001
 30
0.0
 11
83.25919157079999
 21
59.6990918284
 31
0.0
  0
LINE
  5
17F
330
1F
100
AcDbEntity
  8
DIMENSION
100
AcDbLine
 10
83.19217285829999
 20
60.10343966
 30
0.0
 11
83.56696376470001
 21
59.90788268340001
 31
0.0
  0
LINE
  5
180
330
1F
100
AcDbEntity
  8
DIMENSION
100
AcDbLine
 10
82.515023207
 20
60.0873811727
 30
0.0
 11
83.19217285829999
 21
60.10343966
 31
0.0
  0
LINE
  5
181
330
1F
100
AcDbEntity
  8
DIMENSION
100
AcDbLine
 10
83.4641940386
 20
60.39822256459999
 30
0.0
 11
83.1564218447
 21
60.1894317097
 31
0.0
  0
LINE
  5
182
330
1F
100
AcDbEntity
  8
DIMENSION
100
AcDbLine
 10
83.08940313209999
 20
60.5937795413
 30
0.0
 11
83.4641940386
 21
60.39822256459999
 31
0.0
  0
LINE
  5
183
330
1F
100
AcDbEntity
  8
DIMENSION
100
AcDbLine
 10
82.41225348090001
 20
60.57772105399999
 30
0.0
 11
83.08940313209999
 21
60.5937795413
 31
0.0
  0
LINE
  5
184
330
1F
100
AcDbEntity
  8
DIMENSION
100
AcDbLine
 10
82.09906783779999
 20
60.3717548079
 30
0.0
 11
82.41225348090001
 21
60.57772105399999
 31
0.0
  0
LINE
  5
185
330
1F
100
AcDbEntity
  8
DIMENSION
100
AcDbLine
 10
82.47385874429999
 20
60.1761978313
 30
0.0
 11
82.09906783779999
 21
60.3717548079
 31
0.0
  0
LINE
  5
186
330
1F
100
AcDbEntity
  8
DIMENSION
100
AcDbLine
 10
83.1564218447
 20
60.1894317097
 30
0.0
 11
82.47385874429999
 21
60.1761978313
 31
0.0
  0
LINE
  5
187
330
1F
100
AcDbEntity
  8
DIMENSION
100
AcDbLine
 10
84.62965459359999
 20
60.6635471471
 30
0.0
 11
84.3218823996
 21
60.4547562921
 31
0.0
  0
LINE
  5
188
330
1F
100
AcDbEntity
  8
DIMENSION
100
AcDbLine
 10
84.2548636871
 20
60.8591041237
 30
0.0
 11
84.62965459359999
 21
60.6635471471
 31
0.0
  0
LINE
  5
189
330
1F
100
AcDbEntity
  8
DIMENSION
100
AcDbLine
 10
83.57771403580001
 20
60.8430456364
 30
0.0
 11
84.2548636871
 21
60.8591041237
 31
0.0
  0
LINE
  5
18A
330
1F
100
AcDbEntity
  8
DIMENSION
100
AcDbLine
 10
83.26452839279999
 20
60.6370793904
 30
0.0
 11
83.57771403580001
 21
60.8430456364
 31
0.0
  0
LINE
  5
18B
330
1F
100
AcDbEntity
  8
DIMENSION
100
AcDbLine
 10
83.63931929919999
 20
60.4415224138
 30
0.0
 11
83.26452839279999
 21
60.6370793904
 31
0.0
  0
LINE
  5
18C
330
1F
100
AcDbEntity
  8
DIMENSION
100
AcDbLine
 10
84.3218823996
 20
60.4547562921
 30
0.0
 11
83.63931929919999
 21
60.4415224138
 31
0.0
  0
LINE
  5
18D
330
1F
100
AcDbEntity
  8
DIMENSION
100
AcDbLine
 10
85.4257376912
 20
61.12160409720001
 30
0.0
 11
85.8005285976
 21
60.9260471206
 31
0.0
  0
LINE
  5
18E
330
1F
100
AcDbEntity
  8
DIMENSION
100
AcDbLine
 10
84.74858803990001
 20
61.10554560989999
 30
0.0
 11
85.4257376912
 21
61.12160409720001
 31
0.0
  0
LINE
  5
18F
330
1F
100
AcDbEntity
  8
DIMENSION
100
AcDbLine
 10
84.43540239689999
 20
60.8995793639
 30
0.0
 11
84.74858803990001
 21
61.10554560989999
 31
0.0
  0
LINE
  5
190
330
1F
100
AcDbEntity
  8
DIMENSION
100
AcDbLine
 10
84.81019330329999
 20
60.7040223872
 30
0.0
 11
84.43540239689999
 21
60.8995793639
 31
0.0
  0
LINE
  5
191
330
1F
100
AcDbEntity
  8
DIMENSION
100
AcDbLine
 10
85.4927564037
 20
60.71725626560001
 30
0.0
 11
84.81019330329999
 21
60.7040223872
 31
0.0
  0
LINE
  5
192
330
1F
100
AcDbEntity
  8
DIMENSION
100
AcDbLine
 10
85.8005285976
 20
60.9260471206
 30
0.0
 11
85.4927564037
 21
60.71725626560001
 31
0.0
  0
LINE
  5
193
330
1F
100
AcDbEntity
  8
DIMENSION
100
AcDbLine
 10
84.65123176289999
 20
61.5930608822
 30
0.0
 11
85.32838141419999
 21
61.6091193695
 31
0.0
  0
LINE
  5
194
330
1F
100
AcDbEntity
  8
DIMENSION
100
AcDbLine
 10
84.3380461199
 20
61.38709463619999
 30
0.0
 11
84.65123176289999
 21
61.5930608822
 31
0.0
  0
LINE
  5
195
330
1F
100
AcDbEntity
  8
DIMENSION
100
AcDbLine
 10
84.7128370264
 20
61.1915376595
 30
0.0
 11
84.3380461199
 21
61.38709463619999
 31
0.0
  0
LINE
  5
196
330
1F
100
AcDbEntity
  8
DIMENSION
100
AcDbLine
 10
85.3954001267
 20
61.2047715379
 30
0.0
 11
84.7128370264
 21
61.1915376595
 31
0.0
  0
LINE
  5
197
330
1F
100
AcDbEntity
  8
DIMENSION
100
AcDbLine
 10
85.70317232069999
 20
61.4135623929
 30
0.0
 11
85.3954001267
 21
61.2047715379
 31
0.0
  0
LINE
  5
198
330
1F
100
AcDbEntity
  8
DIMENSION
100
AcDbLine
 10
85.32838141419999
 20
61.6091193695
 30
0.0
 11
85.70317232069999
 21
61.4135623929
 31
0.0
  0
LINE
  5
199
330
1F
100
AcDbEntity
  8
DIMENSION
100
AcDbLine
 10
83.48035775879999
 20
61.3305609087
 30
0.0
 11
84.15750741009999
 21
61.346619396
 31
0.0
  0
LINE
  5
19A
330
1F
100
AcDbEntity
  8
DIMENSION
100
AcDbLine
 10
83.1671721158
 20
61.1245946627
 30
0.0
 11
83.48035775879999
 21
61.3305609087
 31
0.0
  0
LINE
  5
19B
330
1F
100
AcDbEntity
  8
DIMENSION
100
AcDbLine
 10
83.54196302229999
 20
60.929037686
 30
0.0
 11
83.1671721158
 21
61.1245946627
 31
0.0
  0
LINE
  5
19C
330
1F
100
AcDbEntity
  8
DIMENSION
100
AcDbLine
 10
84.2245261226
 20
60.94227156439999
 30
0.0
 11
83.54196302229999
 21
60.929037686
 31
0.0
  0
LINE
  5
19D
330
1F
100
AcDbEntity
  8
DIMENSION
100
AcDbLine
 10
84.53229831659999
 20
61.1510624194
 30
0.0
 11
84.2245261226
 21
60.94227156439999
 31
0.0
  0
LINE
  5
19E
330
1F
100
AcDbEntity
  8
DIMENSION
100
AcDbLine
 10
84.15750741009999
 20
61.346619396
 30
0.0
 11
84.53229831659999
 21
61.1510624194
 31
0.0
  0
LINE
  5
19F
330
1F
100
AcDbEntity
  8
DIMENSION
100
AcDbLine
 10
82.3094837548
 20
61.0680609352
 30
0.0
 11
82.986633406
 21
61.0841194225
 31
0.0
  0
LINE
  5
1A0
330
1F
100
AcDbEntity
  8
DIMENSION
100
AcDbLine
 10
81.9962981117
 20
60.86209468919999
 30
0.0
 11
82.3094837548
 21
61.0680609352
 31
0.0
  0
LINE
  5
1A1
330
1F
100
AcDbEntity
  8
DIMENSION
100
AcDbLine
 10
82.37108901819999
 20
60.6665377125
 30
0.0
 11
81.9962981117
 21
60.86209468919999
 31
0.0
  0
LINE
  5
1A2
330
1F
100
AcDbEntity
  8
DIMENSION
100
AcDbLine
 10
83.05365211859999
 20
60.6797715909
 30
0.0
 11
82.37108901819999
 21
60.6665377125
 31
0.0
  0
LINE
  5
1A3
330
1F
100
AcDbEntity
  8
DIMENSION
100
AcDbLine
 10
83.36142431250001
 20
60.8885624459
 30
0.0
 11
83.05365211859999
 21
60.6797715909
 31
0.0
  0
LINE
  5
1A4
330
1F
100
AcDbEntity
  8
DIMENSION
100
AcDbLine
 10
82.986633406
 20
61.0841194225
 30
0.0
 11
83.36142431250001
 21
60.8885624459
 31
0.0
  0
LINE
  5
1A5
330
1F
100
AcDbEntity
  8
DIMENSION
100
AcDbLine
 10
81.1386097507
 20
60.8055609617
 30
0.0
 11
81.821172851
 21
60.8187948401
 31
0.0
  0
LINE
  5
1A6
330
1F
100
AcDbEntity
  8
DIMENSION
100
AcDbLine
 10
80.83083755670001
 20
60.5967701067
 30
0.0
 11
81.1386097507
 21
60.8055609617
 31
0.0
  0
LINE
  5
1A7
330
1F
100
AcDbEntity
  8
DIMENSION
100
AcDbLine
 10
81.2056284632
 20
60.40121313010001
 30
0.0
 11
80.83083755670001
 21
60.5967701067
 31
0.0
  0
LINE
  5
1A8
330
1F
100
AcDbEntity
  8
DIMENSION
100
AcDbLine
 10
81.88819156360001
 20
60.4144470085
 30
0.0
 11
81.2056284632
 21
60.40121313010001
 31
0.0
  0
LINE
  5
1A9
330
1F
100
AcDbEntity
  8
DIMENSION
100
AcDbLine
 10
82.19596375749999
 20
60.6232378634
 30
0.0
 11
81.88819156360001
 21
60.4144470085
 31
0.0
  0
LINE
  5
1AA
330
1F
100
AcDbEntity
  8
DIMENSION
100
AcDbLine
 10
81.821172851
 20
60.8187948401
 30
0.0
 11
82.19596375749999
 21
60.6232378634
 31
0.0
  0
LINE
  5
1AB
330
1F
100
AcDbEntity
  8
DIMENSION
100
AcDbLine
 10
82.09860748050001
 20
61.11075313569999
 30
0.0
 11
81.79083528659999
 21
60.90196228069999
 31
0.0
  0
LINE
  5
1AC
330
1F
100
AcDbEntity
  8
DIMENSION
100
AcDbLine
 10
82.09860748050001
 20
61.11075313569999
 30
0.0
 11
81.72381657409999
 21
61.3063101123
 31
0.0
  0
LINE
  5
1AD
330
1F
100
AcDbEntity
  8
DIMENSION
100
AcDbLine
 10
81.72381657409999
 20
61.3063101123
 30
0.0
 11
81.04125347369999
 21
61.29307623399999
 31
0.0
  0
LINE
  5
1AE
330
1F
100
AcDbEntity
  8
DIMENSION
100
AcDbLine
 10
81.04125347369999
 20
61.29307623399999
 30
0.0
 11
80.73348127979999
 21
61.084285379
 31
0.0
  0
LINE
  5
1AF
330
1F
100
AcDbEntity
  8
DIMENSION
100
AcDbLine
 10
80.73348127979999
 20
61.084285379
 30
0.0
 11
81.1082721862
 21
60.8887284024
 31
0.0
  0
LINE
  5
1B0
330
1F
100
AcDbEntity
  8
DIMENSION
100
AcDbLine
 10
81.79083528659999
 20
60.90196228069999
 30
0.0
 11
81.1082721862
 21
60.8887284024
 31
0.0
  0
LINE
  5
1B1
330
1F
100
AcDbEntity
  8
DIMENSION
100
AcDbLine
 10
83.26948148460001
 20
61.3732531092
 30
0.0
 11
82.96170929069999
 21
61.1644622542
 31
0.0
  0
LINE
  5
1B2
330
1F
100
AcDbEntity
  8
DIMENSION
100
AcDbLine
 10
83.26948148460001
 20
61.3732531092
 30
0.0
 11
82.89469057819999
 21
61.5688100858
 31
0.0
  0
LINE
  5
1B3
330
1F
100
AcDbEntity
  8
DIMENSION
100
AcDbLine
 10
82.89469057819999
 20
61.5688100858
 30
0.0
 11
82.21212747779999
 21
61.5555762075
 31
0.0
  0
LINE
  5
1B4
330
1F
100
AcDbEntity
  8
DIMENSION
100
AcDbLine
 10
82.21212747779999
 20
61.5555762075
 30
0.0
 11
81.9043552838
 21
61.34678535249999
 31
0.0
  0
LINE
  5
1B5
330
1F
100
AcDbEntity
  8
DIMENSION
100
AcDbLine
 10
81.9043552838
 20
61.34678535249999
 30
0.0
 11
82.2791461903
 21
61.1512283759
 31
0.0
  0
LINE
  5
1B6
330
1F
100
AcDbEntity
  8
DIMENSION
100
AcDbLine
 10
82.96170929069999
 20
61.1644622542
 30
0.0
 11
82.2791461903
 21
61.1512283759
 31
0.0
  0
LINE
  5
1B7
330
1F
100
AcDbEntity
  8
DIMENSION
100
AcDbLine
 10
84.44035548869999
 20
61.63575308270001
 30
0.0
 11
84.13258329479999
 21
61.4269622277
 31
0.0
  0
LINE
  5
1B8
330
1F
100
AcDbEntity
  8
DIMENSION
100
AcDbLine
 10
84.44035548869999
 20
61.63575308270001
 30
0.0
 11
84.06556458229999
 21
61.8313100593
 31
0.0
  0
LINE
  5
1B9
330
1F
100
AcDbEntity
  8
DIMENSION
100
AcDbLine
 10
84.06556458229999
 20
61.8313100593
 30
0.0
 11
83.38300148189999
 21
61.818076181
 31
0.0
  0
LINE
  5
1BA
330
1F
100
AcDbEntity
  8
DIMENSION
100
AcDbLine
 10
83.38300148189999
 20
61.818076181
 30
0.0
 11
83.0752292879
 21
61.609285326
 31
0.0
  0
LINE
  5
1BB
330
1F
100
AcDbEntity
  8
DIMENSION
100
AcDbLine
 10
83.0752292879
 20
61.609285326
 30
0.0
 11
83.4500201944
 21
61.4137283494
 31
0.0
  0
LINE
  5
1BC
330
1F
100
AcDbEntity
  8
DIMENSION
100
AcDbLine
 10
84.13258329479999
 20
61.4269622277
 30
0.0
 11
83.4500201944
 21
61.4137283494
 31
0.0
  0
LINE
  5
1BD
330
1F
100
AcDbEntity
  8
DIMENSION
100
AcDbLine
 10
85.48473041719999
 20
61.81243682369999
 30
0.0
 11
85.30345729889999
 21
61.6894622012
 31
0.0
  0
LINE
  5
1BE
330
1F
100
AcDbEntity
  8
DIMENSION
100
AcDbLine
 10
84.8654999662
 20
62.0866180874
 30
0.0
 11
84.553875486
 21
62.0805761545
 31
0.0
  0
LINE
  5
1BF
330
1F
100
AcDbEntity
  8
DIMENSION
100
AcDbLine
 10
84.553875486
 20
62.0805761545
 30
0.0
 11
84.246103292
 21
61.87178529949999
 31
0.0
  0
LINE
  5
1C0
330
1F
100
AcDbEntity
  8
DIMENSION
100
AcDbLine
 10
84.246103292
 20
61.87178529949999
 30
0.0
 11
84.6208941985
 21
61.6762283229
 31
0.0
  0
LINE
  5
1C1
330
1F
100
AcDbEntity
  8
DIMENSION
100
AcDbLine
 10
85.30345729889999
 20
61.6894622012
 30
0.0
 11
84.6208941985
 21
61.6762283229
 31
0.0
  0
LINE
  5
1C2
330
1F
100
AcDbEntity
  8
DIMENSION
100
AcDbLine
 10
79.77302319260001
 20
61.5180915328
 30
0.0
 11
79.4652509987
 21
61.30930067779999
 31
0.0
  0
LINE
  5
1C3
330
1F
100
AcDbEntity
  8
DIMENSION
100
AcDbLine
 10
79.4652509987
 20
61.30930067779999
 30
0.0
 11
79.84004190510001
 21
61.1137437012
 31
0.0
  0
LINE
  5
1C4
330
1F
100
AcDbEntity
  8
DIMENSION
100
AcDbLine
 10
79.84004190510001
 20
61.1137437012
 30
0.0
 11
80.5226050055
 21
61.1269775795
 31
0.0
  0
LINE
  5
1C5
330
1F
100
AcDbEntity
  8
DIMENSION
100
AcDbLine
 10
80.5226050055
 20
61.1269775795
 30
0.0
 11
80.83037719949999
 21
61.3357684345
 31
0.0
  0
LINE
  5
1C6
330
1F
100
AcDbEntity
  8
DIMENSION
100
AcDbLine
 10
80.83037719949999
 20
61.3357684345
 30
0.0
 11
80.455586293
 21
61.5313254111
 31
0.0
  0
LINE
  5
1C7
330
1F
100
AcDbEntity
  8
DIMENSION
100
AcDbLine
 10
80.455586293
 20
61.5313254111
 30
0.0
 11
79.77302319260001
 21
61.5180915328
 31
0.0
  0
LINE
  5
1C8
330
1F
100
AcDbEntity
  8
DIMENSION
100
AcDbLine
 10
80.9493106458
 20
61.77776689739999
 30
0.0
 11
80.64153845189999
 21
61.5689760424
 31
0.0
  0
LINE
  5
1C9
330
1F
100
AcDbEntity
  8
DIMENSION
100
AcDbLine
 10
80.64153845189999
 20
61.5689760424
 30
0.0
 11
81.01632935839999
 21
61.3734190657
 31
0.0
  0
LINE
  5
1CA
330
1F
100
AcDbEntity
  8
DIMENSION
100
AcDbLine
 10
81.01632935839999
 20
61.3734190657
 30
0.0
 11
81.6934790096
 21
61.389477553
 31
0.0
  0
LINE
  5
1CB
330
1F
100
AcDbEntity
  8
DIMENSION
100
AcDbLine
 10
81.6934790096
 20
61.389477553
 30
0.0
 11
82.00666465270002
 21
61.59544379909999
 31
0.0
  0
LINE
  5
1CC
330
1F
100
AcDbEntity
  8
DIMENSION
100
AcDbLine
 10
82.00666465270002
 20
61.59544379909999
 30
0.0
 11
81.63187374619999
 21
61.7910007757
 31
0.0
  0
LINE
  5
1CD
330
1F
100
AcDbEntity
  8
DIMENSION
100
AcDbLine
 10
81.63187374619999
 20
61.7910007757
 30
0.0
 11
80.9493106458
 21
61.77776689739999
 31
0.0
  0
LINE
  5
1CE
330
1F
100
AcDbEntity
  8
DIMENSION
100
AcDbLine
 10
82.1201846499
 20
62.04026687079999
 30
0.0
 11
81.812412456
 21
61.8314760159
 31
0.0
  0
LINE
  5
1CF
330
1F
100
AcDbEntity
  8
DIMENSION
100
AcDbLine
 10
81.812412456
 20
61.8314760159
 30
0.0
 11
82.18720336249999
 21
61.6359190392
 31
0.0
  0
LINE
  5
1D0
330
1F
100
AcDbEntity
  8
DIMENSION
100
AcDbLine
 10
82.18720336249999
 20
61.6359190392
 30
0.0
 11
82.8643530137
 21
61.6519775265
 31
0.0
  0
LINE
  5
1D1
330
1F
100
AcDbEntity
  8
DIMENSION
100
AcDbLine
 10
82.8643530137
 20
61.6519775265
 30
0.0
 11
83.17753865680002
 21
61.8579437726
 31
0.0
  0
LINE
  5
1D2
330
1F
100
AcDbEntity
  8
DIMENSION
100
AcDbLine
 10
83.17753865680002
 20
61.8579437726
 30
0.0
 11
82.80274775029999
 21
62.0535007492
 31
0.0
  0
LINE
  5
1D3
330
1F
100
AcDbEntity
  8
DIMENSION
100
AcDbLine
 10
82.80274775029999
 20
62.0535007492
 30
0.0
 11
82.1201846499
 21
62.04026687079999
 31
0.0
  0
LINE
  5
1D4
330
1F
100
AcDbEntity
  8
DIMENSION
100
AcDbLine
 10
83.291058654
 20
62.3027668443
 30
0.0
 11
82.9832864601
 21
62.09397598939999
 31
0.0
  0
LINE
  5
1D5
330
1F
100
AcDbEntity
  8
DIMENSION
100
AcDbLine
 10
82.9832864601
 20
62.09397598939999
 30
0.0
 11
83.35807736659999
 21
61.8984190127
 31
0.0
  0
LINE
  5
1D6
330
1F
100
AcDbEntity
  8
DIMENSION
100
AcDbLine
 10
83.35807736659999
 20
61.8984190127
 30
0.0
 11
84.0352270178
 21
61.9144775
 31
0.0
  0
LINE
  5
1D7
330
1F
100
AcDbEntity
  8
DIMENSION
100
AcDbLine
 10
84.0352270178
 20
61.9144775
 30
0.0
 11
84.3484126609
 21
62.12044374609999
 31
0.0
  0
LINE
  5
1D8
330
1F
100
AcDbEntity
  8
DIMENSION
100
AcDbLine
 10
84.3484126609
 20
62.12044374609999
 30
0.0
 11
83.97362175439999
 21
62.3160007227
 31
0.0
  0
LINE
  5
1D9
330
1F
100
AcDbEntity
  8
DIMENSION
100
AcDbLine
 10
83.97362175439999
 20
62.3160007227
 30
0.0
 11
83.291058654
 21
62.3027668443
 31
0.0
  0
LINE
  5
1DA
330
1F
100
AcDbEntity
  8
DIMENSION
100
AcDbLine
 10
81.71505617900001
 20
62.3189912882
 30
0.0
 11
82.0898470855
 21
62.12343431149999
 31
0.0
  0
LINE
  5
1DB
330
1F
100
AcDbEntity
  8
DIMENSION
100
AcDbLine
 10
82.0898470855
 20
62.12343431149999
 30
0.0
 11
82.7669967367
 21
62.1394927988
 31
0.0
  0
LINE
  5
1DC
330
1F
100
AcDbEntity
  8
DIMENSION
100
AcDbLine
 10
82.7669967367
 20
62.1394927988
 30
0.0
 11
83.08018237979998
 21
62.3454590448
 31
0.0
  0
LINE
  5
1DD
330
1F
100
AcDbEntity
  8
DIMENSION
100
AcDbLine
 10
83.08018237979998
 20
62.3454590448
 30
0.0
 11
82.7053914733
 21
62.5410160215
 31
0.0
  0
LINE
  5
1DE
330
1F
100
AcDbEntity
  8
DIMENSION
100
AcDbLine
 10
82.7053914733
 20
62.5410160215
 30
0.0
 11
82.02282837289999
 21
62.52778214310001
 31
0.0
  0
LINE
  5
1DF
330
1F
100
AcDbEntity
  8
DIMENSION
100
AcDbLine
 10
82.02282837289999
 20
62.52778214310001
 30
0.0
 11
81.71505617900001
 21
62.3189912882
 31
0.0
  0
LINE
  5
1E0
330
1F
100
AcDbEntity
  8
DIMENSION
100
AcDbLine
 10
80.9189730814
 20
61.86093433799999
 30
0.0
 11
81.5961227326
 21
61.8769928253
 31
0.0
  0
LINE
  5
1E1
330
1F
100
AcDbEntity
  8
DIMENSION
100
AcDbLine
 10
81.5961227326
 20
61.8769928253
 30
0.0
 11
81.90930837569998
 21
62.08295907140001
 31
0.0
  0
LINE
  5
1E2
330
1F
100
AcDbEntity
  8
DIMENSION
100
AcDbLine
 10
81.90930837569998
 20
62.08295907140001
 30
0.0
 11
81.5345174692
 21
62.278516048
 31
0.0
  0
LINE
  5
1E3
330
1F
100
AcDbEntity
  8
DIMENSION
100
AcDbLine
 10
81.5345174692
 20
62.278516048
 30
0.0
 11
80.85195436879999
 21
62.2652821696
 31
0.0
  0
LINE
  5
1E4
330
1F
100
AcDbEntity
  8
DIMENSION
100
AcDbLine
 10
80.85195436879999
 20
62.2652821696
 30
0.0
 11
80.54418217490001
 21
62.0564913147
 31
0.0
  0
LINE
  5
1E5
330
1F
100
AcDbEntity
  8
DIMENSION
100
AcDbLine
 10
80.54418217490001
 20
62.0564913147
 30
0.0
 11
80.9189730814
 21
61.86093433799999
 31
0.0
  0
LINE
  5
1E6
330
1F
100
AcDbEntity
  8
DIMENSION
100
AcDbLine
 10
79.74268562819999
 20
61.6012589735
 30
0.0
 11
80.41983527939999
 21
61.6173174608
 31
0.0
  0
LINE
  5
1E7
330
1F
100
AcDbEntity
  8
DIMENSION
100
AcDbLine
 10
80.41983527939999
 20
61.6173174608
 30
0.0
 11
80.73302092250001
 21
61.8232837068
 31
0.0
  0
LINE
  5
1E8
330
1F
100
AcDbEntity
  8
DIMENSION
100
AcDbLine
 10
80.73302092250001
 20
61.8232837068
 30
0.0
 11
80.358230016
 21
62.0188406834
 31
0.0
  0
LINE
  5
1E9
330
1F
100
AcDbEntity
  8
DIMENSION
100
AcDbLine
 10
80.358230016
 20
62.0188406834
 30
0.0
 11
79.6756669156
 21
62.0056068051
 31
0.0
  0
LINE
  5
1EA
330
1F
100
AcDbEntity
  8
DIMENSION
100
AcDbLine
 10
79.6756669156
 20
62.0056068051
 30
0.0
 11
79.3678947217
 21
61.7968159501
 31
0.0
  0
LINE
  5
1EB
330
1F
100
AcDbEntity
  8
DIMENSION
100
AcDbLine
 10
79.3678947217
 20
61.7968159501
 30
0.0
 11
79.74268562819999
 21
61.6012589735
 31
0.0
  0
LINE
  5
1EC
330
1F
100
AcDbEntity
  8
DIMENSION
100
AcDbLine
 10
79.0845862858
 20
62.24668059119999
 30
0.0
 11
78.4020231854
 21
62.23344671279999
 31
0.0
  0
LINE
  5
1ED
330
1F
100
AcDbEntity
  8
DIMENSION
100
AcDbLine
 10
78.4020231854
 20
62.23344671279999
 30
0.0
 11
78.09425099149999
 21
62.0246558579
 31
0.0
  0
LINE
  5
1EE
330
1F
100
AcDbEntity
  8
DIMENSION
100
AcDbLine
 10
78.09425099149999
 20
62.0246558579
 30
0.0
 11
78.4690418979
 21
61.8290988812
 31
0.0
  0
LINE
  5
1EF
330
1F
100
AcDbEntity
  8
DIMENSION
100
AcDbLine
 10
78.4690418979
 20
61.8290988812
 30
0.0
 11
79.1461915492
 21
61.8451573685
 31
0.0
  0
LINE
  5
1F0
330
1F
100
AcDbEntity
  8
DIMENSION
100
AcDbLine
 10
79.1461915492
 20
61.8451573685
 30
0.0
 11
79.45937719229999
 21
62.0511236145
 31
0.0
  0
LINE
  5
1F1
330
1F
100
AcDbEntity
  8
DIMENSION
100
AcDbLine
 10
79.45937719229999
 20
62.0511236145
 30
0.0
 11
79.0845862858
 21
62.24668059119999
 31
0.0
  0
LINE
  5
1F2
330
1F
100
AcDbEntity
  8
DIMENSION
100
AcDbLine
 10
80.26087373899999
 20
62.50635595569999
 30
0.0
 11
79.5783106386
 21
62.4931220774
 31
0.0
  0
LINE
  5
1F3
330
1F
100
AcDbEntity
  8
DIMENSION
100
AcDbLine
 10
79.5783106386
 20
62.4931220774
 30
0.0
 11
79.27053844470001
 21
62.2843312224
 31
0.0
  0
LINE
  5
1F4
330
1F
100
AcDbEntity
  8
DIMENSION
100
AcDbLine
 10
79.27053844470001
 20
62.2843312224
 30
0.0
 11
79.64532935120001
 21
62.08877424579999
 31
0.0
  0
LINE
  5
1F5
330
1F
100
AcDbEntity
  8
DIMENSION
100
AcDbLine
 10
79.64532935120001
 20
62.08877424579999
 30
0.0
 11
80.3278924516
 21
62.1020081241
 31
0.0
  0
LINE
  5
1F6
330
1F
100
AcDbEntity
  8
DIMENSION
100
AcDbLine
 10
80.3278924516
 20
62.1020081241
 30
0.0
 11
80.6356646455
 21
62.31079897909999
 31
0.0
  0
LINE
  5
1F7
330
1F
100
AcDbEntity
  8
DIMENSION
100
AcDbLine
 10
80.6356646455
 20
62.31079897909999
 30
0.0
 11
80.26087373899999
 21
62.50635595569999
 31
0.0
  0
LINE
  5
1F8
330
1F
100
AcDbEntity
  8
DIMENSION
100
AcDbLine
 10
80.8216168044
 20
62.34844961029999
 30
0.0
 11
81.4987664557
 21
62.3645080976
 31
0.0
  0
LINE
  5
1F9
330
1F
100
AcDbEntity
  8
DIMENSION
100
AcDbLine
 10
81.4987664557
 20
62.3645080976
 30
0.0
 11
81.81195209870001
 21
62.5704743436
 31
0.0
  0
LINE
  5
1FA
330
1F
100
AcDbEntity
  8
DIMENSION
100
AcDbLine
 10
81.81195209870001
 20
62.5704743436
 30
0.0
 11
81.482448881
 21
62.74240128189999
 31
0.0
  0
LINE
  5
1FB
330
1F
100
AcDbEntity
  8
DIMENSION
100
AcDbLine
 10
81.1745693151
 20
62.7609400563
 30
0.0
 11
80.75459809189998
 21
62.75279744189999
 31
0.0
  0
LINE
  5
1FC
330
1F
100
AcDbEntity
  8
DIMENSION
100
AcDbLine
 10
80.75459809189998
 20
62.75279744189999
 30
0.0
 11
80.44682589789999
 21
62.54400658699999
 31
0.0
  0
LINE
  5
1FD
330
1F
100
AcDbEntity
  8
DIMENSION
100
AcDbLine
 10
80.44682589789999
 20
62.54400658699999
 30
0.0
 11
80.8216168044
 21
62.34844961029999
 31
0.0
  0
LINE
  5
1FE
330
1F
100
AcDbEntity
  8
DIMENSION
100
AcDbLine
 10
78.9872300088
 20
62.73419586350001
 30
0.0
 11
78.8631251515
 21
62.7317896558
 31
0.0
  0
LINE
  5
1FF
330
1F
100
AcDbEntity
  8
DIMENSION
100
AcDbLine
 10
78.23042130640001
 20
62.67059420329999
 30
0.0
 11
77.9968947145
 21
62.5121711301
 31
0.0
  0
LINE
  5
200
330
1F
100
AcDbEntity
  8
DIMENSION
100
AcDbLine
 10
77.9968947145
 20
62.5121711301
 30
0.0
 11
78.371685621
 21
62.3166141535
 31
0.0
  0
LINE
  5
201
330
1F
100
AcDbEntity
  8
DIMENSION
100
AcDbLine
 10
78.371685621
 20
62.3166141535
 30
0.0
 11
79.0488352722
 21
62.3326726408
 31
0.0
  0
LINE
  5
202
330
1F
100
AcDbEntity
  8
DIMENSION
100
AcDbLine
 10
79.0488352722
 20
62.3326726408
 30
0.0
 11
79.36202091529999
 21
62.5386388868
 31
0.0
  0
LINE
  5
203
330
1F
100
AcDbEntity
  8
DIMENSION
100
AcDbLine
 10
79.36202091529999
 20
62.5386388868
 30
0.0
 11
78.9872300088
 21
62.73419586350001
 31
0.0
  0
LINE
  5
204
330
1F
100
AcDbEntity
  8
DIMENSION
100
AcDbLine
 10
80.71731755950001
 20
60.151947035
 30
0.0
 11
81.02508975339999
 21
60.3607378899
 31
0.0
  0
LINE
  5
205
330
1F
100
AcDbEntity
  8
DIMENSION
100
AcDbLine
 10
81.02508975339999
 20
60.3607378899
 30
0.0
 11
80.65029884700001
 21
60.5562948666
 31
0.0
  0
LINE
  5
206
330
1F
100
AcDbEntity
  8
DIMENSION
100
AcDbLine
 10
80.65029884700001
 20
60.5562948666
 30
0.0
 11
79.9677357466
 21
60.54306098819999
 31
0.0
  0
LINE
  5
207
330
1F
100
AcDbEntity
  8
DIMENSION
100
AcDbLine
 10
79.9677357466
 20
60.54306098819999
 30
0.0
 11
79.6599635526
 21
60.3342701332
 31
0.0
  0
LINE
  5
208
330
1F
100
AcDbEntity
  8
DIMENSION
100
AcDbLine
 10
79.6599635526
 20
60.3342701332
 30
0.0
 11
80.0347544591
 21
60.1387131566
 31
0.0
  0
LINE
  5
209
330
1F
100
AcDbEntity
  8
DIMENSION
100
AcDbLine
 10
80.0347544591
 20
60.1387131566
 30
0.0
 11
80.71731755950001
 21
60.151947035
 31
0.0
  0
LINE
  5
20A
330
1F
100
AcDbEntity
  8
DIMENSION
100
AcDbLine
 10
79.54103010629999
 20
59.8922716704
 30
0.0
 11
79.8488023002
 21
60.10106252539999
 31
0.0
  0
LINE
  5
20B
330
1F
100
AcDbEntity
  8
DIMENSION
100
AcDbLine
 10
79.8488023002
 20
60.10106252539999
 30
0.0
 11
79.4740113937
 21
60.296619502
 31
0.0
  0
LINE
  5
20C
330
1F
100
AcDbEntity
  8
DIMENSION
100
AcDbLine
 10
79.4740113937
 20
60.296619502
 30
0.0
 11
78.7968617425
 21
60.2805610147
 31
0.0
  0
LINE
  5
20D
330
1F
100
AcDbEntity
  8
DIMENSION
100
AcDbLine
 10
78.7968617425
 20
60.2805610147
 30
0.0
 11
78.4836760994
 21
60.0745947687
 31
0.0
  0
LINE
  5
20E
330
1F
100
AcDbEntity
  8
DIMENSION
100
AcDbLine
 10
78.4836760994
 20
60.0745947687
 30
0.0
 11
78.8584670059
 21
59.8790377921
 31
0.0
  0
LINE
  5
20F
330
1F
100
AcDbEntity
  8
DIMENSION
100
AcDbLine
 10
78.8584670059
 20
59.8790377921
 30
0.0
 11
79.54103010629999
 21
59.8922716704
 31
0.0
  0
LINE
  5
210
330
1F
100
AcDbEntity
  8
DIMENSION
100
AcDbLine
 10
78.37015610219999
 20
59.62977169689999
 30
0.0
 11
78.67792829609999
 21
59.8385625519
 31
0.0
  0
LINE
  5
211
330
1F
100
AcDbEntity
  8
DIMENSION
100
AcDbLine
 10
78.67792829609999
 20
59.8385625519
 30
0.0
 11
78.3031373896
 21
60.03411952850001
 31
0.0
  0
LINE
  5
212
330
1F
100
AcDbEntity
  8
DIMENSION
100
AcDbLine
 10
78.3031373896
 20
60.03411952850001
 30
0.0
 11
77.6259877384
 21
60.01806104119999
 31
0.0
  0
LINE
  5
213
330
1F
100
AcDbEntity
  8
DIMENSION
100
AcDbLine
 10
77.6259877384
 20
60.01806104119999
 30
0.0
 11
77.3128020953
 21
59.8120947952
 31
0.0
  0
LINE
  5
214
330
1F
100
AcDbEntity
  8
DIMENSION
100
AcDbLine
 10
77.3128020953
 20
59.8120947952
 30
0.0
 11
77.6875930018
 21
59.61653781859999
 31
0.0
  0
LINE
  5
215
330
1F
100
AcDbEntity
  8
DIMENSION
100
AcDbLine
 10
77.6875930018
 20
59.61653781859999
 30
0.0
 11
78.37015610219999
 21
59.62977169689999
 31
0.0
  0
LINE
  5
216
330
1F
100
AcDbEntity
  8
DIMENSION
100
AcDbLine
 10
77.19928209809999
 20
59.3672717234
 30
0.0
 11
77.50705429199999
 21
59.5760625784
 31
0.0
  0
LINE
  5
217
330
1F
100
AcDbEntity
  8
DIMENSION
100
AcDbLine
 10
77.50705429199999
 20
59.5760625784
 30
0.0
 11
77.1322633855
 21
59.771619555
 31
0.0
  0
LINE
  5
218
330
1F
100
AcDbEntity
  8
DIMENSION
100
AcDbLine
 10
77.1322633855
 20
59.771619555
 30
0.0
 11
76.4551137343
 21
59.7555610677
 31
0.0
  0
LINE
  5
219
330
1F
100
AcDbEntity
  8
DIMENSION
100
AcDbLine
 10
76.4551137343
 20
59.7555610677
 30
0.0
 11
76.1419280912
 21
59.5495948217
 31
0.0
  0
LINE
  5
21A
330
1F
100
AcDbEntity
  8
DIMENSION
100
AcDbLine
 10
76.1419280912
 20
59.5495948217
 30
0.0
 11
76.51671899770001
 21
59.3540378451
 31
0.0
  0
LINE
  5
21B
330
1F
100
AcDbEntity
  8
DIMENSION
100
AcDbLine
 10
76.51671899770001
 20
59.3540378451
 30
0.0
 11
77.19928209809999
 21
59.3672717234
 31
0.0
  0
LINE
  5
21C
330
1F
100
AcDbEntity
  8
DIMENSION
100
AcDbLine
 10
78.77528457310001
 20
59.3510472796
 30
0.0
 11
78.4004936666
 21
59.5466042562
 31
0.0
  0
LINE
  5
21D
330
1F
100
AcDbEntity
  8
DIMENSION
100
AcDbLine
 10
78.4004936666
 20
59.5466042562
 30
0.0
 11
77.7233440154
 21
59.5305457689
 31
0.0
  0
LINE
  5
21E
330
1F
100
AcDbEntity
  8
DIMENSION
100
AcDbLine
 10
77.7233440154
 20
59.5305457689
 30
0.0
 11
77.41015837229999
 21
59.3245795229
 31
0.0
  0
LINE
  5
21F
330
1F
100
AcDbEntity
  8
DIMENSION
100
AcDbLine
 10
77.41015837229999
 20
59.3245795229
 30
0.0
 11
77.7849492788
 21
59.1290225463
 31
0.0
  0
LINE
  5
220
330
1F
100
AcDbEntity
  8
DIMENSION
100
AcDbLine
 10
77.7849492788
 20
59.1290225463
 30
0.0
 11
78.4675123792
 21
59.14225642459999
 31
0.0
  0
LINE
  5
221
330
1F
100
AcDbEntity
  8
DIMENSION
100
AcDbLine
 10
78.4675123792
 20
59.14225642459999
 30
0.0
 11
78.77528457310001
 21
59.3510472796
 31
0.0
  0
LINE
  5
222
330
1F
100
AcDbEntity
  8
DIMENSION
100
AcDbLine
 10
79.5713676707
 20
59.8091042297
 30
0.0
 11
78.8942180195
 21
59.7930457424
 31
0.0
  0
LINE
  5
223
330
1F
100
AcDbEntity
  8
DIMENSION
100
AcDbLine
 10
78.8942180195
 20
59.7930457424
 30
0.0
 11
78.5810323764
 21
59.5870794964
 31
0.0
  0
LINE
  5
224
330
1F
100
AcDbEntity
  8
DIMENSION
100
AcDbLine
 10
78.5810323764
 20
59.5870794964
 30
0.0
 11
78.9558232829
 21
59.3915225198
 31
0.0
  0
LINE
  5
225
330
1F
100
AcDbEntity
  8
DIMENSION
100
AcDbLine
 10
78.9558232829
 20
59.3915225198
 30
0.0
 11
79.6383863833
 21
59.4047563981
 31
0.0
  0
LINE
  5
226
330
1F
100
AcDbEntity
  8
DIMENSION
100
AcDbLine
 10
79.6383863833
 20
59.4047563981
 30
0.0
 11
79.94615857720001
 21
59.6135472531
 31
0.0
  0
LINE
  5
227
330
1F
100
AcDbEntity
  8
DIMENSION
100
AcDbLine
 10
79.94615857720001
 20
59.6135472531
 30
0.0
 11
79.5713676707
 21
59.8091042297
 31
0.0
  0
LINE
  5
228
330
1F
100
AcDbEntity
  8
DIMENSION
100
AcDbLine
 10
80.74765512389999
 20
60.0687795943
 30
0.0
 11
80.07050547270001
 21
60.05272110699999
 31
0.0
  0
LINE
  5
229
330
1F
100
AcDbEntity
  8
DIMENSION
100
AcDbLine
 10
80.07050547270001
 20
60.05272110699999
 30
0.0
 11
79.75731982960001
 21
59.846754861
 31
0.0
  0
LINE
  5
22A
330
1F
100
AcDbEntity
  8
DIMENSION
100
AcDbLine
 10
79.75731982960001
 20
59.846754861
 30
0.0
 11
80.13211073609999
 21
59.6511978843
 31
0.0
  0
LINE
  5
22B
330
1F
100
AcDbEntity
  8
DIMENSION
100
AcDbLine
 10
80.13211073609999
 20
59.6511978843
 30
0.0
 11
80.81467383649998
 21
59.66443176270001
 31
0.0
  0
LINE
  5
22C
330
1F
100
AcDbEntity
  8
DIMENSION
100
AcDbLine
 10
80.81467383649998
 20
59.66443176270001
 30
0.0
 11
81.1224460304
 21
59.8732226176
 31
0.0
  0
LINE
  5
22D
330
1F
100
AcDbEntity
  8
DIMENSION
100
AcDbLine
 10
81.1224460304
 20
59.8732226176
 30
0.0
 11
80.74765512389999
 21
60.0687795943
 31
0.0
  0
LINE
  5
22E
330
1F
100
AcDbEntity
  8
DIMENSION
100
AcDbLine
 10
82.29873348359999
 20
60.1328979822
 30
0.0
 11
81.99096128969999
 21
59.9241071272
 31
0.0
  0
LINE
  5
22F
330
1F
100
AcDbEntity
  8
DIMENSION
100
AcDbLine
 10
81.92394257720001
 20
60.3284549588
 30
0.0
 11
82.29873348359999
 21
60.1328979822
 31
0.0
  0
LINE
  5
230
330
1F
100
AcDbEntity
  8
DIMENSION
100
AcDbLine
 10
81.24137947680001
 20
60.3152210805
 30
0.0
 11
81.92394257720001
 21
60.3284549588
 31
0.0
  0
LINE
  5
231
330
1F
100
AcDbEntity
  8
DIMENSION
100
AcDbLine
 10
81.24137947680001
 20
60.3152210805
 30
0.0
 11
80.93360728289999
 21
60.1064302255
 31
0.0
  0
LINE
  5
232
330
1F
100
AcDbEntity
  8
DIMENSION
100
AcDbLine
 10
80.93360728289999
 20
60.1064302255
 30
0.0
 11
81.30839818930001
 21
59.9108732489
 31
0.0
  0
LINE
  5
233
330
1F
100
AcDbEntity
  8
DIMENSION
100
AcDbLine
 10
81.30839818930001
 20
59.9108732489
 30
0.0
 11
81.99096128969999
 21
59.9241071272
 31
0.0
  0
LINE
  5
234
330
1F
100
AcDbEntity
  8
DIMENSION
100
AcDbLine
 10
81.4057544663
 20
59.4233579766
 30
0.0
 11
82.08831756669999
 21
59.43659185489999
 31
0.0
  0
LINE
  5
235
330
1F
100
AcDbEntity
  8
DIMENSION
100
AcDbLine
 10
82.08831756669999
 20
59.43659185489999
 30
0.0
 11
82.39608976060001
 21
59.6453827099
 31
0.0
  0
LINE
  5
236
330
1F
100
AcDbEntity
  8
DIMENSION
100
AcDbLine
 10
82.39608976060001
 20
59.6453827099
 30
0.0
 11
82.02129885419999
 21
59.84093968649999
 31
0.0
  0
LINE
  5
237
330
1F
100
AcDbEntity
  8
DIMENSION
100
AcDbLine
 10
82.02129885419999
 20
59.84093968649999
 30
0.0
 11
81.3441492029
 21
59.8248811992
 31
0.0
  0
LINE
  5
238
330
1F
100
AcDbEntity
  8
DIMENSION
100
AcDbLine
 10
81.3441492029
 20
59.8248811992
 30
0.0
 11
81.03096355979999
 21
59.61891495319999
 31
0.0
  0
LINE
  5
239
330
1F
100
AcDbEntity
  8
DIMENSION
100
AcDbLine
 10
81.03096355979999
 20
59.61891495319999
 30
0.0
 11
81.4057544663
 21
59.4233579766
 31
0.0
  0
LINE
  5
23A
330
1F
100
AcDbEntity
  8
DIMENSION
100
AcDbLine
 10
80.22946701310001
 20
59.16368261199999
 30
0.0
 11
80.91203011350001
 21
59.1769164904
 31
0.0
  0
LINE
  5
23B
330
1F
100
AcDbEntity
  8
DIMENSION
100
AcDbLine
 10
80.91203011350001
 20
59.1769164904
 30
0.0
 11
81.2198023074
 21
59.38570734529999
 31
0.0
  0
LINE
  5
23C
330
1F
100
AcDbEntity
  8
DIMENSION
100
AcDbLine
 10
81.2198023074
 20
59.38570734529999
 30
0.0
 11
80.84501140090001
 21
59.581264322
 31
0.0
  0
LINE
  5
23D
330
1F
100
AcDbEntity
  8
DIMENSION
100
AcDbLine
 10
80.84501140090001
 20
59.581264322
 30
0.0
 11
80.1624483005
 21
59.56803044359999
 31
0.0
  0
LINE
  5
23E
330
1F
100
AcDbEntity
  8
DIMENSION
100
AcDbLine
 10
80.1624483005
 20
59.56803044359999
 30
0.0
 11
79.85467610659999
 21
59.3592395887
 31
0.0
  0
LINE
  5
23F
330
1F
100
AcDbEntity
  8
DIMENSION
100
AcDbLine
 10
79.85467610659999
 20
59.3592395887
 30
0.0
 11
80.22946701310001
 21
59.16368261199999
 31
0.0
  0
LINE
  5
240
330
1F
100
AcDbEntity
  8
DIMENSION
100
AcDbLine
 10
79.6687239477
 20
59.32158895739999
 30
0.0
 11
78.9915742964
 21
59.3055304701
 31
0.0
  0
LINE
  5
241
330
1F
100
AcDbEntity
  8
DIMENSION
100
AcDbLine
 10
78.9915742964
 20
59.3055304701
 30
0.0
 11
78.67838865340001
 21
59.0995642241
 31
0.0
  0
LINE
  5
242
330
1F
100
AcDbEntity
  8
DIMENSION
100
AcDbLine
 10
78.67838865340001
 20
59.0995642241
 30
0.0
 11
79.0531795598
 21
58.9040072475
 31
0.0
  0
LINE
  5
243
330
1F
100
AcDbEntity
  8
DIMENSION
100
AcDbLine
 10
79.0531795598
 20
58.9040072475
 30
0.0
 11
79.7357426602
 21
58.9172411258
 31
0.0
  0
LINE
  5
244
330
1F
100
AcDbEntity
  8
DIMENSION
100
AcDbLine
 10
79.7357426602
 20
58.9172411258
 30
0.0
 11
80.0435148542
 21
59.1260319808
 31
0.0
  0
LINE
  5
245
330
1F
100
AcDbEntity
  8
DIMENSION
100
AcDbLine
 10
80.0435148542
 20
59.1260319808
 30
0.0
 11
79.6687239477
 21
59.32158895739999
 31
0.0
  0
LINE
  5
246
330
1F
100
AcDbEntity
  8
DIMENSION
100
AcDbLine
 10
81.5031107433
 20
58.9358427043
 30
0.0
 11
82.1856738437
 21
58.9490765826
 31
0.0
  0
LINE
  5
247
330
1F
100
AcDbEntity
  8
DIMENSION
100
AcDbLine
 10
82.1856738437
 20
58.9490765826
 30
0.0
 11
82.4934460376
 21
59.1578674376
 31
0.0
  0
LINE
  5
248
330
1F
100
AcDbEntity
  8
DIMENSION
100
AcDbLine
 10
82.4934460376
 20
59.1578674376
 30
0.0
 11
82.1186551311
 21
59.3534244142
 31
0.0
  0
LINE
  5
249
330
1F
100
AcDbEntity
  8
DIMENSION
100
AcDbLine
 10
82.1186551311
 20
59.3534244142
 30
0.0
 11
81.44150547989999
 21
59.337365927
 31
0.0
  0
LINE
  5
24A
330
1F
100
AcDbEntity
  8
DIMENSION
100
AcDbLine
 10
81.44150547989999
 20
59.337365927
 30
0.0
 11
81.12831983680001
 21
59.1313996809
 31
0.0
  0
LINE
  5
24B
330
1F
100
AcDbEntity
  8
DIMENSION
100
AcDbLine
 10
81.12831983680001
 20
59.1313996809
 30
0.0
 11
81.5031107433
 21
58.9358427043
 31
0.0
  0
LINE
  5
24C
330
1F
100
AcDbEntity
  8
DIMENSION
100
AcDbLine
 10
83.6697334908
 20
59.4175428022
 30
0.0
 11
83.3619612969
 21
59.2087519472
 31
0.0
  0
LINE
  5
24D
330
1F
100
AcDbEntity
  8
DIMENSION
100
AcDbLine
 10
83.29494258439998
 20
59.6130997788
 30
0.0
 11
83.6697334908
 21
59.4175428022
 31
0.0
  0
LINE
  5
24E
330
1F
100
AcDbEntity
  8
DIMENSION
100
AcDbLine
 10
82.61237948399999
 20
59.59986590039999
 30
0.0
 11
83.29494258439998
 21
59.6130997788
 31
0.0
  0
LINE
  5
24F
330
1F
100
AcDbEntity
  8
DIMENSION
100
AcDbLine
 10
82.61237948399999
 20
59.59986590039999
 30
0.0
 11
82.30460729010001
 21
59.3910750455
 31
0.0
  0
LINE
  5
250
330
1F
100
AcDbEntity
  8
DIMENSION
100
AcDbLine
 10
82.30460729010001
 20
59.3910750455
 30
0.0
 11
82.67939819650001
 21
59.1955180688
 31
0.0
  0
LINE
  5
251
330
1F
100
AcDbEntity
  8
DIMENSION
100
AcDbLine
 10
82.67939819650001
 20
59.1955180688
 30
0.0
 11
83.3619612969
 21
59.2087519472
 31
0.0
  0
LINE
  5
252
330
1F
100
AcDbEntity
  8
DIMENSION
100
AcDbLine
 10
81.9924908085
 20
62.6994687003
 30
0.0
 11
81.9924908085
 21
62.6109495838
 31
0.0
  0
LINE
  5
253
330
1F
100
AcDbEntity
  8
DIMENSION
100
AcDbLine
 10
80.2305361746
 20
62.78470079569999
 30
0.0
 11
80.2305361746
 21
62.5895233964
 31
0.0
  0
LINE
  5
254
330
1F
100
AcDbEntity
  8
DIMENSION
100
AcDbLine
 10
79.5479730742
 20
62.7713649768
 30
0.0
 11
79.5479730742
 21
62.57628951810001
 31
0.0
  0
LINE
  5
255
330
1F
100
AcDbEntity
  8
DIMENSION
100
AcDbLine
 10
77.78060499109999
 20
62.6114920683
 30
0.0
 11
77.78060499109999
 21
62.5576879396
 31
0.0
  0
LINE
  5
256
330
1F
100
AcDbEntity
  8
DIMENSION
100
AcDbLine
 10
83.2607210896
 20
62.5194326627
 30
0.0
 11
83.2607210896
 21
62.38593428499999
 31
0.0
  0
LINE
  5
257
330
1F
100
AcDbEntity
  8
DIMENSION
100
AcDbLine
 10
81.4987664557
 20
62.7338871598
 30
0.0
 11
81.4987664557
 21
62.3645080976
 31
0.0
  0
LINE
  5
258
330
1F
100
AcDbEntity
  8
DIMENSION
100
AcDbLine
 10
80.8216168044
 20
62.7540968346
 30
0.0
 11
80.8216168044
 21
62.34844961029999
 31
0.0
  0
LINE
  5
259
330
1F
100
AcDbEntity
  8
DIMENSION
100
AcDbLine
 10
79.0488352722
 20
62.702051703
 30
0.0
 11
79.0488352722
 21
62.3326726408
 31
0.0
  0
LINE
  5
25A
330
1F
100
AcDbEntity
  8
DIMENSION
100
AcDbLine
 10
78.371685621
 20
62.6864088076
 30
0.0
 11
78.371685621
 21
62.3166141535
 31
0.0
  0
LINE
  5
25B
330
1F
100
AcDbEntity
  8
DIMENSION
100
AcDbLine
 10
76.60973098699999
 20
62.3858783535
 30
0.0
 11
76.60973098699999
 21
62.29518796609999
 31
0.0
  0
LINE
  5
25C
330
1F
100
AcDbEntity
  8
DIMENSION
100
AcDbLine
 10
84.52895137069999
 20
62.2036189182
 30
0.0
 11
84.52895137069999
 21
62.1609189862
 31
0.0
  0
LINE
  5
25D
330
1F
100
AcDbEntity
  8
DIMENSION
100
AcDbLine
 10
82.7669967367
 20
62.508871861
 30
0.0
 11
82.7669967367
 21
62.1394927988
 31
0.0
  0
LINE
  5
25E
330
1F
100
AcDbEntity
  8
DIMENSION
100
AcDbLine
 10
82.0898470855
 20
62.52908153579999
 30
0.0
 11
82.0898470855
 21
62.12343431149999
 31
0.0
  0
LINE
  5
25F
330
1F
100
AcDbEntity
  8
DIMENSION
100
AcDbLine
 10
77.8779612681
 20
62.43955172949999
 30
0.0
 11
77.8779612681
 21
62.07017266729999
 31
0.0
  0
LINE
  5
260
330
1F
100
AcDbEntity
  8
DIMENSION
100
AcDbLine
 10
77.19539816770001
 20
62.4625860132
 30
0.0
 11
77.19539816770001
 21
62.056938789
 31
0.0
  0
LINE
  5
261
330
1F
100
AcDbEntity
  8
DIMENSION
100
AcDbLine
 10
84.0352270178
 20
62.2838565622
 30
0.0
 11
84.0352270178
 21
61.9144775
 31
0.0
  0
LINE
  5
262
330
1F
100
AcDbEntity
  8
DIMENSION
100
AcDbLine
 10
83.35807736659999
 20
62.304066237
 30
0.0
 11
83.35807736659999
 21
61.8984190127
 31
0.0
  0
LINE
  5
263
330
1F
100
AcDbEntity
  8
DIMENSION
100
AcDbLine
 10
81.5961227326
 20
62.2463718875
 30
0.0
 11
81.5961227326
 21
61.8769928253
 31
0.0
  0
LINE
  5
264
330
1F
100
AcDbEntity
  8
DIMENSION
100
AcDbLine
 10
80.9189730814
 20
62.2665815623
 30
0.0
 11
80.9189730814
 21
61.86093433799999
 31
0.0
  0
LINE
  5
265
330
1F
100
AcDbEntity
  8
DIMENSION
100
AcDbLine
 10
79.1461915492
 20
62.21453643069999
 30
0.0
 11
79.1461915492
 21
61.8451573685
 31
0.0
  0
LINE
  5
266
330
1F
100
AcDbEntity
  8
DIMENSION
100
AcDbLine
 10
78.4690418979
 20
62.2347461055
 30
0.0
 11
78.4690418979
 21
61.8290988812
 31
0.0
  0
LINE
  5
267
330
1F
100
AcDbEntity
  8
DIMENSION
100
AcDbLine
 10
76.707087264
 20
62.177051756
 30
0.0
 11
76.707087264
 21
61.8076726938
 31
0.0
  0
LINE
  5
268
330
1F
100
AcDbEntity
  8
DIMENSION
100
AcDbLine
 10
76.0299376128
 20
62.19726143079999
 30
0.0
 11
76.0299376128
 21
61.79161420649999
 31
0.0
  0
LINE
  5
269
330
1F
100
AcDbEntity
  8
DIMENSION
100
AcDbLine
 10
85.30345729889999
 20
61.9026363521
 30
0.0
 11
85.30345729889999
 21
61.6894622012
 31
0.0
  0
LINE
  5
26A
330
1F
100
AcDbEntity
  8
DIMENSION
100
AcDbLine
 10
84.6208941985
 20
62.0818755472
 30
0.0
 11
84.6208941985
 21
61.6762283229
 31
0.0
  0
LINE
  5
26B
330
1F
100
AcDbEntity
  8
DIMENSION
100
AcDbLine
 10
82.8643530137
 20
62.0213565887
 30
0.0
 11
82.8643530137
 21
61.6519775265
 31
0.0
  0
LINE
  5
26C
330
1F
100
AcDbEntity
  8
DIMENSION
100
AcDbLine
 10
82.18720336249999
 20
62.0415662635
 30
0.0
 11
82.18720336249999
 21
61.6359190392
 31
0.0
  0
LINE
  5
26D
330
1F
100
AcDbEntity
  8
DIMENSION
100
AcDbLine
 10
80.41983527939999
 20
61.9866965229
 30
0.0
 11
80.41983527939999
 21
61.6173174608
 31
0.0
  0
LINE
  5
26E
330
1F
100
AcDbEntity
  8
DIMENSION
100
AcDbLine
 10
79.74268562819999
 20
62.0069061978
 30
0.0
 11
79.74268562819999
 21
61.6012589735
 31
0.0
  0
LINE
  5
26F
330
1F
100
AcDbEntity
  8
DIMENSION
100
AcDbLine
 10
77.9753175451
 20
61.9520364572
 30
0.0
 11
77.9753175451
 21
61.582657395
 31
0.0
  0
LINE
  5
270
330
1F
100
AcDbEntity
  8
DIMENSION
100
AcDbLine
 10
77.2981678938
 20
61.97224613199999
 30
0.0
 11
77.2981678938
 21
61.56659890770001
 31
0.0
  0
LINE
  5
271
330
1F
100
AcDbEntity
  8
DIMENSION
100
AcDbLine
 10
75.54704015819999
 20
61.9089025646
 30
0.0
 11
75.54704015819999
 21
61.53952350239999
 31
0.0
  0
LINE
  5
272
330
1F
100
AcDbEntity
  8
DIMENSION
100
AcDbLine
 10
74.8644770578
 20
61.7346101328
 30
0.0
 11
74.8644770578
 21
61.52628962409999
 31
0.0
  0
LINE
  5
273
330
1F
100
AcDbEntity
  8
DIMENSION
100
AcDbLine
 10
85.8837110304
 20
61.569226898
 30
0.0
 11
85.8837110304
 21
61.454037633
 31
0.0
  0
LINE
  5
274
330
1F
100
AcDbEntity
  8
DIMENSION
100
AcDbLine
 10
84.13258329479999
 20
61.7963412899
 30
0.0
 11
84.13258329479999
 21
61.4269622277
 31
0.0
  0
LINE
  5
275
330
1F
100
AcDbEntity
  8
DIMENSION
100
AcDbLine
 10
83.4500201944
 20
61.8193755737
 30
0.0
 11
83.4500201944
 21
61.4137283494
 31
0.0
  0
LINE
  5
276
330
1F
100
AcDbEntity
  8
DIMENSION
100
AcDbLine
 10
81.6934790096
 20
61.7588566152
 30
0.0
 11
81.6934790096
 21
61.389477553
 31
0.0
  0
LINE
  5
277
330
1F
100
AcDbEntity
  8
DIMENSION
100
AcDbLine
 10
81.01632935839999
 20
61.77906629
 30
0.0
 11
81.01632935839999
 21
61.3734190657
 31
0.0
  0
LINE
  5
278
330
1F
100
AcDbEntity
  8
DIMENSION
100
AcDbLine
 10
79.24896127529999
 20
61.7241965494
 30
0.0
 11
79.24896127529999
 21
61.3548174873
 31
0.0
  0
LINE
  5
279
330
1F
100
AcDbEntity
  8
DIMENSION
100
AcDbLine
 10
78.5663981749
 20
61.74723083319999
 30
0.0
 11
78.5663981749
 21
61.3415836089
 31
0.0
  0
LINE
  5
27A
330
1F
100
AcDbEntity
  8
DIMENSION
100
AcDbLine
 10
76.8152704393
 20
61.68388726579999
 30
0.0
 11
76.8152704393
 21
61.3145082036
 31
0.0
  0
LINE
  5
27B
330
1F
100
AcDbEntity
  8
DIMENSION
100
AcDbLine
 10
76.13270733890001
 20
61.7069215496
 30
0.0
 11
76.13270733890001
 21
61.3012743253
 31
0.0
  0
LINE
  5
27C
330
1F
100
AcDbEntity
  8
DIMENSION
100
AcDbLine
 10
74.3761661541
 20
61.3820095055
 30
0.0
 11
74.3761661541
 21
61.2770235289
 31
0.0
  0
LINE
  5
27D
330
1F
100
AcDbEntity
  8
DIMENSION
100
AcDbLine
 10
85.3954001267
 20
61.5741506
 30
0.0
 11
85.3954001267
 21
61.2047715379
 31
0.0
  0
LINE
  5
27E
330
1F
100
AcDbEntity
  8
DIMENSION
100
AcDbLine
 10
84.7128370264
 20
61.5945218404
 30
0.0
 11
84.7128370264
 21
61.1915376595
 31
0.0
  0
LINE
  5
27F
330
1F
100
AcDbEntity
  8
DIMENSION
100
AcDbLine
 10
82.96170929069999
 20
61.5338413164
 30
0.0
 11
82.96170929069999
 21
61.1644622542
 31
0.0
  0
LINE
  5
280
330
1F
100
AcDbEntity
  8
DIMENSION
100
AcDbLine
 10
82.2791461903
 20
61.5568756002
 30
0.0
 11
82.2791461903
 21
61.1512283759
 31
0.0
  0
LINE
  5
281
330
1F
100
AcDbEntity
  8
DIMENSION
100
AcDbLine
 10
80.5226050055
 20
61.4963566417
 30
0.0
 11
80.5226050055
 21
61.1269775795
 31
0.0
  0
LINE
  5
282
330
1F
100
AcDbEntity
  8
DIMENSION
100
AcDbLine
 10
79.84004190510001
 20
61.51939092550001
 30
0.0
 11
79.84004190510001
 21
61.1137437012
 31
0.0
  0
LINE
  5
283
330
1F
100
AcDbEntity
  8
DIMENSION
100
AcDbLine
 10
78.07808727120001
 20
61.4616965759
 30
0.0
 11
78.07808727120001
 21
61.0923175138
 31
0.0
  0
LINE
  5
284
330
1F
100
AcDbEntity
  8
DIMENSION
100
AcDbLine
 10
77.40093761999999
 20
61.4819062508
 30
0.0
 11
77.40093761999999
 21
61.07625902649999
 31
0.0
  0
LINE
  5
285
330
1F
100
AcDbEntity
  8
DIMENSION
100
AcDbLine
 10
75.6443964352
 20
61.4213872923
 30
0.0
 11
75.6443964352
 21
61.0520082301
 31
0.0
  0
LINE
  5
286
330
1F
100
AcDbEntity
  8
DIMENSION
100
AcDbLine
 10
74.96724678390001
 20
61.4415969671
 30
0.0
 11
74.96724678390001
 21
61.0359497429
 31
0.0
  0
LINE
  5
287
330
1F
100
AcDbEntity
  8
DIMENSION
100
AcDbLine
 10
85.98106730739999
 20
61.36950654159999
 30
0.0
 11
85.98106730739999
 21
60.96652236069999
 31
0.0
  0
LINE
  5
288
330
1F
100
AcDbEntity
  8
DIMENSION
100
AcDbLine
 10
84.2245261226
 20
61.3116506265
 30
0.0
 11
84.2245261226
 21
60.94227156439999
 31
0.0
  0
LINE
  5
289
330
1F
100
AcDbEntity
  8
DIMENSION
100
AcDbLine
 10
83.54196302229999
 20
61.33202186689999
 30
0.0
 11
83.54196302229999
 21
60.929037686
 31
0.0
  0
LINE
  5
28A
330
1F
100
AcDbEntity
  8
DIMENSION
100
AcDbLine
 10
81.79083528659999
 20
61.2713413429
 30
0.0
 11
81.79083528659999
 21
60.90196228069999
 31
0.0
  0
LINE
  5
28B
330
1F
100
AcDbEntity
  8
DIMENSION
100
AcDbLine
 10
81.1082721862
 20
61.2943756267
 30
0.0
 11
81.1082721862
 21
60.8887284024
 31
0.0
  0
LINE
  5
28C
330
1F
100
AcDbEntity
  8
DIMENSION
100
AcDbLine
 10
79.3517310014
 20
61.23385666819999
 30
0.0
 11
79.3517310014
 21
60.864477606
 31
0.0
  0
LINE
  5
28D
330
1F
100
AcDbEntity
  8
DIMENSION
100
AcDbLine
 10
78.66916790100001
 20
61.256890952
 30
0.0
 11
78.66916790100001
 21
60.8512437277
 31
0.0
  0
LINE
  5
28E
330
1F
100
AcDbEntity
  8
DIMENSION
100
AcDbLine
 10
76.91262671629999
 20
61.1963719935
 30
0.0
 11
76.91262671629999
 21
60.8269929313
 31
0.0
  0
LINE
  5
28F
330
1F
100
AcDbEntity
  8
DIMENSION
100
AcDbLine
 10
76.235477065
 20
61.2165816683
 30
0.0
 11
76.235477065
 21
60.8109344441
 31
0.0
  0
LINE
  5
290
330
1F
100
AcDbEntity
  8
DIMENSION
100
AcDbLine
 10
74.4735224311
 20
61.1588873188
 30
0.0
 11
74.4735224311
 21
60.7895082566
 31
0.0
  0
LINE
  5
291
330
1F
100
AcDbEntity
  8
DIMENSION
100
AcDbLine
 10
85.4927564037
 20
61.0866353277
 30
0.0
 11
85.4927564037
 21
60.71725626560001
 31
0.0
  0
LINE
  5
292
330
1F
100
AcDbEntity
  8
DIMENSION
100
AcDbLine
 10
84.81019330329999
 20
61.1070065681
 30
0.0
 11
84.81019330329999
 21
60.7040223872
 31
0.0
  0
LINE
  5
293
330
1F
100
AcDbEntity
  8
DIMENSION
100
AcDbLine
 10
83.05365211859999
 20
61.04915065300001
 30
0.0
 11
83.05365211859999
 21
60.6797715909
 31
0.0
  0
LINE
  5
294
330
1F
100
AcDbEntity
  8
DIMENSION
100
AcDbLine
 10
82.37108901819999
 20
61.0695218934
 30
0.0
 11
82.37108901819999
 21
60.6665377125
 31
0.0
  0
LINE
  5
295
330
1F
100
AcDbEntity
  8
DIMENSION
100
AcDbLine
 10
78.1808569973
 20
60.9713566947
 30
0.0
 11
78.1808569973
 21
60.6019776325
 31
0.0
  0
LINE
  5
296
330
1F
100
AcDbEntity
  8
DIMENSION
100
AcDbLine
 10
77.5037073461
 20
60.9915663695
 30
0.0
 11
77.5037073461
 21
60.5859191453
 31
0.0
  0
LINE
  5
297
330
1F
100
AcDbEntity
  8
DIMENSION
100
AcDbLine
 10
75.74175271219999
 20
60.93387202
 30
0.0
 11
75.74175271219999
 21
60.5644929578
 31
0.0
  0
LINE
  5
298
330
1F
100
AcDbEntity
  8
DIMENSION
100
AcDbLine
 10
75.0646030609
 20
60.95408169479999
 30
0.0
 11
75.0646030609
 21
60.54843447060001
 31
0.0
  0
LINE
  5
299
330
1F
100
AcDbEntity
  8
DIMENSION
100
AcDbLine
 10
86.07842358440001
 20
60.8819912693
 30
0.0
 11
86.07842358440001
 21
60.4790070884
 31
0.0
  0
LINE
  5
29A
330
1F
100
AcDbEntity
  8
DIMENSION
100
AcDbLine
 10
83.63931929919999
 20
60.44419005419999
 30
0.0
 11
83.63931929919999
 21
60.4415224138
 31
0.0
  0
LINE
  5
29B
330
1F
100
AcDbEntity
  8
DIMENSION
100
AcDbLine
 10
81.88819156360001
 20
60.7838260706
 30
0.0
 11
81.88819156360001
 21
60.4144470085
 31
0.0
  0
LINE
  5
29C
330
1F
100
AcDbEntity
  8
DIMENSION
100
AcDbLine
 10
81.2056284632
 20
60.80686035439999
 30
0.0
 11
81.2056284632
 21
60.40121313010001
 31
0.0
  0
LINE
  5
29D
330
1F
100
AcDbEntity
  8
DIMENSION
100
AcDbLine
 10
79.4490872784
 20
60.7463413959
 30
0.0
 11
79.4490872784
 21
60.3769623338
 31
0.0
  0
LINE
  5
29E
330
1F
100
AcDbEntity
  8
DIMENSION
100
AcDbLine
 10
78.76652417799999
 20
60.7693756797
 30
0.0
 11
78.76652417799999
 21
60.3637284554
 31
0.0
  0
LINE
  5
29F
330
1F
100
AcDbEntity
  8
DIMENSION
100
AcDbLine
 10
77.0099829932
 20
60.7088567212
 30
0.0
 11
77.0099829932
 21
60.33947765909999
 31
0.0
  0
LINE
  5
2A0
330
1F
100
AcDbEntity
  8
DIMENSION
100
AcDbLine
 10
76.332833342
 20
60.729066396
 30
0.0
 11
76.332833342
 21
60.32341917180001
 31
0.0
  0
LINE
  5
2A1
330
1F
100
AcDbEntity
  8
DIMENSION
100
AcDbLine
 10
74.57087870810001
 20
60.67137204649999
 30
0.0
 11
74.57087870810001
 21
60.30199298439999
 31
0.0
  0
LINE
  5
2A2
330
1F
100
AcDbEntity
  8
DIMENSION
100
AcDbLine
 10
85.59011268069999
 20
60.5991200554
 30
0.0
 11
85.59011268069999
 21
60.22974099329999
 31
0.0
  0
LINE
  5
2A3
330
1F
100
AcDbEntity
  8
DIMENSION
100
AcDbLine
 10
84.90754958030001
 20
60.6194912958
 30
0.0
 11
84.90754958030001
 21
60.216507115
 31
0.0
  0
LINE
  5
2A4
330
1F
100
AcDbEntity
  8
DIMENSION
100
AcDbLine
 10
83.1564218447
 20
60.5588107718
 30
0.0
 11
83.1564218447
 21
60.1894317097
 31
0.0
  0
LINE
  5
2A5
330
1F
100
AcDbEntity
  8
DIMENSION
100
AcDbLine
 10
82.47385874429999
 20
60.5791820122
 30
0.0
 11
82.47385874429999
 21
60.1761978313
 31
0.0
  0
LINE
  5
2A6
330
1F
100
AcDbEntity
  8
DIMENSION
100
AcDbLine
 10
80.71731755950001
 20
60.5213260971
 30
0.0
 11
80.71731755950001
 21
60.151947035
 31
0.0
  0
LINE
  5
2A7
330
1F
100
AcDbEntity
  8
DIMENSION
100
AcDbLine
 10
80.0347544591
 20
60.5443603809
 30
0.0
 11
80.0347544591
 21
60.1387131566
 31
0.0
  0
LINE
  5
2A8
330
1F
100
AcDbEntity
  8
DIMENSION
100
AcDbLine
 10
78.2782132743
 20
60.48384142239999
 30
0.0
 11
78.2782132743
 21
60.1144623603
 31
0.0
  0
LINE
  5
2A9
330
1F
100
AcDbEntity
  8
DIMENSION
100
AcDbLine
 10
77.59565017389999
 20
60.5068757062
 30
0.0
 11
77.59565017389999
 21
60.10122848189999
 31
0.0
  0
LINE
  5
2AA
330
1F
100
AcDbEntity
  8
DIMENSION
100
AcDbLine
 10
75.8391089892
 20
60.4463567477
 30
0.0
 11
75.8391089892
 21
60.0769776856
 31
0.0
  0
LINE
  5
2AB
330
1F
100
AcDbEntity
  8
DIMENSION
100
AcDbLine
 10
75.1619593379
 20
60.4665664225
 30
0.0
 11
75.1619593379
 21
60.0609191983
 31
0.0
  0
LINE
  5
2AC
330
1F
100
AcDbEntity
  8
DIMENSION
100
AcDbLine
 10
84.4246521258
 20
60.333795473
 30
0.0
 11
84.4246521258
 21
59.9644164109
 31
0.0
  0
LINE
  5
2AD
330
1F
100
AcDbEntity
  8
DIMENSION
100
AcDbLine
 10
83.74208902540001
 20
60.3568297568
 30
0.0
 11
83.74208902540001
 21
59.9511825325
 31
0.0
  0
LINE
  5
2AE
330
1F
100
AcDbEntity
  8
DIMENSION
100
AcDbLine
 10
81.99096128969999
 20
60.29348618939999
 30
0.0
 11
81.99096128969999
 21
59.9241071272
 31
0.0
  0
LINE
  5
2AF
330
1F
100
AcDbEntity
  8
DIMENSION
100
AcDbLine
 10
81.30839818930001
 20
60.3165204731
 30
0.0
 11
81.30839818930001
 21
59.9108732489
 31
0.0
  0
LINE
  5
2B0
330
1F
100
AcDbEntity
  8
DIMENSION
100
AcDbLine
 10
79.54103010629999
 20
60.2616507326
 30
0.0
 11
79.54103010629999
 21
59.8922716704
 31
0.0
  0
LINE
  5
2B1
330
1F
100
AcDbEntity
  8
DIMENSION
100
AcDbLine
 10
78.8584670059
 20
60.28202197289999
 30
0.0
 11
78.8584670059
 21
59.8790377921
 31
0.0
  0
LINE
  5
2B2
330
1F
100
AcDbEntity
  8
DIMENSION
100
AcDbLine
 10
77.1073392702
 20
60.2213414489
 30
0.0
 11
77.1073392702
 21
59.8519623868
 31
0.0
  0
LINE
  5
2B3
330
1F
100
AcDbEntity
  8
DIMENSION
100
AcDbLine
 10
76.42477616979999
 20
60.24437573270001
 30
0.0
 11
76.42477616979999
 21
59.8387285084
 31
0.0
  0
LINE
  5
2B4
330
1F
100
AcDbEntity
  8
DIMENSION
100
AcDbLine
 10
85.01031930640001
 20
60.131814458
 30
0.0
 11
85.01031930640001
 21
59.72616723369999
 31
0.0
  0
LINE
  5
2B5
330
1F
100
AcDbEntity
  8
DIMENSION
100
AcDbLine
 10
83.25919157079999
 20
60.0684708906
 30
0.0
 11
83.25919157079999
 21
59.6990918284
 31
0.0
  0
LINE
  5
2B6
330
1F
100
AcDbEntity
  8
DIMENSION
100
AcDbLine
 10
82.5766284704
 20
60.08884213089999
 30
0.0
 11
82.5766284704
 21
59.6858579501
 31
0.0
  0
LINE
  5
2B7
330
1F
100
AcDbEntity
  8
DIMENSION
100
AcDbLine
 10
80.81467383649998
 20
60.03381082479999
 30
0.0
 11
80.81467383649998
 21
59.66443176270001
 31
0.0
  0
LINE
  5
2B8
330
1F
100
AcDbEntity
  8
DIMENSION
100
AcDbLine
 10
80.13211073609999
 20
60.0541820652
 30
0.0
 11
80.13211073609999
 21
59.6511978843
 31
0.0
  0
LINE
  5
2B9
330
1F
100
AcDbEntity
  8
DIMENSION
100
AcDbLine
 10
77.6875930018
 20
59.61920545899999
 30
0.0
 11
77.6875930018
 21
59.61653781859999
 31
0.0
  0
LINE
  5
2BA
330
1F
100
AcDbEntity
  8
DIMENSION
100
AcDbLine
 10
75.9364652661
 20
59.95884147539999
 30
0.0
 11
75.9364652661
 21
59.5894624133
 31
0.0
  0
LINE
  5
2BB
330
1F
100
AcDbEntity
  8
DIMENSION
100
AcDbLine
 10
75.25390216569999
 20
59.9818757592
 30
0.0
 11
75.25390216569999
 21
59.5762285349
 31
0.0
  0
LINE
  5
2BC
330
1F
100
AcDbEntity
  8
DIMENSION
100
AcDbLine
 10
84.5274218519
 20
59.8434555918
 30
0.0
 11
84.5274218519
 21
59.47407652959999
 31
0.0
  0
LINE
  5
2BD
330
1F
100
AcDbEntity
  8
DIMENSION
100
AcDbLine
 10
83.8448587515
 20
59.8638268321
 30
0.0
 11
83.8448587515
 21
59.4608426513
 31
0.0
  0
LINE
  5
2BE
330
1F
100
AcDbEntity
  8
DIMENSION
100
AcDbLine
 10
82.08831756669999
 20
59.80597091709999
 30
0.0
 11
82.08831756669999
 21
59.43659185489999
 31
0.0
  0
LINE
  5
2BF
330
1F
100
AcDbEntity
  8
DIMENSION
100
AcDbLine
 10
81.4057544663
 20
59.8263421575
 30
0.0
 11
81.4057544663
 21
59.4233579766
 31
0.0
  0
LINE
  5
2C0
330
1F
100
AcDbEntity
  8
DIMENSION
100
AcDbLine
 10
79.6383863833
 20
59.7741354603
 30
0.0
 11
79.6383863833
 21
59.4047563981
 31
0.0
  0
LINE
  5
2C1
330
1F
100
AcDbEntity
  8
DIMENSION
100
AcDbLine
 10
78.9558232829
 20
59.7945067006
 30
0.0
 11
78.9558232829
 21
59.3915225198
 31
0.0
  0
LINE
  5
2C2
330
1F
100
AcDbEntity
  8
DIMENSION
100
AcDbLine
 10
77.19928209809999
 20
59.7366507856
 30
0.0
 11
77.19928209809999
 21
59.3672717234
 31
0.0
  0
LINE
  5
2C3
330
1F
100
AcDbEntity
  8
DIMENSION
100
AcDbLine
 10
76.51671899770001
 20
59.75702202589999
 30
0.0
 11
76.51671899770001
 21
59.3540378451
 31
0.0
  0
LINE
  5
2C4
330
1F
100
AcDbEntity
  8
DIMENSION
100
AcDbLine
 10
83.3619612969
 20
59.5781310093
 30
0.0
 11
83.3619612969
 21
59.2087519472
 31
0.0
  0
LINE
  5
2C5
330
1F
100
AcDbEntity
  8
DIMENSION
100
AcDbLine
 10
82.67939819650001
 20
59.6011652931
 30
0.0
 11
82.67939819650001
 21
59.1955180688
 31
0.0
  0
LINE
  5
2C6
330
1F
100
AcDbEntity
  8
DIMENSION
100
AcDbLine
 10
80.91203011350001
 20
59.5462955525
 30
0.0
 11
80.91203011350001
 21
59.1769164904
 31
0.0
  0
LINE
  5
2C7
330
1F
100
AcDbEntity
  8
DIMENSION
100
AcDbLine
 10
80.22946701310001
 20
59.5693298363
 30
0.0
 11
80.22946701310001
 21
59.16368261199999
 31
0.0
  0
LINE
  5
2C8
330
1F
100
AcDbEntity
  8
DIMENSION
100
AcDbLine
 10
78.4675123792
 20
59.5116354868
 30
0.0
 11
78.4675123792
 21
59.14225642459999
 31
0.0
  0
LINE
  5
2C9
330
1F
100
AcDbEntity
  8
DIMENSION
100
AcDbLine
 10
77.7849492788
 20
59.5320067271
 30
0.0
 11
77.7849492788
 21
59.1290225463
 31
0.0
  0
LINE
  5
2CA
330
1F
100
AcDbEntity
  8
DIMENSION
100
AcDbLine
 10
82.1856738437
 20
59.31845564479999
 30
0.0
 11
82.1856738437
 21
58.9490765826
 31
0.0
  0
LINE
  5
2CB
330
1F
100
AcDbEntity
  8
DIMENSION
100
AcDbLine
 10
81.5031107433
 20
59.3388268852
 30
0.0
 11
81.5031107433
 21
58.9358427043
 31
0.0
  0
LINE
  5
2CC
330
1F
100
AcDbEntity
  8
DIMENSION
100
AcDbLine
 10
79.7357426602
 20
59.286620188
 30
0.0
 11
79.7357426602
 21
58.9172411258
 31
0.0
  0
LINE
  5
2CD
330
1F
100
AcDbEntity
  8
DIMENSION
100
AcDbLine
 10
79.0531795598
 20
59.3069914284
 30
0.0
 11
79.0531795598
 21
58.9040072475
 31
0.0
  0
LINE
  5
2CE
330
1F
100
AcDbEntity
  8
DIMENSION
100
AcDbLine
 10
78.303621396
 20
60.0338669855
 30
0.0
 11
78.303621396
 21
60.03119934499999
 31
0.0
  0
LINE
  5
2CF
330
1F
100
AcDbEntity
  8
DIMENSION
100
AcDbLine
 10
78.6757055779
 20
59.8397223133
 30
0.0
 11
78.6757055779
 21
59.8370546729
 31
0.0
  0
LINE
  5
2D0
330
1F
100
AcDbEntity
  8
DIMENSION
100
AcDbLine
 10
78.6757055779
 20
59.8370546729
 30
0.0
 11
78.303621396
 21
60.03119934499999
 31
0.0
  0
LINE
  5
2D1
330
1F
100
AcDbEntity
  8
DIMENSION
100
AcDbLine
 10
78.303621396
 20
60.03119934499999
 30
0.0
 11
77.6259877384
 21
60.01806104119999
 31
0.0
  0
LINE
  5
2D2
330
1F
100
AcDbEntity
  8
DIMENSION
100
AcDbLine
 10
78.37015610219999
 20
59.62977169689999
 30
0.0
 11
78.6757055779
 21
59.8370546729
 31
0.0
  0
LINE
  5
2D3
330
1F
100
AcDbEntity
  8
DIMENSION
100
AcDbLine
 10
77.6925224445
 20
59.6166333931
 30
0.0
 11
78.37015610219999
 21
59.62977169689999
 31
0.0
  0
LINE
  5
2D4
330
1F
100
AcDbEntity
  8
DIMENSION
100
AcDbLine
 10
77.3204382626
 20
59.8107780653
 30
0.0
 11
77.6925224445
 21
59.6166333931
 31
0.0
  0
LINE
  5
2D5
330
1F
100
AcDbEntity
  8
DIMENSION
100
AcDbLine
 10
77.6259877384
 20
60.01806104119999
 30
0.0
 11
77.3204382626
 21
59.8107780653
 31
0.0
  0
LINE
  5
2D6
330
1F
100
AcDbEntity
  8
DIMENSION
100
AcDbLine
 10
77.3204382626
 20
59.81711671350001
 30
0.0
 11
77.3204382626
 21
59.8107780653
 31
0.0
  0
LINE
  5
2D7
330
1F
100
AcDbEntity
  8
DIMENSION
100
AcDbLine
 10
84.25534769349999
 20
60.85885158069999
 30
0.0
 11
84.25534769349999
 21
60.8561839402
 31
0.0
  0
LINE
  5
2D8
330
1F
100
AcDbEntity
  8
DIMENSION
100
AcDbLine
 10
84.25534769349999
 20
60.8561839402
 30
0.0
 11
83.57771403580001
 21
60.8430456364
 31
0.0
  0
LINE
  5
2D9
330
1F
100
AcDbEntity
  8
DIMENSION
100
AcDbLine
 10
84.3218823996
 20
60.4547562921
 30
0.0
 11
84.6274318754
 21
60.6620392681
 31
0.0
  0
LINE
  5
2DA
330
1F
100
AcDbEntity
  8
DIMENSION
100
AcDbLine
 10
83.644248742
 20
60.4416179883
 30
0.0
 11
84.3218823996
 21
60.4547562921
 31
0.0
  0
LINE
  5
2DB
330
1F
100
AcDbEntity
  8
DIMENSION
100
AcDbLine
 10
83.27216456010001
 20
60.6357626604
 30
0.0
 11
83.644248742
 21
60.4416179883
 31
0.0
  0
LINE
  5
2DC
330
1F
100
AcDbEntity
  8
DIMENSION
100
AcDbLine
 10
83.57771403580001
 20
60.8430456364
 30
0.0
 11
83.27216456010001
 21
60.6357626604
 31
0.0
  0
LINE
  5
2DD
330
1F
100
AcDbEntity
  8
DIMENSION
100
AcDbLine
 10
84.6274318754
 20
60.6620392681
 30
0.0
 11
84.25534769349999
 21
60.8561839402
 31
0.0
  0
LINE
  5
2DE
330
1F
100
AcDbEntity
  8
DIMENSION
100
AcDbLine
 10
84.6274318754
 20
60.6647069085
 30
0.0
 11
84.6274318754
 21
60.6620392681
 31
0.0
  0
LINE
  5
2DF
330
1F
100
AcDbEntity
  8
DIMENSION
100
AcDbLine
 10
83.27216456010001
 20
60.6421013087
 30
0.0
 11
83.27216456010001
 21
60.6357626604
 31
0.0
  0
LWPOLYLINE
  5
2E0
330
1F
100
AcDbEntity
  8
DIMENSION
100
AcDbPolyline
 90
       15
 70
   128
 43
0.0
 10
79.4342298867
 20
64.5087061106
 10
80.95754122069999
 20
64.51129439510001
 10
82.46415518579999
 20
64.43432158649999
 10
83.91875802779999
 20
64.279591862
 10
85.28725508879999
 20
64.05073195539999
 10
86.53756995749999
 20
63.7531061489
 10
87.6403963133
 20
63.393690539
 10
88.569884841
 20
62.98090952319999
 10
89.30424911739999
 20
62.52443833850001
 10
89.82627626620001
 20
62.0349762826
 10
90.1237304135
 20
61.5239959313
 10
90.1896394861
 20
61.0034742309
 10
90.0224586314
 20
60.4856117689
 10
89.6261064269
 20
59.98254680239999
 10
89.51270564719999
 20
59.8782998108
  0
LWPOLYLINE
  5
2E1
330
1F
100
AcDbEntity
  8
DIMENSION
100
AcDbPolyline
 90
       14
 70
   128
 43
0.0
 10
70.9776351049
 20
59.8782998108
 10
70.8976505788
 20
59.9507249608
 10
70.4867041322
 20
60.4524182322
 10
70.3044878634
 20
60.9696870276
 10
70.35527276749999
 20
61.4904070047
 10
70.6378684891
 20
62.0023729288
 10
71.1456512243
 20
62.4935847524
 10
71.8667189759
 20
62.9525288867
 10
72.7841705272
 20
63.3684480702
 10
73.87650159119999
 20
63.7315935097
 10
75.1181088537
 20
64.0334533841
 10
76.47989009279999
 20
64.2669523535
 10
77.92992631050001
 20
64.4266174002
 10
79.4342298867
 20
64.5087061106
  0
LWPOLYLINE
  5
2E2
330
1F
100
AcDbEntity
  8
DIMENSION
100
AcDbPolyline
 90
       41
 70
   128
 43
0.0
 10
79.4749806651
 20
63.86841864239999
 10
80.9578506669
 20
63.86996665619999
 10
82.42317211479999
 20
63.7921565231
 10
83.83486393149999
 20
63.6369041867
 10
85.15816557939999
 20
63.408032475
 10
86.36049298000001
 20
63.11117696890001
 10
87.4122408426
 20
62.7536472363
 10
88.28751164409998
 20
62.3442468458
 10
88.96475331259999
 20
61.89305659359999
 10
89.42728991059999
 20
61.4111862813
 10
89.6637322519
 20
60.9105011551
 10
89.66825834139999
 20
60.4033297445
 10
89.4407567318
 20
59.90216029289999
 10
88.9868292677
 20
59.41933325539999
 10
88.3176531498
 20
58.9667374361
 10
87.44970571489998
 20
58.55551724619999
 10
86.40435870959999
 20
58.1957982915
 10
85.20735204620001
 20
57.89643804649999
 10
83.88816000170001
 20
57.66480775399999
 10
82.47926546210001
 20
57.5066109205
 10
81.015360087
 20
57.425742877
 10
79.53249008510001
 20
57.4241948632
 10
78.0671686373
 20
57.5020049964
 10
76.6554768206
 20
57.6572573327
 10
75.3321751727
 20
57.88612904449999
 10
74.12984777210001
 20
58.1829845505
 10
73.0780999095
 20
58.5405142831
 10
72.202829108
 20
58.9499146737
 10
71.5255874395
 20
59.4011049258
 10
71.0630508415
 20
59.8829752382
 10
70.82660850020001
 20
60.38366036439999
 10
70.82208241069999
 20
60.890831775
 10
71.0495840203
 20
61.3920012266
 10
71.50351148439999
 20
61.8748282641
 10
72.1726876023
 20
62.3274240833
 10
73.04063503720001
 20
62.73864427319999
 10
74.08598204250001
 20
63.0983632279
 10
75.28298870579999
 20
63.3977234729
 10
76.60218075039999
 20
63.6293537654
 10
78.01107528999999
 20
63.787550599
 10
79.4749806651
 20
63.86841864239999
  0
LWPOLYLINE
  5
2E3
330
1F
100
AcDbEntity
  8
DIMENSION
100
AcDbPolyline
 90
       36
 70
   128
 43
0.0
 10
79.6379837785
 20
63.1866540112
 10
80.97356493040001
 20
63.182922943
 10
82.28573488189999
 20
63.09768782049999
 10
83.53231941129999
 20
62.9336881708
 10
84.67325226600001
 20
62.69619507739999
 10
85.67186292529999
 20
62.3928417639
 10
86.49605522100001
 20
62.03337825520001
 10
87.1193389345
 20
61.62935800439999
 10
87.52168121450001
 20
61.19376655479999
 10
87.69015044899999
 20
60.7406041738
 10
87.6193318982
 20
60.28443587339999
 10
87.31150172860001
 20
59.839923278
 10
86.7765538551
 20
59.4213533883
 10
86.0316819426
 20
59.04217938470001
 10
85.1008267871
 20
58.7145882319
 10
84.01390683939998
 20
58.449108979
 10
82.80585660079999
 20
58.2542743476
 10
81.51550379999999
 20
58.1363464831
 10
80.18432143770001
 20
58.0991156841
 10
78.8550948104
 20
58.1437785791
 10
77.5705463555
 20
58.2688996659
 10
76.37196251729999
 20
58.47045744979999
 10
75.29786676659999
 20
58.7419736979
 10
74.38278142459999
 20
59.07472165439999
 10
73.65611808699999
 20
59.4580065263
 10
73.14123231149999
 20
59.8795092225
 10
72.85467295050001
 20
60.32568229939999
 10
72.80565025770001
 20
60.78218538729999
 10
72.99573986279999
 20
61.2343461013
 10
73.4188321294
 20
61.66763162399999
 10
74.06132852399998
 20
62.06811580229999
 10
74.9025786838
 20
62.42292674499999
 10
75.9155441365
 20
62.7206605366
 10
77.06766733890001
 20
62.951747768
 10
78.32191810350001
 20
63.1087611055
 10
79.6379837785
 20
63.1866540112
  0
LWPOLYLINE
  5
2E4
330
1F
100
AcDbEntity
  8
DIMENSION
100
AcDbPolyline
 90
       23
 70
   128
 43
0.0
 10
87.08625356
 20
61.65601588520001
 10
87.3263386416
 20
61.3670289502
 10
87.49028521209998
 20
60.9260320023
 10
87.42136783040001
 20
60.4821098308
 10
87.12180155799998
 20
60.04953045939999
 10
86.60121470129999
 20
59.6421973452
 10
85.87633935019999
 20
59.2732025095
 10
84.9704735949
 20
58.9544057501
 10
83.9127327061
 20
58.696053457
 10
82.73711334640001
 20
58.5064492855
 10
81.4814008893
 20
58.3916872697
 10
80.1859549663
 20
58.35545595520001
 10
78.8924122753
 20
58.3989198463
 10
77.6423483426
 20
58.52068197779999
 10
76.47594125180001
 20
58.71682881449999
 10
75.4306802863
 20
58.9810560358
 10
74.5401609937
 20
59.3048711613
 10
73.8330053968
 20
59.6778665064
 10
73.33194205819999
 20
60.088053694
 10
73.053075566
 20
60.5222489702
 10
73.0053689186
 20
60.96649694159999
 10
73.190355447
 20
61.406519113
 10
73.4040871909
 20
61.656015884
  0
ARC
  5
2E5
330
1F
100
AcDbEntity
  8
DIMENSION
100
AcDbCircle
 10
180.245170376
 20
82.76683950399998
 30
0.0
 40
22.50000000000001
100
AcDbArc
 50
271.5699727419
 51
81.38753612020002
  0
CIRCLE
  5
2E6
330
1F
100
AcDbEntity
  8
DIMENSION
100
AcDbCircle
 10
180.2301761447
 20
82.76642353939999
 30
0.0
 40
22.40000000000004
  0
CIRCLE
  5
2E7
330
1F
100
AcDbEntity
  8
DIMENSION
100
AcDbCircle
 10
180.2301761447
 20
82.76642353939999
 30
0.0
 40
22.50000000000002
  0
ARC
  5
2E8
330
1F
100
AcDbEntity
  8
DIMENSION
100
AcDbCircle
 10
180.245170376
 20
82.76683950399998
 30
0.0
 40
28.00000000000002
100
AcDbArc
 50
270.0
 51
83.40687166069999
  0
ARC
  5
2E9
330
1F
100
AcDbEntity
  8
DIMENSION
100
AcDbCircle
 10
180.245170376
 20
82.76683950399998
 30
0.0
 40
28.00000000000001
100
AcDbArc
 50
99.833295487
 51
270.0
  0
ARC
  5
2EA
330
1F
100
AcDbEntity
  8
DIMENSION
100
AcDbCircle
 10
180.245170376
 20
82.76683950399998
 30
0.0
 40
23.15000000000002
100
AcDbArc
 50
270.0
 51
81.6769077868
  0
ARC
  5
2EB
330
1F
100
AcDbEntity
  8
DIMENSION
100
AcDbCircle
 10
180.245170376
 20
82.76683950399998
 30
0.0
 40
23.15000000000002
100
AcDbArc
 50
101.5766180649
 51
270.0
  0
ARC
  5
2EC
330
1F
100
AcDbEntity
  8
DIMENSION
100
AcDbCircle
 10
180.245170376
 20
82.76683950399998
 30
0.0
 40
22.65000000000002
100
AcDbArc
 50
270.0
 51
81.45581174829999
  0
ARC
  5
2ED
330
1F
100
AcDbEntity
  8
DIMENSION
100
AcDbCircle
 10
180.245170376
 20
82.76683950399998
 30
0.0
 40
22.65
100
AcDbArc
 50
101.7994311653
 51
270.0
  0
LINE
  5
2EE
330
1F
100
AcDbEntity
  8
DIMENSION
100
AcDbLine
 10
182.5231831086
 20
144.3536959182
 30
0.0
 11
174.5262597272
 21
144.1318481489
 31
0.0
  0
DIMENSION
  5
2EF
102
{ACAD_XDICTIONARY
360
420
102
}
330
1F
100
AcDbEntity
  8
DIMENSION
100
AcDbDimension
280
     0
  2
*D13
 10
24.24517037599998
 20
122.766839504
 30
0.0
 11
24.245170376
 21
84.99775836479999
 31
0.0
 70
   160
  1
<>
 71
     2
 42
80.0
 73
     0
 74
     0
 75
     0
  3
RG Dimension Lines
100
AcDbAlignedDimension
 13
40.24517037599999
 23
42.766839504
 33
0.0
 14
40.24517037599999
 24
122.766839504
 34
0.0
 50
90.0
100
AcDbRotatedDimension
1001
AcadAnnotative
1000
AnnotativeData
1002
{
1070
     1
1070
     1
1002
}
  0
DIMENSION
  5
2FC
102
{ACAD_XDICTIONARY
360
412
102
}
330
1F
100
AcDbEntity
  8
DIMENSION
100
AcDbDimension
280
     0
  2
*D12
 10
202.6301761447
 20
154.3536959182
 30
0.0
 11
180.6082615836
 21
154.3536959182
 31
0.0
 70
   160
  1
%%c<>
 71
     2
 42
44.80000000000001
 73
     0
 74
     0
 75
     0
  3
RG Dimension Lines
100
AcDbAlignedDimension
 13
157.8301761447
 23
82.76642353939999
 33
0.0
 14
202.6301761447
 24
82.76642353939999
 34
0.0
100
AcDbRotatedDimension
1001
AcadAnnotative
1000
AnnotativeData
1002
{
1070
     1
1070
     1
1002
}
  0
LINE
  5
305
330
1F
100
AcDbEntity
  8
DIMENSION
100
AcDbLine
 10
485.7401288801
 20
95.46683950409999
 30
0.0
 11
268.9401288801
 21
95.46683950409999
 31
0.0
  0
LINE
  5
306
330
1F
100
AcDbEntity
  8
DIMENSION
100
AcDbLine
 10
292.725110491
 20
70.0668395041
 30
0.0
 11
485.7401288801
 21
70.0668395041
 31
0.0
  0
LINE
  5
307
330
1F
100
AcDbEntity
  8
DIMENSION
100
AcDbLine
 10
268.9401288801
 20
70.0668395041
 30
0.0
 11
271.1433857476
 21
70.0668395041
 31
0.0
  0
LINE
  5
308
330
1F
100
AcDbEntity
  8
DIMENSION
100
AcDbLine
 10
271.4094895332
 20
70.22599946779999
 30
0.0
 11
269.332685578
 21
64.5200274962
 31
0.0
  0
LINE
  5
309
330
1F
100
AcDbEntity
  8
DIMENSION
100
AcDbLine
 10
288.0325687316
 20
57.71382664399999
 30
0.0
 11
292.586517285
 21
70.2256974637
 31
0.0
  0
LINE
  5
30A
330
1F
100
AcDbEntity
  8
DIMENSION
100
AcDbLine
 10
269.332685578
 20
64.5200274962
 30
0.0
 11
269.6315218167
 21
63.8791711141
 31
0.0
  0
LINE
  5
30B
330
1F
100
AcDbEntity
  8
DIMENSION
100
AcDbLine
 10
287.3917123496
 20
57.41499040529999
 30
0.0
 11
288.0325687316
 21
57.71382664399999
 31
0.0
  0
LINE
  5
30C
330
1F
100
AcDbEntity
  8
DIMENSION
100
AcDbLine
 10
522.6401288801
 20
105.266839504
 30
0.0
 11
514.4401288801
 21
105.266839504
 31
0.0
  0
LINE
  5
30D
330
1F
100
AcDbEntity
  8
DIMENSION
100
AcDbLine
 10
514.4401288801
 20
60.26683950399999
 30
0.0
 11
522.6401288801
 21
60.26683950399999
 31
0.0
  0
LINE
  5
30E
330
1F
100
AcDbEntity
  8
DIMENSION
100
AcDbLine
 10
485.8401288800999
 20
60.26642353939999
 30
0.0
 11
503.7434504516999
 21
60.26642353939999
 31
0.0
  0
LINE
  5
30F
330
1F
100
AcDbEntity
  8
DIMENSION
100
AcDbLine
 10
492.1452126509
 20
105.2664235394
 30
0.0
 11
485.8401288800999
 21
105.2664235394
 31
0.0
  0
LINE
  5
310
330
1F
100
AcDbEntity
  8
DIMENSION
100
AcDbLine
 10
512.7401288800999
 20
105.2664235394
 30
0.0
 11
500.1521423966
 21
105.2664235394
 31
0.0
  0
ARC
  5
311
330
1F
100
AcDbEntity
  8
DIMENSION
100
AcDbCircle
 10
485.8401288800999
 20
105.1664235394
 30
0.0
 40
0.1000000000000227
100
AcDbArc
 50
90.0
 51
180.0
  0
ARC
  5
312
330
1F
100
AcDbEntity
  8
DIMENSION
100
AcDbCircle
 10
485.8401288800999
 20
60.36642353939999
 30
0.0
 40
0.1000000000000227
100
AcDbArc
 50
180.0
 51
270.0
  0
LINE
  5
313
330
1F
100
AcDbEntity
  8
DIMENSION
100
AcDbLine
 10
514.4260812108999
 20
62.266839504
 30
0.0
 11
514.4401288801
 21
62.28007537319999
 31
0.0
  0
LINE
  5
314
330
1F
100
AcDbEntity
  8
DIMENSION
100
AcDbLine
 10
514.4401288801
 20
103.2536036348
 30
0.0
 11
514.4260812108999
 21
103.266839504
 31
0.0
  0
LWPOLYLINE
  5
315
330
1F
100
AcDbEntity
  8
DIMENSION
100
AcDbPolyline
 90
        3
 70
   128
 43
0.0
 10
514.4260812108999
 20
103.266839504
 10
512.8735216941
 20
103.1404643066
 10
512.7401288800999
 20
103.1239017504
  0
ARC
  5
316
330
1F
100
AcDbEntity
  8
DIMENSION
100
AcDbCircle
 10
515.2711636294999
 20
82.2489774203
 30
0.0
 40
20.0
100
AcDbArc
 50
240.4177355045
 51
267.578296216
  0
LINE
  5
317
330
1F
100
AcDbEntity
  8
0
  6
Continuous
 62
     7
370
    25
100
AcDbLine
 10
522.6401288801
 20
54.766839504
 30
0.0
 11
527.4401288801
 21
54.766839504
 31
0.0
  0
LINE
  5
318
330
1F
100
AcDbEntity
  8
0
  6
Continuous
 62
     7
370
    25
100
AcDbLine
 10
527.4401288801
 20
110.766839504
 30
0.0
 11
522.6401288801
 21
110.766839504
 31
0.0
  0
LINE
  5
319
330
1F
100
AcDbEntity
  8
DIMENSION
100
AcDbLine
 10
492.1401288801
 20
144.2427720336
 30
0.0
 11
492.1401288801
 21
105.2664235394
 31
0.0
  0
LINE
  5
31A
330
1F
100
AcDbEntity
  8
DIMENSION
100
AcDbLine
 10
500.1401288801
 20
105.2626247559
 30
0.0
 11
500.1401288801
 21
144.2427720336
 31
0.0
  0
LINE
  5
31B
330
1F
100
AcDbEntity
  8
0
  6
Continuous
 62
     7
370
    25
100
AcDbLine
 10
529.4401288801
 20
122.766839504
 30
0.0
 11
527.4401288801
 21
122.766839504
 31
0.0
  0
LINE
  5
31C
330
1F
100
AcDbEntity
  8
0
  6
Continuous
 62
     7
370
    25
100
AcDbLine
 10
529.4401288801
 20
122.766839504
 30
0.0
 11
529.4401288801
 21
42.766839504
 31
0.0
  0
LINE
  5
31D
330
1F
100
AcDbEntity
  8
0
  6
Continuous
 62
     7
370
    25
100
AcDbLine
 10
529.4401288801
 20
42.766839504
 30
0.0
 11
527.4401288801
 21
42.766839504
 31
0.0
  0
LINE
  5
31E
330
1F
100
AcDbEntity
  8
0
  6
Continuous
 62
     7
370
    25
100
AcDbLine
 10
527.4401288801
 20
122.766839504
 30
0.0
 11
527.4401288801
 21
42.766839504
 31
0.0
  0
SPLINE
  5
31F
330
1F
100
AcDbEntity
  8
DIMENSION
100
AcDbSpline
210
0.0
220
0.0
230
1.0
 70
     8
 71
     3
 72
    27
 73
    23
 74
     0
 42
0.00000001
 43
0.0000000001
 40
0.0
 40
0.0
 40
0.0
 40
0.0
 40
0.0634199656453922
 40
0.1276315723069985
 40
0.1795082394110849
 40
0.2328275058022185
 40
0.3096324580721662
 40
0.3886023088237443
 40
0.4361747516056762
 40
0.4845333474210582
 40
0.5186165676686691
 40
0.5535307007749206
 40
0.5876828780540757
 40
0.6230910178224326
 40
0.6617745521196077
 40
0.7015601595507994
 40
0.7520556327540304
 40
0.8040008900682524
 40
0.8547779044854801
 40
0.9071491341611483
 40
0.9567707316646371
 40
1.0
 40
1.0
 40
1.0
 40
1.0
 10
271.1433857475597
 20
70.06957959778827
 30
0.0
 10
271.20657043341
 20
70.10697505765557
 30
0.0
 10
271.333728509242
 20
70.1822327669816
 30
0.0
 10
272.2293141408023
 20
70.70504241579907
 30
0.0
 10
273.3361597579021
 20
71.33338909831015
 30
0.0
 10
274.7519687497674
 20
72.10956167941856
 30
0.0
 10
276.600189744383
 20
73.06065468278134
 30
0.0
 10
278.5938798213517
 20
73.95549863056039
 30
0.0
 10
280.433904155807
 20
74.60642208615782
 30
0.0
 10
281.8767826792382
 20
74.97009585208686
 30
0.0
 10
283.2264433187809
 20
75.14184609380115
 30
0.0
 10
284.4303049673746
 20
75.13908646614705
 30
0.0
 10
285.6283366799065
 20
74.95436097343127
 30
0.0
 10
286.8002013404532
 20
74.58434234944767
 30
0.0
 10
287.9208209003559
 20
74.04819841896584
 30
0.0
 10
289.0458559195486
 20
73.34569769968107
 30
0.0
 10
290.1150910148303
 20
72.53300871093248
 30
0.0
 10
291.0686294142392
 20
71.70452444736333
 30
0.0
 10
291.8347603157513
 20
70.98090923327491
 30
0.0
 10
292.3724311173064
 20
70.44587170655434
 30
0.0
 10
292.6934628727718
 20
70.11667261590826
 30
0.0
 10
292.7150568311563
 20
70.09422462766115
 30
0.0
 10
292.7251104910011
 20
70.08377335078015
 30
0.0
  0
LINE
  5
320
330
1F
100
AcDbEntity
  8
DIMENSION
100
AcDbLine
 10
268.9401288801
 20
95.46683950409999
 30
0.0
 11
268.9401288801
 21
70.0668395041
 31
0.0
  0
LINE
  5
321
330
1F
100
AcDbEntity
  8
DIMENSION
100
AcDbLine
 10
269.332685578
 20
64.5200274962
 30
0.0
 11
288.0325687316
 21
57.71382664399999
 31
0.0
  0
LINE
  5
322
330
1F
100
AcDbEntity
  8
DIMENSION
100
AcDbLine
 10
269.6315218167
 20
63.8791711141
 30
0.0
 11
287.3917123496
 21
57.41499040529999
 31
0.0
  0
LINE
  5
323
330
1F
100
AcDbEntity
  8
DIMENSION
100
AcDbLine
 10
514.4401288801
 20
105.266839504
 30
0.0
 11
514.4401288801
 21
60.26683950399999
 31
0.0
  0
SPLINE
  5
324
330
1F
100
AcDbEntity
  8
DIMENSION
100
AcDbSpline
210
0.0
220
0.0
230
1.0
 70
     8
 71
     3
 72
    12
 73
     8
 74
     0
 42
0.00000001
 43
0.0000000001
 40
0.0
 40
0.0
 40
0.0
 40
0.0
 40
0.235311668174487
 40
0.4705278982483512
 40
0.7082132423353024
 40
0.9475713621603961
 40
1.0
 40
1.0
 40
1.0
 40
1.0
 10
496.1401288800645
 20
104.9949032994828
 30
0.0
 10
496.5963525538856
 20
105.0020666412356
 30
0.0
 10
497.5086148655657
 20
105.0163904194209
 30
0.0
 10
498.7350316965954
 20
105.1162698901677
 30
0.0
 10
499.6410334948769
 20
105.2138081240476
 30
0.0
 10
500.12996186177
 20
105.2736858879556
 30
0.0
 10
500.1487640026028
 20
105.2614365952263
 30
0.0
 10
500.1521423966061
 20
105.2592356258011
 30
0.0
  0
SPLINE
  5
325
330
1F
100
AcDbEntity
  8
DIMENSION
100
AcDbSpline
210
0.0
220
0.0
230
1.0
 70
     8
 71
     3
 72
    12
 73
     8
 74
     0
 42
0.00000001
 43
0.0000000001
 40
0.0
 40
0.0
 40
0.0
 40
0.0
 40
0.1148470676967356
 40
0.3492111803730095
 40
0.5867808242463184
 40
0.8262879039666755
 40
1.0
 40
1.0
 40
1.0
 40
1.0
 10
492.1452126509321
 20
105.2563875234016
 30
0.0
 10
492.1684184914897
 20
105.2582943096931
 30
0.0
 10
492.2389796223498
 20
105.2640922034046
 30
0.0
 10
492.8332087400222
 20
105.1914801648467
 30
0.0
 10
493.8298918005605
 20
105.088981245633
 30
0.0
 10
495.0049670930606
 20
105.0080069675729
 30
0.0
 10
495.8041588221786
 20
104.998781548537
 30
0.0
 10
496.1401288800645
 20
104.9949032994828
 30
0.0
  0
ELLIPSE
  5
326
330
1F
100
AcDbEntity
  8
DIMENSION
100
AcDbEllipse
 10
512.3770696683999
 20
82.76642353939999
 30
0.0
 11
8.63441730883278
 21
22.49985736645891
 31
0.0
210
0.0
220
0.0
230
1.0
 40
0.0092786195
 41
1.504574480215576
 42
3.786747811189878
  0
LINE
  5
327
330
1F
100
AcDbEntity
  8
DIMENSION
100
AcDbLine
 10
512.7401288800999
 20
84.33525674020001
 30
0.0
 11
512.7401288800999
 21
105.2664235394
 31
0.0
  0
LINE
  5
328
330
1F
100
AcDbEntity
  8
DIMENSION
100
AcDbLine
 10
512.7401288800999
 20
84.33525674020001
 30
0.0
 11
512.7401288800999
 21
84.3005605539
 31
0.0
  0
SPLINE
  5
329
330
1F
100
AcDbEntity
  8
DIMENSION
100
AcDbSpline
210
0.0
220
0.0
230
1.0
 70
     8
 71
     3
 72
    17
 73
    13
 74
     0
 42
0.00000001
 43
0.0000000001
 40
0.0
 40
0.0
 40
0.0
 40
0.0
 40
0.1023578818906917
 40
0.2047155449167209
 40
0.3070801200063923
 40
0.4094439313227544
 40
0.511726379345175
 40
0.6140077698192865
 40
0.7160930427902497
 40
0.8181774203940921
 40
0.9200456077255584
 40
1.0
 40
1.0
 40
1.0
 40
1.0
 10
512.7401288800646
 20
84.30056055387089
 30
0.0
 10
512.3095689110924
 20
83.17953908279447
 30
0.0
 10
511.4484498937839
 20
80.93749853764306
 30
0.0
 10
510.177518763926
 20
77.60743448179169
 30
0.0
 10
508.969349679588
 20
74.42548752747024
 30
0.0
 10
507.8543370983545
 20
71.47091340010963
 30
0.0
 10
506.8689476252981
 20
68.83994717139898
 30
0.0
 10
506.0365033297258
 20
66.59563546982508
 30
0.0
 10
505.3849160372216
 20
64.81242285399921
 30
0.0
 10
504.9336618651966
 20
63.54391699974055
 30
0.0
 10
504.6900409745406
 20
62.81849695594694
 30
0.0
 10
504.6966878946462
 20
62.77664287178168
 30
0.0
 10
504.6996108014639
 20
62.75823801870517
 30
0.0
  0
SPLINE
  5
32A
330
1F
100
AcDbEntity
  8
DIMENSION
100
AcDbSpline
210
0.0
220
0.0
230
1.0
 70
     8
 71
     3
 72
    10
 73
     6
 74
     0
 42
0.00000001
 43
0.0000000001
 40
0.0
 40
0.0
 40
0.0
 40
0.0
 40
0.4022750659347062
 40
0.8045522241444521
 40
1.0
 40
1.0
 40
1.0
 40
1.0
 10
504.6933929614572
 20
62.72070139882081
 30
0.0
 10
504.7432818891562
 20
62.81778980836133
 30
0.0
 10
504.8430600040315
 20
63.01196713240941
 30
0.0
 10
505.1587282868222
 20
63.75456054011795
 30
0.0
 10
505.4673779042755
 20
64.51536596601059
 30
0.0
 10
505.5683020548539
 20
64.76413880427621
 30
0.0
  0
LINE
  5
32B
330
1F
100
AcDbEntity
  8
DIMENSION
100
AcDbLine
 10
485.7401288801
 20
83.38759729359999
 30
0.0
 11
485.7401288801
 21
105.1664235394
 31
0.0
  0
LINE
  5
32C
330
1F
100
AcDbEntity
  8
DIMENSION
100
AcDbLine
 10
485.7401288801
 20
60.36642353939999
 30
0.0
 11
485.7401288801
 21
83.38759729359999
 31
0.0
  0
LINE
  5
32D
330
1F
100
AcDbEntity
  8
DIMENSION
100
AcDbLine
 10
514.4260812108999
 20
103.266839504
 30
0.0
 11
514.4260812108999
 21
62.266839504
 31
0.0
  0
LINE
  5
32E
330
1F
100
AcDbEntity
  8
0
  6
Continuous
 62
     7
370
    25
100
AcDbLine
 10
522.6401288801
 20
54.766839504
 30
0.0
 11
522.6401288801
 21
110.766839504
 31
0.0
  0
ARC
  5
32F
330
1F
100
AcDbEntity
  8
DIMENSION
100
AcDbCircle
 10
496.1401288801
 20
93.18852464649999
 30
0.0
 40
51.21070372742746
100
AcDbArc
 50
85.52013967470001
 51
94.47986032530002
  0
LINE
  5
330
330
1F
100
AcDbEntity
  8
DIMENSION
100
AcDbLine
 10
485.8401288800999
 20
83.39037039069999
 30
0.0
 11
485.8401288800999
 21
60.26642353939999
 31
0.0
  0
LINE
  5
331
330
1F
100
AcDbEntity
  8
DIMENSION
100
AcDbLine
 10
485.8401288800999
 20
105.2664235394
 30
0.0
 11
485.8401288800999
 21
83.39037039069999
 31
0.0
  0
POINT
  5
332
330
1F
100
AcDbEntity
  8
DIMENSION
100
AcDbPoint
 10
278.5116170832
 20
60.6470807597
 30
0.0
  0
DIMENSION
  5
333
102
{ACAD_XDICTIONARY
360
404
102
}
330
1F
100
AcDbEntity
  8
DIMENSION
100
AcDbDimension
280
     0
  2
*D11
 10
529.4401288801
 20
20.766839504
 30
0.0
 11
401.4417508933
 21
20.766839504
 31
0.0
 70
   160
  1
<>
 71
     2
 42
250.9285117969
 73
     0
 74
     0
 75
     0
  3
RG Dimension Lines
100
AcDbAlignedDimension
 13
278.5116170832
 23
60.6470807597
 33
0.0
 14
529.4401288801
 24
42.766839504
 34
0.0
100
AcDbRotatedDimension
1001
AcadAnnotative
1000
AnnotativeData
1002
{
1070
     1
1070
     1
1002
}
1001
ACAD
1000
DSTYLE
1002
{
1070
    45
1040
5.0
1002
}
  0
LINE
  5
33B
330
1F
100
AcDbEntity
  8
0
  6
Continuous
 62
     7
370
    25
100
AcDbLine
 10
53.2451703767
 20
433.5023878574999
 30
0.0
 11
53.2451703767
 21
431.0023878575
 31
0.0
  0
LINE
  5
33C
330
1F
100
AcDbEntity
  8
0
  6
Continuous
 62
     7
370
    25
100
AcDbLine
 10
107.2451703767
 20
431.0023878575
 30
0.0
 11
107.2451703767
 21
433.5023878574999
 31
0.0
  0
LINE
  5
33D
330
1F
100
AcDbEntity
  8
0
  6
Continuous
 62
     7
370
    25
100
AcDbLine
 10
60.2451703767
 20
431.0023878575
 30
0.0
 11
60.2451703767
 21
425.0023878574999
 31
0.0
  0
LINE
  5
33E
330
1F
100
AcDbEntity
  8
0
  6
Continuous
 62
     7
370
    25
100
AcDbLine
 10
100.2451703767
 20
425.0023878574999
 30
0.0
 11
100.2451703767
 21
431.0023878575
 31
0.0
  0
LINE
  5
33F
330
1F
100
AcDbEntity
  8
DIMENSION
100
AcDbLine
 10
67.5451703761
 20
425.0023878574999
 30
0.0
 11
67.5451703761
 21
175.0023878575
 31
0.0
  0
LINE
  5
340
330
1F
100
AcDbEntity
  8
DIMENSION
100
AcDbLine
 10
92.94517037610001
 20
175.0023878575
 30
0.0
 11
92.94517037610001
 21
425.0023878574999
 31
0.0
  0
LINE
  5
341
330
1F
100
AcDbEntity
  8
0
  6
Continuous
 62
     7
370
    25
100
AcDbLine
 10
157.745170376
 20
428.7023878574999
 30
0.0
 11
157.745170376
 21
420.5023878575
 31
0.0
  0
LINE
  5
342
330
1F
100
AcDbEntity
  8
0
  6
Continuous
 62
     7
370
    25
100
AcDbLine
 10
202.745170376
 20
420.5023878575
 30
0.0
 11
202.745170376
 21
428.7023878574999
 31
0.0
  0
LINE
  5
343
330
1F
100
AcDbEntity
  8
0
  6
Continuous
 62
     7
370
    25
100
AcDbLine
 10
202.7301761447
 20
391.9023878575
 30
0.0
 11
202.7301761447
 21
418.1998178898
 31
0.0
  0
LINE
  5
344
330
1F
100
AcDbEntity
  8
0
  6
Continuous
 62
     7
370
    25
100
AcDbLine
 10
157.7301761447
 20
418.6788394018
 30
0.0
 11
157.7301761447
 21
391.9023878575
 31
0.0
  0
ARC
  5
345
330
1F
100
AcDbEntity
  8
0
  6
Continuous
 62
     7
370
    25
100
AcDbCircle
 10
157.8301761447
 20
391.9023878575
 30
0.0
 40
0.1000000000000227
100
AcDbArc
 50
180.0
 51
270.0
  0
ARC
  5
346
330
1F
100
AcDbEntity
  8
0
  6
Continuous
 62
     7
370
    25
100
AcDbCircle
 10
202.6301761447
 20
391.9023878575
 30
0.0
 40
0.1000000000000227
100
AcDbArc
 50
270.0
 51
0.0
  0
LINE
  5
347
330
1F
100
AcDbEntity
  8
0
  6
Continuous
 62
     7
370
    25
100
AcDbLine
 10
200.745170376
 20
420.4883401883
 30
0.0
 11
200.7319345068
 21
420.5023878575
 31
0.0
  0
LINE
  5
348
330
1F
100
AcDbEntity
  8
0
  6
Continuous
 62
     7
370
    25
100
AcDbLine
 10
159.7584062452
 20
420.5023878575
 30
0.0
 11
159.745170376
 21
420.4883401883
 31
0.0
  0
LWPOLYLINE
  5
349
330
1F
100
AcDbEntity
  8
0
  6
Continuous
 62
     7
370
    25
100
AcDbPolyline
 90
        3
 70
   128
 43
0.0
 10
159.745170376
 20
420.4883401883
 10
159.8715455734
 20
418.9357806714999
 10
159.8881081296
 20
418.8023878574999
  0
LWPOLYLINE
  5
34A
330
1F
100
AcDbEntity
  8
0
  6
Continuous
 62
     7
370
    25
100
AcDbPolyline
 90
        3
 70
   128
 43
0.0
 10
200.6022326225
 20
418.8023878574999
 10
200.6187951786
 20
418.9357806714999
 10
200.745170376
 20
420.4883401883
  0
LINE
  5
34B
330
1F
100
AcDbEntity
  8
0
  6
Continuous
 62
     7
370
    25
100
AcDbLine
 10
208.245170376
 20
428.7023878574999
 30
0.0
 11
208.245170376
 21
433.5023878574999
 31
0.0
  0
LINE
  5
34C
330
1F
100
AcDbEntity
  8
0
  6
Continuous
 62
     7
370
    25
100
AcDbLine
 10
152.245170376
 20
433.5023878574999
 30
0.0
 11
152.245170376
 21
428.7023878574999
 31
0.0
  0
LINE
  5
34D
330
1F
100
AcDbEntity
  8
0
  6
Continuous
 62
     7
370
    25
100
AcDbLine
 10
178.5247214179
 20
398.2023878575
 30
0.0
 11
179.6339602646
 21
398.2023878575
 31
0.0
  0
LINE
  5
34E
330
1F
100
AcDbEntity
  8
0
  6
Continuous
 62
     7
370
    25
100
AcDbLine
 10
179.6339602646
 20
406.2023878575
 30
0.0
 11
178.5247214179
 21
406.2023878575
 31
0.0
  0
LINE
  5
34F
330
1F
100
AcDbEntity
  8
0
  6
Continuous
 62
     7
370
    25
100
AcDbLine
 10
40.24517037599999
 20
435.5023878575
 30
0.0
 11
40.24517037599999
 21
433.5023878574999
 31
0.0
  0
LINE
  5
350
330
1F
100
AcDbEntity
  8
0
  6
Continuous
 62
     7
370
    25
100
AcDbLine
 10
220.245170376
 20
435.5023878575
 30
0.0
 11
220.245170376
 21
433.5023878574999
 31
0.0
  0
LINE
  5
351
330
1F
100
AcDbEntity
  8
0
  6
Continuous
 62
     7
370
    25
100
AcDbLine
 10
40.24517037599999
 20
433.5023878574999
 30
0.0
 11
220.245170376
 21
433.5023878574999
 31
0.0
  0
LINE
  5
352
330
1F
100
AcDbEntity
  8
0
  6
Continuous
 62
     7
370
    25
100
AcDbLine
 10
40.24517037599999
 20
435.5023878575
 30
0.0
 11
220.245170376
 21
435.5023878575
 31
0.0
  0
LINE
  5
353
330
1F
100
AcDbEntity
  8
0
  6
Continuous
 62
     7
370
    25
100
AcDbLine
 10
66.612228324
 20
431.0023878575
 30
0.0
 11
107.2451703767
 21
431.0023878575
 31
0.0
  0
LINE
  5
354
330
1F
100
AcDbEntity
  8
0
  6
Continuous
 62
     7
370
    25
100
AcDbLine
 10
53.2451703767
 20
431.0023878575
 30
0.0
 11
66.612228324
 21
431.0023878575
 31
0.0
  0
LINE
  5
355
330
1F
100
AcDbEntity
  8
0
  6
Continuous
 62
     7
370
    25
100
AcDbLine
 10
64.8971836549
 20
425.0023878574999
 30
0.0
 11
100.2451703767
 21
425.0023878574999
 31
0.0
  0
LINE
  5
356
330
1F
100
AcDbEntity
  8
0
  6
Continuous
 62
     7
370
    25
100
AcDbLine
 10
60.2451703767
 20
425.0023878574999
 30
0.0
 11
64.8971836549
 21
425.0023878574999
 31
0.0
  0
LINE
  5
357
330
1F
100
AcDbEntity
  8
DIMENSION
100
AcDbLine
 10
67.5451703761
 20
175.0023878575
 30
0.0
 11
92.94517037610001
 21
175.0023878575
 31
0.0
  0
LINE
  5
358
330
1F
100
AcDbEntity
  8
0
  6
Continuous
 62
     7
370
    25
100
AcDbLine
 10
157.745170376
 20
420.5023878575
 30
0.0
 11
202.745170376
 21
420.5023878575
 31
0.0
  0
SPLINE
  5
359
330
1F
100
AcDbEntity
  8
0
  6
Continuous
 62
     7
370
    25
100
AcDbSpline
210
0.0
220
0.0
230
1.0
 70
     8
 71
     3
 72
    13
 73
     9
 74
     0
 42
0.00000001
 43
0.0000000001
 40
0.0
 40
0.0
 40
0.0
 40
0.0
 40
0.1908693417676629
 40
0.3816612704279062
 40
0.5744559819084126
 40
0.7686075389994281
 40
0.9606091695148036
 40
1.0
 40
1.0
 40
1.0
 40
1.0
 10
183.7150990356907
 20
402.2023878575067
 30
0.0
 10
183.6702870491268
 20
402.6592807703095
 30
0.0
 10
183.5806812509196
 20
403.5728812885217
 30
0.0
 10
182.8845832968847
 20
404.7892295884394
 30
0.0
 10
181.8517416798456
 20
405.7339675009358
 30
0.0
 10
180.5623090798246
 20
406.2475515407386
 30
0.0
 10
179.5102027859831
 20
406.3927646161833
 30
0.0
 10
178.983703820486
 20
406.2300819540967
 30
0.0
 10
178.8940758723201
 20
406.2023878575066
 30
0.0
  0
SPLINE
  5
35A
330
1F
100
AcDbEntity
  8
0
  6
Continuous
 62
     7
370
    25
100
AcDbSpline
210
0.0
220
0.0
230
1.0
 70
     8
 71
     3
 72
    13
 73
     9
 74
     0
 42
0.00000001
 43
0.0000000001
 40
0.0
 40
0.0
 40
0.0
 40
0.0
 40
0.1405776662179441
 40
0.3206980879551184
 40
0.5005585211589365
 40
0.6828790077521719
 40
0.8666863604307282
 40
1.0
 40
1.0
 40
1.0
 40
1.0
 10
178.5023674547754
 20
398.297147045784
 30
0.0
 10
178.8474266887498
 20
398.21013277996
 30
0.0
 10
179.6346060433656
 20
398.0116282135854
 30
0.0
 10
180.9135392423783
 20
398.2440911684544
 30
0.0
 10
182.1411206620123
 20
398.878003169965
 30
0.0
 10
183.0923456414426
 20
399.8969278076755
 30
0.0
 10
183.6319561631244
 20
401.0664029977511
 30
0.0
 10
183.6904915162791
 20
401.8661741975164
 30
0.0
 10
183.7150990356907
 20
402.2023878575067
 30
0.0
  0
ELLIPSE
  5
35B
330
1F
100
AcDbEntity
  8
0
  6
Continuous
 62
     7
370
    25
100
AcDbEllipse
 10
180.2301761447
 20
418.4393286458
 30
0.0
 11
22.49974197601375
 21
-0.2808551445344847
 31
0.0
210
0.0
220
0.0
230
1.0
 40
0.3836654296
 41
3.132068268206542
 42
3.14638175677147
  0
ELLIPSE
  5
35C
330
1F
100
AcDbEntity
  8
0
  6
Continuous
 62
     7
370
    25
100
AcDbEllipse
 10
180.2301761447
 20
418.4393286458
 30
0.0
 11
22.49974197601375
 21
-0.2808551445344847
 31
0.0
210
0.0
220
0.0
230
1.0
 40
0.3836654296
 41
0.0047891031816342
 42
0.074571644976858
  0
LINE
  5
35D
330
1F
100
AcDbEntity
  8
0
  6
Continuous
 62
     7
370
    25
100
AcDbLine
 10
202.6754153367
 20
418.8023878574999
 30
0.0
 11
157.7324809598
 21
418.8023878574999
 31
0.0
  0
LWPOLYLINE
  5
35E
330
1F
100
AcDbEntity
  8
0
  6
Continuous
 62
     7
370
    25
100
AcDbPolyline
 90
        3
 70
   128
 43
0.0
 10
179.6339602646
 20
406.3023878574999
 10
179.1399499338
 20
406.2724942412999
 10
178.7343063842
 20
406.2023878575
  0
LWPOLYLINE
  5
35F
330
1F
100
AcDbEntity
  8
0
  6
Continuous
 62
     7
370
    25
100
AcDbPolyline
 90
        3
 70
   128
 43
0.0
 10
178.7343063842
 20
398.2023878575
 10
179.1399499338
 20
398.1322814737
 10
179.6339602646
 20
398.1023878575
  0
LINE
  5
360
330
1F
100
AcDbEntity
  8
0
  6
Continuous
 62
     7
370
    25
100
AcDbLine
 10
202.6301761447
 20
391.8023878575
 30
0.0
 11
157.8301761447
 21
391.8023878575
 31
0.0
  0
LINE
  5
361
330
1F
100
AcDbEntity
  8
0
  6
Continuous
 62
     7
370
    25
100
AcDbLine
 10
175.3270168563
 20
420.4883401883
 30
0.0
 11
200.745170376
 21
420.4883401883
 31
0.0
  0
LINE
  5
362
330
1F
100
AcDbEntity
  8
0
  6
Continuous
 62
     7
370
    25
100
AcDbLine
 10
159.745170376
 20
420.4883401883
 30
0.0
 11
175.3270168563
 21
420.4883401883
 31
0.0
  0
LINE
  5
363
330
1F
100
AcDbEntity
  8
0
  6
Continuous
 62
     7
370
    25
100
AcDbLine
 10
208.245170376
 20
428.7023878574999
 30
0.0
 11
152.245170376
 21
428.7023878574999
 31
0.0
  0
CIRCLE
  5
364
330
1F
100
AcDbEntity
  8
0
  6
Continuous
 62
     7
370
    25
100
AcDbCircle
 10
178.5253446024
 20
402.2035162904
 30
0.0
 40
3.998961837144274
  0
ARC
  5
365
330
1F
100
AcDbEntity
  8
0
  6
Continuous
 62
     7
370
    25
100
AcDbCircle
 10
179.6328702601
 20
402.2023878575
 30
0.0
 40
4.000000148513711
100
AcDbArc
 50
270.0156131633
 51
89.9843868367
  0
LINE
  5
366
330
1F
100
AcDbEntity
  8
0
  6
Continuous
 62
     8
370
    25
100
AcDbLine
 10
202.7215231547
 20
391.9023878575
 30
0.0
 11
202.7301761447
 21
391.9023878575
 31
0.0
  0
LINE
  5
367
330
1F
100
AcDbEntity
  8
0
  6
Continuous
 62
     8
370
    25
100
AcDbLine
 10
157.7301761447
 20
391.9023878575
 30
0.0
 11
202.7215231547
 21
391.9023878575
 31
0.0
  0
DIMENSION
  5
368
102
{ACAD_XDICTIONARY
360
42E
102
}
330
1F
100
AcDbEntity
  8
DIMENSION
100
AcDbDimension
280
     0
  2
*D14
 10
220.245170376
 20
457.5023878575
 30
0.0
 11
128.7185736633
 21
457.5023878575
 31
0.0
 70
   160
  1
<>
 71
     2
 42
180.0
 73
     0
 74
     0
 75
     0
  3
RG Dimension Lines
100
AcDbAlignedDimension
 13
40.24517037599999
 23
435.5023878575
 33
0.0
 14
220.245170376
 24
435.5023878575
 34
0.0
100
AcDbRotatedDimension
1001
AcadAnnotative
1000
AnnotativeData
1002
{
1070
     1
1070
     1
1002
}
  0
DIMENSION
  5
3DF
102
{ACAD_XDICTIONARY
360
3F6
102
}
330
1F
100
AcDbEntity
  8
DIMENSION
100
AcDbDimension
280
     0
  2
*D10
 10
529.4401288801
 20
163.9738313233519
 30
0.0
 11
399.1901288801
 21
171.9738313233518
 31
0.0
 70
    32
 71
     5
 42
260.5
 73
     0
 74
     0
 75
     0
  3
RG Dimension Lines
100
AcDbAlignedDimension
 13
268.9401288801
 23
95.46683950409999
 33
0.0
 14
529.4401288801
 24
122.766839504
 34
0.0
100
AcDbRotatedDimension
1001
AcadAnnotative
1000
AnnotativeData
1002
{
1070
     1
1070
     1
1002
}
1001
ACAD
1000
DSTYLE
1002
{
1070
    45
1040
5.0
1002
}
  0
ENDSEC
  0
SECTION
  2
OBJECTS
  0
DICTIONARY
  5
C
330
0
100
AcDbDictionary
281
     1
  3
ACAD_CIP_PREVIOUS_PRODUCT_INFO
350
3B0
  3
ACAD_COLOR
350
3A5
  3
ACAD_DETAILVIEWSTYLE
350
3AC
  3
ACAD_GROUP
350
D
  3
ACAD_LAYOUT
350
1A
  3
ACAD_MATERIAL
350
373
  3
ACAD_MLEADERSTYLE
350
3A8
  3
ACAD_MLINESTYLE
350
17
  3
ACAD_PLOTSETTINGS
350
19
  3
ACAD_PLOTSTYLENAME
350
E
  3
ACAD_SCALELIST
350
47
  3
ACAD_SECTIONVIEWSTYLE
350
3AA
  3
ACAD_TABLESTYLE
350
3A6
  3
ACAD_VISUALSTYLE
350
38C
  3
ACDB_RECOMPOSE_DATA
350
45C
  3
AcDbVariableDictionary
350
450
  0
DICTIONARY
  5
3C4
330
2
100
AcDbDictionary
280
     1
281
     1
  3
ACAD_LAYERSTATES
360
3C5
  0
DICTIONARY
  5
440
330
10
100
AcDbDictionary
280
     1
281
     1
  3
ADSK_XREC_LAYER_RECONCILED
360
441
  0
DICTIONARY
  5
442
330
73
100
AcDbDictionary
280
     1
281
     1
  3
ADSK_XREC_LAYER_RECONCILED
360
443
  0
DICTIONARY
  5
444
330
3BC
100
AcDbDictionary
280
     1
281
     1
  3
ADSK_XREC_LAYER_RECONCILED
360
445
  0
DICTIONARY
  5
420
330
2EF
100
AcDbDictionary
280
     1
281
     1
  3
AcDbContextDataManager
360
421
  0
DICTIONARY
  5
412
330
2FC
100
AcDbDictionary
280
     1
281
     1
  3
AcDbContextDataManager
360
413
  0
DICTIONARY
  5
404
330
333
100
AcDbDictionary
280
     1
281
     1
  3
AcDbContextDataManager
360
405
  0
DICTIONARY
  5
42E
330
368
100
AcDbDictionary
280
     1
281
     1
  3
AcDbContextDataManager
360
42F
  0
DICTIONARY
  5
3F6
330
3DF
100
AcDbDictionary
280
     1
281
     1
  3
AcDbContextDataManager
360
3F7
  0
XRECORD
  5
3B0
102
{ACAD_REACTORS
330
C
102
}
330
C
100
AcDbXrecord
280
     1
300
ACD
300
2021
300

  0
DICTIONARY
  5
3A5
102
{ACAD_REACTORS
330
C
102
}
330
C
100
AcDbDictionary
281
     1
  0
DICTIONARY
  5
3AC
102
{ACAD_REACTORS
330
C
102
}
330
C
100
AcDbDictionary
281
     1
  3
Metric50
350
3AD
  0
DICTIONARY
  5
D
102
{ACAD_REACTORS
330
C
102
}
330
C
100
AcDbDictionary
281
     1
  0
DICTIONARY
  5
1A
102
{ACAD_REACTORS
330
C
102
}
330
C
100
AcDbDictionary
281
     1
  3
Layout1
350
1E
  3
Layout2
350
26
  3
Model
350
22
  0
DICTIONARY
  5
373
102
{ACAD_REACTORS
330
C
102
}
330
C
100
AcDbDictionary
281
     1
  3
ByBlock
350
37C
  3
ByLayer
350
374
  3
Global
350
384
  0
DICTIONARY
  5
3A8
102
{ACAD_REACTORS
330
C
102
}
330
C
100
AcDbDictionary
281
     1
  3
Standard
350
3A9
  0
DICTIONARY
  5
17
102
{ACAD_REACTORS
330
C
102
}
330
C
100
AcDbDictionary
281
     1
  3
Standard
350
18
  0
DICTIONARY
  5
19
102
{ACAD_REACTORS
330
C
102
}
330
C
100
AcDbDictionary
281
     1
  0
ACDBDICTIONARYWDFLT
  5
E
102
{ACAD_REACTORS
330
C
102
}
330
C
100
AcDbDictionary
281
     1
  3
Normal
350
F
100
AcDbDictionaryWithDefault
340
F
  0
DICTIONARY
  5
47
102
{ACAD_REACTORS
330
C
102
}
330
C
100
AcDbDictionary
281
     1
  3
A0
350
48
  3
A1
350
49
  3
A2
350
4A
  3
A3
350
4B
  3
A4
350
4C
  3
A5
350
4D
  3
A6
350
4E
  3
A7
350
4F
  3
A8
350
50
  3
A9
350
51
  3
B0
350
52
  3
B1
350
53
  3
B2
350
54
  3
B3
350
55
  3
B4
350
56
  3
B5
350
57
  3
B6
350
58
  3
B7
350
59
  3
B8
350
5A
  3
B9
350
5B
  3
C0
350
5C
  3
C1
350
5D
  3
C2
350
5E
  3
C3
350
5F
  3
C4
350
60
  3
C5
350
61
  3
C6
350
62
  3
C7
350
63
  3
C8
350
64
  3
C9
350
65
  3
D0
350
66
  3
D1
350
67
  3
D2
350
68
  0
DICTIONARY
  5
3AA
102
{ACAD_REACTORS
330
C
102
}
330
C
100
AcDbDictionary
281
     1
  3
Metric50
350
3AB
  0
DICTIONARY
  5
3A6
102
{ACAD_REACTORS
330
C
102
}
330
C
100
AcDbDictionary
281
     1
  3
Standard
350
3A7
  0
DICTIONARY
  5
38C
102
{ACAD_REACTORS
330
C
102
}
330
C
100
AcDbDictionary
281
     1
  3
2dWireframe
350
392
  3
Basic
350
391
  3
Brighten
350
398
  3
ColorChange
350
39C
  3
Conceptual
350
395
  3
Dim
350
397
  3
EdgeColorOff
350
3A4
  3
Facepattern
350
39B
  3
Flat
350
38D
  3
FlatWithEdges
350
38E
  3
Gouraud
350
38F
  3
GouraudWithEdges
350
390
  3
Hidden
350
394
  3
JitterOff
350
3A2
  3
Linepattern
350
39A
  3
OverhangOff
350
3A3
  3
Realistic
350
396
  3
Shaded
350
3A1
  3
Shaded with edges
350
3A0
  3
Shades of Gray
350
39D
  3
Sketchy
350
39E
  3
Thicken
350
399
  3
Wireframe
350
393
  3
X-Ray
350
39F
  0
XRECORD
  5
45C
102
{ACAD_REACTORS
330
C
102
}
330
C
100
AcDbXrecord
280
     1
 90
        1
330
3A7
  0
DICTIONARY
  5
450
102
{ACAD_REACTORS
330
C
102
}
330
C
100
AcDbDictionary
281
     1
  3
CANNOSCALE
350
456
  3
CMLEADERSTYLE
350
452
  3
CTABLESTYLE
350
451
  3
CVIEWDETAILSTYLE
350
453
  3
CVIEWSECTIONSTYLE
350
454
  3
LAYEREVAL
350
458
  3
LAYERNOTIFY
350
459
  3
LIGHTINGUNITS
350
457
  3
MSLTSCALE
350
455
  0
DICTIONARY
  5
3C5
102
{ACAD_REACTORS
330
3C4
102
}
330
3C4
100
AcDbDictionary
281
     1
  0
XRECORD
  5
441
102
{ACAD_REACTORS
330
440
102
}
330
440
100
AcDbXrecord
280
     1
290
     1
  0
XRECORD
  5
443
102
{ACAD_REACTORS
330
442
102
}
330
442
100
AcDbXrecord
280
     1
290
     1
  0
XRECORD
  5
445
102
{ACAD_REACTORS
330
444
102
}
330
444
100
AcDbXrecord
280
     1
290
     1
  0
DICTIONARY
  5
421
102
{ACAD_REACTORS
330
420
102
}
330
420
100
AcDbDictionary
281
     1
  3
ACDB_ANNOTATIONSCALES
350
422
  0
DICTIONARY
  5
413
102
{ACAD_REACTORS
330
412
102
}
330
412
100
AcDbDictionary
281
     1
  3
ACDB_ANNOTATIONSCALES
350
414
  0
DICTIONARY
  5
405
102
{ACAD_REACTORS
330
404
102
}
330
404
100
AcDbDictionary
281
     1
  3
ACDB_ANNOTATIONSCALES
350
406
  0
DICTIONARY
  5
42F
102
{ACAD_REACTORS
330
42E
102
}
330
42E
100
AcDbDictionary
281
     1
  3
ACDB_ANNOTATIONSCALES
350
430
  0
DICTIONARY
  5
3F7
102
{ACAD_REACTORS
330
3F6
102
}
330
3F6
100
AcDbDictionary
281
     1
  3
ACDB_ANNOTATIONSCALES
350
3F8
  0
ACDBDETAILVIEWSTYLE
  5
3AD
102
{ACAD_REACTORS
330
3AC
102
}
330
3AC
100
AcDbModelDocViewStyle
 70
     0
  3
Metric50
290
     0
300
Metric50
 90
        0
100
AcDbDetailViewStyle
 70
     0
 71
     0
 90
        3
 71
     1
340
11
 62
   256
 40
5.0
340
0
 62
   256
 40
5.0
300

 40
0.0
280
     1
 71
     2
340
16
 90
       25
 62
   256
 71
     3
340
11
 62
   256
 40
5.0
 90
        0
 40
15.0
 90
        1
300
%<\AcVar ViewDetailId>% (%<\AcVar ViewScale \f "%sn">%)
 71
     4
340
16
 90
       25
 62
   256
340
16
 90
       25
 62
   256
280
     0
  0
LAYOUT
  5
1E
102
{ACAD_REACTORS
330
1A
102
}
330
1A
100
AcDbPlotSettings
  1

  2
none_device
  4

  6

 40
0.0
 41
0.0
 42
0.0
 43
0.0
 44
0.0
 45
0.0
 46
0.0
 47
0.0
 48
0.0
 49
0.0
140
0.0
141
0.0
142
1.0
143
1.0
 70
   688
 72
     1
 73
     0
 74
     5
  7

 75
    16
147
1.0
 76
     0
 77
     2
 78
   300
148
0.0
149
0.0
100
AcDbLayout
  1
Layout1
 70
     1
 71
     1
 10
0.0
 20
0.0
 11
420.0
 21
297.0
 12
0.0
 22
0.0
 32
0.0
 14
1.000000000000000E+20
 24
1.000000000000000E+20
 34
1.000000000000000E+20
 15
-1.000000000000000E+20
 25
-1.000000000000000E+20
 35
-1.000000000000000E+20
146
0.0
 13
0.0
 23
0.0
 33
0.0
 16
1.0
 26
0.0
 36
0.0
 17
0.0
 27
1.0
 37
0.0
 76
     0
330
1B
  0
LAYOUT
  5
26
102
{ACAD_REACTORS
330
1A
102
}
330
1A
100
AcDbPlotSettings
  1

  2
none_device
  4

  6

 40
0.0
 41
0.0
 42
0.0
 43
0.0
 44
0.0
 45
0.0
 46
0.0
 47
0.0
 48
0.0
 49
0.0
140
0.0
141
0.0
142
1.0
143
1.0
 70
   688
 72
     1
 73
     0
 74
     5
  7

 75
    16
147
1.0
 76
     0
 77
     2
 78
   300
148
0.0
149
0.0
100
AcDbLayout
  1
Layout2
 70
     1
 71
     2
 10
0.0
 20
0.0
 11
0.0
 21
0.0
 12
0.0
 22
0.0
 32
0.0
 14
0.0
 24
0.0
 34
0.0
 15
0.0
 25
0.0
 35
0.0
146
0.0
 13
0.0
 23
0.0
 33
0.0
 16
1.0
 26
0.0
 36
0.0
 17
0.0
 27
1.0
 37
0.0
 76
     0
330
23
  0
LAYOUT
  5
22
102
{ACAD_REACTORS
330
1A
102
}
330
1A
100
AcDbPlotSettings
  1

  2
none_device
  4
Letter_(8.50_x_11.00_Inches)
  6

 40
6.349999999999999
 41
6.349999999999999
 42
6.350005079999999
 43
6.350005079999999
 44
215.9
 45
279.4
 46
0.0
 47
0.0
 48
0.0
 49
0.0
140
0.0
141
0.0
142
1.0
143
1.0
 70
  1712
 72
     1
 73
     0
 74
     0
  7

 75
     0
147
1.0
 76
     0
 77
     2
 78
   300
148
0.0
149
0.0
100
AcDbLayout
  1
Model
 70
     1
 71
     0
 10
0.0
 20
0.0
 11
420.0
 21
297.0
 12
0.0
 22
0.0
 32
0.0
 14
0.0
 24
0.0
 34
0.0
 15
420.0
 25
297.0
 35
0.0
146
0.0
 13
0.0
 23
0.0
 33
0.0
 16
1.0
 26
0.0
 36
0.0
 17
0.0
 27
1.0
 37
0.0
 76
     0
330
1F
331
29
  0
MATERIAL
  5
37C
102
{ACAD_XDICTIONARY
360
37D
102
}
102
{ACAD_REACTORS
330
373
102
}
330
373
100
AcDbMaterial
  1
ByBlock
 72
     0
 43
0.0008202099737533
 43
0.0
 43
0.0
 43
0.0
 43
0.0
 43
0.0008202099737533
 43
0.0
 43
0.0
 43
0.0
 43
0.0
 43
1.0
 43
0.0
 43
0.0
 43
0.0
 43
0.0
 43
1.0
 77
     0
 47
0.0008202099737533
 47
0.0
 47
0.0
 47
0.0
 47
0.0
 47
0.0008202099737533
 47
0.0
 47
0.0
 47
0.0
 47
0.0
 47
1.0
 47
0.0
 47
0.0
 47
0.0
 47
0.0
 47
1.0
171
     0
 49
0.0008202099737533
 49
0.0
 49
0.0
 49
0.0
 49
0.0
 49
0.0008202099737533
 49
0.0
 49
0.0
 49
0.0
 49
0.0
 49
1.0
 49
0.0
 49
0.0
 49
0.0
 49
0.0
 49
1.0
175
     0
142
0.0008202099737533
142
0.0
142
0.0
142
0.0
142
0.0
142
0.0008202099737533
142
0.0
142
0.0
142
0.0
142
0.0
142
1.0
142
0.0
142
0.0
142
0.0
142
0.0
142
1.0
179
     0
144
0.0008202099737533
144
0.0
144
0.0
144
0.0
144
0.0
144
0.0008202099737533
144
0.0
144
0.0
144
0.0
144
0.0
144
1.0
144
0.0
144
0.0
144
0.0
144
0.0
144
1.0
147
0.0008202099737533
147
0.0
147
0.0
147
0.0
147
0.0
147
0.0008202099737533
147
0.0
147
0.0
147
0.0
147
0.0
147
1.0
147
0.0
147
0.0
147
0.0
147
0.0
147
1.0
  0
MATERIAL
  5
374
102
{ACAD_XDICTIONARY
360
375
102
}
102
{ACAD_REACTORS
330
373
102
}
330
373
100
AcDbMaterial
  1
ByLayer
 72
     0
 43
0.0008202099737533
 43
0.0
 43
0.0
 43
0.0
 43
0.0
 43
0.0008202099737533
 43
0.0
 43
0.0
 43
0.0
 43
0.0
 43
1.0
 43
0.0
 43
0.0
 43
0.0
 43
0.0
 43
1.0
 77
     0
 47
0.0008202099737533
 47
0.0
 47
0.0
 47
0.0
 47
0.0
 47
0.0008202099737533
 47
0.0
 47
0.0
 47
0.0
 47
0.0
 47
1.0
 47
0.0
 47
0.0
 47
0.0
 47
0.0
 47
1.0
171
     0
 49
0.0008202099737533
 49
0.0
 49
0.0
 49
0.0
 49
0.0
 49
0.0008202099737533
 49
0.0
 49
0.0
 49
0.0
 49
0.0
 49
1.0
 49
0.0
 49
0.0
 49
0.0
 49
0.0
 49
1.0
175
     0
142
0.0008202099737533
142
0.0
142
0.0
142
0.0
142
0.0
142
0.0008202099737533
142
0.0
142
0.0
142
0.0
142
0.0
142
1.0
142
0.0
142
0.0
142
0.0
142
0.0
142
1.0
179
     0
144
0.0008202099737533
144
0.0
144
0.0
144
0.0
144
0.0
144
0.0008202099737533
144
0.0
144
0.0
144
0.0
144
0.0
144
1.0
144
0.0
144
0.0
144
0.0
144
0.0
144
1.0
147
0.0008202099737533
147
0.0
147
0.0
147
0.0
147
0.0
147
0.0008202099737533
147
0.0
147
0.0
147
0.0
147
0.0
147
1.0
147
0.0
147
0.0
147
0.0
147
0.0
147
1.0
  0
MATERIAL
  5
384
102
{ACAD_XDICTIONARY
360
385
102
}
102
{ACAD_REACTORS
330
373
102
}
330
373
100
AcDbMaterial
  1
Global
 72
     0
 43
0.0008202099737533
 43
0.0
 43
0.0
 43
0.0
 43
0.0
 43
0.0008202099737533
 43
0.0
 43
0.0
 43
0.0
 43
0.0
 43
1.0
 43
0.0
 43
0.0
 43
0.0
 43
0.0
 43
1.0
 77
     0
 47
0.0008202099737533
 47
0.0
 47
0.0
 47
0.0
 47
0.0
 47
0.0008202099737533
 47
0.0
 47
0.0
 47
0.0
 47
0.0
 47
1.0
 47
0.0
 47
0.0
 47
0.0
 47
0.0
 47
1.0
171
     0
 49
0.0008202099737533
 49
0.0
 49
0.0
 49
0.0
 49
0.0
 49
0.0008202099737533
 49
0.0
 49
0.0
 49
0.0
 49
0.0
 49
1.0
 49
0.0
 49
0.0
 49
0.0
 49
0.0
 49
1.0
175
     0
142
0.0008202099737533
142
0.0
142
0.0
142
0.0
142
0.0
142
0.0008202099737533
142
0.0
142
0.0
142
0.0
142
0.0
142
1.0
142
0.0
142
0.0
142
0.0
142
0.0
142
1.0
179
     0
144
0.0008202099737533
144
0.0
144
0.0
144
0.0
144
0.0
144
0.0008202099737533
144
0.0
144
0.0
144
0.0
144
0.0
144
1.0
144
0.0
144
0.0
144
0.0
144
0.0
144
1.0
147
0.0008202099737533
147
0.0
147
0.0
147
0.0
147
0.0
147
0.0008202099737533
147
0.0
147
0.0
147
0.0
147
0.0
147
1.0
147
0.0
147
0.0
147
0.0
147
0.0
147
1.0
  0
MLEADERSTYLE
  5
3A9
102
{ACAD_REACTORS
330
3A8
102
}
330
3A8
100
AcDbMLeaderStyle
179
     2
170
     2
171
     1
172
     0
 90
        2
 40
0.0
 41
0.0
173
     1
 91
-1056964608
340
14
 92
       -2
290
     1
 42
2.0
291
     1
 43
0.36
  3
Standard
 44
4.0
300

342
11
174
     1
178
     6
175
     1
176
     0
 93
-1056964608
 45
4.0
292
     0
297
     0
 46
4.0
 94
-1056964608
 47
1.0
 49
1.0
140
1.0
293
     1
141
0.0
294
     1
177
     0
142
1.0
295
     0
296
     0
143
0.125
271
     0
272
     9
273
     9
298
     0
  0
MLINESTYLE
  5
18
102
{ACAD_REACTORS
330
17
102
}
330
17
100
AcDbMlineStyle
  2
STANDARD
 70
     0
  3

 62
   256
 51
90.0
 52
90.0
 71
     2
 49
0.5
 62
   256
  6
BYLAYER
 49
-0.5
 62
   256
  6
BYLAYER
  0
ACDBPLACEHOLDER
  5
F
102
{ACAD_REACTORS
330
E
102
}
330
E
  0
SCALE
  5
48
102
{ACAD_REACTORS
330
47
102
}
330
47
100
AcDbScale
 70
     0
300
1:1
140
1.0
141
1.0
290
     1
  0
SCALE
  5
49
102
{ACAD_REACTORS
330
47
102
}
330
47
100
AcDbScale
 70
     0
300
1:2
140
1.0
141
2.0
290
     0
  0
SCALE
  5
4A
102
{ACAD_REACTORS
330
47
102
}
330
47
100
AcDbScale
 70
     0
300
1:4
140
1.0
141
4.0
290
     0
  0
SCALE
  5
4B
102
{ACAD_REACTORS
330
47
102
}
330
47
100
AcDbScale
 70
     0
300
1:5
140
1.0
141
5.0
290
     0
  0
SCALE
  5
4C
102
{ACAD_REACTORS
330
47
102
}
330
47
100
AcDbScale
 70
     0
300
1:8
140
1.0
141
8.0
290
     0
  0
SCALE
  5
4D
102
{ACAD_REACTORS
330
47
102
}
330
47
100
AcDbScale
 70
     0
300
1:10
140
1.0
141
10.0
290
     0
  0
SCALE
  5
4E
102
{ACAD_REACTORS
330
47
102
}
330
47
100
AcDbScale
 70
     0
300
1:16
140
1.0
141
16.0
290
     0
  0
SCALE
  5
4F
102
{ACAD_REACTORS
330
47
102
}
330
47
100
AcDbScale
 70
     0
300
1:20
140
1.0
141
20.0
290
     0
  0
SCALE
  5
50
102
{ACAD_REACTORS
330
47
102
}
330
47
100
AcDbScale
 70
     0
300
1:30
140
1.0
141
30.0
290
     0
  0
SCALE
  5
51
102
{ACAD_REACTORS
330
47
102
}
330
47
100
AcDbScale
 70
     0
300
1:40
140
1.0
141
40.0
290
     0
  0
SCALE
  5
52
102
{ACAD_REACTORS
330
47
102
}
330
47
100
AcDbScale
 70
     0
300
1:50
140
1.0
141
50.0
290
     0
  0
SCALE
  5
53
102
{ACAD_REACTORS
330
47
102
}
330
47
100
AcDbScale
 70
     0
300
1:100
140
1.0
141
100.0
290
     0
  0
SCALE
  5
54
102
{ACAD_REACTORS
330
47
102
}
330
47
100
AcDbScale
 70
     0
300
2:1
140
2.0
141
1.0
290
     0
  0
SCALE
  5
55
102
{ACAD_REACTORS
330
47
102
}
330
47
100
AcDbScale
 70
     0
300
4:1
140
4.0
141
1.0
290
     0
  0
SCALE
  5
56
102
{ACAD_REACTORS
330
47
102
}
330
47
100
AcDbScale
 70
     0
300
8:1
140
8.0
141
1.0
290
     0
  0
SCALE
  5
57
102
{ACAD_REACTORS
330
47
102
}
330
47
100
AcDbScale
 70
     0
300
10:1
140
10.0
141
1.0
290
     0
  0
SCALE
  5
58
102
{ACAD_REACTORS
330
47
102
}
330
47
100
AcDbScale
 70
     0
300
100:1
140
100.0
141
1.0
290
     0
  0
SCALE
  5
59
102
{ACAD_REACTORS
330
47
102
}
330
47
100
AcDbScale
 70
     0
300
1/128" = 1'-0"
140
0.0078125
141
12.0
290
     0
  0
SCALE
  5
5A
102
{ACAD_REACTORS
330
47
102
}
330
47
100
AcDbScale
 70
     0
300
1/64" = 1'-0"
140
0.015625
141
12.0
290
     0
  0
SCALE
  5
5B
102
{ACAD_REACTORS
330
47
102
}
330
47
100
AcDbScale
 70
     0
300
1/32" = 1'-0"
140
0.03125
141
12.0
290
     0
  0
SCALE
  5
5C
102
{ACAD_REACTORS
330
47
102
}
330
47
100
AcDbScale
 70
     0
300
1/16" = 1'-0"
140
0.0625
141
12.0
290
     0
  0
SCALE
  5
5D
102
{ACAD_REACTORS
330
47
102
}
330
47
100
AcDbScale
 70
     0
300
3/32" = 1'-0"
140
0.09375
141
12.0
290
     0
  0
SCALE
  5
5E
102
{ACAD_REACTORS
330
47
102
}
330
47
100
AcDbScale
 70
     0
300
1/8" = 1'-0"
140
0.125
141
12.0
290
     0
  0
SCALE
  5
5F
102
{ACAD_REACTORS
330
47
102
}
330
47
100
AcDbScale
 70
     0
300
3/16" = 1'-0"
140
0.1875
141
12.0
290
     0
  0
SCALE
  5
60
102
{ACAD_REACTORS
330
47
102
}
330
47
100
AcDbScale
 70
     0
300
1/4" = 1'-0"
140
0.25
141
12.0
290
     0
  0
SCALE
  5
61
102
{ACAD_REACTORS
330
47
102
}
330
47
100
AcDbScale
 70
     0
300
3/8" = 1'-0"
140
0.375
141
12.0
290
     0
  0
SCALE
  5
62
102
{ACAD_REACTORS
330
47
102
}
330
47
100
AcDbScale
 70
     0
300
1/2" = 1'-0"
140
0.5
141
12.0
290
     0
  0
SCALE
  5
63
102
{ACAD_REACTORS
330
47
102
}
330
47
100
AcDbScale
 70
     0
300
3/4" = 1'-0"
140
0.75
141
12.0
290
     0
  0
SCALE
  5
64
102
{ACAD_REACTORS
330
47
102
}
330
47
100
AcDbScale
 70
     0
300
1" = 1'-0"
140
1.0
141
12.0
290
     0
  0
SCALE
  5
65
102
{ACAD_REACTORS
330
47
102
}
330
47
100
AcDbScale
 70
     0
300
1-1/2" = 1'-0"
140
1.5
141
12.0
290
     0
  0
SCALE
  5
66
102
{ACAD_REACTORS
330
47
102
}
330
47
100
AcDbScale
 70
     0
300
3" = 1'-0"
140
3.0
141
12.0
290
     0
  0
SCALE
  5
67
102
{ACAD_REACTORS
330
47
102
}
330
47
100
AcDbScale
 70
     0
300
6" = 1'-0"
140
6.0
141
12.0
290
     0
  0
SCALE
  5
68
102
{ACAD_REACTORS
330
47
102
}
330
47
100
AcDbScale
 70
     0
300
1'-0" = 1'-0"
140
12.0
141
12.0
290
     0
  0
ACDBSECTIONVIEWSTYLE
  5
3AB
102
{ACAD_REACTORS
330
3AA
102
}
330
3AA
100
AcDbModelDocViewStyle
 70
     0
  3
Metric50
290
     0
300
Metric50
 90
        0
100
AcDbSectionViewStyle
 70
     0
 71
     0
 90
      102
 71
     1
340
11
 62
   256
 40
5.0
340
0
340
0
 62
   256
 40
5.0
300
I, O, Q, S, X, Z
 40
10.0
 90
        0
 40
2.5
 90
        0
 71
     2
340
16
 90
       25
 62
   256
340
16
 90
       50
 62
   256
 40
5.0
 40
2.5
 40
5.0
 71
     3
340
11
 62
   256
 40
5.0
 90
        0
 40
15.0
 90
        1
300
%<\AcVar ViewSectionStartId>%-%<\AcVar ViewSectionEndId>% (%<\AcVar ViewScale \f "%sn">%)
 71
     4
 62
   256
 62
   257
300
ANSI31
 40
1.0
 90
        0
290
     0
290
     0
 90
        6
 40
0.0
 40
1.570796326794896
 40
0.2617993877991494
 40
1.308996938995747
 40
-0.2617993877991494
 40
1.832595714594046
  0
TABLESTYLE
  5
3A7
102
{ACAD_XDICTIONARY
360
45A
102
}
102
{ACAD_REACTORS
330
3A6
102
}
330
3A6
100
AcDbTableStyle
280
     0
  3
Standard
 70
     0
 71
     0
 40
1.5
 41
1.5
280
     0
281
     0
  7
Standard
140
4.5
170
     2
 62
     0
 63
     7
283
     0
 90
      512
 91
        0
  1

274
    -2
284
     1
 64
     0
275
    -2
285
     1
 65
     0
276
    -2
286
     1
 66
     0
277
    -2
287
     1
 67
     0
278
    -2
288
     1
 68
     0
279
    -2
289
     1
 69
     0
  7
Standard
140
6.0
170
     5
 62
     0
 63
     7
283
     0
 90
      512
 91
        0
  1

274
    -2
284
     1
 64
     0
275
    -2
285
     1
 65
     0
276
    -2
286
     1
 66
     0
277
    -2
287
     1
 67
     0
278
    -2
288
     1
 68
     0
279
    -2
289
     1
 69
     0
  7
Standard
140
4.5
170
     5
 62
     0
 63
     7
283
     0
 90
      512
 91
        0
  1

274
    -2
284
     1
 64
     0
275
    -2
285
     1
 65
     0
276
    -2
286
     1
 66
     0
277
    -2
287
     1
 67
     0
278
    -2
288
     1
 68
     0
279
    -2
289
     1
 69
     0
  0
VISUALSTYLE
  5
392
102
{ACAD_REACTORS
330
38C
102
}
330
38C
100
AcDbVisualStyle
  2
2dWireframe
 70
     4
177
     3
291
     0
 70
    58
 90
        0
176
     1
 90
        2
176
     1
 90
        0
176
     1
 90
        0
176
     1
 40
0.6
176
     1
 40
30.0
176
     1
 62
     7
420
 16777215
176
     1
 90
        1
176
     1
 90
        4
176
     1
 62
     7
176
     1
 62
   257
176
     1
 90
        1
176
     1
 90
        1
176
     1
 40
1.0
176
     1
 90
        0
176
     1
 62
   257
176
     1
 40
1.0
176
     1
 90
        1
176
     1
 90
        6
176
     1
 90
        2
176
     1
 62
     7
176
     1
 90
        5
176
     1
 90
        0
176
     1
 90
        0
176
     1
290
     0
176
     1
 90
        1
176
     1
 40
0.0
176
     1
 90
        0
176
     1
290
     1
176
     1
290
     1
176
     1
290
     0
176
     1
290
     0
176
     1
290
     0
176
     1
290
     0
176
     1
290
     0
176
     1
290
     0
176
     1
290
     0
176
     1
 90
       50
176
     1
 40
0.0
176
     1
 40
1.0
176
     1
 90
        0
176
     1
 62
    18
420
        0
176
     1
 90
       50
176
     1
 90
        3
176
     1
 62
     5
420
      255
176
     1
290
     0
176
     1
 90
       50
176
     1
 90
       50
176
     1
 90
       50
176
     1
290
     0
176
     1
 90
       50
176
     1
 62
   256
176
     0
 40
1.0
176
     0
 90
        2
176
     1
  1
strokes_ogs.tif
176
     1
290
     0
176
     1
 40
1.0
176
     1
 40
1.0
176
     1
  0
VISUALSTYLE
  5
391
102
{ACAD_REACTORS
330
38C
102
}
330
38C
100
AcDbVisualStyle
  2
Basic
 70
     7
177
     3
291
     1
 70
    58
 90
        1
176
     1
 90
        0
176
     1
 90
        1
176
     1
 90
        0
176
     1
 40
0.6
176
     1
 40
30.0
176
     1
 62
     7
420
 16777215
176
     1
 90
        0
176
     1
 90
        4
176
     1
 62
     7
176
     1
 62
   257
176
     1
 90
        1
176
     1
 90
        1
176
     1
 40
1.0
176
     1
 90
        8
176
     1
 62
     7
176
     1
 40
1.0
176
     1
 90
        1
176
     1
 90
        6
176
     1
 90
        2
176
     1
 62
     7
176
     1
 90
        5
176
     1
 90
        0
176
     1
 90
        0
176
     1
290
     0
176
     1
 90
        1
176
     1
 40
0.0
176
     1
 90
        0
176
     1
290
     0
176
     1
290
     1
176
     1
290
     1
176
     1
290
     0
176
     1
290
     0
176
     1
290
     0
176
     1
290
     0
176
     1
290
     0
176
     1
290
     0
176
     1
 90
       50
176
     1
 40
0.0
176
     1
 40
1.0
176
     1
 90
        0
176
     1
 62
    18
420
        0
176
     1
 90
       50
176
     1
 90
        3
176
     1
 62
     5
420
      255
176
     1
290
     0
176
     1
 90
       50
176
     1
 90
       50
176
     1
 90
       50
176
     1
290
     0
176
     1
 90
       50
176
     1
 62
   256
176
     0
 40
1.0
176
     0
 90
        2
176
     1
  1
strokes_ogs.tif
176
     1
290
     0
176
     1
 40
1.0
176
     1
 40
1.0
176
     1
  0
VISUALSTYLE
  5
398
102
{ACAD_REACTORS
330
38C
102
}
330
38C
100
AcDbVisualStyle
  2
Brighten
 70
    12
177
     3
291
     1
 70
    58
 90
        2
176
     1
 90
        2
176
     1
 90
        0
176
     1
 90
        0
176
     1
 40
0.6
176
     1
 40
30.0
176
     1
 62
     7
420
 16777215
176
     1
 90
        1
176
     1
 90
        4
176
     1
 62
     7
176
     1
 62
   257
176
     1
 90
        1
176
     1
 90
        1
176
     1
 40
1.0
176
     1
 90
        8
176
     1
 62
     7
176
     1
 40
1.0
176
     1
 90
        1
176
     1
 90
        6
176
     1
 90
        2
176
     1
 62
     7
176
     1
 90
        5
176
     1
 90
        0
176
     1
 90
        0
176
     1
290
     0
176
     1
 90
        1
176
     1
 40
50.0
176
     1
 90
        0
176
     1
290
     0
176
     1
290
     1
176
     1
290
     1
176
     1
290
     0
176
     1
290
     0
176
     1
290
     0
176
     1
290
     0
176
     1
290
     0
176
     1
290
     0
176
     1
 90
       50
176
     1
 40
0.0
176
     1
 40
1.0
176
     1
 90
        0
176
     1
 62
    18
420
        0
176
     1
 90
       50
176
     1
 90
        3
176
     1
 62
     5
420
      255
176
     1
290
     0
176
     1
 90
       50
176
     1
 90
       50
176
     1
 90
       50
176
     1
290
     0
176
     1
 90
       50
176
     1
 62
   256
176
     0
 40
1.0
176
     0
 90
        2
176
     1
  1
strokes_ogs.tif
176
     1
290
     0
176
     1
 40
1.0
176
     1
 40
1.0
176
     1
  0
VISUALSTYLE
  5
39C
102
{ACAD_REACTORS
330
38C
102
}
330
38C
100
AcDbVisualStyle
  2
ColorChange
 70
    16
177
     3
291
     1
 70
    58
 90
        2
176
     1
 90
        2
176
     1
 90
        3
176
     1
 90
        0
176
     1
 40
0.6
176
     1
 40
30.0
176
     1
 62
     8
420
  8421504
176
     1
 90
        1
176
     1
 90
        4
176
     1
 62
     7
176
     1
 62
   257
176
     1
 90
        1
176
     1
 90
        1
176
     1
 40
1.0
176
     1
 90
        8
176
     1
 62
     8
420
  8421504
176
     1
 40
1.0
176
     1
 90
        1
176
     1
 90
        6
176
     1
 90
        2
176
     1
 62
     7
176
     1
 90
        5
176
     1
 90
        0
176
     1
 90
        0
176
     1
290
     0
176
     1
 90
        1
176
     1
 40
0.0
176
     1
 90
        0
176
     1
290
     0
176
     1
290
     1
176
     1
290
     1
176
     1
290
     0
176
     1
290
     0
176
     1
290
     0
176
     1
290
     0
176
     1
290
     0
176
     1
290
     0
176
     1
 90
       50
176
     1
 40
0.0
176
     1
 40
1.0
176
     1
 90
        0
176
     1
 62
    18
420
        0
176
     1
 90
       50
176
     1
 90
        3
176
     1
 62
     5
420
      255
176
     1
290
     0
176
     1
 90
       50
176
     1
 90
       50
176
     1
 90
       50
176
     1
290
     0
176
     1
 90
       50
176
     1
 62
   256
176
     0
 40
1.0
176
     0
 90
        2
176
     1
  1
strokes_ogs.tif
176
     1
290
     0
176
     1
 40
1.0
176
     1
 40
1.0
176
     1
  0
VISUALSTYLE
  5
395
102
{ACAD_REACTORS
330
38C
102
}
330
38C
100
AcDbVisualStyle
  2
Conceptual
 70
     9
177
     3
291
     0
 70
    58
 90
        3
176
     1
 90
        2
176
     1
 90
        0
176
     1
 90
        0
176
     1
 40
0.6
176
     1
 40
30.0
176
     1
 62
     7
420
 16777215
176
     1
 90
        2
176
     1
 90
        2
176
     1
 62
     7
176
     1
 62
   257
176
     1
 90
        1
176
     1
 90
        1
176
     1
 40
179.0
176
     1
 90
        8
176
     1
 62
     7
176
     1
 40
1.0
176
     1
 90
        1
176
     1
 90
        6
176
     1
 90
        2
176
     1
 62
     7
176
     1
 90
        3
176
     1
 90
        0
176
     1
 90
        0
176
     1
290
     0
176
     1
 90
        1
176
     1
 40
0.0
176
     1
 90
        0
176
     1
290
     0
176
     1
290
     1
176
     1
290
     1
176
     1
290
     0
176
     1
290
     0
176
     1
290
     0
176
     1
290
     0
176
     1
290
     0
176
     1
290
     0
176
     1
 90
       50
176
     1
 40
0.0
176
     1
 40
1.0
176
     1
 90
        0
176
     1
 62
    18
420
        0
176
     1
 90
       50
176
     1
 90
        3
176
     1
 62
     5
420
      255
176
     1
290
     0
176
     1
 90
       50
176
     1
 90
       50
176
     1
 90
       50
176
     1
290
     0
176
     1
 90
       50
176
     1
 62
   256
176
     0
 40
1.0
176
     0
 90
        2
176
     1
  1
strokes_ogs.tif
176
     1
290
     0
176
     1
 40
1.0
176
     1
 40
1.0
176
     1
  0
VISUALSTYLE
  5
397
102
{ACAD_REACTORS
330
38C
102
}
330
38C
100
AcDbVisualStyle
  2
Dim
 70
    11
177
     3
291
     1
 70
    58
 90
        2
176
     1
 90
        2
176
     1
 90
        0
176
     1
 90
        0
176
     1
 40
0.6
176
     1
 40
30.0
176
     1
 62
     7
420
 16777215
176
     1
 90
        1
176
     1
 90
        4
176
     1
 62
     7
176
     1
 62
   257
176
     1
 90
        1
176
     1
 90
        1
176
     1
 40
1.0
176
     1
 90
        8
176
     1
 62
     7
176
     1
 40
1.0
176
     1
 90
        1
176
     1
 90
        6
176
     1
 90
        2
176
     1
 62
     7
176
     1
 90
        5
176
     1
 90
        0
176
     1
 90
        0
176
     1
290
     0
176
     1
 90
        1
176
     1
 40
-50.0
176
     1
 90
        0
176
     1
290
     0
176
     1
290
     1
176
     1
290
     1
176
     1
290
     0
176
     1
290
     0
176
     1
290
     0
176
     1
290
     0
176
     1
290
     0
176
     1
290
     0
176
     1
 90
       50
176
     1
 40
0.0
176
     1
 40
1.0
176
     1
 90
        0
176
     1
 62
    18
420
        0
176
     1
 90
       50
176
     1
 90
        3
176
     1
 62
     5
420
      255
176
     1
290
     0
176
     1
 90
       50
176
     1
 90
       50
176
     1
 90
       50
176
     1
290
     0
176
     1
 90
       50
176
     1
 62
   256
176
     0
 40
1.0
176
     0
 90
        2
176
     1
  1
strokes_ogs.tif
176
     1
290
     0
176
     1
 40
1.0
176
     1
 40
1.0
176
     1
  0
VISUALSTYLE
  5
3A4
102
{ACAD_REACTORS
330
38C
102
}
330
38C
100
AcDbVisualStyle
  2
EdgeColorOff
 70
    22
177
     3
291
     1
 70
    58
 90
        2
176
     0
 90
        2
176
     0
 90
        0
176
     0
 90
        0
176
     0
 40
0.6
176
     0
 40
30.0
176
     0
 62
     7
420
 16777215
176
     0
 90
        1
176
     0
 90
        4
176
     0
 62
     7
176
     0
 62
   257
176
     0
 90
        1
176
     0
 90
        1
176
     0
 40
1.0
176
     0
 90
        8
176
     2
 62
     7
176
     0
 40
1.0
176
     0
 90
        1
176
     0
 90
        6
176
     0
 90
        2
176
     0
 62
     7
176
     0
 90
        5
176
     0
 90
        0
176
     0
 90
        0
176
     0
290
     0
176
     0
 90
        1
176
     0
 40
0.0
176
     0
 90
        0
176
     0
290
     0
176
     1
290
     1
176
     1
290
     1
176
     1
290
     0
176
     1
290
     0
176
     1
290
     0
176
     1
290
     0
176
     1
290
     0
176
     1
290
     0
176
     1
 90
       50
176
     0
 40
0.0
176
     0
 40
1.0
176
     0
 90
        0
176
     0
 62
    18
420
        0
176
     0
 90
       50
176
     0
 90
        3
176
     0
 62
     5
420
      255
176
     0
290
     0
176
     1
 90
       50
176
     0
 90
       50
176
     0
 90
       50
176
     0
290
     0
176
     1
 90
       50
176
     0
 62
   256
176
     0
 40
1.0
176
     0
 90
        2
176
     0
  1
strokes_ogs.tif
176
     0
290
     0
176
     1
 40
1.0
176
     0
 40
1.0
176
     0
  0
VISUALSTYLE
  5
39B
102
{ACAD_REACTORS
330
38C
102
}
330
38C
100
AcDbVisualStyle
  2
Facepattern
 70
    15
177
     3
291
     1
 70
    58
 90
        2
176
     1
 90
        2
176
     1
 90
        0
176
     1
 90
        0
176
     1
 40
0.6
176
     1
 40
30.0
176
     1
 62
     7
420
 16777215
176
     1
 90
        1
176
     1
 90
        4
176
     1
 62
     7
176
     1
 62
   257
176
     1
 90
        1
176
     1
 90
        1
176
     1
 40
1.0
176
     1
 90
        8
176
     1
 62
     7
176
     1
 40
1.0
176
     1
 90
        1
176
     1
 90
        6
176
     1
 90
        2
176
     1
 62
     7
176
     1
 90
        5
176
     1
 90
        0
176
     1
 90
        0
176
     1
290
     0
176
     1
 90
        1
176
     1
 40
0.0
176
     1
 90
        0
176
     1
290
     0
176
     1
290
     1
176
     1
290
     1
176
     1
290
     0
176
     1
290
     0
176
     1
290
     0
176
     1
290
     0
176
     1
290
     0
176
     1
290
     0
176
     1
 90
       50
176
     1
 40
0.0
176
     1
 40
1.0
176
     1
 90
        0
176
     1
 62
    18
420
        0
176
     1
 90
       50
176
     1
 90
        3
176
     1
 62
     5
420
      255
176
     1
290
     0
176
     1
 90
       50
176
     1
 90
       50
176
     1
 90
       50
176
     1
290
     0
176
     1
 90
       50
176
     1
 62
   256
176
     0
 40
1.0
176
     0
 90
        2
176
     1
  1
strokes_ogs.tif
176
     1
290
     0
176
     1
 40
1.0
176
     1
 40
1.0
176
     1
  0
VISUALSTYLE
  5
38D
102
{ACAD_REACTORS
330
38C
102
}
330
38C
100
AcDbVisualStyle
  2
Flat
 70
     0
177
     3
291
     1
 70
    58
 90
        2
176
     1
 90
        1
176
     1
 90
        1
176
     1
 90
        2
176
     1
 40
0.6
176
     1
 40
30.0
176
     1
 62
     7
420
 16777215
176
     1
 90
        0
176
     1
 90
        0
176
     1
 62
     7
176
     1
 62
   257
176
     1
 90
        1
176
     1
 90
        1
176
     1
 40
1.0
176
     1
 90
        8
176
     1
 62
     7
176
     1
 40
1.0
176
     1
 90
        1
176
     1
 90
        6
176
     1
 90
        2
176
     1
 62
     7
176
     1
 90
        5
176
     1
 90
        0
176
     1
 90
        0
176
     1
290
     0
176
     1
 90
       13
176
     1
 40
0.0
176
     1
 90
        0
176
     1
290
     0
176
     1
290
     1
176
     1
290
     1
176
     1
290
     0
176
     1
290
     0
176
     1
290
     0
176
     1
290
     0
176
     1
290
     0
176
     1
290
     0
176
     1
 90
       50
176
     1
 40
0.0
176
     1
 40
1.0
176
     1
 90
        0
176
     1
 62
    18
420
        0
176
     1
 90
       50
176
     1
 90
        3
176
     1
 62
     5
420
      255
176
     1
290
     0
176
     1
 90
       50
176
     1
 90
       50
176
     1
 90
       50
176
     1
290
     0
176
     1
 90
       50
176
     1
 62
   256
176
     0
 40
1.0
176
     0
 90
        2
176
     1
  1
strokes_ogs.tif
176
     1
290
     0
176
     1
 40
1.0
176
     1
 40
1.0
176
     1
  0
VISUALSTYLE
  5
38E
102
{ACAD_REACTORS
330
38C
102
}
330
38C
100
AcDbVisualStyle
  2
FlatWithEdges
 70
     1
177
     3
291
     1
 70
    58
 90
        2
176
     1
 90
        1
176
     1
 90
        1
176
     1
 90
        2
176
     1
 40
0.6
176
     1
 40
30.0
176
     1
 62
     7
420
 16777215
176
     1
 90
        1
176
     1
 90
        0
176
     1
 62
     7
176
     1
 62
   257
176
     1
 90
        1
176
     1
 90
        1
176
     1
 40
1.0
176
     1
 90
        0
176
     1
 62
   257
176
     1
 40
1.0
176
     1
 90
        1
176
     1
 90
        6
176
     1
 90
        2
176
     1
 62
     7
176
     1
 90
        5
176
     1
 90
        0
176
     1
 90
        0
176
     1
290
     0
176
     1
 90
       13
176
     1
 40
0.0
176
     1
 90
        0
176
     1
290
     0
176
     1
290
     1
176
     1
290
     1
176
     1
290
     0
176
     1
290
     0
176
     1
290
     0
176
     1
290
     0
176
     1
290
     0
176
     1
290
     0
176
     1
 90
       50
176
     1
 40
0.0
176
     1
 40
1.0
176
     1
 90
        0
176
     1
 62
    18
420
        0
176
     1
 90
       50
176
     1
 90
        3
176
     1
 62
     5
420
      255
176
     1
290
     0
176
     1
 90
       50
176
     1
 90
       50
176
     1
 90
       50
176
     1
290
     0
176
     1
 90
       50
176
     1
 62
   256
176
     0
 40
1.0
176
     0
 90
        2
176
     1
  1
strokes_ogs.tif
176
     1
290
     0
176
     1
 40
1.0
176
     1
 40
1.0
176
     1
  0
VISUALSTYLE
  5
38F
102
{ACAD_REACTORS
330
38C
102
}
330
38C
100
AcDbVisualStyle
  2
Gouraud
 70
     2
177
     3
291
     1
 70
    58
 90
        2
176
     1
 90
        2
176
     1
 90
        1
176
     1
 90
        2
176
     1
 40
0.6
176
     1
 40
30.0
176
     1
 62
     7
420
 16777215
176
     1
 90
        0
176
     1
 90
        0
176
     1
 62
     7
176
     1
 62
   257
176
     1
 90
        1
176
     1
 90
        1
176
     1
 40
1.0
176
     1
 90
        0
176
     1
 62
     7
176
     1
 40
1.0
176
     1
 90
        1
176
     1
 90
        6
176
     1
 90
        2
176
     1
 62
     7
176
     1
 90
        5
176
     1
 90
        0
176
     1
 90
        0
176
     1
290
     0
176
     1
 90
       13
176
     1
 40
0.0
176
     1
 90
        0
176
     1
290
     0
176
     1
290
     1
176
     1
290
     1
176
     1
290
     0
176
     1
290
     0
176
     1
290
     0
176
     1
290
     0
176
     1
290
     0
176
     1
290
     0
176
     1
 90
       50
176
     1
 40
0.0
176
     1
 40
1.0
176
     1
 90
        0
176
     1
 62
    18
420
        0
176
     1
 90
       50
176
     1
 90
        3
176
     1
 62
     5
420
      255
176
     1
290
     0
176
     1
 90
       50
176
     1
 90
       50
176
     1
 90
       50
176
     1
290
     0
176
     1
 90
       50
176
     1
 62
   256
176
     0
 40
1.0
176
     0
 90
        2
176
     1
  1
strokes_ogs.tif
176
     1
290
     0
176
     1
 40
1.0
176
     1
 40
1.0
176
     1
  0
VISUALSTYLE
  5
390
102
{ACAD_REACTORS
330
38C
102
}
330
38C
100
AcDbVisualStyle
  2
GouraudWithEdges
 70
     3
177
     3
291
     1
 70
    58
 90
        2
176
     1
 90
        2
176
     1
 90
        1
176
     1
 90
        2
176
     1
 40
0.6
176
     1
 40
30.0
176
     1
 62
     7
420
 16777215
176
     1
 90
        1
176
     1
 90
        0
176
     1
 62
     7
176
     1
 62
   257
176
     1
 90
        1
176
     1
 90
        1
176
     1
 40
1.0
176
     1
 90
        0
176
     1
 62
   257
176
     1
 40
1.0
176
     1
 90
        1
176
     1
 90
        6
176
     1
 90
        2
176
     1
 62
     7
176
     1
 90
        5
176
     1
 90
        0
176
     1
 90
        0
176
     1
290
     0
176
     1
 90
       13
176
     1
 40
0.0
176
     1
 90
        0
176
     1
290
     0
176
     1
290
     1
176
     1
290
     1
176
     1
290
     0
176
     1
290
     0
176
     1
290
     0
176
     1
290
     0
176
     1
290
     0
176
     1
290
     0
176
     1
 90
       50
176
     1
 40
0.0
176
     1
 40
1.0
176
     1
 90
        0
176
     1
 62
    18
420
        0
176
     1
 90
       50
176
     1
 90
        3
176
     1
 62
     5
420
      255
176
     1
290
     0
176
     1
 90
       50
176
     1
 90
       50
176
     1
 90
       50
176
     1
290
     0
176
     1
 90
       50
176
     1
 62
   256
176
     0
 40
1.0
176
     0
 90
        2
176
     1
  1
strokes_ogs.tif
176
     1
290
     0
176
     1
 40
1.0
176
     1
 40
1.0
176
     1
  0
VISUALSTYLE
  5
394
102
{ACAD_REACTORS
330
38C
102
}
330
38C
100
AcDbVisualStyle
  2
Hidden
 70
     6
177
     3
291
     0
 70
    58
 90
        1
176
     1
 90
        2
176
     1
 90
        2
176
     1
 90
        0
176
     1
 40
0.6
176
     1
 40
30.0
176
     1
 62
     7
420
 16777215
176
     1
 90
        2
176
     1
 90
        2
176
     1
 62
     7
176
     1
 62
   257
176
     1
 90
        2
176
     1
 90
        1
176
     1
 40
40.0
176
     1
 90
        0
176
     1
 62
   257
176
     1
 40
1.0
176
     1
 90
        1
176
     1
 90
        6
176
     1
 90
        2
176
     1
 62
     7
176
     1
 90
        3
176
     1
 90
        0
176
     1
 90
        0
176
     1
290
     0
176
     1
 90
        1
176
     1
 40
0.0
176
     1
 90
        0
176
     1
290
     0
176
     1
290
     1
176
     1
290
     1
176
     1
290
     0
176
     1
290
     0
176
     1
290
     0
176
     1
290
     0
176
     1
290
     0
176
     1
290
     0
176
     1
 90
       50
176
     1
 40
0.0
176
     1
 40
1.0
176
     1
 90
        0
176
     1
 62
    18
420
        0
176
     1
 90
       50
176
     1
 90
        3
176
     1
 62
     5
420
      255
176
     1
290
     0
176
     1
 90
       50
176
     1
 90
       50
176
     1
 90
       50
176
     1
290
     0
176
     1
 90
       50
176
     1
 62
   256
176
     0
 40
1.0
176
     0
 90
        2
176
     1
  1
strokes_ogs.tif
176
     1
290
     0
176
     1
 40
1.0
176
     1
 40
1.0
176
     1
  0
VISUALSTYLE
  5
3A2
102
{ACAD_REACTORS
330
38C
102
}
330
38C
100
AcDbVisualStyle
  2
JitterOff
 70
    20
177
     3
291
     1
 70
    58
 90
        2
176
     0
 90
        2
176
     0
 90
        0
176
     0
 90
        0
176
     0
 40
0.6
176
     0
 40
30.0
176
     0
 62
     7
420
 16777215
176
     0
 90
        1
176
     0
 90
        4
176
     0
 62
     7
176
     0
 62
   257
176
     0
 90
        1
176
     0
 90
        1
176
     0
 40
1.0
176
     0
 90
       10
176
     2
 62
     7
176
     0
 40
1.0
176
     0
 90
        1
176
     0
 90
        6
176
     0
 90
        2
176
     0
 62
     7
176
     0
 90
        5
176
     0
 90
        0
176
     0
 90
        0
176
     0
290
     0
176
     0
 90
        1
176
     0
 40
0.0
176
     0
 90
        0
176
     0
290
     0
176
     1
290
     1
176
     1
290
     1
176
     1
290
     0
176
     1
290
     0
176
     1
290
     0
176
     1
290
     0
176
     1
290
     0
176
     1
290
     0
176
     1
 90
       50
176
     0
 40
0.0
176
     0
 40
1.0
176
     0
 90
        0
176
     0
 62
    18
420
        0
176
     0
 90
       50
176
     0
 90
        3
176
     0
 62
     5
420
      255
176
     0
290
     0
176
     1
 90
       50
176
     0
 90
       50
176
     0
 90
       50
176
     0
290
     0
176
     1
 90
       50
176
     0
 62
   256
176
     0
 40
1.0
176
     0
 90
        2
176
     0
  1
strokes_ogs.tif
176
     0
290
     0
176
     1
 40
1.0
176
     0
 40
1.0
176
     0
  0
VISUALSTYLE
  5
39A
102
{ACAD_REACTORS
330
38C
102
}
330
38C
100
AcDbVisualStyle
  2
Linepattern
 70
    14
177
     3
291
     1
 70
    58
 90
        2
176
     1
 90
        2
176
     1
 90
        0
176
     1
 90
        0
176
     1
 40
0.6
176
     1
 40
30.0
176
     1
 62
     7
420
 16777215
176
     1
 90
        1
176
     1
 90
        4
176
     1
 62
     7
176
     1
 62
   257
176
     1
 90
        7
176
     1
 90
        7
176
     1
 40
1.0
176
     1
 90
        8
176
     1
 62
     7
176
     1
 40
1.0
176
     1
 90
        1
176
     1
 90
        6
176
     1
 90
        2
176
     1
 62
     7
176
     1
 90
        5
176
     1
 90
        0
176
     1
 90
        0
176
     1
290
     0
176
     1
 90
        1
176
     1
 40
0.0
176
     1
 90
        0
176
     1
290
     0
176
     1
290
     1
176
     1
290
     1
176
     1
290
     0
176
     1
290
     0
176
     1
290
     0
176
     1
290
     0
176
     1
290
     0
176
     1
290
     0
176
     1
 90
       50
176
     1
 40
0.0
176
     1
 40
1.0
176
     1
 90
        0
176
     1
 62
    18
420
        0
176
     1
 90
       50
176
     1
 90
        3
176
     1
 62
     5
420
      255
176
     1
290
     0
176
     1
 90
       50
176
     1
 90
       50
176
     1
 90
       50
176
     1
290
     0
176
     1
 90
       50
176
     1
 62
   256
176
     0
 40
1.0
176
     0
 90
        2
176
     1
  1
strokes_ogs.tif
176
     1
290
     0
176
     1
 40
1.0
176
     1
 40
1.0
176
     1
  0
VISUALSTYLE
  5
3A3
102
{ACAD_REACTORS
330
38C
102
}
330
38C
100
AcDbVisualStyle
  2
OverhangOff
 70
    21
177
     3
291
     1
 70
    58
 90
        2
176
     0
 90
        2
176
     0
 90
        0
176
     0
 90
        0
176
     0
 40
0.6
176
     0
 40
30.0
176
     0
 62
     7
420
 16777215
176
     0
 90
        1
176
     0
 90
        4
176
     0
 62
     7
176
     0
 62
   257
176
     0
 90
        1
176
     0
 90
        1
176
     0
 40
1.0
176
     0
 90
        9
176
     2
 62
     7
176
     0
 40
1.0
176
     0
 90
        1
176
     0
 90
        6
176
     0
 90
        2
176
     0
 62
     7
176
     0
 90
        5
176
     0
 90
        0
176
     0
 90
        0
176
     0
290
     0
176
     0
 90
        1
176
     0
 40
0.0
176
     0
 90
        0
176
     0
290
     0
176
     1
290
     1
176
     1
290
     1
176
     1
290
     0
176
     1
290
     0
176
     1
290
     0
176
     1
290
     0
176
     1
290
     0
176
     1
290
     0
176
     1
 90
       50
176
     0
 40
0.0
176
     0
 40
1.0
176
     0
 90
        0
176
     0
 62
    18
420
        0
176
     0
 90
       50
176
     0
 90
        3
176
     0
 62
     5
420
      255
176
     0
290
     0
176
     1
 90
       50
176
     0
 90
       50
176
     0
 90
       50
176
     0
290
     0
176
     1
 90
       50
176
     0
 62
   256
176
     0
 40
1.0
176
     0
 90
        2
176
     0
  1
strokes_ogs.tif
176
     0
290
     0
176
     1
 40
1.0
176
     0
 40
1.0
176
     0
  0
VISUALSTYLE
  5
396
102
{ACAD_REACTORS
330
38C
102
}
330
38C
100
AcDbVisualStyle
  2
Realistic
 70
     8
177
     3
291
     0
 70
    58
 90
        2
176
     1
 90
        3
176
     1
 90
        0
176
     1
 90
        2
176
     1
 40
0.6
176
     1
 40
30.0
176
     1
 62
     7
420
 16777215
176
     1
 90
        0
176
     1
 90
        0
176
     1
 62
     7
176
     1
 62
   257
176
     1
 90
        1
176
     1
 90
        1
176
     1
 40
1.0
176
     1
 90
        8
176
     1
 62
   257
176
     1
 40
1.0
176
     1
 90
        1
176
     1
 90
        6
176
     1
 90
        2
176
     1
 62
     7
176
     1
 90
        3
176
     1
 90
        0
176
     1
 90
        0
176
     1
290
     0
176
     1
 90
       13
176
     1
 40
0.0
176
     1
 90
        0
176
     1
290
     0
176
     1
290
     1
176
     1
290
     1
176
     1
290
     0
176
     1
290
     0
176
     1
290
     0
176
     1
290
     0
176
     1
290
     0
176
     1
290
     0
176
     1
 90
       50
176
     1
 40
0.0
176
     1
 40
1.0
176
     1
 90
        0
176
     1
 62
    18
420
        0
176
     1
 90
       50
176
     1
 90
        3
176
     1
 62
     5
420
      255
176
     1
290
     0
176
     1
 90
       50
176
     1
 90
       50
176
     1
 90
       50
176
     1
290
     0
176
     1
 90
       50
176
     1
 62
   256
176
     0
 40
1.0
176
     0
 90
        2
176
     1
  1
strokes_ogs.tif
176
     1
290
     0
176
     1
 40
1.0
176
     1
 40
1.0
176
     1
  0
VISUALSTYLE
  5
3A1
102
{ACAD_REACTORS
330
38C
102
}
330
38C
100
AcDbVisualStyle
  2
Shaded
 70
    27
177
     3
291
     0
 70
    58
 90
        2
176
     1
 90
        2
176
     1
 90
        1
176
     1
 90
        2
176
     1
 40
0.6
176
     1
 40
30.0
176
     1
 62
     7
420
 16777215
176
     1
 90
        0
176
     1
 90
        4
176
     1
 62
     7
176
     1
 62
   257
176
     1
 90
        1
176
     1
 90
        1
176
     1
 40
1.0
176
     1
 90
        8
176
     1
 62
   257
176
     1
 40
1.0
176
     1
 90
        1
176
     1
 90
        6
176
     1
 90
        2
176
     1
 62
     8
420
  7895160
176
     1
 90
        3
176
     1
 90
        0
176
     1
 90
        0
176
     1
290
     0
176
     1
 90
        5
176
     1
 40
0.0
176
     1
 90
        0
176
     1
290
     0
176
     1
290
     1
176
     1
290
     1
176
     1
290
     0
176
     1
290
     0
176
     1
290
     0
176
     1
290
     0
176
     1
290
     0
176
     1
290
     0
176
     1
 90
       50
176
     1
 40
0.0
176
     1
 40
1.0
176
     1
 90
        0
176
     1
 62
    18
420
        0
176
     1
 90
       50
176
     1
 90
        3
176
     1
 62
     5
420
      255
176
     1
290
     0
176
     1
 90
       50
176
     1
 90
       50
176
     1
 90
       50
176
     1
290
     0
176
     1
 90
       50
176
     1
 62
   256
176
     0
 40
1.0
176
     0
 90
        2
176
     1
  1
strokes_ogs.tif
176
     1
290
     0
176
     1
 40
1.0
176
     1
 40
1.0
176
     1
  0
VISUALSTYLE
  5
3A0
102
{ACAD_REACTORS
330
38C
102
}
330
38C
100
AcDbVisualStyle
  2
Shaded with edges
 70
    26
177
     3
291
     0
 70
    58
 90
        2
176
     1
 90
        2
176
     1
 90
        1
176
     1
 90
        2
176
     1
 40
0.6
176
     1
 40
30.0
176
     1
 62
     7
420
 16777215
176
     1
 90
        1
176
     1
 90
        2
176
     1
 62
     7
176
     1
 62
   257
176
     1
 90
        2
176
     1
 90
        1
176
     1
 40
1.0
176
     1
 90
        8
176
     1
 62
   257
176
     1
 40
1.0
176
     1
 90
        1
176
     1
 90
        6
176
     1
 90
        2
176
     1
 62
     7
176
     1
 90
        3
176
     1
 90
        0
176
     1
 90
        0
176
     1
290
     0
176
     1
 90
        5
176
     1
 40
0.0
176
     1
 90
        0
176
     1
290
     0
176
     1
290
     1
176
     1
290
     1
176
     1
290
     0
176
     1
290
     0
176
     1
290
     0
176
     1
290
     0
176
     1
290
     0
176
     1
290
     0
176
     1
 90
       50
176
     1
 40
0.0
176
     1
 40
1.0
176
     1
 90
        0
176
     1
 62
    18
420
        0
176
     1
 90
       50
176
     1
 90
        3
176
     1
 62
     5
420
      255
176
     1
290
     0
176
     1
 90
       50
176
     1
 90
       50
176
     1
 90
       50
176
     1
290
     0
176
     1
 90
       50
176
     1
 62
   256
176
     0
 40
1.0
176
     0
 90
        2
176
     1
  1
strokes_ogs.tif
176
     1
290
     0
176
     1
 40
1.0
176
     1
 40
1.0
176
     1
  0
VISUALSTYLE
  5
39D
102
{ACAD_REACTORS
330
38C
102
}
330
38C
100
AcDbVisualStyle
  2
Shades of Gray
 70
    23
177
     3
291
     0
 70
    58
 90
        2
176
     1
 90
        2
176
     1
 90
        3
176
     1
 90
        0
176
     1
 40
0.6
176
     1
 40
30.0
176
     1
 62
     7
420
 16777215
176
     1
 90
        2
176
     1
 90
        2
176
     1
 62
     7
176
     1
 62
     7
176
     1
 90
        1
176
     1
 90
        1
176
     1
 40
40.0
176
     1
 90
        8
176
     1
 62
     7
176
     1
 40
1.0
176
     1
 90
        1
176
     1
 90
        6
176
     1
 90
        2
176
     1
 62
     7
176
     1
 90
        3
176
     1
 90
        0
176
     1
 90
        0
176
     1
290
     0
176
     1
 90
        1
176
     1
 40
0.0
176
     1
 90
        0
176
     1
290
     0
176
     1
290
     1
176
     1
290
     1
176
     1
290
     0
176
     1
290
     0
176
     1
290
     0
176
     1
290
     0
176
     1
290
     0
176
     1
290
     0
176
     1
 90
       50
176
     1
 40
0.0
176
     1
 40
1.0
176
     1
 90
        0
176
     1
 62
    18
420
        0
176
     1
 90
       50
176
     1
 90
        3
176
     1
 62
     5
420
      255
176
     1
290
     0
176
     1
 90
       50
176
     1
 90
       50
176
     1
 90
       50
176
     1
290
     0
176
     1
 90
       50
176
     1
 62
   256
176
     0
 40
1.0
176
     0
 90
        2
176
     1
  1
strokes_ogs.tif
176
     1
290
     0
176
     1
 40
1.0
176
     1
 40
1.0
176
     1
  0
VISUALSTYLE
  5
39E
102
{ACAD_REACTORS
330
38C
102
}
330
38C
100
AcDbVisualStyle
  2
Sketchy
 70
    24
177
     3
291
     0
 70
    58
 90
        1
176
     1
 90
        2
176
     1
 90
        2
176
     1
 90
        0
176
     1
 40
0.6
176
     1
 40
30.0
176
     1
 62
     7
420
 16777215
176
     1
 90
        2
176
     1
 90
        2
176
     1
 62
     7
176
     1
 62
     7
176
     1
 90
        1
176
     1
 90
        1
176
     1
 40
40.0
176
     1
 90
       11
176
     1
 62
     7
176
     1
 40
1.0
176
     1
 90
        1
176
     1
 90
        6
176
     1
 90
        2
176
     1
 62
     7
176
     1
 90
        6
176
     1
 90
        0
176
     1
 90
        0
176
     1
290
     0
176
     1
 90
        1
176
     1
 40
0.0
176
     1
 90
        0
176
     1
290
     0
176
     1
290
     1
176
     1
290
     1
176
     1
290
     0
176
     1
290
     0
176
     1
290
     0
176
     1
290
     0
176
     1
290
     0
176
     1
290
     0
176
     1
 90
       50
176
     1
 40
0.0
176
     1
 40
1.0
176
     1
 90
        0
176
     1
 62
    18
420
        0
176
     1
 90
       50
176
     1
 90
        3
176
     1
 62
     5
420
      255
176
     1
290
     0
176
     1
 90
       50
176
     1
 90
       50
176
     1
 90
       50
176
     1
290
     0
176
     1
 90
       50
176
     1
 62
   256
176
     0
 40
1.0
176
     0
 90
        2
176
     1
  1
strokes_ogs.tif
176
     1
290
     0
176
     1
 40
1.0
176
     1
 40
1.0
176
     1
  0
VISUALSTYLE
  5
399
102
{ACAD_REACTORS
330
38C
102
}
330
38C
100
AcDbVisualStyle
  2
Thicken
 70
    13
177
     3
291
     1
 70
    58
 90
        2
176
     1
 90
        2
176
     1
 90
        0
176
     1
 90
        0
176
     1
 40
0.6
176
     1
 40
30.0
176
     1
 62
     7
420
 16777215
176
     1
 90
        1
176
     1
 90
        4
176
     1
 62
     7
176
     1
 62
   257
176
     1
 90
        1
176
     1
 90
        1
176
     1
 40
1.0
176
     1
 90
       12
176
     1
 62
     7
176
     1
 40
1.0
176
     1
 90
        1
176
     1
 90
        6
176
     1
 90
        2
176
     1
 62
     7
176
     1
 90
        5
176
     1
 90
        0
176
     1
 90
        0
176
     1
290
     0
176
     1
 90
        1
176
     1
 40
0.0
176
     1
 90
        0
176
     1
290
     0
176
     1
290
     1
176
     1
290
     1
176
     1
290
     0
176
     1
290
     0
176
     1
290
     0
176
     1
290
     0
176
     1
290
     0
176
     1
290
     0
176
     1
 90
       50
176
     1
 40
0.0
176
     1
 40
1.0
176
     1
 90
        0
176
     1
 62
    18
420
        0
176
     1
 90
       50
176
     1
 90
        3
176
     1
 62
     5
420
      255
176
     1
290
     0
176
     1
 90
       50
176
     1
 90
       50
176
     1
 90
       50
176
     1
290
     0
176
     1
 90
       50
176
     1
 62
   256
176
     0
 40
1.0
176
     0
 90
        2
176
     1
  1
strokes_ogs.tif
176
     1
290
     0
176
     1
 40
1.0
176
     1
 40
1.0
176
     1
  0
VISUALSTYLE
  5
393
102
{ACAD_REACTORS
330
38C
102
}
330
38C
100
AcDbVisualStyle
  2
Wireframe
 70
     5
177
     3
291
     0
 70
    58
 90
        0
176
     1
 90
        2
176
     1
 90
        0
176
     1
 90
        0
176
     1
 40
0.6
176
     1
 40
30.0
176
     1
 62
     7
420
 16777215
176
     1
 90
        1
176
     1
 90
        4
176
     1
 62
     7
176
     1
 62
   257
176
     1
 90
        1
176
     1
 90
        1
176
     1
 40
1.0
176
     1
 90
        0
176
     1
 62
   257
176
     1
 40
1.0
176
     1
 90
        1
176
     1
 90
        6
176
     1
 90
        2
176
     1
 62
     7
176
     1
 90
        3
176
     1
 90
        0
176
     1
 90
        0
176
     1
290
     0
176
     1
 90
        1
176
     1
 40
0.0
176
     1
 90
        0
176
     1
290
     0
176
     1
290
     1
176
     1
290
     1
176
     1
290
     0
176
     1
290
     0
176
     1
290
     0
176
     1
290
     0
176
     1
290
     0
176
     1
290
     0
176
     1
 90
       50
176
     1
 40
0.0
176
     1
 40
1.0
176
     1
 90
        0
176
     1
 62
    18
420
        0
176
     1
 90
       50
176
     1
 90
        3
176
     1
 62
     5
420
      255
176
     1
290
     0
176
     1
 90
       50
176
     1
 90
       50
176
     1
 90
       50
176
     1
290
     0
176
     1
 90
       50
176
     1
 62
   256
176
     0
 40
1.0
176
     0
 90
        2
176
     1
  1
strokes_ogs.tif
176
     1
290
     0
176
     1
 40
1.0
176
     1
 40
1.0
176
     1
  0
VISUALSTYLE
  5
39F
102
{ACAD_REACTORS
330
38C
102
}
330
38C
100
AcDbVisualStyle
  2
X-Ray
 70
    25
177
     3
291
     0
 70
    58
 90
        2
176
     1
 90
        2
176
     1
 90
        1
176
     1
 90
        1
176
     1
 40
0.5
176
     1
 40
30.0
176
     1
 62
     7
420
 16777215
176
     1
 90
        1
176
     1
 90
        0
176
     1
 62
     7
176
     1
 62
   257
176
     1
 90
        1
176
     1
 90
        1
176
     1
 40
1.0
176
     1
 90
        8
176
     1
 62
     7
176
     1
 40
1.0
176
     1
 90
        1
176
     1
 90
        6
176
     1
 90
        2
176
     1
 62
     7
176
     1
 90
        3
176
     1
 90
        0
176
     1
 90
        0
176
     1
290
     0
176
     1
 90
       13
176
     1
 40
0.0
176
     1
 90
        0
176
     1
290
     0
176
     1
290
     1
176
     1
290
     1
176
     1
290
     0
176
     1
290
     0
176
     1
290
     0
176
     1
290
     0
176
     1
290
     0
176
     1
290
     0
176
     1
 90
       50
176
     1
 40
0.0
176
     1
 40
1.0
176
     1
 90
        0
176
     1
 62
    18
420
        0
176
     1
 90
       50
176
     1
 90
        3
176
     1
 62
     5
420
      255
176
     1
290
     0
176
     1
 90
       50
176
     1
 90
       50
176
     1
 90
       50
176
     1
290
     0
176
     1
 90
       50
176
     1
 62
   256
176
     0
 40
1.0
176
     0
 90
        2
176
     1
  1
strokes_ogs.tif
176
     1
290
     0
176
     1
 40
1.0
176
     1
 40
1.0
176
     1
  0
DICTIONARYVAR
  5
456
102
{ACAD_REACTORS
330
450
102
}
330
450
100
DictionaryVariables
280
     0
  1
1:1
  0
DICTIONARYVAR
  5
452
102
{ACAD_REACTORS
330
450
102
}
330
450
100
DictionaryVariables
280
     0
  1
STANDARD
  0
DICTIONARYVAR
  5
451
102
{ACAD_REACTORS
330
450
102
}
330
450
100
DictionaryVariables
280
     0
  1
STANDARD
  0
DICTIONARYVAR
  5
453
102
{ACAD_REACTORS
330
450
102
}
330
450
100
DictionaryVariables
280
     0
  1
Metric50
  0
DICTIONARYVAR
  5
454
102
{ACAD_REACTORS
330
450
102
}
330
450
100
DictionaryVariables
280
     0
  1
Metric50
  0
DICTIONARYVAR
  5
458
102
{ACAD_REACTORS
330
450
102
}
330
450
100
DictionaryVariables
280
     0
  1
1
  0
DICTIONARYVAR
  5
459
102
{ACAD_REACTORS
330
450
102
}
330
450
100
DictionaryVariables
280
     0
  1
15
  0
DICTIONARYVAR
  5
457
102
{ACAD_REACTORS
330
450
102
}
330
450
100
DictionaryVariables
280
     0
  1
0
  0
DICTIONARYVAR
  5
455
102
{ACAD_REACTORS
330
450
102
}
330
450
100
DictionaryVariables
280
     0
  1
0
  0
DICTIONARY
  5
422
102
{ACAD_REACTORS
330
421
102
}
330
421
100
AcDbDictionary
281
     1
  3
*A1
350
423
  0
DICTIONARY
  5
414
102
{ACAD_REACTORS
330
413
102
}
330
413
100
AcDbDictionary
281
     1
  3
*A1
350
415
  0
DICTIONARY
  5
406
102
{ACAD_REACTORS
330
405
102
}
330
405
100
AcDbDictionary
281
     1
  3
*A1
350
407
  0
DICTIONARY
  5
430
102
{ACAD_REACTORS
330
42F
102
}
330
42F
100
AcDbDictionary
281
     1
  3
*A1
350
431
  0
DICTIONARY
  5
3F8
102
{ACAD_REACTORS
330
3F7
102
}
330
3F7
100
AcDbDictionary
281
     1
  3
*A1
350
3F9
  0
DICTIONARY
  5
37D
330
37C
100
AcDbDictionary
280
     1
281
     1
  3
BUMPTILE
360
37F
  3
DIFFUSETILE
360
37E
  3
OPACITYTILE
360
382
  3
REFLECTIONTILE
360
381
  3
REFRACTIONTILE
360
383
  3
SPECULARTILE
360
380
  0
DICTIONARY
  5
375
330
374
100
AcDbDictionary
280
     1
281
     1
  3
BUMPTILE
360
377
  3
DIFFUSETILE
360
376
  3
OPACITYTILE
360
37A
  3
REFLECTIONTILE
360
379
  3
REFRACTIONTILE
360
37B
  3
SPECULARTILE
360
378
  0
DICTIONARY
  5
385
330
384
100
AcDbDictionary
280
     1
281
     1
  3
BUMPTILE
360
387
  3
DIFFUSETILE
360
386
  3
OPACITYTILE
360
38A
  3
REFLECTIONTILE
360
389
  3
REFRACTIONTILE
360
38B
  3
SPECULARTILE
360
388
  0
DICTIONARY
  5
45A
330
3A7
100
AcDbDictionary
280
     1
281
     1
  3
ACAD_ROUNDTRIP_2008_TABLESTYLE_CELLSTYLEMAP
360
45B
  0
ACDB_ALDIMOBJECTCONTEXTDATA_CLASS
  5
423
102
{ACAD_REACTORS
330
422
102
}
330
422
100
AcDbObjectContextData
 70
     4
290
     1
100
AcDbAnnotScaleObjectContextData
340
48
100
AcDbDimensionObjectContextData
  2
*D13
293
     0
 10
24.245170376
 20
84.99775836479999
294
     0
140
0.0
298
     0
291
     0
 70
     0
292
     0
 71
     0
280
     0
295
     0
296
     0
297
     0
100
AcDbAlignedDimensionObjectContextData
 11
24.24517037599998
 21
122.766839504
 31
0.0
  0
ACDB_ALDIMOBJECTCONTEXTDATA_CLASS
  5
415
102
{ACAD_REACTORS
330
414
102
}
330
414
100
AcDbObjectContextData
 70
     4
290
     1
100
AcDbAnnotScaleObjectContextData
340
48
100
AcDbDimensionObjectContextData
  2
*D12
293
     0
 10
180.6082615836
 20
154.3536959182
294
     0
140
0.0
298
     0
291
     0
 70
     0
292
     0
 71
     0
280
     0
295
     0
296
     0
297
     0
100
AcDbAlignedDimensionObjectContextData
 11
202.6301761447
 21
154.3536959182
 31
0.0
  0
ACDB_ALDIMOBJECTCONTEXTDATA_CLASS
  5
407
102
{ACAD_REACTORS
330
406
102
}
330
406
100
AcDbObjectContextData
 70
     4
290
     1
100
AcDbAnnotScaleObjectContextData
340
48
100
AcDbDimensionObjectContextData
  2
*D11
293
     0
 10
401.4417508933
 20
20.766839504
294
     0
140
0.0
298
     0
291
     0
 70
     0
292
     0
 71
     0
280
     0
295
     0
296
     0
297
     0
100
AcDbAlignedDimensionObjectContextData
 11
529.4401288801
 21
20.766839504
 31
0.0
  0
ACDB_ALDIMOBJECTCONTEXTDATA_CLASS
  5
431
102
{ACAD_REACTORS
330
430
102
}
330
430
100
AcDbObjectContextData
 70
     4
290
     1
100
AcDbAnnotScaleObjectContextData
340
48
100
AcDbDimensionObjectContextData
  2
*D14
293
     0
 10
128.7185736633
 20
457.5023878575
294
     0
140
0.0
298
     0
291
     0
 70
     0
292
     0
 71
     0
280
     0
295
     0
296
     0
297
     0
100
AcDbAlignedDimensionObjectContextData
 11
220.245170376
 21
457.5023878575
 31
0.0
  0
ACDB_ALDIMOBJECTCONTEXTDATA_CLASS
  5
3F9
102
{ACAD_REACTORS
330
3F8
102
}
330
3F8
100
AcDbObjectContextData
 70
     4
290
     1
100
AcDbAnnotScaleObjectContextData
340
48
100
AcDbDimensionObjectContextData
  2
*D10
293
     0
 10
399.1901288801
 20
171.9738313233518
294
     1
140
0.0
298
     0
291
     0
 70
     0
292
     0
 71
     0
280
     0
295
     0
296
     0
297
     0
100
AcDbAlignedDimensionObjectContextData
 11
529.4401288801
 21
163.9738313233519
 31
0.0
  0
XRECORD
  5
37F
102
{ACAD_REACTORS
330
37D
102
}
330
37D
100
AcDbXrecord
280
     1
270
     1
271
     1
  0
XRECORD
  5
37E
102
{ACAD_REACTORS
330
37D
102
}
330
37D
100
AcDbXrecord
280
     1
270
     1
271
     1
  0
XRECORD
  5
382
102
{ACAD_REACTORS
330
37D
102
}
330
37D
100
AcDbXrecord
280
     1
270
     1
271
     1
  0
XRECORD
  5
381
102
{ACAD_REACTORS
330
37D
102
}
330
37D
100
AcDbXrecord
280
     1
270
     1
271
     1
  0
XRECORD
  5
383
102
{ACAD_REACTORS
330
37D
102
}
330
37D
100
AcDbXrecord
280
     1
270
     1
271
     1
  0
XRECORD
  5
380
102
{ACAD_REACTORS
330
37D
102
}
330
37D
100
AcDbXrecord
280
     1
270
     1
271
     1
  0
XRECORD
  5
377
102
{ACAD_REACTORS
330
375
102
}
330
375
100
AcDbXrecord
280
     1
270
     1
271
     1
  0
XRECORD
  5
376
102
{ACAD_REACTORS
330
375
102
}
330
375
100
AcDbXrecord
280
     1
270
     1
271
     1
  0
XRECORD
  5
37A
102
{ACAD_REACTORS
330
375
102
}
330
375
100
AcDbXrecord
280
     1
270
     1
271
     1
  0
XRECORD
  5
379
102
{ACAD_REACTORS
330
375
102
}
330
375
100
AcDbXrecord
280
     1
270
     1
271
     1
  0
XRECORD
  5
37B
102
{ACAD_REACTORS
330
375
102
}
330
375
100
AcDbXrecord
280
     1
270
     1
271
     1
  0
XRECORD
  5
378
102
{ACAD_REACTORS
330
375
102
}
330
375
100
AcDbXrecord
280
     1
270
     1
271
     1
  0
XRECORD
  5
387
102
{ACAD_REACTORS
330
385
102
}
330
385
100
AcDbXrecord
280
     1
270
     1
271
     1
  0
XRECORD
  5
386
102
{ACAD_REACTORS
330
385
102
}
330
385
100
AcDbXrecord
280
     1
270
     1
271
     1
  0
XRECORD
  5
38A
102
{ACAD_REACTORS
330
385
102
}
330
385
100
AcDbXrecord
280
     1
270
     1
271
     1
  0
XRECORD
  5
389
102
{ACAD_REACTORS
330
385
102
}
330
385
100
AcDbXrecord
280
     1
270
     1
271
     1
  0
XRECORD
  5
38B
102
{ACAD_REACTORS
330
385
102
}
330
385
100
AcDbXrecord
280
     1
270
     1
271
     1
  0
XRECORD
  5
388
102
{ACAD_REACTORS
330
385
102
}
330
385
100
AcDbXrecord
280
     1
270
     1
271
     1
  0
CELLSTYLEMAP
  5
45B
102
{ACAD_REACTORS
330
45A
102
}
330
45A
100
AcDbCellStyleMap
 90
        3
300
CELLSTYLE
  1
TABLEFORMAT_BEGIN
 90
        5
170
     1
 91
        0
 92
    32768
 62
   257
 93
        1
300
CONTENTFORMAT
  1
CONTENTFORMAT_BEGIN
 90
        0
 91
        0
 92
      512
 93
        0
300

 40
0.0
140
1.0
 94
        5
 62
     0
340
11
144
6.0
309
CONTENTFORMAT_END
171
     1
301
MARGIN
  1
CELLMARGIN_BEGIN
 40
1.5
 40
1.5
 40
1.5
 40
1.5
 40
4.5
 40
4.5
309
CELLMARGIN_END
 94
        6
 95
        1
302
GRIDFORMAT
  1
GRIDFORMAT_BEGIN
 90
        0
 91
        1
 62
     0
 92
       -2
340
0
 93
        0
 40
1.125
309
GRIDFORMAT_END
 95
        2
302
GRIDFORMAT
  1
GRIDFORMAT_BEGIN
 90
        0
 91
        1
 62
     0
 92
       -2
340
0
 93
        0
 40
1.125
309
GRIDFORMAT_END
 95
        4
302
GRIDFORMAT
  1
GRIDFORMAT_BEGIN
 90
        0
 91
        1
 62
     0
 92
       -2
340
0
 93
        0
 40
1.125
309
GRIDFORMAT_END
 95
        8
302
GRIDFORMAT
  1
GRIDFORMAT_BEGIN
 90
        0
 91
        1
 62
     0
 92
       -2
340
0
 93
        0
 40
1.125
309
GRIDFORMAT_END
 95
       16
302
GRIDFORMAT
  1
GRIDFORMAT_BEGIN
 90
        0
 91
        1
 62
     0
 92
       -2
340
0
 93
        0
 40
1.125
309
GRIDFORMAT_END
 95
       32
302
GRIDFORMAT
  1
GRIDFORMAT_BEGIN
 90
        0
 91
        1
 62
     0
 92
       -2
340
0
 93
        0
 40
1.125
309
GRIDFORMAT_END
309
TABLEFORMAT_END
  1
CELLSTYLE_BEGIN
 90
        1
 91
        1
300
_TITLE
309
CELLSTYLE_END
300
CELLSTYLE
  1
TABLEFORMAT_BEGIN
 90
        5
170
     1
 91
        0
 92
        0
 62
   257
 93
        1
300
CONTENTFORMAT
  1
CONTENTFORMAT_BEGIN
 90
        0
 91
        0
 92
      512
 93
        0
300

 40
0.0
140
1.0
 94
        5
 62
     0
340
11
144
4.5
309
CONTENTFORMAT_END
171
     1
301
MARGIN
  1
CELLMARGIN_BEGIN
 40
1.5
 40
1.5
 40
1.5
 40
1.5
 40
4.5
 40
4.5
309
CELLMARGIN_END
 94
        6
 95
        1
302
GRIDFORMAT
  1
GRIDFORMAT_BEGIN
 90
        0
 91
        1
 62
     0
 92
       -2
340
0
 93
        0
 40
1.125
309
GRIDFORMAT_END
 95
        2
302
GRIDFORMAT
  1
GRIDFORMAT_BEGIN
 90
        0
 91
        1
 62
     0
 92
       -2
340
0
 93
        0
 40
1.125
309
GRIDFORMAT_END
 95
        4
302
GRIDFORMAT
  1
GRIDFORMAT_BEGIN
 90
        0
 91
        1
 62
     0
 92
       -2
340
0
 93
        0
 40
1.125
309
GRIDFORMAT_END
 95
        8
302
GRIDFORMAT
  1
GRIDFORMAT_BEGIN
 90
        0
 91
        1
 62
     0
 92
       -2
340
0
 93
        0
 40
1.125
309
GRIDFORMAT_END
 95
       16
302
GRIDFORMAT
  1
GRIDFORMAT_BEGIN
 90
        0
 91
        1
 62
     0
 92
       -2
340
0
 93
        0
 40
1.125
309
GRIDFORMAT_END
 95
       32
302
GRIDFORMAT
  1
GRIDFORMAT_BEGIN
 90
        0
 91
        1
 62
     0
 92
       -2
340
0
 93
        0
 40
1.125
309
GRIDFORMAT_END
309
TABLEFORMAT_END
  1
CELLSTYLE_BEGIN
 90
        2
 91
        1
300
_HEADER
309
CELLSTYLE_END
300
CELLSTYLE
  1
TABLEFORMAT_BEGIN
 90
        5
170
     1
 91
        0
 92
        0
 62
   257
 93
        1
300
CONTENTFORMAT
  1
CONTENTFORMAT_BEGIN
 90
        0
 91
        0
 92
      512
 93
        0
300

 40
0.0
140
1.0
 94
        2
 62
     0
340
11
144
4.5
309
CONTENTFORMAT_END
171
     1
301
MARGIN
  1
CELLMARGIN_BEGIN
 40
1.5
 40
1.5
 40
1.5
 40
1.5
 40
4.5
 40
4.5
309
CELLMARGIN_END
 94
        6
 95
        1
302
GRIDFORMAT
  1
GRIDFORMAT_BEGIN
 90
        0
 91
        1
 62
     0
 92
       -2
340
0
 93
        0
 40
1.125
309
GRIDFORMAT_END
 95
        2
302
GRIDFORMAT
  1
GRIDFORMAT_BEGIN
 90
        0
 91
        1
 62
     0
 92
       -2
340
0
 93
        0
 40
1.125
309
GRIDFORMAT_END
 95
        4
302
GRIDFORMAT
  1
GRIDFORMAT_BEGIN
 90
        0
 91
        1
 62
     0
 92
       -2
340
0
 93
        0
 40
1.125
309
GRIDFORMAT_END
 95
        8
302
GRIDFORMAT
  1
GRIDFORMAT_BEGIN
 90
        0
 91
        1
 62
     0
 92
       -2
340
0
 93
        0
 40
1.125
309
GRIDFORMAT_END
 95
       16
302
GRIDFORMAT
  1
GRIDFORMAT_BEGIN
 90
        0
 91
        1
 62
     0
 92
       -2
340
0
 93
        0
 40
1.125
309
GRIDFORMAT_END
 95
       32
302
GRIDFORMAT
  1
GRIDFORMAT_BEGIN
 90
        0
 91
        1
 62
     0
 92
       -2
340
0
 93
        0
 40
1.125
309
GRIDFORMAT_END
309
TABLEFORMAT_END
  1
CELLSTYLE_BEGIN
 90
        3
 91
        2
300
_DATA
309
CELLSTYLE_END
  0
ENDSEC
  0
EOF
