  0
SECTION
  2
HEADER
  9
$ACADVER
  1
AC1009
  9
$DWGCODEPAGE
  3
ansi_1252
  9
$INSBASE
 10
0.0
 20
0.0
 30
0.0
  9
$EXTMIN
 10
0.0
 20
0.0
 30
0.0
  9
$EXTMAX
 10
1189.0
 20
841.0
 30
0.0
  9
$LIMMIN
 10
0.0
 20
0.0
  9
$LIMMAX
 10
0.0
 20
0.0
  9
$ORTHOMODE
 70
         0
  9
$REGENMODE
 70
         1
  9
$FILLMODE
 70
         1
  9
$QTEXTMODE
 70
         0
  9
$MIRRTEXT
 70
         1
  9
$DRAGMODE
 70
         2
  9
$LTSCALE
 40
1.0
  9
$OSMODE
 70
         0
  9
$ATTMODE
 70
         1
  9
$TEXTSIZE
 40
3.5
  9
$TRACEWID
 40
0.05
  9
$TEXTSTYLE
  7
STANDARD
  9
$CLAYER
  8
0
  9
$CELTYPE
  6
CONTINUOUS
  9
$CECOLOR
 62
       256
  9
$DIMSCALE
 40
1.0
  9
$DIMASZ
 40
2.5
  9
$DIMEXO
 40
0.005
  9
$DIMDLI
 40
0.38
  9
$DIMRND
 40
0.0
  9
$DIMDLE
 40
1.0
  9
$DIMEXE
 40
0.18
  9
$DIMTP
 40
0.0
  9
$DIMTM
 40
0.0
  9
$DIMTXT
 40
3.5
  9
$DIMCEN
 40
0.09
  9
$DIMTSZ
 40
0.0
  9
$DIMTOL
 70
         0
  9
$DIMLIM
 70
         0
  9
$DIMTIH
 70
         1
  9
$DIMTOH
 70
         1
  9
$DIMSE1
 70
         0
  9
$DIMSE2
 70
         0
  9
$DIMTAD
 70
         1
  9
$DIMZIN
 70
         0
  9
$DIMBLK
  1

  9
$DIMASO
 70
         1
  9
$DIMSHO
 70
         1
  9
$DIMPOST
  1

  9
$DIMAPOST
  1

  9
$DIMALT
 70
         0
  9
$DIMALTD
 70
         2
  9
$DIMALTF
 40
0.0394
  9
$DIMLFAC
 40
1.0
  9
$DIMTOFL
 70
         0
  9
$DIMTVP
 40
0.0
  9
$DIMTIX
 70
         0
  9
$DIMSOXD
 70
         0
  9
$DIMSAH
 70
         0
  9
$DIMBLK1
  1

  9
$DIMBLK2
  1

  9
$DIMSTYLE
  2
STANDARD
  9
$DIMCLRD
 70
         0
  9
$DIMCLRE
 70
         0
  9
$DIMCLRT
 70
         0
  9
$DIMTFAC
 40
1.0
  9
$DIMGAP
 40
0.005
  9
$LUNITS
 70
         2
  9
$LUPREC
 70
         2
  9
$AXISMODE
 70
         0
  9
$AXISUNIT
 10
0.0
 20
0.0
  9
$SKETCHINC
 40
0.1
  9
$FILLETRAD
 40
0.0
  9
$AUNITS
 70
         0
  9
$AUPREC
 70
         2
  9
$MENU
  1
acad
  9
$ELEVATION
 40
0.0
  9
$PELEVATION
 40
0.0
  9
$THICKNESS
 40
0.0
  9
$LIMCHECK
 70
         0
  9
$BLIPMODE
 70
         1
  9
$CHAMFERA
 40
0.0
  9
$CHAMFERB
 40
0.0
  9
$SKPOLY
 70
         0
  9
$TDCREATE
 40
0.000000000
  9
$TDUPDATE
 40
0.000000000
  9
$TDINDWG
 40
0.0000000000
  9
$TDUSRTIMER
 40
0.0000000000
  9
$USRTIMER
 70
         1
  9
$ANGBASE
 50
0.0
  9
$ANGDIR
 70
         0
  9
$PDMODE
 70
         0
  9
$PDSIZE
 40
-1.0
  9
$PLINEWID
 40
0.0
  9
$COORDS
 70
         0
  9
$SPLFRAME
 70
         0
  9
$SPLINETYPE
 70
         6
  9
$SPLINESEGS
 70
         8
  9
$ATTDIA
 70
         0
  9
$ATTREQ
 70
         1
  9
$HANDLING
 70
         1
  9
$HANDSEED
  5
81
  9
$SURFTAB1
 70
         6
  9
$SURFTAB2
 70
         6
  9
$SURFTYPE
 70
         6
  9
$SURFU
 70
         6
  9
$SURFV
 70
         6
  9
$UCSNAME
  2

  9
$UCSORG
 10
0.0
 20
0.0
 30
0.0
  9
$UCSXDIR
 10
1.0
 20
0.0
 30
0.0
  9
$UCSYDIR
 10
0.0
 20
1.0
 30
0.0
  9
$PUCSNAME
  2

  9
$PUCSORG
 10
0.0
 20
0.0
 30
0.0
  9
$PUCSXDIR
 10
1.0
 20
0.0
 30
0.0
  9
$PUCSYDIR
 10
0.0
 20
1.0
 30
0.0
  9
$USERI1
 70
         0
  9
$USERI2
 70
         0
  9
$USERI3
 70
         0
  9
$USERI4
 70
         0
  9
$USERI5
 70
         0
  9
$USERR1
 40
0.0
  9
$USERR2
 40
0.0
  9
$USERR3
 40
0.0
  9
$USERR4
 40
0.0
  9
$USERR5
 40
0.0
  9
$WORLDVIEW
 70
         1
  9
$SHADEDGE
 70
         3
  9
$SHADEDIF
 70
        70
  9
$TILEMODE
 70
         1
  9
$MAXACTVP
 70
        16
  9
$PINSBASE
 10
0.0
 20
0.0
 30
0.0
  9
$PLIMCHECK
 70
         0
  9
$PEXTMIN
 10
1.0000000000E+20
 20
1.0000000000E+20
 30
1.0000000000E+20
  9
$PEXTMAX
 10
-1.0000000000E+20
 20
-1.0000000000E+20
 30
-1.0000000000E+20
  9
$PLIMMIN
 10
0.0
 20
0.0
  9
$PLIMMAX
 10
12.0
 20
9.0
  9
$UNITMODE
 70
         0
  9
$VISRETAIN
 70
         0
  9
$PLINEGEN
 70
         1
  9
$PSLTSCALE
 70
         1
  9
$TREEDEPTH
 70
      3020
  9
$DWGCODEPAGE
  3
ansi_1252
  0
ENDSEC
  0
SECTION
  2
TABLES
  0
TABLE
  2
VPORT
 70
         1
  0
VPORT
  2
*ACTIVE
 70
         0
 10
0.0
 20
0.0
 11
1.0
 21
1.0
 12
594.5
 22
420.5
 13
0.0
 23
0.0
 14
1.0
 24
1.0
 15
0.0
 25
0.0
 16
0.0
 26
0.0
 36
1.0
 17
0.0
 27
0.0
 37
0.0
 40
841.0
 41
0.7073170732
 42
50.0
 43
0.0
 44
0.0
 50
0.0
 51
0.0
 71
         0
 72
      2000
 73
         1
 74
         1
 75
         0
 76
         0
 77
         0
 78
         0
  0
ENDTAB
  0
TABLE
  2
LTYPE
 70
         6
  0
LTYPE
  2
CONTINUOUS
 70
        64
  3
Solid line
 72
        65
 73
         0
 40
0.0
  0
LTYPE
  2
HIDDEN
 70
        64
  3
Hidden __ __ __ __ __ __ __ __ __ __ __ __ __ __
 72
        65
 73
         2
 40
1.905
 49
1.27
 49
-0.635
  0
LTYPE
  2
PHANTOM
 70
        64
  3
Phantom ______  __  __  ______  __  __  ______
 72
        65
 73
         6
 40
12.7
 49
6.35
 49
-1.27
 49
1.27
 49
-1.27
 49
1.27
 49
-1.27
  0
LTYPE
  2
CENTER
 70
        64
  3
Center ____ _ ____ _ ____ _ ____ _ ____ _ ____
 72
        65
 73
         4
 40
10.16
 49
6.35
 49
-1.27
 49
1.27
 49
-1.27
  0
LTYPE
  2
CENTERX2
 70
        64
  3
Center (2x) ________  __  ________  __  _____
 72
        65
 73
         4
 40
20.32
 49
12.7
 49
-2.54
 49
2.54
 49
-2.54
  0
LTYPE
  2
DOT2
 70
        64
  3
Dot (.5x) ........................................
 72
        65
 73
         2
 40
0.635
 49
0.0
 49
-0.635
  0
ENDTAB
  0
TABLE
  2
LAYER
 70
         2
  0
LAYER
  2
0
 70
         0
 62
         7
  6
CONTINUOUS
  0
LAYER
  2
DEFPOINTS
 70
         0
 62
         7
  6
CONTINUOUS
  0
ENDTAB
  0
TABLE
  2
STYLE
 70
         1
  0
STYLE
  2
STANDARD
 70
         0
 40
0.0
 41
1.0
 50
0.0
 71
         0
 42
0.0
  3
txt
  4

  0
ENDTAB
  0
TABLE
  2
VIEW
 70
         0
  0
ENDTAB
  0
TABLE
  2
UCS
 70
         0
  0
ENDTAB
  0
TABLE
  2
APPID
 70
         1
  0
APPID
  2
ACAD
 70
         0
  0
ENDTAB
  0
TABLE
  2
DIMSTYLE
 70
         3
  0
DIMSTYLE
  2
STANDARD
 70
         0
  3

  4

  5

  6

  7

 40
1.0
 41
0.18
 42
0.0625
 43
0.38
 44
0.18
 45
0.0
 46
0.0
 47
0.0
 48
0.0
 71
         0
 72
         0
 73
         1
 74
         1
 75
         0
 76
         0
 77
         0
 78
         0
140
0.18
141
0.09
142
0.0
143
25.4
144
1.0
145
0.0
146
1.0
147
0.09
170
         0
171
         2
172
         0
173
         0
174
         0
175
         0
176
         0
177
         0
178
         0
  0
DIMSTYLE
  2
SLDDIMSTYLE0
 70
         0
  3

  4

  5

  6

  7

 40
1.0
 41
2.5
 42
0.0625
 43
0.38
 44
1.0
 45
0.0
 46
0.0
 47
0.0
 48
0.0
 71
         0
 72
         0
 73
         0
 74
         0
 75
         0
 76
         0
 77
         2
 78
        12
140
3.5
141
0.09
142
0.0
143
25.4
144
1.0
145
0.0
146
1.0
147
0.875
170
         0
171
         2
172
         0
173
         1
174
         0
175
         0
176
         7
177
         7
178
         7
  0
DIMSTYLE
  2
SLDDIMSTYLE1
 70
         0
  3

  4

  5

  6

  7

 40
1.0
 41
2.5
 42
0.0625
 43
0.38
 44
1.0
 45
0.0
 46
0.0
 47
0.0
 48
0.0
 71
         0
 72
         0
 73
         0
 74
         0
 75
         0
 76
         0
 77
         2
 78
        12
140
3.5
141
0.09
142
0.0
143
25.4
144
1.0
145
0.0
146
1.0
147
0.875
170
         0
171
         2
172
         1
173
         1
174
         0
175
         0
176
         7
177
         7
178
         7
  0
ENDTAB
  0
ENDSEC
  0
SECTION
  2
BLOCKS
  0
BLOCK
  8
0
 62
         0
  5
25
  2
DRAUFSICHT
 70
         0
 10
0.0
 20
0.0
 30
0.0
  3
Draufsicht
  0
TEXT
  8
0
 62
         7
  5
26
 10
0.0
 20
1.5295365771
 30
0.0
 40
5.2916666667
  1
Draufsicht / top view
 41
0.75
  0
ENDBLK
  8
0
  5
27
  0
BLOCK
  8
0
 62
         0
  5
29
  2
VORDERANSICHT
 70
         0
 10
0.0
 20
0.0
 30
0.0
  3
Vorderansicht
  0
TEXT
  8
0
 62
         7
  5
2A
 10
0.331577667
 20
1.4239526381
 30
0.0
 40
5.2916666667
  1
Vorderansicht / front view
 41
0.75
  0
ENDBLK
  8
0
  5
2B
  0
BLOCK
  8
0
 62
         7
  5
43
  2
*D2
 70
         1
 10
0.0
 20
0.0
 30
0.0
  3
*D2
  0
TEXT
  8
0
 62
         7
  5
44
 10
583.526344344
 20
718.2283506198
 30
0.0
 40
3.5
  1
135
 50
90.0
 41
0.75
  0
LINE
  8
0
 62
         7
  5
45
 10
568.5316433589
 20
784.7816582698
 30
0.0
 11
586.026344344
 21
784.7816582698
 31
0.0
  0
LINE
  8
0
 62
         7
  5
46
 10
363.0433118644
 20
649.7816582698
 30
0.0
 11
586.026344344
 21
649.7816582698
 31
0.0
  0
LINE
  8
0
 62
         7
  5
47
 10
585.026344344
 20
784.7816582698
 30
0.0
 11
585.026344344
 21
649.7816582698
 31
0.0
  0
SOLID
  8
0
 62
         7
  5
48
 10
585.026344344
 20
784.7816582698
 30
0.0
 11
584.716344344
 21
782.2816582698
 31
0.0
 12
585.336344344
 22
782.2816582698
 32
0.0
 13
585.336344344
 23
782.2816582698
 33
0.0
  0
SOLID
  8
0
 62
         7
  5
49
 10
585.026344344
 20
649.7816582698
 30
0.0
 11
585.336344344
 21
652.2816582698
 31
0.0
 12
584.716344344
 22
652.2816582698
 32
0.0
 13
584.716344344
 23
652.2816582698
 33
0.0
  0
POINT
  8
DEFPOINTS
 62
         7
  5
4B
 10
568.5266433589
 20
784.7816582698
 30
0.0
  0
POINT
  8
DEFPOINTS
 62
         7
  5
4C
 10
363.0383118644
 20
649.7816582698
 30
0.0
  0
ENDBLK
  8
0
 62
         7
  5
4D
  0
BLOCK
  8
0
 62
         7
  5
58
  2
*D3
 70
         1
 10
0.0
 20
0.0
 30
0.0
  3
*D3
  0
TEXT
  8
0
 62
         7
  5
59
 10
498.5683985755
 20
476.769555375
 30
0.0
 40
3.5
  1
%%c
 50
46.2818105614
 41
0.75
  0
TEXT
  8
0
 62
         7
  5
5A
 10
502.8182968242
 20
481.2139941779
 30
0.0
 40
3.5
  1
450
 50
46.2818105614
 41
0.75
  0
LINE
  8
0
 62
         7
  5
5B
 10
484.538487891
 20
459.9272331204
 30
0.0
 11
508.667988996
 21
485.1612704379
 31
0.0
  0
LINE
  8
0
 62
         7
  5
5C
 10
484.538487891
 20
459.9272331204
 30
0.0
 11
173.5381358378
 21
134.6907329813
 31
0.0
  0
SOLID
  8
0
 62
         7
  5
5D
 10
173.5381358378
 20
134.6907329813
 30
0.0
 11
175.4899673826
 21
136.2833577395
 31
0.0
 12
175.0418637602
 22
136.7118471135
 32
0.0
 13
175.0418637602
 23
136.7118471135
 33
0.0
  0
SOLID
  8
0
 62
         7
  5
5E
 10
484.538487891
 20
459.9272331204
 30
0.0
 11
482.5866563462
 21
458.3346083622
 31
0.0
 12
483.0347599686
 22
457.9061189882
 32
0.0
 13
483.0347599686
 23
457.9061189882
 33
0.0
  0
POINT
  8
DEFPOINTS
 62
         7
  5
60
 10
173.5381358378
 20
134.6907329813
 30
0.0
  0
POINT
  8
DEFPOINTS
 62
         7
  5
61
 10
484.538487891
 20
459.9272331204
 30
0.0
  0
ENDBLK
  8
0
  5
62
  0
BLOCK
  8
0
 62
         0
  5
65
  2
NOTE0
 70
         0
 10
0.0
 20
0.0
 30
0.0
  3
NOTE0
  0
TEXT
  8
0
 62
         7
  5
66
 10
0.0
 20
-5.2916666667
 30
0.0
 40
5.2916666667
  1
Alape
 41
0.75
  0
TEXT
  8
0
 62
         7
  5
67
 10
0.0
 20
-17.875
 30
0.0
 40
5.2916666667
  1
Schalenbecken / Dish Basin SB.K450.GS
 41
0.75
  0
TEXT
  8
0
 62
         7
  5
68
 10
0.0
 20
-30.4583333333
 30
0.0
 40
5.2916666667
  1
Datum / Date 01.2004
 41
0.75
  0
TEXT
  8
0
 62
         7
  5
69
 10
0.0
 20
-43.0416666667
 30
0.0
 40
5.2916666667
  1
Maßstab / Scale 1:1
 41
0.75
  0
ENDBLK
  8
0
  5
6A
  0
BLOCK
  8
0
 62
         0
  5
6D
  2
NOTE1
 70
         0
 10
0.0
 20
0.0
 30
0.0
  3
NOTE1
  0
TEXT
  8
0
 62
         7
  5
6E
 10
0.0
 20
-5.2916666667
 30
0.0
 40
5.2916666667
  1
SB.K450.GS-2D.dxf
 41
0.75
  0
ENDBLK
  8
0
  5
6F
  0
BLOCK
  8
0
 62
         0
  5
72
  2
SW_CENTERMARK0
 70
         0
 10
0.0
 20
0.0
 30
0.0
  3
SW_CENTERMARK0
  0
LINE
  8
0
  6
CONTINUOUS
 62
         7
  5
73
 10
339.0383118644
 20
297.3089830508
 30
0.0
 11
339.0383118644
 21
299.8089830508
 31
0.0
  0
LINE
  8
0
  6
CONTINUOUS
 62
         7
  5
74
 10
339.0383118644
 20
297.3089830508
 30
0.0
 11
336.5383118644
 21
297.3089830508
 31
0.0
  0
LINE
  8
0
  6
CONTINUOUS
 62
         7
  5
75
 10
339.0383118644
 20
297.3089830508
 30
0.0
 11
339.0383118644
 21
294.8089830508
 31
0.0
  0
LINE
  8
0
  6
CONTINUOUS
 62
         7
  5
76
 10
339.0383118644
 20
297.3089830508
 30
0.0
 11
341.5383118644
 21
297.3089830508
 31
0.0
  0
LINE
  8
0
  6
CENTERX2
 62
         7
  5
77
 10
339.0383118644
 20
302.3089830508
 30
0.0
 11
339.0383118644
 21
323.8089830508
 31
0.0
  0
LINE
  8
0
  6
CENTERX2
 62
         7
  5
78
 10
334.0383118644
 20
297.3089830508
 30
0.0
 11
312.5383118644
 21
297.3089830508
 31
0.0
  0
LINE
  8
0
  6
CENTERX2
 62
         7
  5
79
 10
339.0383118644
 20
292.3089830508
 30
0.0
 11
339.0383118644
 21
270.8089830508
 31
0.0
  0
LINE
  8
0
  6
CENTERX2
 62
         7
  5
7A
 10
344.0383118644
 20
297.3089830508
 30
0.0
 11
365.5383118644
 21
297.3089830508
 31
0.0
  0
ENDBLK
  8
0
  5
7C
  0
ENDSEC
  0
SECTION
  2
ENTITIES
  0
LINE
  8
0
  6
CENTERX2
 62
         5
  5
2C
 10
565.3619959106
 20
784.7816582698
 30
0.0
 11
568.5266433589
 21
784.7816582698
 31
0.0
  0
ARC
  8
0
  6
CONTINUOUS
 62
         7
  5
2D
 10
116.0941430677
 20
784.3363078319
 30
0.0
 40
1.5
 50
120.3212174491
 51
210.6528491587
  0
ARC
  8
0
  6
CONTINUOUS
 62
         7
  5
2E
 10
561.9824806611
 20
784.3363078319
 30
0.0
 40
1.5
 50
329.3471508414
 51
59.6787825509
  0
ARC
  8
0
  6
CONTINUOUS
 62
         7
  5
2F
 10
339.0383118644
 20
916.4628388254
 30
0.0
 40
260.6554023994
 50
278.7940867374
 51
329.3471508414
  0
ARC
  8
0
  6
CONTINUOUS
 62
         7
  5
30
 10
339.0383118644
 20
916.4628388254
 30
0.0
 40
260.6554023994
 50
210.6528491587
 51
261.2059132626
  0
ARC
  8
0
  6
CONTINUOUS
 62
         7
  5
31
 10
116.0941430677
 20
784.3363078319
 30
0.0
 40
1.5
 50
90.0
 51
120.3212174491
  0
ARC
  8
0
  6
CONTINUOUS
 62
         7
  5
32
 10
561.9824806611
 20
784.3363078319
 30
0.0
 40
1.5
 50
59.6787825509
 51
90.0
  0
LINE
  8
0
  6
CONTINUOUS
 62
         7
  5
33
 10
561.9824806611
 20
785.8363078319
 30
0.0
 11
116.0941430677
 21
785.8363078319
 31
0.0
  0
ARC
  8
0
  6
CONTINUOUS
 62
         7
  5
34
 10
379.9254996566
 20
650.0222322159
 30
0.0
 40
8.91
 50
96.6847945145
 51
127.8519053216
  0
ARC
  8
0
  6
CONTINUOUS
 62
         7
  5
35
 10
298.1511240722
 20
650.0222322159
 30
0.0
 40
8.91
 50
52.1480946784
 51
83.3152054855
  0
LINE
  8
0
  6
CONTINUOUS
 62
         7
  5
36
 10
303.6185016013
 20
657.0575632639
 30
0.0
 11
311.3565761546
 21
651.0440616045
 31
0.0
  0
LINE
  8
0
  6
CONTINUOUS
 62
         7
  5
37
 10
366.7200475742
 20
651.0440616045
 30
0.0
 11
374.4581221275
 21
657.0575632639
 31
0.0
  0
ARC
  8
0
  6
CONTINUOUS
 62
         7
  5
38
 10
363.0383118644
 20
655.7816582698
 30
0.0
 40
6.0
 50
270.0
 51
307.8519053216
  0
ARC
  8
0
  6
CONTINUOUS
 62
         7
  5
39
 10
315.0383118644
 20
655.7816582698
 30
0.0
 40
6.0
 50
232.1480946784
 51
270.0
  0
LINE
  8
0
  6
CONTINUOUS
 62
         7
  5
3A
 10
339.0383118644
 20
783.5715551211
 30
0.0
 11
114.8037348798
 21
783.5715551211
 31
0.0
  0
LINE
  8
0
  6
CONTINUOUS
 62
         7
  5
3B
 10
563.272888849
 20
783.5715551211
 30
0.0
 11
339.0383118644
 21
783.5715551211
 31
0.0
  0
LINE
  8
0
  6
CONTINUOUS
 62
         7
  5
3C
 10
339.0383118644
 20
785.6311208183
 30
0.0
 11
115.3368720923
 21
785.6311208183
 31
0.0
  0
LINE
  8
0
  6
CONTINUOUS
 62
         7
  5
3D
 10
562.7397516365
 20
785.6311208183
 30
0.0
 11
339.0383118644
 21
785.6311208183
 31
0.0
  0
LINE
  8
0
  6
CONTINUOUS
 62
         7
  5
3E
 10
378.8883118644
 20
658.8716582698
 30
0.0
 11
299.1883118644
 21
658.8716582698
 31
0.0
  0
LINE
  8
0
  6
CONTINUOUS
 62
         7
  5
3F
 10
374.4581221275
 20
657.0575632639
 30
0.0
 11
303.6185016013
 21
657.0575632639
 31
0.0
  0
LINE
  8
0
  6
CONTINUOUS
 62
         7
  5
40
 10
366.7200475742
 20
651.0440616045
 30
0.0
 11
311.3565761546
 21
651.0440616045
 31
0.0
  0
LINE
  8
0
  6
CONTINUOUS
 62
         7
  5
41
 10
363.0383118644
 20
649.7816582698
 30
0.0
 11
315.0383118644
 21
649.7816582698
 31
0.0
  0
DIMENSION
  8
0
 62
         7
  5
4E
  2
*D2
 10
585.026344344
 20
649.7816582698
 30
0.0
 11
585.026344344
 21
721.5133289964
 31
0.0
 70
       160
 13
568.5266433589
 23
784.7816582698
 33
0.0
 14
363.0383118644
 24
649.7816582698
 34
0.0
 50
90.0
  3
SLDDIMSTYLE0
  0
INSERT
  8
0
  5
4F
  2
VORDERANSICHT
 10
113.9873652695
 20
798.7372754491
 30
0.0
  0
CIRCLE
  8
0
  6
CONTINUOUS
 62
         7
  5
50
 10
339.0383118644
 20
297.3089830508
 30
0.0
 40
224.4441687967
  0
CIRCLE
  8
0
  6
CONTINUOUS
 62
         7
  5
51
 10
339.0383118644
 20
297.3089830508
 30
0.0
 40
223.7014397721
  0
CIRCLE
  8
0
  6
CONTINUOUS
 62
         7
  5
52
 10
339.0383118644
 20
297.3089830508
 30
0.0
 40
221.6537606088
  0
CIRCLE
  8
0
  6
CONTINUOUS
 62
         7
  5
53
 10
339.0383118644
 20
297.3089830508
 30
0.0
 40
39.3913484666
  0
CIRCLE
  8
0
  6
CONTINUOUS
 62
         7
  5
54
 10
339.0383118644
 20
297.3089830508
 30
0.0
 40
34.4963351661
  0
CIRCLE
  8
0
  6
CONTINUOUS
 62
         7
  5
55
 10
339.0383118644
 20
297.3089830508
 30
0.0
 40
25.8741720248
  0
CIRCLE
  8
0
  6
CONTINUOUS
 62
         7
  5
56
 10
339.0383118644
 20
297.3089830508
 30
0.0
 40
24.0
  0
DIMENSION
  8
0
  5
63
  2
*D3
 10
484.538487891
 20
459.9272331204
 30
0.0
 11
503.6217424154
 21
479.8840301844
 31
0.0
 70
       163
  1
<>
 15
173.5381358378
 25
134.6907329813
 35
0.0
  3
SLDDIMSTYLE1
  0
INSERT
  8
0
  5
6B
  2
NOTE0
 10
805.4035383233
 20
341.1505262598
 30
0.0
  0
INSERT
  8
0
  5
70
  2
NOTE1
 10
1053.0842584591
 20
66.659803205
 30
0.0
  0
INSERT
  8
0
  5
7D
  2
SW_CENTERMARK0
 10
0.0
 20
0.0
 30
0.0
  0
INSERT
  8
0
  5
7E
  2
DRAUFSICHT
 10
147.8774251497
 20
515.5132035928
 30
0.0
  0
ENDSEC
  0
EOF
