  0
SECTION
  2
HEADER
  9
$ACADVER
  1
AC1027
  9
$ACADMAINTVER
 70
   125
  9
$DWGCODEPAGE
  3
ANSI_1252
  9
$LASTSAVEDBY
  1
fleminab
  9
$REQUIREDVERSIONS
160
                 0
  9
$INSBASE
 10
0.0
 20
0.0
 30
0.0
  9
$EXTMIN
 10
-722.6522533613388
 20
651.6485691299294
 30
-0.0015258207003583
  9
$EXTMAX
 10
397.8168437185468
 20
1643.137213344613
 30
0.0000000349246037
  9
$LIMMIN
 10
0.0
 20
0.0
  9
$LIMMAX
 10
5346.0
 20
3780.0
  9
$ORTHOMODE
 70
     1
  9
$REGENMODE
 70
     1
  9
$FILLMODE
 70
     1
  9
$QTEXTMODE
 70
     0
  9
$MIRRTEXT
 70
     0
  9
$LTSCALE
 40
294.03
  9
$ATTMODE
 70
     1
  9
$TEXTSIZE
 40
0.2
  9
$TRACEWID
 40
0.05
  9
$TEXTSTYLE
  7
STANDARD
  9
$CLAYER
  8
尺寸线
  9
$CELTYPE
  6
BYLAYER
  9
$CECOLOR
 62
   256
  9
$CELTSCALE
 40
1.0
  9
$DISPSILH
 70
     0
  9
$DIMSCALE
 40
1.0
  9
$DIMASZ
 40
8.0
  9
$DIMEXO
 40
0.0
  9
$DIMDLI
 40
5.0
  9
$DIMRND
 40
0.0
  9
$DIMDLE
 40
0.0
  9
$DIMEXE
 40
3.0
  9
$DIMTP
 40
0.0
  9
$DIMTM
 40
0.0
  9
$DIMTXT
 40
10.0
  9
$DIMCEN
 40
0.0
  9
$DIMTSZ
 40
0.0
  9
$DIMTOL
 70
     0
  9
$DIMLIM
 70
     0
  9
$DIMTIH
 70
     0
  9
$DIMTOH
 70
     0
  9
$DIMSE1
 70
     0
  9
$DIMSE2
 70
     0
  9
$DIMTAD
 70
     1
  9
$DIMZIN
 70
     8
  9
$DIMBLK
  1

  9
$DIMASO
 70
     1
  9
$DIMSHO
 70
     1
  9
$DIMPOST
  1

  9
$DIMAPOST
  1

  9
$DIMALT
 70
     0
  9
$DIMALTD
 70
     3
  9
$DIMALTF
 40
0.03937007874016
  9
$DIMLFAC
 40
1.0
  9
$DIMTOFL
 70
     1
  9
$DIMTVP
 40
0.0
  9
$DIMTIX
 70
     0
  9
$DIMSOXD
 70
     0
  9
$DIMSAH
 70
     0
  9
$DIMBLK1
  1

  9
$DIMBLK2
  1

  9
$DIMSTYLE
  2
大字
  9
$DIMCLRD
 70
   256
  9
$DIMCLRE
 70
     0
  9
$DIMCLRT
 70
     1
  9
$DIMTFAC
 40
1.0
  9
$DIMGAP
 40
3.0
  9
$DIMJUST
 70
     0
  9
$DIMSD1
 70
     0
  9
$DIMSD2
 70
     0
  9
$DIMTOLJ
 70
     0
  9
$DIMTZIN
 70
     8
  9
$DIMALTZ
 70
     0
  9
$DIMALTTZ
 70
     0
  9
$DIMUPT
 70
     0
  9
$DIMDEC
 70
     2
  9
$DIMTDEC
 70
     2
  9
$DIMALTU
 70
     2
  9
$DIMALTTD
 70
     3
  9
$DIMTXSTY
  7
STANDARD
  9
$DIMAUNIT
 70
     0
  9
$DIMADEC
 70
     0
  9
$DIMALTRND
 40
0.0
  9
$DIMAZIN
 70
     0
  9
$DIMDSEP
 70
    46
  9
$DIMATFIT
 70
     3
  9
$DIMFRAC
 70
     0
  9
$DIMLDRBLK
  1

  9
$DIMLUNIT
 70
     2
  9
$DIMLWD
 70
    18
  9
$DIMLWE
 70
    -2
  9
$DIMTMOVE
 70
     0
  9
$DIMFXL
 40
1.25
  9
$DIMFXLON
 70
     0
  9
$DIMJOGANG
 40
1.570796326794896
  9
$DIMTFILL
 70
     0
  9
$DIMTFILLCLR
 70
     0
  9
$DIMARCSYM
 70
     0
  9
$DIMLTYPE
  6
CONTINUOUS
  9
$DIMLTEX1
  6

  9
$DIMLTEX2
  6

  9
$DIMTXTDIRECTION
 70
     0
  9
$LUNITS
 70
     2
  9
$LUPREC
 70
     4
  9
$SKETCHINC
 40
0.1
  9
$FILLETRAD
 40
60.0
  9
$AUNITS
 70
     0
  9
$AUPREC
 70
     0
  9
$MENU
  1
.
  9
$ELEVATION
 40
0.0
  9
$PELEVATION
 40
0.0
  9
$THICKNESS
 40
0.0
  9
$LIMCHECK
 70
     0
  9
$CHAMFERA
 40
0.0
  9
$CHAMFERB
 40
0.0
  9
$CHAMFERC
 40
0.0
  9
$CHAMFERD
 40
0.0
  9
$SKPOLY
 70
     0
  9
$TDCREATE
 40
2456650.724664352
  9
$TDUCREATE
 40
2456650.266335718
  9
$TDUPDATE
 40
2458157.379976852
  9
$TDUUPDATE
 40
2458156.921643519
  9
$TDINDWG
 40
0.0062519907
  9
$TDUSRTIMER
 40
0.0062519907
  9
$USRTIMER
 70
     1
  9
$ANGBASE
 50
0.0
  9
$ANGDIR
 70
     0
  9
$PDMODE
 70
     3
  9
$PDSIZE
 40
8.0
  9
$PLINEWID
 40
0.0
  9
$SPLFRAME
 70
     0
  9
$SPLINETYPE
 70
     6
  9
$SPLINESEGS
 70
     8
  9
$HANDSEED
  5
10DA
  9
$SURFTAB1
 70
     6
  9
$SURFTAB2
 70
     6
  9
$SURFTYPE
 70
     6
  9
$SURFU
 70
     6
  9
$SURFV
 70
     6
  9
$UCSBASE
  2

  9
$UCSNAME
  2

  9
$UCSORG
 10
0.0
 20
0.0
 30
0.0
  9
$UCSXDIR
 10
1.0
 20
0.0
 30
0.0
  9
$UCSYDIR
 10
0.0
 20
1.0
 30
0.0
  9
$UCSORTHOREF
  2

  9
$UCSORTHOVIEW
 70
     0
  9
$UCSORGTOP
 10
0.0
 20
0.0
 30
0.0
  9
$UCSORGBOTTOM
 10
0.0
 20
0.0
 30
0.0
  9
$UCSORGLEFT
 10
0.0
 20
0.0
 30
0.0
  9
$UCSORGRIGHT
 10
0.0
 20
0.0
 30
0.0
  9
$UCSORGFRONT
 10
0.0
 20
0.0
 30
0.0
  9
$UCSORGBACK
 10
0.0
 20
0.0
 30
0.0
  9
$PUCSBASE
  2

  9
$PUCSNAME
  2

  9
$PUCSORG
 10
0.0
 20
0.0
 30
0.0
  9
$PUCSXDIR
 10
1.0
 20
0.0
 30
0.0
  9
$PUCSYDIR
 10
0.0
 20
1.0
 30
0.0
  9
$PUCSORTHOREF
  2

  9
$PUCSORTHOVIEW
 70
     0
  9
$PUCSORGTOP
 10
0.0
 20
0.0
 30
0.0
  9
$PUCSORGBOTTOM
 10
0.0
 20
0.0
 30
0.0
  9
$PUCSORGLEFT
 10
0.0
 20
0.0
 30
0.0
  9
$PUCSORGRIGHT
 10
0.0
 20
0.0
 30
0.0
  9
$PUCSORGFRONT
 10
0.0
 20
0.0
 30
0.0
  9
$PUCSORGBACK
 10
0.0
 20
0.0
 30
0.0
  9
$USERI1
 70
     0
  9
$USERI2
 70
     0
  9
$USERI3
 70
     0
  9
$USERI4
 70
     0
  9
$USERI5
 70
     0
  9
$USERR1
 40
0.0
  9
$USERR2
 40
0.0
  9
$USERR3
 40
0.0
  9
$USERR4
 40
0.0
  9
$USERR5
 40
0.0
  9
$WORLDVIEW
 70
     1
  9
$SHADEDGE
 70
     3
  9
$SHADEDIF
 70
    70
  9
$TILEMODE
 70
     1
  9
$MAXACTVP
 70
    64
  9
$PINSBASE
 10
0.0
 20
0.0
 30
0.0
  9
$PLIMCHECK
 70
     0
  9
$PEXTMIN
 10
1.000000000000000E+20
 20
1.000000000000000E+20
 30
1.000000000000000E+20
  9
$PEXTMAX
 10
-1.000000000000000E+20
 20
-1.000000000000000E+20
 30
-1.000000000000000E+20
  9
$PLIMMIN
 10
0.0
 20
0.0
  9
$PLIMMAX
 10
12.0
 20
9.0
  9
$UNITMODE
 70
     0
  9
$VISRETAIN
 70
     1
  9
$PLINEGEN
 70
     0
  9
$PSLTSCALE
 70
     1
  9
$TREEDEPTH
 70
  3020
  9
$CMLSTYLE
  2
Standard
  9
$CMLJUST
 70
     0
  9
$CMLSCALE
 40
1.0
  9
$PROXYGRAPHICS
 70
     1
  9
$MEASUREMENT
 70
     1
  9
$CELWEIGHT
370
    -1
  9
$ENDCAPS
280
     0
  9
$JOINSTYLE
280
     0
  9
$LWDISPLAY
290
     0
  9
$INSUNITS
 70
     4
  9
$HYPERLINKBASE
  1

  9
$STYLESHEET
  1

  9
$XEDIT
290
     1
  9
$CEPSNTYPE
380
     0
  9
$PSTYLEMODE
290
     1
  9
$FINGERPRINTGUID
  2
{7B01791B-17FC-4B29-9D63-6D63F75FBDF4}
  9
$VERSIONGUID
  2
{82215996-C923-F04C-AAD4-93A383CA6708}
  9
$EXTNAMES
290
     1
  9
$PSVPSCALE
 40
0.0
  9
$OLESTARTUP
290
     0
  9
$SORTENTS
280
   127
  9
$INDEXCTL
280
     0
  9
$HIDETEXT
280
     1
  9
$XCLIPFRAME
280
     0
  9
$HALOGAP
280
     0
  9
$OBSCOLOR
 70
   257
  9
$OBSLTYPE
280
     0
  9
$INTERSECTIONDISPLAY
280
     0
  9
$INTERSECTIONCOLOR
 70
   257
  9
$DIMASSOC
280
     2
  9
$PROJECTNAME
  1

  9
$CAMERADISPLAY
290
     0
  9
$LENSLENGTH
 40
50.0
  9
$CAMERAHEIGHT
 40
0.0
  9
$STEPSPERSEC
 40
2.0
  9
$STEPSIZE
 40
6.0
  9
$3DDWFPREC
 40
2.0
  9
$PSOLWIDTH
 40
0.25
  9
$PSOLHEIGHT
 40
4.0
  9
$LOFTANG1
 40
1.570796326794896
  9
$LOFTANG2
 40
1.570796326794896
  9
$LOFTMAG1
 40
0.0
  9
$LOFTMAG2
 40
0.0
  9
$LOFTPARAM
 70
     7
  9
$LOFTNORMALS
280
     1
  9
$LATITUDE
 40
37.795
  9
$LONGITUDE
 40
-122.394
  9
$NORTHDIRECTION
 40
0.0
  9
$TIMEZONE
 70
 -8000
  9
$LIGHTGLYPHDISPLAY
280
     1
  9
$TILEMODELIGHTSYNCH
280
     1
  9
$CMATERIAL
347
6DB
  9
$SOLIDHIST
280
     0
  9
$SHOWHIST
280
     1
  9
$DWFFRAME
280
     2
  9
$DGNFRAME
280
     0
  9
$REALWORLDSCALE
290
     1
  9
$INTERFERECOLOR
 62
     1
  9
$INTERFEREOBJVS
345
6FD
  9
$INTERFEREVPVS
346
10B2
  9
$CSHADOW
280
     0
  9
$SHADOWPLANELOCATION
 40
0.0
  0
ENDSEC
  0
SECTION
  2
CLASSES
  0
CLASS
  1
ACDBDICTIONARYWDFLT
  2
AcDbDictionaryWithDefault
  3
ObjectDBX Classes
 90
        0
 91
        1
280
     0
281
     0
  0
CLASS
  1
MATERIAL
  2
AcDbMaterial
  3
ObjectDBX Classes
 90
     1153
 91
        3
280
     0
281
     0
  0
CLASS
  1
VISUALSTYLE
  2
AcDbVisualStyle
  3
ObjectDBX Classes
 90
     4095
 91
       26
280
     0
281
     0
  0
CLASS
  1
TABLESTYLE
  2
AcDbTableStyle
  3
ObjectDBX Classes
 90
     4095
 91
        1
280
     0
281
     0
  0
CLASS
  1
SCALE
  2
AcDbScale
  3
ObjectDBX Classes
 90
     1153
 91
       33
280
     0
281
     0
  0
CLASS
  1
MLEADERSTYLE
  2
AcDbMLeaderStyle
  3
ACDB_MLEADERSTYLE_CLASS
 90
     4095
 91
        1
280
     0
281
     0
  0
CLASS
  1
CELLSTYLEMAP
  2
AcDbCellStyleMap
  3
ObjectDBX Classes
 90
     1152
 91
        2
280
     0
281
     0
  0
CLASS
  1
DICTIONARYVAR
  2
AcDbDictionaryVar
  3
ObjectDBX Classes
 90
        0
 91
       15
280
     0
281
     0
  0
CLASS
  1
SORTENTSTABLE
  2
AcDbSortentsTable
  3
ObjectDBX Classes
 90
        0
 91
        1
280
     0
281
     0
  0
CLASS
  1
DIMASSOC
  2
AcDbDimAssoc
  3
"AcDbDimAssoc|Product Desc:     AcDim ARX App For Dimension|Company:          Autodesk, Inc.|WEB Address:      www.autodesk.com"
 90
        0
 91
       13
280
     0
281
     0
  0
CLASS
  1
ACDBSECTIONVIEWSTYLE
  2
AcDbSectionViewStyle
  3
ObjectDBX Classes
 90
     1025
 91
        1
280
     0
281
     0
  0
CLASS
  1
ACDBDETAILVIEWSTYLE
  2
AcDbDetailViewStyle
  3
ObjectDBX Classes
 90
     1025
 91
        1
280
     0
281
     0
  0
ENDSEC
  0
SECTION
  2
TABLES
  0
TABLE
  2
VPORT
  5
8
102
{ACAD_XDICTIONARY
360
72F
102
}
330
0
100
AcDbSymbolTable
 70
     1
1001
ACAD
1000
DbSaveVer
1071
        5
  0
VPORT
  5
1F4
330
8
100
AcDbSymbolTableRecord
100
AcDbViewportTableRecord
  2
*ACTIVE
 70
     0
 10
0.0
 20
0.0
 11
1.0
 21
1.0
 12
-162.417704821396
 22
1147.392891237271
 13
0.0
 23
0.0
 14
1.0
 24
1.0
 15
0.0
 25
0.0
 16
0.0
 26
0.0
 36
1.0
 17
0.0
 27
0.0
 37
0.0
 40
999.0959739656913
 41
2.444302176696542
 42
50.0
 43
0.0
 44
0.0
 50
0.0
 51
0.0
 71
     0
 72
 20000
 73
     1
 74
     1
 75
     0
 76
     0
 77
     0
 78
     0
281
     0
 65
     1
110
0.0
120
0.0
130
0.0
111
1.0
121
0.0
131
0.0
112
0.0
122
1.0
132
0.0
 79
     0
146
0.0
348
6F9
 60
     3
 61
     5
292
     1
282
     1
141
0.0
142
0.0
 63
   250
421
  3355443
1001
ACAD_NAV_VCDISPLAY
1070
     3
  0
ENDTAB
  0
TABLE
  2
LTYPE
  5
5
330
0
100
AcDbSymbolTable
 70
     4
  0
LTYPE
  5
14
330
5
100
AcDbSymbolTableRecord
100
AcDbLinetypeTableRecord
  2
BYBLOCK
 70
     0
  3

 72
    65
 73
     0
 40
0.0
  0
LTYPE
  5
15
330
5
100
AcDbSymbolTableRecord
100
AcDbLinetypeTableRecord
  2
BYLAYER
 70
     0
  3

 72
    65
 73
     0
 40
0.0
  0
LTYPE
  5
16
330
5
100
AcDbSymbolTableRecord
100
AcDbLinetypeTableRecord
  2
CONTINUOUS
 70
     0
  3
Solid line
 72
    65
 73
     0
 40
0.0
  0
LTYPE
  5
7D4
330
5
100
AcDbSymbolTableRecord
100
AcDbLinetypeTableRecord
  2
ACAD_ISO05W100
 70
     0
  3
ISO long-dash double-dot ____ .. ____ .. ____ .
 72
    65
 73
     6
 40
33.0
 49
24.0
 74
     0
 49
-3.0
 74
     0
 49
0.0
 74
     0
 49
-3.0
 74
     0
 49
0.0
 74
     0
 49
-3.0
 74
     0
  0
LTYPE
  5
7D5
330
5
100
AcDbSymbolTableRecord
100
AcDbLinetypeTableRecord
  2
ACAD_ISO02W100
 70
     0
  3
ISO dash __ __ __ __ __ __ __ __ __ __ __ __ __
 72
    65
 73
     2
 40
15.0
 49
12.0
 74
     0
 49
-3.0
 74
     0
  0
LTYPE
  5
7D6
330
5
100
AcDbSymbolTableRecord
100
AcDbLinetypeTableRecord
  2
ACAD_ISO04W100
 70
     0
  3
ISO long-dash dot ____ . ____ . ____ . ____ . _
 72
    65
 73
     4
 40
30.0
 49
24.0
 74
     0
 49
-3.0
 74
     0
 49
0.0
 74
     0
 49
-3.0
 74
     0
  0
ENDTAB
  0
TABLE
  2
LAYER
  5
2
102
{ACAD_XDICTIONARY
360
90C
102
}
330
0
100
AcDbSymbolTable
 70
    11
  0
LAYER
  5
10
102
{ACAD_XDICTIONARY
360
759
102
}
330
2
100
AcDbSymbolTableRecord
100
AcDbLayerTableRecord
  2
0
 70
     0
 62
     7
  6
CONTINUOUS
370
    -3
390
F
347
6EB
348
0
  0
LAYER
  5
1FF
102
{ACAD_XDICTIONARY
360
765
102
}
330
2
100
AcDbSymbolTableRecord
100
AcDbLayerTableRecord
  2
02___PRT_ALL_AXES
 70
     0
 62
     7
  6
CONTINUOUS
370
    -3
390
F
347
6EB
348
0
  0
LAYER
  5
7B5
330
2
100
AcDbSymbolTableRecord
100
AcDbLayerTableRecord
  2
Defpoints
 70
     0
 62
     7
  6
CONTINUOUS
290
     0
370
    -3
390
F
347
6EB
348
0
  0
LAYER
  5
7D7
102
{ACAD_XDICTIONARY
360
7D8
102
}
330
2
100
AcDbSymbolTableRecord
100
AcDbLayerTableRecord
  2
参考
 70
     0
 62
     2
  6
CONTINUOUS
290
     0
370
    53
390
F
347
6EB
348
0
1001
AcAecLayerStandard
1000

1000

1001
AcadStringInfo
1000
MIFCodePage
1070
     5
  0
LAYER
  5
7D9
102
{ACAD_XDICTIONARY
360
7DA
102
}
330
2
100
AcDbSymbolTableRecord
100
AcDbLayerTableRecord
  2
尺寸线
 70
     0
 62
     1
  6
CONTINUOUS
370
    -3
390
F
347
6EB
348
0
1001
AcAecLayerStandard
1000

1000

1001
AcadStringInfo
1000
MIFCodePage
1070
     5
  0
LAYER
  5
7DB
102
{ACAD_XDICTIONARY
360
7DC
102
}
330
2
100
AcDbSymbolTableRecord
100
AcDbLayerTableRecord
  2
粗实线
 70
     0
 62
     7
  6
CONTINUOUS
370
    53
390
F
347
6EB
348
0
1001
AcAecLayerStandard
1000

1000

1001
AcadStringInfo
1000
MIFCodePage
1070
     5
  0
LAYER
  5
7DD
102
{ACAD_XDICTIONARY
360
7DE
102
}
330
2
100
AcDbSymbolTableRecord
100
AcDbLayerTableRecord
  2
双点划线
 70
     0
 62
   211
  6
ACAD_ISO05W100
370
    -3
390
F
347
6EB
348
0
1001
AcAecLayerStandard
1000

1000

1001
AcadStringInfo
1000
MIFCodePage
1070
     5
  0
LAYER
  5
7DF
102
{ACAD_XDICTIONARY
360
7E0
102
}
330
2
100
AcDbSymbolTableRecord
100
AcDbLayerTableRecord
  2
图框线
 70
     0
 62
     5
  6
CONTINUOUS
370
    60
390
F
347
6EB
348
0
1001
AcAecLayerStandard
1000

1000

1001
AcadStringInfo
1000
MIFCodePage
1070
     5
  0
LAYER
  5
7E1
102
{ACAD_XDICTIONARY
360
7E2
102
}
330
2
100
AcDbSymbolTableRecord
100
AcDbLayerTableRecord
  2
细实线
 70
     0
 62
   140
  6
CONTINUOUS
370
    -3
390
F
347
6EB
348
0
1001
AcAecLayerStandard
1000

1000

1001
AcadStringInfo
1000
MIFCodePage
1070
     5
  0
LAYER
  5
7E3
102
{ACAD_XDICTIONARY
360
7E4
102
}
330
2
100
AcDbSymbolTableRecord
100
AcDbLayerTableRecord
  2
虚线
 70
     0
 62
    40
  6
ACAD_ISO02W100
370
    -3
390
F
347
6EB
348
0
1001
AcAecLayerStandard
1000

1000

1001
AcadStringInfo
1000
MIFCodePage
1070
     5
  0
LAYER
  5
7E5
102
{ACAD_XDICTIONARY
360
7E6
102
}
330
2
100
AcDbSymbolTableRecord
100
AcDbLayerTableRecord
  2
中心线
 70
     0
 62
     1
  6
ACAD_ISO04W100
370
    -3
390
F
347
6EB
348
0
1001
AcAecLayerStandard
1000

1000

1001
AcadStringInfo
1000
MIFCodePage
1070
     5
  0
ENDTAB
  0
TABLE
  2
STYLE
  5
3
330
0
100
AcDbSymbolTable
 70
     2
  0
STYLE
  5
11
330
3
100
AcDbSymbolTableRecord
100
AcDbTextStyleTableRecord
  2
STANDARD
 70
     0
 40
0.0
 41
0.7
 50
0.0
 71
     0
 42
0.2
  3
txt
  4

  0
STYLE
  5
7B6
330
3
100
AcDbSymbolTableRecord
100
AcDbTextStyleTableRecord
  2
Annotative
 70
     0
 40
0.0
 41
1.0
 50
0.0
 71
     0
 42
0.2
  3
txt
  4

1001
AcadAnnotative
1000
AnnotativeData
1002
{
1070
     1
1070
     1
1002
}
  0
ENDTAB
  0
TABLE
  2
VIEW
  5
6
330
0
100
AcDbSymbolTable
 70
     0
  0
ENDTAB
  0
TABLE
  2
UCS
  5
7
330
0
100
AcDbSymbolTable
 70
     0
  0
ENDTAB
  0
TABLE
  2
APPID
  5
9
330
0
100
AcDbSymbolTable
 70
    14
  0
APPID
  5
206
330
9
100
AcDbSymbolTableRecord
100
AcDbRegAppTableRecord
  2
ACAD
 70
     0
  0
APPID
  5
72B
330
9
100
AcDbSymbolTableRecord
100
AcDbRegAppTableRecord
  2
ACAD_MLEADERVER
 70
     0
  0
APPID
  5
7CB
330
9
100
AcDbSymbolTableRecord
100
AcDbRegAppTableRecord
  2
AcadAnnotative
 70
     0
  0
APPID
  5
7CC
330
9
100
AcDbSymbolTableRecord
100
AcDbRegAppTableRecord
  2
ACAD_DSTYLE_DIMJOGGED_JOGANGLE_SYMBOL
 70
     0
  0
APPID
  5
7CD
330
9
100
AcDbSymbolTableRecord
100
AcDbRegAppTableRecord
  2
ACAD_DSTYLE_DIMBREAK
 70
     0
  0
APPID
  5
7CE
330
9
100
AcDbSymbolTableRecord
100
AcDbRegAppTableRecord
  2
ACAD_DSTYLE_DIMJAG
 70
     0
  0
APPID
  5
7CF
330
9
100
AcDbSymbolTableRecord
100
AcDbRegAppTableRecord
  2
ACAD_DSTYLE_DIMTALN
 70
     0
  0
APPID
  5
7E7
330
9
100
AcDbSymbolTableRecord
100
AcDbRegAppTableRecord
  2
AcAecLayerStandard
 70
     0
  0
APPID
  5
87C
330
9
100
AcDbSymbolTableRecord
100
AcDbRegAppTableRecord
  2
ACAD_DSTYLE_DIMRADIAL_EXTENSION
 70
     0
  0
APPID
  5
8DD
330
9
100
AcDbSymbolTableRecord
100
AcDbRegAppTableRecord
  2
ACAD_EXEMPT_FROM_CAD_STANDARDS
 70
     0
  0
APPID
  5
F81
330
9
100
AcDbSymbolTableRecord
100
AcDbRegAppTableRecord
  2
ACAD_DSTYLE_DIMEXT_LENGTH
 70
     0
  0
APPID
  5
F82
330
9
100
AcDbSymbolTableRecord
100
AcDbRegAppTableRecord
  2
ACAD_DSTYLE_DIM_LINETYPE
 70
     0
  0
APPID
  5
10BD
330
9
100
AcDbSymbolTableRecord
100
AcDbRegAppTableRecord
  2
AcadStringInfo
 70
     0
  0
APPID
  5
10C2
330
9
100
AcDbSymbolTableRecord
100
AcDbRegAppTableRecord
  2
ACAD_NAV_VCDISPLAY
 70
     0
  0
ENDTAB
  0
TABLE
  2
DIMSTYLE
  5
A
330
0
100
AcDbSymbolTable
 70
    21
100
AcDbDimStyleTable
 71
     1
340
7BC
  0
DIMSTYLE
105
209
330
A
100
AcDbSymbolTableRecord
100
AcDbDimStyleTableRecord
  2
STANDARD
 70
     0
 41
3.0
 47
0.01
 48
0.01
 71
     1
 73
     0
 74
     0
 77
     1
 78
     8
140
45.0
271
     2
272
     2
284
     8
340
11
  0
DIMSTYLE
105
7B7
330
A
100
AcDbSymbolTableRecord
100
AcDbDimStyleTableRecord
  2
Annotative
 70
     0
340
11
1001
AcadAnnotative
1000
AnnotativeData
1002
{
1070
     1
1070
     1
1002
}
  0
DIMSTYLE
105
7B8
330
A
100
AcDbSymbolTableRecord
100
AcDbDimStyleTableRecord
  2
ISO-25
 70
     0
 41
2.0
 42
0.0
 43
5.0
 44
1.0
 49
1.25
 50
90.0
 73
     0
 74
     0
 77
     1
 78
     8
140
2.5
141
0.0
143
0.03937007874016
147
0.5
171
     3
172
     1
176
   256
178
     1
271
     2
272
     2
274
     3
283
     0
284
     8
340
11
345
16
371
    18
1001
ACAD_DSTYLE_DIMJOGGED_JOGANGLE_SYMBOL
1070
   384
1040
1.570796326794896
  0
DIMSTYLE
105
7B9
330
A
100
AcDbSymbolTableRecord
100
AcDbDimStyleTableRecord
  2
ISO-25$3
 70
     0
 41
2.0
 42
0.0
 43
5.0
 44
1.0
 49
1.25
 50
90.0
 73
     0
 77
     1
 78
     8
140
2.5
141
0.0
143
0.03937007874016
147
0.5
171
     3
172
     1
176
   256
178
     1
271
     2
272
     2
274
     3
283
     0
284
     8
340
11
345
16
371
    18
1001
ACAD_DSTYLE_DIMJOGGED_JOGANGLE_SYMBOL
1070
   384
1040
1.570796326794896
  0
DIMSTYLE
105
7BA
330
A
100
AcDbSymbolTableRecord
100
AcDbDimStyleTableRecord
  2
ISO-25$4
 70
     0
 41
2.0
 42
0.0
 43
5.0
 44
1.0
 49
1.25
 50
90.0
 73
     0
 77
     1
 78
     8
140
2.5
141
0.0
143
0.03937007874016
147
0.5
171
     3
176
   256
178
     1
271
     2
272
     2
274
     3
283
     0
284
     8
340
11
345
16
371
    18
1001
ACAD_DSTYLE_DIMJOGGED_JOGANGLE_SYMBOL
1070
   384
1040
1.570796326794896
  0
DIMSTYLE
105
7BB
330
A
100
AcDbSymbolTableRecord
100
AcDbDimStyleTableRecord
  2
ISO-25$6
 70
     0
 41
2.0
 42
0.0
 43
5.0
 44
1.0
 49
1.25
 50
90.0
 73
     0
 74
     0
 78
     8
140
2.5
141
0.0
143
0.03937007874016
147
0.5
171
     3
172
     1
176
   256
178
     1
271
     2
272
     2
274
     3
283
     0
284
     8
340
11
345
16
371
    18
1001
ACAD_DSTYLE_DIMJOGGED_JOGANGLE_SYMBOL
1070
   384
1040
1.570796326794896
  0
DIMSTYLE
105
7BC
102
{ACAD_REACTORS
330
E92
330
E95
330
E98
330
E9B
330
E9E
330
EA1
330
EA7
330
EAA
330
EAD
330
EB0
102
}
330
A
100
AcDbSymbolTableRecord
100
AcDbDimStyleTableRecord
  2
大字
 70
     0
 41
8.0
 42
0.0
 43
5.0
 44
3.0
 49
1.25
 50
90.0
 73
     0
 74
     0
 77
     1
 78
     8
140
10.0
141
0.0
143
0.03937007874016
147
3.0
171
     3
172
     1
176
   256
178
     1
271
     2
272
     2
274
     3
283
     0
284
     8
340
11
345
16
371
    18
1001
ACAD_DSTYLE_DIMBREAK
1070
   391
1040
3.75
1001
ACAD_DSTYLE_DIMJAG
1070
   388
1040
1.5
1001
ACAD_DSTYLE_DIMTALN
1070
   392
1070
     0
1001
ACAD_DSTYLE_DIMJOGGED_JOGANGLE_SYMBOL
1070
   384
1040
1.570796326794896
1001
AcadStringInfo
1000
MIFCodePage
1070
     5
  0
DIMSTYLE
105
7BD
102
{ACAD_REACTORS
330
EA4
330
FEF
330
1007
102
}
330
A
100
AcDbSymbolTableRecord
100
AcDbDimStyleTableRecord
  2
大字$3
 70
     0
 41
8.0
 42
0.0
 43
5.0
 44
3.0
 49
1.25
 50
90.0
 73
     0
 77
     1
 78
     8
140
10.0
141
0.0
143
0.03937007874016
147
3.0
171
     3
172
     1
176
   256
178
     1
271
     2
272
     2
274
     3
283
     0
284
     8
340
11
345
16
371
    18
1001
ACAD_DSTYLE_DIMBREAK
1070
   391
1040
3.75
1001
ACAD_DSTYLE_DIMJAG
1070
   388
1040
1.5
1001
ACAD_DSTYLE_DIMTALN
1070
   392
1070
     0
1001
ACAD_DSTYLE_DIMJOGGED_JOGANGLE_SYMBOL
1070
   384
1040
1.570796326794896
1001
AcadStringInfo
1000
MIFCodePage
1070
     5
  0
DIMSTYLE
105
7BE
330
A
100
AcDbSymbolTableRecord
100
AcDbDimStyleTableRecord
  2
大字$4
 70
     0
 41
8.0
 42
0.0
 43
5.0
 44
3.0
 49
1.25
 50
90.0
 73
     0
 77
     1
 78
     8
140
10.0
141
0.0
143
0.03937007874016
147
3.0
171
     3
172
     1
176
   256
178
     1
271
     2
272
     2
274
     3
283
     0
284
     8
340
11
345
16
371
    18
1001
ACAD_DSTYLE_DIMBREAK
1070
   391
1040
3.75
1001
ACAD_DSTYLE_DIMJAG
1070
   388
1040
1.5
1001
ACAD_DSTYLE_DIMTALN
1070
   392
1070
     0
1001
ACAD_DSTYLE_DIMJOGGED_JOGANGLE_SYMBOL
1070
   384
1040
1.570796326794896
1001
AcadStringInfo
1000
MIFCodePage
1070
     5
  0
DIMSTYLE
105
7BF
330
A
100
AcDbSymbolTableRecord
100
AcDbDimStyleTableRecord
  2
对称公差
 70
     0
 41
2.0
 42
0.0
 43
5.0
 44
1.0
 47
0.02
 48
0.02
 49
1.25
 50
90.0
 71
     1
 73
     0
 74
     0
 77
     1
 78
     8
140
2.5
141
0.0
143
0.03937007874016
147
0.5
171
     3
172
     1
176
   256
178
     1
271
     2
272
     2
274
     3
283
     0
284
     8
340
11
345
16
371
    18
1001
ACAD_DSTYLE_DIMJOGGED_JOGANGLE_SYMBOL
1070
   384
1040
1.570796326794896
1001
AcadStringInfo
1000
MIFCodePage
1070
     5
  0
DIMSTYLE
105
7C0
330
A
100
AcDbSymbolTableRecord
100
AcDbDimStyleTableRecord
  2
对称公差$3
 70
     0
 41
2.0
 42
0.0
 43
5.0
 44
1.0
 47
0.02
 48
0.02
 49
1.25
 50
90.0
 71
     1
 73
     0
 77
     1
 78
     8
140
2.5
141
0.0
143
0.03937007874016
147
0.5
171
     3
172
     1
176
   256
178
     1
271
     2
272
     2
274
     3
283
     0
284
     8
340
11
345
16
371
    18
1001
ACAD_DSTYLE_DIMJOGGED_JOGANGLE_SYMBOL
1070
   384
1040
1.570796326794896
1001
AcadStringInfo
1000
MIFCodePage
1070
     5
  0
DIMSTYLE
105
7C1
330
A
100
AcDbSymbolTableRecord
100
AcDbDimStyleTableRecord
  2
对称公差$4
 70
     0
 41
2.0
 42
0.0
 43
5.0
 44
1.0
 47
0.02
 48
0.02
 49
1.25
 50
90.0
 71
     1
 73
     0
 77
     1
 78
     8
140
2.5
141
0.0
143
0.03937007874016
147
0.5
171
     3
176
   256
178
     1
271
     2
272
     2
274
     3
283
     0
284
     8
340
11
345
16
371
    18
1001
ACAD_DSTYLE_DIMJOGGED_JOGANGLE_SYMBOL
1070
   384
1040
1.570796326794896
1001
AcadStringInfo
1000
MIFCodePage
1070
     5
  0
DIMSTYLE
105
7C2
330
A
100
AcDbSymbolTableRecord
100
AcDbDimStyleTableRecord
  2
对称公差$6
 70
     0
 41
2.0
 42
0.0
 43
5.0
 44
1.0
 47
0.02
 48
0.02
 49
1.25
 50
90.0
 71
     1
 73
     0
 74
     0
 78
     8
140
2.5
141
0.0
143
0.03937007874016
147
0.5
171
     3
172
     1
176
   256
178
     1
271
     2
272
     2
274
     3
283
     0
284
     8
340
11
345
16
371
    18
1001
ACAD_DSTYLE_DIMJOGGED_JOGANGLE_SYMBOL
1070
   384
1040
1.570796326794896
1001
AcadStringInfo
1000
MIFCodePage
1070
     5
  0
DIMSTYLE
105
7C3
330
A
100
AcDbSymbolTableRecord
100
AcDbDimStyleTableRecord
  2
过盈(孔）
 70
     0
 41
2.0
 42
0.0
 43
5.0
 44
1.0
 47
0.021
 48
0.000000001
 49
1.25
 50
90.0
 71
     1
 73
     0
 74
     0
 77
     1
 78
     8
140
2.5
141
0.0
143
0.03937007874016
146
0.5
147
0.5
171
     3
172
     1
176
   256
178
     1
271
     2
272
     3
274
     3
283
     0
284
     8
340
11
345
16
371
    18
1001
ACAD_DSTYLE_DIMJOGGED_JOGANGLE_SYMBOL
1070
   384
1040
1.570796326794896
1001
AcadStringInfo
1000
MIFCodePage
1070
     5
  0
DIMSTYLE
105
7C4
330
A
100
AcDbSymbolTableRecord
100
AcDbDimStyleTableRecord
  2
过盈(孔）$3
 70
     0
 41
2.0
 42
0.0
 43
5.0
 44
1.0
 47
0.021
 48
0.000000001
 49
1.25
 50
90.0
 71
     1
 73
     0
 77
     1
 78
     8
140
2.5
141
0.0
143
0.03937007874016
146
0.5
147
0.5
171
     3
172
     1
176
   256
178
     1
271
     2
272
     3
274
     3
283
     0
284
     8
340
11
345
16
371
    18
1001
ACAD_DSTYLE_DIMJOGGED_JOGANGLE_SYMBOL
1070
   384
1040
1.570796326794896
1001
AcadStringInfo
1000
MIFCodePage
1070
     5
  0
DIMSTYLE
105
7C5
330
A
100
AcDbSymbolTableRecord
100
AcDbDimStyleTableRecord
  2
过盈(轴）
 70
     0
 41
2.0
 42
0.0
 43
5.0
 44
1.0
 47
0.035
 48
0.022
 49
1.25
 50
90.0
 71
     1
 73
     0
 74
     0
 77
     1
 78
     8
140
2.5
141
0.0
143
0.03937007874016
146
0.5
147
0.5
171
     3
172
     1
176
   256
178
     1
271
     2
272
     3
274
     3
283
     0
284
     8
340
11
345
16
371
    18
1001
ACAD_DSTYLE_DIMJOGGED_JOGANGLE_SYMBOL
1070
   384
1040
1.570796326794896
1001
AcadStringInfo
1000
MIFCodePage
1070
     5
  0
DIMSTYLE
105
7C6
330
A
100
AcDbSymbolTableRecord
100
AcDbDimStyleTableRecord
  2
过盈(轴）$3
 70
     0
 41
2.0
 42
0.0
 43
5.0
 44
1.0
 47
0.035
 48
0.022
 49
1.25
 50
90.0
 71
     1
 73
     0
 77
     1
 78
     8
140
2.5
141
0.0
143
0.03937007874016
146
0.5
147
0.5
171
     3
172
     1
176
   256
178
     1
271
     2
272
     3
274
     3
283
     0
284
     8
340
11
345
16
371
    18
1001
ACAD_DSTYLE_DIMJOGGED_JOGANGLE_SYMBOL
1070
   384
1040
1.570796326794896
1001
AcadStringInfo
1000
MIFCodePage
1070
     5
  0
DIMSTYLE
105
7C7
330
A
100
AcDbSymbolTableRecord
100
AcDbDimStyleTableRecord
  2
圆心标记
 70
     0
 41
2.0
 42
0.0
 43
5.0
 44
1.0
 49
1.25
 50
90.0
 73
     0
 74
     0
 77
     1
 78
     8
140
2.5
141
-1.0
143
0.03937007874016
147
0.5
171
     3
172
     1
176
   256
178
     1
271
     2
272
     2
274
     3
283
     0
284
     8
340
11
345
16
371
    18
1001
ACAD_DSTYLE_DIMJOGGED_JOGANGLE_SYMBOL
1070
   384
1040
1.570796326794896
1001
AcadStringInfo
1000
MIFCodePage
1070
     5
  0
DIMSTYLE
105
7C8
330
A
100
AcDbSymbolTableRecord
100
AcDbDimStyleTableRecord
  2
转换
 70
     0
 41
2.0
 42
0.0
 43
5.0
 44
1.0
 49
1.25
 50
90.0
 73
     0
 74
     0
 77
     1
 78
     8
140
2.5
141
0.0
143
0.03937007874016
147
0.5
171
     3
172
     1
176
   256
178
     1
271
     2
272
     2
274
     3
283
     0
284
     8
340
11
345
16
371
    18
1001
ACAD_DSTYLE_DIMJOGGED_JOGANGLE_SYMBOL
1070
   384
1040
1.570796326794896
1001
AcadStringInfo
1000
MIFCodePage
1070
     5
  0
DIMSTYLE
105
7C9
330
A
100
AcDbSymbolTableRecord
100
AcDbDimStyleTableRecord
  2
转换$0
 70
     0
  3
%%c<>
 41
2.0
 42
0.0
 43
5.0
 44
1.0
 49
1.25
 50
90.0
 73
     0
 74
     0
 77
     1
 78
     8
140
2.5
141
0.0
143
0.03937007874016
147
0.5
171
     3
172
     1
176
   256
178
     1
271
     2
272
     2
274
     3
283
     0
284
     8
340
11
345
16
371
    18
1001
ACAD_DSTYLE_DIMJOGGED_JOGANGLE_SYMBOL
1070
   384
1040
1.570796326794896
1001
AcadStringInfo
1000
MIFCodePage
1070
     5
  0
DIMSTYLE
105
7CA
330
A
100
AcDbSymbolTableRecord
100
AcDbDimStyleTableRecord
  2
转换$3
 70
     0
  3
M<>
 41
2.0
 42
0.0
 43
5.0
 44
1.0
 49
1.25
 50
90.0
 73
     0
 77
     1
 78
     8
140
2.5
141
0.0
143
0.03937007874016
147
0.5
171
     3
172
     1
176
   256
178
     1
271
     2
272
     2
274
     3
283
     0
284
     8
340
11
345
16
371
    18
1001
ACAD_DSTYLE_DIMJOGGED_JOGANGLE_SYMBOL
1070
   384
1040
1.570796326794896
1001
AcadStringInfo
1000
MIFCodePage
1070
     5
  0
ENDTAB
  0
TABLE
  2
BLOCK_RECORD
  5
1
330
0
100
AcDbSymbolTable
 70
    13
  0
BLOCK_RECORD
  5
207
102
{ACAD_XDICTIONARY
360
7A1
102
}
330
1
100
AcDbSymbolTableRecord
100
AcDbBlockTableRecord
  2
*Model_Space
340
6D6
 70
     0
280
     1
281
     0
  0
BLOCK_RECORD
  5
208
330
1
100
AcDbSymbolTableRecord
100
AcDbBlockTableRecord
  2
*Paper_Space
340
6D7
 70
     0
280
     1
281
     0
  0
BLOCK_RECORD
  5
EB3
330
1
100
AcDbSymbolTableRecord
100
AcDbBlockTableRecord
  2
*D0
340
0
 70
     0
280
     1
281
     0
  0
BLOCK_RECORD
  5
EBF
330
1
100
AcDbSymbolTableRecord
100
AcDbBlockTableRecord
  2
*D1
340
0
 70
     0
280
     1
281
     0
  0
BLOCK_RECORD
  5
ECB
330
1
100
AcDbSymbolTableRecord
100
AcDbBlockTableRecord
  2
*D2
340
0
 70
     0
280
     1
281
     0
  0
BLOCK_RECORD
  5
ED7
330
1
100
AcDbSymbolTableRecord
100
AcDbBlockTableRecord
  2
*D3
340
0
 70
     0
280
     1
281
     0
  0
BLOCK_RECORD
  5
EE3
330
1
100
AcDbSymbolTableRecord
100
AcDbBlockTableRecord
  2
*D4
340
0
 70
     0
280
     1
281
     0
  0
BLOCK_RECORD
  5
EEF
330
1
100
AcDbSymbolTableRecord
100
AcDbBlockTableRecord
  2
*D5
340
0
 70
     0
280
     1
281
     0
  0
BLOCK_RECORD
  5
EFB
330
1
100
AcDbSymbolTableRecord
100
AcDbBlockTableRecord
  2
*D6
340
0
 70
     0
280
     1
281
     0
  0
BLOCK_RECORD
  5
F07
330
1
100
AcDbSymbolTableRecord
100
AcDbBlockTableRecord
  2
*D7
340
0
 70
     0
280
     1
281
     0
  0
BLOCK_RECORD
  5
F13
330
1
100
AcDbSymbolTableRecord
100
AcDbBlockTableRecord
  2
*D8
340
0
 70
     0
280
     1
281
     0
  0
BLOCK_RECORD
  5
F1F
330
1
100
AcDbSymbolTableRecord
100
AcDbBlockTableRecord
  2
*D9
340
0
 70
     0
280
     1
281
     0
  0
BLOCK_RECORD
  5
F2B
330
1
100
AcDbSymbolTableRecord
100
AcDbBlockTableRecord
  2
*D10
340
0
 70
     0
280
     1
281
     0
  0
BLOCK_RECORD
  5
FF0
330
1
100
AcDbSymbolTableRecord
100
AcDbBlockTableRecord
  2
*D11
340
0
 70
     0
280
     1
281
     0
  0
BLOCK_RECORD
  5
1008
330
1
100
AcDbSymbolTableRecord
100
AcDbBlockTableRecord
  2
*D12
340
0
 70
     0
280
     1
281
     0
  0
ENDTAB
  0
ENDSEC
  0
SECTION
  2
BLOCKS
  0
BLOCK
  5
20
330
207
100
AcDbEntity
  8
0
100
AcDbBlockBegin
  2
*Model_Space
 70
     0
 10
0.0
 20
0.0
 30
0.0
  3
*Model_Space
  1

  0
ENDBLK
  5
21
330
207
100
AcDbEntity
  8
0
100
AcDbBlockEnd
  0
BLOCK
  5
1C
330
208
100
AcDbEntity
 67
     1
  8
0
100
AcDbBlockBegin
  2
*Paper_Space
 70
     0
 10
0.0
 20
0.0
 30
0.0
  3
*Paper_Space
  1

  0
ENDBLK
  5
1D
330
208
100
AcDbEntity
 67
     1
  8
0
100
AcDbBlockEnd
  0
BLOCK
  5
EB4
330
EB3
100
AcDbEntity
  8
0
100
AcDbBlockBegin
  2
*D0
 70
     1
 10
0.0
 20
0.0
 30
0.0
  3
*D0
  1

  0
LINE
  5
F8B
330
EB3
100
AcDbEntity
  8
尺寸线
 62
     0
440
 16777216
370
    -2
100
AcDbLine
 10
195.7816596497718
 20
1257.9451082511
 30
0.0
 11
397.5371015106449
 21
1257.9451082511
 31
0.0
  0
LINE
  5
F8C
330
EB3
100
AcDbEntity
  8
尺寸线
 62
     0
440
 16777216
370
    -2
100
AcDbLine
 10
195.7816596497718
 20
760.9451082511
 30
0.0
 11
397.5371015106448
 21
760.9451082510998
 31
0.0
  0
LINE
  5
F8D
330
EB3
100
AcDbEntity
  8
尺寸线
  6
Continuous
440
 16777216
370
    18
100
AcDbLine
 10
394.5371015106449
 20
1249.9451082511
 30
0.0
 11
394.5371015106448
 21
768.9451082510998
 31
0.0
  0
SOLID
  5
F8E
330
EB3
100
AcDbEntity
  8
尺寸线
440
 16777216
100
AcDbTrace
 10
393.2037681773116
 20
1249.9451082511
 30
0.0
 11
395.8704348439782
 21
1249.9451082511
 31
0.0
 12
394.5371015106449
 22
1257.9451082511
 32
0.0
 13
394.5371015106449
 23
1257.9451082511
 33
0.0
  0
SOLID
  5
F8F
330
EB3
100
AcDbEntity
  8
尺寸线
440
 16777216
100
AcDbTrace
 10
393.2037681773115
 20
768.9451082510998
 30
0.0
 11
395.8704348439781
 21
768.9451082510998
 31
0.0
 12
394.5371015106448
 22
760.9451082510998
 32
0.0
 13
394.5371015106448
 23
760.9451082510998
 33
0.0
  0
MTEXT
  5
F90
330
EB3
100
AcDbEntity
  8
尺寸线
 62
     1
440
 16777216
100
AcDbMText
 10
386.5371015106447
 20
1009.4451082511
 30
0.0
 40
10.0
 41
0.0
 46
0.0
 71
     5
 72
     1
  1
497
 11
0.0000000000000001
 21
1.0
 31
0.0
 73
     1
 44
1.0
  0
POINT
  5
F91
330
EB3
100
AcDbEntity
  8
Defpoints
 62
     0
440
 16777216
100
AcDbPoint
 10
195.7816596497718
 20
1257.9451082511
 30
0.0
  0
POINT
  5
F92
330
EB3
100
AcDbEntity
  8
Defpoints
 62
     0
440
 16777216
100
AcDbPoint
 10
195.7816596497718
 20
760.9451082511
 30
0.0
  0
POINT
  5
F93
330
EB3
100
AcDbEntity
  8
Defpoints
 62
     0
440
 16777216
100
AcDbPoint
 10
394.5371015106448
 20
760.9451082510998
 30
0.0
  0
ENDBLK
  5
EB5
330
EB3
100
AcDbEntity
  8
0
100
AcDbBlockEnd
  0
BLOCK
  5
EC0
330
EBF
100
AcDbEntity
  8
0
100
AcDbBlockBegin
  2
*D1
 70
     1
 10
0.0
 20
0.0
 30
0.0
  3
*D1
  1

  0
LINE
  5
EC2
330
EBF
100
AcDbEntity
  8
尺寸线
 62
     0
440
 16777216
370
    -2
100
AcDbLine
 10
320.7816596497719
 20
885.9451082511
 30
0.0
 11
320.7816596497719
 21
651.6513138335658
 31
0.0
  0
LINE
  5
EC3
330
EBF
100
AcDbEntity
  8
尺寸线
 62
     0
440
 16777216
370
    -2
100
AcDbLine
 10
-689.2183403502281
 20
885.9451082511
 30
0.0
 11
-689.2183403502281
 21
651.6513138335658
 31
0.0
  0
LINE
  5
EC4
330
EBF
100
AcDbEntity
  8
尺寸线
  6
Continuous
440
 16777216
370
    18
100
AcDbLine
 10
312.7816596497719
 20
654.6513138335658
 30
0.0
 11
-681.2183403502281
 21
654.6513138335658
 31
0.0
  0
SOLID
  5
EC5
330
EBF
100
AcDbEntity
  8
尺寸线
440
 16777216
100
AcDbTrace
 10
312.7816596497719
 20
655.9846471668992
 30
0.0
 11
312.7816596497719
 21
653.3179805002324
 31
0.0
 12
320.7816596497719
 22
654.6513138335658
 32
0.0
 13
320.7816596497719
 23
654.6513138335658
 33
0.0
  0
SOLID
  5
EC6
330
EBF
100
AcDbEntity
  8
尺寸线
440
 16777216
100
AcDbTrace
 10
-681.2183403502281
 20
655.9846471668992
 30
0.0
 11
-681.2183403502281
 21
653.3179805002324
 31
0.0
 12
-689.2183403502281
 22
654.6513138335658
 32
0.0
 13
-689.2183403502281
 23
654.6513138335658
 33
0.0
  0
MTEXT
  5
EC7
330
EBF
100
AcDbEntity
  8
尺寸线
 62
     1
440
 16777216
100
AcDbMText
 10
-184.2183403502281
 20
662.6513138335658
 30
0.0
 40
10.0
 41
0.0
 46
0.0
 71
     5
 72
     1
  1
1010
 73
     1
 44
1.0
  0
POINT
  5
EC8
330
EBF
100
AcDbEntity
  8
Defpoints
 62
     0
440
 16777216
100
AcDbPoint
 10
320.7816596497719
 20
885.9451082511
 30
0.0
  0
POINT
  5
EC9
330
EBF
100
AcDbEntity
  8
Defpoints
 62
     0
440
 16777216
100
AcDbPoint
 10
-689.2183403502281
 20
885.9451082511
 30
0.0
  0
POINT
  5
ECA
330
EBF
100
AcDbEntity
  8
Defpoints
 62
     0
440
 16777216
100
AcDbPoint
 10
-689.2183403502281
 20
654.6513138335658
 30
0.0
  0
ENDBLK
  5
EC1
330
EBF
100
AcDbEntity
  8
0
100
AcDbBlockEnd
  0
BLOCK
  5
ECC
330
ECB
100
AcDbEntity
  8
0
100
AcDbBlockBegin
  2
*D2
 70
     1
 10
0.0
 20
0.0
 30
0.0
  3
*D2
  1

  0
LINE
  5
ECE
330
ECB
100
AcDbEntity
  8
尺寸线
 62
     0
440
 16777216
370
    -2
100
AcDbLine
 10
275.7816596497719
 20
886.9451082511
 30
0.0
 11
275.7816596497719
 21
708.9880754100022
 31
0.0
  0
LINE
  5
ECF
330
ECB
100
AcDbEntity
  8
尺寸线
 62
     0
440
 16777216
370
    -2
100
AcDbLine
 10
-79.21834035022811
 20
886.9451082511
 30
0.0
 11
-79.21834035022813
 21
708.9880754100022
 31
0.0
  0
LINE
  5
ED0
330
ECB
100
AcDbEntity
  8
尺寸线
  6
Continuous
440
 16777216
370
    18
100
AcDbLine
 10
267.7816596497719
 20
711.9880754100022
 30
0.0
 11
-71.21834035022813
 21
711.9880754100022
 31
0.0
  0
SOLID
  5
ED1
330
ECB
100
AcDbEntity
  8
尺寸线
440
 16777216
100
AcDbTrace
 10
267.7816596497719
 20
713.3214087433356
 30
0.0
 11
267.7816596497719
 21
710.6547420766688
 31
0.0
 12
275.7816596497719
 22
711.9880754100022
 32
0.0
 13
275.7816596497719
 23
711.9880754100022
 33
0.0
  0
SOLID
  5
ED2
330
ECB
100
AcDbEntity
  8
尺寸线
440
 16777216
100
AcDbTrace
 10
-71.21834035022813
 20
713.3214087433356
 30
0.0
 11
-71.21834035022813
 21
710.6547420766688
 31
0.0
 12
-79.21834035022813
 22
711.9880754100022
 32
0.0
 13
-79.21834035022813
 23
711.9880754100022
 33
0.0
  0
MTEXT
  5
ED3
330
ECB
100
AcDbEntity
  8
尺寸线
 62
     1
440
 16777216
100
AcDbMText
 10
98.28165964977188
 20
719.9880754100022
 30
0.0
 40
10.0
 41
0.0
 46
0.0
 71
     5
 72
     1
  1
355
 73
     1
 44
1.0
  0
POINT
  5
ED4
330
ECB
100
AcDbEntity
  8
Defpoints
 62
     0
440
 16777216
100
AcDbPoint
 10
275.7816596497719
 20
886.9451082511
 30
0.0
  0
POINT
  5
ED5
330
ECB
100
AcDbEntity
  8
Defpoints
 62
     0
440
 16777216
100
AcDbPoint
 10
-79.21834035022811
 20
886.9451082511
 30
0.0
  0
POINT
  5
ED6
330
ECB
100
AcDbEntity
  8
Defpoints
 62
     0
440
 16777216
100
AcDbPoint
 10
-79.21834035022813
 20
711.9880754100022
 30
0.0
  0
ENDBLK
  5
ECD
330
ECB
100
AcDbEntity
  8
0
100
AcDbBlockEnd
  0
BLOCK
  5
ED8
330
ED7
100
AcDbEntity
  8
0
100
AcDbBlockBegin
  2
*D3
 70
     1
 10
0.0
 20
0.0
 30
0.0
  3
*D3
  1

  0
LINE
  5
FA6
330
ED7
100
AcDbEntity
  8
尺寸线
 62
     0
440
 16777216
370
    -2
100
AcDbLine
 10
195.7816596497718
 20
806.9451082510999
 30
0.0
 11
374.2401375978133
 21
806.9451082510999
 31
0.0
  0
LINE
  5
FA7
330
ED7
100
AcDbEntity
  8
尺寸线
 62
     0
440
 16777216
370
    -2
100
AcDbLine
 10
195.7816596497718
 20
1211.9451082511
 30
0.0
 11
374.2401375978134
 21
1211.9451082511
 31
0.0
  0
LINE
  5
FA8
330
ED7
100
AcDbEntity
  8
尺寸线
  6
Continuous
440
 16777216
370
    18
100
AcDbLine
 10
371.2401375978132
 20
814.9451082510999
 30
0.0
 11
371.2401375978134
 21
1203.9451082511
 31
0.0
  0
SOLID
  5
FA9
330
ED7
100
AcDbEntity
  8
尺寸线
440
 16777216
100
AcDbTrace
 10
369.90680426448
 20
814.9451082510999
 30
0.0
 11
372.5734709311466
 21
814.9451082510999
 31
0.0
 12
371.2401375978132
 22
806.9451082510999
 32
0.0
 13
371.2401375978132
 23
806.9451082510999
 33
0.0
  0
SOLID
  5
FAA
330
ED7
100
AcDbEntity
  8
尺寸线
440
 16777216
100
AcDbTrace
 10
369.9068042644801
 20
1203.9451082511
 30
0.0
 11
372.5734709311467
 21
1203.9451082511
 31
0.0
 12
371.2401375978134
 22
1211.9451082511
 32
0.0
 13
371.2401375978134
 23
1211.9451082511
 33
0.0
  0
MTEXT
  5
FAB
330
ED7
100
AcDbEntity
  8
尺寸线
 62
     1
440
 16777216
100
AcDbMText
 10
363.2401375978131
 20
1009.4451082511
 30
0.0
 40
10.0
 41
0.0
 46
0.0
 71
     5
 72
     1
  1
405
 11
0.0000000000000001
 21
1.0
 31
0.0
 73
     1
 44
1.0
  0
POINT
  5
FAC
330
ED7
100
AcDbEntity
  8
Defpoints
 62
     0
440
 16777216
100
AcDbPoint
 10
195.7816596497718
 20
806.9451082510999
 30
0.0
  0
POINT
  5
FAD
330
ED7
100
AcDbEntity
  8
Defpoints
 62
     0
440
 16777216
100
AcDbPoint
 10
195.7816596497718
 20
1211.9451082511
 30
0.0
  0
POINT
  5
FAE
330
ED7
100
AcDbEntity
  8
Defpoints
 62
     0
440
 16777216
100
AcDbPoint
 10
371.2401375978134
 20
1211.9451082511
 30
0.0
  0
ENDBLK
  5
ED9
330
ED7
100
AcDbEntity
  8
0
100
AcDbBlockEnd
  0
BLOCK
  5
EE4
330
EE3
100
AcDbEntity
  8
0
100
AcDbBlockBegin
  2
*D4
 70
     1
 10
0.0
 20
0.0
 30
0.0
  3
*D4
  1

  0
LINE
  5
EE6
330
EE3
100
AcDbEntity
  8
尺寸线
 62
     0
440
 16777216
370
    -2
100
AcDbLine
 10
-114.2183403502279
 20
919.4451082510999
 30
0.0
 11
-114.2183403502279
 21
711.4105149986308
 31
0.0
  0
LINE
  5
EE7
330
EE3
100
AcDbEntity
  8
尺寸线
 62
     0
440
 16777216
370
    -2
100
AcDbLine
 10
-314.2183403502281
 20
919.4451082510999
 30
0.0
 11
-314.2183403502281
 21
711.4105149986308
 31
0.0
  0
LINE
  5
EE8
330
EE3
100
AcDbEntity
  8
尺寸线
  6
Continuous
440
 16777216
370
    18
100
AcDbLine
 10
-122.2183403502279
 20
714.4105149986308
 30
0.0
 11
-306.2183403502281
 21
714.4105149986308
 31
0.0
  0
SOLID
  5
EE9
330
EE3
100
AcDbEntity
  8
尺寸线
440
 16777216
100
AcDbTrace
 10
-122.2183403502279
 20
715.7438483319642
 30
0.0
 11
-122.2183403502279
 21
713.0771816652973
 31
0.0
 12
-114.2183403502279
 22
714.4105149986308
 32
0.0
 13
-114.2183403502279
 23
714.4105149986308
 33
0.0
  0
SOLID
  5
EEA
330
EE3
100
AcDbEntity
  8
尺寸线
440
 16777216
100
AcDbTrace
 10
-306.2183403502281
 20
715.7438483319642
 30
0.0
 11
-306.2183403502281
 21
713.0771816652973
 31
0.0
 12
-314.2183403502281
 22
714.4105149986308
 32
0.0
 13
-314.2183403502281
 23
714.4105149986308
 33
0.0
  0
MTEXT
  5
EEB
330
EE3
100
AcDbEntity
  8
尺寸线
 62
     1
440
 16777216
100
AcDbMText
 10
-214.218340350228
 20
722.4105149986307
 30
0.0
 40
10.0
 41
0.0
 46
0.0
 71
     5
 72
     1
  1
200
 73
     1
 44
1.0
  0
POINT
  5
EEC
330
EE3
100
AcDbEntity
  8
Defpoints
 62
     0
440
 16777216
100
AcDbPoint
 10
-114.2183403502279
 20
919.4451082510999
 30
0.0
  0
POINT
  5
EED
330
EE3
100
AcDbEntity
  8
Defpoints
 62
     0
440
 16777216
100
AcDbPoint
 10
-314.2183403502281
 20
919.4451082510999
 30
0.0
  0
POINT
  5
EEE
330
EE3
100
AcDbEntity
  8
Defpoints
 62
     0
440
 16777216
100
AcDbPoint
 10
-314.2183403502281
 20
714.4105149986308
 30
0.0
  0
ENDBLK
  5
EE5
330
EE3
100
AcDbEntity
  8
0
100
AcDbBlockEnd
  0
BLOCK
  5
EF0
330
EEF
100
AcDbEntity
  8
0
100
AcDbBlockBegin
  2
*D5
 70
     1
 10
0.0
 20
0.0
 30
0.0
  3
*D5
  1

  0
LINE
  5
F9D
330
EEF
100
AcDbEntity
  8
尺寸线
 62
     0
440
 16777216
370
    -2
100
AcDbLine
 10
-174.2183403502279
 20
859.4451082511
 30
0.0
 11
353.2400561224266
 21
859.4451082510998
 31
0.0
  0
LINE
  5
F9E
330
EEF
100
AcDbEntity
  8
尺寸线
 62
     0
440
 16777216
370
    -2
100
AcDbLine
 10
-174.2183403502279
 20
1159.4451082511
 30
0.0
 11
353.2400561224268
 21
1159.4451082511
 31
0.0
  0
LINE
  5
F9F
330
EEF
100
AcDbEntity
  8
尺寸线
  6
Continuous
440
 16777216
370
    18
100
AcDbLine
 10
350.2400561224266
 20
867.4451082510998
 30
0.0
 11
350.2400561224267
 21
1151.4451082511
 31
0.0
  0
SOLID
  5
FA0
330
EEF
100
AcDbEntity
  8
尺寸线
440
 16777216
100
AcDbTrace
 10
348.9067227890933
 20
867.4451082510998
 30
0.0
 11
351.5733894557599
 21
867.4451082510998
 31
0.0
 12
350.2400561224266
 22
859.4451082510998
 32
0.0
 13
350.2400561224266
 23
859.4451082510998
 33
0.0
  0
SOLID
  5
FA1
330
EEF
100
AcDbEntity
  8
尺寸线
440
 16777216
100
AcDbTrace
 10
348.9067227890934
 20
1151.4451082511
 30
0.0
 11
351.57338945576
 21
1151.4451082511
 31
0.0
 12
350.2400561224267
 22
1159.4451082511
 32
0.0
 13
350.2400561224267
 23
1159.4451082511
 33
0.0
  0
MTEXT
  5
FA2
330
EEF
100
AcDbEntity
  8
尺寸线
 62
     1
440
 16777216
100
AcDbMText
 10
342.2400561224265
 20
1009.4451082511
 30
0.0
 40
10.0
 41
0.0
 46
0.0
 71
     5
 72
     1
  1
300
 11
0.0000000000000001
 21
1.0
 31
0.0
 73
     1
 44
1.0
  0
POINT
  5
FA3
330
EEF
100
AcDbEntity
  8
Defpoints
 62
     0
440
 16777216
100
AcDbPoint
 10
-174.2183403502279
 20
859.4451082511
 30
0.0
  0
POINT
  5
FA4
330
EEF
100
AcDbEntity
  8
Defpoints
 62
     0
440
 16777216
100
AcDbPoint
 10
-174.2183403502279
 20
1159.4451082511
 30
0.0
  0
POINT
  5
FA5
330
EEF
100
AcDbEntity
  8
Defpoints
 62
     0
440
 16777216
100
AcDbPoint
 10
350.2400561224267
 20
1159.4451082511
 30
0.0
  0
ENDBLK
  5
EF1
330
EEF
100
AcDbEntity
  8
0
100
AcDbBlockEnd
  0
BLOCK
  5
EFC
330
EFB
100
AcDbEntity
  8
0
100
AcDbBlockBegin
  2
*D6
 70
     1
 10
0.0
 20
0.0
 30
0.0
  3
*D6
  1

  0
LINE
  5
F40
330
EFB
100
AcDbEntity
  8
尺寸线
  6
Continuous
440
 16777216
370
    18
100
AcDbLine
 10
-195.3325039245243
 20
1138.81698300486
 30
0.0
 11
-173.6658372578575
 21
1138.81698300486
 31
0.0
  0
LINE
  5
F41
330
EFB
100
AcDbEntity
  8
尺寸线
  6
Continuous
440
 16777216
370
    18
100
AcDbLine
 10
-173.6658372578575
 20
1138.81698300486
 30
0.0
 11
-132.0573410891738
 21
1194.074417140324
 31
0.0
  0
LINE
  5
F42
330
EFB
100
AcDbEntity
  8
尺寸线
  6
Continuous
440
 16777216
370
    18
100
AcDbLine
 10
-101.3793396112826
 20
1234.815799361875
 30
0.0
 11
-96.56710408533877
 21
1241.206604416236
 31
0.0
  0
MTEXT
  5
F43
102
{ACAD_XDICTIONARY
360
10AB
102
}
330
EFB
100
AcDbEntity
  8
尺寸线
 62
     1
440
 16777216
100
AcDbMText
 10
-185.9991705911909
 20
1146.81698300486
 30
0.0
 40
10.0
 41
0.0
 46
0.0
 71
     5
 72
     1
  1
∅35
 73
     1
 44
1.0
  0
LINE
  5
F44
330
EFB
100
AcDbEntity
  8
尺寸线
  6
Continuous
440
 16777216
370
    18
100
AcDbLine
 10
-106.1915751372263
 20
1228.424994307514
 30
0.0
 11
-127.2451055632301
 21
1200.465222194685
 31
0.0
  0
SOLID
  5
F45
330
EFB
100
AcDbEntity
  8
尺寸线
440
 16777216
100
AcDbTrace
 10
-102.4444737870094
 20
1235.617838616199
 30
0.0
 11
-100.3142054355556
 21
1234.013760107551
 31
0.0
 12
-106.1915751372263
 22
1228.424994307514
 32
0.0
 13
-106.1915751372263
 23
1228.424994307514
 33
0.0
  0
SOLID
  5
F46
330
EFB
100
AcDbEntity
  8
尺寸线
440
 16777216
100
AcDbTrace
 10
-133.1224752649008
 20
1194.876456394649
 30
0.0
 11
-130.992206913447
 21
1193.272377886001
 31
0.0
 12
-127.2451055632301
 22
1200.465222194685
 32
0.0
 13
-127.2451055632301
 23
1200.465222194685
 33
0.0
  0
POINT
  5
F47
330
EFB
100
AcDbEntity
  8
Defpoints
 62
     0
440
 16777216
100
AcDbPoint
 10
-127.2451055632301
 20
1200.465222194685
 30
0.0
  0
POINT
  5
F48
330
EFB
100
AcDbEntity
  8
Defpoints
 62
     0
440
 16777216
100
AcDbPoint
 10
-106.1915751372263
 20
1228.424994307514
 30
0.0
  0
ENDBLK
  5
EFD
330
EFB
100
AcDbEntity
  8
0
100
AcDbBlockEnd
  0
BLOCK
  5
F08
330
F07
100
AcDbEntity
  8
0
100
AcDbBlockBegin
  2
*D7
 70
     1
 10
0.0
 20
0.0
 30
0.0
  3
*D7
  1

  0
LINE
  5
F0A
330
F07
100
AcDbEntity
  8
尺寸线
 62
     0
440
 16777216
370
    -2
100
AcDbLine
 10
-116.7183403502281
 20
1214.4451082511
 30
0.0
 11
-200.3421837723763
 21
1214.4451082511
 31
0.0
  0
LINE
  5
F0B
330
F07
100
AcDbEntity
  8
尺寸线
 62
     0
440
 16777216
370
    -2
100
AcDbLine
 10
-184.2183403502281
 20
1257.9451082511
 30
0.0
 11
-200.3421837723763
 21
1257.9451082511
 31
0.0
  0
LINE
  5
F0C
330
F07
100
AcDbEntity
  8
尺寸线
  6
Continuous
440
 16777216
370
    18
100
AcDbLine
 10
-197.3421837723763
 20
1222.4451082511
 30
0.0
 11
-197.3421837723763
 21
1249.9451082511
 31
0.0
  0
SOLID
  5
F0D
330
F07
100
AcDbEntity
  8
尺寸线
440
 16777216
100
AcDbTrace
 10
-198.6755171057096
 20
1222.4451082511
 30
0.0
 11
-196.0088504390429
 21
1222.4451082511
 31
0.0
 12
-197.3421837723763
 22
1214.4451082511
 32
0.0
 13
-197.3421837723763
 23
1214.4451082511
 33
0.0
  0
SOLID
  5
F0E
330
F07
100
AcDbEntity
  8
尺寸线
440
 16777216
100
AcDbTrace
 10
-198.6755171057096
 20
1249.9451082511
 30
0.0
 11
-196.0088504390429
 21
1249.9451082511
 31
0.0
 12
-197.3421837723763
 22
1257.9451082511
 32
0.0
 13
-197.3421837723763
 23
1257.9451082511
 33
0.0
  0
MTEXT
  5
F0F
330
F07
100
AcDbEntity
  8
尺寸线
 62
     1
440
 16777216
100
AcDbMText
 10
-205.3421837723765
 20
1236.1951082511
 30
0.0
 40
10.0
 41
0.0
 46
0.0
 71
     5
 72
     1
  1
43.5
 11
0.0000000000000001
 21
1.0
 31
0.0
 73
     1
 44
1.0
  0
POINT
  5
F10
330
F07
100
AcDbEntity
  8
Defpoints
 62
     0
440
 16777216
100
AcDbPoint
 10
-116.7183403502281
 20
1214.4451082511
 30
0.0
  0
POINT
  5
F11
330
F07
100
AcDbEntity
  8
Defpoints
 62
     0
440
 16777216
100
AcDbPoint
 10
-184.2183403502281
 20
1257.9451082511
 30
0.0
  0
POINT
  5
F12
330
F07
100
AcDbEntity
  8
Defpoints
 62
     0
440
 16777216
100
AcDbPoint
 10
-197.3421837723763
 20
1257.9451082511
 30
0.0
  0
ENDBLK
  5
F09
330
F07
100
AcDbEntity
  8
0
100
AcDbBlockEnd
  0
BLOCK
  5
F14
330
F13
100
AcDbEntity
  8
0
100
AcDbBlockBegin
  2
*D8
 70
     1
 10
0.0
 20
0.0
 30
0.0
  3
*D8
  1

  0
LINE
  5
F16
330
F13
100
AcDbEntity
  8
尺寸线
 62
     0
440
 16777216
370
    -2
100
AcDbLine
 10
-116.7183403502281
 20
1214.4451082511
 30
0.0
 11
-116.7183403502281
 21
1297.444358944373
 31
0.0
  0
LINE
  5
F17
330
F13
100
AcDbEntity
  8
尺寸线
 62
     0
440
 16777216
370
    -2
100
AcDbLine
 10
320.7816596497719
 20
1132.9451082511
 30
0.0
 11
320.7816596497719
 21
1297.444358944373
 31
0.0
  0
LINE
  5
F18
330
F13
100
AcDbEntity
  8
尺寸线
  6
Continuous
440
 16777216
370
    18
100
AcDbLine
 10
-108.7183403502281
 20
1294.444358944373
 30
0.0
 11
312.7816596497719
 21
1294.444358944373
 31
0.0
  0
SOLID
  5
F19
330
F13
100
AcDbEntity
  8
尺寸线
440
 16777216
100
AcDbTrace
 10
-108.7183403502281
 20
1295.777692277707
 30
0.0
 11
-108.7183403502281
 21
1293.11102561104
 31
0.0
 12
-116.7183403502281
 22
1294.444358944373
 32
0.0
 13
-116.7183403502281
 23
1294.444358944373
 33
0.0
  0
SOLID
  5
F1A
330
F13
100
AcDbEntity
  8
尺寸线
440
 16777216
100
AcDbTrace
 10
312.7816596497719
 20
1295.777692277707
 30
0.0
 11
312.7816596497719
 21
1293.11102561104
 31
0.0
 12
320.7816596497719
 22
1294.444358944373
 32
0.0
 13
320.7816596497719
 23
1294.444358944373
 33
0.0
  0
MTEXT
  5
F1B
330
F13
100
AcDbEntity
  8
尺寸线
 62
     1
440
 16777216
100
AcDbMText
 10
102.0316596497718
 20
1302.444358944373
 30
0.0
 40
10.0
 41
0.0
 46
0.0
 71
     5
 72
     1
  1
437.5
 73
     1
 44
1.0
  0
POINT
  5
F1C
330
F13
100
AcDbEntity
  8
Defpoints
 62
     0
440
 16777216
100
AcDbPoint
 10
-116.7183403502281
 20
1214.4451082511
 30
0.0
  0
POINT
  5
F1D
330
F13
100
AcDbEntity
  8
Defpoints
 62
     0
440
 16777216
100
AcDbPoint
 10
320.7816596497719
 20
1132.9451082511
 30
0.0
  0
POINT
  5
F1E
330
F13
100
AcDbEntity
  8
Defpoints
 62
     0
440
 16777216
100
AcDbPoint
 10
320.7816596497719
 20
1294.444358944373
 30
0.0
  0
ENDBLK
  5
F15
330
F13
100
AcDbEntity
  8
0
100
AcDbBlockEnd
  0
BLOCK
  5
F20
330
F1F
100
AcDbEntity
  8
0
100
AcDbBlockBegin
  2
*D9
 70
     1
 10
0.0
 20
0.0
 30
0.0
  3
*D9
  1

  0
LINE
  5
1061
330
F1F
100
AcDbEntity
  8
尺寸线
 62
     0
440
 16777216
370
    -2
100
AcDbLine
 10
199.6587008123718
 20
1457.129596966104
 30
0.0
 11
341.3771728897245
 21
1457.129596966104
 31
0.0
  0
LINE
  5
1062
330
F1F
100
AcDbEntity
  8
尺寸线
 62
     0
440
 16777216
370
    -2
100
AcDbLine
 10
318.7816596497719
 20
1642.929596966103
 30
0.0
 11
341.3771728897245
 21
1642.929596966103
 31
0.0
  0
LINE
  5
1063
330
F1F
100
AcDbEntity
  8
尺寸线
  6
Continuous
440
 16777216
370
    18
100
AcDbLine
 10
338.3771728897245
 20
1465.129596966104
 30
0.0
 11
338.3771728897245
 21
1634.929596966104
 31
0.0
  0
SOLID
  5
1064
330
F1F
100
AcDbEntity
  8
尺寸线
440
 16777216
100
AcDbTrace
 10
337.0438395563912
 20
1465.129596966104
 30
0.0
 11
339.7105062230579
 21
1465.129596966104
 31
0.0
 12
338.3771728897245
 22
1457.129596966104
 32
0.0
 13
338.3771728897245
 23
1457.129596966104
 33
0.0
  0
SOLID
  5
1065
330
F1F
100
AcDbEntity
  8
尺寸线
440
 16777216
100
AcDbTrace
 10
337.0438395563912
 20
1634.929596966104
 30
0.0
 11
339.7105062230579
 21
1634.929596966104
 31
0.0
 12
338.3771728897245
 22
1642.929596966103
 32
0.0
 13
338.3771728897245
 23
1642.929596966103
 33
0.0
  0
MTEXT
  5
1066
330
F1F
100
AcDbEntity
  8
尺寸线
 62
     1
440
 16777216
100
AcDbMText
 10
330.3771728897243
 20
1550.029596966104
 30
0.0
 40
10.0
 41
0.0
 46
0.0
 71
     5
 72
     1
  1
185
 11
0.0000000000000001
 21
1.0
 31
0.0
 73
     1
 44
1.0
  0
POINT
  5
1067
330
F1F
100
AcDbEntity
  8
Defpoints
 62
     0
440
 16777216
100
AcDbPoint
 10
199.6587008123718
 20
1457.129596966104
 30
0.0
  0
POINT
  5
1068
330
F1F
100
AcDbEntity
  8
Defpoints
 62
     0
440
 16777216
100
AcDbPoint
 10
318.7816596497719
 20
1642.929596966103
 30
0.0
  0
POINT
  5
1069
330
F1F
100
AcDbEntity
  8
Defpoints
 62
     0
440
 16777216
100
AcDbPoint
 10
338.3771728897245
 20
1642.929596966103
 30
0.0
  0
ENDBLK
  5
F21
330
F1F
100
AcDbEntity
  8
0
100
AcDbBlockEnd
  0
BLOCK
  5
F2C
330
F2B
100
AcDbEntity
  8
0
100
AcDbBlockBegin
  2
*D10
 70
     1
 10
0.0
 20
0.0
 30
0.0
  3
*D10
  1

  0
LINE
  5
106A
330
F2B
100
AcDbEntity
  8
尺寸线
 62
     0
440
 16777216
370
    -2
100
AcDbLine
 10
-274.549711200128
 20
1497.129596966104
 30
0.0
 11
-712.2846890754681
 21
1497.129596966104
 31
0.0
  0
LINE
  5
106B
330
F2B
100
AcDbEntity
  8
尺寸线
 62
     0
440
 16777216
370
    -2
100
AcDbLine
 10
-687.2183403502281
 20
1642.929596966103
 30
0.0
 11
-712.2846890754681
 21
1642.929596966103
 31
0.0
  0
LINE
  5
106C
330
F2B
100
AcDbEntity
  8
尺寸线
  6
Continuous
440
 16777216
370
    18
100
AcDbLine
 10
-709.2846890754681
 20
1505.129596966104
 30
0.0
 11
-709.2846890754681
 21
1634.929596966104
 31
0.0
  0
SOLID
  5
106D
330
F2B
100
AcDbEntity
  8
尺寸线
440
 16777216
100
AcDbTrace
 10
-710.6180224088014
 20
1505.129596966104
 30
0.0
 11
-707.9513557421347
 21
1505.129596966104
 31
0.0
 12
-709.2846890754681
 22
1497.129596966104
 32
0.0
 13
-709.2846890754681
 23
1497.129596966104
 33
0.0
  0
SOLID
  5
106E
330
F2B
100
AcDbEntity
  8
尺寸线
440
 16777216
100
AcDbTrace
 10
-710.6180224088014
 20
1634.929596966104
 30
0.0
 11
-707.9513557421347
 21
1634.929596966104
 31
0.0
 12
-709.2846890754681
 22
1642.929596966103
 32
0.0
 13
-709.2846890754681
 23
1642.929596966103
 33
0.0
  0
MTEXT
  5
106F
330
F2B
100
AcDbEntity
  8
尺寸线
 62
     1
440
 16777216
100
AcDbMText
 10
-717.2846890754684
 20
1570.029596966104
 30
0.0
 40
10.0
 41
0.0
 46
0.0
 71
     5
 72
     1
  1
145
 11
0.0000000000000001
 21
1.0
 31
0.0
 73
     1
 44
1.0
  0
POINT
  5
1070
330
F2B
100
AcDbEntity
  8
Defpoints
 62
     0
440
 16777216
100
AcDbPoint
 10
-274.549711200128
 20
1497.129596966104
 30
0.0
  0
POINT
  5
1071
330
F2B
100
AcDbEntity
  8
Defpoints
 62
     0
440
 16777216
100
AcDbPoint
 10
-687.2183403502281
 20
1642.929596966103
 30
0.0
  0
POINT
  5
1072
330
F2B
100
AcDbEntity
  8
Defpoints
 62
     0
440
 16777216
100
AcDbPoint
 10
-709.2846890754681
 20
1642.929596966103
 30
0.0
  0
ENDBLK
  5
F2D
330
F2B
100
AcDbEntity
  8
0
100
AcDbBlockEnd
  0
BLOCK
  5
FF1
330
FF0
100
AcDbEntity
  8
0
100
AcDbBlockBegin
  2
*D11
 70
     1
 10
0.0
 20
0.0
 30
0.0
  3
*D11
  1

  0
LINE
  5
FFD
330
FF0
100
AcDbEntity
  8
尺寸线
  6
Continuous
440
 16777216
370
    18
100
AcDbLine
 10
191.2158772818433
 20
943.2470958867916
 30
0.0
 11
170.7158772818432
 21
943.2470958867918
 31
0.0
  0
LINE
  5
FFE
330
FF0
100
AcDbEntity
  8
尺寸线
  6
Continuous
440
 16777216
370
    18
100
AcDbLine
 10
170.7158772818432
 20
943.2470958867918
 30
0.0
 11
137.40459834426
 21
973.6904488637238
 31
0.0
  0
LINE
  5
FFF
330
FF0
100
AcDbEntity
  8
尺寸线
  6
Continuous
440
 16777216
370
    18
100
AcDbLine
 10
59.15872095528374
 20
1045.199767638477
 30
0.0
 11
53.25337171837986
 21
1050.596697357326
 31
0.0
  0
MTEXT
  5
1000
102
{ACAD_XDICTIONARY
360
10AD
102
}
330
FF0
100
AcDbEntity
  8
尺寸线
 62
     1
440
 16777216
100
AcDbMText
 10
182.4658772818434
 20
951.2470958867917
 30
0.0
 40
10.0
 41
0.0
 46
0.0
 71
     5
 72
     1
  1
∅90
 73
     1
 44
1.0
  0
LINE
  5
1001
330
FF0
100
AcDbEntity
  8
尺寸线
  6
Continuous
440
 16777216
370
    18
100
AcDbLine
 10
65.06407019218761
 20
1039.802837919628
 30
0.0
 11
131.4992491073561
 21
979.0873785825731
 31
0.0
  0
SOLID
  5
1002
330
FF0
100
AcDbEntity
  8
尺寸线
440
 16777216
100
AcDbTrace
 10
60.05820924175868
 20
1046.183992511294
 30
0.0
 11
58.25923266880881
 21
1044.21554276566
 31
0.0
 12
65.06407019218761
 22
1039.802837919628
 32
0.0
 13
65.06407019218761
 23
1039.802837919628
 33
0.0
  0
SOLID
  5
1003
330
FF0
100
AcDbEntity
  8
尺寸线
440
 16777216
100
AcDbTrace
 10
138.3040866307349
 20
974.6746737365411
 30
0.0
 11
136.5051100577852
 21
972.7062239909065
 31
0.0
 12
131.4992491073561
 22
979.0873785825731
 32
0.0
 13
131.4992491073561
 23
979.0873785825731
 33
0.0
  0
POINT
  5
1004
330
FF0
100
AcDbEntity
  8
Defpoints
 62
     0
440
 16777216
100
AcDbPoint
 10
131.4992491073561
 20
979.0873785825731
 30
0.0
  0
POINT
  5
1005
330
FF0
100
AcDbEntity
  8
Defpoints
 62
     0
440
 16777216
100
AcDbPoint
 10
65.06407019218761
 20
1039.802837919628
 30
0.0
  0
ENDBLK
  5
FF2
330
FF0
100
AcDbEntity
  8
0
100
AcDbBlockEnd
  0
BLOCK
  5
1009
330
1008
100
AcDbEntity
  8
0
100
AcDbBlockBegin
  2
*D12
 70
     1
 10
0.0
 20
0.0
 30
0.0
  3
*D12
  1

  0
LINE
  5
1015
330
1008
100
AcDbEntity
  8
尺寸线
  6
Continuous
440
 16777216
370
    18
100
AcDbLine
 10
-136.2444730680946
 20
941.8593979168251
 30
0.0
 11
-156.7444730680947
 21
941.8593979168251
 31
0.0
  0
LINE
  5
1016
330
1008
100
AcDbEntity
  8
尺寸线
  6
Continuous
440
 16777216
370
    18
100
AcDbLine
 10
-156.7444730680947
 20
941.8593979168251
 30
0.0
 11
-179.8839530335453
 21
969.0699940396452
 31
0.0
  0
LINE
  5
1017
330
1008
100
AcDbEntity
  8
尺寸线
  6
Continuous
440
 16777216
370
    18
100
AcDbLine
 10
-248.5527276669111
 20
1049.820222462555
 30
0.0
 11
-253.7352766958444
 21
1055.914579324661
 31
0.0
  0
MTEXT
  5
1018
102
{ACAD_XDICTIONARY
360
10AF
102
}
330
1008
100
AcDbEntity
  8
尺寸线
 62
     1
440
 16777216
100
AcDbMText
 10
-144.9944730680945
 20
949.8593979168251
 30
0.0
 40
10.0
 41
0.0
 46
0.0
 71
     5
 72
     1
  1
∅90
 73
     1
 44
1.0
  0
LINE
  5
1019
330
1008
100
AcDbEntity
  8
尺寸线
  6
Continuous
440
 16777216
370
    18
100
AcDbLine
 10
-243.3701786379778
 20
1043.725865600448
 30
0.0
 11
-185.0665020624786
 21
975.1643509017517
 31
0.0
  0
SOLID
  5
101A
330
1008
100
AcDbEntity
  8
尺寸线
440
 16777216
100
AcDbTrace
 10
-247.5370015232267
 20
1050.683980634043
 30
0.0
 11
-249.5684538105954
 21
1048.956464291066
 31
0.0
 12
-243.3701786379778
 22
1043.725865600448
 32
0.0
 13
-243.3701786379778
 23
1043.725865600448
 33
0.0
  0
SOLID
  5
101B
330
1008
100
AcDbEntity
  8
尺寸线
440
 16777216
100
AcDbTrace
 10
-178.8682268898609
 20
969.9337522111342
 30
0.0
 11
-180.8996791772297
 21
968.2062358681564
 31
0.0
 12
-185.0665020624786
 22
975.1643509017517
 32
0.0
 13
-185.0665020624786
 23
975.1643509017517
 33
0.0
  0
POINT
  5
101C
330
1008
100
AcDbEntity
  8
Defpoints
 62
     0
440
 16777216
100
AcDbPoint
 10
-185.0665020624786
 20
975.1643509017517
 30
0.0
  0
POINT
  5
101D
330
1008
100
AcDbEntity
  8
Defpoints
 62
     0
440
 16777216
100
AcDbPoint
 10
-243.3701786379778
 20
1043.725865600448
 30
0.0
  0
ENDBLK
  5
100A
330
1008
100
AcDbEntity
  8
0
100
AcDbBlockEnd
  0
ENDSEC
  0
SECTION
  2
ENTITIES
  0
LINE
  5
9BA
330
207
100
AcDbEntity
  8
0
  6
Continuous
 62
     7
100
AcDbLine
 10
305.7816596497719
 20
1638.429596966104
 30
0.0
 11
305.7816596497719
 21
1622.929596966104
 31
0.0
  0
LINE
  5
9BB
330
207
100
AcDbEntity
  8
0
  6
Continuous
 62
     7
100
AcDbLine
 10
304.9816596497719
 20
1622.929596966104
 30
0.0
 11
304.9816596497719
 21
1638.429596966104
 31
0.0
  0
LINE
  5
9BC
330
207
100
AcDbEntity
  8
0
  6
Continuous
 62
     7
100
AcDbLine
 10
275.9107696534719
 20
1630.107304506804
 30
0.0
 11
270.3616718729718
 21
1524.224211264104
 31
0.0
  0
LINE
  5
9BD
330
207
100
AcDbEntity
  8
0
  6
Continuous
 62
     7
100
AcDbLine
 10
195.7816596497718
 20
1638.679596966104
 30
0.0
 11
195.7816596497718
 21
1637.929596966104
 31
0.0
  0
LINE
  5
9BE
330
207
100
AcDbEntity
  8
0
  6
Continuous
 62
     7
100
AcDbLine
 10
195.7816596497718
 20
1640.929596966104
 30
0.0
 11
195.7816596497718
 21
1638.929596966104
 31
0.0
  0
LINE
  5
9BF
330
207
100
AcDbEntity
  8
0
  6
Continuous
 62
     7
100
AcDbLine
 10
295.0715342519719
 20
1631.655527493304
 30
0.0
 11
301.8163120504719
 21
1640.929596966104
 31
0.0
  0
LINE
  5
9C0
330
207
100
AcDbEntity
  8
0
  6
Continuous
 62
     7
100
AcDbLine
 10
135.7816596497719
 20
1633.929596966104
 30
0.0
 11
135.7816596497719
 21
1627.929596966104
 31
0.0
  0
LINE
  5
9C1
330
207
100
AcDbEntity
  8
0
  6
Continuous
 62
     7
100
AcDbLine
 10
124.7816596497719
 20
1627.929596966104
 30
0.0
 11
124.7816596497719
 21
1633.929596966104
 31
0.0
  0
LINE
  5
9C2
330
207
100
AcDbEntity
  8
0
  6
Continuous
 62
     7
100
AcDbLine
 10
153.6130304996718
 20
1452.129596966104
 30
0.0
 11
158.6130304996718
 21
1457.129596966104
 31
0.0
  0
LINE
  5
9C3
330
207
100
AcDbEntity
  8
0
  6
Continuous
 62
     7
100
AcDbLine
 10
-75.21834035022812
 20
1633.929596966104
 30
0.0
 11
-75.21834035022812
 21
1627.929596966104
 31
0.0
  0
LINE
  5
9C4
330
207
100
AcDbEntity
  8
0
  6
Continuous
 62
     7
100
AcDbLine
 10
-79.41507546442813
 20
1631.397668483604
 30
0.0
 11
-79.23332153772799
 21
1627.929596966104
 31
0.0
  0
LINE
  5
9C5
330
207
100
AcDbEntity
  8
0
  6
Continuous
 62
     7
100
AcDbLine
 10
-78.97128264132811
 20
1622.929596966104
 30
0.0
 11
-73.79835257342825
 21
1524.224211264104
 31
0.0
  0
LINE
  5
9C6
330
207
100
AcDbEntity
  8
0
  6
Continuous
 62
     7
100
AcDbLine
 10
-114.465398059028
 20
1622.929596966104
 30
0.0
 11
-119.5286156772281
 21
1526.317649513804
 31
0.0
  0
LINE
  5
9C7
330
207
100
AcDbEntity
  8
0
  6
Continuous
 62
     7
100
AcDbLine
 10
-86.21834035022812
 20
1627.929596966104
 30
0.0
 11
-86.21834035022812
 21
1633.929596966104
 31
0.0
  0
LINE
  5
9C8
330
207
100
AcDbEntity
  8
0
  6
Continuous
 62
     7
100
AcDbLine
 10
42.95028879987182
 20
1452.129596966104
 30
0.0
 11
37.95028879987194
 21
1457.129596966104
 31
0.0
  0
LINE
  5
9C9
330
207
100
AcDbEntity
  8
0
  6
Continuous
 62
     7
100
AcDbLine
 10
153.6130304996718
 20
1452.129596966104
 30
0.0
 11
42.95028879987182
 21
1452.129596966104
 31
0.0
  0
LINE
  5
9CA
102
{ACAD_REACTORS
330
EAF
102
}
330
207
100
AcDbEntity
  8
0
  6
Continuous
 62
     7
100
AcDbLine
 10
-3.095381512828225
 20
1457.129596966104
 30
0.0
 11
199.6587008123718
 21
1457.129596966104
 31
0.0
  0
LINE
  5
9CB
330
207
100
AcDbEntity
  8
0
  6
Continuous
 62
     7
100
AcDbLine
 10
-158.8869695003282
 20
1492.129596966104
 30
0.0
 11
-269.5497112001281
 21
1492.129596966104
 31
0.0
  0
LINE
  5
9CC
330
207
100
AcDbEntity
  8
0
  6
Continuous
 62
     7
100
AcDbLine
 10
-278.1502753527282
 20
1497.129596966104
 30
0.0
 11
-150.2864053477281
 21
1497.129596966104
 31
0.0
  0
LINE
  5
9CD
330
207
100
AcDbEntity
  8
0
  6
Continuous
 62
     7
100
AcDbLine
 10
-158.8869695003282
 20
1492.129596966104
 30
0.0
 11
-153.8869695003282
 21
1497.129596966104
 31
0.0
  0
LINE
  5
9CE
330
207
100
AcDbEntity
  8
0
  6
Continuous
 62
     7
100
AcDbLine
 10
-282.2183403502281
 20
1633.929596966104
 30
0.0
 11
-282.2183403502281
 21
1627.929596966104
 31
0.0
  0
LINE
  5
9CF
102
{ACAD_REACTORS
330
EB2
102
}
330
207
100
AcDbEntity
  8
0
  6
Continuous
 62
     7
100
AcDbLine
 10
-269.5497112001281
 20
1492.129596966104
 30
0.0
 11
-274.549711200128
 21
1497.129596966104
 31
0.0
  0
LINE
  5
9D0
330
207
100
AcDbEntity
  8
0
  6
Continuous
 62
     7
100
AcDbLine
 10
295.0715342519719
 20
1631.655527493304
 30
0.0
 11
193.0270450522719
 21
1632.022594001204
 31
0.0
  0
LINE
  5
9D1
330
207
100
AcDbEntity
  8
0
  6
Continuous
 62
     7
100
AcDbLine
 10
135.7755407206719
 20
1632.228534664304
 30
0.0
 11
124.7756830509719
 21
1632.268102497604
 31
0.0
  0
LINE
  5
9D2
330
207
100
AcDbEntity
  8
0
  6
Continuous
 62
     7
100
AcDbLine
 10
-75.2217291247282
 20
1632.987517649304
 30
0.0
 11
-86.22158679442804
 21
1633.027085482704
 31
0.0
  0
LINE
  5
9D3
330
207
100
AcDbEntity
  8
0
  6
Continuous
 62
     7
100
AcDbLine
 10
-282.219050726628
 20
1633.732112331303
 30
0.0
 11
-293.2189083962283
 21
1633.771680164704
 31
0.0
  0
LINE
  5
9D4
330
207
100
AcDbEntity
  8
0
  6
Continuous
 62
     7
100
AcDbLine
 10
-562.9284839172282
 20
1634.741858493904
 30
0.0
 11
-666.0225224913283
 21
1635.112700359304
 31
0.0
  0
LINE
  5
9D5
330
207
100
AcDbEntity
  8
0
  6
Continuous
 62
     7
100
AcDbLine
 10
305.7816596497719
 20
1622.929596966104
 30
0.0
 11
304.9816596497719
 21
1622.929596966104
 31
0.0
  0
LINE
  5
9D6
330
207
100
AcDbEntity
  8
0
  6
Continuous
 62
     7
100
AcDbLine
 10
176.4167429187719
 20
1622.929596966104
 30
0.0
 11
-544.8534236191282
 21
1622.929596966104
 31
0.0
  0
LINE
  5
9D7
330
207
100
AcDbEntity
  8
0
  6
Continuous
 62
     7
100
AcDbLine
 10
-673.4183403502282
 20
1622.929596966104
 30
0.0
 11
-674.2183403502281
 21
1622.929596966104
 31
0.0
  0
LINE
  5
9D8
330
207
100
AcDbEntity
  8
0
  6
Continuous
 62
     7
100
AcDbLine
 10
135.7816596497719
 20
1627.929596966104
 30
0.0
 11
124.7816596497719
 21
1627.929596966104
 31
0.0
  0
LINE
  5
9D9
330
207
100
AcDbEntity
  8
0
  6
Continuous
 62
     7
100
AcDbLine
 10
-75.21834035022812
 20
1627.929596966104
 30
0.0
 11
-86.21834035022812
 21
1627.929596966104
 31
0.0
  0
LINE
  5
9DA
330
207
100
AcDbEntity
  8
0
  6
Continuous
 62
     7
100
AcDbLine
 10
-282.2183403502281
 20
1627.929596966104
 30
0.0
 11
-293.2183403502281
 21
1627.929596966104
 31
0.0
  0
LINE
  5
9DB
330
207
100
AcDbEntity
  8
0
  6
Continuous
 62
     7
100
AcDbLine
 10
-493.2183403502281
 20
1627.929596966104
 30
0.0
 11
-504.2183403502281
 21
1627.929596966104
 31
0.0
  0
LINE
  5
9DC
330
207
100
AcDbEntity
  8
0
  6
Continuous
 62
     7
100
AcDbLine
 10
-504.2183403502281
 20
1633.929596966104
 30
0.0
 11
-493.2183403502281
 21
1633.929596966104
 31
0.0
  0
LINE
  5
9DD
330
207
100
AcDbEntity
  8
0
  6
Continuous
 62
     7
100
AcDbLine
 10
-293.2183403502281
 20
1633.929596966104
 30
0.0
 11
-282.2183403502281
 21
1633.929596966104
 31
0.0
  0
LINE
  5
9DE
330
207
100
AcDbEntity
  8
0
  6
Continuous
 62
     7
100
AcDbLine
 10
-86.21834035022812
 20
1633.929596966104
 30
0.0
 11
-75.21834035022812
 21
1633.929596966104
 31
0.0
  0
LINE
  5
9DF
330
207
100
AcDbEntity
  8
0
  6
Continuous
 62
     7
100
AcDbLine
 10
124.7816596497719
 20
1633.929596966104
 30
0.0
 11
135.7816596497719
 21
1633.929596966104
 31
0.0
  0
LINE
  5
9E0
330
207
100
AcDbEntity
  8
0
  6
Continuous
 62
     7
100
AcDbLine
 10
305.7816596497719
 20
1637.929596966104
 30
0.0
 11
304.9816596497719
 21
1637.929596966104
 31
0.0
  0
LINE
  5
9E1
330
207
100
AcDbEntity
  8
0
  6
Continuous
 62
     7
100
AcDbLine
 10
-673.4183403502282
 20
1637.929596966104
 30
0.0
 11
-674.2183403502281
 21
1637.929596966104
 31
0.0
  0
LINE
  5
9E2
330
207
100
AcDbEntity
  8
0
  6
Continuous
 62
     7
100
AcDbLine
 10
318.7816596497719
 20
1638.929596966104
 30
0.0
 11
306.2816596497719
 21
1638.929596966104
 31
0.0
  0
LINE
  5
9E3
330
207
100
AcDbEntity
  8
0
  6
Continuous
 62
     7
100
AcDbLine
 10
195.7816596497718
 20
1638.929596966104
 30
0.0
 11
-564.2183403502281
 21
1638.929596966104
 31
0.0
  0
LINE
  5
9E4
330
207
100
AcDbEntity
  8
0
  6
Continuous
 62
     7
100
AcDbLine
 10
-674.7183403502281
 20
1638.929596966104
 30
0.0
 11
-687.2183403502281
 21
1638.929596966104
 31
0.0
  0
LINE
  5
9E5
330
207
100
AcDbEntity
  8
0
  6
Continuous
 62
     7
100
AcDbLine
 10
-687.2183403502281
 20
1639.729596966104
 30
0.0
 11
-674.7183403502281
 21
1639.729596966104
 31
0.0
  0
LINE
  5
9E6
330
207
100
AcDbEntity
  8
0
  6
Continuous
 62
     7
100
AcDbLine
 10
306.2816596497719
 20
1639.729596966104
 30
0.0
 11
318.7816596497719
 21
1639.729596966104
 31
0.0
  0
LINE
  5
9E7
330
207
100
AcDbEntity
  8
0
  6
Continuous
 62
     7
100
AcDbLine
 10
320.7816596497719
 20
1640.929596966104
 30
0.0
 11
195.7816596497718
 21
1640.929596966104
 31
0.0
  0
LINE
  5
9E8
330
207
100
AcDbEntity
  8
0
  6
Continuous
 62
     7
100
AcDbLine
 10
-564.2183403502281
 20
1640.929596966104
 30
0.0
 11
-689.2183403502281
 21
1640.929596966104
 31
0.0
  0
LINE
  5
9E9
330
207
100
AcDbEntity
  8
0
  6
Continuous
 62
     7
100
AcDbLine
 10
318.7816596497719
 20
1642.929596966103
 30
0.0
 11
-687.2183403502281
 21
1642.929596966103
 31
0.0
  0
LINE
  5
9EA
330
207
100
AcDbEntity
  8
0
  6
Continuous
 62
     7
100
AcDbLine
 10
-293.2183403502281
 20
1627.929596966104
 30
0.0
 11
-293.2183403502281
 21
1633.929596966104
 31
0.0
  0
LINE
  5
9EB
330
207
100
AcDbEntity
  8
0
  6
Continuous
 62
     7
100
AcDbLine
 10
-313.9712826413283
 20
1622.929596966104
 30
0.0
 11
-308.9080650231281
 21
1526.317649513804
 31
0.0
  0
LINE
  5
9EC
330
207
100
AcDbEntity
  8
0
  6
Continuous
 62
     7
100
AcDbLine
 10
-493.2183403502281
 20
1633.929596966104
 30
0.0
 11
-493.2183403502281
 21
1627.929596966104
 31
0.0
  0
LINE
  5
9ED
330
207
100
AcDbEntity
  8
0
  6
Continuous
 62
     7
100
AcDbLine
 10
-504.2183403502281
 20
1627.929596966104
 30
0.0
 11
-504.2183403502281
 21
1633.929596966104
 31
0.0
  0
LINE
  5
9EE
330
207
100
AcDbEntity
  8
0
  6
Continuous
 62
     7
100
AcDbLine
 10
-666.0225224913283
 20
1635.112700359304
 30
0.0
 11
-670.2529927508281
 21
1640.929596966104
 31
0.0
  0
LINE
  5
9EF
330
207
100
AcDbEntity
  8
0
  6
Continuous
 62
     7
100
AcDbLine
 10
-564.2183403502281
 20
1640.929596966104
 30
0.0
 11
-564.2183403502281
 21
1638.929596966104
 31
0.0
  0
LINE
  5
9F0
330
207
100
AcDbEntity
  8
0
  6
Continuous
 62
     7
100
AcDbLine
 10
-564.2183403502281
 20
1638.679596966104
 30
0.0
 11
-564.2183403502281
 21
1637.929596966104
 31
0.0
  0
LINE
  5
9F1
330
207
100
AcDbEntity
  8
0
  6
Continuous
 62
     7
100
AcDbLine
 10
-673.4183403502282
 20
1638.429596966104
 30
0.0
 11
-673.4183403502282
 21
1622.929596966104
 31
0.0
  0
LINE
  5
9F2
330
207
100
AcDbEntity
  8
0
  6
Continuous
 62
     7
100
AcDbLine
 10
-674.2183403502281
 20
1622.929596966104
 30
0.0
 11
-674.2183403502281
 21
1638.429596966104
 31
0.0
  0
LINE
  5
9F3
330
207
100
AcDbEntity
  8
0
  6
Continuous
 62
     7
100
AcDbLine
 10
320.7816596497719
 20
1132.9451082511
 30
0.0
 11
320.7816596497719
 21
885.9451082511
 31
0.0
  0
LINE
  5
9F4
330
207
100
AcDbEntity
  8
0
  6
Continuous
 62
     7
100
AcDbLine
 10
302.2816596497719
 20
1134.4451082511
 30
0.0
 11
302.2816596497719
 21
884.4451082511
 31
0.0
  0
LINE
  5
9F5
330
207
100
AcDbEntity
  8
0
  6
Continuous
 62
     7
100
AcDbLine
 10
294.665221293672
 20
1134.4451082511
 30
0.0
 11
294.665221293672
 21
884.4451082511
 31
0.0
  0
LINE
  5
9F6
330
207
100
AcDbEntity
  8
0
  6
Continuous
 62
     7
100
AcDbLine
 10
195.7816596497718
 20
760.9451082511
 30
0.0
 11
-564.2183403502281
 21
760.9451082511
 31
0.0
  0
LINE
  5
9F7
330
207
100
AcDbEntity
  8
0
  6
Continuous
 62
     7
100
AcDbLine
 10
197.2816596497719
 20
779.4451082511
 30
0.0
 11
-8.236199245528041
 21
779.4451082511
 31
0.0
  0
LINE
  5
9F8
330
207
100
AcDbEntity
  8
0
  6
Continuous
 62
     7
100
AcDbLine
 10
-410.2004814549282
 20
779.4451082511
 30
0.0
 11
-565.7183403502281
 21
779.4451082511
 31
0.0
  0
LINE
  5
9F9
330
207
100
AcDbEntity
  8
0
  6
Continuous
 62
     7
100
AcDbLine
 10
197.2816596497719
 20
786.8067825480999
 30
0.0
 11
-8.236199245528041
 21
786.2691295489999
 31
0.0
  0
LINE
  5
9FA
330
207
100
AcDbEntity
  8
0
  6
Continuous
 62
     7
100
AcDbLine
 10
-410.2004814549282
 20
785.2175552332
 30
0.0
 11
-565.7183403502281
 21
784.8107066814999
 31
0.0
  0
LINE
  5
9FB
330
207
100
AcDbEntity
  8
0
  6
Continuous
 62
     7
100
AcDbLine
 10
-414.2183403502281
 20
803.1030080951
 30
0.0
 11
-564.2183403502281
 21
803.4145280244999
 31
0.0
  0
LINE
  5
9FC
330
207
100
AcDbEntity
  8
0
  6
Continuous
 62
     7
100
AcDbLine
 10
-358.1469572747283
 20
826.9865590730999
 30
0.0
 11
-620.2897234257282
 21
827.5309770465
 31
0.0
  0
LINE
  5
9FD
330
207
100
AcDbEntity
  8
0
  6
Continuous
 62
     7
100
AcDbLine
 10
-414.2183403502281
 20
805.9451082510999
 30
0.0
 11
-564.2183403502281
 21
805.9451082510999
 31
0.0
  0
LINE
  5
9FE
330
207
100
AcDbEntity
  8
0
  6
Continuous
 62
     7
100
AcDbLine
 10
-591.6044682254282
 20
815.9451082510999
 30
0.0
 11
-386.8322124749282
 21
815.9451082510999
 31
0.0
  0
LINE
  5
9FF
330
207
100
AcDbEntity
  8
0
  6
Continuous
 62
     7
100
AcDbLine
 10
-591.6044682254282
 20
818.4188129803001
 30
0.0
 11
-386.8322124749282
 21
818.8440839047
 31
0.0
  0
LINE
  5
A00
330
207
100
AcDbEntity
  8
0
  6
Continuous
 62
     7
100
AcDbLine
 10
-342.5524488815281
 20
850.9541724053999
 30
0.0
 11
-635.8842318189281
 21
851.5633637142
 31
0.0
  0
LINE
  5
A01
330
207
100
AcDbEntity
  8
0
  6
Continuous
 62
     7
100
AcDbLine
 10
-358.1469572747283
 20
829.9451082511
 30
0.0
 11
-620.2897234257282
 21
829.9451082511
 31
0.0
  0
LINE
  5
A02
330
207
100
AcDbEntity
  8
0
  6
Continuous
 62
     7
100
AcDbLine
 10
-108.3998153942282
 20
837.9451082511
 30
0.0
 11
-310.036865306128
 21
837.9451082511
 31
0.0
  0
LINE
  5
A03
330
207
100
AcDbEntity
  8
0
  6
Continuous
 62
     7
100
AcDbLine
 10
-624.6666653890281
 20
839.9451082510999
 30
0.0
 11
-353.7700153114281
 21
839.9451082510999
 31
0.0
  0
LINE
  5
A04
330
207
100
AcDbEntity
  8
0
  6
Continuous
 62
     7
100
AcDbLine
 10
-342.5524488815281
 20
853.9451082511
 30
0.0
 11
-635.8842318189281
 21
853.9451082511
 31
0.0
  0
LINE
  5
A05
330
207
100
AcDbEntity
  8
0
  6
Continuous
 62
     7
100
AcDbLine
 10
-637.7438461288281
 20
863.9451082511
 30
0.0
 11
-340.6928345716283
 21
863.9451082511
 31
0.0
  0
LINE
  5
A06
330
207
100
AcDbEntity
  8
0
  6
Continuous
 62
     7
100
AcDbLine
 10
-624.6666653890281
 20
842.3501494247998
 30
0.0
 11
-353.7700153114281
 21
842.9127474602001
 31
0.0
  0
LINE
  5
A07
330
207
100
AcDbEntity
  8
0
  6
Continuous
 62
     7
100
AcDbLine
 10
-108.3998153942282
 20
844.5070926199001
 30
0.0
 11
-310.036865306128
 21
843.9795921622998
 31
0.0
  0
LINE
  5
A08
330
207
100
AcDbEntity
  8
0
  6
Continuous
 62
     7
100
AcDbLine
 10
-336.9914020450283
 20
873.9426232258999
 30
0.0
 11
-641.4452786554281
 21
874.5749128935999
 31
0.0
  0
LINE
  5
A09
330
207
100
AcDbEntity
  8
0
  6
Continuous
 62
     7
100
AcDbLine
 10
-336.7183403502281
 20
897.9420561314999
 30
0.0
 11
-641.7183403502281
 21
898.575479988
 31
0.0
  0
LINE
  5
A0A
330
207
100
AcDbEntity
  8
0
  6
Continuous
 62
     7
100
AcDbLine
 10
-336.9914020450283
 20
876.9451082511
 30
0.0
 11
-641.4452786554281
 21
876.9451082511
 31
0.0
  0
LINE
  5
A0B
330
207
100
AcDbEntity
  8
0
  6
Continuous
 62
     7
100
AcDbLine
 10
-641.7038228614281
 20
886.9451082511
 30
0.0
 11
-336.7328578389281
 21
886.9451082511
 31
0.0
  0
LINE
  5
A0C
330
207
100
AcDbEntity
  8
0
  6
Continuous
 62
     7
100
AcDbLine
 10
-336.7183403502281
 20
900.9451082511001
 30
0.0
 11
-641.7183403502281
 21
900.9451082511001
 31
0.0
  0
LINE
  5
A0D
330
207
100
AcDbEntity
  8
0
  6
Continuous
 62
     7
100
AcDbLine
 10
-637.7438461288281
 20
866.3229907419999
 30
0.0
 11
-340.6928345716283
 21
866.939906143
 31
0.0
  0
LINE
  5
A0E
330
207
100
AcDbEntity
  8
0
  6
Continuous
 62
     7
100
AcDbLine
 10
-641.7038228614281
 20
889.3147666641999
 30
0.0
 11
-336.7328578389281
 21
889.9481302208
 31
0.0
  0
LINE
  5
A0F
330
207
100
AcDbEntity
  8
0
  6
Continuous
 62
     7
100
AcDbLine
 10
-336.7183403502281
 20
920.9420561314999
 30
0.0
 11
-641.7183403502281
 21
921.575479988
 31
0.0
  0
LINE
  5
A10
330
207
100
AcDbEntity
  8
0
  6
Continuous
 62
     7
100
AcDbLine
 10
-641.7183403502281
 20
910.9451082511
 30
0.0
 11
-336.7183403502281
 21
910.9451082511
 31
0.0
  0
LINE
  5
A11
330
207
100
AcDbEntity
  8
0
  6
Continuous
 62
     7
100
AcDbLine
 10
-336.7183403502281
 20
923.9451082510999
 30
0.0
 11
-641.7183403502281
 21
923.9451082510999
 31
0.0
  0
LINE
  5
A12
330
207
100
AcDbEntity
  8
0
  6
Continuous
 62
     7
100
AcDbLine
 10
-641.7183403502281
 20
933.9451082511001
 30
0.0
 11
-336.7183403502281
 21
933.9451082511001
 31
0.0
  0
LINE
  5
A13
330
207
100
AcDbEntity
  8
0
  6
Continuous
 62
     7
100
AcDbLine
 10
-641.7183403502281
 20
913.3147365142999
 30
0.0
 11
-336.7183403502281
 21
913.9481603707
 31
0.0
  0
LINE
  5
A14
330
207
100
AcDbEntity
  8
0
  6
Continuous
 62
     7
100
AcDbLine
 10
-641.7183403502281
 20
936.3147365142999
 30
0.0
 11
-336.7183403502281
 21
936.9481603707001
 31
0.0
  0
LINE
  5
A15
330
207
100
AcDbEntity
  8
0
  6
Continuous
 62
     7
100
AcDbLine
 10
-336.7183403502281
 20
943.9420561314999
 30
0.0
 11
-641.7183403502281
 21
944.5754799879999
 31
0.0
  0
LINE
  5
A16
330
207
100
AcDbEntity
  8
0
  6
Continuous
 62
     7
100
AcDbLine
 10
-336.7183403502281
 20
966.9420561315
 30
0.0
 11
-641.7183403502281
 21
967.5754799879999
 31
0.0
  0
LINE
  5
A17
330
207
100
AcDbEntity
  8
0
  6
Continuous
 62
     7
100
AcDbLine
 10
-336.7183403502281
 20
946.9451082511
 30
0.0
 11
-641.7183403502281
 21
946.9451082511
 31
0.0
  0
LINE
  5
A18
330
207
100
AcDbEntity
  8
0
  6
Continuous
 62
     7
100
AcDbLine
 10
-641.7183403502281
 20
956.9451082510999
 30
0.0
 11
-336.7183403502281
 21
956.9451082510999
 31
0.0
  0
LINE
  5
A19
330
207
100
AcDbEntity
  8
0
  6
Continuous
 62
     7
100
AcDbLine
 10
-336.7183403502281
 20
969.9451082511
 30
0.0
 11
-641.7183403502281
 21
969.9451082511
 31
0.0
  0
LINE
  5
A1A
330
207
100
AcDbEntity
  8
0
  6
Continuous
 62
     7
100
AcDbLine
 10
-641.7183403502281
 20
959.3147365143
 30
0.0
 11
-336.7183403502281
 21
959.9481603707001
 31
0.0
  0
LINE
  5
A1B
330
207
100
AcDbEntity
  8
0
  6
Continuous
 62
     7
100
AcDbLine
 10
-336.7183403502281
 20
989.9420561314999
 30
0.0
 11
-641.7183403502281
 21
990.575479988
 31
0.0
  0
LINE
  5
A1C
330
207
100
AcDbEntity
  8
0
  6
Continuous
 62
     7
100
AcDbLine
 10
-336.7183403502281
 20
1012.9420561315
 30
0.0
 11
-641.7183403502281
 21
1013.575479988
 31
0.0
  0
LINE
  5
A1D
330
207
100
AcDbEntity
  8
0
  6
Continuous
 62
     7
100
AcDbLine
 10
-641.7183403502281
 20
979.9451082511
 30
0.0
 11
-336.7183403502281
 21
979.9451082511
 31
0.0
  0
LINE
  5
A1E
330
207
100
AcDbEntity
  8
0
  6
Continuous
 62
     7
100
AcDbLine
 10
-336.7183403502281
 20
992.9451082511
 30
0.0
 11
-641.7183403502281
 21
992.9451082511
 31
0.0
  0
LINE
  5
A1F
330
207
100
AcDbEntity
  8
0
  6
Continuous
 62
     7
100
AcDbLine
 10
-641.7183403502281
 20
1002.9451082511
 30
0.0
 11
-336.7183403502281
 21
1002.9451082511
 31
0.0
  0
LINE
  5
A20
330
207
100
AcDbEntity
  8
0
  6
Continuous
 62
     7
100
AcDbLine
 10
-641.7183403502281
 20
982.3147365142999
 30
0.0
 11
-336.7183403502281
 21
982.9481603707
 31
0.0
  0
LINE
  5
A21
330
207
100
AcDbEntity
  8
0
  6
Continuous
 62
     7
100
AcDbLine
 10
-641.7183403502281
 20
1005.3147365143
 30
0.0
 11
-336.7183403502281
 21
1005.9481603707
 31
0.0
  0
LINE
  5
A22
330
207
100
AcDbEntity
  8
0
  6
Continuous
 62
     7
100
AcDbLine
 10
-336.7183403502281
 20
1035.9420561315
 30
0.0
 11
-641.7183403502281
 21
1036.575479988
 31
0.0
  0
LINE
  5
A23
330
207
100
AcDbEntity
  8
0
  6
Continuous
 62
     7
100
AcDbLine
 10
-336.7183403502281
 20
1015.9451082511
 30
0.0
 11
-641.7183403502281
 21
1015.9451082511
 31
0.0
  0
LINE
  5
A24
330
207
100
AcDbEntity
  8
0
  6
Continuous
 62
     7
100
AcDbLine
 10
-641.7183403502281
 20
1025.9451082511
 30
0.0
 11
-336.7183403502281
 21
1025.9451082511
 31
0.0
  0
LINE
  5
A25
330
207
100
AcDbEntity
  8
0
  6
Continuous
 62
     7
100
AcDbLine
 10
-336.7183403502281
 20
1038.9451082511
 30
0.0
 11
-641.7183403502281
 21
1038.9451082511
 31
0.0
  0
LINE
  5
A26
330
207
100
AcDbEntity
  8
0
  6
Continuous
 62
     7
100
AcDbLine
 10
-641.7183403502281
 20
1048.9451082511
 30
0.0
 11
-336.7183403502281
 21
1048.9451082511
 31
0.0
  0
LINE
  5
A27
330
207
100
AcDbEntity
  8
0
  6
Continuous
 62
     7
100
AcDbLine
 10
-641.7183403502281
 20
1028.3147365143
 30
0.0
 11
-336.7183403502281
 21
1028.9481603707
 31
0.0
  0
LINE
  5
A28
330
207
100
AcDbEntity
  8
0
  6
Continuous
 62
     7
100
AcDbLine
 10
-336.7183403502281
 20
1058.9420561315
 30
0.0
 11
-641.7183403502281
 21
1059.575479988
 31
0.0
  0
LINE
  5
A29
330
207
100
AcDbEntity
  8
0
  6
Continuous
 62
     7
100
AcDbLine
 10
-336.7183403502281
 20
1081.9420561315
 30
0.0
 11
-641.7183403502281
 21
1082.575479988
 31
0.0
  0
LINE
  5
A2A
330
207
100
AcDbEntity
  8
0
  6
Continuous
 62
     7
100
AcDbLine
 10
-336.7183403502281
 20
1061.9451082511
 30
0.0
 11
-641.7183403502281
 21
1061.9451082511
 31
0.0
  0
LINE
  5
A2B
330
207
100
AcDbEntity
  8
0
  6
Continuous
 62
     7
100
AcDbLine
 10
-641.7183403502281
 20
1071.9451082511
 30
0.0
 11
-336.7183403502281
 21
1071.9451082511
 31
0.0
  0
LINE
  5
A2C
330
207
100
AcDbEntity
  8
0
  6
Continuous
 62
     7
100
AcDbLine
 10
-336.7183403502281
 20
1084.9451082511
 30
0.0
 11
-641.7183403502281
 21
1084.9451082511
 31
0.0
  0
LINE
  5
A2D
330
207
100
AcDbEntity
  8
0
  6
Continuous
 62
     7
100
AcDbLine
 10
-641.7183403502281
 20
1051.3147365143
 30
0.0
 11
-336.7183403502281
 21
1051.9481603707
 31
0.0
  0
LINE
  5
A2E
330
207
100
AcDbEntity
  8
0
  6
Continuous
 62
     7
100
AcDbLine
 10
-641.7183403502281
 20
1074.3147365143
 30
0.0
 11
-336.7183403502281
 21
1074.9481603707
 31
0.0
  0
LINE
  5
A2F
330
207
100
AcDbEntity
  8
0
  6
Continuous
 62
     7
100
AcDbLine
 10
-336.7183403502281
 20
1104.9420561315
 30
0.0
 11
-641.7183403502281
 21
1105.575479988
 31
0.0
  0
LINE
  5
A30
330
207
100
AcDbEntity
  8
0
  6
Continuous
 62
     7
100
AcDbLine
 10
-641.7183403502281
 20
1094.9451082511
 30
0.0
 11
-336.7183403502281
 21
1094.9451082511
 31
0.0
  0
LINE
  5
A31
330
207
100
AcDbEntity
  8
0
  6
Continuous
 62
     7
100
AcDbLine
 10
-336.7183403502281
 20
1107.9451082511
 30
0.0
 11
-641.7183403502281
 21
1107.9451082511
 31
0.0
  0
LINE
  5
A32
330
207
100
AcDbEntity
  8
0
  6
Continuous
 62
     7
100
AcDbLine
 10
-641.7183403502281
 20
1117.9451082511
 30
0.0
 11
-336.7183403502281
 21
1117.9451082511
 31
0.0
  0
LINE
  5
A33
330
207
100
AcDbEntity
  8
0
  6
Continuous
 62
     7
100
AcDbLine
 10
-641.7183403502281
 20
1097.3147365143
 30
0.0
 11
-336.7183403502281
 21
1097.9481603707
 31
0.0
  0
LINE
  5
A34
330
207
100
AcDbEntity
  8
0
  6
Continuous
 62
     7
100
AcDbLine
 10
-641.7183403502281
 20
1120.3147365143
 30
0.0
 11
-336.7183403502281
 21
1120.9481603707
 31
0.0
  0
LINE
  5
A35
330
207
100
AcDbEntity
  8
0
  6
Continuous
 62
     7
100
AcDbLine
 10
-331.2038357099282
 20
1115.4451082511
 30
0.0
 11
-331.2038357099282
 21
1110.4451082511
 31
0.0
  0
LINE
  5
A36
330
207
100
AcDbEntity
  8
0
  6
Continuous
 62
     7
100
AcDbLine
 10
-331.2038357099282
 20
1092.4451082511
 30
0.0
 11
-331.2038357099282
 21
1087.4451082511
 31
0.0
  0
LINE
  5
A37
330
207
100
AcDbEntity
  8
0
  6
Continuous
 62
     7
100
AcDbLine
 10
-331.2038357099282
 20
1069.4451082511
 30
0.0
 11
-331.2038357099282
 21
1064.4451082511
 31
0.0
  0
LINE
  5
A38
330
207
100
AcDbEntity
  8
0
  6
Continuous
 62
     7
100
AcDbLine
 10
-331.2038357099282
 20
1046.4451082511
 30
0.0
 11
-331.2038357099282
 21
1041.4451082511
 31
0.0
  0
LINE
  5
A39
330
207
100
AcDbEntity
  8
0
  6
Continuous
 62
     7
100
AcDbLine
 10
-331.2038357099282
 20
1023.4451082511
 30
0.0
 11
-331.2038357099282
 21
1018.4451082511
 31
0.0
  0
LINE
  5
A3A
330
207
100
AcDbEntity
  8
0
  6
Continuous
 62
     7
100
AcDbLine
 10
-331.2038357099282
 20
1000.4451082511
 30
0.0
 11
-331.2038357099282
 21
995.4451082510999
 31
0.0
  0
LINE
  5
A3B
330
207
100
AcDbEntity
  8
0
  6
Continuous
 62
     7
100
AcDbLine
 10
-331.2038357099282
 20
977.4451082510999
 30
0.0
 11
-331.2038357099282
 21
972.4451082511
 31
0.0
  0
LINE
  5
A3C
330
207
100
AcDbEntity
  8
0
  6
Continuous
 62
     7
100
AcDbLine
 10
-331.2038357099282
 20
954.4451082511001
 30
0.0
 11
-331.2038357099282
 21
949.4451082511
 31
0.0
  0
LINE
  5
A3D
330
207
100
AcDbEntity
  8
0
  6
Continuous
 62
     7
100
AcDbLine
 10
-331.2038357099282
 20
931.4451082511
 30
0.0
 11
-331.2038357099282
 21
926.4451082511
 31
0.0
  0
LINE
  5
A3E
330
207
100
AcDbEntity
  8
0
  6
Continuous
 62
     7
100
AcDbLine
 10
-331.2038357099282
 20
908.4451082511
 30
0.0
 11
-331.2038357099282
 21
903.4451082510999
 31
0.0
  0
LINE
  5
A3F
330
207
100
AcDbEntity
  8
0
  6
Continuous
 62
     7
100
AcDbLine
 10
-334.2183403502281
 20
1115.4451082511
 30
0.0
 11
-334.2183403502281
 21
1110.4451082511
 31
0.0
  0
LINE
  5
A40
330
207
100
AcDbEntity
  8
0
  6
Continuous
 62
     7
100
AcDbLine
 10
-334.2183403502281
 20
1092.4451082511
 30
0.0
 11
-334.2183403502281
 21
1087.4451082511
 31
0.0
  0
LINE
  5
A41
330
207
100
AcDbEntity
  8
0
  6
Continuous
 62
     7
100
AcDbLine
 10
-334.2183403502281
 20
1069.4451082511
 30
0.0
 11
-334.2183403502281
 21
1064.4451082511
 31
0.0
  0
LINE
  5
A42
330
207
100
AcDbEntity
  8
0
  6
Continuous
 62
     7
100
AcDbLine
 10
-334.2183403502281
 20
1046.4451082511
 30
0.0
 11
-334.2183403502281
 21
1041.4451082511
 31
0.0
  0
LINE
  5
A43
330
207
100
AcDbEntity
  8
0
  6
Continuous
 62
     7
100
AcDbLine
 10
-334.2183403502281
 20
1023.4451082511
 30
0.0
 11
-334.2183403502281
 21
1018.4451082511
 31
0.0
  0
LINE
  5
A44
330
207
100
AcDbEntity
  8
0
  6
Continuous
 62
     7
100
AcDbLine
 10
-334.2183403502281
 20
1000.4451082511
 30
0.0
 11
-334.2183403502281
 21
995.4451082510999
 31
0.0
  0
LINE
  5
A45
330
207
100
AcDbEntity
  8
0
  6
Continuous
 62
     7
100
AcDbLine
 10
-334.2183403502281
 20
977.4451082510999
 30
0.0
 11
-334.2183403502281
 21
972.4451082511
 31
0.0
  0
LINE
  5
A46
330
207
100
AcDbEntity
  8
0
  6
Continuous
 62
     7
100
AcDbLine
 10
-334.2183403502281
 20
954.4451082511001
 30
0.0
 11
-334.2183403502281
 21
949.4451082511
 31
0.0
  0
LINE
  5
A47
330
207
100
AcDbEntity
  8
0
  6
Continuous
 62
     7
100
AcDbLine
 10
-334.2183403502281
 20
931.4451082511
 30
0.0
 11
-334.2183403502281
 21
926.4451082511
 31
0.0
  0
LINE
  5
A48
330
207
100
AcDbEntity
  8
0
  6
Continuous
 62
     7
100
AcDbLine
 10
-334.2183403502281
 20
908.4451082511
 30
0.0
 11
-334.2183403502281
 21
903.4451082510999
 31
0.0
  0
LINE
  5
A49
330
207
100
AcDbEntity
  8
0
  6
Continuous
 62
     7
100
AcDbLine
 10
-336.7328578389281
 20
1128.9420862815
 30
0.0
 11
-641.7038228614281
 21
1129.5754498381
 31
0.0
  0
LINE
  5
A4A
330
207
100
AcDbEntity
  8
0
  6
Continuous
 62
     7
100
AcDbLine
 10
-340.6928345716283
 20
1151.9503103593
 30
0.0
 11
-637.7438461288281
 21
1152.5672257603
 31
0.0
  0
LINE
  5
A4B
330
207
100
AcDbEntity
  8
0
  6
Continuous
 62
     7
100
AcDbLine
 10
-336.7328578389281
 20
1131.9451082511
 30
0.0
 11
-641.7038228614281
 21
1131.9451082511
 31
0.0
  0
LINE
  5
A4C
330
207
100
AcDbEntity
  8
0
  6
Continuous
 62
     7
100
AcDbLine
 10
-641.4452786554281
 20
1141.9451082511
 30
0.0
 11
-336.9914020450283
 21
1141.9451082511
 31
0.0
  0
LINE
  5
A4D
330
207
100
AcDbEntity
  8
0
  6
Continuous
 62
     7
100
AcDbLine
 10
-340.6928345716283
 20
1154.9451082511
 30
0.0
 11
-637.7438461288281
 21
1154.9451082511
 31
0.0
  0
LINE
  5
A4E
330
207
100
AcDbEntity
  8
0
  6
Continuous
 62
     7
100
AcDbLine
 10
-641.4452786554281
 20
1144.3153036087
 30
0.0
 11
-336.9914020450283
 21
1144.9475932763
 31
0.0
  0
LINE
  5
A4F
330
207
100
AcDbEntity
  8
0
  6
Continuous
 62
     7
100
AcDbLine
 10
-310.036865306128
 20
1174.91062434
 30
0.0
 11
-108.3998153942282
 21
1174.3831238824
 31
0.0
  0
LINE
  5
A50
330
207
100
AcDbEntity
  8
0
  6
Continuous
 62
     7
100
AcDbLine
 10
-353.7700153114281
 20
1175.9774690421
 30
0.0
 11
-624.6666653890281
 21
1176.5400670775
 31
0.0
  0
LINE
  5
A51
330
207
100
AcDbEntity
  8
0
  6
Continuous
 62
     7
100
AcDbLine
 10
-386.8322124749282
 20
1200.0461325976
 30
0.0
 11
-591.6044682254282
 21
1200.471403522
 31
0.0
  0
LINE
  5
A52
330
207
100
AcDbEntity
  8
0
  6
Continuous
 62
     7
100
AcDbLine
 10
-635.8842318189281
 20
1164.9451082511
 30
0.0
 11
-342.5524488815281
 21
1164.9451082511
 31
0.0
  0
LINE
  5
A53
330
207
100
AcDbEntity
  8
0
  6
Continuous
 62
     7
100
AcDbLine
 10
-353.7700153114281
 20
1178.9451082511
 30
0.0
 11
-624.6666653890281
 21
1178.9451082511
 31
0.0
  0
LINE
  5
A54
330
207
100
AcDbEntity
  8
0
  6
Continuous
 62
     7
100
AcDbLine
 10
-310.036865306128
 20
1180.9451082511
 30
0.0
 11
-108.3998153942282
 21
1180.9451082511
 31
0.0
  0
LINE
  5
A55
330
207
100
AcDbEntity
  8
0
  6
Continuous
 62
     7
100
AcDbLine
 10
-620.2897234257282
 20
1188.9451082511
 30
0.0
 11
-358.1469572747283
 21
1188.9451082511
 31
0.0
  0
LINE
  5
A56
330
207
100
AcDbEntity
  8
0
  6
Continuous
 62
     7
100
AcDbLine
 10
-635.8842318189281
 20
1167.3268527881
 30
0.0
 11
-342.5524488815281
 21
1167.9360440969
 31
0.0
  0
LINE
  5
A57
330
207
100
AcDbEntity
  8
0
  6
Continuous
 62
     7
100
AcDbLine
 10
-620.2897234257282
 20
1191.3592394558
 30
0.0
 11
-358.1469572747283
 21
1191.9036574292
 31
0.0
  0
LINE
  5
A58
330
207
100
AcDbEntity
  8
0
  6
Continuous
 62
     7
100
AcDbLine
 10
-565.7183403502281
 20
1234.0795098208
 30
0.0
 11
-410.2004814549282
 21
1233.6726612691
 31
0.0
  0
LINE
  5
A59
330
207
100
AcDbEntity
  8
0
  6
Continuous
 62
     7
100
AcDbLine
 10
-8.236199245528041
 20
1232.6210869533
 30
0.0
 11
197.2816596497719
 21
1232.0834339542
 31
0.0
  0
LINE
  5
A5A
330
207
100
AcDbEntity
  8
0
  6
Continuous
 62
     7
100
AcDbLine
 10
-386.8322124749282
 20
1202.9451082511
 30
0.0
 11
-591.6044682254282
 21
1202.9451082511
 31
0.0
  0
LINE
  5
A5B
330
207
100
AcDbEntity
  8
0
  6
Continuous
 62
     7
100
AcDbLine
 10
-564.2183403502281
 20
1212.9451082511
 30
0.0
 11
-414.2183403502281
 21
1212.9451082511
 31
0.0
  0
LINE
  5
A5C
330
207
100
AcDbEntity
  8
0
  6
Continuous
 62
     7
100
AcDbLine
 10
-565.7183403502281
 20
1239.4451082511
 30
0.0
 11
-410.2004814549282
 21
1239.4451082511
 31
0.0
  0
LINE
  5
A5D
330
207
100
AcDbEntity
  8
0
  6
Continuous
 62
     7
100
AcDbLine
 10
-8.236199245528041
 20
1239.4451082511
 30
0.0
 11
197.2816596497719
 21
1239.4451082511
 31
0.0
  0
LINE
  5
A5E
330
207
100
AcDbEntity
  8
0
  6
Continuous
 62
     7
100
AcDbLine
 10
-564.2183403502281
 20
1215.4756884778
 30
0.0
 11
-414.2183403502281
 21
1215.7872084072
 31
0.0
  0
LINE
  5
A5F
102
{ACAD_REACTORS
330
EA9
102
}
330
207
100
AcDbEntity
  8
0
  6
Continuous
 62
     7
100
AcDbLine
 10
195.7816596497718
 20
1257.9451082511
 30
0.0
 11
-564.2183403502281
 21
1257.9451082511
 31
0.0
  0
LINE
  5
A60
330
207
100
AcDbEntity
  8
0
  6
Continuous
 62
     7
100
AcDbLine
 10
-644.2183403502281
 20
903.4451082510999
 30
0.0
 11
-644.2183403502281
 21
908.4451082511
 31
0.0
  0
LINE
  5
A61
330
207
100
AcDbEntity
  8
0
  6
Continuous
 62
     7
100
AcDbLine
 10
-644.2183403502281
 20
926.4451082511
 30
0.0
 11
-644.2183403502281
 21
931.4451082511
 31
0.0
  0
LINE
  5
A62
330
207
100
AcDbEntity
  8
0
  6
Continuous
 62
     7
100
AcDbLine
 10
-644.2183403502281
 20
949.4451082511
 30
0.0
 11
-644.2183403502281
 21
954.4451082511001
 31
0.0
  0
LINE
  5
A63
330
207
100
AcDbEntity
  8
0
  6
Continuous
 62
     7
100
AcDbLine
 10
-644.2183403502281
 20
972.4451082511
 30
0.0
 11
-644.2183403502281
 21
977.4451082510999
 31
0.0
  0
LINE
  5
A64
330
207
100
AcDbEntity
  8
0
  6
Continuous
 62
     7
100
AcDbLine
 10
-644.2183403502281
 20
995.4451082510999
 30
0.0
 11
-644.2183403502281
 21
1000.4451082511
 31
0.0
  0
LINE
  5
A65
330
207
100
AcDbEntity
  8
0
  6
Continuous
 62
     7
100
AcDbLine
 10
-644.2183403502281
 20
1018.4451082511
 30
0.0
 11
-644.2183403502281
 21
1023.4451082511
 31
0.0
  0
LINE
  5
A66
330
207
100
AcDbEntity
  8
0
  6
Continuous
 62
     7
100
AcDbLine
 10
-644.2183403502281
 20
1041.4451082511
 30
0.0
 11
-644.2183403502281
 21
1046.4451082511
 31
0.0
  0
LINE
  5
A67
330
207
100
AcDbEntity
  8
0
  6
Continuous
 62
     7
100
AcDbLine
 10
-644.2183403502281
 20
1064.4451082511
 30
0.0
 11
-644.2183403502281
 21
1069.4451082511
 31
0.0
  0
LINE
  5
A68
330
207
100
AcDbEntity
  8
0
  6
Continuous
 62
     7
100
AcDbLine
 10
-644.2183403502281
 20
1087.4451082511
 30
0.0
 11
-644.2183403502281
 21
1092.4451082511
 31
0.0
  0
LINE
  5
A69
330
207
100
AcDbEntity
  8
0
  6
Continuous
 62
     7
100
AcDbLine
 10
-644.2183403502281
 20
1110.4451082511
 30
0.0
 11
-644.2183403502281
 21
1115.4451082511
 31
0.0
  0
LINE
  5
A6A
330
207
100
AcDbEntity
  8
0
  6
Continuous
 62
     7
100
AcDbLine
 10
-646.5778763313283
 20
903.4451082510999
 30
0.0
 11
-646.5778763313283
 21
908.4451082511
 31
0.0
  0
LINE
  5
A6B
330
207
100
AcDbEntity
  8
0
  6
Continuous
 62
     7
100
AcDbLine
 10
-646.5778763313283
 20
926.4451082511
 30
0.0
 11
-646.5778763313283
 21
931.4451082511
 31
0.0
  0
LINE
  5
A6C
330
207
100
AcDbEntity
  8
0
  6
Continuous
 62
     7
100
AcDbLine
 10
-646.5778763313283
 20
949.4451082511
 30
0.0
 11
-646.5778763313283
 21
954.4451082511001
 31
0.0
  0
LINE
  5
A6D
330
207
100
AcDbEntity
  8
0
  6
Continuous
 62
     7
100
AcDbLine
 10
-646.5778763313283
 20
972.4451082511
 30
0.0
 11
-646.5778763313283
 21
977.4451082510999
 31
0.0
  0
LINE
  5
A6E
330
207
100
AcDbEntity
  8
0
  6
Continuous
 62
     7
100
AcDbLine
 10
-646.5778763313283
 20
995.4451082510999
 30
0.0
 11
-646.5778763313283
 21
1000.4451082511
 31
0.0
  0
LINE
  5
A6F
330
207
100
AcDbEntity
  8
0
  6
Continuous
 62
     7
100
AcDbLine
 10
-646.5778763313283
 20
1018.4451082511
 30
0.0
 11
-646.5778763313283
 21
1023.4451082511
 31
0.0
  0
LINE
  5
A70
330
207
100
AcDbEntity
  8
0
  6
Continuous
 62
     7
100
AcDbLine
 10
-646.5778763313283
 20
1041.4451082511
 30
0.0
 11
-646.5778763313283
 21
1046.4451082511
 31
0.0
  0
LINE
  5
A71
330
207
100
AcDbEntity
  8
0
  6
Continuous
 62
     7
100
AcDbLine
 10
-646.5778763313283
 20
1064.4451082511
 30
0.0
 11
-646.5778763313283
 21
1069.4451082511
 31
0.0
  0
LINE
  5
A72
330
207
100
AcDbEntity
  8
0
  6
Continuous
 62
     7
100
AcDbLine
 10
-646.5778763313283
 20
1087.4451082511
 30
0.0
 11
-646.5778763313283
 21
1092.4451082511
 31
0.0
  0
LINE
  5
A73
330
207
100
AcDbEntity
  8
0
  6
Continuous
 62
     7
100
AcDbLine
 10
-646.5778763313283
 20
1110.4451082511
 30
0.0
 11
-646.5778763313283
 21
1115.4451082511
 31
0.0
  0
LINE
  5
A74
330
207
100
AcDbEntity
  8
0
  6
Continuous
 62
     7
100
AcDbLine
 10
-665.6140780551279
 20
884.4451082511
 30
0.0
 11
-665.6140780551279
 21
1134.4451082511
 31
0.0
  0
LINE
  5
A75
330
207
100
AcDbEntity
  8
0
  6
Continuous
 62
     7
100
AcDbLine
 10
-670.7183403502281
 20
884.4451082511
 30
0.0
 11
-670.7183403502281
 21
1134.4451082511
 31
0.0
  0
LINE
  5
A76
330
207
100
AcDbEntity
  8
0
  6
Continuous
 62
     7
100
AcDbLine
 10
-689.2183403502281
 20
1132.9451082511
 30
0.0
 11
-689.2183403502281
 21
885.9451082511
 31
0.0
  0
ARC
  5
BEE
330
207
100
AcDbEntity
  8
0
  6
Continuous
 62
     7
100
AcDbCircle
 10
199.6587008123718
 20
1527.929596966104
 30
0.0
 40
70.8
100
AcDbArc
 50
270.0
 51
357.0000000000009
  0
ARC
  5
BEF
330
207
100
AcDbEntity
  8
0
  6
Continuous
 62
     7
100
AcDbCircle
 10
-3.095381512828225
 20
1527.929596966104
 30
0.0
 40
70.8
100
AcDbArc
 50
182.9999999999991
 51
270.0
  0
ARC
  5
BF0
330
207
100
AcDbEntity
  8
0
  6
Continuous
 62
     7
100
AcDbCircle
 10
-150.2864053477281
 20
1527.929596966104
 30
0.0
 40
30.8
100
AcDbArc
 50
270.0
 51
357.0000000000009
  0
ARC
  5
BF1
330
207
100
AcDbEntity
  8
0
  6
Continuous
 62
     7
100
AcDbCircle
 10
176.4167429187719
 20
1642.929596966103
 30
0.0
 40
20.0
100
AcDbArc
 50
270.0
 51
345.5224878140954
  0
ARC
  5
BF2
102
{ACAD_REACTORS
330
EAF
102
}
330
207
100
AcDbEntity
  8
0
  6
Continuous
 62
     7
100
AcDbCircle
 10
318.7816596497719
 20
1640.929596966104
 30
0.0
 40
2.0
100
AcDbArc
 50
270.0
 51
90.0
  0
ARC
  5
BF3
330
207
100
AcDbEntity
  8
0
  6
Continuous
 62
     7
100
AcDbCircle
 10
-81.11241242232813
 20
1631.308696159203
 30
0.0
 40
1.699991984299999
100
AcDbArc
 50
3.000628346100767
 51
60.8696175039989
  0
ARC
  5
BF4
330
207
100
AcDbEntity
  8
0
  6
Continuous
 62
     7
100
AcDbCircle
 10
277.6081069851719
 20
1630.018334578604
 30
0.0
 40
1.699991978199999
100
AcDbArc
 50
118.8556106363019
 51
176.9994529838973
  0
ARC
  5
BF5
330
207
100
AcDbEntity
  8
0
  6
Continuous
 62
     7
100
AcDbCircle
 10
306.2816596497719
 20
1638.429596966104
 30
0.0
 40
1.3
100
AcDbArc
 50
90.0
 51
180.0
  0
ARC
  5
BF6
330
207
100
AcDbEntity
  8
0
  6
Continuous
 62
     7
100
AcDbCircle
 10
318.7816596497719
 20
1640.929596966104
 30
0.0
 40
1.199999999999999
100
AcDbArc
 50
270.0
 51
0.0
  0
ARC
  5
BF7
330
207
100
AcDbEntity
  8
0
  6
Continuous
 62
     7
100
AcDbCircle
 10
306.2816596497719
 20
1638.429596966104
 30
0.0
 40
0.5
100
AcDbArc
 50
90.0
 51
180.0
  0
ARC
  5
BF8
330
207
100
AcDbEntity
  8
0
  6
Continuous
 62
     7
100
AcDbCircle
 10
-278.1502753527282
 20
1527.929596966104
 30
0.0
 40
30.8
100
AcDbArc
 50
182.9999999999991
 51
270.0
  0
ARC
  5
BF9
330
207
100
AcDbEntity
  8
0
  6
Continuous
 62
     7
100
AcDbCircle
 10
-544.8534236191282
 20
1642.929596966103
 30
0.0
 40
20.0
100
AcDbArc
 50
194.4775121859046
 51
270.0
  0
ARC
  5
BFA
102
{ACAD_REACTORS
330
EB2
102
}
330
207
100
AcDbEntity
  8
0
  6
Continuous
 62
     7
100
AcDbCircle
 10
-687.2183403502281
 20
1640.929596966104
 30
0.0
 40
2.0
100
AcDbArc
 50
90.0
 51
270.0
  0
ARC
  5
BFB
330
207
100
AcDbEntity
  8
0
  6
Continuous
 62
     7
100
AcDbCircle
 10
-674.7183403502281
 20
1638.429596966104
 30
0.0
 40
1.3
100
AcDbArc
 50
0.0
 51
90.0
  0
ARC
  5
BFC
330
207
100
AcDbEntity
  8
0
  6
Continuous
 62
     7
100
AcDbCircle
 10
-687.2183403502281
 20
1640.929596966104
 30
0.0
 40
1.199999999999999
100
AcDbArc
 50
180.0
 51
270.0
  0
ARC
  5
BFD
330
207
100
AcDbEntity
  8
0
  6
Continuous
 62
     7
100
AcDbCircle
 10
-674.7183403502281
 20
1638.429596966104
 30
0.0
 40
0.5
100
AcDbArc
 50
0.0
 51
90.0
  0
ARC
  5
BFE
102
{ACAD_REACTORS
330
E94
330
E97
102
}
330
207
100
AcDbEntity
  8
0
  6
Continuous
 62
     7
100
AcDbCircle
 10
195.7816596497718
 20
885.9451082511
 30
0.0
 40
125.0
100
AcDbArc
 50
270.0
 51
0.000000000000007
  0
ARC
  5
BFF
330
207
100
AcDbEntity
  8
0
  6
Continuous
 62
     7
100
AcDbCircle
 10
197.2816596497719
 20
884.4451082511
 30
0.0
 40
105.0
100
AcDbArc
 50
270.0
 51
0.000000000000007
  0
ARC
  5
C00
330
207
100
AcDbEntity
  8
0
  6
Continuous
 62
     7
100
AcDbCircle
 10
-8.236199245528041
 20
879.4451082511001
 30
0.0
 40
100.0
100
AcDbArc
 50
209.4263486784007
 51
270.0
  0
CIRCLE
  5
C01
330
207
100
AcDbEntity
  8
0
  6
Continuous
 62
     7
100
AcDbCircle
 10
-214.2183403502281
 20
1009.4451082511
 30
0.0
 40
60.0
  0
CIRCLE
  5
C02
330
207
100
AcDbEntity
  8
0
  6
Continuous
 62
     7
100
AcDbCircle
 10
98.28165964977188
 20
1009.4451082511
 30
0.0
 40
60.0
  0
CIRCLE
  5
C03
330
207
100
AcDbEntity
  8
0
  6
Continuous
 62
     7
100
AcDbCircle
 10
-214.2183403502281
 20
1009.4451082511
 30
0.0
 40
55.0
  0
CIRCLE
  5
C04
330
207
100
AcDbEntity
  8
0
  6
Continuous
 62
     7
100
AcDbCircle
 10
98.28165964977188
 20
1009.4451082511
 30
0.0
 40
55.0
  0
CIRCLE
  5
C05
102
{ACAD_REACTORS
330
101E
102
}
330
207
100
AcDbEntity
  8
0
  6
Continuous
 62
     7
100
AcDbCircle
 10
-214.2183403502281
 20
1009.4451082511
 30
0.0
 40
45.0
  0
CIRCLE
  5
C06
102
{ACAD_REACTORS
330
1006
102
}
330
207
100
AcDbEntity
  8
0
  6
Continuous
 62
     7
100
AcDbCircle
 10
98.28165964977188
 20
1009.4451082511
 30
0.0
 40
45.0
  0
ARC
  5
C07
330
207
100
AcDbEntity
  8
0
  6
Continuous
 62
     7
100
AcDbCircle
 10
-108.3998153942282
 20
822.9451082510999
 30
0.0
 40
15.0
100
AcDbArc
 50
29.4263486784007
 51
90.0
  0
ARC
  5
C08
102
{ACAD_REACTORS
330
E94
330
EAC
102
}
330
207
100
AcDbEntity
  8
0
  6
Continuous
 62
     7
100
AcDbCircle
 10
195.7816596497718
 20
1132.9451082511
 30
0.0
 40
125.0
100
AcDbArc
 50
0.000000000000007
 51
90.0
  0
ARC
  5
C09
330
207
100
AcDbEntity
  8
0
  6
Continuous
 62
     7
100
AcDbCircle
 10
197.2816596497719
 20
1134.4451082511
 30
0.0
 40
105.0
100
AcDbArc
 50
0.000000000000007
 51
90.0
  0
ARC
  5
C0A
330
207
100
AcDbEntity
  8
0
  6
Continuous
 62
     7
100
AcDbCircle
 10
-8.236199245528041
 20
1139.4451082511
 30
0.0
 40
100.0
100
AcDbArc
 50
90.0
 51
150.5736513215993
  0
CIRCLE
  5
C0B
102
{ACAD_REACTORS
330
EA6
102
}
330
207
100
AcDbEntity
  8
02___PRT_ALL_AXES
  6
Continuous
 62
     7
100
AcDbCircle
 10
-116.7183403502281
 20
1214.4451082511
 30
0.0
 40
17.5
  0
ARC
  5
C0C
330
207
100
AcDbEntity
  8
0
  6
Continuous
 62
     7
100
AcDbCircle
 10
-108.3998153942282
 20
1195.9451082511
 30
0.0
 40
15.0
100
AcDbArc
 50
270.0
 51
330.5736513215993
  0
ARC
  5
C0D
330
207
100
AcDbEntity
  8
0
  6
Continuous
 62
     7
100
AcDbCircle
 10
-410.2004814549282
 20
879.4451082511001
 30
0.0
 40
100.0
100
AcDbArc
 50
270.0
 51
330.5736513215993
  0
ARC
  5
C0E
330
207
100
AcDbEntity
  8
0
  6
Continuous
 62
     7
100
AcDbCircle
 10
-414.2183403502281
 20
885.9451082511
 30
0.0
 40
80.0
100
AcDbArc
 50
316.3443506530985
 51
321.258596633701
  0
ARC
  5
C0F
330
207
100
AcDbEntity
  8
0
  6
Continuous
 62
     7
100
AcDbCircle
 10
-414.2183403502281
 20
885.9451082511
 30
0.0
 40
80.0
100
AcDbArc
 50
270.0
 51
290.6935412311944
  0
ARC
  5
C10
330
207
100
AcDbEntity
  8
0
  6
Continuous
 62
     7
100
AcDbCircle
 10
-414.2183403502281
 20
885.9451082511
 30
0.0
 40
80.0
100
AcDbArc
 50
337.6263488452997
 51
341.5710141043982
  0
ARC
  5
C11
330
207
100
AcDbEntity
  8
0
  6
Continuous
 62
     7
100
AcDbCircle
 10
-414.2183403502281
 20
885.9451082511
 30
0.0
 40
80.0
100
AcDbArc
 50
355.1888957521005
 51
358.8909801798001
  0
ARC
  5
C12
330
207
100
AcDbEntity
  8
0
  6
Continuous
 62
     7
100
AcDbCircle
 10
-310.036865306128
 20
822.9451082510999
 30
0.0
 40
15.0
100
AcDbArc
 50
90.0
 51
150.5736513215993
  0
ARC
  5
C13
330
207
100
AcDbEntity
  8
0
  6
Continuous
 62
     7
100
AcDbCircle
 10
-358.1469572747283
 20
832.4451082511
 30
0.0
 40
2.5
100
AcDbArc
 50
270.0
 51
316.3443506530985
  0
ARC
  5
C14
330
207
100
AcDbEntity
  8
0
  6
Continuous
 62
     7
100
AcDbCircle
 10
-353.7700153114281
 20
837.4451082510999
 30
0.0
 40
2.5
100
AcDbArc
 50
321.258596633701
 51
90.0
  0
ARC
  5
C15
330
207
100
AcDbEntity
  8
0
  6
Continuous
 62
     7
100
AcDbCircle
 10
-386.8322124749282
 20
813.4451082511001
 30
0.0
 40
2.5
100
AcDbArc
 50
290.6935412311944
 51
90.0
  0
ARC
  5
C16
330
207
100
AcDbEntity
  8
0
  6
Continuous
 62
     7
100
AcDbCircle
 10
-340.6928345716283
 20
861.4451082510999
 30
0.0
 40
2.5
100
AcDbArc
 50
341.5710141043982
 51
90.0
  0
ARC
  5
C17
330
207
100
AcDbEntity
  8
0
  6
Continuous
 62
     7
100
AcDbCircle
 10
-342.5524488815281
 20
856.4451082511
 30
0.0
 40
2.5
100
AcDbArc
 50
270.0
 51
337.6263488452997
  0
ARC
  5
C18
330
207
100
AcDbEntity
  8
0
  6
Continuous
 62
     7
100
AcDbCircle
 10
-336.9914020450283
 20
879.4451082511001
 30
0.0
 40
2.5
100
AcDbArc
 50
270.0
 51
355.1888957521005
  0
ARC
  5
C19
330
207
100
AcDbEntity
  8
0
  6
Continuous
 62
     7
100
AcDbCircle
 10
-336.7328578389281
 20
884.4451082511
 30
0.0
 40
2.5
100
AcDbArc
 50
358.8909801798001
 51
90.0
  0
ARC
  5
C1A
330
207
100
AcDbEntity
  8
0
  6
Continuous
 62
     7
100
AcDbCircle
 10
-336.7183403502281
 20
903.4451082510999
 30
0.0
 40
2.5
100
AcDbArc
 50
270.0
 51
0.000000000000007
  0
ARC
  5
C1B
330
207
100
AcDbEntity
  8
0
  6
Continuous
 62
     7
100
AcDbCircle
 10
-336.7183403502281
 20
908.4451082511
 30
0.0
 40
2.5
100
AcDbArc
 50
0.000000000000007
 51
90.0
  0
ARC
  5
C1C
330
207
100
AcDbEntity
  8
0
  6
Continuous
 62
     7
100
AcDbCircle
 10
-336.7183403502281
 20
931.4451082511
 30
0.0
 40
2.5
100
AcDbArc
 50
0.000000000000007
 51
90.0
  0
ARC
  5
C1D
330
207
100
AcDbEntity
  8
0
  6
Continuous
 62
     7
100
AcDbCircle
 10
-336.7183403502281
 20
926.4451082511
 30
0.0
 40
2.5
100
AcDbArc
 50
270.0
 51
0.000000000000007
  0
ARC
  5
C1E
330
207
100
AcDbEntity
  8
0
  6
Continuous
 62
     7
100
AcDbCircle
 10
-336.7183403502281
 20
954.4451082511001
 30
0.0
 40
2.5
100
AcDbArc
 50
0.000000000000007
 51
90.0
  0
ARC
  5
C1F
330
207
100
AcDbEntity
  8
0
  6
Continuous
 62
     7
100
AcDbCircle
 10
-336.7183403502281
 20
949.4451082511
 30
0.0
 40
2.5
100
AcDbArc
 50
270.0
 51
0.000000000000007
  0
ARC
  5
C20
330
207
100
AcDbEntity
  8
0
  6
Continuous
 62
     7
100
AcDbCircle
 10
-336.7183403502281
 20
977.4451082510999
 30
0.0
 40
2.5
100
AcDbArc
 50
0.000000000000007
 51
90.0
  0
ARC
  5
C21
330
207
100
AcDbEntity
  8
0
  6
Continuous
 62
     7
100
AcDbCircle
 10
-336.7183403502281
 20
972.4451082511
 30
0.0
 40
2.5
100
AcDbArc
 50
270.0
 51
0.000000000000007
  0
ARC
  5
C22
330
207
100
AcDbEntity
  8
0
  6
Continuous
 62
     7
100
AcDbCircle
 10
-336.7183403502281
 20
1000.4451082511
 30
0.0
 40
2.5
100
AcDbArc
 50
0.000000000000007
 51
90.0
  0
ARC
  5
C23
330
207
100
AcDbEntity
  8
0
  6
Continuous
 62
     7
100
AcDbCircle
 10
-336.7183403502281
 20
995.4451082510999
 30
0.0
 40
2.5
100
AcDbArc
 50
270.0
 51
0.000000000000007
  0
ARC
  5
C24
102
{ACAD_REACTORS
330
E97
102
}
330
207
100
AcDbEntity
  8
0
  6
Continuous
 62
     7
100
AcDbCircle
 10
-564.2183403502281
 20
885.9451082511
 30
0.0
 40
125.0
100
AcDbArc
 50
180.0
 51
270.0
  0
ARC
  5
C25
330
207
100
AcDbEntity
  8
0
  6
Continuous
 62
     7
100
AcDbCircle
 10
-565.7183403502281
 20
884.4451082511
 30
0.0
 40
105.0
100
AcDbArc
 50
180.0
 51
270.0
  0
ARC
  5
C26
330
207
100
AcDbEntity
  8
0
  6
Continuous
 62
     7
100
AcDbCircle
 10
-564.2183403502281
 20
885.9451082511
 30
0.0
 40
80.0
100
AcDbArc
 50
218.7414033662991
 51
223.6556493469014
  0
ARC
  5
C27
330
207
100
AcDbEntity
  8
0
  6
Continuous
 62
     7
100
AcDbCircle
 10
-564.2183403502281
 20
885.9451082511
 30
0.0
 40
80.0
100
AcDbArc
 50
249.3064587688056
 51
270.0
  0
ARC
  5
C28
330
207
100
AcDbEntity
  8
0
  6
Continuous
 62
     7
100
AcDbCircle
 10
-564.2183403502281
 20
885.9451082511
 30
0.0
 40
80.0
100
AcDbArc
 50
198.4289858956018
 51
202.3736511547003
  0
ARC
  5
C29
330
207
100
AcDbEntity
  8
0
  6
Continuous
 62
     7
100
AcDbCircle
 10
-564.2183403502281
 20
885.9451082511
 30
0.0
 40
80.0
100
AcDbArc
 50
181.1090198201999
 51
184.8111042478995
  0
ARC
  5
C2A
330
207
100
AcDbEntity
  8
0
  6
Continuous
 62
     7
100
AcDbCircle
 10
-624.6666653890281
 20
837.4451082510999
 30
0.0
 40
2.5
100
AcDbArc
 50
90.0
 51
218.7414033662991
  0
ARC
  5
C2B
330
207
100
AcDbEntity
  8
0
  6
Continuous
 62
     7
100
AcDbCircle
 10
-620.2897234257282
 20
832.4451082511
 30
0.0
 40
2.5
100
AcDbArc
 50
223.6556493469014
 51
270.0
  0
ARC
  5
C2C
330
207
100
AcDbEntity
  8
0
  6
Continuous
 62
     7
100
AcDbCircle
 10
-591.6044682254282
 20
813.4451082511001
 30
0.0
 40
2.5
100
AcDbArc
 50
90.0
 51
249.3064587688056
  0
ARC
  5
C2D
330
207
100
AcDbEntity
  8
0
  6
Continuous
 62
     7
100
AcDbCircle
 10
-637.7438461288281
 20
861.4451082510999
 30
0.0
 40
2.5
100
AcDbArc
 50
90.0
 51
198.4289858956018
  0
ARC
  5
C2E
330
207
100
AcDbEntity
  8
0
  6
Continuous
 62
     7
100
AcDbCircle
 10
-635.8842318189281
 20
856.4451082511
 30
0.0
 40
2.5
100
AcDbArc
 50
202.3736511547003
 51
270.0
  0
ARC
  5
C2F
330
207
100
AcDbEntity
  8
0
  6
Continuous
 62
     7
100
AcDbCircle
 10
-641.7038228614281
 20
884.4451082511
 30
0.0
 40
2.5
100
AcDbArc
 50
90.0
 51
181.1090198201999
  0
ARC
  5
C30
330
207
100
AcDbEntity
  8
0
  6
Continuous
 62
     7
100
AcDbCircle
 10
-641.4452786554281
 20
879.4451082511001
 30
0.0
 40
2.5
100
AcDbArc
 50
184.8111042478995
 51
270.0
  0
ARC
  5
C31
330
207
100
AcDbEntity
  8
0
  6
Continuous
 62
     7
100
AcDbCircle
 10
-641.7183403502281
 20
903.4451082510999
 30
0.0
 40
2.5
100
AcDbArc
 50
180.0
 51
270.0
  0
ARC
  5
C32
330
207
100
AcDbEntity
  8
0
  6
Continuous
 62
     7
100
AcDbCircle
 10
-641.7183403502281
 20
908.4451082511
 30
0.0
 40
2.5
100
AcDbArc
 50
90.0
 51
180.0
  0
ARC
  5
C33
330
207
100
AcDbEntity
  8
0
  6
Continuous
 62
     7
100
AcDbCircle
 10
-641.7183403502281
 20
931.4451082511
 30
0.0
 40
2.5
100
AcDbArc
 50
90.0
 51
180.0
  0
ARC
  5
C34
330
207
100
AcDbEntity
  8
0
  6
Continuous
 62
     7
100
AcDbCircle
 10
-641.7183403502281
 20
926.4451082511
 30
0.0
 40
2.5
100
AcDbArc
 50
180.0
 51
270.0
  0
ARC
  5
C35
330
207
100
AcDbEntity
  8
0
  6
Continuous
 62
     7
100
AcDbCircle
 10
-641.7183403502281
 20
954.4451082511001
 30
0.0
 40
2.5
100
AcDbArc
 50
90.0
 51
180.0
  0
ARC
  5
C36
330
207
100
AcDbEntity
  8
0
  6
Continuous
 62
     7
100
AcDbCircle
 10
-641.7183403502281
 20
949.4451082511
 30
0.0
 40
2.5
100
AcDbArc
 50
180.0
 51
270.0
  0
ARC
  5
C37
330
207
100
AcDbEntity
  8
0
  6
Continuous
 62
     7
100
AcDbCircle
 10
-641.7183403502281
 20
977.4451082510999
 30
0.0
 40
2.5
100
AcDbArc
 50
90.0
 51
180.0
  0
ARC
  5
C38
330
207
100
AcDbEntity
  8
0
  6
Continuous
 62
     7
100
AcDbCircle
 10
-641.7183403502281
 20
972.4451082511
 30
0.0
 40
2.5
100
AcDbArc
 50
180.0
 51
270.0
  0
ARC
  5
C39
330
207
100
AcDbEntity
  8
0
  6
Continuous
 62
     7
100
AcDbCircle
 10
-641.7183403502281
 20
1000.4451082511
 30
0.0
 40
2.5
100
AcDbArc
 50
90.0
 51
180.0
  0
ARC
  5
C3A
330
207
100
AcDbEntity
  8
0
  6
Continuous
 62
     7
100
AcDbCircle
 10
-641.7183403502281
 20
995.4451082510999
 30
0.0
 40
2.5
100
AcDbArc
 50
180.0
 51
270.0
  0
ARC
  5
C3B
330
207
100
AcDbEntity
  8
0
  6
Continuous
 62
     7
100
AcDbCircle
 10
-336.7183403502281
 20
1023.4451082511
 30
0.0
 40
2.5
100
AcDbArc
 50
0.000000000000007
 51
90.0
  0
ARC
  5
C3C
330
207
100
AcDbEntity
  8
0
  6
Continuous
 62
     7
100
AcDbCircle
 10
-336.7183403502281
 20
1018.4451082511
 30
0.0
 40
2.5
100
AcDbArc
 50
270.0
 51
0.000000000000007
  0
ARC
  5
C3D
330
207
100
AcDbEntity
  8
0
  6
Continuous
 62
     7
100
AcDbCircle
 10
-336.7183403502281
 20
1046.4451082511
 30
0.0
 40
2.5
100
AcDbArc
 50
0.000000000000007
 51
90.0
  0
ARC
  5
C3E
330
207
100
AcDbEntity
  8
0
  6
Continuous
 62
     7
100
AcDbCircle
 10
-336.7183403502281
 20
1041.4451082511
 30
0.0
 40
2.5
100
AcDbArc
 50
270.0
 51
0.000000000000007
  0
ARC
  5
C3F
330
207
100
AcDbEntity
  8
0
  6
Continuous
 62
     7
100
AcDbCircle
 10
-336.7183403502281
 20
1069.4451082511
 30
0.0
 40
2.5
100
AcDbArc
 50
0.000000000000007
 51
90.0
  0
ARC
  5
C40
330
207
100
AcDbEntity
  8
0
  6
Continuous
 62
     7
100
AcDbCircle
 10
-336.7183403502281
 20
1064.4451082511
 30
0.0
 40
2.5
100
AcDbArc
 50
270.0
 51
0.000000000000007
  0
ARC
  5
C41
330
207
100
AcDbEntity
  8
0
  6
Continuous
 62
     7
100
AcDbCircle
 10
-336.7183403502281
 20
1092.4451082511
 30
0.0
 40
2.5
100
AcDbArc
 50
0.000000000000007
 51
90.0
  0
ARC
  5
C42
330
207
100
AcDbEntity
  8
0
  6
Continuous
 62
     7
100
AcDbCircle
 10
-336.7183403502281
 20
1087.4451082511
 30
0.0
 40
2.5
100
AcDbArc
 50
270.0
 51
0.000000000000007
  0
ARC
  5
C43
330
207
100
AcDbEntity
  8
0
  6
Continuous
 62
     7
100
AcDbCircle
 10
-336.7183403502281
 20
1110.4451082511
 30
0.0
 40
2.5
100
AcDbArc
 50
270.0
 51
0.000000000000007
  0
ARC
  5
C44
330
207
100
AcDbEntity
  8
0
  6
Continuous
 62
     7
100
AcDbCircle
 10
-410.2004814549282
 20
1139.4451082511
 30
0.0
 40
100.0
100
AcDbArc
 50
29.4263486784007
 51
90.0
  0
ARC
  5
C45
330
207
100
AcDbEntity
  8
0
  6
Continuous
 62
     7
100
AcDbCircle
 10
-414.2183403502281
 20
1132.9451082511
 30
0.0
 40
80.0
100
AcDbArc
 50
69.30645876880564
 51
90.0
  0
ARC
  5
C46
330
207
100
AcDbEntity
  8
0
  6
Continuous
 62
     7
100
AcDbCircle
 10
-414.2183403502281
 20
1132.9451082511
 30
0.0
 40
80.0
100
AcDbArc
 50
38.74140336629903
 51
43.65564934690147
  0
ARC
  5
C47
330
207
100
AcDbEntity
  8
0
  6
Continuous
 62
     7
100
AcDbCircle
 10
-414.2183403502281
 20
1132.9451082511
 30
0.0
 40
80.0
100
AcDbArc
 50
18.42898589560176
 51
22.37365115470033
  0
ARC
  5
C48
330
207
100
AcDbEntity
  8
0
  6
Continuous
 62
     7
100
AcDbCircle
 10
-414.2183403502281
 20
1132.9451082511
 30
0.0
 40
80.0
100
AcDbArc
 50
1.109019820199942
 51
4.811104247899555
  0
ARC
  5
C49
330
207
100
AcDbEntity
  8
0
  6
Continuous
 62
     7
100
AcDbCircle
 10
-310.036865306128
 20
1195.9451082511
 30
0.0
 40
15.0
100
AcDbArc
 50
209.4263486784007
 51
270.0
  0
ARC
  5
C4A
330
207
100
AcDbEntity
  8
0
  6
Continuous
 62
     7
100
AcDbCircle
 10
-386.8322124749282
 20
1205.4451082511
 30
0.0
 40
2.5
100
AcDbArc
 50
270.0
 51
69.30645876880564
  0
ARC
  5
C4B
330
207
100
AcDbEntity
  8
0
  6
Continuous
 62
     7
100
AcDbCircle
 10
-358.1469572747283
 20
1186.4451082511
 30
0.0
 40
2.5
100
AcDbArc
 50
43.65564934690147
 51
90.0
  0
ARC
  5
C4C
330
207
100
AcDbEntity
  8
0
  6
Continuous
 62
     7
100
AcDbCircle
 10
-353.7700153114281
 20
1181.4451082511
 30
0.0
 40
2.5
100
AcDbArc
 50
270.0
 51
38.74140336629903
  0
ARC
  5
C4D
330
207
100
AcDbEntity
  8
0
  6
Continuous
 62
     7
100
AcDbCircle
 10
-340.6928345716283
 20
1157.4451082511
 30
0.0
 40
2.5
100
AcDbArc
 50
270.0
 51
18.42898589560176
  0
ARC
  5
C4E
330
207
100
AcDbEntity
  8
0
  6
Continuous
 62
     7
100
AcDbCircle
 10
-342.5524488815281
 20
1162.4451082511
 30
0.0
 40
2.5
100
AcDbArc
 50
22.37365115470033
 51
90.0
  0
ARC
  5
C4F
330
207
100
AcDbEntity
  8
0
  6
Continuous
 62
     7
100
AcDbCircle
 10
-336.9914020450283
 20
1139.4451082511
 30
0.0
 40
2.5
100
AcDbArc
 50
4.811104247899555
 51
90.0
  0
ARC
  5
C50
330
207
100
AcDbEntity
  8
0
  6
Continuous
 62
     7
100
AcDbCircle
 10
-336.7328578389281
 20
1134.4451082511
 30
0.0
 40
2.5
100
AcDbArc
 50
270.0
 51
1.109019820199942
  0
ARC
  5
C51
330
207
100
AcDbEntity
  8
0
  6
Continuous
 62
     7
100
AcDbCircle
 10
-336.7183403502281
 20
1115.4451082511
 30
0.0
 40
2.5
100
AcDbArc
 50
0.000000000000007
 51
90.0
  0
ARC
  5
C52
330
207
100
AcDbEntity
  8
0
  6
Continuous
 62
     7
100
AcDbCircle
 10
-641.7183403502281
 20
1023.4451082511
 30
0.0
 40
2.5
100
AcDbArc
 50
90.0
 51
180.0
  0
ARC
  5
C53
330
207
100
AcDbEntity
  8
0
  6
Continuous
 62
     7
100
AcDbCircle
 10
-641.7183403502281
 20
1018.4451082511
 30
0.0
 40
2.5
100
AcDbArc
 50
180.0
 51
270.0
  0
ARC
  5
C54
330
207
100
AcDbEntity
  8
0
  6
Continuous
 62
     7
100
AcDbCircle
 10
-641.7183403502281
 20
1046.4451082511
 30
0.0
 40
2.5
100
AcDbArc
 50
90.0
 51
180.0
  0
ARC
  5
C55
330
207
100
AcDbEntity
  8
0
  6
Continuous
 62
     7
100
AcDbCircle
 10
-641.7183403502281
 20
1041.4451082511
 30
0.0
 40
2.5
100
AcDbArc
 50
180.0
 51
270.0
  0
ARC
  5
C56
330
207
100
AcDbEntity
  8
0
  6
Continuous
 62
     7
100
AcDbCircle
 10
-641.7183403502281
 20
1069.4451082511
 30
0.0
 40
2.5
100
AcDbArc
 50
90.0
 51
180.0
  0
ARC
  5
C57
330
207
100
AcDbEntity
  8
0
  6
Continuous
 62
     7
100
AcDbCircle
 10
-641.7183403502281
 20
1064.4451082511
 30
0.0
 40
2.5
100
AcDbArc
 50
180.0
 51
270.0
  0
ARC
  5
C58
330
207
100
AcDbEntity
  8
0
  6
Continuous
 62
     7
100
AcDbCircle
 10
-641.7183403502281
 20
1092.4451082511
 30
0.0
 40
2.5
100
AcDbArc
 50
90.0
 51
180.0
  0
ARC
  5
C59
330
207
100
AcDbEntity
  8
0
  6
Continuous
 62
     7
100
AcDbCircle
 10
-641.7183403502281
 20
1087.4451082511
 30
0.0
 40
2.5
100
AcDbArc
 50
180.0
 51
270.0
  0
ARC
  5
C5A
330
207
100
AcDbEntity
  8
0
  6
Continuous
 62
     7
100
AcDbCircle
 10
-641.7183403502281
 20
1110.4451082511
 30
0.0
 40
2.5
100
AcDbArc
 50
180.0
 51
270.0
  0
ARC
  5
C5B
330
207
100
AcDbEntity
  8
0
  6
Continuous
 62
     7
100
AcDbCircle
 10
-564.2183403502281
 20
1132.9451082511
 30
0.0
 40
125.0
100
AcDbArc
 50
90.0
 51
180.0
  0
ARC
  5
C5C
330
207
100
AcDbEntity
  8
0
  6
Continuous
 62
     7
100
AcDbCircle
 10
-565.7183403502281
 20
1134.4451082511
 30
0.0
 40
105.0
100
AcDbArc
 50
90.0
 51
180.0
  0
ARC
  5
C5D
330
207
100
AcDbEntity
  8
0
  6
Continuous
 62
     7
100
AcDbCircle
 10
-564.2183403502281
 20
1132.9451082511
 30
0.0
 40
80.0
100
AcDbArc
 50
90.0
 51
110.6935412311943
  0
ARC
  5
C5E
330
207
100
AcDbEntity
  8
0
  6
Continuous
 62
     7
100
AcDbCircle
 10
-564.2183403502281
 20
1132.9451082511
 30
0.0
 40
80.0
100
AcDbArc
 50
136.3443506530985
 51
141.258596633701
  0
ARC
  5
C5F
330
207
100
AcDbEntity
  8
0
  6
Continuous
 62
     7
100
AcDbCircle
 10
-564.2183403502281
 20
1132.9451082511
 30
0.0
 40
80.0
100
AcDbArc
 50
157.6263488452996
 51
161.5710141043982
  0
ARC
  5
C60
330
207
100
AcDbEntity
  8
0
  6
Continuous
 62
     7
100
AcDbCircle
 10
-564.2183403502281
 20
1132.9451082511
 30
0.0
 40
80.0
100
AcDbArc
 50
175.1888957521004
 51
178.8909801798001
  0
ARC
  5
C61
330
207
100
AcDbEntity
  8
0
  6
Continuous
 62
     7
100
AcDbCircle
 10
-591.6044682254282
 20
1205.4451082511
 30
0.0
 40
2.5
100
AcDbArc
 50
110.6935412311943
 51
270.0
  0
ARC
  5
C62
330
207
100
AcDbEntity
  8
0
  6
Continuous
 62
     7
100
AcDbCircle
 10
-620.2897234257282
 20
1186.4451082511
 30
0.0
 40
2.5
100
AcDbArc
 50
90.0
 51
136.3443506530985
  0
ARC
  5
C63
330
207
100
AcDbEntity
  8
0
  6
Continuous
 62
     7
100
AcDbCircle
 10
-624.6666653890281
 20
1181.4451082511
 30
0.0
 40
2.5
100
AcDbArc
 50
141.258596633701
 51
270.0
  0
ARC
  5
C64
330
207
100
AcDbEntity
  8
0
  6
Continuous
 62
     7
100
AcDbCircle
 10
-635.8842318189281
 20
1162.4451082511
 30
0.0
 40
2.5
100
AcDbArc
 50
90.0
 51
157.6263488452996
  0
ARC
  5
C65
330
207
100
AcDbEntity
  8
0
  6
Continuous
 62
     7
100
AcDbCircle
 10
-637.7438461288281
 20
1157.4451082511
 30
0.0
 40
2.5
100
AcDbArc
 50
161.5710141043982
 51
270.0
  0
ARC
  5
C66
330
207
100
AcDbEntity
  8
0
  6
Continuous
 62
     7
100
AcDbCircle
 10
-641.4452786554281
 20
1139.4451082511
 30
0.0
 40
2.5
100
AcDbArc
 50
90.0
 51
175.1888957521004
  0
ARC
  5
C67
330
207
100
AcDbEntity
  8
0
  6
Continuous
 62
     7
100
AcDbCircle
 10
-641.7038228614281
 20
1134.4451082511
 30
0.0
 40
2.5
100
AcDbArc
 50
178.8909801798001
 51
270.0
  0
ARC
  5
C68
330
207
100
AcDbEntity
  8
0
  6
Continuous
 62
     7
100
AcDbCircle
 10
-641.7183403502281
 20
1115.4451082511
 30
0.0
 40
2.5
100
AcDbArc
 50
90.0
 51
180.0
  0
ELLIPSE
  5
DD3
330
207
100
AcDbEntity
  8
0
  6
Continuous
 62
     7
100
AcDbEllipse
 10
-641.708227064928
 20
977.4451082510999
 30
0.0
 11
-4.869649266399999
 21
-0.0000000003
 31
0.0
210
0.0
220
0.0
230
-1.0
 40
0.9999978434
 41
0.0000000001
 42
1.5687195258
  0
ELLIPSE
  5
DD4
330
207
100
AcDbEntity
  8
0
  6
Continuous
 62
     7
100
AcDbEllipse
 10
-336.7069115648281
 20
977.4451082510999
 30
0.0
 11
-5.5030758549
 21
0.0
 31
0.0
210
0.0
220
0.0
230
-1.0
 40
0.9999978434
 41
1.5687195258
 42
3.1415926536
  0
ELLIPSE
  5
DD5
330
207
100
AcDbEntity
  8
0
  6
Continuous
 62
     7
100
AcDbEllipse
 10
-336.7069115648281
 20
972.4451082511
 30
0.0
 11
-5.5030758549
 21
0.0
 31
0.0
210
0.0
220
0.0
230
-1.0
 40
0.9999978434
 41
3.1415926536
 42
4.714465781399999
  0
ELLIPSE
  5
DD6
330
207
100
AcDbEntity
  8
0
  6
Continuous
 62
     7
100
AcDbEllipse
 10
-641.708227064928
 20
995.4451082510999
 30
0.0
 11
-4.869649266399999
 21
0.0
 31
0.0
210
0.0
220
0.0
230
-1.0
 40
0.9999978434
 41
-1.5687195258
 42
0.0
  0
ELLIPSE
  5
DD7
330
207
100
AcDbEntity
  8
0
  6
Continuous
 62
     7
100
AcDbEllipse
 10
-641.708227064928
 20
1000.4451082511
 30
0.0
 11
-4.869649266399999
 21
-0.0000000003
 31
0.0
210
0.0
220
0.0
230
-1.0
 40
0.9999978434
 41
0.0000000001
 42
1.5687195258
  0
ELLIPSE
  5
DD8
330
207
100
AcDbEntity
  8
0
  6
Continuous
 62
     7
100
AcDbEllipse
 10
-336.7069115648281
 20
1000.4451082511
 30
0.0
 11
-5.5030758549
 21
0.0
 31
0.0
210
0.0
220
0.0
230
-1.0
 40
0.9999978434
 41
1.5687195258
 42
3.1415926536
  0
ELLIPSE
  5
DD9
330
207
100
AcDbEntity
  8
0
  6
Continuous
 62
     7
100
AcDbEllipse
 10
-336.7069115648281
 20
995.4451082510999
 30
0.0
 11
-5.5030758549
 21
0.0
 31
0.0
210
0.0
220
0.0
230
-1.0
 40
0.9999978434
 41
3.1415926536
 42
4.714465781399999
  0
ELLIPSE
  5
DDA
330
207
100
AcDbEntity
  8
0
  6
Continuous
 62
     7
100
AcDbEllipse
 10
-641.708227064928
 20
1018.4451082511
 30
0.0
 11
-4.869649266399999
 21
0.0
 31
0.0
210
0.0
220
0.0
230
-1.0
 40
0.9999978434
 41
-1.5687195258
 42
0.0
  0
ELLIPSE
  5
DDB
330
207
100
AcDbEntity
  8
0
  6
Continuous
 62
     7
100
AcDbEllipse
 10
-641.708227064928
 20
1023.4451082511
 30
0.0
 11
-4.869649266399999
 21
-0.0000000001
 31
0.0
210
0.0
220
0.0
230
-1.0
 40
0.9999978434
 41
0.0
 42
1.5687195258
  0
ELLIPSE
  5
DDC
330
207
100
AcDbEntity
  8
0
  6
Continuous
 62
     7
100
AcDbEllipse
 10
-336.7069115648281
 20
1023.4451082511
 30
0.0
 11
-5.5030758549
 21
0.0
 31
0.0
210
0.0
220
0.0
230
-1.0
 40
0.9999978434
 41
1.5687195258
 42
3.1415926536
  0
ELLIPSE
  5
DDD
330
207
100
AcDbEntity
  8
0
  6
Continuous
 62
     7
100
AcDbEllipse
 10
-336.7069115648281
 20
1018.4451082511
 30
0.0
 11
-5.5030758549
 21
0.0
 31
0.0
210
0.0
220
0.0
230
-1.0
 40
0.9999978434
 41
3.1415926536
 42
4.714465781399999
  0
ELLIPSE
  5
DDE
330
207
100
AcDbEntity
  8
0
  6
Continuous
 62
     7
100
AcDbEllipse
 10
-641.708227064928
 20
1041.4451082511
 30
0.0
 11
-4.869649266399999
 21
0.0000000001
 31
0.0
210
0.0
220
0.0
230
-1.0
 40
0.9999978434
 41
-1.5687195258
 42
0.0
  0
ELLIPSE
  5
DDF
330
207
100
AcDbEntity
  8
0
  6
Continuous
 62
     7
100
AcDbEllipse
 10
-641.708227064928
 20
1046.4451082511
 30
0.0
 11
-4.869649266399999
 21
0.0
 31
0.0
210
0.0
220
0.0
230
-1.0
 40
0.9999978434
 41
0.0
 42
1.5687195258
  0
ELLIPSE
  5
DE0
330
207
100
AcDbEntity
  8
0
  6
Continuous
 62
     7
100
AcDbEllipse
 10
-336.7069115648281
 20
1046.4451082511
 30
0.0
 11
-5.5030758549
 21
0.0000000167
 31
0.0
210
0.0
220
0.0
230
-1.0
 40
0.9999978434
 41
1.5687195227
 42
3.141592650599999
  0
ELLIPSE
  5
DE1
330
207
100
AcDbEntity
  8
0
  6
Continuous
 62
     7
100
AcDbEllipse
 10
-336.7069115648281
 20
1041.4451082511
 30
0.0
 11
-5.5030758549
 21
0.0000000163
 31
0.0
210
0.0
220
0.0
230
-1.0
 40
0.9999978434
 41
3.141592650599999
 42
4.7144657784
  0
ELLIPSE
  5
DE2
330
207
100
AcDbEntity
  8
0
  6
Continuous
 62
     7
100
AcDbEllipse
 10
-641.708227064928
 20
1064.4451082511
 30
0.0
 11
-4.869649266399999
 21
0.0000000001
 31
0.0
210
0.0
220
0.0
230
-1.0
 40
0.9999978434
 41
-1.5687195258
 42
0.0
  0
ELLIPSE
  5
DE3
330
207
100
AcDbEntity
  8
0
  6
Continuous
 62
     7
100
AcDbEllipse
 10
-641.708227064928
 20
1069.4451082511
 30
0.0
 11
-4.869649266399999
 21
0.0
 31
0.0
210
0.0
220
0.0
230
-1.0
 40
0.9999978434
 41
0.0
 42
1.5687195258
  0
ELLIPSE
  5
DE4
330
207
100
AcDbEntity
  8
0
  6
Continuous
 62
     7
100
AcDbEllipse
 10
-336.7069115648281
 20
1069.4451082511
 30
0.0
 11
-5.5030758549
 21
0.0
 31
0.0
210
0.0
220
0.0
230
-1.0
 40
0.9999978434
 41
1.5687195258
 42
3.1415926536
  0
ELLIPSE
  5
DE5
330
207
100
AcDbEntity
  8
0
  6
Continuous
 62
     7
100
AcDbEllipse
 10
-336.7069115648281
 20
1064.4451082511
 30
0.0
 11
-5.5030758549
 21
-0.0000000001
 31
0.0
210
0.0
220
0.0
230
-1.0
 40
0.9999978434
 41
-3.1415926536
 42
-1.5687195258
  0
ELLIPSE
  5
DE6
330
207
100
AcDbEntity
  8
0
  6
Continuous
 62
     7
100
AcDbEllipse
 10
-641.708227064928
 20
1087.4451082511
 30
0.0
 11
-4.869649266399999
 21
0.0
 31
0.0
210
0.0
220
0.0
230
-1.0
 40
0.9999978434
 41
-1.5687195258
 42
0.0
  0
ELLIPSE
  5
DE7
330
207
100
AcDbEntity
  8
0
  6
Continuous
 62
     7
100
AcDbEllipse
 10
-641.708227064928
 20
1092.4451082511
 30
0.0
 11
-4.869649266399999
 21
0.0000000001
 31
0.0
210
0.0
220
0.0
230
-1.0
 40
0.9999978434
 41
0.0
 42
1.5687195258
  0
ELLIPSE
  5
DE8
330
207
100
AcDbEntity
  8
0
  6
Continuous
 62
     7
100
AcDbEllipse
 10
-336.7069115648281
 20
1092.4451082511
 30
0.0
 11
-5.5030758549
 21
0.0
 31
0.0
210
0.0
220
0.0
230
-1.0
 40
0.9999978434
 41
1.5687195258
 42
3.1415926536
  0
ELLIPSE
  5
DE9
330
207
100
AcDbEntity
  8
0
  6
Continuous
 62
     7
100
AcDbEllipse
 10
-336.7069115648281
 20
1087.4451082511
 30
0.0
 11
-5.5030758549
 21
0.0
 31
0.0
210
0.0
220
0.0
230
-1.0
 40
0.9999978434
 41
3.1415926536
 42
4.714465781399999
  0
ELLIPSE
  5
DEA
330
207
100
AcDbEntity
  8
0
  6
Continuous
 62
     7
100
AcDbEllipse
 10
-641.708227064928
 20
1110.4451082511
 30
0.0
 11
-4.869649266399999
 21
0.0
 31
0.0
210
0.0
220
0.0
230
-1.0
 40
0.9999978434
 41
-1.5687195258
 42
0.0
  0
ELLIPSE
  5
DEB
330
207
100
AcDbEntity
  8
0
  6
Continuous
 62
     7
100
AcDbEllipse
 10
-641.708227064928
 20
1115.4451082511
 30
0.0
 11
-4.869649266399999
 21
0.0000000001
 31
0.0
210
0.0
220
0.0
230
-1.0
 40
0.9999978434
 41
0.0
 42
1.5687195258
  0
ELLIPSE
  5
DEC
330
207
100
AcDbEntity
  8
0
  6
Continuous
 62
     7
100
AcDbEllipse
 10
-336.7069115648281
 20
1115.4451082511
 30
0.0
 11
-5.5030758549
 21
0.0
 31
0.0
210
0.0
220
0.0
230
-1.0
 40
0.9999978434
 41
1.5687195258
 42
3.1415926536
  0
ELLIPSE
  5
DED
330
207
100
AcDbEntity
  8
0
  6
Continuous
 62
     7
100
AcDbEllipse
 10
-336.7069115648281
 20
1110.4451082511
 30
0.0
 11
-5.5030758549
 21
0.0
 31
0.0
210
0.0
220
0.0
230
-1.0
 40
0.9999978434
 41
3.1415926536
 42
4.714465781399999
  0
ELLIPSE
  5
DEE
330
207
100
AcDbEntity
  8
0
  6
Continuous
 62
     7
100
AcDbEllipse
 10
-414.0462931735283
 20
885.9451082511
 30
0.0
 11
-82.84245746399999
 21
0.000000002
 31
0.0
210
0.0
220
0.0
230
-1.0
 40
0.9999978433999999
 41
-2.4641268788
 42
-2.3782230946
  0
ELLIPSE
  5
DEF
330
207
100
AcDbEntity
  8
0
  6
Continuous
 62
     7
100
AcDbEllipse
 10
-564.0469401407283
 20
885.9451082511
 30
0.0
 11
-82.53093619100001
 21
-0.0000000003
 31
0.0
210
0.0
220
0.0
230
-1.0
 40
0.9999978434
 41
-0.7605022316
 42
-0.6748664216
  0
ELLIPSE
  5
DF0
330
207
100
AcDbEntity
  8
0
  6
Continuous
 62
     7
100
AcDbEllipse
 10
-414.0462931735283
 20
885.9451082511
 30
0.0
 11
-82.84245746399999
 21
-0.0000000018
 31
0.0
210
0.0
220
0.0
230
-1.0
 40
0.9999978433999999
 41
-1.930023228099999
 42
-1.5687195258
  0
ELLIPSE
  5
DF1
330
207
100
AcDbEntity
  8
0
  6
Continuous
 62
     7
100
AcDbEllipse
 10
-564.0469401407283
 20
885.9451082511
 30
0.0
 11
-82.53093619100001
 21
-0.0000000013
 31
0.0
210
0.0
220
0.0
230
-1.0
 40
0.9999978434
 41
-1.5687195258
 42
-1.207683797099999
  0
ELLIPSE
  5
DF2
330
207
100
AcDbEntity
  8
0
  6
Continuous
 62
     7
100
AcDbEllipse
 10
-564.0469401407283
 20
885.9451082511
 30
0.0
 11
-82.53093619100001
 21
0.0000000032
 31
0.0
210
0.0
220
0.0
230
-1.0
 40
0.9999978434
 41
-0.3897041122
 42
-0.3209905906
  0
ELLIPSE
  5
DF3
330
207
100
AcDbEntity
  8
0
  6
Continuous
 62
     7
100
AcDbEllipse
 10
-414.0462931735283
 20
885.9451082511
 30
0.0
 11
-82.84245746399999
 21
-0.0000000013
 31
0.0
210
0.0
220
0.0
230
-1.0
 40
0.9999978433999999
 41
-2.8192889872
 42
-2.750307490899999
  0
ELLIPSE
  5
DF4
330
207
100
AcDbEntity
  8
0
  6
Continuous
 62
     7
100
AcDbEllipse
 10
-414.0462931735283
 20
885.9451082511
 30
0.0
 11
-82.84245746399999
 21
-0.0000000004
 31
0.0
210
0.0
220
0.0
230
-1.0
 40
0.9999978433999999
 41
-3.1221963683
 42
-3.057448679999999
  0
ELLIPSE
  5
DF5
330
207
100
AcDbEntity
  8
0
  6
Continuous
 62
     7
100
AcDbEllipse
 10
-564.0469401407283
 20
885.9451082511
 30
0.0
 11
-82.53093619100001
 21
-0.000000016
 31
0.0
210
0.0
220
0.0
230
-1.0
 40
0.9999978434
 41
-0.0837956063
 42
-0.0193158927
  0
ELLIPSE
  5
DF6
330
207
100
AcDbEntity
  8
0
  6
Continuous
 62
     7
100
AcDbEllipse
 10
-414.0462931735283
 20
1132.9451082511
 30
0.0
 11
-82.84245746399999
 21
-0.0000000018
 31
0.0
210
0.0
220
0.0
230
-1.0
 40
0.9999978433999999
 41
1.5687195258
 42
1.930023228099999
  0
ELLIPSE
  5
DF7
330
207
100
AcDbEntity
  8
0
  6
Continuous
 62
     7
100
AcDbEllipse
 10
-564.0469401407283
 20
1132.9451082511
 30
0.0
 11
-82.53093619100001
 21
-0.0000000002
 31
0.0
210
0.0
220
0.0
230
-1.0
 40
0.9999978434
 41
1.207683797099999
 42
1.5687195258
  0
ELLIPSE
  5
DF8
330
207
100
AcDbEntity
  8
0
  6
Continuous
 62
     7
100
AcDbEllipse
 10
-414.0462931735283
 20
1132.9451082511
 30
0.0
 11
-82.84245746399999
 21
0.0000000027
 31
0.0
210
0.0
220
0.0
230
-1.0
 40
0.9999978433999999
 41
2.3782230945
 42
2.4641268787
  0
ELLIPSE
  5
DF9
330
207
100
AcDbEntity
  8
0
  6
Continuous
 62
     7
100
AcDbEllipse
 10
-564.0469401407283
 20
1132.9451082511
 30
0.0
 11
-82.53093619100001
 21
-0.0000000002
 31
0.0
210
0.0
220
0.0
230
-1.0
 40
0.9999978434
 41
0.6748664216
 42
0.7605022316
  0
ELLIPSE
  5
DFA
330
207
100
AcDbEntity
  8
0
  6
Continuous
 62
     7
100
AcDbEllipse
 10
-564.0469401407283
 20
1132.9451082511
 30
0.0
 11
-82.53093619100001
 21
0.0000000017
 31
0.0
210
0.0
220
0.0
230
-1.0
 40
0.9999978434
 41
0.3209905905
 42
0.3897041122
  0
ELLIPSE
  5
DFB
330
207
100
AcDbEntity
  8
0
  6
Continuous
 62
     7
100
AcDbEllipse
 10
-414.0462931735283
 20
1132.9451082511
 30
0.0
 11
-82.84245746399999
 21
-0.0000000003
 31
0.0
210
0.0
220
0.0
230
-1.0
 40
0.9999978433999999
 41
2.750307490899999
 42
2.8192889872
  0
ELLIPSE
  5
DFC
330
207
100
AcDbEntity
  8
0
  6
Continuous
 62
     7
100
AcDbEllipse
 10
-414.0462931735283
 20
1132.9451082511
 30
0.0
 11
-82.84245746399999
 21
0.0000000003
 31
0.0
210
0.0
220
0.0
230
-1.0
 40
0.9999978433999999
 41
3.057448679999999
 42
3.1221963683
  0
ELLIPSE
  5
DFD
330
207
100
AcDbEntity
  8
0
  6
Continuous
 62
     7
100
AcDbEllipse
 10
-564.0469401407283
 20
1132.9451082511
 30
0.0
 11
-82.53093619100001
 21
-0.0000000041
 31
0.0
210
0.0
220
0.0
230
-1.0
 40
0.9999978434
 41
0.0193158929
 42
0.0837956065
  0
ELLIPSE
  5
DFE
330
207
100
AcDbEntity
  8
0
  6
Continuous
 62
     7
100
AcDbEllipse
 10
-591.5941387932282
 20
1205.4451082511
 30
0.0
 11
-4.973726181299999
 21
0.0
 31
0.0
210
0.0
220
0.0
230
-1.0
 40
0.9999978434
 41
-1.5687195258
 42
1.207683797099999
  0
ELLIPSE
  5
DFF
330
207
100
AcDbEntity
  8
0
  6
Continuous
 62
     7
100
AcDbEllipse
 10
-386.820999836528
 20
1205.4451082511
 30
0.0
 11
-5.39899894
 21
0.0
 31
0.0
210
0.0
220
0.0
230
-1.0
 40
0.9999978434
 41
1.930023228099999
 42
4.714465781399999
  0
ELLIPSE
  5
E00
330
207
100
AcDbEntity
  8
0
  6
Continuous
 62
     7
100
AcDbEllipse
 10
-358.135620913428
 20
1186.4451082511
 30
0.0
 11
-5.458572721399999
 21
-0.0000000001
 31
0.0
210
0.0
220
0.0
230
-1.0
 40
0.9999978434
 41
1.5687195258
 42
2.3782230946
  0
ELLIPSE
  5
E01
330
207
100
AcDbEntity
  8
0
  6
Continuous
 62
     7
100
AcDbEllipse
 10
-353.7586600718282
 20
1181.4451082511
 30
0.0
 11
-5.467662791599999
 21
-0.0000000001
 31
0.0
210
0.0
220
0.0
230
-1.0
 40
0.9999978434
 41
2.4641268788
 42
4.714465781399999
  0
ELLIPSE
  5
E02
330
207
100
AcDbEntity
  8
0
  6
Continuous
 62
     7
100
AcDbEllipse
 10
-624.6564785579282
 20
1181.4451082511
 30
0.0
 11
-4.9050623297
 21
0.0
 31
0.0
210
0.0
220
0.0
230
-1.0
 40
0.9999978433999999
 41
-1.5687195258
 42
0.6748664216
  0
ELLIPSE
  5
E03
330
207
100
AcDbEntity
  8
0
  6
Continuous
 62
     7
100
AcDbEllipse
 10
-620.2795177163282
 20
1186.4451082511
 30
0.0
 11
-4.914152399899999
 21
-0.0000000001
 31
0.0
210
0.0
220
0.0
230
-1.0
 40
0.9999978434
 41
0.7605022316
 42
1.5687195258
  0
ELLIPSE
  5
E04
330
207
100
AcDbEntity
  8
0
  6
Continuous
 62
     7
100
AcDbEllipse
 10
-635.8740933704282
 20
1162.4451082511
 30
0.0
 11
-4.881765592499999
 21
-0.0000000001
 31
0.0
210
0.0
220
0.0
230
-1.0
 40
0.9999978434
 41
0.3897041122
 42
1.5687195258
  0
ELLIPSE
  5
E05
330
207
100
AcDbEntity
  8
0
  6
Continuous
 62
     7
100
AcDbEllipse
 10
-637.7337157010283
 20
1157.4451082511
 30
0.0
 11
-4.8779035297
 21
0.0
 31
0.0
210
0.0
220
0.0
230
-1.0
 40
0.9999978434
 41
-1.5687195258
 42
0.3209905905
  0
ELLIPSE
  5
E06
330
207
100
AcDbEntity
  8
0
  6
Continuous
 62
     7
100
AcDbEllipse
 10
-340.6814229287281
 20
1157.4451082511
 30
0.0
 11
-5.4948215916
 21
-0.0000000001
 31
0.0
210
0.0
220
0.0
230
-1.0
 40
0.9999978433999999
 41
2.8192889872
 42
4.714465781399999
  0
ELLIPSE
  5
E07
330
207
100
AcDbEntity
  8
0
  6
Continuous
 62
     7
100
AcDbEllipse
 10
-342.541045259328
 20
1162.4451082511
 30
0.0
 11
-5.4909595288
 21
0.0
 31
0.0
210
0.0
220
0.0
230
-1.0
 40
0.9999978434
 41
1.5687195258
 42
2.750307490899999
  0
ELLIPSE
  5
E08
330
207
100
AcDbEntity
  8
0
  6
Continuous
 62
     7
100
AcDbEllipse
 10
-336.9799744374282
 20
1139.4451082511
 30
0.0
 11
-5.502508758099999
 21
0.0
 31
0.0
210
0.0
220
0.0
230
-1.0
 40
0.9999978433999999
 41
1.5687195258
 42
3.057448679999999
  0
ELLIPSE
  5
E09
330
207
100
AcDbEntity
  8
0
  6
Continuous
 62
     7
100
AcDbEllipse
 10
-336.7214291162281
 20
1134.4451082511
 30
0.0
 11
-5.503045704899999
 21
0.0
 31
0.0
210
0.0
220
0.0
230
-1.0
 40
0.9999978433999999
 41
3.1221963683
 42
4.714465781399999
  0
ELLIPSE
  5
E0A
330
207
100
AcDbEntity
  8
0
  6
Continuous
 62
     7
100
AcDbEllipse
 10
-641.6937095135283
 20
1134.4451082511
 30
0.0
 11
-4.869679416399998
 21
-0.0000000001
 31
0.0
210
0.0
220
0.0
230
-1.0
 40
0.9999978434
 41
-1.5687195258
 42
0.0193158929
  0
ELLIPSE
  5
E0B
330
207
100
AcDbEntity
  8
0
  6
Continuous
 62
     7
100
AcDbEllipse
 10
-641.4351641924281
 20
1139.4451082511
 30
0.0
 11
-4.870216363199999
 21
0.0000000001
 31
0.0
210
0.0
220
0.0
230
-1.0
 40
0.9999978434
 41
0.0837956064
 42
1.5687195258
  0
ELLIPSE
  5
E0C
330
207
100
AcDbEntity
  8
0
  6
Continuous
 62
     7
100
AcDbEllipse
 10
-336.9799744374282
 20
879.4451082511001
 30
0.0
 11
-5.502508758099999
 21
0.0
 31
0.0
210
0.0
220
0.0
230
-1.0
 40
0.9999978433999999
 41
-3.057448679999999
 42
-1.5687195258
  0
ELLIPSE
  5
E0D
330
207
100
AcDbEntity
  8
0
  6
Continuous
 62
     7
100
AcDbEllipse
 10
-336.7214291162281
 20
884.4451082511
 30
0.0
 11
-5.503045704899999
 21
0.0
 31
0.0
210
0.0
220
0.0
230
-1.0
 40
0.9999978433999999
 41
1.5687195258
 42
3.160988938899999
  0
ELLIPSE
  5
E0E
330
207
100
AcDbEntity
  8
0
  6
Continuous
 62
     7
100
AcDbEllipse
 10
-641.4351641924281
 20
879.4451082511001
 30
0.0
 11
-4.870216363199999
 21
0.0
 31
0.0
210
0.0
220
0.0
230
-1.0
 40
0.9999978434
 41
-1.5687195258
 42
-0.0837956065
  0
ELLIPSE
  5
E0F
330
207
100
AcDbEntity
  8
0
  6
Continuous
 62
     7
100
AcDbEllipse
 10
-641.6937095135283
 20
884.4451082511
 30
0.0
 11
-4.869679416399998
 21
0.0000000001
 31
0.0
210
0.0
220
0.0
230
-1.0
 40
0.9999978434
 41
-0.0193158929
 42
1.5687195258
  0
ELLIPSE
  5
E10
330
207
100
AcDbEntity
  8
0
  6
Continuous
 62
     7
100
AcDbEllipse
 10
-637.7337157010283
 20
861.4451082510999
 30
0.0
 11
-4.8779035297
 21
-0.0000000001
 31
0.0
210
0.0
220
0.0
230
-1.0
 40
0.9999978434
 41
-0.3209905905
 42
1.5687195258
  0
ELLIPSE
  5
E11
330
207
100
AcDbEntity
  8
0
  6
Continuous
 62
     7
100
AcDbEllipse
 10
-635.8740933704282
 20
856.4451082511
 30
0.0
 11
-4.881765592499999
 21
-0.0000000001
 31
0.0
210
0.0
220
0.0
230
-1.0
 40
0.9999978434
 41
-1.568719525699999
 42
-0.3897041122
  0
ELLIPSE
  5
E12
330
207
100
AcDbEntity
  8
0
  6
Continuous
 62
     7
100
AcDbEllipse
 10
-342.541045259328
 20
856.4451082511
 30
0.0
 11
-5.4909595288
 21
0.0
 31
0.0
210
0.0
220
0.0
230
-1.0
 40
0.9999978434
 41
-2.750307490899999
 42
-1.5687195258
  0
ELLIPSE
  5
E13
330
207
100
AcDbEntity
  8
0
  6
Continuous
 62
     7
100
AcDbEllipse
 10
-340.6814229287281
 20
861.4451082510999
 30
0.0
 11
-5.4948215916
 21
-0.0000000001
 31
0.0
210
0.0
220
0.0
230
-1.0
 40
0.9999978433999999
 41
1.5687195258
 42
3.463896319999999
  0
ELLIPSE
  5
E14
330
207
100
AcDbEntity
  8
0
  6
Continuous
 62
     7
100
AcDbEllipse
 10
-358.135620913428
 20
832.4451082511
 30
0.0
 11
-5.458572721399999
 21
-0.0000000001
 31
0.0
210
0.0
220
0.0
230
-1.0
 40
0.9999978434
 41
-2.3782230946
 42
-1.568719525699999
  0
ELLIPSE
  5
E15
330
207
100
AcDbEntity
  8
0
  6
Continuous
 62
     7
100
AcDbEllipse
 10
-353.7586600718282
 20
837.4451082510999
 30
0.0
 11
-5.467662791599999
 21
-0.0000000002
 31
0.0
210
0.0
220
0.0
230
-1.0
 40
0.9999978434
 41
1.5687195258
 42
3.8190584285
  0
ELLIPSE
  5
E16
330
207
100
AcDbEntity
  8
0
  6
Continuous
 62
     7
100
AcDbEllipse
 10
-386.820999836528
 20
813.4451082511001
 30
0.0
 11
-5.39899894
 21
0.0000000001
 31
0.0
210
0.0
220
0.0
230
-1.0
 40
0.9999978434
 41
1.568719525699999
 42
4.3531620791
  0
ELLIPSE
  5
E17
330
207
100
AcDbEntity
  8
0
  6
Continuous
 62
     7
100
AcDbEllipse
 10
-591.5941387932282
 20
813.4451082511001
 30
0.0
 11
-4.973726181299999
 21
-0.0000000001
 31
0.0
210
0.0
220
0.0
230
-1.0
 40
0.9999978434
 41
-1.207683797099999
 42
1.5687195258
  0
ELLIPSE
  5
E18
330
207
100
AcDbEntity
  8
0
  6
Continuous
 62
     7
100
AcDbEllipse
 10
-620.2795177163282
 20
832.4451082511
 30
0.0
 11
-4.914152399899999
 21
0.0000000001
 31
0.0
210
0.0
220
0.0
230
-1.0
 40
0.9999978434
 41
-1.5687195258
 42
-0.7605022316
  0
ELLIPSE
  5
E19
330
207
100
AcDbEntity
  8
0
  6
Continuous
 62
     7
100
AcDbEllipse
 10
-624.6564785579282
 20
837.4451082510999
 30
0.0
 11
-4.9050623297
 21
-0.0000000405
 31
0.0
210
0.0
220
0.0
230
-1.0
 40
0.9999978433999999
 41
-0.6748664134000001
 42
1.568719533999999
  0
ELLIPSE
  5
E1A
330
207
100
AcDbEntity
  8
0
  6
Continuous
 62
     7
100
AcDbEllipse
 10
197.0262273569719
 20
1134.4451082511
 30
0.0
 11
-97.6389939372
 21
-0.000000002
 31
0.0
210
0.0
220
0.0
230
-1.0
 40
0.9999965779999998
 41
1.5734124187
 42
3.1415926536
  0
ELLIPSE
  5
E1B
330
207
100
AcDbEntity
  8
0
  6
Continuous
 62
     7
100
AcDbEllipse
 10
-8.479957561728269
 20
1139.4451082511
 30
0.0
 11
-93.17661639609999
 21
-0.0000000011
 31
0.0
210
0.0
220
0.0
230
-1.0
 40
0.999996578
 41
0.5148734352000001
 42
1.5734124187
  0
ELLIPSE
  5
E1C
330
207
100
AcDbEntity
  8
0
  6
Continuous
 62
     7
100
AcDbEllipse
 10
-108.3434069392281
 20
1195.9451082511
 30
0.0
 11
-21.5621319384
 21
0.0000000003
 31
0.0
210
0.0
220
0.0
230
-1.0
 40
0.999996578
 41
-2.626719218399999
 42
-1.568180234899999
  0
ELLIPSE
  5
E1D
330
207
100
AcDbEntity
  8
0
  6
Continuous
 62
     7
100
AcDbEllipse
 10
-309.9818368487281
 20
1195.9451082511
 30
0.0
 11
-21.0346278706
 21
-0.0000000292
 31
0.0
210
0.0
220
0.0
230
-1.0
 40
0.999996578
 41
-1.568180233499999
 42
-0.5123028347
  0
ELLIPSE
  5
E1E
330
207
100
AcDbEntity
  8
0
  6
Continuous
 62
     7
100
AcDbEllipse
 10
-410.446990802028
 20
1139.4451082511
 30
0.0
 11
-94.2281979088
 21
-0.0000000018
 31
0.0
210
0.0
220
0.0
230
-1.0
 40
0.999996578
 41
1.5734124187
 42
2.629289817599999
  0
ELLIPSE
  5
E1F
330
207
100
AcDbEntity
  8
0
  6
Continuous
 62
     7
100
AcDbEllipse
 10
-565.978994590828
 20
1134.4451082511
 30
0.0
 11
-99.6350834649
 21
-0.0000000012
 31
0.0
210
0.0
220
0.0
230
-1.0
 40
0.999996578
 41
0.0
 42
1.5734124187
  0
ELLIPSE
  5
E20
330
207
100
AcDbEntity
  8
0
  6
Continuous
 62
     7
100
AcDbEllipse
 10
-565.978994590828
 20
884.4451082511
 30
0.0
 11
-99.6350834649
 21
0.000000001
 31
0.0
210
0.0
220
0.0
230
-1.0
 40
0.999996578
 41
-1.5734124187
 42
0.0
  0
ELLIPSE
  5
E21
330
207
100
AcDbEntity
  8
0
  6
Continuous
 62
     7
100
AcDbEllipse
 10
-410.446990802028
 20
879.4451082511001
 30
0.0
 11
-94.2281979088
 21
-0.0000000008
 31
0.0
210
0.0
220
0.0
230
-1.0
 40
0.999996578
 41
-2.6292898175
 42
-1.5734124187
  0
ELLIPSE
  5
E22
330
207
100
AcDbEntity
  8
0
  6
Continuous
 62
     7
100
AcDbEllipse
 10
-309.9818368487281
 20
822.9451082510999
 30
0.0
 11
-21.0346278706
 21
0.0
 31
0.0
210
0.0
220
0.0
230
-1.0
 40
0.999996578
 41
0.5123028360000001
 42
1.568180234899999
  0
ELLIPSE
  5
E23
330
207
100
AcDbEntity
  8
0
  6
Continuous
 62
     7
100
AcDbEllipse
 10
-108.3434069392281
 20
822.9451082510999
 30
0.0
 11
-21.5621319384
 21
-0.0000000212
 31
0.0
210
0.0
220
0.0
230
-1.0
 40
0.999996578
 41
1.5681802358
 42
2.626719219399999
  0
ELLIPSE
  5
E24
330
207
100
AcDbEntity
  8
0
  6
Continuous
 62
     7
100
AcDbEllipse
 10
-8.479957561728269
 20
879.4451082511001
 30
0.0
 11
-93.17661639609999
 21
-0.0000000012
 31
0.0
210
0.0
220
0.0
230
-1.0
 40
0.999996578
 41
-1.5734124187
 42
-0.5148734352000001
  0
ELLIPSE
  5
E25
330
207
100
AcDbEntity
  8
0
  6
Continuous
 62
     7
100
AcDbEllipse
 10
197.0262273569719
 20
884.4451082511
 30
0.0
 11
-97.6389939372
 21
0.0000000012
 31
0.0
210
0.0
220
0.0
230
-1.0
 40
0.9999965779999998
 41
3.1415926536
 42
4.709772888399999
  0
ELLIPSE
  5
E26
330
207
100
AcDbEntity
  8
0
  6
Continuous
 62
     7
100
AcDbEllipse
 10
-641.708227064928
 20
903.4451082510999
 30
0.0
 11
-4.869649266399999
 21
0.0
 31
0.0
210
0.0
220
0.0
230
-1.0
 40
0.9999978434
 41
-1.5687195258
 42
0.0
  0
ELLIPSE
  5
E27
330
207
100
AcDbEntity
  8
0
  6
Continuous
 62
     7
100
AcDbEllipse
 10
-641.708227064928
 20
908.4451082511
 30
0.0
 11
-4.869649266399999
 21
-0.0000000003
 31
0.0
210
0.0
220
0.0
230
-1.0
 40
0.9999978434
 41
0.0000000001
 42
1.5687195258
  0
ELLIPSE
  5
E28
330
207
100
AcDbEntity
  8
0
  6
Continuous
 62
     7
100
AcDbEllipse
 10
-336.7069115648281
 20
908.4451082511
 30
0.0
 11
-5.5030758549
 21
0.0
 31
0.0
210
0.0
220
0.0
230
-1.0
 40
0.9999978434
 41
1.5687195258
 42
3.1415926536
  0
ELLIPSE
  5
E29
330
207
100
AcDbEntity
  8
0
  6
Continuous
 62
     7
100
AcDbEllipse
 10
-336.7069115648281
 20
903.4451082510999
 30
0.0
 11
-5.5030758549
 21
0.0
 31
0.0
210
0.0
220
0.0
230
-1.0
 40
0.9999978434
 41
3.1415926536
 42
4.714465781399999
  0
ELLIPSE
  5
E2A
330
207
100
AcDbEntity
  8
0
  6
Continuous
 62
     7
100
AcDbEllipse
 10
-641.708227064928
 20
926.4451082511
 30
0.0
 11
-4.869649266399999
 21
-0.0000000001
 31
0.0
210
0.0
220
0.0
230
-1.0
 40
0.9999978434
 41
-1.5687195258
 42
0.0
  0
ELLIPSE
  5
E2B
330
207
100
AcDbEntity
  8
0
  6
Continuous
 62
     7
100
AcDbEllipse
 10
-641.708227064928
 20
931.4451082511
 30
0.0
 11
-4.869649266399999
 21
-0.0000000003
 31
0.0
210
0.0
220
0.0
230
-1.0
 40
0.9999978434
 41
0.0000000001
 42
1.5687195258
  0
ELLIPSE
  5
E2C
330
207
100
AcDbEntity
  8
0
  6
Continuous
 62
     7
100
AcDbEllipse
 10
-336.7069115648281
 20
931.4451082511
 30
0.0
 11
-5.5030758549
 21
0.0
 31
0.0
210
0.0
220
0.0
230
-1.0
 40
0.9999978434
 41
1.5687195258
 42
3.1415926536
  0
ELLIPSE
  5
E2D
330
207
100
AcDbEntity
  8
0
  6
Continuous
 62
     7
100
AcDbEllipse
 10
-336.7069115648281
 20
926.4451082511
 30
0.0
 11
-5.5030758549
 21
0.0
 31
0.0
210
0.0
220
0.0
230
-1.0
 40
0.9999978434
 41
-3.1415926536
 42
-1.5687195258
  0
ELLIPSE
  5
E2E
330
207
100
AcDbEntity
  8
0
  6
Continuous
 62
     7
100
AcDbEllipse
 10
-641.708227064928
 20
949.4451082511
 30
0.0
 11
-4.869649266399999
 21
-0.0000000001
 31
0.0
210
0.0
220
0.0
230
-1.0
 40
0.9999978434
 41
-1.5687195258
 42
0.0
  0
ELLIPSE
  5
E2F
330
207
100
AcDbEntity
  8
0
  6
Continuous
 62
     7
100
AcDbEllipse
 10
-641.708227064928
 20
954.4451082511001
 30
0.0
 11
-4.869649266399999
 21
0.0000000001
 31
0.0
210
0.0
220
0.0
230
-1.0
 40
0.9999978434
 41
0.0
 42
1.5687195258
  0
ELLIPSE
  5
E30
330
207
100
AcDbEntity
  8
0
  6
Continuous
 62
     7
100
AcDbEllipse
 10
-336.7069115648281
 20
954.4451082511001
 30
0.0
 11
-5.5030758549
 21
0.0
 31
0.0
210
0.0
220
0.0
230
-1.0
 40
0.9999978434
 41
1.5687195258
 42
3.1415926536
  0
ELLIPSE
  5
E31
330
207
100
AcDbEntity
  8
0
  6
Continuous
 62
     7
100
AcDbEllipse
 10
-336.7069115648281
 20
949.4451082511
 30
0.0
 11
-5.5030758549
 21
0.0
 31
0.0
210
0.0
220
0.0
230
-1.0
 40
0.9999978434
 41
3.1415926536
 42
4.714465781399999
  0
ELLIPSE
  5
E32
330
207
100
AcDbEntity
  8
0
  6
Continuous
 62
     7
100
AcDbEllipse
 10
-641.708227064928
 20
972.4451082511
 30
0.0
 11
-4.869649266399999
 21
-0.0000000001
 31
0.0
210
0.0
220
0.0
230
-1.0
 40
0.9999978434
 41
-1.5687195258
 42
0.0
  0
LINE
  5
E82
330
207
100
AcDbEntity
  8
0
100
AcDbLine
 10
-79.21834035022811
 20
886.9451082511
 30
0.0
 11
-79.21834035022811
 21
1131.9451082511
 31
0.0
  0
ARC
  5
E83
330
207
100
AcDbEntity
  8
0
100
AcDbCircle
 10
0.781659649771882
 20
1131.9451082511
 30
0.0
 40
80.0
100
AcDbArc
 50
90.0
 51
180.0
  0
LINE
  5
E84
330
207
100
AcDbEntity
  8
0
100
AcDbLine
 10
275.7816596497719
 20
886.9451082511
 30
0.0
 11
275.7816596497719
 21
1131.9451082511
 31
0.0
  0
LINE
  5
E85
330
207
100
AcDbEntity
  8
0
100
AcDbLine
 10
195.7816596497718
 20
1211.9451082511
 30
0.0
 11
0.781659649771882
 21
1211.9451082511
 31
0.0
  0
ARC
  5
E86
102
{ACAD_REACTORS
330
E9D
102
}
330
207
100
AcDbEntity
  8
0
100
AcDbCircle
 10
195.7816596497718
 20
1131.9451082511
 30
0.0
 40
80.0
100
AcDbArc
 50
0.000000000000007
 51
90.0
  0
ARC
  5
E87
102
{ACAD_REACTORS
330
E9A
102
}
330
207
100
AcDbEntity
  8
0
100
AcDbCircle
 10
0.781659649771882
 20
886.9451082511
 30
0.0
 40
80.0
100
AcDbArc
 50
180.0
 51
270.0
  0
LINE
  5
E88
330
207
100
AcDbEntity
  8
0
100
AcDbLine
 10
195.7816596497718
 20
806.9451082510999
 30
0.0
 11
0.781659649771882
 21
806.9451082510999
 31
0.0
  0
ARC
  5
E89
102
{ACAD_REACTORS
330
E9A
330
E9D
102
}
330
207
100
AcDbEntity
  8
0
100
AcDbCircle
 10
195.7816596497718
 20
886.9451082511
 30
0.0
 40
80.0
100
AcDbArc
 50
270.0
 51
0.000000000000007
  0
LINE
  5
E8A
330
207
100
AcDbEntity
  8
0
100
AcDbLine
 10
-314.2183403502281
 20
919.4451082510999
 30
0.0
 11
-314.2183403502281
 21
1099.4451082511
 31
0.0
  0
ARC
  5
E8B
330
207
100
AcDbEntity
  8
0
100
AcDbCircle
 10
-254.2183403502281
 20
1099.4451082511
 30
0.0
 40
60.0
100
AcDbArc
 50
90.0
 51
180.0
  0
LINE
  5
E8C
330
207
100
AcDbEntity
  8
0
100
AcDbLine
 10
-114.2183403502279
 20
919.4451082510999
 30
0.0
 11
-114.2183403502281
 21
1099.4451082511
 31
0.0
  0
ARC
  5
E8D
330
207
100
AcDbEntity
  8
0
100
AcDbCircle
 10
-174.2183403502279
 20
919.4451082510999
 30
0.0
 40
60.0
100
AcDbArc
 50
270.0
 51
0.0000000000000579
  0
LINE
  5
E8E
102
{ACAD_REACTORS
330
EA3
102
}
330
207
100
AcDbEntity
  8
0
100
AcDbLine
 10
-254.2183403502281
 20
859.4451082511
 30
0.0
 11
-174.2183403502279
 21
859.4451082511
 31
0.0
  0
ARC
  5
E8F
102
{ACAD_REACTORS
330
EA0
102
}
330
207
100
AcDbEntity
  8
0
100
AcDbCircle
 10
-254.2183403502281
 20
919.4451082510999
 30
0.0
 40
60.0
100
AcDbArc
 50
180.0
 51
270.0
  0
LINE
  5
E90
102
{ACAD_REACTORS
330
EA3
102
}
330
207
100
AcDbEntity
  8
0
100
AcDbLine
 10
-254.2183403502281
 20
1159.4451082511
 30
0.0
 11
-174.2183403502281
 21
1159.4451082511
 31
0.0
  0
ARC
  5
E91
330
207
100
AcDbEntity
  8
0
100
AcDbCircle
 10
-174.2183403502281
 20
1099.4451082511
 30
0.0
 40
60.0
100
AcDbArc
 50
0.0000000000000579
 51
90.0
  0
DIMENSION
  5
E92
102
{ACAD_XDICTIONARY
360
E93
102
}
102
{ACAD_REACTORS
330
E94
102
}
330
207
100
AcDbEntity
  8
尺寸线
100
AcDbDimension
280
     0
  2
*D0
 10
394.5371015106448
 20
760.9451082510998
 30
0.0
 11
386.5371015106447
 21
1009.4451082511
 31
0.0
 70
    32
 71
     5
 42
497.0
 73
     0
 74
     0
 75
     0
  3
大字
100
AcDbAlignedDimension
 13
195.7816596497718
 23
1257.9451082511
 33
0.0
 14
195.7816596497718
 24
760.9451082511
 34
0.0
 50
90.0
100
AcDbRotatedDimension
  0
DIMENSION
  5
E95
102
{ACAD_XDICTIONARY
360
E96
102
}
102
{ACAD_REACTORS
330
E97
102
}
330
207
100
AcDbEntity
  8
尺寸线
100
AcDbDimension
280
     0
  2
*D1
 10
-689.2183403502281
 20
654.6513138335658
 30
0.0
 11
-184.2183403502281
 21
662.6513138335658
 31
0.0
 70
    32
 71
     5
 42
1010.0
 73
     0
 74
     0
 75
     0
  3
大字
100
AcDbAlignedDimension
 13
320.7816596497719
 23
885.9451082511
 33
0.0
 14
-689.2183403502281
 24
885.9451082511
 34
0.0
 50
180.0
100
AcDbRotatedDimension
  0
DIMENSION
  5
E98
102
{ACAD_XDICTIONARY
360
E99
102
}
102
{ACAD_REACTORS
330
E9A
102
}
330
207
100
AcDbEntity
  8
尺寸线
100
AcDbDimension
280
     0
  2
*D2
 10
-79.21834035022813
 20
711.9880754100022
 30
0.0
 11
98.28165964977188
 21
719.9880754100022
 31
0.0
 70
    32
 71
     5
 42
355.0
 73
     0
 74
     0
 75
     0
  3
大字
100
AcDbAlignedDimension
 13
275.7816596497719
 23
886.9451082511
 33
0.0
 14
-79.21834035022811
 24
886.9451082511
 34
0.0
 50
180.0
100
AcDbRotatedDimension
  0
DIMENSION
  5
E9B
102
{ACAD_XDICTIONARY
360
E9C
102
}
102
{ACAD_REACTORS
330
E9D
102
}
330
207
100
AcDbEntity
  8
尺寸线
100
AcDbDimension
280
     0
  2
*D3
 10
371.2401375978134
 20
1211.9451082511
 30
0.0
 11
363.2401375978131
 21
1009.4451082511
 31
0.0
 70
    32
 71
     5
 42
405.0
 73
     0
 74
     0
 75
     0
  3
大字
100
AcDbAlignedDimension
 13
195.7816596497718
 23
806.9451082510999
 33
0.0
 14
195.7816596497718
 24
1211.9451082511
 34
0.0
 50
90.0
100
AcDbRotatedDimension
  0
DIMENSION
  5
E9E
102
{ACAD_XDICTIONARY
360
E9F
102
}
102
{ACAD_REACTORS
330
EA0
102
}
330
207
100
AcDbEntity
  8
尺寸线
100
AcDbDimension
280
     0
  2
*D4
 10
-314.2183403502281
 20
714.4105149986308
 30
0.0
 11
-214.218340350228
 21
722.4105149986307
 31
0.0
 70
    32
 71
     5
 42
200.0000000000002
 73
     0
 74
     0
 75
     0
  3
大字
100
AcDbAlignedDimension
 13
-114.2183403502279
 23
919.4451082510999
 33
0.0
 14
-314.2183403502281
 24
919.4451082510999
 34
0.0
 50
180.0
100
AcDbRotatedDimension
  0
DIMENSION
  5
EA1
102
{ACAD_XDICTIONARY
360
EA2
102
}
102
{ACAD_REACTORS
330
EA3
102
}
330
207
100
AcDbEntity
  8
尺寸线
100
AcDbDimension
280
     0
  2
*D5
 10
350.2400561224267
 20
1159.4451082511
 30
0.0
 11
342.2400561224265
 21
1009.4451082511
 31
0.0
 70
    32
 71
     5
 42
300.0
 73
     0
 74
     0
 75
     0
  3
大字
100
AcDbAlignedDimension
 13
-174.2183403502279
 23
859.4451082511
 33
0.0
 14
-174.2183403502279
 24
1159.4451082511
 34
0.0
 50
90.0
100
AcDbRotatedDimension
  0
DIMENSION
  5
EA4
102
{ACAD_XDICTIONARY
360
EA5
102
}
102
{ACAD_REACTORS
330
EA6
102
}
330
207
100
AcDbEntity
  8
尺寸线
100
AcDbDimension
280
     0
  2
*D6
 10
-106.1915751372263
 20
1228.424994307514
 30
0.0
 11
-185.9991705911909
 21
1138.81698300486
 31
0.0
 70
   163
 71
     5
 42
34.99999999999989
 73
     0
 74
     0
 75
     0
  3
大字$3
100
AcDbDiametricDimension
 15
-127.2451055632301
 25
1200.465222194685
 35
0.0
 40
0.0
1001
ACAD
1000
DSTYLE
1002
{
1070
   288
1070
     1
1002
}
1001
ACAD_DSTYLE_DIMRADIAL_EXTENSION
1070
   387
1070
     1
1070
   388
1040
0.0
1070
   390
1040
0.0
  0
DIMENSION
  5
EA7
102
{ACAD_XDICTIONARY
360
EA8
102
}
102
{ACAD_REACTORS
330
EA9
102
}
330
207
100
AcDbEntity
  8
尺寸线
100
AcDbDimension
280
     0
  2
*D7
 10
-197.3421837723763
 20
1257.9451082511
 30
0.0
 11
-205.3421837723765
 21
1236.1951082511
 31
0.0
 70
    32
 71
     5
 42
43.5
 73
     0
 74
     0
 75
     0
  3
大字
100
AcDbAlignedDimension
 13
-116.7183403502281
 23
1214.4451082511
 33
0.0
 14
-184.2183403502281
 24
1257.9451082511
 34
0.0
 50
90.0
100
AcDbRotatedDimension
  0
DIMENSION
  5
EAA
102
{ACAD_XDICTIONARY
360
EAB
102
}
102
{ACAD_REACTORS
330
EAC
102
}
330
207
100
AcDbEntity
  8
尺寸线
100
AcDbDimension
280
     0
  2
*D8
 10
320.7816596497719
 20
1294.444358944373
 30
0.0
 11
102.0316596497718
 21
1302.444358944373
 31
0.0
 70
    32
 71
     5
 42
437.5
 73
     0
 74
     0
 75
     0
  3
大字
100
AcDbAlignedDimension
 13
-116.7183403502281
 23
1214.4451082511
 33
0.0
 14
320.7816596497719
 24
1132.9451082511
 34
0.0
 50
180.0
100
AcDbRotatedDimension
  0
DIMENSION
  5
EAD
102
{ACAD_XDICTIONARY
360
EAE
102
}
102
{ACAD_REACTORS
330
EAF
102
}
330
207
100
AcDbEntity
  8
尺寸线
100
AcDbDimension
280
     0
  2
*D9
 10
338.3771728897245
 20
1642.929596966103
 30
0.0
 11
330.3771728897243
 21
1550.029596966104
 31
0.0
 70
    32
  1
185
 71
     5
 42
185.7999999999997
 73
     0
 74
     0
 75
     0
  3
大字
100
AcDbAlignedDimension
 13
199.6587008123718
 23
1457.129596966104
 33
0.0
 14
318.7816596497719
 24
1642.929596966103
 34
0.0
 50
90.0
100
AcDbRotatedDimension
  0
DIMENSION
  5
EB0
102
{ACAD_XDICTIONARY
360
EB1
102
}
102
{ACAD_REACTORS
330
EB2
102
}
330
207
100
AcDbEntity
  8
尺寸线
100
AcDbDimension
280
     0
  2
*D10
 10
-709.2846890754681
 20
1642.929596966103
 30
0.0
 11
-717.2846890754684
 21
1570.029596966104
 31
0.0
 70
    32
  1
145
 71
     5
 42
145.7999999999995
 73
     0
 74
     0
 75
     0
  3
大字
100
AcDbAlignedDimension
 13
-274.549711200128
 23
1497.129596966104
 33
0.0
 14
-687.2183403502281
 24
1642.929596966103
 34
0.0
 50
90.0
100
AcDbRotatedDimension
  0
DIMENSION
  5
FEF
102
{ACAD_XDICTIONARY
360
FFC
102
}
102
{ACAD_REACTORS
330
1006
102
}
330
207
100
AcDbEntity
  8
尺寸线
100
AcDbDimension
280
     0
  2
*D11
 10
65.06407019218761
 20
1039.802837919628
 30
0.0
 11
182.4658772818434
 21
943.2470958867916
 31
0.0
 70
   163
 71
     5
 42
90.0
 73
     0
 74
     0
 75
     0
  3
大字$3
100
AcDbDiametricDimension
 15
131.4992491073561
 25
979.0873785825731
 35
0.0
 40
0.0
1001
ACAD
1000
DSTYLE
1002
{
1070
   288
1070
     1
1002
}
1001
ACAD_DSTYLE_DIMRADIAL_EXTENSION
1070
   387
1070
     1
1070
   388
1040
0.0
1070
   390
1040
0.0
  0
DIMENSION
  5
1007
102
{ACAD_XDICTIONARY
360
1014
102
}
102
{ACAD_REACTORS
330
101E
102
}
330
207
100
AcDbEntity
  8
尺寸线
100
AcDbDimension
280
     0
  2
*D12
 10
-243.3701786379778
 20
1043.725865600448
 30
0.0
 11
-144.9944730680945
 21
941.8593979168251
 31
0.0
 70
   163
 71
     5
 42
90.0
 73
     0
 74
     0
 75
     0
  3
大字$3
100
AcDbDiametricDimension
 15
-185.0665020624786
 25
975.1643509017517
 35
0.0
 40
0.0
1001
ACAD
1000
DSTYLE
1002
{
1070
   288
1070
     1
1002
}
1001
ACAD_DSTYLE_DIMRADIAL_EXTENSION
1070
   387
1070
     1
1070
   388
1040
0.0
1070
   390
1040
0.0
  0
ENDSEC
  0
SECTION
  2
OBJECTS
  0
DICTIONARY
  5
C
330
0
100
AcDbDictionary
281
     1
  3
ACAD_CIP_PREVIOUS_PRODUCT_INFO
350
10C1
  3
ACAD_COLOR
350
704
  3
ACAD_DETAILVIEWSTYLE
350
10BB
  3
ACAD_GROUP
350
D
  3
ACAD_LAYOUT
350
1A
  3
ACAD_MATERIAL
350
6DA
  3
ACAD_MLEADERSTYLE
350
729
  3
ACAD_MLINESTYLE
350
17
  3
ACAD_PLOTSETTINGS
350
19
  3
ACAD_PLOTSTYLENAME
350
E
  3
ACAD_SCALELIST
350
707
  3
ACAD_SECTIONVIEWSTYLE
350
10B9
  3
ACAD_TABLESTYLE
350
705
  3
ACAD_VISUALSTYLE
350
6F3
  3
ACDB_RECOMPOSE_DATA
350
10D9
  3
AcDbVariableDictionary
350
74D
  0
DICTIONARY
  5
72F
330
8
100
AcDbDictionary
280
     1
281
     1
  0
DICTIONARY
  5
90C
330
2
100
AcDbDictionary
280
     1
281
     1
  3
ACAD_LAYERSTATES
360
90D
  0
DICTIONARY
  5
759
330
10
100
AcDbDictionary
280
     1
281
     1
  3
ADSK_XREC_LAYER_RECONCILED
360
75A
  0
DICTIONARY
  5
765
330
1FF
100
AcDbDictionary
280
     1
281
     1
  3
ADSK_XREC_LAYER_RECONCILED
360
766
  0
DICTIONARY
  5
7D8
330
7D7
100
AcDbDictionary
280
     1
281
     1
  0
DICTIONARY
  5
7DA
330
7D9
100
AcDbDictionary
280
     1
281
     1
  0
DICTIONARY
  5
7DC
330
7DB
100
AcDbDictionary
280
     1
281
     1
  0
DICTIONARY
  5
7DE
330
7DD
100
AcDbDictionary
280
     1
281
     1
  0
DICTIONARY
  5
7E0
330
7DF
100
AcDbDictionary
280
     1
281
     1
  0
DICTIONARY
  5
7E2
330
7E1
100
AcDbDictionary
280
     1
281
     1
  0
DICTIONARY
  5
7E4
330
7E3
100
AcDbDictionary
280
     1
281
     1
  0
DICTIONARY
  5
7E6
330
7E5
100
AcDbDictionary
280
     1
281
     1
  0
DICTIONARY
  5
7A1
330
207
100
AcDbDictionary
280
     1
281
     1
  3
ACAD_SORTENTS
360
7A2
  0
DICTIONARY
  5
10AB
330
F43
100
AcDbDictionary
280
     1
281
     1
  0
DICTIONARY
  5
10AD
330
1000
100
AcDbDictionary
280
     1
281
     1
  0
DICTIONARY
  5
10AF
330
1018
100
AcDbDictionary
280
     1
281
     1
  0
DICTIONARY
  5
E93
330
E92
100
AcDbDictionary
280
     1
281
     1
  3
ACAD_DIMASSOC
360
E94
  0
DICTIONARY
  5
E96
330
E95
100
AcDbDictionary
280
     1
281
     1
  3
ACAD_DIMASSOC
360
E97
  0
DICTIONARY
  5
E99
330
E98
100
AcDbDictionary
280
     1
281
     1
  3
ACAD_DIMASSOC
360
E9A
  0
DICTIONARY
  5
E9C
330
E9B
100
AcDbDictionary
280
     1
281
     1
  3
ACAD_DIMASSOC
360
E9D
  0
DICTIONARY
  5
E9F
330
E9E
100
AcDbDictionary
280
     1
281
     1
  3
ACAD_DIMASSOC
360
EA0
  0
DICTIONARY
  5
EA2
330
EA1
100
AcDbDictionary
280
     1
281
     1
  3
ACAD_DIMASSOC
360
EA3
  0
DICTIONARY
  5
EA5
330
EA4
100
AcDbDictionary
280
     1
281
     1
  3
ACAD_DIMASSOC
360
EA6
  0
DICTIONARY
  5
EA8
330
EA7
100
AcDbDictionary
280
     1
281
     1
  3
ACAD_DIMASSOC
360
EA9
  0
DICTIONARY
  5
EAB
330
EAA
100
AcDbDictionary
280
     1
281
     1
  3
ACAD_DIMASSOC
360
EAC
  0
DICTIONARY
  5
EAE
330
EAD
100
AcDbDictionary
280
     1
281
     1
  3
ACAD_DIMASSOC
360
EAF
  0
DICTIONARY
  5
EB1
330
EB0
100
AcDbDictionary
280
     1
281
     1
  3
ACAD_DIMASSOC
360
EB2
  0
DICTIONARY
  5
FFC
330
FEF
100
AcDbDictionary
280
     1
281
     1
  3
ACAD_DIMASSOC
360
1006
  0
DICTIONARY
  5
1014
330
1007
100
AcDbDictionary
280
     1
281
     1
  3
ACAD_DIMASSOC
360
101E
  0
XRECORD
  5
10C1
102
{ACAD_REACTORS
330
C
102
}
330
C
100
AcDbXrecord
280
     1
300
ACD
300
2017
300
ACD_F_S
  0
DICTIONARY
  5
704
102
{ACAD_REACTORS
330
C
102
}
330
C
100
AcDbDictionary
281
     1
  0
DICTIONARY
  5
10BB
102
{ACAD_REACTORS
330
C
102
}
330
C
100
AcDbDictionary
281
     1
  3
Metric50
350
10BC
  0
DICTIONARY
  5
D
102
{ACAD_REACTORS
330
C
102
}
330
C
100
AcDbDictionary
281
     1
  0
DICTIONARY
  5
1A
102
{ACAD_REACTORS
330
C
102
}
330
C
100
AcDbDictionary
281
     1
  3
Layout1
350
6D7
  3
Model
350
6D6
  0
DICTIONARY
  5
6DA
102
{ACAD_REACTORS
330
C
102
}
330
C
100
AcDbDictionary
281
     1
  3
ByBlock
350
6E3
  3
ByLayer
350
6DB
  3
Global
350
6EB
  0
DICTIONARY
  5
729
102
{ACAD_REACTORS
330
C
102
}
330
C
100
AcDbDictionary
281
     1
  3
Standard
350
72A
  0
DICTIONARY
  5
17
102
{ACAD_REACTORS
330
C
102
}
330
C
100
AcDbDictionary
281
     1
  3
Standard
350
18
  0
DICTIONARY
  5
19
102
{ACAD_REACTORS
330
C
102
}
330
C
100
AcDbDictionary
281
     1
  0
ACDBDICTIONARYWDFLT
  5
E
102
{ACAD_REACTORS
330
C
102
}
330
C
100
AcDbDictionary
281
     1
  3
Normal
350
F
100
AcDbDictionaryWithDefault
340
F
  0
DICTIONARY
  5
707
102
{ACAD_REACTORS
330
C
102
}
330
C
100
AcDbDictionary
281
     1
  3
A0
350
708
  3
A1
350
709
  3
A2
350
70A
  3
A3
350
70B
  3
A4
350
70C
  3
A5
350
70D
  3
A6
350
70E
  3
A7
350
70F
  3
A8
350
710
  3
A9
350
711
  3
B0
350
712
  3
B1
350
713
  3
B2
350
714
  3
B3
350
715
  3
B4
350
716
  3
B5
350
717
  3
B6
350
718
  3
B7
350
719
  3
B8
350
71A
  3
B9
350
71B
  3
C0
350
71C
  3
C1
350
71D
  3
C2
350
71E
  3
C3
350
71F
  3
C4
350
720
  3
C5
350
721
  3
C6
350
722
  3
C7
350
723
  3
C8
350
724
  3
C9
350
725
  3
D0
350
726
  3
D1
350
727
  3
D2
350
728
  0
DICTIONARY
  5
10B9
102
{ACAD_REACTORS
330
C
102
}
330
C
100
AcDbDictionary
281
     1
  3
Metric50
350
10BA
  0
DICTIONARY
  5
705
102
{ACAD_REACTORS
330
C
102
}
330
C
100
AcDbDictionary
281
     1
  3
Standard
350
706
  0
DICTIONARY
  5
6F3
102
{ACAD_REACTORS
330
C
102
}
330
C
100
AcDbDictionary
281
     1
  3
2dWireframe
350
6F9
  3
3D Hidden
350
6FB
  3
3dWireframe
350
6FA
  3
Basic
350
6F8
  3
Brighten
350
6FF
  3
ColorChange
350
703
  3
Conceptual
350
6FC
  3
Dim
350
6FE
  3
EdgeColorOff
350
754
  3
Facepattern
350
702
  3
Flat
350
6F4
  3
FlatWithEdges
350
6F5
  3
Gouraud
350
6F6
  3
GouraudWithEdges
350
6F7
  3
Hidden
350
10B3
  3
JitterOff
350
752
  3
Linepattern
350
701
  3
OverhangOff
350
753
  3
Realistic
350
6FD
  3
Shaded
350
10B8
  3
Shaded with edges
350
10B7
  3
Shades of Gray
350
10B4
  3
Sketchy
350
10B5
  3
Thicken
350
700
  3
Wireframe
350
10B2
  3
X-Ray
350
10B6
  0
XRECORD
  5
10D9
102
{ACAD_REACTORS
330
C
102
}
330
C
100
AcDbXrecord
280
     1
 90
        1
330
706
330
10BA
330
10BC
  0
DICTIONARY
  5
74D
102
{ACAD_REACTORS
330
C
102
}
330
C
100
AcDbDictionary
281
     1
  3
CANNOSCALE
350
750
  3
CMLEADERSTYLE
350
74F
  3
CTABLESTYLE
350
74E
  3
CVIEWDETAILSTYLE
350
10CE
  3
CVIEWSECTIONSTYLE
350
10CF
  3
LAYEREVAL
350
10D2
  3
LAYERNOTIFY
350
10D3
  3
LIGHTINGUNITS
350
10D1
  3
MSLTSCALE
350
10D0
  0
DICTIONARY
  5
90D
102
{ACAD_REACTORS
330
90C
102
}
330
90C
100
AcDbDictionary
281
     1
  0
XRECORD
  5
75A
102
{ACAD_REACTORS
330
759
102
}
330
759
100
AcDbXrecord
280
     1
290
     1
  0
XRECORD
  5
766
102
{ACAD_REACTORS
330
765
102
}
330
765
100
AcDbXrecord
280
     1
290
     1
  0
SORTENTSTABLE
  5
7A2
102
{ACAD_REACTORS
330
7A1
102
}
330
7A1
100
AcDbSortentsTable
330
207
  0
DIMASSOC
  5
E94
102
{ACAD_REACTORS
330
E93
102
}
330
E93
100
AcDbDimAssoc
330
E92
 90
        3
 70
     0
 71
     0
  1
AcDbOsnapPointRef
 72
     1
331
C08
 73
     2
 91
        0
 40
1.570796326794896
 10
0.0
 20
0.0
 30
2.000000000000000E+50
 75
     0
  1
AcDbOsnapPointRef
 72
    13
331
BFE
 73
     2
 91
        0
 40
4.712388980384689
 10
0.0
 20
0.0
 30
2.000000000000000E+50
 75
     0
  0
DIMASSOC
  5
E97
102
{ACAD_REACTORS
330
E96
102
}
330
E96
100
AcDbDimAssoc
330
E95
 90
        3
 70
     0
 71
     0
  1
AcDbOsnapPointRef
 72
     1
331
BFE
 73
     2
 91
        0
 40
3.141592653589793
 10
0.0
 20
0.0
 30
2.000000000000000E+50
 75
     0
  1
AcDbOsnapPointRef
 72
    13
331
C24
 73
     2
 91
        0
 40
6.283185307179586
 10
0.0
 20
0.0
 30
2.000000000000000E+50
 75
     0
  0
DIMASSOC
  5
E9A
102
{ACAD_REACTORS
330
E99
102
}
330
E99
100
AcDbDimAssoc
330
E98
 90
        3
 70
     0
 71
     0
  1
AcDbOsnapPointRef
 72
     1
331
E89
 73
     2
 91
        0
 40
3.141592653589793
 10
0.0
 20
0.0
 30
2.000000000000000E+50
 75
     0
  1
AcDbOsnapPointRef
 72
    13
331
E87
 73
     2
 91
        0
 40
6.283185307179586
 10
0.0
 20
0.0
 30
2.000000000000000E+50
 75
     0
  0
DIMASSOC
  5
E9D
102
{ACAD_REACTORS
330
E9C
102
}
330
E9C
100
AcDbDimAssoc
330
E9B
 90
        3
 70
     0
 71
     0
  1
AcDbOsnapPointRef
 72
    13
331
E89
 73
     2
 91
        0
 40
4.712388980384689
 10
0.0
 20
0.0
 30
2.000000000000000E+50
 75
     0
  1
AcDbOsnapPointRef
 72
     1
331
E86
 73
     2
 91
        0
 40
1.570796326794896
 10
0.0
 20
0.0
 30
2.000000000000000E+50
 75
     0
  0
DIMASSOC
  5
EA0
102
{ACAD_REACTORS
330
E9F
102
}
330
E9F
100
AcDbDimAssoc
330
E9E
 90
        2
 70
     0
 71
     0
  1
AcDbOsnapPointRef
 72
    13
331
E8F
 73
     2
 91
        0
 40
6.283185307179586
 10
0.0
 20
0.0
 30
2.000000000000000E+50
 75
     0
  0
DIMASSOC
  5
EA3
102
{ACAD_REACTORS
330
EA2
102
}
330
EA2
100
AcDbDimAssoc
330
EA1
 90
        3
 70
     0
 71
     0
  1
AcDbOsnapPointRef
 72
     1
331
E8E
 73
     2
 91
        0
 40
1.0
 10
0.0
 20
0.0
 30
2.000000000000000E+50
 75
     0
  1
AcDbOsnapPointRef
 72
     8
331
E90
 73
     2
 91
        0
 40
1.0
 10
0.0
 20
0.0
 30
0.0
 75
     1
  1
AcDbOsnapPointRef
 72
     1
331
E8E
 73
     2
 91
        0
 40
1.0
 10
0.0
 20
0.0
 30
2.000000000000000E+50
 75
     0
  0
DIMASSOC
  5
EA6
102
{ACAD_REACTORS
330
EA5
102
}
330
EA5
100
AcDbDimAssoc
330
EA4
 90
        2
 70
     0
 71
     0
  1
AcDbOsnapPointRef
 72
     3
331
C0B
 73
     2
 91
        0
 40
0.0
 10
0.0
 20
0.0
 30
0.0
 75
     0
  0
DIMASSOC
  5
EA9
102
{ACAD_REACTORS
330
EA8
102
}
330
EA8
100
AcDbDimAssoc
330
EA7
 90
        2
 70
     0
 71
     0
  1
AcDbOsnapPointRef
 72
     2
331
A5F
 73
     2
 91
        0
 40
0.5
 10
0.0
 20
0.0
 30
0.0
 75
     0
  0
DIMASSOC
  5
EAC
102
{ACAD_REACTORS
330
EAB
102
}
330
EAB
100
AcDbDimAssoc
330
EAA
 90
        2
 70
     0
 71
     0
  1
AcDbOsnapPointRef
 72
    13
331
C08
 73
     2
 91
        0
 40
3.141592653589793
 10
0.0
 20
0.0
 30
2.000000000000000E+50
 75
     0
  0
DIMASSOC
  5
EAF
102
{ACAD_REACTORS
330
EAE
102
}
330
EAE
100
AcDbDimAssoc
330
EAD
 90
        3
 70
     0
 71
     0
  1
AcDbOsnapPointRef
 72
     1
331
9CA
 73
     2
 91
        0
 40
1.0
 10
0.0
 20
0.0
 30
2.000000000000000E+50
 75
     0
  1
AcDbOsnapPointRef
 72
     1
331
BF2
 73
     2
 91
        0
 40
1.570796326794896
 10
0.0
 20
0.0
 30
2.000000000000000E+50
 75
     0
  0
DIMASSOC
  5
EB2
102
{ACAD_REACTORS
330
EB1
102
}
330
EB1
100
AcDbDimAssoc
330
EB0
 90
        3
 70
     0
 71
     0
  1
AcDbOsnapPointRef
 72
     1
331
9CF
 73
     2
 91
        0
 40
0.9999999999999998
 10
0.0
 20
0.0
 30
2.000000000000000E+50
 75
     0
  1
AcDbOsnapPointRef
 72
    13
331
BFA
 73
     2
 91
        0
 40
7.853981633974482
 10
0.0
 20
0.0
 30
2.000000000000000E+50
 75
     0
  0
DIMASSOC
  5
1006
102
{ACAD_REACTORS
330
FFC
102
}
330
FFC
100
AcDbDimAssoc
330
FEF
 90
        2
 70
     0
 71
     0
  1
AcDbOsnapPointRef
 72
     3
331
C06
 73
     2
 91
        0
 40
0.0
 10
0.0
 20
0.0
 30
0.0
 75
     0
  0
DIMASSOC
  5
101E
102
{ACAD_REACTORS
330
1014
102
}
330
1014
100
AcDbDimAssoc
330
1007
 90
        2
 70
     0
 71
     0
  1
AcDbOsnapPointRef
 72
     3
331
C05
 73
     2
 91
        0
 40
0.0
 10
0.0
 20
0.0
 30
0.0
 75
     0
  0
ACDBDETAILVIEWSTYLE
  5
10BC
102
{ACAD_XDICTIONARY
360
10D7
102
}
102
{ACAD_REACTORS
330
10BB
102
}
330
10BB
100
AcDbModelDocViewStyle
 70
     0
  3
Metric50
290
     0
100
AcDbDetailViewStyle
 70
     0
 71
     0
 90
        3
 71
     1
340
11
 62
   256
 40
5.0
340
0
 62
   256
 40
5.0
300

 40
0.0
280
     1
 71
     2
340
16
 90
       25
 62
   256
 71
     3
340
11
 62
   256
 40
5.0
 90
        0
 40
15.0
 90
        1
300
%<\AcVar ViewDetailId>% (%<\AcVar ViewScale \f "%sn">%)
 71
     4
340
16
 90
       25
 62
   256
340
16
 90
       25
 62
   256
280
     0
  0
LAYOUT
  5
6D7
102
{ACAD_REACTORS
330
1A
102
}
330
1A
100
AcDbPlotSettings
  1

  2
none_device
  4
ISO_A4_(297.00_x_210.00_MM)
  6

 40
0.0
 41
0.0
 42
0.0
 43
0.0
 44
297.0
 45
210.0
 46
0.0
 47
0.0
 48
0.0
 49
0.0
140
0.0
141
0.0
142
1.0
143
1.0
 70
     0
 72
     1
 73
     0
 74
     0
  7

 75
     0
147
1.0
 76
     0
 77
     2
 78
   300
148
0.0
149
0.0
100
AcDbLayout
  1
Layout1
 70
     1
 71
     1
 10
0.0
 20
0.0
 11
12.0
 21
9.0
 12
0.0
 22
0.0
 32
0.0
 14
1.000000000000000E+20
 24
1.000000000000000E+20
 34
1.000000000000000E+20
 15
-1.000000000000000E+20
 25
-1.000000000000000E+20
 35
-1.000000000000000E+20
146
0.0
 13
0.0
 23
0.0
 33
0.0
 16
1.0
 26
0.0
 36
0.0
 17
0.0
 27
1.0
 37
0.0
 76
     0
330
208
  0
LAYOUT
  5
6D6
102
{ACAD_XDICTIONARY
360
912
102
}
102
{ACAD_REACTORS
330
1A
102
}
330
1A
100
AcDbPlotSettings
  1

  2
none_device
  4
ISO_A4_(297.00_x_210.00_MM)
  6

 40
0.0
 41
0.0
 42
0.0
 43
0.0
 44
297.0
 45
210.0
 46
0.0
 47
0.0
 48
0.0
 49
0.0
140
0.0
141
0.0
142
1.0
143
1.0
 70
  1024
 72
     1
 73
     0
 74
     0
  7

 75
     0
147
1.0
 76
     0
 77
     2
 78
   300
148
0.0
149
0.0
100
AcDbLayout
  1
Model
 70
     0
 71
     0
 10
0.0
 20
0.0
 11
297.0
 21
210.0
 12
0.0
 22
0.0
 32
0.0
 14
0.0
 24
0.0
 34
0.0
 15
0.0
 25
0.0
 35
0.0
146
0.0
 13
0.0
 23
0.0
 33
0.0
 16
1.0
 26
0.0
 36
0.0
 17
0.0
 27
1.0
 37
0.0
 76
     0
330
207
331
1F4
  0
MATERIAL
  5
6E3
102
{ACAD_XDICTIONARY
360
6E4
102
}
102
{ACAD_REACTORS
330
6DA
102
}
330
6DA
100
AcDbMaterial
  1
ByBlock
 72
     0
 43
0.0008202099737533
 43
0.0
 43
0.0
 43
0.0
 43
0.0
 43
0.0008202099737533
 43
0.0
 43
0.0
 43
0.0
 43
0.0
 43
1.0
 43
0.0
 43
0.0
 43
0.0
 43
0.0
 43
1.0
 77
     0
 47
0.0008202099737533
 47
0.0
 47
0.0
 47
0.0
 47
0.0
 47
0.0008202099737533
 47
0.0
 47
0.0
 47
0.0
 47
0.0
 47
1.0
 47
0.0
 47
0.0
 47
0.0
 47
0.0
 47
1.0
171
     0
 49
0.0008202099737533
 49
0.0
 49
0.0
 49
0.0
 49
0.0
 49
0.0008202099737533
 49
0.0
 49
0.0
 49
0.0
 49
0.0
 49
1.0
 49
0.0
 49
0.0
 49
0.0
 49
0.0
 49
1.0
175
     0
142
0.0008202099737533
142
0.0
142
0.0
142
0.0
142
0.0
142
0.0008202099737533
142
0.0
142
0.0
142
0.0
142
0.0
142
1.0
142
0.0
142
0.0
142
0.0
142
0.0
142
1.0
179
     0
144
0.0008202099737533
144
0.0
144
0.0
144
0.0
144
0.0
144
0.0008202099737533
144
0.0
144
0.0
144
0.0
144
0.0
144
1.0
144
0.0
144
0.0
144
0.0
144
0.0
144
1.0
147
0.0008202099737533
147
0.0
147
0.0
147
0.0
147
0.0
147
0.0008202099737533
147
0.0
147
0.0
147
0.0
147
0.0
147
1.0
147
0.0
147
0.0
147
0.0
147
0.0
147
1.0
  0
MATERIAL
  5
6DB
102
{ACAD_XDICTIONARY
360
6DC
102
}
102
{ACAD_REACTORS
330
6DA
102
}
330
6DA
100
AcDbMaterial
  1
ByLayer
 72
     0
 43
0.0008202099737533
 43
0.0
 43
0.0
 43
0.0
 43
0.0
 43
0.0008202099737533
 43
0.0
 43
0.0
 43
0.0
 43
0.0
 43
1.0
 43
0.0
 43
0.0
 43
0.0
 43
0.0
 43
1.0
 77
     0
 47
0.0008202099737533
 47
0.0
 47
0.0
 47
0.0
 47
0.0
 47
0.0008202099737533
 47
0.0
 47
0.0
 47
0.0
 47
0.0
 47
1.0
 47
0.0
 47
0.0
 47
0.0
 47
0.0
 47
1.0
171
     0
 49
0.0008202099737533
 49
0.0
 49
0.0
 49
0.0
 49
0.0
 49
0.0008202099737533
 49
0.0
 49
0.0
 49
0.0
 49
0.0
 49
1.0
 49
0.0
 49
0.0
 49
0.0
 49
0.0
 49
1.0
175
     0
142
0.0008202099737533
142
0.0
142
0.0
142
0.0
142
0.0
142
0.0008202099737533
142
0.0
142
0.0
142
0.0
142
0.0
142
1.0
142
0.0
142
0.0
142
0.0
142
0.0
142
1.0
179
     0
144
0.0008202099737533
144
0.0
144
0.0
144
0.0
144
0.0
144
0.0008202099737533
144
0.0
144
0.0
144
0.0
144
0.0
144
1.0
144
0.0
144
0.0
144
0.0
144
0.0
144
1.0
147
0.0008202099737533
147
0.0
147
0.0
147
0.0
147
0.0
147
0.0008202099737533
147
0.0
147
0.0
147
0.0
147
0.0
147
1.0
147
0.0
147
0.0
147
0.0
147
0.0
147
1.0
  0
MATERIAL
  5
6EB
102
{ACAD_XDICTIONARY
360
6EC
102
}
102
{ACAD_REACTORS
330
6DA
102
}
330
6DA
100
AcDbMaterial
  1
Global
 72
     0
 43
0.0008202099737533
 43
0.0
 43
0.0
 43
0.0
 43
0.0
 43
0.0008202099737533
 43
0.0
 43
0.0
 43
0.0
 43
0.0
 43
1.0
 43
0.0
 43
0.0
 43
0.0
 43
0.0
 43
1.0
 77
     0
 47
0.0008202099737533
 47
0.0
 47
0.0
 47
0.0
 47
0.0
 47
0.0008202099737533
 47
0.0
 47
0.0
 47
0.0
 47
0.0
 47
1.0
 47
0.0
 47
0.0
 47
0.0
 47
0.0
 47
1.0
171
     0
 49
0.0008202099737533
 49
0.0
 49
0.0
 49
0.0
 49
0.0
 49
0.0008202099737533
 49
0.0
 49
0.0
 49
0.0
 49
0.0
 49
1.0
 49
0.0
 49
0.0
 49
0.0
 49
0.0
 49
1.0
175
     0
142
0.0008202099737533
142
0.0
142
0.0
142
0.0
142
0.0
142
0.0008202099737533
142
0.0
142
0.0
142
0.0
142
0.0
142
1.0
142
0.0
142
0.0
142
0.0
142
0.0
142
1.0
179
     0
144
0.0008202099737533
144
0.0
144
0.0
144
0.0
144
0.0
144
0.0008202099737533
144
0.0
144
0.0
144
0.0
144
0.0
144
1.0
144
0.0
144
0.0
144
0.0
144
0.0
144
1.0
147
0.0008202099737533
147
0.0
147
0.0
147
0.0
147
0.0
147
0.0008202099737533
147
0.0
147
0.0
147
0.0
147
0.0
147
1.0
147
0.0
147
0.0
147
0.0
147
0.0
147
1.0
  0
MLEADERSTYLE
  5
72A
102
{ACAD_REACTORS
330
729
102
}
330
729
100
AcDbMLeaderStyle
179
     2
170
     2
171
     1
172
     0
 90
        2
 40
0.0
 41
0.0
173
     1
 91
-1056964608
340
14
 92
       -2
290
     1
 42
2.0
291
     1
 43
0.36
  3
Standard
 44
4.0
300

342
11
174
     1
178
     6
175
     1
176
     0
 93
-1056964608
 45
4.0
292
     0
297
     0
 46
4.0
 94
-1056964608
 47
1.0
 49
1.0
140
1.0
293
     1
141
0.0
294
     1
177
     0
142
1.0
295
     0
296
     0
143
0.125
271
     0
272
     9
273
     9
298
     0
  0
MLINESTYLE
  5
18
102
{ACAD_REACTORS
330
17
102
}
330
17
100
AcDbMlineStyle
  2
STANDARD
 70
     0
  3

 62
   256
 51
90.0
 52
90.0
 71
     2
 49
0.5
 62
   256
  6
BYLAYER
 49
-0.5
 62
   256
  6
BYLAYER
  0
ACDBPLACEHOLDER
  5
F
102
{ACAD_REACTORS
330
E
102
}
330
E
  0
SCALE
  5
708
102
{ACAD_REACTORS
330
707
102
}
330
707
100
AcDbScale
 70
     0
300
1:1
140
1.0
141
1.0
290
     1
  0
SCALE
  5
709
102
{ACAD_REACTORS
330
707
102
}
330
707
100
AcDbScale
 70
     0
300
1:2
140
1.0
141
2.0
290
     0
  0
SCALE
  5
70A
102
{ACAD_REACTORS
330
707
102
}
330
707
100
AcDbScale
 70
     0
300
1:4
140
1.0
141
4.0
290
     0
  0
SCALE
  5
70B
102
{ACAD_REACTORS
330
707
102
}
330
707
100
AcDbScale
 70
     0
300
1:5
140
1.0
141
5.0
290
     0
  0
SCALE
  5
70C
102
{ACAD_REACTORS
330
707
102
}
330
707
100
AcDbScale
 70
     0
300
1:8
140
1.0
141
8.0
290
     0
  0
SCALE
  5
70D
102
{ACAD_REACTORS
330
707
102
}
330
707
100
AcDbScale
 70
     0
300
1:10
140
1.0
141
10.0
290
     0
  0
SCALE
  5
70E
102
{ACAD_REACTORS
330
707
102
}
330
707
100
AcDbScale
 70
     0
300
1:16
140
1.0
141
16.0
290
     0
  0
SCALE
  5
70F
102
{ACAD_REACTORS
330
707
102
}
330
707
100
AcDbScale
 70
     0
300
1:20
140
1.0
141
20.0
290
     0
  0
SCALE
  5
710
102
{ACAD_REACTORS
330
707
102
}
330
707
100
AcDbScale
 70
     0
300
1:30
140
1.0
141
30.0
290
     0
  0
SCALE
  5
711
102
{ACAD_REACTORS
330
707
102
}
330
707
100
AcDbScale
 70
     0
300
1:40
140
1.0
141
40.0
290
     0
  0
SCALE
  5
712
102
{ACAD_REACTORS
330
707
102
}
330
707
100
AcDbScale
 70
     0
300
1:50
140
1.0
141
50.0
290
     0
  0
SCALE
  5
713
102
{ACAD_REACTORS
330
707
102
}
330
707
100
AcDbScale
 70
     0
300
1:100
140
1.0
141
100.0
290
     0
  0
SCALE
  5
714
102
{ACAD_REACTORS
330
707
102
}
330
707
100
AcDbScale
 70
     0
300
2:1
140
2.0
141
1.0
290
     0
  0
SCALE
  5
715
102
{ACAD_REACTORS
330
707
102
}
330
707
100
AcDbScale
 70
     0
300
4:1
140
4.0
141
1.0
290
     0
  0
SCALE
  5
716
102
{ACAD_REACTORS
330
707
102
}
330
707
100
AcDbScale
 70
     0
300
8:1
140
8.0
141
1.0
290
     0
  0
SCALE
  5
717
102
{ACAD_REACTORS
330
707
102
}
330
707
100
AcDbScale
 70
     0
300
10:1
140
10.0
141
1.0
290
     0
  0
SCALE
  5
718
102
{ACAD_REACTORS
330
707
102
}
330
707
100
AcDbScale
 70
     0
300
100:1
140
100.0
141
1.0
290
     0
  0
SCALE
  5
719
102
{ACAD_REACTORS
330
707
102
}
330
707
100
AcDbScale
 70
     0
300
1/128" = 1'-0"
140
0.0078125
141
12.0
290
     0
  0
SCALE
  5
71A
102
{ACAD_REACTORS
330
707
102
}
330
707
100
AcDbScale
 70
     0
300
1/64" = 1'-0"
140
0.015625
141
12.0
290
     0
  0
SCALE
  5
71B
102
{ACAD_REACTORS
330
707
102
}
330
707
100
AcDbScale
 70
     0
300
1/32" = 1'-0"
140
0.03125
141
12.0
290
     0
  0
SCALE
  5
71C
102
{ACAD_REACTORS
330
707
102
}
330
707
100
AcDbScale
 70
     0
300
1/16" = 1'-0"
140
0.0625
141
12.0
290
     0
  0
SCALE
  5
71D
102
{ACAD_REACTORS
330
707
102
}
330
707
100
AcDbScale
 70
     0
300
3/32" = 1'-0"
140
0.09375
141
12.0
290
     0
  0
SCALE
  5
71E
102
{ACAD_REACTORS
330
707
102
}
330
707
100
AcDbScale
 70
     0
300
1/8" = 1'-0"
140
0.125
141
12.0
290
     0
  0
SCALE
  5
71F
102
{ACAD_REACTORS
330
707
102
}
330
707
100
AcDbScale
 70
     0
300
3/16" = 1'-0"
140
0.1875
141
12.0
290
     0
  0
SCALE
  5
720
102
{ACAD_REACTORS
330
707
102
}
330
707
100
AcDbScale
 70
     0
300
1/4" = 1'-0"
140
0.25
141
12.0
290
     0
  0
SCALE
  5
721
102
{ACAD_REACTORS
330
707
102
}
330
707
100
AcDbScale
 70
     0
300
3/8" = 1'-0"
140
0.375
141
12.0
290
     0
  0
SCALE
  5
722
102
{ACAD_REACTORS
330
707
102
}
330
707
100
AcDbScale
 70
     0
300
1/2" = 1'-0"
140
0.5
141
12.0
290
     0
  0
SCALE
  5
723
102
{ACAD_REACTORS
330
707
102
}
330
707
100
AcDbScale
 70
     0
300
3/4" = 1'-0"
140
0.75
141
12.0
290
     0
  0
SCALE
  5
724
102
{ACAD_REACTORS
330
707
102
}
330
707
100
AcDbScale
 70
     0
300
1" = 1'-0"
140
1.0
141
12.0
290
     0
  0
SCALE
  5
725
102
{ACAD_REACTORS
330
707
102
}
330
707
100
AcDbScale
 70
     0
300
1-1/2" = 1'-0"
140
1.5
141
12.0
290
     0
  0
SCALE
  5
726
102
{ACAD_REACTORS
330
707
102
}
330
707
100
AcDbScale
 70
     0
300
3" = 1'-0"
140
3.0
141
12.0
290
     0
  0
SCALE
  5
727
102
{ACAD_REACTORS
330
707
102
}
330
707
100
AcDbScale
 70
     0
300
6" = 1'-0"
140
6.0
141
12.0
290
     0
  0
SCALE
  5
728
102
{ACAD_REACTORS
330
707
102
}
330
707
100
AcDbScale
 70
     0
300
1'-0" = 1'-0"
140
12.0
141
12.0
290
     0
  0
ACDBSECTIONVIEWSTYLE
  5
10BA
102
{ACAD_XDICTIONARY
360
10D5
102
}
102
{ACAD_REACTORS
330
10B9
102
}
330
10B9
100
AcDbModelDocViewStyle
 70
     0
  3
Metric50
290
     0
100
AcDbSectionViewStyle
 70
     0
 71
     0
 90
      102
 71
     1
340
11
 62
   256
 40
5.0
340
0
340
0
 62
   256
 40
5.0
300
I, O, Q, S, X, Z
 40
10.0
 90
        0
 40
2.5
 90
        0
 71
     2
340
16
 90
       25
 62
   256
340
16
 90
       50
 62
   256
 40
5.0
 40
2.5
 40
5.0
 71
     3
340
11
 62
   256
 40
5.0
 90
        0
 40
15.0
 90
        1
300
%<\AcVar ViewSectionStartId>%-%<\AcVar ViewSectionEndId>% (%<\AcVar ViewScale \f "%sn">%)
 71
     4
 62
   256
 62
   257
300
ANSI31
 40
1.0
 90
        0
290
     0
290
     0
 90
        6
 40
0.0
 40
1.570796326794896
 40
0.2617993877991494
 40
1.308996938995747
 40
-0.2617993877991494
 40
1.832595714594046
  0
TABLESTYLE
  5
706
102
{ACAD_XDICTIONARY
360
72C
102
}
102
{ACAD_REACTORS
330
705
102
}
330
705
100
AcDbTableStyle
280
     0
  3
Standard
 70
     0
 71
     0
 40
1.5
 41
1.5
280
     0
281
     0
  7
STANDARD
140
4.5
170
     2
 62
     0
 63
     7
283
     0
 90
      512
 91
        0
  1

274
    -2
284
     1
 64
     0
275
    -2
285
     1
 65
     0
276
    -2
286
     1
 66
     0
277
    -2
287
     1
 67
     0
278
    -2
288
     1
 68
     0
279
    -2
289
     1
 69
     0
  7
STANDARD
140
6.0
170
     5
 62
     0
 63
     7
283
     0
 90
      512
 91
        0
  1

274
    -2
284
     1
 64
     0
275
    -2
285
     1
 65
     0
276
    -2
286
     1
 66
     0
277
    -2
287
     1
 67
     0
278
    -2
288
     1
 68
     0
279
    -2
289
     1
 69
     0
  7
STANDARD
140
4.5
170
     5
 62
     0
 63
     7
283
     0
 90
      512
 91
        0
  1

274
    -2
284
     1
 64
     0
275
    -2
285
     1
 65
     0
276
    -2
286
     1
 66
     0
277
    -2
287
     1
 67
     0
278
    -2
288
     1
 68
     0
279
    -2
289
     1
 69
     0
  0
VISUALSTYLE
  5
6F9
102
{ACAD_REACTORS
330
6F3
102
}
330
6F3
100
AcDbVisualStyle
  2
2dWireframe
 70
     4
177
     3
291
     0
 70
    58
 90
        0
176
     1
 90
        2
176
     1
 90
        0
176
     1
 90
        0
176
     1
 40
0.6
176
     1
 40
30.0
176
     1
 62
     7
420
 16777215
176
     1
 90
        1
176
     1
 90
        4
176
     1
 62
     7
176
     1
 62
   257
176
     1
 90
        1
176
     1
 90
        1
176
     1
 40
1.0
176
     1
 90
        0
176
     1
 62
   257
176
     1
 40
1.0
176
     1
 90
        1
176
     1
 90
        6
176
     1
 90
        2
176
     1
 62
     7
176
     1
 90
        5
176
     1
 90
        0
176
     1
 90
        0
176
     1
290
     0
176
     1
 90
        1
176
     1
 40
0.0
176
     1
 90
        0
176
     1
290
     1
176
     1
290
     1
176
     1
290
     0
176
     1
290
     0
176
     1
290
     0
176
     1
290
     0
176
     1
290
     0
176
     1
290
     0
176
     1
290
     0
176
     1
 90
       50
176
     1
 40
0.0
176
     1
 40
1.0
176
     1
 90
        0
176
     1
 62
    18
420
        0
176
     1
 90
       50
176
     1
 90
        3
176
     1
 62
     5
420
      255
176
     1
290
     0
176
     1
 90
       50
176
     1
 90
       50
176
     1
 90
       50
176
     1
290
     0
176
     1
 90
       50
176
     1
 62
   256
176
     0
 40
1.0
176
     0
 90
        2
176
     1
  1
strokes_ogs.tif
176
     1
290
     0
176
     1
 40
1.0
176
     1
 40
1.0
176
     1
  0
VISUALSTYLE
  5
6FB
102
{ACAD_REACTORS
330
6F3
102
}
330
6F3
100
AcDbVisualStyle
  2
3D Hidden
 70
     6
177
     3
291
     0
 70
    58
 90
        1
176
     1
 90
        2
176
     1
 90
        2
176
     1
 90
        0
176
     1
 40
0.6
176
     1
 40
30.0
176
     1
 62
     7
420
 16777215
176
     1
 90
        2
176
     1
 90
        2
176
     1
 62
     7
176
     1
 62
   257
176
     1
 90
        2
176
     1
 90
        1
176
     1
 40
40.0
176
     1
 90
        0
176
     1
 62
   257
176
     1
 40
1.0
176
     1
 90
        1
176
     1
 90
        6
176
     1
 90
        2
176
     1
 62
     7
176
     1
 90
        3
176
     1
 90
        0
176
     1
 90
        0
176
     1
290
     0
176
     1
 90
        1
176
     1
 40
0.0
176
     1
 90
        0
176
     1
290
     0
176
     1
290
     1
176
     1
290
     1
176
     1
290
     0
176
     1
290
     0
176
     1
290
     0
176
     1
290
     0
176
     1
290
     0
176
     1
290
     0
176
     1
 90
       50
176
     1
 40
0.0
176
     1
 40
1.0
176
     1
 90
        0
176
     1
 62
    18
420
        0
176
     1
 90
       50
176
     1
 90
        3
176
     1
 62
     5
420
      255
176
     1
290
     0
176
     1
 90
       50
176
     1
 90
       50
176
     1
 90
       50
176
     1
290
     0
176
     1
 90
       50
176
     1
 62
   256
176
     0
 40
1.0
176
     0
 90
        2
176
     1
  1
strokes_ogs.tif
176
     1
290
     0
176
     1
 40
1.0
176
     1
 40
1.0
176
     1
  0
VISUALSTYLE
  5
6FA
102
{ACAD_REACTORS
330
6F3
102
}
330
6F3
100
AcDbVisualStyle
  2
3dWireframe
 70
     5
177
     3
291
     0
 70
    58
 90
        0
176
     1
 90
        2
176
     1
 90
        0
176
     1
 90
        0
176
     1
 40
0.6
176
     1
 40
30.0
176
     1
 62
     7
420
 16777215
176
     1
 90
        1
176
     1
 90
        4
176
     1
 62
     7
176
     1
 62
   257
176
     1
 90
        1
176
     1
 90
        1
176
     1
 40
1.0
176
     1
 90
        0
176
     1
 62
   257
176
     1
 40
1.0
176
     1
 90
        1
176
     1
 90
        6
176
     1
 90
        2
176
     1
 62
     7
176
     1
 90
        5
176
     1
 90
        0
176
     1
 90
        0
176
     1
290
     0
176
     1
 90
        1
176
     1
 40
0.0
176
     1
 90
        0
176
     1
290
     0
176
     1
290
     1
176
     1
290
     1
176
     1
290
     0
176
     1
290
     0
176
     1
290
     0
176
     1
290
     0
176
     1
290
     0
176
     1
290
     0
176
     1
 90
       50
176
     1
 40
0.0
176
     1
 40
1.0
176
     1
 90
        0
176
     1
 62
    18
420
        0
176
     1
 90
       50
176
     1
 90
        3
176
     1
 62
     5
420
      255
176
     1
290
     0
176
     1
 90
       50
176
     1
 90
       50
176
     1
 90
       50
176
     1
290
     0
176
     1
 90
       50
176
     1
 62
   256
176
     0
 40
1.0
176
     0
 90
        2
176
     1
  1
strokes_ogs.tif
176
     1
290
     0
176
     1
 40
1.0
176
     1
 40
1.0
176
     1
  0
VISUALSTYLE
  5
6F8
102
{ACAD_REACTORS
330
6F3
102
}
330
6F3
100
AcDbVisualStyle
  2
Basic
 70
     7
177
     3
291
     1
 70
    58
 90
        1
176
     1
 90
        0
176
     1
 90
        1
176
     1
 90
        0
176
     1
 40
0.6
176
     1
 40
30.0
176
     1
 62
     7
420
 16777215
176
     1
 90
        0
176
     1
 90
        4
176
     1
 62
     7
176
     1
 62
   257
176
     1
 90
        1
176
     1
 90
        1
176
     1
 40
1.0
176
     1
 90
        8
176
     1
 62
     7
176
     1
 40
1.0
176
     1
 90
        1
176
     1
 90
        6
176
     1
 90
        2
176
     1
 62
     7
176
     1
 90
        5
176
     1
 90
        0
176
     1
 90
        0
176
     1
290
     0
176
     1
 90
        1
176
     1
 40
0.0
176
     1
 90
        0
176
     1
290
     0
176
     1
290
     1
176
     1
290
     1
176
     1
290
     0
176
     1
290
     0
176
     1
290
     0
176
     1
290
     0
176
     1
290
     0
176
     1
290
     0
176
     1
 90
       50
176
     1
 40
0.0
176
     1
 40
1.0
176
     1
 90
        0
176
     1
 62
    18
420
        0
176
     1
 90
       50
176
     1
 90
        3
176
     1
 62
     5
420
      255
176
     1
290
     0
176
     1
 90
       50
176
     1
 90
       50
176
     1
 90
       50
176
     1
290
     0
176
     1
 90
       50
176
     1
 62
   256
176
     0
 40
1.0
176
     0
 90
        2
176
     1
  1
strokes_ogs.tif
176
     1
290
     0
176
     1
 40
1.0
176
     1
 40
1.0
176
     1
  0
VISUALSTYLE
  5
6FF
102
{ACAD_REACTORS
330
6F3
102
}
330
6F3
100
AcDbVisualStyle
  2
Brighten
 70
    12
177
     3
291
     1
 70
    58
 90
        2
176
     1
 90
        2
176
     1
 90
        0
176
     1
 90
        0
176
     1
 40
0.6
176
     1
 40
30.0
176
     1
 62
     7
420
 16777215
176
     1
 90
        1
176
     1
 90
        4
176
     1
 62
     7
176
     1
 62
   257
176
     1
 90
        1
176
     1
 90
        1
176
     1
 40
1.0
176
     1
 90
        8
176
     1
 62
     7
176
     1
 40
1.0
176
     1
 90
        1
176
     1
 90
        6
176
     1
 90
        2
176
     1
 62
     7
176
     1
 90
        5
176
     1
 90
        0
176
     1
 90
        0
176
     1
290
     0
176
     1
 90
        1
176
     1
 40
50.0
176
     1
 90
        0
176
     1
290
     0
176
     1
290
     1
176
     1
290
     1
176
     1
290
     0
176
     1
290
     0
176
     1
290
     0
176
     1
290
     0
176
     1
290
     0
176
     1
290
     0
176
     1
 90
       50
176
     1
 40
0.0
176
     1
 40
1.0
176
     1
 90
        0
176
     1
 62
    18
420
        0
176
     1
 90
       50
176
     1
 90
        3
176
     1
 62
     5
420
      255
176
     1
290
     0
176
     1
 90
       50
176
     1
 90
       50
176
     1
 90
       50
176
     1
290
     0
176
     1
 90
       50
176
     1
 62
   256
176
     0
 40
1.0
176
     0
 90
        2
176
     1
  1
strokes_ogs.tif
176
     1
290
     0
176
     1
 40
1.0
176
     1
 40
1.0
176
     1
  0
VISUALSTYLE
  5
703
102
{ACAD_REACTORS
330
6F3
102
}
330
6F3
100
AcDbVisualStyle
  2
ColorChange
 70
    16
177
     3
291
     1
 70
    58
 90
        2
176
     1
 90
        2
176
     1
 90
        3
176
     1
 90
        0
176
     1
 40
0.6
176
     1
 40
30.0
176
     1
 62
     8
420
  8421504
176
     1
 90
        1
176
     1
 90
        4
176
     1
 62
     7
176
     1
 62
   257
176
     1
 90
        1
176
     1
 90
        1
176
     1
 40
1.0
176
     1
 90
        8
176
     1
 62
     8
420
  8421504
176
     1
 40
1.0
176
     1
 90
        1
176
     1
 90
        6
176
     1
 90
        2
176
     1
 62
     7
176
     1
 90
        5
176
     1
 90
        0
176
     1
 90
        0
176
     1
290
     0
176
     1
 90
        1
176
     1
 40
0.0
176
     1
 90
        0
176
     1
290
     0
176
     1
290
     1
176
     1
290
     1
176
     1
290
     0
176
     1
290
     0
176
     1
290
     0
176
     1
290
     0
176
     1
290
     0
176
     1
290
     0
176
     1
 90
       50
176
     1
 40
0.0
176
     1
 40
1.0
176
     1
 90
        0
176
     1
 62
    18
420
        0
176
     1
 90
       50
176
     1
 90
        3
176
     1
 62
     5
420
      255
176
     1
290
     0
176
     1
 90
       50
176
     1
 90
       50
176
     1
 90
       50
176
     1
290
     0
176
     1
 90
       50
176
     1
 62
   256
176
     0
 40
1.0
176
     0
 90
        2
176
     1
  1
strokes_ogs.tif
176
     1
290
     0
176
     1
 40
1.0
176
     1
 40
1.0
176
     1
  0
VISUALSTYLE
  5
6FC
102
{ACAD_REACTORS
330
6F3
102
}
330
6F3
100
AcDbVisualStyle
  2
Conceptual
 70
     9
177
     3
291
     0
 70
    58
 90
        3
176
     1
 90
        2
176
     1
 90
        0
176
     1
 90
        0
176
     1
 40
0.6
176
     1
 40
30.0
176
     1
 62
     7
420
 16777215
176
     1
 90
        2
176
     1
 90
        2
176
     1
 62
     7
176
     1
 62
   257
176
     1
 90
        1
176
     1
 90
        1
176
     1
 40
40.0
176
     1
 90
        8
176
     1
 62
     7
176
     1
 40
1.0
176
     1
 90
        1
176
     1
 90
        6
176
     1
 90
        2
176
     1
 62
     7
176
     1
 90
        3
176
     1
 90
        0
176
     1
 90
        0
176
     1
290
     0
176
     1
 90
        1
176
     1
 40
0.0
176
     1
 90
        0
176
     1
290
     0
176
     1
290
     1
176
     1
290
     1
176
     1
290
     0
176
     1
290
     0
176
     1
290
     0
176
     1
290
     0
176
     1
290
     0
176
     1
290
     0
176
     1
 90
       50
176
     1
 40
0.0
176
     1
 40
1.0
176
     1
 90
        0
176
     1
 62
    18
420
        0
176
     1
 90
       50
176
     1
 90
        3
176
     1
 62
     5
420
      255
176
     1
290
     0
176
     1
 90
       50
176
     1
 90
       50
176
     1
 90
       50
176
     1
290
     0
176
     1
 90
       50
176
     1
 62
   256
176
     0
 40
1.0
176
     0
 90
        2
176
     1
  1
strokes_ogs.tif
176
     1
290
     0
176
     1
 40
1.0
176
     1
 40
1.0
176
     1
  0
VISUALSTYLE
  5
6FE
102
{ACAD_REACTORS
330
6F3
102
}
330
6F3
100
AcDbVisualStyle
  2
Dim
 70
    11
177
     3
291
     1
 70
    58
 90
        2
176
     1
 90
        2
176
     1
 90
        0
176
     1
 90
        0
176
     1
 40
0.6
176
     1
 40
30.0
176
     1
 62
     7
420
 16777215
176
     1
 90
        1
176
     1
 90
        4
176
     1
 62
     7
176
     1
 62
   257
176
     1
 90
        1
176
     1
 90
        1
176
     1
 40
1.0
176
     1
 90
        8
176
     1
 62
     7
176
     1
 40
1.0
176
     1
 90
        1
176
     1
 90
        6
176
     1
 90
        2
176
     1
 62
     7
176
     1
 90
        5
176
     1
 90
        0
176
     1
 90
        0
176
     1
290
     0
176
     1
 90
        1
176
     1
 40
-50.0
176
     1
 90
        0
176
     1
290
     0
176
     1
290
     1
176
     1
290
     1
176
     1
290
     0
176
     1
290
     0
176
     1
290
     0
176
     1
290
     0
176
     1
290
     0
176
     1
290
     0
176
     1
 90
       50
176
     1
 40
0.0
176
     1
 40
1.0
176
     1
 90
        0
176
     1
 62
    18
420
        0
176
     1
 90
       50
176
     1
 90
        3
176
     1
 62
     5
420
      255
176
     1
290
     0
176
     1
 90
       50
176
     1
 90
       50
176
     1
 90
       50
176
     1
290
     0
176
     1
 90
       50
176
     1
 62
   256
176
     0
 40
1.0
176
     0
 90
        2
176
     1
  1
strokes_ogs.tif
176
     1
290
     0
176
     1
 40
1.0
176
     1
 40
1.0
176
     1
  0
VISUALSTYLE
  5
754
102
{ACAD_REACTORS
330
6F3
102
}
330
6F3
100
AcDbVisualStyle
  2
EdgeColorOff
 70
    22
177
     3
291
     1
 70
    58
 90
        2
176
     0
 90
        2
176
     0
 90
        0
176
     0
 90
        0
176
     0
 40
0.6
176
     0
 40
30.0
176
     0
 62
     7
420
 16777215
176
     0
 90
        1
176
     0
 90
        4
176
     0
 62
     7
176
     0
 62
   257
176
     0
 90
        1
176
     0
 90
        1
176
     0
 40
1.0
176
     0
 90
        8
176
     2
 62
     7
176
     0
 40
1.0
176
     0
 90
        1
176
     0
 90
        6
176
     0
 90
        2
176
     0
 62
     7
176
     0
 90
        5
176
     0
 90
        0
176
     0
 90
        0
176
     0
290
     0
176
     0
 90
        1
176
     0
 40
0.0
176
     0
 90
        0
176
     0
290
     0
176
     1
290
     1
176
     1
290
     1
176
     1
290
     0
176
     1
290
     0
176
     1
290
     0
176
     1
290
     0
176
     1
290
     0
176
     1
290
     0
176
     1
 90
       50
176
     1
 40
0.0
176
     1
 40
1.0
176
     1
 90
        0
176
     1
 62
    18
420
        0
176
     1
 90
       50
176
     1
 90
        3
176
     1
 62
     5
420
      255
176
     1
290
     0
176
     1
 90
       50
176
     1
 90
       50
176
     1
 90
       50
176
     1
290
     0
176
     1
 90
       50
176
     1
 62
   256
176
     0
 40
1.0
176
     0
 90
        2
176
     1
  1
strokes_ogs.tif
176
     1
290
     0
176
     1
 40
1.0
176
     1
 40
1.0
176
     1
  0
VISUALSTYLE
  5
702
102
{ACAD_REACTORS
330
6F3
102
}
330
6F3
100
AcDbVisualStyle
  2
Facepattern
 70
    15
177
     3
291
     1
 70
    58
 90
        2
176
     1
 90
        2
176
     1
 90
        0
176
     1
 90
        0
176
     1
 40
0.6
176
     1
 40
30.0
176
     1
 62
     7
420
 16777215
176
     1
 90
        1
176
     1
 90
        4
176
     1
 62
     7
176
     1
 62
   257
176
     1
 90
        1
176
     1
 90
        1
176
     1
 40
1.0
176
     1
 90
        8
176
     1
 62
     7
176
     1
 40
1.0
176
     1
 90
        1
176
     1
 90
        6
176
     1
 90
        2
176
     1
 62
     7
176
     1
 90
        5
176
     1
 90
        0
176
     1
 90
        0
176
     1
290
     0
176
     1
 90
        1
176
     1
 40
0.0
176
     1
 90
        0
176
     1
290
     0
176
     1
290
     1
176
     1
290
     1
176
     1
290
     0
176
     1
290
     0
176
     1
290
     0
176
     1
290
     0
176
     1
290
     0
176
     1
290
     0
176
     1
 90
       50
176
     1
 40
0.0
176
     1
 40
1.0
176
     1
 90
        0
176
     1
 62
    18
420
        0
176
     1
 90
       50
176
     1
 90
        3
176
     1
 62
     5
420
      255
176
     1
290
     0
176
     1
 90
       50
176
     1
 90
       50
176
     1
 90
       50
176
     1
290
     0
176
     1
 90
       50
176
     1
 62
   256
176
     0
 40
1.0
176
     0
 90
        2
176
     1
  1
strokes_ogs.tif
176
     1
290
     0
176
     1
 40
1.0
176
     1
 40
1.0
176
     1
  0
VISUALSTYLE
  5
6F4
102
{ACAD_REACTORS
330
6F3
102
}
330
6F3
100
AcDbVisualStyle
  2
Flat
 70
     0
177
     3
291
     1
 70
    58
 90
        2
176
     1
 90
        1
176
     1
 90
        1
176
     1
 90
        2
176
     1
 40
0.6
176
     1
 40
30.0
176
     1
 62
     7
420
 16777215
176
     1
 90
        0
176
     1
 90
        4
176
     1
 62
     7
176
     1
 62
   257
176
     1
 90
        1
176
     1
 90
        1
176
     1
 40
1.0
176
     1
 90
        8
176
     1
 62
     7
176
     1
 40
1.0
176
     1
 90
        1
176
     1
 90
        6
176
     1
 90
        2
176
     1
 62
     7
176
     1
 90
        5
176
     1
 90
        0
176
     1
 90
        0
176
     1
290
     0
176
     1
 90
       13
176
     1
 40
0.0
176
     1
 90
        0
176
     1
290
     0
176
     1
290
     1
176
     1
290
     1
176
     1
290
     0
176
     1
290
     0
176
     1
290
     0
176
     1
290
     0
176
     1
290
     0
176
     1
290
     0
176
     1
 90
       50
176
     1
 40
0.0
176
     1
 40
1.0
176
     1
 90
        0
176
     1
 62
    18
420
        0
176
     1
 90
       50
176
     1
 90
        3
176
     1
 62
     5
420
      255
176
     1
290
     0
176
     1
 90
       50
176
     1
 90
       50
176
     1
 90
       50
176
     1
290
     0
176
     1
 90
       50
176
     1
 62
   256
176
     0
 40
1.0
176
     0
 90
        2
176
     1
  1
strokes_ogs.tif
176
     1
290
     0
176
     1
 40
1.0
176
     1
 40
1.0
176
     1
  0
VISUALSTYLE
  5
6F5
102
{ACAD_REACTORS
330
6F3
102
}
330
6F3
100
AcDbVisualStyle
  2
FlatWithEdges
 70
     1
177
     3
291
     1
 70
    58
 90
        2
176
     1
 90
        1
176
     1
 90
        1
176
     1
 90
        2
176
     1
 40
0.6
176
     1
 40
30.0
176
     1
 62
     7
420
 16777215
176
     1
 90
        1
176
     1
 90
        4
176
     1
 62
     7
176
     1
 62
   257
176
     1
 90
        1
176
     1
 90
        1
176
     1
 40
1.0
176
     1
 90
        0
176
     1
 62
   257
176
     1
 40
1.0
176
     1
 90
        1
176
     1
 90
        6
176
     1
 90
        2
176
     1
 62
     7
176
     1
 90
        5
176
     1
 90
        0
176
     1
 90
        0
176
     1
290
     0
176
     1
 90
       13
176
     1
 40
0.0
176
     1
 90
        0
176
     1
290
     0
176
     1
290
     1
176
     1
290
     1
176
     1
290
     0
176
     1
290
     0
176
     1
290
     0
176
     1
290
     0
176
     1
290
     0
176
     1
290
     0
176
     1
 90
       50
176
     1
 40
0.0
176
     1
 40
1.0
176
     1
 90
        0
176
     1
 62
    18
420
        0
176
     1
 90
       50
176
     1
 90
        3
176
     1
 62
     5
420
      255
176
     1
290
     0
176
     1
 90
       50
176
     1
 90
       50
176
     1
 90
       50
176
     1
290
     0
176
     1
 90
       50
176
     1
 62
   256
176
     0
 40
1.0
176
     0
 90
        2
176
     1
  1
strokes_ogs.tif
176
     1
290
     0
176
     1
 40
1.0
176
     1
 40
1.0
176
     1
  0
VISUALSTYLE
  5
6F6
102
{ACAD_REACTORS
330
6F3
102
}
330
6F3
100
AcDbVisualStyle
  2
Gouraud
 70
     2
177
     3
291
     1
 70
    58
 90
        2
176
     1
 90
        2
176
     1
 90
        1
176
     1
 90
        2
176
     1
 40
0.6
176
     1
 40
30.0
176
     1
 62
     7
420
 16777215
176
     1
 90
        0
176
     1
 90
        4
176
     1
 62
     7
176
     1
 62
   257
176
     1
 90
        1
176
     1
 90
        1
176
     1
 40
1.0
176
     1
 90
        0
176
     1
 62
     7
176
     1
 40
1.0
176
     1
 90
        1
176
     1
 90
        6
176
     1
 90
        2
176
     1
 62
     7
176
     1
 90
        5
176
     1
 90
        0
176
     1
 90
        0
176
     1
290
     0
176
     1
 90
       13
176
     1
 40
0.0
176
     1
 90
        0
176
     1
290
     0
176
     1
290
     1
176
     1
290
     1
176
     1
290
     0
176
     1
290
     0
176
     1
290
     0
176
     1
290
     0
176
     1
290
     0
176
     1
290
     0
176
     1
 90
       50
176
     1
 40
0.0
176
     1
 40
1.0
176
     1
 90
        0
176
     1
 62
    18
420
        0
176
     1
 90
       50
176
     1
 90
        3
176
     1
 62
     5
420
      255
176
     1
290
     0
176
     1
 90
       50
176
     1
 90
       50
176
     1
 90
       50
176
     1
290
     0
176
     1
 90
       50
176
     1
 62
   256
176
     0
 40
1.0
176
     0
 90
        2
176
     1
  1
strokes_ogs.tif
176
     1
290
     0
176
     1
 40
1.0
176
     1
 40
1.0
176
     1
  0
VISUALSTYLE
  5
6F7
102
{ACAD_REACTORS
330
6F3
102
}
330
6F3
100
AcDbVisualStyle
  2
GouraudWithEdges
 70
     3
177
     3
291
     1
 70
    58
 90
        2
176
     1
 90
        2
176
     1
 90
        1
176
     1
 90
        2
176
     1
 40
0.6
176
     1
 40
30.0
176
     1
 62
     7
420
 16777215
176
     1
 90
        1
176
     1
 90
        4
176
     1
 62
     7
176
     1
 62
   257
176
     1
 90
        1
176
     1
 90
        1
176
     1
 40
1.0
176
     1
 90
        0
176
     1
 62
   257
176
     1
 40
1.0
176
     1
 90
        1
176
     1
 90
        6
176
     1
 90
        2
176
     1
 62
     7
176
     1
 90
        5
176
     1
 90
        0
176
     1
 90
        0
176
     1
290
     0
176
     1
 90
       13
176
     1
 40
0.0
176
     1
 90
        0
176
     1
290
     0
176
     1
290
     1
176
     1
290
     1
176
     1
290
     0
176
     1
290
     0
176
     1
290
     0
176
     1
290
     0
176
     1
290
     0
176
     1
290
     0
176
     1
 90
       50
176
     1
 40
0.0
176
     1
 40
1.0
176
     1
 90
        0
176
     1
 62
    18
420
        0
176
     1
 90
       50
176
     1
 90
        3
176
     1
 62
     5
420
      255
176
     1
290
     0
176
     1
 90
       50
176
     1
 90
       50
176
     1
 90
       50
176
     1
290
     0
176
     1
 90
       50
176
     1
 62
   256
176
     0
 40
1.0
176
     0
 90
        2
176
     1
  1
strokes_ogs.tif
176
     1
290
     0
176
     1
 40
1.0
176
     1
 40
1.0
176
     1
  0
VISUALSTYLE
  5
10B3
102
{ACAD_REACTORS
330
6F3
102
}
330
6F3
100
AcDbVisualStyle
  2
Hidden
 70
     6
177
     3
291
     0
 70
    58
 90
        1
176
     1
 90
        2
176
     1
 90
        2
176
     1
 90
        0
176
     1
 40
0.6
176
     1
 40
30.0
176
     1
 62
     7
420
 16777215
176
     1
 90
        2
176
     1
 90
        2
176
     1
 62
     7
176
     1
 62
   257
176
     1
 90
        2
176
     1
 90
        1
176
     1
 40
40.0
176
     1
 90
        0
176
     1
 62
   257
176
     1
 40
1.0
176
     1
 90
        1
176
     1
 90
        6
176
     1
 90
        2
176
     1
 62
     7
176
     1
 90
        3
176
     1
 90
        0
176
     1
 90
        0
176
     1
290
     0
176
     1
 90
        1
176
     1
 40
0.0
176
     1
 90
        0
176
     1
290
     0
176
     1
290
     1
176
     1
290
     1
176
     1
290
     0
176
     1
290
     0
176
     1
290
     0
176
     1
290
     0
176
     1
290
     0
176
     1
290
     0
176
     1
 90
       50
176
     1
 40
0.0
176
     1
 40
1.0
176
     1
 90
        0
176
     1
 62
    18
420
        0
176
     1
 90
       50
176
     1
 90
        3
176
     1
 62
     5
420
      255
176
     1
290
     0
176
     1
 90
       50
176
     1
 90
       50
176
     1
 90
       50
176
     1
290
     0
176
     1
 90
       50
176
     1
 62
   256
176
     0
 40
1.0
176
     0
 90
        2
176
     1
  1
strokes_ogs.tif
176
     1
290
     0
176
     1
 40
1.0
176
     1
 40
1.0
176
     1
  0
VISUALSTYLE
  5
752
102
{ACAD_REACTORS
330
6F3
102
}
330
6F3
100
AcDbVisualStyle
  2
JitterOff
 70
    20
177
     3
291
     1
 70
    58
 90
        2
176
     0
 90
        2
176
     0
 90
        0
176
     0
 90
        0
176
     0
 40
0.6
176
     0
 40
30.0
176
     0
 62
     7
420
 16777215
176
     0
 90
        1
176
     0
 90
        4
176
     0
 62
     7
176
     0
 62
   257
176
     0
 90
        1
176
     0
 90
        1
176
     0
 40
1.0
176
     0
 90
       10
176
     2
 62
     7
176
     0
 40
1.0
176
     0
 90
        1
176
     0
 90
        6
176
     0
 90
        2
176
     0
 62
     7
176
     0
 90
        5
176
     0
 90
        0
176
     0
 90
        0
176
     0
290
     0
176
     0
 90
        1
176
     0
 40
0.0
176
     0
 90
        0
176
     0
290
     0
176
     1
290
     1
176
     1
290
     1
176
     1
290
     0
176
     1
290
     0
176
     1
290
     0
176
     1
290
     0
176
     1
290
     0
176
     1
290
     0
176
     1
 90
       50
176
     1
 40
0.0
176
     1
 40
1.0
176
     1
 90
        0
176
     1
 62
    18
420
        0
176
     1
 90
       50
176
     1
 90
        3
176
     1
 62
     5
420
      255
176
     1
290
     0
176
     1
 90
       50
176
     1
 90
       50
176
     1
 90
       50
176
     1
290
     0
176
     1
 90
       50
176
     1
 62
   256
176
     0
 40
1.0
176
     0
 90
        2
176
     1
  1
strokes_ogs.tif
176
     1
290
     0
176
     1
 40
1.0
176
     1
 40
1.0
176
     1
  0
VISUALSTYLE
  5
701
102
{ACAD_REACTORS
330
6F3
102
}
330
6F3
100
AcDbVisualStyle
  2
Linepattern
 70
    14
177
     3
291
     1
 70
    58
 90
        2
176
     1
 90
        2
176
     1
 90
        0
176
     1
 90
        0
176
     1
 40
0.6
176
     1
 40
30.0
176
     1
 62
     7
420
 16777215
176
     1
 90
        1
176
     1
 90
        4
176
     1
 62
     7
176
     1
 62
   257
176
     1
 90
        7
176
     1
 90
        7
176
     1
 40
1.0
176
     1
 90
        8
176
     1
 62
     7
176
     1
 40
1.0
176
     1
 90
        1
176
     1
 90
        6
176
     1
 90
        2
176
     1
 62
     7
176
     1
 90
        5
176
     1
 90
        0
176
     1
 90
        0
176
     1
290
     0
176
     1
 90
        1
176
     1
 40
0.0
176
     1
 90
        0
176
     1
290
     0
176
     1
290
     1
176
     1
290
     1
176
     1
290
     0
176
     1
290
     0
176
     1
290
     0
176
     1
290
     0
176
     1
290
     0
176
     1
290
     0
176
     1
 90
       50
176
     1
 40
0.0
176
     1
 40
1.0
176
     1
 90
        0
176
     1
 62
    18
420
        0
176
     1
 90
       50
176
     1
 90
        3
176
     1
 62
     5
420
      255
176
     1
290
     0
176
     1
 90
       50
176
     1
 90
       50
176
     1
 90
       50
176
     1
290
     0
176
     1
 90
       50
176
     1
 62
   256
176
     0
 40
1.0
176
     0
 90
        2
176
     1
  1
strokes_ogs.tif
176
     1
290
     0
176
     1
 40
1.0
176
     1
 40
1.0
176
     1
  0
VISUALSTYLE
  5
753
102
{ACAD_REACTORS
330
6F3
102
}
330
6F3
100
AcDbVisualStyle
  2
OverhangOff
 70
    21
177
     3
291
     1
 70
    58
 90
        2
176
     0
 90
        2
176
     0
 90
        0
176
     0
 90
        0
176
     0
 40
0.6
176
     0
 40
30.0
176
     0
 62
     7
420
 16777215
176
     0
 90
        1
176
     0
 90
        4
176
     0
 62
     7
176
     0
 62
   257
176
     0
 90
        1
176
     0
 90
        1
176
     0
 40
1.0
176
     0
 90
        9
176
     2
 62
     7
176
     0
 40
1.0
176
     0
 90
        1
176
     0
 90
        6
176
     0
 90
        2
176
     0
 62
     7
176
     0
 90
        5
176
     0
 90
        0
176
     0
 90
        0
176
     0
290
     0
176
     0
 90
        1
176
     0
 40
0.0
176
     0
 90
        0
176
     0
290
     0
176
     1
290
     1
176
     1
290
     1
176
     1
290
     0
176
     1
290
     0
176
     1
290
     0
176
     1
290
     0
176
     1
290
     0
176
     1
290
     0
176
     1
 90
       50
176
     1
 40
0.0
176
     1
 40
1.0
176
     1
 90
        0
176
     1
 62
    18
420
        0
176
     1
 90
       50
176
     1
 90
        3
176
     1
 62
     5
420
      255
176
     1
290
     0
176
     1
 90
       50
176
     1
 90
       50
176
     1
 90
       50
176
     1
290
     0
176
     1
 90
       50
176
     1
 62
   256
176
     0
 40
1.0
176
     0
 90
        2
176
     1
  1
strokes_ogs.tif
176
     1
290
     0
176
     1
 40
1.0
176
     1
 40
1.0
176
     1
  0
VISUALSTYLE
  5
6FD
102
{ACAD_REACTORS
330
6F3
102
}
330
6F3
100
AcDbVisualStyle
  2
Realistic
 70
     8
177
     3
291
     0
 70
    58
 90
        2
176
     1
 90
        2
176
     1
 90
        0
176
     1
 90
        0
176
     1
 40
0.6
176
     1
 40
30.0
176
     1
 62
     7
420
 16777215
176
     1
 90
        1
176
     1
 90
        0
176
     1
 62
     7
176
     1
 62
   257
176
     1
 90
        1
176
     1
 90
        1
176
     1
 40
1.0
176
     1
 90
        8
176
     1
 62
     8
420
  7895160
176
     1
 40
1.0
176
     1
 90
        1
176
     1
 90
        6
176
     1
 90
        2
176
     1
 62
     7
176
     1
 90
        5
176
     1
 90
        0
176
     1
 90
        0
176
     1
290
     0
176
     1
 90
       13
176
     1
 40
0.0
176
     1
 90
        0
176
     1
290
     0
176
     1
290
     1
176
     1
290
     1
176
     1
290
     0
176
     1
290
     0
176
     1
290
     0
176
     1
290
     0
176
     1
290
     0
176
     1
290
     0
176
     1
 90
       50
176
     1
 40
0.0
176
     1
 40
1.0
176
     1
 90
        0
176
     1
 62
    18
420
        0
176
     1
 90
       50
176
     1
 90
        3
176
     1
 62
     5
420
      255
176
     1
290
     0
176
     1
 90
       50
176
     1
 90
       50
176
     1
 90
       50
176
     1
290
     0
176
     1
 90
       50
176
     1
 62
   256
176
     0
 40
1.0
176
     0
 90
        2
176
     1
  1
strokes_ogs.tif
176
     1
290
     0
176
     1
 40
1.0
176
     1
 40
1.0
176
     1
  0
VISUALSTYLE
  5
10B8
102
{ACAD_REACTORS
330
6F3
102
}
330
6F3
100
AcDbVisualStyle
  2
Shaded
 70
    27
177
     3
291
     0
 70
    58
 90
        2
176
     1
 90
        2
176
     1
 90
        1
176
     1
 90
        2
176
     1
 40
0.6
176
     1
 40
30.0
176
     1
 62
     7
420
 16777215
176
     1
 90
        0
176
     1
 90
        4
176
     1
 62
     7
176
     1
 62
   257
176
     1
 90
        1
176
     1
 90
        1
176
     1
 40
1.0
176
     1
 90
        8
176
     1
 62
   257
176
     1
 40
1.0
176
     1
 90
        1
176
     1
 90
        6
176
     1
 90
        2
176
     1
 62
     8
420
  7895160
176
     1
 90
        3
176
     1
 90
        0
176
     1
 90
        0
176
     1
290
     0
176
     1
 90
        5
176
     1
 40
0.0
176
     1
 90
        0
176
     1
290
     0
176
     1
290
     1
176
     1
290
     1
176
     1
290
     0
176
     1
290
     0
176
     1
290
     0
176
     1
290
     0
176
     1
290
     0
176
     1
290
     0
176
     1
 90
       50
176
     1
 40
0.0
176
     1
 40
1.0
176
     1
 90
        0
176
     1
 62
    18
420
        0
176
     1
 90
       50
176
     1
 90
        3
176
     1
 62
     5
420
      255
176
     1
290
     0
176
     1
 90
       50
176
     1
 90
       50
176
     1
 90
       50
176
     1
290
     0
176
     1
 90
       50
176
     1
 62
   256
176
     0
 40
1.0
176
     0
 90
        2
176
     1
  1
strokes_ogs.tif
176
     1
290
     0
176
     1
 40
1.0
176
     1
 40
1.0
176
     1
  0
VISUALSTYLE
  5
10B7
102
{ACAD_REACTORS
330
6F3
102
}
330
6F3
100
AcDbVisualStyle
  2
Shaded with edges
 70
    26
177
     3
291
     0
 70
    58
 90
        2
176
     1
 90
        2
176
     1
 90
        1
176
     1
 90
        2
176
     1
 40
0.6
176
     1
 40
30.0
176
     1
 62
     7
420
 16777215
176
     1
 90
        1
176
     1
 90
        2
176
     1
 62
     7
176
     1
 62
   257
176
     1
 90
        2
176
     1
 90
        1
176
     1
 40
1.0
176
     1
 90
        8
176
     1
 62
   257
176
     1
 40
1.0
176
     1
 90
        1
176
     1
 90
        6
176
     1
 90
        2
176
     1
 62
     7
176
     1
 90
        3
176
     1
 90
        0
176
     1
 90
        0
176
     1
290
     0
176
     1
 90
        5
176
     1
 40
0.0
176
     1
 90
        0
176
     1
290
     0
176
     1
290
     1
176
     1
290
     1
176
     1
290
     0
176
     1
290
     0
176
     1
290
     0
176
     1
290
     0
176
     1
290
     0
176
     1
290
     0
176
     1
 90
       50
176
     1
 40
0.0
176
     1
 40
1.0
176
     1
 90
        0
176
     1
 62
    18
420
        0
176
     1
 90
       50
176
     1
 90
        3
176
     1
 62
     5
420
      255
176
     1
290
     0
176
     1
 90
       50
176
     1
 90
       50
176
     1
 90
       50
176
     1
290
     0
176
     1
 90
       50
176
     1
 62
   256
176
     0
 40
1.0
176
     0
 90
        2
176
     1
  1
strokes_ogs.tif
176
     1
290
     0
176
     1
 40
1.0
176
     1
 40
1.0
176
     1
  0
VISUALSTYLE
  5
10B4
102
{ACAD_REACTORS
330
6F3
102
}
330
6F3
100
AcDbVisualStyle
  2
Shades of Gray
 70
    23
177
     3
291
     0
 70
    58
 90
        2
176
     1
 90
        2
176
     1
 90
        3
176
     1
 90
        0
176
     1
 40
0.6
176
     1
 40
30.0
176
     1
 62
     7
420
 16777215
176
     1
 90
        2
176
     1
 90
        2
176
     1
 62
     7
176
     1
 62
     7
176
     1
 90
        1
176
     1
 90
        1
176
     1
 40
40.0
176
     1
 90
        8
176
     1
 62
     7
176
     1
 40
1.0
176
     1
 90
        1
176
     1
 90
        6
176
     1
 90
        2
176
     1
 62
     7
176
     1
 90
        3
176
     1
 90
        0
176
     1
 90
        0
176
     1
290
     0
176
     1
 90
        1
176
     1
 40
0.0
176
     1
 90
        0
176
     1
290
     0
176
     1
290
     1
176
     1
290
     1
176
     1
290
     0
176
     1
290
     0
176
     1
290
     0
176
     1
290
     0
176
     1
290
     0
176
     1
290
     0
176
     1
 90
       50
176
     1
 40
0.0
176
     1
 40
1.0
176
     1
 90
        0
176
     1
 62
    18
420
        0
176
     1
 90
       50
176
     1
 90
        3
176
     1
 62
     5
420
      255
176
     1
290
     0
176
     1
 90
       50
176
     1
 90
       50
176
     1
 90
       50
176
     1
290
     0
176
     1
 90
       50
176
     1
 62
   256
176
     0
 40
1.0
176
     0
 90
        2
176
     1
  1
strokes_ogs.tif
176
     1
290
     0
176
     1
 40
1.0
176
     1
 40
1.0
176
     1
  0
VISUALSTYLE
  5
10B5
102
{ACAD_REACTORS
330
6F3
102
}
330
6F3
100
AcDbVisualStyle
  2
Sketchy
 70
    24
177
     3
291
     0
 70
    58
 90
        1
176
     1
 90
        2
176
     1
 90
        2
176
     1
 90
        0
176
     1
 40
0.6
176
     1
 40
30.0
176
     1
 62
     7
420
 16777215
176
     1
 90
        2
176
     1
 90
        2
176
     1
 62
     7
176
     1
 62
     7
176
     1
 90
        1
176
     1
 90
        1
176
     1
 40
40.0
176
     1
 90
       11
176
     1
 62
     7
176
     1
 40
1.0
176
     1
 90
        1
176
     1
 90
        6
176
     1
 90
        2
176
     1
 62
     7
176
     1
 90
        6
176
     1
 90
        0
176
     1
 90
        0
176
     1
290
     0
176
     1
 90
        1
176
     1
 40
0.0
176
     1
 90
        0
176
     1
290
     0
176
     1
290
     1
176
     1
290
     1
176
     1
290
     0
176
     1
290
     0
176
     1
290
     0
176
     1
290
     0
176
     1
290
     0
176
     1
290
     0
176
     1
 90
       50
176
     1
 40
0.0
176
     1
 40
1.0
176
     1
 90
        0
176
     1
 62
    18
420
        0
176
     1
 90
       50
176
     1
 90
        3
176
     1
 62
     5
420
      255
176
     1
290
     0
176
     1
 90
       50
176
     1
 90
       50
176
     1
 90
       50
176
     1
290
     0
176
     1
 90
       50
176
     1
 62
   256
176
     0
 40
1.0
176
     0
 90
        2
176
     1
  1
strokes_ogs.tif
176
     1
290
     0
176
     1
 40
1.0
176
     1
 40
1.0
176
     1
  0
VISUALSTYLE
  5
700
102
{ACAD_REACTORS
330
6F3
102
}
330
6F3
100
AcDbVisualStyle
  2
Thicken
 70
    13
177
     3
291
     1
 70
    58
 90
        2
176
     1
 90
        2
176
     1
 90
        0
176
     1
 90
        0
176
     1
 40
0.6
176
     1
 40
30.0
176
     1
 62
     7
420
 16777215
176
     1
 90
        1
176
     1
 90
        4
176
     1
 62
     7
176
     1
 62
   257
176
     1
 90
        1
176
     1
 90
        1
176
     1
 40
1.0
176
     1
 90
       12
176
     1
 62
     7
176
     1
 40
1.0
176
     1
 90
        1
176
     1
 90
        6
176
     1
 90
        2
176
     1
 62
     7
176
     1
 90
        5
176
     1
 90
        0
176
     1
 90
        0
176
     1
290
     0
176
     1
 90
        1
176
     1
 40
0.0
176
     1
 90
        0
176
     1
290
     0
176
     1
290
     1
176
     1
290
     1
176
     1
290
     0
176
     1
290
     0
176
     1
290
     0
176
     1
290
     0
176
     1
290
     0
176
     1
290
     0
176
     1
 90
       50
176
     1
 40
0.0
176
     1
 40
1.0
176
     1
 90
        0
176
     1
 62
    18
420
        0
176
     1
 90
       50
176
     1
 90
        3
176
     1
 62
     5
420
      255
176
     1
290
     0
176
     1
 90
       50
176
     1
 90
       50
176
     1
 90
       50
176
     1
290
     0
176
     1
 90
       50
176
     1
 62
   256
176
     0
 40
1.0
176
     0
 90
        2
176
     1
  1
strokes_ogs.tif
176
     1
290
     0
176
     1
 40
1.0
176
     1
 40
1.0
176
     1
  0
VISUALSTYLE
  5
10B2
102
{ACAD_REACTORS
330
6F3
102
}
330
6F3
100
AcDbVisualStyle
  2
Wireframe
 70
     5
177
     3
291
     0
 70
    58
 90
        0
176
     1
 90
        2
176
     1
 90
        0
176
     1
 90
        0
176
     1
 40
0.6
176
     1
 40
30.0
176
     1
 62
     7
420
 16777215
176
     1
 90
        1
176
     1
 90
        4
176
     1
 62
     7
176
     1
 62
   257
176
     1
 90
        1
176
     1
 90
        1
176
     1
 40
1.0
176
     1
 90
        0
176
     1
 62
   257
176
     1
 40
1.0
176
     1
 90
        1
176
     1
 90
        6
176
     1
 90
        2
176
     1
 62
     7
176
     1
 90
        3
176
     1
 90
        0
176
     1
 90
        0
176
     1
290
     0
176
     1
 90
        1
176
     1
 40
0.0
176
     1
 90
        0
176
     1
290
     0
176
     1
290
     1
176
     1
290
     1
176
     1
290
     0
176
     1
290
     0
176
     1
290
     0
176
     1
290
     0
176
     1
290
     0
176
     1
290
     0
176
     1
 90
       50
176
     1
 40
0.0
176
     1
 40
1.0
176
     1
 90
        0
176
     1
 62
    18
420
        0
176
     1
 90
       50
176
     1
 90
        3
176
     1
 62
     5
420
      255
176
     1
290
     0
176
     1
 90
       50
176
     1
 90
       50
176
     1
 90
       50
176
     1
290
     0
176
     1
 90
       50
176
     1
 62
   256
176
     0
 40
1.0
176
     0
 90
        2
176
     1
  1
strokes_ogs.tif
176
     1
290
     0
176
     1
 40
1.0
176
     1
 40
1.0
176
     1
  0
VISUALSTYLE
  5
10B6
102
{ACAD_REACTORS
330
6F3
102
}
330
6F3
100
AcDbVisualStyle
  2
X-Ray
 70
    25
177
     3
291
     0
 70
    58
 90
        2
176
     1
 90
        2
176
     1
 90
        1
176
     1
 90
        1
176
     1
 40
0.5
176
     1
 40
30.0
176
     1
 62
     7
420
 16777215
176
     1
 90
        1
176
     1
 90
        0
176
     1
 62
     7
176
     1
 62
   257
176
     1
 90
        1
176
     1
 90
        1
176
     1
 40
1.0
176
     1
 90
        8
176
     1
 62
     7
176
     1
 40
1.0
176
     1
 90
        1
176
     1
 90
        6
176
     1
 90
        2
176
     1
 62
     7
176
     1
 90
        3
176
     1
 90
        0
176
     1
 90
        0
176
     1
290
     0
176
     1
 90
       13
176
     1
 40
0.0
176
     1
 90
        0
176
     1
290
     0
176
     1
290
     1
176
     1
290
     1
176
     1
290
     0
176
     1
290
     0
176
     1
290
     0
176
     1
290
     0
176
     1
290
     0
176
     1
290
     0
176
     1
 90
       50
176
     1
 40
0.0
176
     1
 40
1.0
176
     1
 90
        0
176
     1
 62
    18
420
        0
176
     1
 90
       50
176
     1
 90
        3
176
     1
 62
     5
420
      255
176
     1
290
     0
176
     1
 90
       50
176
     1
 90
       50
176
     1
 90
       50
176
     1
290
     0
176
     1
 90
       50
176
     1
 62
   256
176
     0
 40
1.0
176
     0
 90
        2
176
     1
  1
strokes_ogs.tif
176
     1
290
     0
176
     1
 40
1.0
176
     1
 40
1.0
176
     1
  0
DICTIONARYVAR
  5
750
102
{ACAD_REACTORS
330
74D
102
}
330
74D
100
DictionaryVariables
280
     0
  1
1:1
  0
DICTIONARYVAR
  5
74F
102
{ACAD_REACTORS
330
74D
102
}
330
74D
100
DictionaryVariables
280
     0
  1
STANDARD
  0
DICTIONARYVAR
  5
74E
102
{ACAD_REACTORS
330
74D
102
}
330
74D
100
DictionaryVariables
280
     0
  1
STANDARD
  0
DICTIONARYVAR
  5
10CE
102
{ACAD_REACTORS
330
74D
102
}
330
74D
100
DictionaryVariables
280
     0
  1
Metric50
  0
DICTIONARYVAR
  5
10CF
102
{ACAD_REACTORS
330
74D
102
}
330
74D
100
DictionaryVariables
280
     0
  1
Metric50
  0
DICTIONARYVAR
  5
10D2
102
{ACAD_REACTORS
330
74D
102
}
330
74D
100
DictionaryVariables
280
     0
  1
1
  0
DICTIONARYVAR
  5
10D3
102
{ACAD_REACTORS
330
74D
102
}
330
74D
100
DictionaryVariables
280
     0
  1
15
  0
DICTIONARYVAR
  5
10D1
102
{ACAD_REACTORS
330
74D
102
}
330
74D
100
DictionaryVariables
280
     0
  1
0
  0
DICTIONARYVAR
  5
10D0
102
{ACAD_REACTORS
330
74D
102
}
330
74D
100
DictionaryVariables
280
     0
  1
0
  0
DICTIONARY
  5
10D7
330
10BC
100
AcDbDictionary
280
     1
281
     1
  3
ACAD_XREC_ROUNDTRIP
360
10D8
  0
DICTIONARY
  5
912
330
6D6
100
AcDbDictionary
280
     1
281
     1
  0
DICTIONARY
  5
6E4
330
6E3
100
AcDbDictionary
280
     1
281
     1
  3
BUMPTILE
360
6E6
  3
DIFFUSETILE
360
6E5
  3
OPACITYTILE
360
6E9
  3
REFLECTIONTILE
360
6E8
  3
REFRACTIONTILE
360
6EA
  3
SPECULARTILE
360
6E7
  0
DICTIONARY
  5
6DC
330
6DB
100
AcDbDictionary
280
     1
281
     1
  3
BUMPTILE
360
6DE
  3
DIFFUSETILE
360
6DD
  3
OPACITYTILE
360
6E1
  3
REFLECTIONTILE
360
6E0
  3
REFRACTIONTILE
360
6E2
  3
SPECULARTILE
360
6DF
  0
DICTIONARY
  5
6EC
330
6EB
100
AcDbDictionary
280
     1
281
     1
  3
BUMPTILE
360
6EE
  3
DIFFUSETILE
360
6ED
  3
OPACITYTILE
360
6F1
  3
REFLECTIONTILE
360
6F0
  3
REFRACTIONTILE
360
6F2
  3
SPECULARTILE
360
6EF
  0
DICTIONARY
  5
10D5
330
10BA
100
AcDbDictionary
280
     1
281
     1
  3
ACAD_XREC_ROUNDTRIP
360
10D6
  0
DICTIONARY
  5
72C
330
706
100
AcDbDictionary
280
     1
281
     1
  3
ACAD_ROUNDTRIP_2008_TABLESTYLE_CELLSTYLEMAP
360
10D4
  0
XRECORD
  5
10D8
102
{ACAD_REACTORS
330
10D7
102
}
330
10D7
100
AcDbXrecord
280
     1
102
DISPLAYNAME
  1
Metric50
102
FLAGS
 90
        0
  0
XRECORD
  5
6E6
102
{ACAD_REACTORS
330
6E4
102
}
330
6E4
100
AcDbXrecord
280
     1
270
     1
271
     1
  0
XRECORD
  5
6E5
102
{ACAD_REACTORS
330
6E4
102
}
330
6E4
100
AcDbXrecord
280
     1
270
     1
271
     1
  0
XRECORD
  5
6E9
102
{ACAD_REACTORS
330
6E4
102
}
330
6E4
100
AcDbXrecord
280
     1
270
     1
271
     1
  0
XRECORD
  5
6E8
102
{ACAD_REACTORS
330
6E4
102
}
330
6E4
100
AcDbXrecord
280
     1
270
     1
271
     1
  0
XRECORD
  5
6EA
102
{ACAD_REACTORS
330
6E4
102
}
330
6E4
100
AcDbXrecord
280
     1
270
     1
271
     1
  0
XRECORD
  5
6E7
102
{ACAD_REACTORS
330
6E4
102
}
330
6E4
100
AcDbXrecord
280
     1
270
     1
271
     1
  0
XRECORD
  5
6DE
102
{ACAD_REACTORS
330
6DC
102
}
330
6DC
100
AcDbXrecord
280
     1
270
     1
271
     1
  0
XRECORD
  5
6DD
102
{ACAD_REACTORS
330
6DC
102
}
330
6DC
100
AcDbXrecord
280
     1
270
     1
271
     1
  0
XRECORD
  5
6E1
102
{ACAD_REACTORS
330
6DC
102
}
330
6DC
100
AcDbXrecord
280
     1
270
     1
271
     1
  0
XRECORD
  5
6E0
102
{ACAD_REACTORS
330
6DC
102
}
330
6DC
100
AcDbXrecord
280
     1
270
     1
271
     1
  0
XRECORD
  5
6E2
102
{ACAD_REACTORS
330
6DC
102
}
330
6DC
100
AcDbXrecord
280
     1
270
     1
271
     1
  0
XRECORD
  5
6DF
102
{ACAD_REACTORS
330
6DC
102
}
330
6DC
100
AcDbXrecord
280
     1
270
     1
271
     1
  0
XRECORD
  5
6EE
102
{ACAD_REACTORS
330
6EC
102
}
330
6EC
100
AcDbXrecord
280
     1
270
     1
271
     1
  0
XRECORD
  5
6ED
102
{ACAD_REACTORS
330
6EC
102
}
330
6EC
100
AcDbXrecord
280
     1
270
     1
271
     1
  0
XRECORD
  5
6F1
102
{ACAD_REACTORS
330
6EC
102
}
330
6EC
100
AcDbXrecord
280
     1
270
     1
271
     1
  0
XRECORD
  5
6F0
102
{ACAD_REACTORS
330
6EC
102
}
330
6EC
100
AcDbXrecord
280
     1
270
     1
271
     1
  0
XRECORD
  5
6F2
102
{ACAD_REACTORS
330
6EC
102
}
330
6EC
100
AcDbXrecord
280
     1
270
     1
271
     1
  0
XRECORD
  5
6EF
102
{ACAD_REACTORS
330
6EC
102
}
330
6EC
100
AcDbXrecord
280
     1
270
     1
271
     1
  0
XRECORD
  5
10D6
102
{ACAD_REACTORS
330
10D5
102
}
330
10D5
100
AcDbXrecord
280
     1
102
DISPLAYNAME
  1
Metric50
102
FLAGS
 90
        0
  0
CELLSTYLEMAP
  5
10D4
102
{ACAD_REACTORS
330
72C
102
}
330
72C
100
AcDbCellStyleMap
 90
        3
300
CELLSTYLE
  1
TABLEFORMAT_BEGIN
 90
        5
170
     1
 91
        0
 92
    32768
 62
   257
 93
        1
300
CONTENTFORMAT
  1
CONTENTFORMAT_BEGIN
 90
        0
 91
        0
 92
      512
 93
        0
300

 40
0.0
140
1.0
 94
        5
 62
     0
340
11
144
6.0
309
CONTENTFORMAT_END
171
     1
301
MARGIN
  1
CELLMARGIN_BEGIN
 40
1.5
 40
1.5
 40
1.5
 40
1.5
 40
4.5
 40
4.5
309
CELLMARGIN_END
 94
        6
 95
        1
302
GRIDFORMAT
  1
GRIDFORMAT_BEGIN
 90
        0
 91
        1
 62
     0
 92
       -2
340
0
 93
        0
 40
1.125
309
GRIDFORMAT_END
 95
        2
302
GRIDFORMAT
  1
GRIDFORMAT_BEGIN
 90
        0
 91
        1
 62
     0
 92
       -2
340
0
 93
        0
 40
1.125
309
GRIDFORMAT_END
 95
        4
302
GRIDFORMAT
  1
GRIDFORMAT_BEGIN
 90
        0
 91
        1
 62
     0
 92
       -2
340
0
 93
        0
 40
1.125
309
GRIDFORMAT_END
 95
        8
302
GRIDFORMAT
  1
GRIDFORMAT_BEGIN
 90
        0
 91
        1
 62
     0
 92
       -2
340
0
 93
        0
 40
1.125
309
GRIDFORMAT_END
 95
       16
302
GRIDFORMAT
  1
GRIDFORMAT_BEGIN
 90
        0
 91
        1
 62
     0
 92
       -2
340
0
 93
        0
 40
1.125
309
GRIDFORMAT_END
 95
       32
302
GRIDFORMAT
  1
GRIDFORMAT_BEGIN
 90
        0
 91
        1
 62
     0
 92
       -2
340
0
 93
        0
 40
1.125
309
GRIDFORMAT_END
309
TABLEFORMAT_END
  1
CELLSTYLE_BEGIN
 90
        1
 91
        1
300
_TITLE
309
CELLSTYLE_END
300
CELLSTYLE
  1
TABLEFORMAT_BEGIN
 90
        5
170
     1
 91
        0
 92
        0
 62
   257
 93
        1
300
CONTENTFORMAT
  1
CONTENTFORMAT_BEGIN
 90
        0
 91
        0
 92
      512
 93
        0
300

 40
0.0
140
1.0
 94
        5
 62
     0
340
11
144
4.5
309
CONTENTFORMAT_END
171
     1
301
MARGIN
  1
CELLMARGIN_BEGIN
 40
1.5
 40
1.5
 40
1.5
 40
1.5
 40
4.5
 40
4.5
309
CELLMARGIN_END
 94
        6
 95
        1
302
GRIDFORMAT
  1
GRIDFORMAT_BEGIN
 90
        0
 91
        1
 62
     0
 92
       -2
340
0
 93
        0
 40
1.125
309
GRIDFORMAT_END
 95
        2
302
GRIDFORMAT
  1
GRIDFORMAT_BEGIN
 90
        0
 91
        1
 62
     0
 92
       -2
340
0
 93
        0
 40
1.125
309
GRIDFORMAT_END
 95
        4
302
GRIDFORMAT
  1
GRIDFORMAT_BEGIN
 90
        0
 91
        1
 62
     0
 92
       -2
340
0
 93
        0
 40
1.125
309
GRIDFORMAT_END
 95
        8
302
GRIDFORMAT
  1
GRIDFORMAT_BEGIN
 90
        0
 91
        1
 62
     0
 92
       -2
340
0
 93
        0
 40
1.125
309
GRIDFORMAT_END
 95
       16
302
GRIDFORMAT
  1
GRIDFORMAT_BEGIN
 90
        0
 91
        1
 62
     0
 92
       -2
340
0
 93
        0
 40
1.125
309
GRIDFORMAT_END
 95
       32
302
GRIDFORMAT
  1
GRIDFORMAT_BEGIN
 90
        0
 91
        1
 62
     0
 92
       -2
340
0
 93
        0
 40
1.125
309
GRIDFORMAT_END
309
TABLEFORMAT_END
  1
CELLSTYLE_BEGIN
 90
        2
 91
        1
300
_HEADER
309
CELLSTYLE_END
300
CELLSTYLE
  1
TABLEFORMAT_BEGIN
 90
        5
170
     1
 91
        0
 92
        0
 62
   257
 93
        1
300
CONTENTFORMAT
  1
CONTENTFORMAT_BEGIN
 90
        0
 91
        0
 92
      512
 93
        0
300

 40
0.0
140
1.0
 94
        2
 62
     0
340
11
144
4.5
309
CONTENTFORMAT_END
171
     1
301
MARGIN
  1
CELLMARGIN_BEGIN
 40
1.5
 40
1.5
 40
1.5
 40
1.5
 40
4.5
 40
4.5
309
CELLMARGIN_END
 94
        6
 95
        1
302
GRIDFORMAT
  1
GRIDFORMAT_BEGIN
 90
        0
 91
        1
 62
     0
 92
       -2
340
0
 93
        0
 40
1.125
309
GRIDFORMAT_END
 95
        2
302
GRIDFORMAT
  1
GRIDFORMAT_BEGIN
 90
        0
 91
        1
 62
     0
 92
       -2
340
0
 93
        0
 40
1.125
309
GRIDFORMAT_END
 95
        4
302
GRIDFORMAT
  1
GRIDFORMAT_BEGIN
 90
        0
 91
        1
 62
     0
 92
       -2
340
0
 93
        0
 40
1.125
309
GRIDFORMAT_END
 95
        8
302
GRIDFORMAT
  1
GRIDFORMAT_BEGIN
 90
        0
 91
        1
 62
     0
 92
       -2
340
0
 93
        0
 40
1.125
309
GRIDFORMAT_END
 95
       16
302
GRIDFORMAT
  1
GRIDFORMAT_BEGIN
 90
        0
 91
        1
 62
     0
 92
       -2
340
0
 93
        0
 40
1.125
309
GRIDFORMAT_END
 95
       32
302
GRIDFORMAT
  1
GRIDFORMAT_BEGIN
 90
        0
 91
        1
 62
     0
 92
       -2
340
0
 93
        0
 40
1.125
309
GRIDFORMAT_END
309
TABLEFORMAT_END
  1
CELLSTYLE_BEGIN
 90
        3
 91
        2
300
_DATA
309
CELLSTYLE_END
  0
ENDSEC
  0
SECTION
  2
ACDSDATA
 70
     2
 71
     8
  0
ACDSSCHEMA
 90
        0
  1
AcDb_Thumbnail_Schema
  2
AcDbDs::ID
280
    10
 91
        8
  2
Thumbnail_Data
280
    15
 91
        0
101
ACDSRECORD
 95
        0
 90
        1
  2
AcDbDs::TreatedAsObjectData
280
     1
291
     1
101
ACDSRECORD
 95
        0
 90
        2
  2
AcDbDs::Legacy
280
     1
291
     1
101
ACDSRECORD
  1
AcDbDs::ID
 90
        3
  2
AcDs:Indexable
280
     1
291
     1
101
ACDSRECORD
  1
AcDbDs::ID
 90
        4
  2
AcDbDs::HandleAttribute
280
     7
282
     1
  0
ACDSSCHEMA
 90
        1
  1
AcDbDs::TreatedAsObjectDataSchema
  2
AcDbDs::TreatedAsObjectData
280
     1
 91
        0
  0
ACDSSCHEMA
 90
        2
  1
AcDbDs::LegacySchema
  2
AcDbDs::Legacy
280
     1
 91
        0
  0
ACDSSCHEMA
 90
        3
  1
AcDbDs::IndexedPropertySchema
  2
AcDs:Indexable
280
     1
 91
        0
  0
ACDSSCHEMA
 90
        4
  1
AcDbDs::HandleAttributeSchema
  2
AcDbDs::HandleAttribute
280
     7
 91
        1
284
     1
  0
ACDSRECORD
 90
        0
  2
AcDbDs::ID
280
    10
320
6D6
  2
Thumbnail_Data
280
    15
 94
     1665
310
89504E470D0A1A0A0000000D4948445200000100000000AD0803000000685951D000000300504C5445000000000000FFFFFF0000000000000000000000000000000000000000000000000000330000660000990000CC0000FF0033000033330033660033990033CC0033FF0066000066330066660066990066CC0066FF0099
310
000099330099660099990099CC0099FF00CC0000CC3300CC6600CC9900CCCC00CCFF00FF0000FF3300FF6600FF9900FFCC00FFFF3300003300333300663300993300CC3300FF3333003333333333663333993333CC3333FF3366003366333366663366993366CC3366FF3399003399333399663399993399CC3399FF33CC00
310
33CC3333CC6633CC9933CCCC33CCFF33FF0033FF3333FF6633FF9933FFCC33FFFF6600006600336600666600996600CC6600FF6633006633336633666633996633CC6633FF6666006666336666666666996666CC6666FF6699006699336699666699996699CC6699FF66CC0066CC3366CC6666CC9966CCCC66CCFF66FF0066
310
FF3366FF6666FF9966FFCC66FFFF9900009900339900669900999900CC9900FF9933009933339933669933999933CC9933FF9966009966339966669966999966CC9966FF9999009999339999669999999999CC9999FF99CC0099CC3399CC6699CC9999CCCC99CCFF99FF0099FF3399FF6699FF9999FFCC99FFFFCC0000CC00
310
33CC0066CC0099CC00CCCC00FFCC3300CC3333CC3366CC3399CC33CCCC33FFCC6600CC6633CC6666CC6699CC66CCCC66FFCC9900CC9933CC9966CC9999CC99CCCC99FFCCCC00CCCC33CCCC66CCCC99CCCCCCCCCCFFCCFF00CCFF33CCFF66CCFF99CCFFCCCCFFFFFF0000FF0033FF0066FF0099FF00CCFF00FFFF3300FF3333
310
FF3366FF3399FF33CCFF33FFFF6600FF6633FF6666FF6699FF66CCFF66FFFF9900FF9933FF9966FF9999FF99CCFF99FFFFCC00FFCC33FFCC66FFCC99FFCCCCFFCCFFFFFF00FFFF33FFFF66FFFF99FFFFCCFFFFFF0000000D0D0D1A1A1A2828283535354343435050505D5D5D6B6B6B787878868686939393A1A1A1AEAEAEBB
310
BBBBC9C9C9D6D6D6E4E4E4F1F1F1FFFFFF000000000000000000000000000000000000000000000000000000000000C11FEF660000033C4944415478DAEDDC5B76AB300C40D1CC7F501A8CE7A0FF1B1E3601BFA0844B248EDBB5D234E0D41BDB18A1F4151E5E5E000000000000000000000000000000000000000000000000
310
000000000000000000000000000000000000000000000000000000000000000000000000002C45F79765277917BDA0BCABB501102E69FE2070C310D0F1BB6AB1DD6806F8787EBAD5F12DDE3FC93D73801EDE420E57A9BDB7D15DF50200C04F00EC98AC1580670F81BF0108000F07703C0486E58E6A73457A27801EDD400ED6
310
393DD32ED84D00DD2E90B57F57C996BB3F0CA0E77AC8F9B7D1702B40B389FAADF6D7AB4ABFBF0DA0794DF7CDD045250AB094DB23421735FCDA3721240600000000000000000000000076CA5F2F7CAC02EC8BA17806F8DA4600FC12C0AEA487E9A19515717620BCEE6B7E6E908DFDF56339E4A49F51713300AAA11F439B1BAE
310
E36323EC36EE650B20FDE5E5A3B902188640A847C0E2AEA6008ACD8F0485F39F86D28029CC019600EA9D3A9B092257732E95F1F8DB0068A73D6D0FF2C7386F705A03D89F1F16015AF5054F3D40575BC8B16203A09FFA97EE768DB749A783DCEB52327F590008ED11B08CF771653791746B7404A0A504897E8D8E00F21D0000
310
0080C701ACF383343F8D3A078879523980E41DC521C0780D1C2F82D700E32BC13F804A5C03AC019657D431400A71E8BC0AD2D5B268B1F9A8D14E4CF03C40484B64AF0029CC5702D038156E01822B005D5A590208E27A0E88514391C25960BA6014DF678190227DEF5E5D5E087D0C799F4B619DC31C1940881B39075862224F
310
BB16C81A21003C0C409D03C84180A14B48B746F104B099F3DD017442C212D4F78D913E403E0748F3D698D8BA3526CD5930E41931920D8BB01923D6000EFE339001A07E7B78E833C6004235E16109F86C7690EAC7F3E63E134C01846A86487D0E503F19229272A4F2A3B964FB6400E51E90560E8672845A395FC54648EA358D
310
59C31840EB53B51580EA1C18C7BF31807A37A89C06FD648ACAD1D7772C854DE50A03B0F3F5D49F33806D57F7065018D8FD0F4B3802F8BFB50200C00F031C39AF5B02B8A6D801F8AD020000000000000000000000000000000000000000000000000000000000000000000000000000000000000000E0BAFC03881B0B167B3E
310
FD300000000049454E44AE426082
  0
ENDSEC
  0
EOF
