  0
SECTION
  2
HEADER
  9
$ACADVER
  1
AC1027
  9
$ACADMAINTVER
 70
   125
  9
$DWGCODEPAGE
  3
ANSI_1252
  9
$LASTSAVEDBY
  1
fleminab
  9
$REQUIREDVERSIONS
160
                 0
  9
$INSBASE
 10
0.0
 20
0.0
 30
0.0
  9
$EXTMIN
 10
205.8666373809699
 20
-237.2886193901761
 30
-0.0000122060999417
  9
$EXTMAX
 10
923.9257382319044
 20
625.0759556342704
 30
0.4000122079625868
  9
$LIMMIN
 10
0.0
 20
0.0
  9
$LIMMAX
 10
12.0
 20
9.0
  9
$ORTHOMODE
 70
     1
  9
$REGENMODE
 70
     1
  9
$FILLMODE
 70
     1
  9
$QTEXTMODE
 70
     0
  9
$MIRRTEXT
 70
     0
  9
$LTSCALE
 40
15.0
  9
$ATTMODE
 70
     1
  9
$TEXTSIZE
 40
5.0
  9
$TRACEWID
 40
0.05
  9
$TEXTSTYLE
  7
STANDARD
  9
$CLAYER
  8
DIM
  9
$CELTYPE
  6
BYLAYER
  9
$CECOLOR
 62
   256
  9
$CELTSCALE
 40
1.0
  9
$DISPSILH
 70
     0
  9
$DIMSCALE
 40
1.0
  9
$DIMASZ
 40
5.0
  9
$DIMEXO
 40
0.0625
  9
$DIMDLI
 40
0.38
  9
$DIMRND
 40
0.0
  9
$DIMDLE
 40
0.0
  9
$DIMEXE
 40
0.18
  9
$DIMTP
 40
0.0
  9
$DIMTM
 40
0.0
  9
$DIMTXT
 40
5.0
  9
$DIMCEN
 40
0.09
  9
$DIMTSZ
 40
0.0
  9
$DIMTOL
 70
     0
  9
$DIMLIM
 70
     0
  9
$DIMTIH
 70
     1
  9
$DIMTOH
 70
     1
  9
$DIMSE1
 70
     0
  9
$DIMSE2
 70
     0
  9
$DIMTAD
 70
     0
  9
$DIMZIN
 70
     0
  9
$DIMBLK
  1

  9
$DIMASO
 70
     1
  9
$DIMSHO
 70
     1
  9
$DIMPOST
  1

  9
$DIMAPOST
  1

  9
$DIMALT
 70
     0
  9
$DIMALTD
 70
     2
  9
$DIMALTF
 40
25.4
  9
$DIMLFAC
 40
1.0
  9
$DIMTOFL
 70
     0
  9
$DIMTVP
 40
0.0
  9
$DIMTIX
 70
     0
  9
$DIMSOXD
 70
     0
  9
$DIMSAH
 70
     0
  9
$DIMBLK1
  1

  9
$DIMBLK2
  1

  9
$DIMSTYLE
  2
STANDARD
  9
$DIMCLRD
 70
     0
  9
$DIMCLRE
 70
     0
  9
$DIMCLRT
 70
     1
  9
$DIMTFAC
 40
1.0
  9
$DIMGAP
 40
0.09
  9
$DIMJUST
 70
     0
  9
$DIMSD1
 70
     0
  9
$DIMSD2
 70
     0
  9
$DIMTOLJ
 70
     1
  9
$DIMTZIN
 70
     0
  9
$DIMALTZ
 70
     0
  9
$DIMALTTZ
 70
     0
  9
$DIMUPT
 70
     0
  9
$DIMDEC
 70
     2
  9
$DIMTDEC
 70
     2
  9
$DIMALTU
 70
     2
  9
$DIMALTTD
 70
     2
  9
$DIMTXSTY
  7
STANDARD
  9
$DIMAUNIT
 70
     0
  9
$DIMADEC
 70
     0
  9
$DIMALTRND
 40
0.0
  9
$DIMAZIN
 70
     0
  9
$DIMDSEP
 70
    46
  9
$DIMATFIT
 70
     3
  9
$DIMFRAC
 70
     0
  9
$DIMLDRBLK
  1

  9
$DIMLUNIT
 70
     2
  9
$DIMLWD
 70
    -2
  9
$DIMLWE
 70
    -2
  9
$DIMTMOVE
 70
     0
  9
$DIMFXL
 40
1.0
  9
$DIMFXLON
 70
     0
  9
$DIMJOGANG
 40
0.7853981633974483
  9
$DIMTFILL
 70
     0
  9
$DIMTFILLCLR
 70
     0
  9
$DIMARCSYM
 70
     0
  9
$DIMLTYPE
  6

  9
$DIMLTEX1
  6

  9
$DIMLTEX2
  6

  9
$DIMTXTDIRECTION
 70
     0
  9
$LUNITS
 70
     2
  9
$LUPREC
 70
     4
  9
$SKETCHINC
 40
0.1
  9
$FILLETRAD
 40
25.0
  9
$AUNITS
 70
     0
  9
$AUPREC
 70
     0
  9
$MENU
  1
acad
  9
$ELEVATION
 40
0.0
  9
$PELEVATION
 40
0.0
  9
$THICKNESS
 40
0.4
  9
$LIMCHECK
 70
     0
  9
$CHAMFERA
 40
0.5
  9
$CHAMFERB
 40
0.5
  9
$CHAMFERC
 40
1.0
  9
$CHAMFERD
 40
0.0
  9
$SKPOLY
 70
     0
  9
$TDCREATE
 40
2451093.796273148
  9
$TDUCREATE
 40
2451093.337950000
  9
$TDUPDATE
 40
2458096.473113426
  9
$TDUUPDATE
 40
2458096.014780092
  9
$TDINDWG
 40
6.4917899074
  9
$TDUSRTIMER
 40
6.4917899074
  9
$USRTIMER
 70
     1
  9
$ANGBASE
 50
0.0
  9
$ANGDIR
 70
     0
  9
$PDMODE
 70
     3
  9
$PDSIZE
 40
0.0
  9
$PLINEWID
 40
0.0
  9
$SPLFRAME
 70
     0
  9
$SPLINETYPE
 70
     6
  9
$SPLINESEGS
 70
     8
  9
$HANDSEED
  5
10100B1
  9
$SURFTAB1
 70
     6
  9
$SURFTAB2
 70
     6
  9
$SURFTYPE
 70
     6
  9
$SURFU
 70
     6
  9
$SURFV
 70
     6
  9
$UCSBASE
  2

  9
$UCSNAME
  2

  9
$UCSORG
 10
0.0
 20
0.0
 30
0.0
  9
$UCSXDIR
 10
1.0
 20
0.0
 30
0.0
  9
$UCSYDIR
 10
0.0
 20
1.0
 30
0.0
  9
$UCSORTHOREF
  2

  9
$UCSORTHOVIEW
 70
     0
  9
$UCSORGTOP
 10
0.0
 20
0.0
 30
0.0
  9
$UCSORGBOTTOM
 10
0.0
 20
0.0
 30
0.0
  9
$UCSORGLEFT
 10
0.0
 20
0.0
 30
0.0
  9
$UCSORGRIGHT
 10
0.0
 20
0.0
 30
0.0
  9
$UCSORGFRONT
 10
0.0
 20
0.0
 30
0.0
  9
$UCSORGBACK
 10
0.0
 20
0.0
 30
0.0
  9
$PUCSBASE
  2

  9
$PUCSNAME
  2

  9
$PUCSORG
 10
0.0
 20
0.0
 30
0.0
  9
$PUCSXDIR
 10
1.0
 20
0.0
 30
0.0
  9
$PUCSYDIR
 10
0.0
 20
1.0
 30
0.0
  9
$PUCSORTHOREF
  2

  9
$PUCSORTHOVIEW
 70
     0
  9
$PUCSORGTOP
 10
0.0
 20
0.0
 30
0.0
  9
$PUCSORGBOTTOM
 10
0.0
 20
0.0
 30
0.0
  9
$PUCSORGLEFT
 10
0.0
 20
0.0
 30
0.0
  9
$PUCSORGRIGHT
 10
0.0
 20
0.0
 30
0.0
  9
$PUCSORGFRONT
 10
0.0
 20
0.0
 30
0.0
  9
$PUCSORGBACK
 10
0.0
 20
0.0
 30
0.0
  9
$USERI1
 70
     0
  9
$USERI2
 70
     0
  9
$USERI3
 70
     0
  9
$USERI4
 70
     0
  9
$USERI5
 70
     0
  9
$USERR1
 40
0.0
  9
$USERR2
 40
0.0
  9
$USERR3
 40
0.0
  9
$USERR4
 40
0.0
  9
$USERR5
 40
0.0
  9
$WORLDVIEW
 70
     1
  9
$SHADEDGE
 70
     3
  9
$SHADEDIF
 70
    70
  9
$TILEMODE
 70
     1
  9
$MAXACTVP
 70
    48
  9
$PINSBASE
 10
0.0
 20
0.0
 30
0.0
  9
$PLIMCHECK
 70
     0
  9
$PEXTMIN
 10
0.0
 20
0.0
 30
0.0
  9
$PEXTMAX
 10
826.0
 20
559.4330351521971
 30
0.4
  9
$PLIMMIN
 10
-20.89987702549854
 20
-27.03612118711686
  9
$PLIMMAX
 10
846.9235074929212
 20
586.4764362206919
  9
$UNITMODE
 70
     0
  9
$VISRETAIN
 70
     1
  9
$PLINEGEN
 70
     0
  9
$PSLTSCALE
 70
     1
  9
$TREEDEPTH
 70
  3020
  9
$CMLSTYLE
  2
STANDARD
  9
$CMLJUST
 70
     0
  9
$CMLSCALE
 40
1.0
  9
$PROXYGRAPHICS
 70
     1
  9
$MEASUREMENT
 70
     0
  9
$CELWEIGHT
370
    -1
  9
$ENDCAPS
280
     0
  9
$JOINSTYLE
280
     0
  9
$LWDISPLAY
290
     0
  9
$INSUNITS
 70
     0
  9
$HYPERLINKBASE
  1

  9
$STYLESHEET
  1
Tommy.ctb
  9
$XEDIT
290
     1
  9
$CEPSNTYPE
380
     0
  9
$PSTYLEMODE
290
     1
  9
$FINGERPRINTGUID
  2
{5823CA6D-C734-11D3-94EF-0060B0FBE80E}
  9
$VERSIONGUID
  2
{18A0B514-0686-334C-86B1-B4FFC2989BBA}
  9
$EXTNAMES
290
     1
  9
$PSVPSCALE
 40
0.0
  9
$OLESTARTUP
290
     0
  9
$SORTENTS
280
    96
  9
$INDEXCTL
280
     0
  9
$HIDETEXT
280
     0
  9
$XCLIPFRAME
280
     0
  9
$HALOGAP
280
     0
  9
$OBSCOLOR
 70
   257
  9
$OBSLTYPE
280
     0
  9
$INTERSECTIONDISPLAY
280
     0
  9
$INTERSECTIONCOLOR
 70
   257
  9
$DIMASSOC
280
     1
  9
$PROJECTNAME
  1

  9
$CAMERADISPLAY
290
     0
  9
$LENSLENGTH
 40
50.0
  9
$CAMERAHEIGHT
 40
0.0
  9
$STEPSPERSEC
 40
2.0
  9
$STEPSIZE
 40
6.0
  9
$3DDWFPREC
 40
2.0
  9
$PSOLWIDTH
 40
0.25
  9
$PSOLHEIGHT
 40
4.0
  9
$LOFTANG1
 40
1.570796326794896
  9
$LOFTANG2
 40
1.570796326794896
  9
$LOFTMAG1
 40
0.0
  9
$LOFTMAG2
 40
0.0
  9
$LOFTPARAM
 70
     7
  9
$LOFTNORMALS
280
     1
  9
$LATITUDE
 40
37.795
  9
$LONGITUDE
 40
-122.394
  9
$NORTHDIRECTION
 40
0.0
  9
$TIMEZONE
 70
 -8000
  9
$LIGHTGLYPHDISPLAY
280
     1
  9
$TILEMODELIGHTSYNCH
280
     1
  9
$CMATERIAL
347
FF50
  9
$SOLIDHIST
280
     0
  9
$SHOWHIST
280
     1
  9
$DWFFRAME
280
     2
  9
$DGNFRAME
280
     0
  9
$REALWORLDSCALE
290
     1
  9
$INTERFERECOLOR
 62
     1
  9
$INTERFEREOBJVS
345
FF72
  9
$INTERFEREVPVS
346
1010081
  9
$CSHADOW
280
     0
  9
$SHADOWPLANELOCATION
 40
0.0
  0
ENDSEC
  0
SECTION
  2
CLASSES
  0
CLASS
  1
DICTIONARYVAR
  2
AcDbDictionaryVar
  3
ObjectDBX Classes
 90
        0
 91
       15
280
     0
281
     0
  0
CLASS
  1
ACDBDICTIONARYWDFLT
  2
AcDbDictionaryWithDefault
  3
ObjectDBX Classes
 90
        0
 91
        1
280
     0
281
     0
  0
CLASS
  1
TABLESTYLE
  2
AcDbTableStyle
  3
ObjectDBX Classes
 90
     4095
 91
        1
280
     0
281
     0
  0
CLASS
  1
SORTENTSTABLE
  2
AcDbSortentsTable
  3
ObjectDBX Classes
 90
        0
 91
        2
280
     0
281
     0
  0
CLASS
  1
MATERIAL
  2
AcDbMaterial
  3
ObjectDBX Classes
 90
     1153
 91
        3
280
     0
281
     0
  0
CLASS
  1
VISUALSTYLE
  2
AcDbVisualStyle
  3
ObjectDBX Classes
 90
     4095
 91
       26
280
     0
281
     0
  0
CLASS
  1
SCALE
  2
AcDbScale
  3
ObjectDBX Classes
 90
     1153
 91
       33
280
     0
281
     0
  0
CLASS
  1
MLEADERSTYLE
  2
AcDbMLeaderStyle
  3
ACDB_MLEADERSTYLE_CLASS
 90
     4095
 91
        1
280
     0
281
     0
  0
CLASS
  1
CELLSTYLEMAP
  2
AcDbCellStyleMap
  3
ObjectDBX Classes
 90
     1152
 91
        2
280
     0
281
     0
  0
CLASS
  1
ACDBSECTIONVIEWSTYLE
  2
AcDbSectionViewStyle
  3
ObjectDBX Classes
 90
     1025
 91
        1
280
     0
281
     0
  0
CLASS
  1
ACDBDETAILVIEWSTYLE
  2
AcDbDetailViewStyle
  3
ObjectDBX Classes
 90
     1025
 91
        1
280
     0
281
     0
  0
ENDSEC
  0
SECTION
  2
TABLES
  0
TABLE
  2
VPORT
  5
8
102
{ACAD_XDICTIONARY
360
FFFD
102
}
330
0
100
AcDbSymbolTable
 70
     1
1001
ACAD
1000
DbSaveVer
1071
        5
  0
VPORT
  5
FF32
330
8
100
AcDbSymbolTableRecord
100
AcDbViewportTableRecord
  2
*Active
 70
     0
 10
0.0
 20
0.0
 11
1.0
 21
1.0
 12
564.8961878064372
 22
193.8936681220472
 13
0.0
 23
0.0
 14
0.5
 24
0.5
 15
0.5
 25
0.5
 16
0.0
 26
0.0
 36
1.0
 17
0.0
 27
0.0
 37
0.0
 40
868.5390230556478
 41
2.292712066905615
 42
50.0
 43
0.0
 44
0.0
 50
0.0
 51
0.0
 71
     0
 72
   100
 73
     1
 74
     1
 75
     0
 76
     0
 77
     0
 78
     0
281
     0
 65
     1
110
0.0
120
0.0
130
0.0
111
1.0
121
0.0
131
0.0
112
0.0
122
1.0
132
0.0
 79
     0
146
0.0
348
FF6E
 60
     3
 61
     5
292
     1
282
     1
141
0.0
142
0.0
 63
   250
421
  3355443
1001
ACAD_NAV_VCDISPLAY
1070
     3
  0
ENDTAB
  0
TABLE
  2
LTYPE
  5
5
330
0
100
AcDbSymbolTable
 70
     4
  0
LTYPE
  5
12
330
5
100
AcDbSymbolTableRecord
100
AcDbLinetypeTableRecord
  2
BYBLOCK
 70
     0
  3

 72
    65
 73
     0
 40
0.0
  0
LTYPE
  5
13
330
5
100
AcDbSymbolTableRecord
100
AcDbLinetypeTableRecord
  2
BYLAYER
 70
     0
  3

 72
    65
 73
     0
 40
0.0
  0
LTYPE
  5
14
330
5
100
AcDbSymbolTableRecord
100
AcDbLinetypeTableRecord
  2
CONTINUOUS
 70
     0
  3
Solid line
 72
    65
 73
     0
 40
0.0
  0
LTYPE
  5
32
330
5
100
AcDbSymbolTableRecord
100
AcDbLinetypeTableRecord
  2
CENTER2
 70
     0
  3
Center (.5x) ___ _ ___ _ ___ _ ___ _ ___ _ ___
 72
    65
 73
     4
 40
1.125
 49
0.75
 74
     0
 49
-0.125
 74
     0
 49
0.125
 74
     0
 49
-0.125
 74
     0
  0
LTYPE
  5
33
330
5
100
AcDbSymbolTableRecord
100
AcDbLinetypeTableRecord
  2
DASHED2
 70
     0
  3
Dashed (.5x) _ _ _ _ _ _ _ _ _ _ _ _ _ _ _ _ _
 72
    65
 73
     2
 40
0.375
 49
0.25
 74
     0
 49
-0.125
 74
     0
  0
LTYPE
  5
114
330
5
100
AcDbSymbolTableRecord
100
AcDbLinetypeTableRecord
  2
CENTER
 70
     0
  3
____ _ ____ _ ____ _ ____ _ ____ _ ____ _ ____
 72
    65
 73
     4
 40
2.0
 49
1.25
 74
     0
 49
-0.25
 74
     0
 49
0.25
 74
     0
 49
-0.25
 74
     0
  0
ENDTAB
  0
TABLE
  2
LAYER
  5
2
102
{ACAD_XDICTIONARY
360
CD00
102
}
330
0
100
AcDbSymbolTable
 70
     8
  0
LAYER
  5
E
102
{ACAD_XDICTIONARY
360
FFC1
102
}
330
2
100
AcDbSymbolTableRecord
100
AcDbLayerTableRecord
  2
0
 70
     0
 62
     7
  6
CONTINUOUS
370
    -3
390
5C1E
347
FF60
348
0
  0
LAYER
  5
34
102
{ACAD_XDICTIONARY
360
FFC3
102
}
330
2
100
AcDbSymbolTableRecord
100
AcDbLayerTableRecord
  2
SHEET
 70
     0
 62
     7
  6
CONTINUOUS
370
    -3
390
5C1E
347
FF60
348
0
  0
LAYER
  5
36
102
{ACAD_XDICTIONARY
360
FFC5
102
}
330
2
100
AcDbSymbolTableRecord
100
AcDbLayerTableRecord
  2
CL
 70
     0
 62
     2
  6
CENTER2
370
    -3
390
5C1E
347
FF60
348
0
  0
LAYER
  5
38
102
{ACAD_XDICTIONARY
360
FFC7
102
}
330
2
100
AcDbSymbolTableRecord
100
AcDbLayerTableRecord
  2
VP
 70
     1
 62
     4
  6
CONTINUOUS
370
    -3
390
5C1E
347
FF60
348
0
  0
LAYER
  5
39
102
{ACAD_XDICTIONARY
360
FFC9
102
}
330
2
100
AcDbSymbolTableRecord
100
AcDbLayerTableRecord
  2
SINK
 70
     0
 62
     4
  6
CONTINUOUS
370
    -3
390
5C1E
347
FF60
348
0
  0
LAYER
  5
E8
330
2
100
AcDbSymbolTableRecord
100
AcDbLayerTableRecord
  2
DEFPOINTS
 70
     0
 62
     7
  6
CONTINUOUS
290
     0
370
    -3
390
5C1E
347
FF60
348
0
  0
LAYER
  5
1D50
102
{ACAD_XDICTIONARY
360
FFCB
102
}
330
2
100
AcDbSymbolTableRecord
100
AcDbLayerTableRecord
  2
HATCH
 70
     0
 62
     3
  6
CONTINUOUS
370
    -3
390
5C1E
347
FF60
348
0
  0
LAYER
  5
43B1
102
{ACAD_XDICTIONARY
360
FFCD
102
}
330
2
100
AcDbSymbolTableRecord
100
AcDbLayerTableRecord
  2
DIM
 70
     0
 62
     1
  6
CONTINUOUS
370
    -3
390
5C1E
347
FF60
348
0
  0
ENDTAB
  0
TABLE
  2
STYLE
  5
3
330
0
100
AcDbSymbolTable
 70
     4
  0
STYLE
  5
F
330
3
100
AcDbSymbolTableRecord
100
AcDbTextStyleTableRecord
  2
STANDARD
 70
     0
 40
5.0
 41
1.0
 50
0.0
 71
     0
 42
5.0
  3
TIMES.TTF
  4

1001
ACAD
1000
Times New Roman
1071
       18
  0
STYLE
  5
3F
330
3
100
AcDbSymbolTableRecord
100
AcDbTextStyleTableRecord
  2
TITLE
 70
     0
 40
0.0
 41
1.0
 50
0.0
 71
     0
 42
4.0
  3
C:\R13\COM\fonts\eur_____.pfb
  4

  0
STYLE
  5
116
330
3
100
AcDbSymbolTableRecord
100
AcDbTextStyleTableRecord
  2
EUROROMAN
 70
     0
 40
0.5343811892451882
 41
1.0
 50
0.0
 71
     0
 42
0.5343811892451882
  3
eur_____.pfb
  4

  0
STYLE
  5
43B4
330
3
100
AcDbSymbolTableRecord
100
AcDbTextStyleTableRecord
  2
ROMANS
 70
     0
 40
5.0
 41
1.0
 50
0.0
 71
     0
 42
10.0
  3
romans
  4

  0
ENDTAB
  0
TABLE
  2
VIEW
  5
6
330
0
100
AcDbSymbolTable
 70
     3
  0
VIEW
  5
278
330
6
100
AcDbSymbolTableRecord
100
AcDbViewTableRecord
  2
P
 70
     0
 40
815.0
 10
608.7931217819457
 20
3.744870706040615
 41
1137.5
 11
0.0
 21
0.0
 31
1.0
 12
0.0
 22
0.0
 32
0.0
 42
50.0
 43
0.0
 44
0.0
 50
0.0
 71
     0
281
     0
 72
     0
 73
     0
348
FF6E
  0
VIEW
  5
2F21
330
6
100
AcDbSymbolTableRecord
100
AcDbViewTableRecord
  2
E
 70
     0
 40
655.0725840874363
 10
622.5998899062656
 20
58.70190082387842
 41
1137.170295034238
 11
0.0
 21
0.0
 31
1.0
 12
0.0
 22
0.0
 32
0.0
 42
50.0
 43
0.0
 44
0.0
 50
0.0
 71
     0
281
     0
 72
     0
 73
     0
348
FF6E
  0
ENDTAB
  0
TABLE
  2
UCS
  5
7
330
0
100
AcDbSymbolTable
 70
     0
  0
ENDTAB
  0
TABLE
  2
APPID
  5
9
330
0
100
AcDbSymbolTable
 70
     5
  0
APPID
  5
10
330
9
100
AcDbSymbolTableRecord
100
AcDbRegAppTableRecord
  2
ACAD
 70
     0
  0
APPID
  5
CCE5
330
9
100
AcDbSymbolTableRecord
100
AcDbRegAppTableRecord
  2
ACAD_EXEMPT_FROM_CAD_STANDARDS
 70
     0
  0
APPID
  5
CD9D
330
9
100
AcDbSymbolTableRecord
100
AcDbRegAppTableRecord
  2
ACAD_PSEXT
 70
     0
  0
APPID
  5
FF9D
330
9
100
AcDbSymbolTableRecord
100
AcDbRegAppTableRecord
  2
ACAD_MLEADERVER
 70
     0
  0
APPID
  5
101009D
330
9
100
AcDbSymbolTableRecord
100
AcDbRegAppTableRecord
  2
ACAD_NAV_VCDISPLAY
 70
     0
  0
ENDTAB
  0
TABLE
  2
DIMSTYLE
  5
A
330
0
100
AcDbSymbolTable
 70
     1
100
AcDbDimStyleTable
 71
     1
340
1D
  0
DIMSTYLE
105
1D
102
{ACAD_REACTORS
330
F626
330
F634
330
F6BC
330
F6CA
330
F6D8
330
F6E6
330
F6F4
330
F716
330
F724
330
F756
330
FD63
330
FD71
330
FDC8
102
}
330
A
100
AcDbSymbolTableRecord
100
AcDbDimStyleTableRecord
  2
STANDARD
 70
     0
 41
5.0
140
5.0
178
     1
271
     2
272
     2
340
F
  0
ENDTAB
  0
TABLE
  2
BLOCK_RECORD
  5
1
330
0
100
AcDbSymbolTable
 70
    13
  0
BLOCK_RECORD
  5
18
102
{ACAD_XDICTIONARY
360
982C
102
}
330
1
100
AcDbSymbolTableRecord
100
AcDbBlockTableRecord
  2
*MODEL_SPACE
340
5C21
 70
     0
280
     1
281
     0
  0
BLOCK_RECORD
  5
15
102
{ACAD_XDICTIONARY
360
982A
102
}
330
1
100
AcDbSymbolTableRecord
100
AcDbBlockTableRecord
  2
*PAPER_SPACE
340
5C22
 70
     0
280
     1
281
     0
  0
BLOCK_RECORD
  5
F627
330
1
100
AcDbSymbolTableRecord
100
AcDbBlockTableRecord
  2
*D0
340
0
 70
     0
280
     1
281
     0
  0
BLOCK_RECORD
  5
F635
330
1
100
AcDbSymbolTableRecord
100
AcDbBlockTableRecord
  2
*D1
340
0
 70
     0
280
     1
281
     0
  0
BLOCK_RECORD
  5
F6BD
330
1
100
AcDbSymbolTableRecord
100
AcDbBlockTableRecord
  2
*D2
340
0
 70
     0
280
     1
281
     0
  0
BLOCK_RECORD
  5
F6CB
330
1
100
AcDbSymbolTableRecord
100
AcDbBlockTableRecord
  2
*D3
340
0
 70
     0
280
     1
281
     0
  0
BLOCK_RECORD
  5
F6D9
330
1
100
AcDbSymbolTableRecord
100
AcDbBlockTableRecord
  2
*D4
340
0
 70
     0
280
     1
281
     0
  0
BLOCK_RECORD
  5
F6E7
330
1
100
AcDbSymbolTableRecord
100
AcDbBlockTableRecord
  2
*D5
340
0
 70
     0
280
     1
281
     0
  0
BLOCK_RECORD
  5
F6F5
330
1
100
AcDbSymbolTableRecord
100
AcDbBlockTableRecord
  2
*D6
340
0
 70
     0
280
     1
281
     0
  0
BLOCK_RECORD
  5
F717
330
1
100
AcDbSymbolTableRecord
100
AcDbBlockTableRecord
  2
*D7
340
0
 70
     0
280
     1
281
     0
  0
BLOCK_RECORD
  5
F725
330
1
100
AcDbSymbolTableRecord
100
AcDbBlockTableRecord
  2
*D8
340
0
 70
     0
280
     1
281
     0
  0
BLOCK_RECORD
  5
F757
330
1
100
AcDbSymbolTableRecord
100
AcDbBlockTableRecord
  2
*D9
340
0
 70
     0
280
     1
281
     0
  0
BLOCK_RECORD
  5
FD64
330
1
100
AcDbSymbolTableRecord
100
AcDbBlockTableRecord
  2
*D10
340
0
 70
     0
280
     1
281
     0
  0
BLOCK_RECORD
  5
FD72
330
1
100
AcDbSymbolTableRecord
100
AcDbBlockTableRecord
  2
*D11
340
0
 70
     0
280
     1
281
     0
  0
BLOCK_RECORD
  5
FDC9
330
1
100
AcDbSymbolTableRecord
100
AcDbBlockTableRecord
  2
*D12
340
0
 70
     0
280
     1
281
     0
  0
ENDTAB
  0
ENDSEC
  0
SECTION
  2
BLOCKS
  0
BLOCK
  5
19
330
18
100
AcDbEntity
  8
0
100
AcDbBlockBegin
  2
*MODEL_SPACE
 70
     0
 10
0.0
 20
0.0
 30
0.0
  3
*MODEL_SPACE
  1

  0
ENDBLK
  5
1A
330
18
100
AcDbEntity
  8
0
100
AcDbBlockEnd
  0
BLOCK
  5
16
330
15
100
AcDbEntity
 67
     1
  8
0
100
AcDbBlockBegin
  2
*PAPER_SPACE
 70
     0
 10
0.0
 20
0.0
 30
0.0
  3
*PAPER_SPACE
  1

  0
ENDBLK
  5
17
330
15
100
AcDbEntity
 67
     1
  8
0
100
AcDbBlockEnd
  0
BLOCK
  5
F632
330
F627
100
AcDbEntity
  8
0
100
AcDbBlockBegin
  2
*D0
 70
     1
 10
0.0
 20
0.0
 30
0.0
  3
*D0
  1

  0
LINE
  5
FD4E
330
F627
100
AcDbEntity
  8
DIM
 62
     0
440
 16777216
370
    -2
100
AcDbLine
 10
264.9514344952373
 20
571.7828505155827
 30
0.0
 11
264.9514344952373
 21
621.1002219486365
 31
0.0
  0
LINE
  5
FD4F
330
F627
100
AcDbEntity
  8
DIM
 62
     0
440
 16777216
370
    -2
100
AcDbLine
 10
849.151434495238
 20
571.7828505155836
 30
0.0
 11
849.151434495238
 21
621.1002219486365
 31
0.0
  0
LINE
  5
FD50
330
F627
100
AcDbEntity
  8
DIM
 62
     0
440
 16777216
370
    -2
100
AcDbLine
 10
269.9514344952373
 20
620.9202219486366
 30
0.0
 11
547.1182477612794
 21
620.9202219486366
 31
0.0
  0
LINE
  5
FD51
330
F627
100
AcDbEntity
  8
DIM
 62
     0
440
 16777216
370
    -2
100
AcDbLine
 10
844.1514344952381
 20
620.9202219486366
 30
0.0
 11
566.9846212291958
 21
620.9202219486366
 31
0.0
  0
SOLID
  5
FD52
330
F627
100
AcDbEntity
  8
DIM
 62
     0
440
 16777216
100
AcDbTrace
 10
269.9514344952373
 20
621.75355528197
 30
0.0
 11
269.9514344952373
 21
620.0868886153032
 31
0.0
 12
264.9514344952373
 22
620.9202219486366
 32
0.0
 13
264.9514344952373
 23
620.9202219486366
 33
0.0
  0
SOLID
  5
FD53
330
F627
100
AcDbEntity
  8
DIM
 62
     0
440
 16777216
100
AcDbTrace
 10
844.1514344952381
 20
621.75355528197
 30
0.0
 11
844.1514344952381
 21
620.0868886153032
 31
0.0
 12
849.151434495238
 22
620.9202219486366
 32
0.0
 13
849.151434495238
 23
620.9202219486366
 33
0.0
  0
MTEXT
  5
FD54
330
F627
100
AcDbEntity
  8
DIM
 62
     1
440
 16777216
100
AcDbMText
 10
557.0514344952377
 20
620.9202219486366
 30
0.0
 40
5.0
 41
0.0
 46
0.0
 71
     5
 72
     1
  1
\A1;584.20
 73
     1
 44
1.0
  0
POINT
  5
FD55
330
F627
100
AcDbEntity
  8
DEFPOINTS
 62
     0
440
 16777216
100
AcDbPoint
 10
264.9514344952373
 20
571.7203505155826
 30
0.0
  0
POINT
  5
FD56
330
F627
100
AcDbEntity
  8
DEFPOINTS
 62
     0
440
 16777216
100
AcDbPoint
 10
849.151434495238
 20
571.7203505155835
 30
0.0
  0
POINT
  5
FD57
330
F627
100
AcDbEntity
  8
DEFPOINTS
 62
     0
440
 16777216
100
AcDbPoint
 10
849.151434495238
 20
620.9202219486366
 30
0.0
  0
ENDBLK
  5
F633
330
F627
100
AcDbEntity
  8
0
100
AcDbBlockEnd
  0
BLOCK
  5
F640
330
F635
100
AcDbEntity
  8
0
100
AcDbBlockBegin
  2
*D1
 70
     1
 10
0.0
 20
0.0
 30
0.0
  3
*D1
  1

  0
LINE
  5
FD58
330
F635
100
AcDbEntity
  8
DIM
 62
     0
440
 16777216
370
    -2
100
AcDbLine
 10
264.9514344952373
 20
571.7828505155827
 30
0.0
 11
264.9514344952373
 21
605.7863291035939
 31
0.0
  0
LINE
  5
FD59
330
F635
100
AcDbEntity
  8
DIM
 62
     0
440
 16777216
370
    -2
100
AcDbLine
 10
557.0514344952377
 20
579.7828505155826
 30
0.0
 11
557.0514344952377
 21
605.7863291035939
 31
0.0
  0
LINE
  5
FD5A
330
F635
100
AcDbEntity
  8
DIM
 62
     0
440
 16777216
370
    -2
100
AcDbLine
 10
269.9514344952373
 20
605.606329103594
 30
0.0
 11
400.9709153892534
 21
605.606329103594
 31
0.0
  0
LINE
  5
FD5B
330
F635
100
AcDbEntity
  8
DIM
 62
     0
440
 16777216
370
    -2
100
AcDbLine
 10
552.0514344952377
 20
605.606329103594
 30
0.0
 11
421.0319536012216
 21
605.606329103594
 31
0.0
  0
SOLID
  5
FD5C
330
F635
100
AcDbEntity
  8
DIM
 62
     0
440
 16777216
100
AcDbTrace
 10
269.9514344952373
 20
606.4396624369273
 30
0.0
 11
269.9514344952373
 21
604.7729957702606
 31
0.0
 12
264.9514344952373
 22
605.606329103594
 32
0.0
 13
264.9514344952373
 23
605.606329103594
 33
0.0
  0
SOLID
  5
FD5D
330
F635
100
AcDbEntity
  8
DIM
 62
     0
440
 16777216
100
AcDbTrace
 10
552.0514344952377
 20
606.4396624369273
 30
0.0
 11
552.0514344952377
 21
604.7729957702606
 31
0.0
 12
557.0514344952377
 22
605.606329103594
 32
0.0
 13
557.0514344952377
 23
605.606329103594
 33
0.0
  0
MTEXT
  5
FD5E
330
F635
100
AcDbEntity
  8
DIM
 62
     1
440
 16777216
100
AcDbMText
 10
411.0014344952374
 20
605.606329103594
 30
0.0
 40
5.0
 41
0.0
 46
0.0
 71
     5
 72
     1
  1
\A1;292.10
 73
     1
 44
1.0
  0
POINT
  5
FD5F
330
F635
100
AcDbEntity
  8
DEFPOINTS
 62
     0
440
 16777216
100
AcDbPoint
 10
264.9514344952373
 20
571.7203505155826
 30
0.0
  0
POINT
  5
FD60
330
F635
100
AcDbEntity
  8
DEFPOINTS
 62
     0
440
 16777216
100
AcDbPoint
 10
557.0514344952377
 20
579.7203505155826
 30
0.0
  0
POINT
  5
FD61
330
F635
100
AcDbEntity
  8
DEFPOINTS
 62
     0
440
 16777216
100
AcDbPoint
 10
557.0514344952377
 20
605.606329103594
 30
0.0
  0
ENDBLK
  5
F641
330
F635
100
AcDbEntity
  8
0
100
AcDbBlockEnd
  0
BLOCK
  5
F6C8
330
F6BD
100
AcDbEntity
  8
0
100
AcDbBlockBegin
  2
*D2
 70
     1
 10
0.0
 20
0.0
 30
0.0
  3
*D2
  1

  0
LINE
  5
F999
330
F6BD
100
AcDbEntity
  8
DIM
 62
     0
440
 16777216
370
    -2
100
AcDbLine
 10
487.0514344952376
 20
379.7828505155828
 30
0.0
 11
461.7094551069961
 21
379.7828505155828
 31
0.0
  0
LINE
  5
F99A
330
F6BD
100
AcDbEntity
  8
DIM
 62
     0
440
 16777216
370
    -2
100
AcDbLine
 10
487.0514344952359
 20
429.7828505155827
 30
0.0
 11
461.7094551069961
 21
429.7828505155827
 31
0.0
  0
LINE
  5
F99B
330
F6BD
100
AcDbEntity
  8
DIM
 62
     0
440
 16777216
370
    -2
100
AcDbLine
 10
461.8894551069961
 20
384.7828505155828
 30
0.0
 11
461.8894551069961
 21
402.1423818782359
 31
0.0
  0
LINE
  5
F99C
330
F6BD
100
AcDbEntity
  8
DIM
 62
     0
440
 16777216
370
    -2
100
AcDbLine
 10
461.8894551069961
 20
424.7828505155827
 30
0.0
 11
461.8894551069961
 21
407.4233191529295
 31
0.0
  0
SOLID
  5
F99D
330
F6BD
100
AcDbEntity
  8
DIM
 62
     0
440
 16777216
100
AcDbTrace
 10
461.0561217736628
 20
384.7828505155828
 30
0.0
 11
462.7227884403295
 21
384.7828505155828
 31
0.0
 12
461.8894551069961
 22
379.7828505155828
 32
0.0
 13
461.8894551069961
 23
379.7828505155828
 33
0.0
  0
SOLID
  5
F99E
330
F6BD
100
AcDbEntity
  8
DIM
 62
     0
440
 16777216
100
AcDbTrace
 10
461.0561217736628
 20
424.7828505155827
 30
0.0
 11
462.7227884403295
 21
424.7828505155827
 31
0.0
 12
461.8894551069961
 22
429.7828505155827
 32
0.0
 13
461.8894551069961
 23
429.7828505155827
 33
0.0
  0
MTEXT
  5
F99F
330
F6BD
100
AcDbEntity
  8
DIM
 62
     1
440
 16777216
100
AcDbMText
 10
461.889455106996
 20
404.7828505155829
 30
0.0
 40
5.0
 41
0.0
 46
0.0
 71
     5
 72
     1
  1
\A1;50.00
 73
     1
 44
1.0
  0
POINT
  5
F9A0
330
F6BD
100
AcDbEntity
  8
DEFPOINTS
 62
     0
440
 16777216
100
AcDbPoint
 10
487.1139344952377
 20
379.7828505155828
 30
0.0
  0
POINT
  5
F9A1
330
F6BD
100
AcDbEntity
  8
DEFPOINTS
 62
     0
440
 16777216
100
AcDbPoint
 10
487.1139344952358
 20
429.7828505155827
 30
0.0
  0
POINT
  5
F9A2
330
F6BD
100
AcDbEntity
  8
DEFPOINTS
 62
     0
440
 16777216
100
AcDbPoint
 10
461.8894551069961
 20
429.7828505155827
 30
0.0
  0
ENDBLK
  5
F6C9
330
F6BD
100
AcDbEntity
  8
0
100
AcDbBlockEnd
  0
BLOCK
  5
F6D6
330
F6CB
100
AcDbEntity
  8
0
100
AcDbBlockBegin
  2
*D3
 70
     1
 10
0.0
 20
0.0
 30
0.0
  3
*D3
  1

  0
LINE
  5
FDDA
330
F6CB
100
AcDbEntity
  8
DIM
 62
     0
440
 16777216
370
    -2
100
AcDbLine
 10
829.0514344952381
 20
549.782850515583
 30
0.0
 11
888.3285272015672
 21
549.782850515583
 31
0.0
  0
LINE
  5
FDDB
330
F6CB
100
AcDbEntity
  8
DIM
 62
     0
440
 16777216
370
    -2
100
AcDbLine
 10
849.0514344952362
 20
379.7828505155836
 30
0.0
 11
888.3285272015672
 21
379.7828505155836
 31
0.0
  0
LINE
  5
FDDC
330
F6CB
100
AcDbEntity
  8
DIM
 62
     0
440
 16777216
370
    -2
100
AcDbLine
 10
888.1485272015673
 20
544.782850515583
 30
0.0
 11
888.1485272015673
 21
467.42331915293
 31
0.0
  0
LINE
  5
FDDD
330
F6CB
100
AcDbEntity
  8
DIM
 62
     0
440
 16777216
370
    -2
100
AcDbLine
 10
888.1485272015673
 20
384.7828505155836
 30
0.0
 11
888.1485272015673
 21
462.1423818782365
 31
0.0
  0
SOLID
  5
FDDE
330
F6CB
100
AcDbEntity
  8
DIM
 62
     0
440
 16777216
100
AcDbTrace
 10
887.315193868234
 20
544.782850515583
 30
0.0
 11
888.9818605349008
 21
544.782850515583
 31
0.0
 12
888.1485272015673
 22
549.782850515583
 32
0.0
 13
888.1485272015673
 23
549.782850515583
 33
0.0
  0
SOLID
  5
FDDF
330
F6CB
100
AcDbEntity
  8
DIM
 62
     0
440
 16777216
100
AcDbTrace
 10
887.315193868234
 20
384.7828505155836
 30
0.0
 11
888.9818605349008
 21
384.7828505155836
 31
0.0
 12
888.1485272015673
 22
379.7828505155836
 32
0.0
 13
888.1485272015673
 23
379.7828505155836
 33
0.0
  0
MTEXT
  5
FDE0
330
F6CB
100
AcDbEntity
  8
DIM
 62
     1
440
 16777216
100
AcDbMText
 10
888.1485272015673
 20
464.7828505155835
 30
0.0
 40
5.0
 41
0.0
 46
0.0
 71
     5
 72
     1
  1
\A1;170.00
 73
     1
 44
1.0
  0
POINT
  5
FDE1
330
F6CB
100
AcDbEntity
  8
DEFPOINTS
 62
     0
440
 16777216
100
AcDbPoint
 10
828.988934495238
 20
549.782850515583
 30
0.0
  0
POINT
  5
FDE2
330
F6CB
100
AcDbEntity
  8
DEFPOINTS
 62
     0
440
 16777216
100
AcDbPoint
 10
848.9889344952361
 20
379.7828505155836
 30
0.0
  0
POINT
  5
FDE3
330
F6CB
100
AcDbEntity
  8
DEFPOINTS
 62
     0
440
 16777216
100
AcDbPoint
 10
888.1485272015673
 20
379.7828505155836
 30
0.0
  0
ENDBLK
  5
F6D7
330
F6CB
100
AcDbEntity
  8
0
100
AcDbBlockEnd
  0
BLOCK
  5
F6E4
330
F6D9
100
AcDbEntity
  8
0
100
AcDbBlockBegin
  2
*D4
 70
     1
 10
0.0
 20
0.0
 30
0.0
  3
*D4
  1

  0
LINE
  5
FDE4
330
F6D9
100
AcDbEntity
  8
DIM
 62
     0
440
 16777216
370
    -2
100
AcDbLine
 10
809.051434495238
 20
569.782850515583
 30
0.0
 11
913.8738639646481
 21
569.782850515583
 31
0.0
  0
LINE
  5
FDE5
330
F6D9
100
AcDbEntity
  8
DIM
 62
     0
440
 16777216
370
    -2
100
AcDbLine
 10
849.0514344952362
 20
379.7828505155836
 30
0.0
 11
913.8738639646481
 21
379.7828505155836
 31
0.0
  0
LINE
  5
FDE6
330
F6D9
100
AcDbEntity
  8
DIM
 62
     0
440
 16777216
370
    -2
100
AcDbLine
 10
913.6938639646482
 20
564.782850515583
 30
0.0
 11
913.6938639646482
 21
477.42331915293
 31
0.0
  0
LINE
  5
FDE7
330
F6D9
100
AcDbEntity
  8
DIM
 62
     0
440
 16777216
370
    -2
100
AcDbLine
 10
913.6938639646482
 20
384.7828505155836
 30
0.0
 11
913.6938639646482
 21
472.1423818782365
 31
0.0
  0
SOLID
  5
FDE8
330
F6D9
100
AcDbEntity
  8
DIM
 62
     0
440
 16777216
100
AcDbTrace
 10
912.8605306313147
 20
564.782850515583
 30
0.0
 11
914.5271972979815
 21
564.782850515583
 31
0.0
 12
913.6938639646482
 22
569.782850515583
 32
0.0
 13
913.6938639646482
 23
569.782850515583
 33
0.0
  0
SOLID
  5
FDE9
330
F6D9
100
AcDbEntity
  8
DIM
 62
     0
440
 16777216
100
AcDbTrace
 10
912.8605306313147
 20
384.7828505155836
 30
0.0
 11
914.5271972979815
 21
384.7828505155836
 31
0.0
 12
913.6938639646482
 22
379.7828505155836
 32
0.0
 13
913.6938639646482
 23
379.7828505155836
 33
0.0
  0
MTEXT
  5
FDEA
330
F6D9
100
AcDbEntity
  8
DIM
 62
     1
440
 16777216
100
AcDbMText
 10
913.693863964648
 20
474.7828505155834
 30
0.0
 40
5.0
 41
0.0
 46
0.0
 71
     5
 72
     1
  1
\A1;190.00
 73
     1
 44
1.0
  0
POINT
  5
FDEB
330
F6D9
100
AcDbEntity
  8
DEFPOINTS
 62
     0
440
 16777216
100
AcDbPoint
 10
808.988934495238
 20
569.782850515583
 30
0.0
  0
POINT
  5
FDEC
330
F6D9
100
AcDbEntity
  8
DEFPOINTS
 62
     0
440
 16777216
100
AcDbPoint
 10
848.9889344952361
 20
379.7828505155836
 30
0.0
  0
POINT
  5
FDED
330
F6D9
100
AcDbEntity
  8
DEFPOINTS
 62
     0
440
 16777216
100
AcDbPoint
 10
913.6938639646482
 20
379.7828505155836
 30
0.0
  0
ENDBLK
  5
F6E5
330
F6D9
100
AcDbEntity
  8
0
100
AcDbBlockEnd
  0
BLOCK
  5
F6F2
330
F6E7
100
AcDbEntity
  8
0
100
AcDbBlockBegin
  2
*D5
 70
     1
 10
0.0
 20
0.0
 30
0.0
  3
*D5
  1

  0
LINE
  5
FDEE
330
F6E7
100
AcDbEntity
  8
DIM
 62
     0
440
 16777216
370
    -2
100
AcDbLine
 10
809.0514344952362
 20
139.782850515583
 30
0.0
 11
913.8738639646481
 21
139.782850515583
 31
0.0
  0
LINE
  5
FDEF
330
F6E7
100
AcDbEntity
  8
DIM
 62
     0
440
 16777216
370
    -2
100
AcDbLine
 10
849.0514344952362
 20
379.7828505155836
 30
0.0
 11
913.8738639646481
 21
379.7828505155836
 31
0.0
  0
LINE
  5
FDF0
330
F6E7
100
AcDbEntity
  8
DIM
 62
     0
440
 16777216
370
    -2
100
AcDbLine
 10
913.693863964648
 20
144.782850515583
 30
0.0
 11
913.6938639646482
 21
257.1423818782365
 31
0.0
  0
LINE
  5
FDF1
330
F6E7
100
AcDbEntity
  8
DIM
 62
     0
440
 16777216
370
    -2
100
AcDbLine
 10
913.6938639646482
 20
374.7828505155835
 30
0.0
 11
913.6938639646482
 21
262.4233191529301
 31
0.0
  0
SOLID
  5
FDF2
330
F6E7
100
AcDbEntity
  8
DIM
 62
     0
440
 16777216
100
AcDbTrace
 10
912.8605306313145
 20
144.782850515583
 30
0.0
 11
914.5271972979813
 21
144.782850515583
 31
0.0
 12
913.693863964648
 22
139.782850515583
 32
0.0
 13
913.693863964648
 23
139.782850515583
 33
0.0
  0
SOLID
  5
FDF3
330
F6E7
100
AcDbEntity
  8
DIM
 62
     0
440
 16777216
100
AcDbTrace
 10
912.8605306313147
 20
374.7828505155835
 30
0.0
 11
914.5271972979815
 21
374.7828505155835
 31
0.0
 12
913.6938639646482
 22
379.7828505155836
 32
0.0
 13
913.6938639646482
 23
379.7828505155836
 33
0.0
  0
MTEXT
  5
FDF4
330
F6E7
100
AcDbEntity
  8
DIM
 62
     1
440
 16777216
100
AcDbMText
 10
913.693863964648
 20
259.7828505155835
 30
0.0
 40
5.0
 41
0.0
 46
0.0
 71
     5
 72
     1
  1
\A1;240.00
 73
     1
 44
1.0
  0
POINT
  5
FDF5
330
F6E7
100
AcDbEntity
  8
DEFPOINTS
 62
     0
440
 16777216
100
AcDbPoint
 10
808.9889344952363
 20
139.782850515583
 30
0.0
  0
POINT
  5
FDF6
330
F6E7
100
AcDbEntity
  8
DEFPOINTS
 62
     0
440
 16777216
100
AcDbPoint
 10
848.9889344952361
 20
379.7828505155836
 30
0.0
  0
POINT
  5
FDF7
330
F6E7
100
AcDbEntity
  8
DEFPOINTS
 62
     0
440
 16777216
100
AcDbPoint
 10
913.6938639646482
 20
379.7828505155836
 30
0.0
  0
ENDBLK
  5
F6F3
330
F6E7
100
AcDbEntity
  8
0
100
AcDbBlockEnd
  0
BLOCK
  5
F700
330
F6F5
100
AcDbEntity
  8
0
100
AcDbBlockBegin
  2
*D6
 70
     1
 10
0.0
 20
0.0
 30
0.0
  3
*D6
  1

  0
LINE
  5
FDF8
330
F6F5
100
AcDbEntity
  8
DIM
 62
     0
440
 16777216
370
    -2
100
AcDbLine
 10
829.0514344952361
 20
159.782850515583
 30
0.0
 11
888.3285272015672
 21
159.782850515583
 31
0.0
  0
LINE
  5
FDF9
330
F6F5
100
AcDbEntity
  8
DIM
 62
     0
440
 16777216
370
    -2
100
AcDbLine
 10
849.0514344952362
 20
379.7828505155836
 30
0.0
 11
888.3285272015672
 21
379.7828505155836
 31
0.0
  0
LINE
  5
FDFA
330
F6F5
100
AcDbEntity
  8
DIM
 62
     0
440
 16777216
370
    -2
100
AcDbLine
 10
888.1485272015673
 20
164.782850515583
 30
0.0
 11
888.1485272015673
 21
267.1423818782366
 31
0.0
  0
LINE
  5
FDFB
330
F6F5
100
AcDbEntity
  8
DIM
 62
     0
440
 16777216
370
    -2
100
AcDbLine
 10
888.1485272015673
 20
374.7828505155836
 30
0.0
 11
888.1485272015673
 21
272.4233191529301
 31
0.0
  0
SOLID
  5
FDFC
330
F6F5
100
AcDbEntity
  8
DIM
 62
     0
440
 16777216
100
AcDbTrace
 10
887.3151938682338
 20
164.782850515583
 30
0.0
 11
888.9818605349006
 21
164.782850515583
 31
0.0
 12
888.1485272015673
 22
159.782850515583
 32
0.0
 13
888.1485272015673
 23
159.782850515583
 33
0.0
  0
SOLID
  5
FDFD
330
F6F5
100
AcDbEntity
  8
DIM
 62
     0
440
 16777216
100
AcDbTrace
 10
887.315193868234
 20
374.7828505155836
 30
0.0
 11
888.9818605349008
 21
374.7828505155836
 31
0.0
 12
888.1485272015673
 22
379.7828505155836
 32
0.0
 13
888.1485272015673
 23
379.7828505155836
 33
0.0
  0
MTEXT
  5
FDFE
330
F6F5
100
AcDbEntity
  8
DIM
 62
     1
440
 16777216
100
AcDbMText
 10
888.1485272015673
 20
269.7828505155834
 30
0.0
 40
5.0
 41
0.0
 46
0.0
 71
     5
 72
     1
  1
\A1;220.00
 73
     1
 44
1.0
  0
POINT
  5
FDFF
330
F6F5
100
AcDbEntity
  8
DEFPOINTS
 62
     0
440
 16777216
100
AcDbPoint
 10
828.9889344952362
 20
159.782850515583
 30
0.0
  0
POINT
  5
FE00
330
F6F5
100
AcDbEntity
  8
DEFPOINTS
 62
     0
440
 16777216
100
AcDbPoint
 10
848.9889344952361
 20
379.7828505155836
 30
0.0
  0
POINT
  5
FE01
330
F6F5
100
AcDbEntity
  8
DEFPOINTS
 62
     0
440
 16777216
100
AcDbPoint
 10
888.1485272015673
 20
379.7828505155836
 30
0.0
  0
ENDBLK
  5
F701
330
F6F5
100
AcDbEntity
  8
0
100
AcDbBlockEnd
  0
BLOCK
  5
F722
330
F717
100
AcDbEntity
  8
0
100
AcDbBlockBegin
  2
*D7
 70
     1
 10
0.0
 20
0.0
 30
0.0
  3
*D7
  1

  0
LINE
  5
FE0A
330
F717
100
AcDbEntity
  8
DIM
 62
     0
440
 16777216
370
    -2
100
AcDbLine
 10
809.051434495238
 20
139.7828505155822
 30
0.0
 11
809.051434495238
 21
102.0000424239424
 31
0.0
  0
LINE
  5
FE0B
330
F717
100
AcDbEntity
  8
DIM
 62
     0
440
 16777216
370
    -2
100
AcDbLine
 10
557.0514344952377
 20
119.7203505155826
 30
0.0
 11
557.0514344952377
 21
102.0000424239424
 31
0.0
  0
LINE
  5
FE0C
330
F717
100
AcDbEntity
  8
DIM
 62
     0
440
 16777216
370
    -2
100
AcDbLine
 10
804.0514344952381
 20
102.1800424239424
 30
0.0
 11
693.0819536012219
 21
102.1800424239424
 31
0.0
  0
LINE
  5
FE0D
330
F717
100
AcDbEntity
  8
DIM
 62
     0
440
 16777216
370
    -2
100
AcDbLine
 10
562.0514344952376
 20
102.1800424239424
 30
0.0
 11
673.0209153892537
 21
102.1800424239424
 31
0.0
  0
SOLID
  5
FE0E
330
F717
100
AcDbEntity
  8
DIM
 62
     0
440
 16777216
100
AcDbTrace
 10
804.0514344952381
 20
103.0133757572757
 30
0.0
 11
804.0514344952381
 21
101.3467090906091
 31
0.0
 12
809.051434495238
 22
102.1800424239424
 32
0.0
 13
809.051434495238
 23
102.1800424239424
 33
0.0
  0
SOLID
  5
FE0F
330
F717
100
AcDbEntity
  8
DIM
 62
     0
440
 16777216
100
AcDbTrace
 10
562.0514344952376
 20
103.0133757572757
 30
0.0
 11
562.0514344952376
 21
101.3467090906091
 31
0.0
 12
557.0514344952377
 22
102.1800424239424
 32
0.0
 13
557.0514344952377
 23
102.1800424239424
 33
0.0
  0
MTEXT
  5
FE10
330
F717
100
AcDbEntity
  8
DIM
 62
     1
440
 16777216
100
AcDbMText
 10
683.0514344952377
 20
102.1800424239424
 30
0.0
 40
5.0
 41
0.0
 46
0.0
 71
     5
 72
     1
  1
\A1;252.00
 73
     1
 44
1.0
  0
POINT
  5
FE11
330
F717
100
AcDbEntity
  8
DEFPOINTS
 62
     0
440
 16777216
100
AcDbPoint
 10
809.051434495238
 20
139.8453505155822
 30
0.0
  0
POINT
  5
FE12
330
F717
100
AcDbEntity
  8
DEFPOINTS
 62
     0
440
 16777216
100
AcDbPoint
 10
557.0514344952377
 20
119.7828505155826
 30
0.0
  0
POINT
  5
FE13
330
F717
100
AcDbEntity
  8
DEFPOINTS
 62
     0
440
 16777216
100
AcDbPoint
 10
557.0514344952377
 20
102.1800424239424
 30
0.0
  0
ENDBLK
  5
F723
330
F717
100
AcDbEntity
  8
0
100
AcDbBlockEnd
  0
BLOCK
  5
F730
330
F725
100
AcDbEntity
  8
0
100
AcDbBlockBegin
  2
*D8
 70
     1
 10
0.0
 20
0.0
 30
0.0
  3
*D8
  1

  0
LINE
  5
FE14
330
F725
100
AcDbEntity
  8
DIM
 62
     0
440
 16777216
370
    -2
100
AcDbLine
 10
829.0514344952381
 20
159.7828505155822
 30
0.0
 11
829.0514344952381
 21
85.56417428227815
 31
0.0
  0
LINE
  5
FE15
330
F725
100
AcDbEntity
  8
DIM
 62
     0
440
 16777216
370
    -2
100
AcDbLine
 10
557.0514344952377
 20
119.7203505155826
 30
0.0
 11
557.0514344952377
 21
85.56417428227815
 31
0.0
  0
LINE
  5
FE16
330
F725
100
AcDbEntity
  8
DIM
 62
     0
440
 16777216
370
    -2
100
AcDbLine
 10
824.051434495238
 20
85.74417428227816
 30
0.0
 11
703.0819536012219
 21
85.74417428227816
 31
0.0
  0
LINE
  5
FE17
330
F725
100
AcDbEntity
  8
DIM
 62
     0
440
 16777216
370
    -2
100
AcDbLine
 10
562.0514344952376
 20
85.74417428227816
 30
0.0
 11
683.0209153892536
 21
85.74417428227816
 31
0.0
  0
SOLID
  5
FE18
330
F725
100
AcDbEntity
  8
DIM
 62
     0
440
 16777216
100
AcDbTrace
 10
824.051434495238
 20
86.57750761561148
 30
0.0
 11
824.051434495238
 21
84.91084094894482
 31
0.0
 12
829.0514344952381
 22
85.74417428227816
 32
0.0
 13
829.0514344952381
 23
85.74417428227816
 33
0.0
  0
SOLID
  5
FE19
330
F725
100
AcDbEntity
  8
DIM
 62
     0
440
 16777216
100
AcDbTrace
 10
562.0514344952376
 20
86.57750761561148
 30
0.0
 11
562.0514344952376
 21
84.91084094894482
 31
0.0
 12
557.0514344952377
 22
85.74417428227816
 32
0.0
 13
557.0514344952377
 23
85.74417428227816
 33
0.0
  0
MTEXT
  5
FE1A
330
F725
100
AcDbEntity
  8
DIM
 62
     1
440
 16777216
100
AcDbMText
 10
693.0514344952378
 20
85.74417428227816
 30
0.0
 40
5.0
 41
0.0
 46
0.0
 71
     5
 72
     1
  1
\A1;272.00
 73
     1
 44
1.0
  0
POINT
  5
FE1B
330
F725
100
AcDbEntity
  8
DEFPOINTS
 62
     0
440
 16777216
100
AcDbPoint
 10
829.0514344952381
 20
159.8453505155822
 30
0.0
  0
POINT
  5
FE1C
330
F725
100
AcDbEntity
  8
DEFPOINTS
 62
     0
440
 16777216
100
AcDbPoint
 10
557.0514344952377
 20
119.7828505155826
 30
0.0
  0
POINT
  5
FE1D
330
F725
100
AcDbEntity
  8
DEFPOINTS
 62
     0
440
 16777216
100
AcDbPoint
 10
557.0514344952377
 20
85.74417428227816
 30
0.0
  0
ENDBLK
  5
F731
330
F725
100
AcDbEntity
  8
0
100
AcDbBlockEnd
  0
BLOCK
  5
F762
330
F757
100
AcDbEntity
  8
0
100
AcDbBlockBegin
  2
*D9
 70
     1
 10
0.0
 20
0.0
 30
0.0
  3
*D9
  1

  0
LINE
  5
FC4C
330
F757
100
AcDbEntity
  8
DIM
 62
     0
440
 16777216
370
    -2
100
AcDbLine
 10
264.8889344952392
 20
-5.262305725761393
 30
0.0
 11
242.8399281775512
 21
-5.262305725761387
 31
0.0
  0
LINE
  5
FC4D
330
F757
100
AcDbEntity
  8
DIM
 62
     0
440
 16777216
370
    -2
100
AcDbLine
 10
501.9610281700667
 20
-222.2623057257641
 30
0.0
 11
242.8399281775512
 21
-222.262305725764
 31
0.0
  0
LINE
  5
FC4E
330
F757
100
AcDbEntity
  8
DIM
 62
     0
440
 16777216
370
    -2
100
AcDbLine
 10
243.0199281775513
 20
-10.26230572576138
 30
0.0
 11
243.0199281775512
 21
-111.1218370884159
 31
0.0
  0
LINE
  5
FC4F
330
F757
100
AcDbEntity
  8
DIM
 62
     0
440
 16777216
370
    -2
100
AcDbLine
 10
243.0199281775512
 20
-217.2623057257641
 30
0.0
 11
243.0199281775512
 21
-116.4027743631095
 31
0.0
  0
SOLID
  5
FC50
330
F757
100
AcDbEntity
  8
DIM
 62
     0
440
 16777216
100
AcDbTrace
 10
242.1865948442179
 20
-10.26230572576138
 30
0.0
 11
243.8532615108846
 21
-10.26230572576138
 31
0.0
 12
243.0199281775513
 22
-5.262305725761387
 32
0.0
 13
243.0199281775513
 23
-5.262305725761387
 33
0.0
  0
SOLID
  5
FC51
330
F757
100
AcDbEntity
  8
DIM
 62
     0
440
 16777216
100
AcDbTrace
 10
242.1865948442178
 20
-217.2623057257641
 30
0.0
 11
243.8532615108846
 21
-217.2623057257641
 31
0.0
 12
243.0199281775512
 22
-222.262305725764
 32
0.0
 13
243.0199281775512
 23
-222.262305725764
 33
0.0
  0
MTEXT
  5
FC52
330
F757
100
AcDbEntity
  8
DIM
 62
     1
440
 16777216
100
AcDbMText
 10
243.0199281775513
 20
-113.7623057257626
 30
0.0
 40
5.0
 41
0.0
 46
0.0
 71
     5
 72
     1
  1
\A1;217.00±1
 73
     1
 44
1.0
  0
POINT
  5
FC53
330
F757
100
AcDbEntity
  8
DEFPOINTS
 62
     0
440
 16777216
100
AcDbPoint
 10
264.9514344952391
 20
-5.262305725761393
 30
0.0
  0
POINT
  5
FC54
330
F757
100
AcDbEntity
  8
DEFPOINTS
 62
     0
440
 16777216
100
AcDbPoint
 10
502.0235281700666
 20
-222.2623057257641
 30
0.0
  0
POINT
  5
FC55
330
F757
100
AcDbEntity
  8
DEFPOINTS
 62
     0
440
 16777216
100
AcDbPoint
 10
243.0199281775512
 20
-222.262305725764
 30
0.0
  0
ENDBLK
  5
F763
330
F757
100
AcDbEntity
  8
0
100
AcDbBlockEnd
  0
BLOCK
  5
FD6F
330
FD64
100
AcDbEntity
  8
0
100
AcDbBlockBegin
  2
*D10
 70
     1
 10
0.0
 20
0.0
 30
0.0
  3
*D10
  1

  0
LINE
  5
FD65
330
FD64
100
AcDbEntity
  8
DIM
 62
     0
440
 16777216
370
    -2
100
AcDbLine
 10
264.8889344952373
 20
379.7828505155824
 30
0.0
 11
249.561550335411
 21
379.7828505155824
 31
0.0
  0
LINE
  5
FD66
330
FD64
100
AcDbEntity
  8
DIM
 62
     0
440
 16777216
370
    -2
100
AcDbLine
 10
272.8889344952373
 20
119.7828505155822
 30
0.0
 11
249.5615503354109
 21
119.7828505155822
 31
0.0
  0
LINE
  5
FD67
330
FD64
100
AcDbEntity
  8
DIM
 62
     0
440
 16777216
370
    -2
100
AcDbLine
 10
249.741550335411
 20
374.7828505155823
 30
0.0
 11
249.741550335411
 21
252.4233191529291
 31
0.0
  0
LINE
  5
FD68
330
FD64
100
AcDbEntity
  8
DIM
 62
     0
440
 16777216
370
    -2
100
AcDbLine
 10
249.7415503354109
 20
124.7828505155822
 30
0.0
 11
249.741550335411
 21
247.1423818782355
 31
0.0
  0
SOLID
  5
FD69
330
FD64
100
AcDbEntity
  8
DIM
 62
     0
440
 16777216
100
AcDbTrace
 10
248.9082170020776
 20
374.7828505155823
 30
0.0
 11
250.5748836687443
 21
374.7828505155823
 31
0.0
 12
249.741550335411
 22
379.7828505155824
 32
0.0
 13
249.741550335411
 23
379.7828505155824
 33
0.0
  0
SOLID
  5
FD6A
330
FD64
100
AcDbEntity
  8
DIM
 62
     0
440
 16777216
100
AcDbTrace
 10
248.9082170020776
 20
124.7828505155822
 30
0.0
 11
250.5748836687442
 21
124.7828505155822
 31
0.0
 12
249.7415503354109
 22
119.7828505155822
 32
0.0
 13
249.7415503354109
 23
119.7828505155822
 33
0.0
  0
MTEXT
  5
FD6B
330
FD64
100
AcDbEntity
  8
DIM
 62
     1
440
 16777216
100
AcDbMText
 10
249.7415503354109
 20
249.7828505155823
 30
0.0
 40
5.0
 41
0.0
 46
0.0
 71
     5
 72
     1
  1
\A1;260.00
 73
     1
 44
1.0
  0
POINT
  5
FD6C
330
FD64
100
AcDbEntity
  8
DEFPOINTS
 62
     0
440
 16777216
100
AcDbPoint
 10
264.9514344952373
 20
379.7828505155824
 30
0.0
  0
POINT
  5
FD6D
330
FD64
100
AcDbEntity
  8
DEFPOINTS
 62
     0
440
 16777216
100
AcDbPoint
 10
272.9514344952373
 20
119.7828505155822
 30
0.0
  0
POINT
  5
FD6E
330
FD64
100
AcDbEntity
  8
DEFPOINTS
 62
     0
440
 16777216
100
AcDbPoint
 10
249.7415503354109
 20
119.7828505155822
 30
0.0
  0
ENDBLK
  5
FD70
330
FD64
100
AcDbEntity
  8
0
100
AcDbBlockEnd
  0
BLOCK
  5
FD7D
330
FD72
100
AcDbEntity
  8
0
100
AcDbBlockBegin
  2
*D11
 70
     1
 10
0.0
 20
0.0
 30
0.0
  3
*D11
  1

  0
LINE
  5
FD93
330
FD72
100
AcDbEntity
  8
DIM
 62
     0
440
 16777216
370
    -2
100
AcDbLine
 10
264.8889344952374
 20
579.7828505155821
 30
0.0
 11
219.3207067557932
 21
579.7828505155822
 31
0.0
  0
LINE
  5
FD94
330
FD72
100
AcDbEntity
  8
DIM
 62
     0
440
 16777216
370
    -2
100
AcDbLine
 10
272.8889344952373
 20
119.7828505155822
 30
0.0
 11
219.3207067557931
 21
119.7828505155822
 31
0.0
  0
LINE
  5
FD95
330
FD72
100
AcDbEntity
  8
DIM
 62
     0
440
 16777216
370
    -2
100
AcDbLine
 10
219.5007067557932
 20
574.7828505155822
 30
0.0
 11
219.5007067557932
 21
352.423319152929
 31
0.0
  0
LINE
  5
FD96
330
FD72
100
AcDbEntity
  8
DIM
 62
     0
440
 16777216
370
    -2
100
AcDbLine
 10
219.5007067557931
 20
124.7828505155822
 30
0.0
 11
219.5007067557932
 21
347.1423818782354
 31
0.0
  0
SOLID
  5
FD97
330
FD72
100
AcDbEntity
  8
DIM
 62
     0
440
 16777216
100
AcDbTrace
 10
218.6673734224598
 20
574.7828505155822
 30
0.0
 11
220.3340400891265
 21
574.7828505155822
 31
0.0
 12
219.5007067557932
 22
579.7828505155822
 32
0.0
 13
219.5007067557932
 23
579.7828505155822
 33
0.0
  0
SOLID
  5
FD98
330
FD72
100
AcDbEntity
  8
DIM
 62
     0
440
 16777216
100
AcDbTrace
 10
218.6673734224597
 20
124.7828505155822
 30
0.0
 11
220.3340400891264
 21
124.7828505155822
 31
0.0
 12
219.5007067557931
 22
119.7828505155822
 32
0.0
 13
219.5007067557931
 23
119.7828505155822
 33
0.0
  0
MTEXT
  5
FD99
330
FD72
100
AcDbEntity
  8
DIM
 62
     1
440
 16777216
100
AcDbMText
 10
219.5007067557931
 20
349.7828505155823
 30
0.0
 40
5.0
 41
0.0
 46
0.0
 71
     5
 72
     1
  1
\A1;460.00±1
 73
     1
 44
1.0
  0
POINT
  5
FD9A
330
FD72
100
AcDbEntity
  8
DEFPOINTS
 62
     0
440
 16777216
100
AcDbPoint
 10
264.9514344952374
 20
579.7828505155821
 30
0.0
  0
POINT
  5
FD9B
330
FD72
100
AcDbEntity
  8
DEFPOINTS
 62
     0
440
 16777216
100
AcDbPoint
 10
272.9514344952373
 20
119.7828505155822
 30
0.0
  0
POINT
  5
FD9C
330
FD72
100
AcDbEntity
  8
DEFPOINTS
 62
     0
440
 16777216
100
AcDbPoint
 10
219.5007067557931
 20
119.7828505155822
 30
0.0
  0
ENDBLK
  5
FD7E
330
FD72
100
AcDbEntity
  8
0
100
AcDbBlockEnd
  0
BLOCK
  5
FDD2
330
FDC9
100
AcDbEntity
  8
0
100
AcDbBlockBegin
  2
*D12
 70
     1
 10
0.0
 20
0.0
 30
0.0
  3
*D12
  1

  0
LINE
  5
FE02
330
FDC9
100
AcDbEntity
  8
DIM
 62
     0
440
 16777216
370
    -2
100
AcDbLine
 10
855.1713386894769
 20
125.781460769481
 30
0.0
 11
850.1713386894769
 21
125.7814607694809
 31
0.0
  0
LINE
  5
FE03
330
FDC9
100
AcDbEntity
  8
DIM
 62
     0
440
 16777216
370
    -2
100
AcDbLine
 10
850.1713386894769
 20
125.7814607694809
 30
0.0
 11
828.3179362948626
 21
143.8516889632953
 31
0.0
  0
MTEXT
  5
FE04
330
FDC9
100
AcDbEntity
  8
DIM
 62
     1
440
 16777216
100
AcDbMText
 10
865.8345182136299
 20
125.7814607694809
 30
0.0
 40
5.0
 41
0.0
 46
0.0
 71
     5
 72
     1
  1
\A1;R20.00
 73
     1
 44
1.0
  0
SOLID
  5
FE05
330
FDC9
100
AcDbEntity
  8
DIM
 62
     0
440
 16777216
100
AcDbTrace
 10
828.8489750132722
 20
144.4939056899495
 30
0.0
 11
827.786897576453
 21
143.2094722366411
 31
0.0
 12
824.4646359349378
 22
147.0379212737527
 32
0.0
 13
824.4646359349378
 23
147.0379212737527
 33
0.0
  0
LINE
  5
FE06
330
FDC9
100
AcDbEntity
  8
DIM
 62
     0
440
 16777216
370
    -2
100
AcDbLine
 10
808.9614344952391
 20
159.7828505155823
 30
0.0
 11
809.141434495239
 21
159.7828505155823
 31
0.0
  0
LINE
  5
FE07
330
FDC9
100
AcDbEntity
  8
DIM
 62
     0
440
 16777216
370
    -2
100
AcDbLine
 10
809.0514344952389
 20
159.6928505155823
 30
0.0
 11
809.0514344952389
 21
159.8728505155824
 31
0.0
  0
POINT
  5
FE08
330
FDC9
100
AcDbEntity
  8
DEFPOINTS
 62
     0
440
 16777216
100
AcDbPoint
 10
824.4646359349378
 20
147.0379212737527
 30
0.0
  0
POINT
  5
FE09
330
FDC9
100
AcDbEntity
  8
DEFPOINTS
 62
     0
440
 16777216
100
AcDbPoint
 10
809.0514344952389
 20
159.7828505155823
 30
0.0
  0
ENDBLK
  5
FDD3
330
FDC9
100
AcDbEntity
  8
0
100
AcDbBlockEnd
  0
ENDSEC
  0
SECTION
  2
ENTITIES
  0
DIMENSION
  5
F626
330
18
100
AcDbEntity
  8
DIM
100
AcDbDimension
280
     0
  2
*D0
 10
849.151434495238
 20
620.9202219486366
 30
0.0
 11
557.0514344952377
 21
620.9202219486366
 31
0.0
 70
    32
 71
     5
 42
584.2000000000007
 73
     0
 74
     0
 75
     0
  3
STANDARD
100
AcDbAlignedDimension
 13
264.9514344952373
 23
571.7203505155826
 33
0.0
 14
849.151434495238
 24
571.7203505155835
 34
0.0
100
AcDbRotatedDimension
  0
DIMENSION
  5
F634
330
18
100
AcDbEntity
  8
DIM
100
AcDbDimension
280
     0
  2
*D1
 10
557.0514344952377
 20
605.606329103594
 30
0.0
 11
411.0014344952374
 21
605.606329103594
 31
0.0
 70
    32
 71
     5
 42
292.1000000000004
 73
     0
 74
     0
 75
     0
  3
STANDARD
100
AcDbAlignedDimension
 13
264.9514344952373
 23
571.7203505155826
 33
0.0
 14
557.0514344952377
 24
579.7203505155826
 34
0.0
100
AcDbRotatedDimension
  0
DIMENSION
  5
F6BC
330
18
100
AcDbEntity
  8
DIM
100
AcDbDimension
280
     0
  2
*D2
 10
461.8894551069961
 20
429.7828505155827
 30
0.0
 11
461.889455106996
 21
404.7828505155829
 31
0.0
 70
    32
 71
     5
 42
50.0
 73
     0
 74
     0
 75
     0
  3
STANDARD
100
AcDbAlignedDimension
 13
487.1139344952377
 23
379.7828505155828
 33
0.0
 14
487.1139344952358
 24
429.7828505155827
 34
0.0
 50
90.0
100
AcDbRotatedDimension
  0
DIMENSION
  5
F6CA
330
18
100
AcDbEntity
  8
DIM
100
AcDbDimension
280
     0
  2
*D3
 10
888.1485272015673
 20
379.7828505155836
 30
0.0
 11
888.1485272015673
 21
464.7828505155835
 31
0.0
 70
    32
 71
     5
 42
169.9999999999995
 73
     0
 74
     0
 75
     0
  3
STANDARD
100
AcDbAlignedDimension
 13
828.988934495238
 23
549.782850515583
 33
0.0
 14
848.9889344952361
 24
379.7828505155836
 34
0.0
 50
90.0
100
AcDbRotatedDimension
  0
DIMENSION
  5
F6D8
330
18
100
AcDbEntity
  8
DIM
100
AcDbDimension
280
     0
  2
*D4
 10
913.6938639646482
 20
379.7828505155836
 30
0.0
 11
913.693863964648
 21
474.7828505155834
 31
0.0
 70
    32
 71
     5
 42
189.9999999999995
 73
     0
 74
     0
 75
     0
  3
STANDARD
100
AcDbAlignedDimension
 13
808.988934495238
 23
569.782850515583
 33
0.0
 14
848.9889344952361
 24
379.7828505155836
 34
0.0
 50
90.0
100
AcDbRotatedDimension
  0
DIMENSION
  5
F6E6
330
18
100
AcDbEntity
  8
DIM
100
AcDbDimension
280
     0
  2
*D5
 10
913.6938639646482
 20
379.7828505155836
 30
0.0
 11
913.693863964648
 21
259.7828505155835
 31
0.0
 70
    32
 71
     5
 42
240.0000000000006
 73
     0
 74
     0
 75
     0
  3
STANDARD
100
AcDbAlignedDimension
 13
808.9889344952363
 23
139.782850515583
 33
0.0
 14
848.9889344952361
 24
379.7828505155836
 34
0.0
 50
90.0
100
AcDbRotatedDimension
  0
DIMENSION
  5
F6F4
330
18
100
AcDbEntity
  8
DIM
100
AcDbDimension
280
     0
  2
*D6
 10
888.1485272015673
 20
379.7828505155836
 30
0.0
 11
888.1485272015673
 21
269.7828505155834
 31
0.0
 70
    32
 71
     5
 42
220.0000000000006
 73
     0
 74
     0
 75
     0
  3
STANDARD
100
AcDbAlignedDimension
 13
828.9889344952362
 23
159.782850515583
 33
0.0
 14
848.9889344952361
 24
379.7828505155836
 34
0.0
 50
90.0
100
AcDbRotatedDimension
  0
DIMENSION
  5
F716
330
18
100
AcDbEntity
  8
DIM
100
AcDbDimension
280
     0
  2
*D7
 10
557.0514344952377
 20
102.1800424239424
 30
0.0
 11
683.0514344952377
 21
102.1800424239424
 31
0.0
 70
    32
 71
     5
 42
252.0000000000004
 73
     0
 74
     0
 75
     0
  3
STANDARD
100
AcDbAlignedDimension
 13
809.051434495238
 23
139.8453505155822
 33
0.0
 14
557.0514344952377
 24
119.7828505155826
 34
0.0
100
AcDbRotatedDimension
  0
DIMENSION
  5
F724
330
18
100
AcDbEntity
  8
DIM
100
AcDbDimension
280
     0
  2
*D8
 10
557.0514344952377
 20
85.74417428227816
 30
0.0
 11
693.0514344952378
 21
85.74417428227816
 31
0.0
 70
    32
 71
     5
 42
272.0000000000003
 73
     0
 74
     0
 75
     0
  3
STANDARD
100
AcDbAlignedDimension
 13
829.0514344952381
 23
159.8453505155822
 33
0.0
 14
557.0514344952377
 24
119.7828505155826
 34
0.0
100
AcDbRotatedDimension
  0
DIMENSION
  5
F756
330
18
100
AcDbEntity
  8
DIM
100
AcDbDimension
280
     0
  2
*D9
 10
243.0199281775512
 20
-222.262305725764
 30
0.0
 11
243.0199281775513
 21
-113.7623057257626
 31
0.0
 70
   160
 71
     5
 42
217.0000000000027
 73
     0
 74
     0
 75
     0
  3
STANDARD
100
AcDbAlignedDimension
 13
264.9514344952391
 23
-5.262305725761393
 33
0.0
 14
502.0235281700666
 24
-222.2623057257641
 34
0.0
 50
90.0
100
AcDbRotatedDimension
1001
ACAD
1000
DSTYLE
1002
{
1070
    47
1040
1.0
1070
   272
1070
     0
1070
   147
1040
0.09
1070
    48
1040
1.0
1070
    72
1070
     0
1070
    71
1070
     1
1002
}
  0
ARC
  5
FAED
330
18
100
AcDbEntity
  8
SINK
100
AcDbCircle
 39
0.4
 10
811.151434495238
 20
157.7828505155831
 30
0.0
 40
8.0
100
AcDbArc
 50
270.0
 51
0.0
  0
LINE
  5
FAEE
330
18
100
AcDbEntity
  8
SINK
100
AcDbLine
 39
0.4
 10
324.9514344952373
 20
159.7828505155831
 30
0.0
 11
789.1514344952416
 21
159.7828505155831
 31
0.0
  0
LINE
  5
FAEF
330
18
100
AcDbEntity
  8
SINK
100
AcDbLine
 39
0.4
 10
324.9514344952337
 20
549.7828505155821
 30
0.0
 11
789.1514344952416
 21
549.782850515583
 31
0.0
  0
ARC
  5
FAF0
330
18
100
AcDbEntity
  8
SINK
100
AcDbCircle
 39
0.4
 10
789.1514344952416
 20
529.782850515583
 30
0.0
 40
20.0
100
AcDbArc
 50
0.0
 51
90.0
  0
CIRCLE
  5
FAF1
330
18
100
AcDbEntity
  8
SINK
100
AcDbCircle
 39
0.4
 10
557.0514344952358
 20
429.782850515583
 30
0.0
 40
45.0
  0
CIRCLE
  5
FAF2
330
18
100
AcDbEntity
  8
SINK
100
AcDbCircle
 39
0.4
 10
557.0514344952358
 20
429.782850515583
 30
0.0
 40
57.5
  0
CIRCLE
  5
FAF3
330
18
100
AcDbEntity
  8
SINK
100
AcDbCircle
 39
0.4
 10
557.0514344952358
 20
429.782850515583
 30
0.0
 40
59.5
  0
ARC
  5
FAF4
330
18
100
AcDbEntity
  8
SINK
100
AcDbCircle
 39
0.4
 10
302.9514344952373
 20
157.7828505155822
 30
0.0
 40
8.0
100
AcDbArc
 50
180.0
 51
270.0
  0
LINE
  5
FAF5
330
18
100
AcDbEntity
  8
SINK
100
AcDbLine
 39
0.4
 10
811.151434495238
 20
149.7828505155831
 30
0.0
 11
302.9514344952373
 21
149.7828505155822
 31
0.0
  0
ARC
  5
FAF6
330
18
100
AcDbEntity
  8
SINK
100
AcDbCircle
 39
0.4
 10
324.9514344952337
 20
529.7828505155821
 30
0.0
 40
20.0
100
AcDbArc
 50
90.0
 51
180.0
  0
LINE
  5
FAF7
330
18
100
AcDbEntity
  8
CL
  6
Continuous
100
AcDbLine
 39
0.4
 10
874.1514344952362
 20
379.782850515584
 30
0.0
 11
874.1514344952362
 21
399.782850515584
 31
0.0
  0
LINE
  5
FAF8
102
{ACAD_REACTORS
330
FB36
102
}
330
18
100
AcDbEntity
  8
CL
  6
Continuous
100
AcDbLine
 39
0.4
 10
876.1514344952361
 20
397.282850515584
 30
0.0
 11
874.1514344952362
 21
404.7828505155839
 31
0.0
  0
LINE
  5
FAF9
102
{ACAD_REACTORS
330
FB36
102
}
330
18
100
AcDbEntity
  8
CL
  6
Continuous
100
AcDbLine
 39
0.4
 10
874.1514344952362
 20
399.782850515584
 30
0.0
 11
876.1514344952361
 21
397.282850515584
 31
0.0
  0
LINE
  5
FAFA
102
{ACAD_REACTORS
330
FB36
102
}
330
18
100
AcDbEntity
  8
CL
  6
Continuous
100
AcDbLine
 39
0.4
 10
872.1514344952362
 20
397.282850515584
 30
0.0
 11
874.1514344952362
 21
399.782850515584
 31
0.0
  0
LINE
  5
FAFB
102
{ACAD_REACTORS
330
FB36
102
}
330
18
100
AcDbEntity
  8
CL
  6
Continuous
100
AcDbLine
 39
0.4
 10
874.1514344952362
 20
404.7828505155839
 30
0.0
 11
872.1514344952362
 21
397.282850515584
 31
0.0
  0
LINE
  5
FB04
330
18
100
AcDbEntity
  8
CL
  6
Continuous
100
AcDbLine
 39
0.4
 10
239.9514344952355
 20
379.7828505155822
 30
0.0
 11
239.9514344952355
 21
399.7828505155822
 31
0.0
  0
LINE
  5
FB05
102
{ACAD_REACTORS
330
FB17
102
}
330
18
100
AcDbEntity
  8
CL
  6
Continuous
100
AcDbLine
 39
0.4
 10
241.9514344952355
 20
397.2828505155822
 30
0.0
 11
239.9514344952355
 21
404.7828505155822
 31
0.0
  0
LINE
  5
FB06
102
{ACAD_REACTORS
330
FB17
102
}
330
18
100
AcDbEntity
  8
CL
  6
Continuous
100
AcDbLine
 39
0.4
 10
239.9514344952355
 20
399.7828505155822
 30
0.0
 11
241.9514344952355
 21
397.2828505155822
 31
0.0
  0
LINE
  5
FB07
102
{ACAD_REACTORS
330
FB17
102
}
330
18
100
AcDbEntity
  8
CL
  6
Continuous
100
AcDbLine
 39
0.4
 10
237.9514344952355
 20
397.2828505155822
 30
0.0
 11
239.9514344952355
 21
399.7828505155822
 31
0.0
  0
LINE
  5
FB08
102
{ACAD_REACTORS
330
FB17
102
}
330
18
100
AcDbEntity
  8
CL
  6
Continuous
100
AcDbLine
 39
0.4
 10
239.9514344952355
 20
404.7828505155822
 30
0.0
 11
237.9514344952355
 21
397.2828505155822
 31
0.0
  0
LINE
  5
FB0B
330
18
100
AcDbEntity
  8
SINK
100
AcDbLine
 10
841.1514344952379
 20
119.7828505155831
 30
0.0
 11
272.9514344952373
 21
119.7828505155822
 31
0.0
  0
LINE
  5
FB0C
330
18
100
AcDbEntity
  8
CL
  6
CENTER2
100
AcDbLine
 10
874.1514344952362
 20
379.782850515584
 30
0.0
 11
627.051434495234
 21
379.7828505155831
 31
0.0
  0
LINE
  5
FB0E
330
18
100
AcDbEntity
  8
SINK
100
AcDbLine
 10
811.1514344952416
 20
559.7828505155821
 30
0.0
 11
302.9514344952337
 21
559.7828505155812
 31
0.0
  0
LINE
  5
FB0F
330
18
100
AcDbEntity
  8
CL
  6
CENTER2
100
AcDbLine
 10
557.0514344952377
 20
94.7828505155822
 30
0.0
 11
557.0514344952377
 21
604.7828505155827
 31
0.0
  0
LINE
  5
FB10
330
18
100
AcDbEntity
  8
SINK
100
AcDbLine
 10
304.9514344952373
 20
179.7828505155831
 30
0.0
 11
304.9514344952337
 21
529.7828505155821
 31
0.0
  0
LINE
  5
FB11
330
18
100
AcDbEntity
  8
SINK
100
AcDbLine
 10
264.9514344952373
 20
127.7828505155822
 30
0.0
 11
264.9514344952374
 21
579.7828505155821
 31
0.0
  0
LINE
  5
FB12
330
18
100
AcDbEntity
  8
SINK
100
AcDbLine
 10
294.9514344952373
 20
157.7828505155822
 30
0.0
 11
294.9514344952337
 21
551.7828505155812
 31
0.0
  0
LINE
  5
FB13
330
18
100
AcDbEntity
  8
CL
  6
CENTER2
100
AcDbLine
 10
487.051434495234
 20
379.782850515584
 30
0.0
 11
239.9514344952355
 21
379.7828505155822
 31
0.0
  0
ARC
  5
FB14
330
18
100
AcDbEntity
  8
SINK
100
AcDbCircle
 10
324.9514344952373
 20
179.7828505155831
 30
0.0
 40
20.0
100
AcDbArc
 50
180.0
 51
270.0
  0
ARC
  5
FB15
330
18
100
AcDbEntity
  8
SINK
100
AcDbCircle
 10
272.9514344952373
 20
127.7828505155822
 30
0.0
 40
8.0
100
AcDbArc
 50
180.0
 51
270.0
  0
MTEXT
  5
FB16
330
18
100
AcDbEntity
  8
CL
100
AcDbMText
 10
237.220997030238
 20
414.7574480709682
 30
0.0
 40
5.0
 41
5.4034
 46
0.0
 71
     1
 72
     5
  1
A
 73
     1
 44
1.0
  0
HATCH
  5
FB17
330
18
100
AcDbEntity
  8
CL
100
AcDbHatch
 10
0.0
 20
0.0
 30
0.0
210
0.0
220
0.0
230
1.0
  2
SOLID
 70
     1
 71
     1
 91
        1
 92
        1
 93
        4
 72
     1
 10
241.9514344952355
 20
397.2828505155822
 11
239.9514344952355
 21
404.7828505155822
 72
     1
 10
239.9514344952355
 20
404.7828505155822
 11
237.9514344952355
 21
397.2828505155822
 72
     1
 10
237.9514344952355
 20
397.2828505155822
 11
239.9514344952355
 21
399.7828505155822
 72
     1
 10
239.9514344952355
 20
399.7828505155822
 11
241.9514344952355
 21
397.2828505155822
 97
        4
330
FB05
330
FB08
330
FB07
330
FB06
 75
     0
 76
     1
 98
        1
 10
-1532.67472215456
 20
1828.000562516171
450
        0
451
        0
460
0.0
461
0.0
452
        0
462
0.0
453
        0
470

  0
LINE
  5
FB1A
330
18
100
AcDbEntity
  8
CL
100
AcDbLine
 39
0.4
 10
487.0514344952359
 20
429.782850515584
 30
0.0
 11
627.0514344952358
 21
429.7828505155822
 31
0.0
  0
LINE
  5
FB1B
330
18
100
AcDbEntity
  8
CL
100
AcDbLine
 39
0.4
 10
487.051434495234
 20
379.782850515584
 30
0.0
 11
487.0514344952359
 21
429.782850515584
 31
0.0
  0
LINE
  5
FB1C
330
18
100
AcDbEntity
  8
CL
100
AcDbLine
 39
0.4
 10
627.0514344952322
 20
379.7828505155831
 30
0.0
 11
627.0514344952358
 21
429.782850515583
 31
0.0
  0
ARC
  5
FB1D
330
18
100
AcDbEntity
  8
SINK
100
AcDbCircle
 10
302.9514344952337
 20
551.7828505155812
 30
0.0
 40
8.0
100
AcDbArc
 50
90.0
 51
180.0
  0
LINE
  5
FB30
330
18
100
AcDbEntity
  8
SINK
100
AcDbLine
 10
819.1514344952381
 20
157.7828505155831
 30
0.0
 11
819.1514344952416
 21
551.7828505155821
 31
0.0
  0
LINE
  5
FB31
330
18
100
AcDbEntity
  8
SINK
100
AcDbLine
 10
809.1514344952381
 20
179.782850515584
 30
0.0
 11
809.1514344952416
 21
529.782850515583
 31
0.0
  0
LINE
  5
FB32
330
18
100
AcDbEntity
  8
SINK
100
AcDbLine
 10
849.151434495238
 20
127.7828505155831
 30
0.0
 11
849.1514344952364
 21
579.7828505155829
 31
0.0
  0
ARC
  5
FB33
330
18
100
AcDbEntity
  8
SINK
100
AcDbCircle
 10
841.1514344952379
 20
127.7828505155831
 30
0.0
 40
8.0
100
AcDbArc
 50
270.0
 51
0.0
  0
ARC
  5
FB34
330
18
100
AcDbEntity
  8
SINK
100
AcDbCircle
 10
789.151434495238
 20
179.782850515584
 30
0.0
 40
20.0
100
AcDbArc
 50
270.0
 51
0.0
  0
MTEXT
  5
FB35
330
18
100
AcDbEntity
  8
CL
100
AcDbMText
 10
871.8508515204362
 20
413.8257528253235
 30
0.0
 40
5.0
 41
5.4034
 46
0.0
 71
     1
 72
     5
  1
A
 73
     1
 44
1.0
  0
HATCH
  5
FB36
330
18
100
AcDbEntity
  8
CL
100
AcDbHatch
 10
0.0
 20
0.0
 30
0.0
210
0.0
220
0.0
230
1.0
  2
SOLID
 70
     1
 71
     1
 91
        1
 92
        1
 93
        4
 72
     1
 10
876.1514344952361
 20
397.282850515584
 11
874.1514344952362
 21
404.7828505155839
 72
     1
 10
874.1514344952362
 20
404.7828505155839
 11
872.1514344952362
 21
397.282850515584
 72
     1
 10
872.1514344952362
 20
397.282850515584
 11
874.1514344952362
 21
399.782850515584
 72
     1
 10
874.1514344952362
 20
399.782850515584
 11
876.1514344952361
 21
397.282850515584
 97
        4
330
FAF8
330
FAFB
330
FAFA
330
FAF9
 75
     0
 76
     1
 98
        1
 10
-898.4747221545589
 20
1828.000562516174
450
        0
451
        0
460
0.0
461
0.0
452
        0
462
0.0
453
        0
470

  0
ARC
  5
FB37
330
18
100
AcDbEntity
  8
SINK
100
AcDbCircle
 10
811.1514344952416
 20
551.7828505155821
 30
0.0
 40
8.0
100
AcDbArc
 50
0.0
 51
90.0
  0
LINE
  5
FB3D
330
18
100
AcDbEntity
  8
SINK
  6
DASHED2
100
AcDbLine
 10
809.1514344952381
 20
139.7828505155822
 30
0.0
 11
304.9514344952373
 21
139.7828505155822
 31
0.0
  0
LINE
  5
FB3E
330
18
100
AcDbEntity
  8
SINK
  6
DASHED2
100
AcDbLine
 10
809.1514344952381
 20
569.782850515583
 30
0.0
 11
304.9514344952373
 21
569.7828505155839
 31
0.0
  0
ARC
  5
FB3F
330
18
100
AcDbEntity
  8
SINK
  6
DASHED2
100
AcDbCircle
 10
304.9514344952373
 20
549.7828505155839
 30
0.0
 40
20.0
100
AcDbArc
 50
90.0
 51
180.0
  0
LINE
  5
FB40
330
18
100
AcDbEntity
  8
SINK
  6
DASHED2
100
AcDbLine
 10
284.9514344952373
 20
159.7828505155822
 30
0.0
 11
284.9514344952373
 21
549.7828505155839
 31
0.0
  0
ARC
  5
FB41
330
18
100
AcDbEntity
  8
SINK
  6
DASHED2
100
AcDbCircle
 10
304.9514344952373
 20
159.7828505155822
 30
0.0
 40
20.0
100
AcDbArc
 50
180.0
 51
270.0
  0
ARC
  5
FB49
330
18
100
AcDbEntity
  8
SINK
  6
DASHED2
100
AcDbCircle
 10
809.051434495238
 20
549.7828505155839
 30
0.0
 40
20.0
100
AcDbArc
 50
0.0
 51
90.0
  0
LINE
  5
FB4A
330
18
100
AcDbEntity
  8
SINK
  6
DASHED2
100
AcDbLine
 10
829.0514344952381
 20
159.7828505155822
 30
0.0
 11
829.0514344952381
 21
549.7828505155839
 31
0.0
  0
ARC
  5
FB4B
330
18
100
AcDbEntity
  8
SINK
  6
DASHED2
100
AcDbCircle
 10
809.051434495238
 20
159.7828505155822
 30
0.0
 40
20.0
100
AcDbArc
 50
270.0
 51
0.0
  0
LINE
  5
FB67
102
{ACAD_REACTORS
330
FBD2
102
}
330
18
100
AcDbEntity
  8
SINK
100
AcDbLine
 39
0.4
 10
298.1171490655403
 20
-15.26230572576321
 30
0.0
 11
302.6606065601924
 21
-15.26230572576321
 31
0.0
  0
ARC
  5
FB68
102
{ACAD_REACTORS
330
FBD2
102
}
330
18
100
AcDbEntity
  8
SINK
100
AcDbCircle
 39
0.4
 10
298.1171490655403
 20
-12.76230572576321
 30
0.0
 40
2.5
100
AcDbArc
 50
185.0000000000292
 51
270.0
  0
ARC
  5
FB69
102
{ACAD_REACTORS
330
FBD2
102
}
330
18
100
AcDbEntity
  8
SINK
100
AcDbCircle
 39
0.4
 10
302.6606065601924
 20
-17.76230572576321
 30
0.0
 40
2.5
100
AcDbArc
 50
5.000000000029218
 51
90.0
  0
ARC
  5
FB6A
102
{ACAD_REACTORS
330
FBD2
102
}
330
18
100
AcDbEntity
  8
SINK
100
AcDbCircle
 39
0.4
 10
292.6606065601924
 20
-7.762305725763212
 30
0.0
 40
2.5
100
AcDbArc
 50
5.000000000029218
 51
90.0
  0
LINE
  5
FB6B
102
{ACAD_REACTORS
330
FBD2
102
}
330
18
100
AcDbEntity
  8
SINK
100
AcDbLine
 39
0.4
 10
295.1510933054239
 20
-7.544416368893394
 30
0.0
 11
295.6266623203088
 21
-12.98019508263212
 31
0.0
  0
LINE
  5
FB6C
102
{ACAD_REACTORS
330
FBD2
102
}
330
18
100
AcDbEntity
  8
SINK
100
AcDbLine
 39
0.4
 10
305.1510933054239
 20
-17.54441636889339
 30
0.0
 11
319.556047632807
 21
-182.1937977498772
 31
0.0
  0
LINE
  5
FB6D
102
{ACAD_REACTORS
330
FBD2
102
}
330
18
100
AcDbEntity
  8
SINK
100
AcDbLine
 39
0.4
 10
308.0722037696002
 20
-119.7751412306305
 30
0.0
 11
314.0066918640738
 21
-187.6066505406251
 31
0.0
  0
LINE
  5
FB6E
330
18
100
AcDbEntity
  8
SINK
100
AcDbLine
 39
0.4
 10
302.6606065601924
 20
-15.26230572576321
 30
0.0
 11
811.4422624302848
 21
-15.26230572576321
 31
0.0
  0
LINE
  5
FB6F
330
18
100
AcDbEntity
  8
SINK
100
AcDbLine
 10
292.6606065601924
 20
-5.262305725763212
 30
0.0
 11
821.4422624302848
 21
-5.262305725763212
 31
0.0
  0
ARC
  5
FB70
102
{ACAD_REACTORS
330
FBD2
102
}
330
18
100
AcDbEntity
  8
SINK
100
AcDbCircle
 10
269.240909335335
 20
-9.262305725762303
 30
0.0
 40
4.0
100
AcDbArc
 50
90.0
 51
176.0000000000165
  0
LINE
  5
FB71
102
{ACAD_REACTORS
330
FBD2
102
}
330
18
100
AcDbEntity
  8
SINK
100
AcDbLine
 10
269.240909335335
 20
-5.262305725762303
 30
0.0
 11
292.6606065601924
 21
-5.262305725763212
 31
0.0
  0
LINE
  5
FB72
102
{ACAD_REACTORS
330
FBD2
102
}
330
18
100
AcDbEntity
  8
SINK
100
AcDbLine
 10
264.9514344952373
 20
-13.2623057257623
 30
0.0
 11
284.9514344952355
 21
-13.26230572575775
 31
0.0
  0
ARC
  5
FB73
102
{ACAD_REACTORS
330
FBD2
102
}
330
18
100
AcDbEntity
  8
SINK
100
AcDbCircle
 10
303.8748047032937
 20
-114.2623057257623
 30
0.0
 40
1.0
100
AcDbArc
 50
187.9999999999909
 51
262.4959809550703
  0
ARC
  5
FB74
102
{ACAD_REACTORS
330
FBD2
102
}
330
18
100
AcDbEntity
  8
SINK
100
AcDbCircle
 10
303.0912302791372
 20
-120.2109199443692
 30
0.0
 40
5.0
100
AcDbArc
 50
5.000000000029218
 51
82.49598095517534
  0
ARC
  5
FB75
102
{ACAD_REACTORS
330
FBD2
102
}
330
18
100
AcDbEntity
  8
SINK
100
AcDbCircle
 10
284.6050008061562
 20
-20.2623057257623
 30
0.0
 40
5.0
100
AcDbArc
 50
7.999999999990921
 51
86.02697916392882
  0
LINE
  5
FB76
102
{ACAD_REACTORS
330
FBD2
102
}
330
18
100
AcDbEntity
  8
SINK
100
AcDbLine
 39
0.4
 10
264.9514344952373
 20
-13.2623057257623
 30
0.0
 11
265.2506531342957
 21
-8.983279830786045
 31
0.0
  0
LINE
  5
FB77
330
18
100
AcDbEntity
  8
CL
100
AcDbLine
 39
0.4
 10
264.9514344952391
 20
-2.762305725761393
 30
0.0
 11
264.9514344952391
 21
-7.762305725762303
 31
0.0
  0
LINE
  5
FB78
102
{ACAD_REACTORS
330
FBD2
102
}
330
18
100
AcDbEntity
  8
SINK
100
AcDbLine
 39
0.4
 10
284.9514344952355
 20
-13.26230572575775
 30
0.0
 11
284.9514344952392
 21
-15.27432179444611
 31
0.0
  0
LINE
  5
FB79
102
{ACAD_REACTORS
330
FBD2
102
}
330
18
100
AcDbEntity
  8
SINK
100
AcDbLine
 39
0.4
 10
289.5563411498648
 20
-19.56644022096122
 30
0.0
 11
302.8845366345528
 21
-114.4014788267221
 31
0.0
  0
LINE
  5
FB7A
330
18
100
AcDbEntity
  8
CL
100
AcDbLine
 39
0.4
 10
267.4514344952373
 20
-5.262305725761393
 30
0.0
 11
262.4514344952373
 21
-5.262305725761393
 31
0.0
  0
LINE
  5
FB7B
102
{ACAD_REACTORS
330
FBD2
102
}
330
18
100
AcDbEntity
  8
SINK
100
AcDbLine
 39
0.4
 10
488.6610023806048
 20
-218.3101013817476
 30
0.0
 11
337.6031604102942
 21
-210.3934953407987
 31
0.0
  0
ARC
  5
FB7C
102
{ACAD_REACTORS
330
FBD2
102
}
330
18
100
AcDbEntity
  8
SINK
100
AcDbCircle
 39
0.4
 10
338.9115593163666
 20
-185.4277569719341
 30
0.0
 40
25.0
100
AcDbArc
 50
184.9999999999769
 51
266.9999999999944
  0
ARC
  5
FB7D
102
{ACAD_REACTORS
330
FBD2
102
}
330
18
100
AcDbEntity
  8
SINK
100
AcDbCircle
 39
0.4
 10
488.3993225993896
 20
-223.3032490555205
 30
0.0
 40
5.0
100
AcDbArc
 50
75.00000000000555
 51
86.99999999999441
  0
LINE
  5
FB7E
102
{ACAD_REACTORS
330
FBD2
102
}
330
18
100
AcDbEntity
  8
SINK
100
AcDbLine
 39
0.4
 10
625.4418666098687
 20
-218.3101013817476
 30
0.0
 11
776.4997085801829
 21
-210.3934953407942
 31
0.0
  0
LINE
  5
FB7F
102
{ACAD_REACTORS
330
FBD2
102
}
330
18
100
AcDbEntity
  8
SINK
100
AcDbLine
 39
0.4
 10
616.9347724579552
 20
-208.7422158344215
 30
0.0
 11
775.669646520692
 21
-200.4232735900222
 31
0.0
  0
LINE
  5
FB80
102
{ACAD_REACTORS
330
FBD2
102
}
330
18
100
AcDbEntity
  8
SINK
100
AcDbLine
 39
0.4
 10
497.16809653252
 20
-208.7422158344215
 30
0.0
 11
338.4332224697833
 21
-200.4232735900167
 31
0.0
  0
ARC
  5
FB81
102
{ACAD_REACTORS
330
FBD2
102
}
330
18
100
AcDbEntity
  8
SINK
100
AcDbCircle
 39
0.4
 10
339.4799415946423
 20
-180.450682894925
 30
0.0
 40
20.0
100
AcDbArc
 50
184.9999999999769
 51
266.9999999999944
  0
LINE
  5
FB82
102
{ACAD_REACTORS
330
FBD2
102
}
330
18
100
AcDbEntity
  8
SINK
100
AcDbLine
 39
0.4
 10
624.4094511655699
 20
-218.473619924075
 30
0.0
 11
614.9744478861817
 21
-221.0017214333719
 31
0.0
  0
ARC
  5
FB83
102
{ACAD_REACTORS
330
FBD2
102
}
330
18
100
AcDbEntity
  8
SINK
100
AcDbCircle
 39
0.4
 10
625.703546391082
 20
-223.3032490555205
 30
0.0
 40
5.0
100
AcDbArc
 50
93.00000000000558
 51
104.9999999999944
  0
LINE
  5
FB84
102
{ACAD_REACTORS
330
FBD2
102
}
330
18
100
AcDbEntity
  8
SINK
100
AcDbLine
 39
0.4
 10
489.6934178249018
 20
-218.473619924075
 30
0.0
 11
499.1284211042936
 21
-221.0017214333728
 31
0.0
  0
LINE
  5
FB85
102
{ACAD_REACTORS
330
FBD2
102
}
330
18
100
AcDbEntity
  8
SINK
100
AcDbLine
 39
0.4
 10
497.8228673574636
 20
-209.0337385879901
 30
0.0
 11
499.3619658042558
 21
-210.5728370347814
 31
0.0
  0
ARC
  5
FB86
102
{ACAD_REACTORS
330
FBD2
102
}
330
18
100
AcDbEntity
  8
SINK
100
AcDbCircle
 39
0.4
 10
497.115760576277
 20
-209.7408453691768
 30
0.0
 40
1.0
100
AcDbArc
 50
45.00000000000023
 51
86.99999999999441
  0
LINE
  5
FB87
102
{ACAD_REACTORS
330
FBD2
102
}
330
18
100
AcDbEntity
  8
SINK
100
AcDbLine
 39
0.4
 10
616.2800016330098
 20
-209.0337385879901
 30
0.0
 11
614.7409031862176
 21
-210.5728370347814
 31
0.0
  0
ARC
  5
FB88
102
{ACAD_REACTORS
330
FBD2
102
}
330
18
100
AcDbEntity
  8
SINK
100
AcDbCircle
 39
0.4
 10
616.9871084141983
 20
-209.7408453691768
 30
0.0
 40
1.0
100
AcDbArc
 50
93.00000000000558
 51
134.9999999999997
  0
ARC
  5
FB89
102
{ACAD_REACTORS
330
FBD2
102
}
330
18
100
AcDbEntity
  8
SINK
100
AcDbCircle
 39
0.4
 10
497.8343258787796
 20
-225.8313505648183
 30
0.0
 40
5.0
100
AcDbArc
 50
45.54567459977138
 51
75.00000000000555
  0
LINE
  5
FB8A
330
18
100
AcDbEntity
  8
SINK
100
AcDbLine
 39
0.4
 10
497.3218192239206
 20
-208.7623057257623
 30
0.0
 11
616.8111649598856
 21
-208.7623057257623
 31
0.0
  0
LINE
  5
FB8B
330
18
100
AcDbEntity
  8
SINK
100
AcDbLine
 39
0.4
 10
499.6261816025749
 20
-210.7623057257623
 30
0.0
 11
614.4766873879003
 21
-210.7623057257623
 31
0.0
  0
LINE
  5
FB8C
330
18
100
AcDbEntity
  8
SINK
100
AcDbLine
 39
0.4
 10
602.3751010746515
 20
-214.1116706311513
 30
0.0
 11
511.7277679158238
 21
-214.1116706311513
 31
0.0
  0
LINE
  5
FB8D
102
{ACAD_REACTORS
330
FBD2
102
}
330
18
100
AcDbEntity
  8
SINK
100
AcDbLine
 39
0.4
 10
499.81025354034
 20
-210.8316560798838
 30
0.0
 11
511.3624462992435
 21
-213.9270568004402
 31
0.0
  0
LINE
  5
FB8E
102
{ACAD_REACTORS
330
FBD2
102
}
330
18
100
AcDbEntity
  8
SINK
100
AcDbLine
 39
0.4
 10
512.1011913044009
 20
-214.8232261529855
 30
0.0
 11
512.6213824227185
 21
-222.2623057257623
 31
0.0
  0
ARC
  5
FB8F
102
{ACAD_REACTORS
330
FBD2
102
}
330
18
100
AcDbEntity
  8
SINK
100
AcDbCircle
 39
0.4
 10
500.0690725854425
 20
-209.8657302535947
 30
0.0
 40
1.0
100
AcDbArc
 50
225.0000000000002
 51
255.0000000000056
  0
ARC
  5
FB90
102
{ACAD_REACTORS
330
FBD2
102
}
330
18
100
AcDbEntity
  8
SINK
100
AcDbCircle
 39
0.4
 10
511.1036272541411
 20
-214.8929826267294
 30
0.0
 40
1.0
100
AcDbArc
 50
3.99999999998344
 51
75.00000000000555
  0
ARC
  5
FB91
102
{ACAD_REACTORS
330
FBD2
102
}
330
18
100
AcDbEntity
  8
SINK
100
AcDbCircle
 39
0.4
 10
616.2685431116939
 20
-225.8313505648174
 30
0.0
 40
5.0
100
AcDbArc
 50
104.9999999999944
 51
134.4543254002286
  0
LINE
  5
FB92
102
{ACAD_REACTORS
330
FBD2
102
}
330
18
100
AcDbEntity
  8
SINK
100
AcDbLine
 39
0.4
 10
614.2926154501353
 20
-210.8316560798838
 30
0.0
 11
602.7404226912318
 21
-213.9270568004402
 31
0.0
  0
ARC
  5
FB93
102
{ACAD_REACTORS
330
FBD2
102
}
330
18
100
AcDbEntity
  8
SINK
100
AcDbCircle
 39
0.4
 10
602.9992417363343
 20
-214.8929826267294
 30
0.0
 40
1.0
100
AcDbArc
 50
104.9999999999944
 51
176.0000000000165
  0
ARC
  5
FB94
102
{ACAD_REACTORS
330
FBD2
102
}
330
18
100
AcDbEntity
  8
SINK
100
AcDbCircle
 39
0.4
 10
614.0337964050328
 20
-209.8657302535947
 30
0.0
 40
1.0
100
AcDbArc
 50
284.9999999999944
 51
314.9999999999998
  0
LINE
  5
FB95
102
{ACAD_REACTORS
330
FBD2
102
}
330
18
100
AcDbEntity
  8
SINK
100
AcDbLine
 39
0.4
 10
602.0016776860744
 20
-214.8232261529846
 30
0.0
 11
601.4814865677569
 21
-222.2623057257623
 31
0.0
  0
LINE
  5
FB96
330
18
100
AcDbEntity
  8
CL
100
AcDbLine
 39
0.4
 10
557.0514344952377
 20
-193.7623057257623
 30
0.0
 11
557.0514344952377
 21
-237.2623057257623
 31
0.0
  0
LINE
  5
FB97
102
{ACAD_REACTORS
330
FBD2
102
}
330
18
100
AcDbEntity
  8
SINK
100
AcDbLine
 39
0.4
 10
501.3360281700666
 20
-222.2623057257623
 30
0.0
 11
512.6213824227185
 21
-222.2623057257623
 31
0.0
  0
LINE
  5
FB98
102
{ACAD_REACTORS
330
FBD2
102
}
330
18
100
AcDbEntity
  8
SINK
100
AcDbLine
 39
0.4
 10
601.4814865677569
 20
-222.2623057257623
 30
0.0
 11
612.766840820405
 21
-222.2623057257623
 31
0.0
  0
LINE
  5
FB99
330
18
100
AcDbEntity
  8
SINK
100
AcDbLine
 39
0.4
 10
512.6213824227185
 20
-222.2623057257623
 30
0.0
 11
601.4814865677569
 21
-222.2623057257623
 31
0.0
  0
LINE
  5
FB9A
102
{ACAD_REACTORS
330
FBD2
102
}
330
18
100
AcDbEntity
  8
SINK
100
AcDbLine
 39
0.4
 10
815.9857199249369
 20
-15.26230572576321
 30
0.0
 11
811.4422624302848
 21
-15.26230572576321
 31
0.0
  0
ARC
  5
FB9B
102
{ACAD_REACTORS
330
FBD2
102
}
330
18
100
AcDbEntity
  8
SINK
100
AcDbCircle
 39
0.4
 10
815.9857199249369
 20
-12.76230572576321
 30
0.0
 40
2.5
100
AcDbArc
 50
270.0
 51
354.9999999999708
  0
ARC
  5
FB9C
102
{ACAD_REACTORS
330
FBD2
102
}
330
18
100
AcDbEntity
  8
SINK
100
AcDbCircle
 39
0.4
 10
811.4422624302848
 20
-17.76230572576321
 30
0.0
 40
2.5
100
AcDbArc
 50
90.0
 51
174.9999999999707
  0
ARC
  5
FB9D
102
{ACAD_REACTORS
330
FBD2
102
}
330
18
100
AcDbEntity
  8
SINK
100
AcDbCircle
 39
0.4
 10
821.4422624302848
 20
-7.762305725763212
 30
0.0
 40
2.5
100
AcDbArc
 50
90.0
 51
174.9999999999707
  0
LINE
  5
FB9E
102
{ACAD_REACTORS
330
FBD2
102
}
330
18
100
AcDbEntity
  8
SINK
100
AcDbLine
 39
0.4
 10
818.9517756850532
 20
-7.544416368893394
 30
0.0
 11
818.4762066701683
 21
-12.98019508263212
 31
0.0
  0
LINE
  5
FB9F
102
{ACAD_REACTORS
330
FBD2
102
}
330
18
100
AcDbEntity
  8
SINK
100
AcDbLine
 39
0.4
 10
808.9517756850533
 20
-17.54441636889339
 30
0.0
 11
794.5468213576683
 21
-182.1937977498827
 31
0.0
  0
ARC
  5
FBA0
102
{ACAD_REACTORS
330
FBD2
102
}
330
18
100
AcDbEntity
  8
SINK
100
AcDbCircle
 39
0.4
 10
774.622927395833
 20
-180.4506828949305
 30
0.0
 40
20.0
100
AcDbArc
 50
273.0000000000056
 51
355.0000000000232
  0
LINE
  5
FBA1
102
{ACAD_REACTORS
330
FBD2
102
}
330
18
100
AcDbEntity
  8
SINK
100
AcDbLine
 39
0.4
 10
806.9015084434401
 20
-109.8213576492188
 30
0.0
 11
800.0961771264016
 21
-187.6066505406205
 31
0.0
  0
ARC
  5
FBA2
102
{ACAD_REACTORS
330
FBD2
102
}
330
18
100
AcDbEntity
  8
SINK
100
AcDbCircle
 39
0.4
 10
775.1913096741088
 20
-185.4277569719296
 30
0.0
 40
25.0
100
AcDbArc
 50
273.0000000000056
 51
355.0000000000232
  0
LINE
  5
FBA3
330
18
100
AcDbEntity
  8
SINK
100
AcDbLine
 39
0.4
 10
811.4422624302829
 20
-15.2623057257623
 30
0.0
 11
302.6606065601924
 21
-15.26230572576321
 31
0.0
  0
ARC
  5
FBA4
102
{ACAD_REACTORS
330
FBD2
102
}
330
18
100
AcDbEntity
  8
SINK
100
AcDbCircle
 10
844.8619596551422
 20
-9.262305725762303
 30
0.0
 40
4.0
100
AcDbArc
 50
3.99999999998344
 51
90.0
  0
LINE
  5
FBA5
102
{ACAD_REACTORS
330
FBD2
102
}
330
18
100
AcDbEntity
  8
SINK
100
AcDbLine
 10
844.8619596551422
 20
-5.262305725762303
 30
0.0
 11
821.4422624302848
 21
-5.262305725763212
 31
0.0
  0
LINE
  5
FBA6
102
{ACAD_REACTORS
330
FBD2
102
}
330
18
100
AcDbEntity
  8
SINK
100
AcDbLine
 10
849.1514344952399
 20
-13.2623057257623
 30
0.0
 11
829.1514344952416
 21
-13.2623057257623
 31
0.0
  0
ARC
  5
FBA7
102
{ACAD_REACTORS
330
FBD2
102
}
330
18
100
AcDbEntity
  8
SINK
100
AcDbCircle
 10
829.4978681843209
 20
-20.2623057257623
 30
0.0
 40
5.0
100
AcDbArc
 50
93.97302083607115
 51
172.0000000000091
  0
LINE
  5
FBA8
102
{ACAD_REACTORS
330
FBD2
102
}
330
18
100
AcDbEntity
  8
SINK
100
AcDbLine
 39
0.4
 10
849.1514344952399
 20
-13.2623057257623
 30
0.0
 11
848.8522158561815
 21
-8.983279830786045
 31
0.0
  0
LINE
  5
FBA9
330
18
100
AcDbEntity
  8
CL
100
AcDbLine
 39
0.4
 10
849.151434495238
 20
-2.762305725761393
 30
0.0
 11
849.151434495238
 21
-7.762305725762303
 31
0.0
  0
LINE
  5
FBAA
102
{ACAD_REACTORS
330
FBD2
102
}
330
18
100
AcDbEntity
  8
SINK
100
AcDbLine
 39
0.4
 10
829.1514344952416
 20
-13.2623057257623
 30
0.0
 11
829.151434495238
 21
-15.27432179444611
 31
0.0
  0
LINE
  5
FBAB
102
{ACAD_REACTORS
330
FBD2
102
}
330
18
100
AcDbEntity
  8
SINK
100
AcDbLine
 39
0.4
 10
824.5465278406124
 20
-19.56644022096213
 30
0.0
 11
812.6237407029481
 21
-104.4014788267212
 31
0.0
  0
LINE
  5
FBAC
330
18
100
AcDbEntity
  8
CL
100
AcDbLine
 39
0.4
 10
846.6514344952399
 20
-5.262305725761393
 30
0.0
 11
851.6514344952398
 21
-5.262305725761393
 31
0.0
  0
ARC
  5
FBAD
102
{ACAD_REACTORS
330
FBD2
102
}
330
18
100
AcDbEntity
  8
SINK
100
AcDbCircle
 39
0.4
 10
811.6334726342071
 20
-104.2623057257614
 30
0.0
 40
1.0
100
AcDbArc
 50
272.3785467818824
 51
352.0000000000091
  0
ARC
  5
FBAE
102
{ACAD_REACTORS
330
FBD2
102
}
330
18
100
AcDbEntity
  8
SINK
100
AcDbCircle
 39
0.4
 10
811.882481933903
 20
-110.2571363629575
 30
0.0
 40
5.0
100
AcDbArc
 50
92.37854678188236
 51
174.9999999999707
  0
MTEXT
  5
FBAF
330
18
100
AcDbEntity
  8
CL
100
AcDbMText
 10
711.0426307138701
 20
-49.3725093288457
 30
0.0
 40
5.0
 41
54.4938
 46
0.0
 71
     1
 72
     5
  1
SECTION  A - A
 73
     1
 44
1.0
  0
HATCH
  5
FBD2
330
18
100
AcDbEntity
  8
HATCH
100
AcDbHatch
 10
0.0
 20
0.0
 30
0.0
210
0.0
220
0.0
230
1.0
  2
ANSI34
 70
     0
 71
     1
 91
        2
 92
        1
 93
       30
 72
     2
 10
339.4799415946423
 20
-180.450682894925
 40
20.0
 50
184.9999999999769
 51
266.9999999999944
 73
     1
 72
     1
 10
338.4332224697833
 20
-200.4232735900167
 11
497.16809653252
 21
-208.7422158344215
 72
     2
 10
497.115760576277
 20
-209.7408453691768
 40
1.0
 50
273.0000000000056
 51
314.9999999999998
 73
     0
 72
     1
 10
497.8228673574636
 20
-209.0337385879901
 11
499.3619658042558
 21
-210.5728370347814
 72
     2
 10
500.0690725854425
 20
-209.8657302535947
 40
1.0
 50
225.0000000000002
 51
255.0000000000056
 73
     1
 72
     1
 10
499.81025354034
 20
-210.8316560798838
 11
511.3624462992435
 21
-213.9270568004402
 72
     2
 10
511.1036272541411
 20
-214.8929826267294
 40
1.0
 50
284.9999999999944
 51
356.0000000000166
 73
     0
 72
     1
 10
512.1011913044009
 20
-214.8232261529855
 11
512.6213824227185
 21
-222.2623057257623
 72
     1
 10
512.6213824227185
 20
-222.2623057257623
 11
501.3360281700666
 21
-222.2623057257623
 72
     2
 10
497.8343258787796
 20
-225.8313505648183
 40
5.0
 50
45.54567459977138
 51
75.00000000000555
 73
     1
 72
     1
 10
499.1284211042936
 20
-221.0017214333728
 11
489.6934178249018
 21
-218.473619924075
 72
     2
 10
488.3993225993896
 20
-223.3032490555205
 40
5.0
 50
75.00000000000555
 51
86.99999999999441
 73
     1
 72
     1
 10
488.6610023806048
 20
-218.3101013817476
 11
337.6031604102942
 21
-210.3934953407987
 72
     2
 10
338.9115593163666
 20
-185.4277569719341
 40
25.0
 50
93.00000000000562
 51
175.0000000000231
 73
     0
 72
     1
 10
314.0066918640738
 20
-187.6066505406251
 11
308.0722037696002
 21
-119.7751412306305
 72
     2
 10
303.0912302791372
 20
-120.2109199443692
 40
5.0
 50
5.000000000029218
 51
82.49598095517534
 73
     1
 72
     2
 10
303.8748047032937
 20
-114.2623057257623
 40
1.0
 50
97.50401904492967
 51
172.0000000000091
 73
     0
 72
     1
 10
302.8845366345528
 20
-114.4014788267221
 11
289.5563411498648
 21
-19.56644022096122
 72
     2
 10
284.6050008061562
 20
-20.2623057257623
 40
5.0
 50
7.999999999990921
 51
86.02697916392882
 73
     1
 72
     1
 10
284.9514344952392
 20
-15.27432179444611
 11
284.9514344952355
 21
-13.26230572575775
 72
     1
 10
284.9514344952355
 20
-13.26230572575775
 11
264.9514344952373
 21
-13.2623057257623
 72
     1
 10
264.9514344952373
 20
-13.2623057257623
 11
265.2506531342957
 21
-8.983279830786045
 72
     2
 10
269.240909335335
 20
-9.262305725762303
 40
4.0
 50
183.9999999999834
 51
270.0
 73
     0
 72
     1
 10
269.240909335335
 20
-5.262305725762303
 11
292.6606065601924
 21
-5.262305725763212
 72
     2
 10
292.6606065601924
 20
-7.762305725763212
 40
2.5
 50
270.0
 51
354.9999999999708
 73
     0
 72
     1
 10
295.1510933054239
 20
-7.544416368893394
 11
295.6266623203088
 21
-12.98019508263212
 72
     2
 10
298.1171490655403
 20
-12.76230572576321
 40
2.5
 50
185.0000000000292
 51
270.0
 73
     1
 72
     1
 10
298.1171490655403
 20
-15.26230572576321
 11
302.6606065601924
 21
-15.26230572576321
 72
     2
 10
302.6606065601924
 20
-17.76230572576321
 40
2.5
 50
270.0
 51
354.9999999999708
 73
     0
 72
     1
 10
305.1510933054239
 20
-17.54441636889339
 11
319.556047632807
 21
-182.1937977498772
 97
       30
330
FB81
330
FB80
330
FB86
330
FB85
330
FB8F
330
FB8D
330
FB90
330
FB8E
330
FB97
330
FB89
330
FB84
330
FB7D
330
FB7B
330
FB7C
330
FB6D
330
FB74
330
FB73
330
FB79
330
FB75
330
FB78
330
FB72
330
FB76
330
FB70
330
FB71
330
FB6A
330
FB6B
330
FB68
330
FB67
330
FB69
330
FB6C
 92
        1
 93
       30
 72
     1
 10
601.4814865677569
 20
-222.2623057257623
 11
612.766840820405
 21
-222.2623057257623
 72
     2
 10
616.2685431116939
 20
-225.8313505648174
 40
5.0
 50
225.5456745997714
 51
255.0000000000056
 73
     0
 72
     1
 10
614.9744478861817
 20
-221.0017214333719
 11
624.4094511655699
 21
-218.473619924075
 72
     2
 10
625.703546391082
 20
-223.3032490555205
 40
5.0
 50
255.0000000000056
 51
266.9999999999944
 73
     0
 72
     1
 10
625.4418666098687
 20
-218.3101013817476
 11
776.4997085801829
 21
-210.3934953407942
 72
     2
 10
775.1913096741088
 20
-185.4277569719296
 40
25.0
 50
273.0000000000056
 51
355.0000000000232
 73
     1
 72
     1
 10
800.0961771264016
 20
-187.6066505406205
 11
806.9015084434401
 21
-109.8213576492188
 72
     2
 10
811.882481933903
 20
-110.2571363629575
 40
5.0
 50
185.0000000000292
 51
267.6214532181176
 73
     0
 72
     2
 10
811.6334726342071
 20
-104.2623057257614
 40
1.0
 50
272.3785467818824
 51
352.0000000000091
 73
     1
 72
     1
 10
812.6237407029481
 20
-104.4014788267212
 11
824.5465278406124
 21
-19.56644022096213
 72
     2
 10
829.4978681843209
 20
-20.2623057257623
 40
5.0
 50
187.9999999999909
 51
266.0269791639288
 73
     0
 72
     1
 10
829.151434495238
 20
-15.27432179444611
 11
829.1514344952416
 21
-13.2623057257623
 72
     1
 10
829.1514344952416
 20
-13.2623057257623
 11
849.1514344952399
 21
-13.2623057257623
 72
     1
 10
849.1514344952399
 20
-13.2623057257623
 11
848.8522158561815
 21
-8.983279830786045
 72
     2
 10
844.8619596551422
 20
-9.262305725762303
 40
4.0
 50
3.99999999998344
 51
90.0
 73
     1
 72
     1
 10
844.8619596551422
 20
-5.262305725762303
 11
821.4422624302848
 21
-5.262305725763212
 72
     2
 10
821.4422624302848
 20
-7.762305725763212
 40
2.5
 50
90.0
 51
174.9999999999707
 73
     1
 72
     1
 10
818.9517756850532
 20
-7.544416368893394
 11
818.4762066701683
 21
-12.98019508263212
 72
     2
 10
815.9857199249369
 20
-12.76230572576321
 40
2.5
 50
5.000000000029204
 51
90.0
 73
     0
 72
     1
 10
815.9857199249369
 20
-15.26230572576321
 11
811.4422624302848
 21
-15.26230572576321
 72
     2
 10
811.4422624302848
 20
-17.76230572576321
 40
2.5
 50
90.0
 51
174.9999999999707
 73
     1
 72
     1
 10
808.9517756850533
 20
-17.54441636889339
 11
794.5468213576683
 21
-182.1937977498827
 72
     2
 10
774.622927395833
 20
-180.4506828949305
 40
20.0
 50
4.99999999997689
 51
86.99999999999439
 73
     0
 72
     1
 10
775.669646520692
 20
-200.4232735900222
 11
616.9347724579552
 21
-208.7422158344215
 72
     2
 10
616.9871084141983
 20
-209.7408453691768
 40
1.0
 50
93.00000000000558
 51
134.9999999999997
 73
     1
 72
     1
 10
616.2800016330098
 20
-209.0337385879901
 11
614.7409031862176
 21
-210.5728370347814
 72
     2
 10
614.0337964050328
 20
-209.8657302535947
 40
1.0
 50
45.00000000000025
 51
75.00000000000561
 73
     0
 72
     1
 10
614.2926154501353
 20
-210.8316560798838
 11
602.7404226912318
 21
-213.9270568004402
 72
     2
 10
602.9992417363343
 20
-214.8929826267294
 40
1.0
 50
104.9999999999944
 51
176.0000000000165
 73
     1
 72
     1
 10
602.0016776860744
 20
-214.8232261529846
 11
601.4814865677569
 21
-222.2623057257623
 97
       30
330
FB98
330
FB91
330
FB82
330
FB83
330
FB7E
330
FBA2
330
FBA1
330
FBAE
330
FBAD
330
FBAB
330
FBA7
330
FBAA
330
FBA6
330
FBA8
330
FBA4
330
FBA5
330
FB9D
330
FB9E
330
FB9B
330
FB9A
330
FB9C
330
FB9F
330
FBA0
330
FB7F
330
FB88
330
FB87
330
FB94
330
FB92
330
FB93
330
FB95
 75
     0
 76
     1
 52
0.0
 41
10.0
 77
     0
 78
     4
 53
45.0
 43
-8381.318986615445
 44
-5634.31388447087
 45
-5.303300858899105
 46
5.303300858899106
 79
     0
 53
45.0
 43
-8379.551219665446
 44
-5634.31388447087
 45
-5.303300858899105
 46
5.303300858899106
 79
     0
 53
45.0
 43
-8377.783452705445
 44
-5634.31388447087
 45
-5.303300858899105
 46
5.303300858899106
 79
     0
 53
45.0
 43
-8376.015685755445
 44
-5634.31388447087
 45
-5.303300858899105
 46
5.303300858899106
 79
     0
 98
        1
 10
-8381.318986615445
 20
-5634.31388447087
1001
ACAD
1010
0.0
1020
0.0
1030
0.0
  0
LINE
  5
FD46
330
18
100
AcDbEntity
  8
SINK
100
AcDbLine
 10
849.1514344952365
 20
579.782850515583
 30
0.0
 11
264.9514344952374
 21
579.7828505155821
 31
0.0
  0
DIMENSION
  5
FD63
330
18
100
AcDbEntity
  8
DIM
100
AcDbDimension
280
     0
  2
*D10
 10
249.7415503354109
 20
119.7828505155822
 30
0.0
 11
249.7415503354109
 21
249.7828505155823
 31
0.0
 70
    32
 71
     5
 42
260.0000000000002
 73
     0
 74
     0
 75
     0
  3
STANDARD
100
AcDbAlignedDimension
 13
264.9514344952373
 23
379.7828505155824
 33
0.0
 14
272.9514344952373
 24
119.7828505155822
 34
0.0
 50
90.0
100
AcDbRotatedDimension
  0
DIMENSION
  5
FD71
330
18
100
AcDbEntity
  8
DIM
100
AcDbDimension
280
     0
  2
*D11
 10
219.5007067557931
 20
119.7828505155822
 30
0.0
 11
219.5007067557931
 21
349.7828505155823
 31
0.0
 70
    32
 71
     5
 42
460.0
 73
     0
 74
     0
 75
     0
  3
STANDARD
100
AcDbAlignedDimension
 13
264.9514344952374
 23
579.7828505155821
 33
0.0
 14
272.9514344952373
 24
119.7828505155822
 34
0.0
 50
90.0
100
AcDbRotatedDimension
1001
ACAD
1000
DSTYLE
1002
{
1070
   272
1070
     0
1070
    47
1040
1.0
1070
   147
1040
0.09
1070
    48
1040
1.0
1070
    72
1070
     0
1070
    71
1070
     1
1002
}
  0
DIMENSION
  5
FDC8
330
18
100
AcDbEntity
  8
DIM
100
AcDbDimension
280
     0
  2
*D12
 10
809.0514344952389
 20
159.7828505155823
 30
0.0
 11
865.8345182136299
 21
125.7814607694809
 31
0.0
 70
   164
 71
     5
 42
19.99999999999943
 73
     0
 74
     0
 75
     0
  3
STANDARD
100
AcDbRadialDimension
 15
824.4646359349378
 25
147.0379212737527
 35
0.0
 40
0.0
1001
ACAD
1000
DSTYLE
1002
{
1070
   288
1070
     1
1002
}
  0
VIEWPORT
  5
3D
330
15
100
AcDbEntity
 67
     1
  8
0
100
AcDbViewport
 10
648.4705430962849
 20
279.7201575167876
 30
0.0
 40
1402.280494834415
 41
611.625208012718
 68
     1
 69
     1
 12
648.4705430962849
 22
279.7201575167876
 13
0.0
 23
0.0
 14
0.5
 24
0.5
 15
0.5
 25
0.5
 16
0.0
 26
0.0
 36
1.0
 17
0.0
 27
0.0
 37
0.0
 42
50.0
 43
0.0
 44
0.0
 45
611.625208012718
 50
0.0
 51
0.0
 72
   100
 90
    32800
  1

281
     0
 71
     1
 74
     0
110
0.0
120
0.0
130
0.0
111
1.0
121
0.0
131
0.0
112
0.0
122
1.0
132
0.0
 79
     0
146
0.0
170
     0
 61
     5
348
FF6E
292
     1
282
     1
141
0.0
142
0.0
 63
   250
421
  3355443
  0
VIEWPORT
  5
91
330
15
100
AcDbEntity
 67
     1
  8
VP
100
AcDbViewport
 10
413.0
 20
268.0
 30
0.0
 40
826.0
 41
536.0
 68
     2
 69
     2
 12
764.3823244817857
 22
220.606061364062
 13
0.0
 23
0.0
 14
0.5
 24
0.5
 15
0.5
 25
0.5
 16
0.0
 26
0.0
 36
1.0
 17
0.0
 27
0.0
 37
0.0
 42
50.0
 43
0.0
 44
0.0
 45
1072.000002202059
 50
0.0
 51
0.0
 72
   100
 90
    32800
  1

281
     0
 71
     1
 74
     0
110
0.0
120
0.0
130
0.0
111
1.0
121
0.0
131
0.0
112
0.0
122
1.0
132
0.0
 79
     0
146
0.0
170
     0
 61
     5
348
FF6E
292
     1
282
     1
141
0.0
142
0.0
 63
   250
421
  3355443
  0
TEXT
  5
C3
330
15
100
AcDbEntity
 67
     1
  8
SHEET
100
AcDbText
 10
643.6074401272232
 20
29.1462164538458
 30
0.0
 40
7.0
  1
CARRON PHOENIX LIMITED
 41
1.25
  7
TITLE
100
AcDbText
  0
TEXT
  5
C4
330
15
100
AcDbEntity
 67
     1
  8
SHEET
100
AcDbText
 10
686.277084038376
 20
9.996084583200172
 30
0.0
 40
3.0
  1
T. PATON
100
AcDbText
  0
TEXT
  5
C5
330
15
100
AcDbEntity
 67
     1
  8
SHEET
100
AcDbText
 10
632.8414978404748
 20
9.996084583200172
 30
0.0
 40
3.0
  1
SCALE
100
AcDbText
  0
TEXT
  5
C6
330
15
100
AcDbEntity
 67
     1
  8
SHEET
100
AcDbText
 10
661.9584781159993
 20
20.99891592694101
 30
0.0
 40
4.0
  1
FALKIRK
 41
1.25
  7
TITLE
100
AcDbText
  0
TEXT
  5
C7
330
15
100
AcDbEntity
 67
     1
  8
SHEET
100
AcDbText
 10
660.8840537883387
 20
9.996084583200172
 30
0.0
 40
3.0
  1
DRN.
100
AcDbText
  0
TEXT
  5
C8
330
15
100
AcDbEntity
 67
     1
  8
SHEET
100
AcDbText
 10
741.4796427340283
 20
20.99891592694101
 30
0.0
 40
4.0
  1
SCOTLAND
 41
1.25
  7
TITLE
100
AcDbText
  0
TEXT
  5
C9
330
15
100
AcDbEntity
 67
     1
  8
SHEET
100
AcDbText
 10
742.6114569712799
 20
9.996084583200172
 30
0.0
 40
3.0
  1
11/05/07
100
AcDbText
  0
TEXT
  5
CA
330
15
100
AcDbEntity
 67
     1
  8
SHEET
100
AcDbText
 10
718.9266097362026
 20
9.996084583200172
 30
0.0
 40
3.0
  1
DATE
100
AcDbText
  0
TEXT
  5
CB
330
15
100
AcDbEntity
 67
     1
  8
SHEET
100
AcDbText
 10
768.4372487231684
 20
9.996084583200172
 30
0.0
 40
3.0
  1
DWG. No.
100
AcDbText
  0
TEXT
  5
CD
330
15
100
AcDbEntity
 67
     1
  8
SHEET
100
AcDbText
 10
662.5551319014898
 20
55.45675693379304
 30
0.0
 40
8.0
  1
KSL 2023 UNDERMOUNT
  7
TITLE
100
AcDbText
  0
TEXT
  5
CE
330
15
100
AcDbEntity
 67
     1
  8
SHEET
100
AcDbText
 10
628.4372487231686
 20
64.52122657551583
 30
0.0
 40
3.5
  1
TITLE
100
AcDbText
  0
LINE
  5
D0
330
15
100
AcDbEntity
 67
     1
  8
SHEET
100
AcDbLine
 10
626.0
 20
38.0
 30
0.0
 11
826.0
 21
38.0
 31
0.0
  0
LINE
  5
D1
330
15
100
AcDbEntity
 67
     1
  8
SHEET
100
AcDbLine
 10
626.0
 20
16.0
 30
0.0
 11
826.0
 21
16.0
 31
0.0
  0
LINE
  5
D2
330
15
100
AcDbEntity
 67
     1
  8
SHEET
100
AcDbLine
 10
626.0
 20
70.0
 30
0.0
 11
826.0
 21
70.0
 31
0.0
  0
LINE
  5
D3
330
15
100
AcDbEntity
 67
     1
  8
SHEET
100
AcDbLine
 10
626.0
 20
0.0
 30
0.0
 11
626.0
 21
70.0
 31
0.0
  0
LINE
  5
D4
330
15
100
AcDbEntity
 67
     1
  8
SHEET
100
AcDbLine
 10
766.0
 20
8.0
 30
0.0
 11
626.0
 21
8.0
 31
0.0
  0
TEXT
  5
D5
330
15
100
AcDbEntity
 67
     1
  8
SHEET
100
AcDbText
 10
636.0230835199595
 20
1.996084583200172
 30
0.0
 40
3.0
  1
1 : 2
100
AcDbText
  0
LINE
  5
D6
330
15
100
AcDbEntity
 67
     1
  8
SHEET
100
AcDbLine
 10
656.0
 20
16.0
 30
0.0
 11
656.0
 21
0.0
 31
0.0
  0
TEXT
  5
D7
330
15
100
AcDbEntity
 67
     1
  8
SHEET
100
AcDbText
 10
718.9266097362026
 20
1.996084583200172
 30
0.0
 40
3.0
  1
DATE
100
AcDbText
  0
LINE
  5
D8
330
15
100
AcDbEntity
 67
     1
  8
SHEET
100
AcDbLine
 10
716.0
 20
16.0
 30
0.0
 11
716.0
 21
0.0
 31
0.0
  0
LINE
  5
D9
330
15
100
AcDbEntity
 67
     1
  8
SHEET
100
AcDbLine
 10
736.0
 20
16.0
 30
0.0
 11
736.0
 21
0.0
 31
0.0
  0
LINE
  5
DA
330
15
100
AcDbEntity
 67
     1
  8
SHEET
100
AcDbLine
 10
766.0
 20
16.0
 30
0.0
 11
766.0
 21
0.0
 31
0.0
  0
TEXT
  5
14C
330
15
100
AcDbEntity
 67
     1
  8
SHEET
100
AcDbText
 10
394.3111155747608
 20
542.7165616792604
 30
0.0
 40
3.0
  1
UNTOLERANCED DIMENSIONS +/-2
  7
EUROROMAN
100
AcDbText
  0
TEXT
  5
14D
330
15
100
AcDbEntity
 67
     1
  8
SHEET
100
AcDbText
 10
394.3111155747608
 20
547.7165616792603
 30
0.0
 40
3.0
  1
UNLESS OTHERWISE SPECIFIED ALL
  7
EUROROMAN
100
AcDbText
  0
TEXT
  5
170
330
15
100
AcDbEntity
 67
     1
  8
SHEET
100
AcDbText
 10
645.7143374186281
 20
544.5964358029121
 30
0.0
 40
4.0
  1
THIRD ANGLE PROJECTION
 41
1.25
  7
TITLE
100
AcDbText
  0
TEXT
  5
171
330
15
100
AcDbEntity
 67
     1
  8
SHEET
100
AcDbText
 10
482.2548096935725
 20
542.0929519229177
 30
0.0
 40
3.0
  1
UNLESS OTHERWISE SPECIFIED
  7
TITLE
100
AcDbText
  0
TEXT
  5
172
330
15
100
AcDbEntity
 67
     1
  8
SHEET
100
AcDbText
 10
478.2731496697663
 20
547.7365066104174
 30
0.0
 40
3.0
  1
ALL DIMENSIONS IN MILLIMETRES
  7
TITLE
100
AcDbText
  0
TEXT
  5
173
330
15
100
AcDbEntity
 67
     1
  8
SHEET
100
AcDbText
 10
581.9291848841144
 20
542.0929519229177
 30
0.0
 40
3.0
  1
IF IN DOUBT ASK
  7
TITLE
100
AcDbText
  0
TEXT
  5
174
330
15
100
AcDbEntity
 67
     1
  8
SHEET
100
AcDbText
 10
560.6918259577939
 20
547.7365066104174
 30
0.0
 40
3.0
  1
DO NOT SCALE FROM THIS DRAWING
  7
TITLE
100
AcDbText
  0
LINE
  5
175
330
15
100
AcDbEntity
 67
     1
  8
SHEET
100
AcDbLine
 10
776.0
 20
551.4999604751336
 30
0.0
 11
811.0
 21
553.9999604751336
 31
0.0
  0
LINE
  5
176
330
15
100
AcDbEntity
 67
     1
  8
SHEET
  6
CENTER
100
AcDbLine
 10
741.0
 20
546.4999604751336
 30
0.0
 11
816.0
 21
546.4999604751336
 31
0.0
  0
LINE
  5
177
330
15
100
AcDbEntity
 67
     1
  8
SHEET
100
AcDbLine
 10
776.0
 20
541.4999604751336
 30
0.0
 11
811.0
 21
538.9999604751336
 31
0.0
  0
CIRCLE
  5
178
330
15
100
AcDbEntity
 67
     1
  8
SHEET
100
AcDbCircle
 10
751.0
 20
546.4999604751336
 30
0.0
 40
5.0
  0
CIRCLE
  5
179
330
15
100
AcDbEntity
 67
     1
  8
SHEET
100
AcDbCircle
 10
751.0
 20
546.4999604751336
 30
0.0
 40
7.5
  0
LINE
  5
17A
330
15
100
AcDbEntity
 67
     1
  8
SHEET
  6
CENTER
100
AcDbLine
 10
751.0
 20
536.4999604751337
 30
0.0
 11
751.0
 21
556.4999604751336
 31
0.0
  0
LINE
  5
17B
330
15
100
AcDbEntity
 67
     1
  8
SHEET
100
AcDbLine
 10
776.0
 20
541.4999604751336
 30
0.0
 11
776.0
 21
551.4999604751336
 31
0.0
  0
LINE
  5
17C
330
15
100
AcDbEntity
 67
     1
  8
SHEET
100
AcDbLine
 10
811.0
 20
538.9999604751336
 30
0.0
 11
811.0
 21
553.9999604751336
 31
0.0
  0
LINE
  5
1184
330
15
100
AcDbEntity
 67
     1
  8
SHEET
100
AcDbLine
 10
676.0
 20
16.0
 30
0.0
 11
676.0
 21
0.0
 31
0.0
  0
TEXT
  5
2F5D
330
15
100
AcDbEntity
 67
     1
  8
SHEET
100
AcDbText
 10
689.1696353061774
 20
45.22399627243316
 30
0.0
 40
5.0
  1
MACHINE DIMENSIONS
  7
TITLE
100
AcDbText
  0
LINE
  5
4B8C
330
15
100
AcDbEntity
 67
     1
  8
SHEET
100
AcDbLine
 10
48.10977352972173
 20
559.0
 30
0.0
 11
48.10977352972173
 21
534.0
 31
0.0
  0
TEXT
  5
4B8F
330
15
100
AcDbEntity
 67
     1
  8
SHEET
100
AcDbText
 10
0.8543636042879256
 20
544.3549735064748
 30
0.0
 40
4.5
  1
AMENDMENTS
  7
TITLE
100
AcDbText
  0
LINE
  5
4B90
330
15
100
AcDbEntity
 67
     1
  8
SHEET
100
AcDbLine
 10
0.0
 20
559.0
 30
0.0
 11
826.0
 21
559.0
 31
0.0
  0
LINE
  5
4B97
330
15
100
AcDbEntity
 67
     1
  8
SHEET
100
AcDbLine
 10
0.0
 20
534.0
 30
0.0
 11
826.0
 21
534.0
 31
0.0
  0
LINE
  5
4B98
330
15
100
AcDbEntity
 67
     1
  8
SHEET
100
AcDbLine
 10
0.0
 20
0.0
 30
0.0
 11
0.0
 21
559.0
 31
0.0
  0
LINE
  5
4B9A
330
15
100
AcDbEntity
 67
     1
  8
SHEET
100
AcDbLine
 10
826.0
 20
0.0
 30
0.0
 11
826.0
 21
559.0
 31
0.0
  0
LINE
  5
4B9B
330
15
100
AcDbEntity
 67
     1
  8
SHEET
100
AcDbLine
 10
0.0
 20
0.0
 30
0.0
 11
826.0
 21
0.0
 31
0.0
  0
LINE
  5
577F
330
15
100
AcDbEntity
 67
     1
  8
SHEET
100
AcDbLine
 10
642.2710003186031
 20
437.5741859439248
 30
0.0
 11
826.0
 21
437.5717653225401
 31
0.0
  0
TEXT
  5
5780
330
15
100
AcDbEntity
 67
     1
  8
SHEET
100
AcDbText
 10
673.0291929433374
 20
487.4780727994376
 30
0.0
 40
2.5
  1
L
  7
ROMANS
100
AcDbText
  0
TEXT
  5
5799
330
15
100
AcDbEntity
 67
     1
  8
SHEET
  6
Continuous
100
AcDbText
 10
643.0947205781563
 20
440.072819308127
 30
0.0
 40
5.0
  1
SCALE 1 : 1
 72
     1
 11
662.2710003186035
 21
440.072819308127
 31
0.0
100
AcDbText
  0
TEXT
  5
579B
330
15
100
AcDbEntity
 67
     1
  8
SHEET
100
AcDbText
 10
644.5882541782881
 20
487.4726883680669
 30
0.0
 40
2.5
  1
SINK LENGTH
  7
ROMANS
100
AcDbText
  0
TEXT
  5
57E6
330
15
100
AcDbEntity
 67
     1
  8
SHEET
100
AcDbText
 10
691.7061955545217
 20
442.2512006541418
 30
0.0
 40
3.75
  1
SECTION A-A
  7
ROMANS
 72
     4
 11
710.7240526973789
 21
444.1262006541418
 31
0.0
100
AcDbText
  0
TEXT
  5
57F3
330
15
100
AcDbEntity
 67
     1
  8
SHEET
100
AcDbText
 10
738.350979939491
 20
442.3286335765225
 30
0.0
 40
2.5
  1
VIEW OF FOREDGE SECTION
  7
ROMANS
 72
     4
 11
764.4224085109195
 21
443.5786335765225
 31
0.0
100
AcDbText
  0
TEXT
  5
5802
330
15
100
AcDbEntity
 67
     1
  8
DIM
100
AcDbText
 10
721.5910248860534
 20
481.7579551733882
 30
0.0
 40
2.5
  1
272
  7
ROMANS
 72
     4
 11
725.162453457482
 21
483.0079551733883
 31
0.0
100
AcDbText
  0
TEXT
  5
5803
330
15
100
AcDbEntity
 67
     1
  8
SHEET
100
AcDbText
 10
712.3666910761096
 20
523.7220098944651
 30
0.0
 40
2.5
  1
TO 1mm THROUGHOUT SINK PERIMETER.
  7
ROMANS
 72
     4
 11
751.2952625046811
 21
524.9720098944651
 31
0.0
100
AcDbText
  0
TEXT
  5
5804
330
15
100
AcDbEntity
 67
     1
  8
SHEET
100
AcDbText
 10
726.5809366534194
 20
528.9728221660213
 30
0.0
 40
2.5
  1
RIM THICKNESS TO BE PARALLEL
  7
ROMANS
 72
     4
 11
758.4261747486574
 21
530.2228221660214
 31
0.0
100
AcDbText
  0
TEXT
  5
5809
330
15
100
AcDbEntity
 67
     1
  8
SHEET
100
AcDbText
 10
697.9729964251102
 20
478.9214239055382
 30
0.0
 40
2.5
  1
CUT EDGE
  7
ROMANS
 72
     4
 11
707.5563297584436
 21
480.1714239055383
 31
0.0
100
AcDbText
  0
TEXT
  5
580A
330
15
100
AcDbEntity
 67
     1
  8
SHEET
100
AcDbText
 10
698.7050202218159
 20
484.4391042393088
 30
0.0
 40
2.5
  1
TO FLASH
  7
ROMANS
 72
     4
 11
707.6931154599111
 21
485.6891042393089
 31
0.0
100
AcDbText
  0
LWPOLYLINE
  5
580B
330
15
100
AcDbEntity
 67
     1
  8
CL
100
AcDbPolyline
 90
        2
 70
     0
 43
0.0
 10
673.1331995168569
 20
494.111682012712
 10
673.1331995168569
 20
455.3840309224624
  0
LWPOLYLINE
  5
580C
330
15
100
AcDbEntity
 67
     1
  8
DIM
100
AcDbPolyline
 90
        2
 70
     0
 43
0.0
 10
687.732134106779
 20
480.8714448789281
 10
689.5629298143052
 20
484.9890852612612
  0
LWPOLYLINE
  5
580D
330
15
100
AcDbEntity
 67
     1
  8
DIM
100
AcDbPolyline
 90
        2
 70
     0
 43
0.0
 10
687.732134106779
 20
480.8714448789281
 10
686.8167362530158
 20
482.9302650700948
  0
LINE
  5
580E
330
15
100
AcDbEntity
 67
     1
  8
DIM
100
AcDbLine
 10
673.1331995168568
 20
482.9302650700948
 30
0.0
 11
686.8167362530158
 21
482.9302650700948
 31
0.0
  0
SOLID
  5
580F
330
15
100
AcDbEntity
 67
     1
  8
DIM
100
AcDbTrace
 10
675.633199516857
 20
483.3469317367614
 30
0.0
 11
675.633199516857
 21
482.5135984034282
 31
0.0
 12
673.1331995168569
 22
482.9302650700948
 32
0.0
 13
673.1331995168569
 23
482.9302650700948
 33
0.0
  0
LINE
  5
5810
330
15
100
AcDbEntity
 67
     1
  8
DIM
100
AcDbLine
 10
696.9719212195456
 20
482.9302650700948
 30
0.0
 11
690.4783276680683
 21
482.9302650700948
 31
0.0
  0
LWPOLYLINE
  5
5811
330
15
100
AcDbEntity
 67
     1
  8
DIM
100
AcDbPolyline
 90
        2
 70
     0
 43
0.0
 10
690.4783276680683
 20
482.9302650700948
 10
689.5629298143052
 20
484.9890852612612
  0
TEXT
  5
5812
330
15
100
AcDbEntity
 67
     1
  8
SHEET
100
AcDbText
 10
671.0190562664717
 20
488.6970284475963
 30
0.0
 40
2.5
  1
C
 41
1.5
  7
ROMANS
100
AcDbText
  0
TEXT
  5
5813
330
15
100
AcDbEntity
 67
     1
  8
DIM
100
AcDbText
 10
731.907370148907
 20
482.4772940926262
 30
0.0
 40
2.5
  1
-0
  7
ROMANS
 72
     4
 11
734.704989196526
 21
483.7272940926262
 31
0.0
100
AcDbText
  0
TEXT
  5
5814
330
15
100
AcDbEntity
 67
     1
  8
DIM
100
AcDbText
 10
732.6515032290245
 20
485.2919409924338
 30
0.0
 40
2.5
  1
+1
  7
ROMANS
 72
     4
 11
735.0919794195007
 21
486.5419409924337
 31
0.0
100
AcDbText
  0
LWPOLYLINE
  5
5816
330
15
100
AcDbEntity
 67
     1
  8
DIM
100
AcDbPolyline
 90
        2
 70
     0
 43
0.0
 10
780.6417768091598
 20
501.7027864878675
 10
780.6417768091599
 20
455.3840309224624
  0
LINE
  5
581A
330
15
100
AcDbEntity
 67
     1
  8
DIM
100
AcDbLine
 10
780.64177680916
 20
482.9302650700948
 30
0.0
 11
788.0593881050413
 21
482.9302650700948
 31
0.0
  0
SOLID
  5
581B
330
15
100
AcDbEntity
 67
     1
  8
DIM
100
AcDbTrace
 10
783.1417768091601
 20
483.3469317367613
 30
0.0
 11
783.1417768091601
 21
482.5135984034281
 31
0.0
 12
780.64177680916
 22
482.9302650700948
 32
0.0
 13
780.64177680916
 23
482.9302650700948
 33
0.0
  0
SOLID
  5
581D
330
15
100
AcDbEntity
 67
     1
  8
DIM
100
AcDbTrace
 10
758.1417768091595
 20
483.3469317367614
 30
0.0
 11
758.1417768091595
 21
482.5135984034282
 31
0.0
 12
760.6417768091595
 22
482.9302650700948
 32
0.0
 13
760.6417768091595
 23
482.9302650700948
 33
0.0
  0
LINE
  5
581E
330
15
100
AcDbEntity
 67
     1
  8
DIM
100
AcDbLine
 10
760.6417768091595
 20
482.9302650700948
 30
0.0
 11
741.0302427167841
 21
482.9302650700947
 31
0.0
  0
TEXT
  5
5827
330
15
100
AcDbEntity
 67
     1
  8
SHEET
100
AcDbText
 10
788.5575164109777
 20
486.5913114298082
 30
0.0
 40
2.5
  1
EQUAL EDGE
  7
ROMANS
 72
     4
 11
800.5218021252634
 21
487.7222638107605
 31
0.0
100
AcDbText
  0
TEXT
  5
5828
330
15
100
AcDbEntity
 67
     1
  8
SHEET
100
AcDbText
 10
794.6226670108488
 20
481.9540312500349
 30
0.0
 40
1.875
  1
+
  7
ROMANS
 72
     4
 11
795.7833812965631
 21
482.7576026786064
 31
0.0
100
AcDbText
  0
TEXT
  5
5829
330
15
100
AcDbEntity
 67
     1
  8
SHEET
100
AcDbText
 10
794.6226670108488
 20
480.5420391978338
 30
0.0
 40
1.875
  1
-
  7
ROMANS
 72
     4
 11
795.7833812965631
 21
481.3456106264053
 31
0.0
100
AcDbText
  0
TEXT
  5
582A
330
15
100
AcDbEntity
 67
     1
  8
SHEET
100
AcDbText
 10
792.2828733234279
 20
480.9545834769899
 30
0.0
 40
2.5
  1
1
  7
ROMANS
 72
     4
 11
793.2947780853327
 21
482.2045834769899
 31
0.0
100
AcDbText
  0
TEXT
  5
582B
330
15
100
AcDbEntity
 67
     1
  8
SHEET
100
AcDbText
 10
801.0523317358716
 20
480.9545834769899
 30
0.0
 40
2.5
  1
WIDTH
  7
ROMANS
 72
     4
 11
806.3499507834906
 21
482.2045834769899
 31
0.0
100
AcDbText
  0
LINE
  5
5834
330
15
100
AcDbEntity
 67
     1
  8
SHEET
100
AcDbLine
 10
771.5636066681484
 20
503.5006908234253
 30
0.0
 11
777.0073878758735
 21
521.8934741805521
 31
0.0
  0
SOLID
  5
5835
330
15
100
AcDbEntity
 67
     1
  8
SHEET
100
AcDbTrace
 10
772.695040615803
 20
505.1212176581596
 30
0.0
 11
771.4964377254315
 21
505.4759726598057
 31
0.0
 12
771.0314741656795
 22
501.7027864878678
 32
0.0
 13
771.0314741656795
 23
501.7027864878678
 33
0.0
  0
LINE
  5
5A42
330
15
100
AcDbEntity
 67
     1
  8
DIM
 62
     1
100
AcDbLine
 10
780.7042768091597
 20
509.7027864878675
 30
0.0
 11
794.5929035724154
 21
509.7027864878675
 31
0.0
  0
LINE
  5
5A43
330
15
100
AcDbEntity
 67
     1
  8
DIM
 62
     1
100
AcDbLine
 10
780.7042768091597
 20
501.7027864878675
 30
0.0
 11
794.5929035724154
 21
501.7027864878675
 31
0.0
  0
LINE
  5
5A44
330
15
100
AcDbEntity
 67
     1
  8
DIM
 62
     1
100
AcDbLine
 10
794.4129035724155
 20
514.7027864878675
 30
0.0
 11
794.4129035724155
 21
519.7027864878675
 31
0.0
  0
LINE
  5
5A45
330
15
100
AcDbEntity
 67
     1
  8
DIM
 62
     1
100
AcDbLine
 10
794.4129035724155
 20
496.7027864878676
 30
0.0
 11
794.4129035724155
 21
491.7027864878675
 31
0.0
  0
SOLID
  5
5A47
330
15
100
AcDbEntity
 67
     1
  8
DIM
 62
     1
100
AcDbTrace
 10
793.5795702390821
 20
514.7027864878675
 30
0.0
 11
795.2462369057489
 21
514.7027864878675
 31
0.0
 12
794.4129035724155
 22
509.7027864878675
 32
0.0
 13
794.4129035724155
 23
509.7027864878675
 33
0.0
  0
SOLID
  5
5A48
330
15
100
AcDbEntity
 67
     1
  8
DIM
 62
     1
100
AcDbTrace
 10
793.5795702390821
 20
496.7027864878676
 30
0.0
 11
795.2462369057489
 21
496.7027864878676
 31
0.0
 12
794.4129035724155
 22
501.7027864878675
 32
0.0
 13
794.4129035724155
 23
501.7027864878675
 33
0.0
  0
MTEXT
  5
5A49
330
15
100
AcDbEntity
 67
     1
  8
DIM
  6
ByBlock
 62
     1
100
AcDbMText
 10
795.9059938510781
 20
506.0279548961471
 30
0.0
 40
3.0
 41
0.0
 46
0.0
 71
     5
 72
     5
  1
\A1;8.00\S+2^ -0;
 73
     1
 44
1.0
  0
LINE
  5
5B7C
330
15
100
AcDbEntity
 67
     1
  8
SHEET
100
AcDbLine
 10
103.1097735297217
 20
559.0
 30
0.0
 11
103.1097735297217
 21
534.0
 31
0.0
  0
TEXT
  5
5B7D
330
15
100
AcDbEntity
 67
     1
  8
SHEET
100
AcDbText
 10
49.8179114701345
 20
542.5018345610635
 30
0.0
 40
3.0
  1
TP  COD1357  11/05/07
  7
EUROROMAN
100
AcDbText
  0
TEXT
  5
5B7E
330
15
100
AcDbEntity
 67
     1
  8
SHEET
100
AcDbText
 10
49.8179114701345
 20
547.5018345610635
 30
0.0
 40
3.0
  1
ISSUED TO PRODUCTION
  7
EUROROMAN
100
AcDbText
  0
TEXT
  5
5B7F
330
15
100
AcDbEntity
 67
     1
  8
SHEET
100
AcDbText
 10
48.9473677858723
 20
555.6444888966905
 30
0.0
 40
3.0
  1
A
  7
EUROROMAN
100
AcDbText
  0
LINE
  5
5B80
330
15
100
AcDbEntity
 67
     1
  8
SHEET
100
AcDbLine
 10
53.10977352972173
 20
559.0
 30
0.0
 11
53.10977352972173
 21
555.0
 31
0.0
  0
LINE
  5
5B81
330
15
100
AcDbEntity
 67
     1
  8
SHEET
100
AcDbLine
 10
53.10977352972173
 20
555.0
 30
0.0
 11
48.10977352972173
 21
555.0
 31
0.0
  0
LINE
  5
621A
330
15
100
AcDbEntity
 67
     1
  8
DIM
100
AcDbLine
 39
0.4
 10
760.6417768091595
 20
499.0726989622004
 30
0.0
 11
760.6417768091596
 21
455.3840309224624
 31
0.0
  0
TEXT
  5
B32E
330
15
100
AcDbEntity
 67
     1
  8
SHEET
100
AcDbText
 10
792.4529422835921
 20
5.462957233071165
 30
0.0
 40
2.5
  1
KSU238--X
100
AcDbText
  0
TEXT
  5
D171
330
15
100
AcDbEntity
 67
     1
  8
SHEET
100
AcDbText
 10
647.6834922735262
 20
468.7441088789074
 30
0.0
 40
2.5
  1
SINK WIDTH
  7
ROMANS
100
AcDbText
  0
TEXT
  5
D172
330
15
100
AcDbEntity
 67
     1
  8
DIM
100
AcDbText
 10
718.7970901671811
 20
464.9628040380365
 30
0.0
 40
2.5
  1
190 &
  7
ROMANS
 72
     4
 11
725.3447092148002
 21
466.2128040380365
 31
0.0
100
AcDbText
  0
TEXT
  5
D173
330
15
100
AcDbEntity
 67
     1
  8
SHEET
100
AcDbText
 10
698.7050202218159
 20
464.9045117572592
 30
0.0
 40
2.5
  1
TO FLASH
  7
ROMANS
 72
     4
 11
707.6931154599111
 21
466.1545117572592
 31
0.0
100
AcDbText
  0
TEXT
  5
D174
330
15
100
AcDbEntity
 67
     1
  8
SHEET
100
AcDbText
 10
697.9729964251102
 20
459.3868314234886
 30
0.0
 40
2.5
  1
CUT EDGE
  7
ROMANS
 72
     4
 11
707.5563297584436
 21
460.6368314234885
 31
0.0
100
AcDbText
  0
LWPOLYLINE
  5
D175
330
15
100
AcDbEntity
 67
     1
  8
DIM
100
AcDbPolyline
 90
        2
 70
     0
 43
0.0
 10
687.732134106779
 20
461.3368523968786
 10
689.5629298143052
 20
465.4544927792115
  0
LWPOLYLINE
  5
D177
330
15
100
AcDbEntity
 67
     1
  8
DIM
100
AcDbPolyline
 90
        2
 70
     0
 43
0.0
 10
687.732134106779
 20
461.3368523968786
 10
686.8167362530158
 20
463.3956725880451
  0
LINE
  5
D178
330
15
100
AcDbEntity
 67
     1
  8
DIM
100
AcDbLine
 10
673.1331995168569
 20
463.3956725880451
 30
0.0
 11
686.8167362530158
 21
463.3956725880451
 31
0.0
  0
SOLID
  5
D179
330
15
100
AcDbEntity
 67
     1
  8
DIM
100
AcDbTrace
 10
675.633199516857
 20
463.8123392547116
 30
0.0
 11
675.633199516857
 21
462.9790059213783
 31
0.0
 12
673.1331995168569
 22
463.3956725880451
 32
0.0
 13
673.1331995168569
 23
463.3956725880451
 33
0.0
  0
LINE
  5
D17A
330
15
100
AcDbEntity
 67
     1
  8
DIM
100
AcDbLine
 10
696.9719212195456
 20
463.3956725880451
 30
0.0
 11
690.4783276680683
 21
463.3956725880451
 31
0.0
  0
LWPOLYLINE
  5
D17B
330
15
100
AcDbEntity
 67
     1
  8
DIM
100
AcDbPolyline
 90
        2
 70
     0
 43
0.0
 10
690.4783276680683
 20
463.3956725880451
 10
689.5629298143052
 20
465.4544927792115
  0
TEXT
  5
D17C
330
15
100
AcDbEntity
 67
     1
  8
DIM
100
AcDbText
 10
731.9073720745701
 20
462.9427016105766
 30
0.0
 40
2.5
  1
-0
  7
ROMANS
 72
     4
 11
734.7049911221891
 21
464.1927016105766
 31
0.0
100
AcDbText
  0
TEXT
  5
D17D
330
15
100
AcDbEntity
 67
     1
  8
DIM
100
AcDbText
 10
732.6515051546877
 20
465.757348510384
 30
0.0
 40
2.5
  1
+1
  7
ROMANS
 72
     4
 11
735.0919813451638
 21
467.0073485103841
 31
0.0
100
AcDbText
  0
LINE
  5
D17E
330
15
100
AcDbEntity
 67
     1
  8
DIM
100
AcDbLine
 10
780.64177680916
 20
463.2049086101964
 30
0.0
 11
788.3759021870471
 21
463.2049086101964
 31
0.0
  0
SOLID
  5
D17F
330
15
100
AcDbEntity
 67
     1
  8
DIM
100
AcDbTrace
 10
783.1417768091601
 20
463.6215752768631
 30
0.0
 11
783.1417768091601
 21
462.7882419435299
 31
0.0
 12
780.64177680916
 22
463.2049086101964
 32
0.0
 13
780.64177680916
 23
463.2049086101964
 33
0.0
  0
SOLID
  5
D180
330
15
100
AcDbEntity
 67
     1
  8
DIM
100
AcDbTrace
 10
758.1417768091596
 20
463.7215362120579
 30
0.0
 11
758.1417768091596
 21
462.8882028787246
 31
0.0
 12
760.6417768091596
 22
463.3048695453914
 32
0.0
 13
760.6417768091596
 23
463.3048695453914
 33
0.0
  0
LINE
  5
D181
330
15
100
AcDbEntity
 67
     1
  8
DIM
100
AcDbLine
 10
760.6417768091596
 20
463.3048695453914
 30
0.0
 11
739.4105248396729
 21
463.3048695453914
 31
0.0
  0
TEXT
  5
D182
330
15
100
AcDbEntity
 67
     1
  8
SHEET
100
AcDbText
 10
788.5575164109777
 20
465.1143624189601
 30
0.0
 40
2.5
  1
EQUAL EDGE
  7
ROMANS
 72
     4
 11
800.5218021252634
 21
466.2453147999126
 31
0.0
100
AcDbText
  0
TEXT
  5
D183
330
15
100
AcDbEntity
 67
     1
  8
SHEET
100
AcDbText
 10
794.6226670108488
 20
460.477082239187
 30
0.0
 40
1.875
  1
+
  7
ROMANS
 72
     4
 11
795.7833812965631
 21
461.2806536677585
 31
0.0
100
AcDbText
  0
TEXT
  5
D184
330
15
100
AcDbEntity
 67
     1
  8
SHEET
100
AcDbText
 10
794.6226670108488
 20
459.0650901869858
 30
0.0
 40
1.875
  1
-
  7
ROMANS
 72
     4
 11
795.7833812965631
 21
459.8686616155573
 31
0.0
100
AcDbText
  0
TEXT
  5
D185
330
15
100
AcDbEntity
 67
     1
  8
SHEET
100
AcDbText
 10
792.2828733234279
 20
459.4776344661419
 30
0.0
 40
2.5
  1
1
  7
ROMANS
 72
     4
 11
793.2947780853327
 21
460.7276344661419
 31
0.0
100
AcDbText
  0
TEXT
  5
D186
330
15
100
AcDbEntity
 67
     1
  8
SHEET
100
AcDbText
 10
801.0523317358716
 20
459.4776344661419
 30
0.0
 40
2.5
  1
WIDTH
  7
ROMANS
 72
     4
 11
806.3499507834906
 21
460.7276344661419
 31
0.0
100
AcDbText
  0
TEXT
  5
D18F
330
15
100
AcDbEntity
 67
     1
  8
SHEET
100
AcDbText
 10
673.0291929433374
 20
467.9434803173879
 30
0.0
 40
2.5
  1
L
  7
ROMANS
100
AcDbText
  0
TEXT
  5
D190
330
15
100
AcDbEntity
 67
     1
  8
SHEET
100
AcDbText
 10
671.0190562664717
 20
469.1624359655467
 30
0.0
 40
2.5
  1
C
 41
1.5
  7
ROMANS
100
AcDbText
  0
LINE
  5
D193
330
15
100
AcDbEntity
 67
     1
  8
DIM
100
AcDbLine
 39
0.4
 10
780.64177680916
 20
482.9302650700948
 30
0.0
 11
780.64177680916
 21
482.0216394411636
 31
0.0
  0
LINE
  5
F335
330
15
100
AcDbEntity
 67
     1
  8
SINK
100
AcDbLine
 39
0.4
 10
726.0397729732443
 20
499.7027864878649
 30
0.0
 11
742.9326047442081
 21
499.702786487865
 31
0.0
  0
LINE
  5
F336
330
15
100
AcDbEntity
 67
     1
  8
SINK
100
AcDbLine
 10
726.0397729732443
 20
509.7027864878659
 30
0.0
 11
752.9326047442099
 21
509.7027864878659
 31
0.0
  0
LINE
  5
F337
102
{ACAD_REACTORS
330
F34C
102
}
330
15
100
AcDbEntity
 67
     1
  8
SINK
100
AcDbLine
 39
0.4
 10
747.4760622388584
 20
499.7027864878659
 30
0.0
 11
742.9326047442063
 21
499.7027864878659
 31
0.0
  0
ARC
  5
F338
102
{ACAD_REACTORS
330
F34C
102
}
330
15
100
AcDbEntity
 67
     1
  8
SINK
100
AcDbCircle
 39
0.4
 10
747.4760622388584
 20
502.2027864878658
 30
0.0
 40
2.5
100
AcDbArc
 50
270.0
 51
354.9999999999708
  0
ARC
  5
F339
102
{ACAD_REACTORS
330
F34C
102
}
330
15
100
AcDbEntity
 67
     1
  8
SINK
100
AcDbCircle
 39
0.4
 10
742.9326047442063
 20
497.2027864878659
 30
0.0
 40
2.5
100
AcDbArc
 50
90.0
 51
174.9999999999707
  0
ARC
  5
F33A
102
{ACAD_REACTORS
330
F34C
102
}
330
15
100
AcDbEntity
 67
     1
  8
SINK
100
AcDbCircle
 39
0.4
 10
752.9326047442062
 20
507.2027864878659
 30
0.0
 40
2.5
100
AcDbArc
 50
90.0
 51
174.9999999999707
  0
LINE
  5
F33B
102
{ACAD_REACTORS
330
F34C
102
}
330
15
100
AcDbEntity
 67
     1
  8
SINK
100
AcDbLine
 39
0.4
 10
750.4421179989748
 20
507.4206758447357
 30
0.0
 11
749.9665489840898
 21
501.9848971309969
 31
0.0
  0
LINE
  5
F33C
102
{ACAD_REACTORS
330
F34C
102
}
330
15
100
AcDbEntity
 67
     1
  8
SINK
100
AcDbLine
 39
0.4
 10
740.4421179989748
 20
497.4206758447357
 30
0.0
 11
738.0141600292573
 21
469.6689892619458
 31
0.0
  0
LINE
  5
F33D
330
15
100
AcDbEntity
 67
     1
  8
SINK
100
AcDbLine
 39
0.4
 10
742.9326047442063
 20
499.7027864878659
 30
0.0
 11
726.039772973244
 21
499.7027864878658
 31
0.0
  0
ARC
  5
F33E
102
{ACAD_REACTORS
330
F34C
102
}
330
15
100
AcDbEntity
 67
     1
  8
SINK
100
AcDbCircle
 10
776.3523019690636
 20
505.7027864878668
 30
0.0
 40
4.0
100
AcDbArc
 50
3.999999999983515
 51
90.0
  0
LINE
  5
F33F
102
{ACAD_REACTORS
330
F34C
102
}
330
15
100
AcDbEntity
 67
     1
  8
SINK
100
AcDbLine
 10
776.3523019690636
 20
509.7027864878667
 30
0.0
 11
752.9326047442062
 21
509.7027864878659
 31
0.0
  0
LINE
  5
F340
102
{ACAD_REACTORS
330
F34C
102
}
330
15
100
AcDbEntity
 67
     1
  8
SINK
100
AcDbLine
 10
780.6417768091614
 20
501.7027864878668
 30
0.0
 11
760.6417768091631
 21
501.7027864878668
 31
0.0
  0
ARC
  5
F341
102
{ACAD_REACTORS
330
F34C
102
}
330
15
100
AcDbEntity
 67
     1
  8
SINK
100
AcDbCircle
 10
760.9882104982424
 20
494.7027864878668
 30
0.0
 40
5.0
100
AcDbArc
 50
93.97302083607115
 51
172.0000000000088
  0
LINE
  5
F342
102
{ACAD_REACTORS
330
F34C
102
}
330
15
100
AcDbEntity
 67
     1
  8
SINK
100
AcDbLine
 39
0.4
 10
780.6417768091614
 20
501.7027864878668
 30
0.0
 11
780.3425581701029
 21
505.981812382843
 31
0.0
  0
LINE
  5
F343
330
15
100
AcDbEntity
 67
     1
  8
CL
100
AcDbLine
 39
0.4
 10
780.6417768091595
 20
512.2027864878678
 30
0.0
 11
780.6417768091595
 21
507.2027864878668
 31
0.0
  0
LINE
  5
F344
102
{ACAD_REACTORS
330
F34C
102
}
330
15
100
AcDbEntity
 67
     1
  8
SINK
100
AcDbLine
 39
0.4
 10
760.6417768091631
 20
501.7027864878668
 30
0.0
 11
760.6417768091613
 21
499.690770419183
 31
0.0
  0
LINE
  5
F345
102
{ACAD_REACTORS
330
F34C
102
}
330
15
100
AcDbEntity
 67
     1
  8
SINK
100
AcDbLine
 39
0.4
 10
756.0368701545338
 20
495.398651992667
 30
0.0
 11
752.4208018777468
 21
469.6689892619458
 31
0.0
  0
LINE
  5
F346
330
15
100
AcDbEntity
 67
     1
  8
CL
100
AcDbLine
 39
0.4
 10
778.1417768091613
 20
509.7027864878677
 30
0.0
 11
783.1417768091613
 21
509.7027864878677
 31
0.0
  0
LINE
  5
F347
102
{ACAD_REACTORS
330
F34C
102
}
330
15
100
AcDbEntity
 67
     1
  8
SINK
100
AcDbLine
 39
0.4
 10
738.0141600292573
 20
469.6689892619458
 30
0.0
 11
741.3669705590503
 21
468.9729027775767
 31
0.0
  0
LINE
  5
F348
102
{ACAD_REACTORS
330
F34C
102
}
330
15
100
AcDbEntity
 67
     1
  8
SINK
100
AcDbLine
 39
0.4
 10
741.3669705590503
 20
468.9729027775767
 30
0.0
 11
746.417981904195
 21
470.5390962706625
 31
0.0
  0
LINE
  5
F349
102
{ACAD_REACTORS
330
F34C
102
}
330
15
100
AcDbEntity
 67
     1
  8
SINK
100
AcDbLine
 39
0.4
 10
746.417981904195
 20
470.5390962706625
 30
0.0
 11
750.0756088041292
 21
468.1027957688599
 31
0.0
  0
LINE
  5
F34A
102
{ACAD_REACTORS
330
F34C
102
}
330
15
100
AcDbEntity
 67
     1
  8
SINK
100
AcDbLine
 39
0.4
 10
750.0756088041292
 20
468.1027957688599
 30
0.0
 11
752.4208018777468
 21
469.6689892619458
 31
0.0
  0
HATCH
  5
F34C
330
15
100
AcDbEntity
 67
     1
  8
HATCH
100
AcDbHatch
 10
0.0
 20
0.0
 30
0.0
210
0.0
220
0.0
230
1.0
  2
ANSI34
 70
     0
 71
     1
 91
        1
 92
        1
 93
       17
 72
     1
 10
750.0756088041292
 20
468.1027957688599
 11
752.4208018777468
 21
469.6689892619458
 72
     1
 10
752.4208018777468
 20
469.6689892619458
 11
756.0368701545338
 21
495.398651992667
 72
     2
 10
760.9882104982424
 20
494.7027864878668
 40
5.0
 50
187.9999999999912
 51
266.0269791639288
 73
     0
 72
     1
 10
760.6417768091613
 20
499.690770419183
 11
760.6417768091631
 21
501.7027864878668
 72
     1
 10
760.6417768091631
 20
501.7027864878668
 11
780.6417768091614
 21
501.7027864878668
 72
     1
 10
780.6417768091614
 20
501.7027864878668
 11
780.3425581701029
 21
505.981812382843
 72
     2
 10
776.3523019690636
 20
505.7027864878668
 40
4.0
 50
3.999999999983515
 51
90.0
 73
     1
 72
     1
 10
776.3523019690636
 20
509.7027864878667
 11
752.9326047442062
 21
509.7027864878659
 72
     2
 10
752.9326047442062
 20
507.2027864878659
 40
2.5
 50
90.0
 51
174.9999999999707
 73
     1
 72
     1
 10
750.4421179989748
 20
507.4206758447357
 11
749.9665489840898
 21
501.9848971309969
 72
     2
 10
747.4760622388584
 20
502.2027864878658
 40
2.5
 50
5.000000000029204
 51
90.0
 73
     0
 72
     1
 10
747.4760622388584
 20
499.7027864878659
 11
742.9326047442063
 21
499.7027864878659
 72
     2
 10
742.9326047442063
 20
497.2027864878659
 40
2.5
 50
90.0
 51
174.9999999999707
 73
     1
 72
     1
 10
740.4421179989748
 20
497.4206758447357
 11
738.0141600292573
 21
469.6689892619458
 72
     1
 10
738.0141600292573
 20
469.6689892619458
 11
741.3669705590503
 21
468.9729027775767
 72
     1
 10
741.3669705590503
 20
468.9729027775767
 11
746.417981904195
 21
470.5390962706625
 72
     1
 10
746.417981904195
 20
470.5390962706625
 11
750.0756088041292
 21
468.1027957688599
 97
       17
330
F34A
330
F345
330
F341
330
F344
330
F340
330
F342
330
F33E
330
F33F
330
F33A
330
F33B
330
F338
330
F337
330
F339
330
F33C
330
F347
330
F348
330
F349
 75
     0
 76
     1
 52
0.0
 41
10.0
 77
     0
 78
     4
 53
45.0
 43
0.0
 44
0.0
 45
-5.303300858899105
 46
5.303300858899106
 79
     0
 53
45.0
 43
1.76776695
 44
0.0
 45
-5.303300858899105
 46
5.303300858899106
 79
     0
 53
45.0
 43
3.535533909999999
 44
0.0
 45
-5.303300858899105
 46
5.303300858899106
 79
     0
 53
45.0
 43
5.30330086
 44
0.0
 45
-5.303300858899105
 46
5.303300858899106
 79
     0
 98
        1
 10
0.0
 20
0.0
1001
ACAD
1010
0.0
1020
0.0
1030
0.0
  0
TEXT
  5
F360
330
15
100
AcDbEntity
 67
     1
  8
DIM
100
AcDbText
 10
721.7732806433716
 20
461.0591000864288
 30
0.0
 40
2.5
  1
240
  7
ROMANS
 72
     4
 11
725.3447092148002
 21
462.3091000864288
 31
0.0
100
AcDbText
  0
LINE
  5
FE90
330
15
100
AcDbEntity
 67
     1
  8
SHEET
100
AcDbLine
 10
642.2710003186033
 20
533.9999999999998
 30
0.0
 11
642.2710003186031
 21
437.5741859439248
 31
0.0
  0
LINE
  5
FFB7
330
15
100
AcDbEntity
 67
     1
  8
SHEET
100
AcDbLine
 10
158.1097735297217
 20
559.0
 30
0.0
 11
158.1097735297217
 21
534.0
 31
0.0
  0
TEXT
  5
FFB8
330
15
100
AcDbEntity
 67
     1
  8
SHEET
100
AcDbText
 10
104.8179114701345
 20
536.7421744225273
 30
0.0
 40
3.0
  1
TP  COD1809  13/02/09
  7
EUROROMAN
100
AcDbText
  0
TEXT
  5
FFB9
330
15
100
AcDbEntity
 67
     1
  8
SHEET
100
AcDbText
 10
104.8179114701345
 20
549.9016935855941
 30
0.0
 40
3.0
  1
REMOVE REFERENCE TO
  7
EUROROMAN
100
AcDbText
  0
TEXT
  5
FFBA
330
15
100
AcDbEntity
 67
     1
  8
SHEET
100
AcDbText
 10
103.9473677858723
 20
555.6444888966905
 30
0.0
 40
3.0
  1
B
  7
EUROROMAN
100
AcDbText
  0
LINE
  5
FFBB
330
15
100
AcDbEntity
 67
     1
  8
SHEET
100
AcDbLine
 10
108.1097735297217
 20
559.0
 30
0.0
 11
108.1097735297217
 21
555.0
 31
0.0
  0
LINE
  5
FFBC
330
15
100
AcDbEntity
 67
     1
  8
SHEET
100
AcDbLine
 10
108.1097735297217
 20
555.0
 30
0.0
 11
103.1097735297217
 21
555.0
 31
0.0
  0
TEXT
  5
FFBD
330
15
100
AcDbEntity
 67
     1
  8
SHEET
100
AcDbText
 10
104.8179114701345
 20
544.1420334470579
 30
0.0
 40
3.0
  1
BADGE IN B.O.M.s
  7
EUROROMAN
100
AcDbText
  0
ENDSEC
  0
SECTION
  2
OBJECTS
  0
DICTIONARY
  5
C
330
0
100
AcDbDictionary
281
     1
  3
ACAD_CIP_PREVIOUS_PRODUCT_INFO
350
1010095
  3
ACAD_COLOR
350
CCCA
  3
ACAD_DETAILVIEWSTYLE
350
101008A
  3
ACAD_GROUP
350
D
  3
ACAD_LAYOUT
350
5C1F
  3
ACAD_MATERIAL
350
CCC9
  3
ACAD_MLEADERSTYLE
350
FF9B
  3
ACAD_MLINESTYLE
350
1B
  3
ACAD_PLOTSETTINGS
350
5C20
  3
ACAD_PLOTSTYLENAME
350
5C1D
  3
ACAD_SCALELIST
350
FF79
  3
ACAD_SECTIONVIEWSTYLE
350
1010088
  3
ACAD_TABLESTYLE
350
CCCB
  3
ACAD_VISUALSTYLE
350
FF68
  3
AcadDim
350
EB0A
  3
ACDB_RECOMPOSE_DATA
350
10100B0
  3
ACDBVARIABLEDICTIONARY
350
2C7C
  0
DICTIONARY
  5
FFFD
330
8
100
AcDbDictionary
280
     1
281
     1
  0
DICTIONARY
  5
CD00
330
2
100
AcDbDictionary
280
     1
281
     1
  3
ACAD_LAYERSTATES
360
CD01
  0
DICTIONARY
  5
FFC1
330
E
100
AcDbDictionary
280
     1
281
     1
  3
ADSK_XREC_LAYER_RECONCILED
360
FFC2
  0
DICTIONARY
  5
FFC3
330
34
100
AcDbDictionary
280
     1
281
     1
  3
ADSK_XREC_LAYER_RECONCILED
360
FFC4
  0
DICTIONARY
  5
FFC5
330
36
100
AcDbDictionary
280
     1
281
     1
  3
ADSK_XREC_LAYER_RECONCILED
360
FFC6
  0
DICTIONARY
  5
FFC7
330
38
100
AcDbDictionary
280
     1
281
     1
  3
ADSK_XREC_LAYER_RECONCILED
360
FFC8
  0
DICTIONARY
  5
FFC9
330
39
100
AcDbDictionary
280
     1
281
     1
  3
ADSK_XREC_LAYER_RECONCILED
360
FFCA
  0
DICTIONARY
  5
FFCB
330
1D50
100
AcDbDictionary
280
     1
281
     1
  3
ADSK_XREC_LAYER_RECONCILED
360
FFCC
  0
DICTIONARY
  5
FFCD
330
43B1
100
AcDbDictionary
280
     1
281
     1
  3
ADSK_XREC_LAYER_RECONCILED
360
FFCE
  0
DICTIONARY
  5
982C
330
18
100
AcDbDictionary
280
     1
281
     1
  3
ACAD_LAYOUTSELFREF
360
982D
  3
ACAD_SORTENTS
360
D018
  0
DICTIONARY
  5
982A
330
15
100
AcDbDictionary
280
     1
281
     1
  3
ACAD_LAYOUTSELFREF
360
982B
  3
ACAD_SORTENTS
360
D1D6
  0
XRECORD
  5
1010095
102
{ACAD_REACTORS
330
C
102
}
330
C
100
AcDbXrecord
280
     1
300
ACD
300
2017
300
ACD_F_S
  0
DICTIONARY
  5
CCCA
102
{ACAD_REACTORS
330
C
102
}
330
C
100
AcDbDictionary
281
     1
  0
DICTIONARY
  5
101008A
102
{ACAD_REACTORS
330
C
102
}
330
C
100
AcDbDictionary
281
     1
  3
Imperial24
350
101008B
  0
DICTIONARY
  5
D
102
{ACAD_REACTORS
330
C
102
}
330
0
100
AcDbDictionary
281
     1
  0
DICTIONARY
  5
5C1F
102
{ACAD_REACTORS
330
C
102
}
330
C
100
AcDbDictionary
281
     1
  3
Layout1
350
5C22
  3
Model
350
5C21
  0
DICTIONARY
  5
CCC9
102
{ACAD_REACTORS
330
C
102
}
330
C
100
AcDbDictionary
281
     1
  3
ByBlock
350
FF58
  3
ByLayer
350
FF50
  3
Global
350
FF60
  0
DICTIONARY
  5
FF9B
102
{ACAD_REACTORS
330
C
102
}
330
C
100
AcDbDictionary
281
     1
  3
Standard
350
FF9C
  0
DICTIONARY
  5
1B
102
{ACAD_REACTORS
330
C
102
}
330
0
100
AcDbDictionary
281
     1
  3
STANDARD
350
1C
  0
DICTIONARY
  5
5C20
102
{ACAD_REACTORS
330
C
102
}
330
C
100
AcDbDictionary
281
     1
  0
ACDBDICTIONARYWDFLT
  5
5C1D
102
{ACAD_REACTORS
330
C
102
}
330
C
100
AcDbDictionary
281
     1
  3
Normal
350
5C1E
100
AcDbDictionaryWithDefault
340
5C1E
  0
DICTIONARY
  5
FF79
102
{ACAD_REACTORS
330
C
102
}
330
C
100
AcDbDictionary
281
     1
  3
A0
350
FF7A
  3
A1
350
FF7B
  3
A2
350
FF7C
  3
A3
350
FF7D
  3
A4
350
FF7E
  3
A5
350
FF7F
  3
A6
350
FF80
  3
A7
350
FF81
  3
A8
350
FF82
  3
A9
350
FF83
  3
B0
350
FF84
  3
B1
350
FF85
  3
B2
350
FF86
  3
B3
350
FF87
  3
B4
350
FF88
  3
B5
350
FF89
  3
B6
350
FF8A
  3
B7
350
FF8B
  3
B8
350
FF8C
  3
B9
350
FF8D
  3
C0
350
FF8E
  3
C1
350
FF8F
  3
C2
350
FF90
  3
C3
350
FF91
  3
C4
350
FF92
  3
C5
350
FF93
  3
C6
350
FF94
  3
C7
350
FF95
  3
C8
350
FF96
  3
C9
350
FF97
  3
D0
350
FF98
  3
D1
350
FF99
  3
D2
350
FF9A
  0
DICTIONARY
  5
1010088
102
{ACAD_REACTORS
330
C
102
}
330
C
100
AcDbDictionary
281
     1
  3
Imperial24
350
1010089
  0
DICTIONARY
  5
CCCB
102
{ACAD_REACTORS
330
C
102
}
330
C
100
AcDbDictionary
281
     1
  3
Standard
350
CCCC
  0
DICTIONARY
  5
FF68
102
{ACAD_REACTORS
330
C
102
}
330
C
100
AcDbDictionary
281
     1
  3
2dWireframe
350
FF6E
  3
3D Hidden
350
FF70
  3
3dWireframe
350
FF6F
  3
Basic
350
FF6D
  3
Brighten
350
FF74
  3
ColorChange
350
FF78
  3
Conceptual
350
FF71
  3
Dim
350
FF73
  3
EdgeColorOff
350
FFE1
  3
Facepattern
350
FF77
  3
Flat
350
FF69
  3
FlatWithEdges
350
FF6A
  3
Gouraud
350
FF6B
  3
GouraudWithEdges
350
FF6C
  3
Hidden
350
1010082
  3
JitterOff
350
FFDF
  3
Linepattern
350
FF76
  3
OverhangOff
350
FFE0
  3
Realistic
350
FF72
  3
Shaded
350
1010087
  3
Shaded with edges
350
1010086
  3
Shades of Gray
350
1010083
  3
Sketchy
350
1010084
  3
Thicken
350
FF75
  3
Wireframe
350
1010081
  3
X-Ray
350
1010085
  0
XRECORD
  5
EB0A
102
{ACAD_REACTORS
330
C
102
}
330
C
100
AcDbXrecord
280
     1
 90
   990106
  3

 60
     0
 61
     0
 62
     1
 63
     3
 64
     0
 65
     0
 66
     0
 67
     3
 68
     1
 69
     0
 70
     0
 71
     0
 72
     0
 40
0.0
170
     0
  0
XRECORD
  5
10100B0
102
{ACAD_REACTORS
330
C
102
}
330
C
100
AcDbXrecord
280
     1
 90
        1
330
CCCC
330
1010089
330
101008B
  0
DICTIONARY
  5
2C7C
102
{ACAD_REACTORS
330
C
102
}
330
C
100
AcDbDictionary
281
     1
  3
CANNOSCALE
350
FFDC
  3
CMLEADERSTYLE
350
FFDA
  3
CTABLESTYLE
350
CCD1
  3
CVIEWDETAILSTYLE
350
10100A7
  3
CVIEWSECTIONSTYLE
350
10100A8
  3
DIMASSOC
350
CCC6
  3
LAYEREVAL
350
10100A9
  3
LAYERNOTIFY
350
10100AA
  3
LIGHTINGUNITS
350
FFDD
  3
MSLTSCALE
350
FFDB
  3
SORTENTS
350
2C7D
  0
DICTIONARY
  5
CD01
102
{ACAD_REACTORS
330
CD00
102
}
330
CD00
100
AcDbDictionary
281
     1
  0
XRECORD
  5
FFC2
102
{ACAD_REACTORS
330
FFC1
102
}
330
FFC1
100
AcDbXrecord
280
     1
290
     1
  0
XRECORD
  5
FFC4
102
{ACAD_REACTORS
330
FFC3
102
}
330
FFC3
100
AcDbXrecord
280
     1
290
     1
  0
XRECORD
  5
FFC6
102
{ACAD_REACTORS
330
FFC5
102
}
330
FFC5
100
AcDbXrecord
280
     1
290
     1
  0
XRECORD
  5
FFC8
102
{ACAD_REACTORS
330
FFC7
102
}
330
FFC7
100
AcDbXrecord
280
     1
290
     1
  0
XRECORD
  5
FFCA
102
{ACAD_REACTORS
330
FFC9
102
}
330
FFC9
100
AcDbXrecord
280
     1
290
     1
  0
XRECORD
  5
FFCC
102
{ACAD_REACTORS
330
FFCB
102
}
330
FFCB
100
AcDbXrecord
280
     1
290
     1
  0
XRECORD
  5
FFCE
102
{ACAD_REACTORS
330
FFCD
102
}
330
FFCD
100
AcDbXrecord
280
     1
290
     1
  0
XRECORD
  5
982D
102
{ACAD_REACTORS
330
982C
102
}
330
982C
100
AcDbXrecord
280
     1
340
18
  0
SORTENTSTABLE
  5
D018
102
{ACAD_REACTORS
330
982C
102
}
330
982C
100
AcDbSortentsTable
330
18
331
FB11
  5
FB13
331
FB15
  5
FB17
331
F6E6
  5
F6E6
331
FB73
  5
FB75
331
FB77
  5
FB79
331
FB6B
  5
FB6D
331
FBAA
  5
FBAC
331
FB6F
  5
FB71
331
FBAE
  5
FBD2
331
F756
  5
F756
331
FB05
  5
FB05
331
FBA2
  5
FBA4
331
FB67
  5
FB69
331
FBA6
  5
FBA8
331
FB4B
  5
FB68
331
FB9A
  5
FB9C
331
FB9E
  5
FBA0
331
FAFA
  5
FAFA
331
FAF2
  5
FAF2
331
FAF6
  5
FAF6
331
FB93
  5
FB95
331
FB40
  5
FB49
331
FB97
  5
FB99
331
FB8B
  5
FB8D
331
FB8F
  5
FB91
331
FAEE
  5
FAEE
331
FB83
  5
FB85
331
FB30
  5
FB32
331
FB34
  5
FB36
331
FB87
  5
FB89
331
FB7B
  5
FB7D
331
FB1C
  5
FB30
331
FB7F
  5
FB81
331
FB12
  5
FB14
331
FB16
  5
FB1A
331
FB70
  5
FB72
331
FB74
  5
FB76
331
FBAB
  5
FBAD
331
FB68
  5
FB6A
331
FB6C
  5
FB6E
331
FBAF
  5
FD46
331
FB0E
  5
FB10
331
FB06
  5
FB06
331
FBA3
  5
FBA5
331
FBA7
  5
FBA9
331
FB9B
  5
FB9D
331
FB9F
  5
FBA1
331
FAFB
  5
FAFB
331
F724
  5
F724
331
FAF3
  5
FAF3
331
FAF7
  5
FAF7
331
F6BC
  5
F6BC
331
FB41
  5
FB4A
331
FB90
  5
FB92
331
FB94
  5
FB96
331
FB88
  5
FB8A
331
FB3D
  5
FB3F
331
FB8C
  5
FB8E
331
FAEF
  5
FAEF
331
F6F4
  5
F6F4
331
F634
  5
F634
331
FB31
  5
FB33
331
FB80
  5
FB82
331
FB84
  5
FB86
331
FB35
  5
FB37
331
FB78
  5
FB7A
331
FB7C
  5
FB7E
331
FB1D
  5
FB31
331
FB13
  5
FB15
331
FB17
  5
FB1B
331
FB71
  5
FB73
331
FB75
  5
FB77
331
FB69
  5
FB6B
331
FBA8
  5
FBAA
331
FBAC
  5
FBAE
331
FB6D
  5
FB6F
331
FB0B
  5
FB0B
331
FB0F
  5
FB11
331
FB07
  5
FB07
331
F6D8
  5
F6D8
331
FBA0
  5
FBA2
331
FBA4
  5
FBA6
331
FB49
  5
FB4B
331
FB98
  5
FB9A
331
FB9C
  5
FB9E
331
FAF8
  5
FAF8
331
FD46
  5
FB0C
331
FAF0
  5
FAF0
331
FAF4
  5
FAF4
331
FB91
  5
FB93
331
FB95
  5
FB97
331
FB3E
  5
FB40
331
FB89
  5
FB8B
331
FB8D
  5
FB8F
331
FBD2
  5
FD62
331
FB32
  5
FB34
331
FB36
  5
FB3D
331
FB81
  5
FB83
331
FB85
  5
FB87
331
FB1A
  5
FB1C
331
FB79
  5
FB7B
331
FB7D
  5
FB7F
331
FB10
  5
FB12
331
FB14
  5
FB16
331
F626
  5
F626
331
FB72
  5
FB74
331
FB76
  5
FB78
331
FB6A
  5
FB6C
331
FBA9
  5
FBAB
331
FB6E
  5
FB70
331
FBAD
  5
FBAF
331
FB08
  5
FB08
331
FB0C
  5
FB0F
331
FB04
  5
FB04
331
FBA1
  5
FBA3
331
FB4A
  5
FB67
331
FBA5
  5
FBA7
331
FB99
  5
FB9B
331
FB9D
  5
FB9F
331
FAF9
  5
FAF9
331
F716
  5
F716
331
FAF1
  5
FAF1
331
FAF5
  5
FAF5
331
F6CA
  5
F6CA
331
FB92
  5
FB94
331
FB96
  5
FB98
331
FB8A
  5
FB8C
331
FB3F
  5
FB41
331
FB8E
  5
FB90
331
FAED
  5
FAED
331
FB33
  5
FB35
331
FB82
  5
FB84
331
FB86
  5
FB88
331
FB37
  5
FB3E
331
FB7A
  5
FB7C
331
FB1B
  5
FB1D
331
FB7E
  5
FB80
  0
XRECORD
  5
982B
102
{ACAD_REACTORS
330
982A
102
}
330
982A
100
AcDbXrecord
280
     1
340
15
  0
SORTENTSTABLE
  5
D1D6
102
{ACAD_REACTORS
330
982A
102
}
330
982A
100
AcDbSortentsTable
330
15
331
174
  5
174
331
5834
  5
5834
331
5828
  5
5828
331
CD
  5
CD
331
D2
  5
D2
331
D178
  5
D17B
331
D184
  5
D18F
331
580E
  5
580E
331
581B
  5
581B
331
178
  5
178
331
5813
  5
5813
331
CA
  5
CA
331
91
  5
91
331
4B8C
  5
4B8C
331
5A45
  5
5A45
331
14C
  5
14C
331
175
  5
175
331
5835
  5
5835
331
5829
  5
5829
331
D179
  5
D17C
331
D185
  5
D190
331
4B9A
  5
4B9A
331
5A42
  5
5A42
331
580F
  5
580F
331
C6
  5
C6
331
D3
  5
D3
331
179
  5
179
331
D8
  5
D8
331
5810
  5
5810
331
172
  5
172
331
CB
  5
CB
331
57E6
  5
57E6
331
D193
  5
D1B7
331
14D
  5
14D
331
D182
  5
D185
331
D171
  5
D174
331
D0
  5
D0
331
577F
  5
577F
331
4B9B
  5
4B9B
331
5A43
  5
5A43
331
D17E
  5
D181
331
C7
  5
C7
331
580C
  5
580C
331
5A48
  5
5A48
331
C8
  5
C8
331
173
  5
173
331
D9
  5
D9
331
5811
  5
5811
331
5804
  5
5804
331
D183
  5
D186
331
D190
  5
D1B6
331
621A
  5
621A
331
D1
  5
D1
331
4B98
  5
4B98
331
581E
  5
581E
331
580D
  5
580D
331
C4
  5
C4
331
D17F
  5
D182
331
4B90
  5
4B90
331
170
  5
170
331
5A49
  5
5A49
331
1184
  5
1184
331
5827
  5
5827
331
5816
  5
5816
331
580A
  5
580A
331
D177
  5
D17A
331
C9
  5
C9
331
D180
  5
D183
331
D17C
  5
D17F
331
5802
  5
5802
331
5B7E
  5
5B7E
331
D6
  5
D6
331
C5
  5
C5
331
171
  5
171
331
17C
  5
17C
331
580B
  5
580B
331
CE
  5
CE
331
D174
  5
D178
331
579B
  5
579B
331
D181
  5
D184
331
5803
  5
5803
331
D17D
  5
D180
331
5B7F
  5
5B7F
331
D7
  5
D7
331
3D
  5
3D
331
5814
  5
5814
331
5B80
  5
5B80
331
176
  5
176
331
D186
  5
D193
331
D175
  5
D179
331
C3
  5
C3
331
57F3
  5
57F3
331
D17A
  5
D17D
331
582A
  5
582A
331
17A
  5
17A
331
5780
  5
5780
331
5B7C
  5
5B7C
331
B32E
  5
B32E
331
D172
  5
D175
331
5A47
  5
5A47
331
581D
  5
581D
331
D4
  5
D4
331
D18F
  5
D1B5
331
5B81
  5
5B81
331
5799
  5
5799
331
177
  5
177
331
581A
  5
581A
331
5809
  5
5809
331
4B97
  5
4B97
331
2F5D
  5
2F5D
331
D17B
  5
D17E
331
582B
  5
582B
331
17B
  5
17B
331
DA
  5
DA
331
5812
  5
5812
331
D173
  5
D177
331
5B7D
  5
5B7D
331
5A44
  5
5A44
331
4B8F
  5
4B8F
331
D5
  5
D5
  0
ACDBDETAILVIEWSTYLE
  5
101008B
102
{ACAD_XDICTIONARY
360
10100AE
102
}
102
{ACAD_REACTORS
330
101008A
102
}
330
101008A
100
AcDbModelDocViewStyle
 70
     0
  3
Imperial24
290
     0
100
AcDbDetailViewStyle
 70
     0
 71
     0
 90
        3
 71
     1
340
F
 62
   256
 40
0.24
340
0
 62
   256
 40
0.24
300

 40
0.36
280
     3
 71
     2
340
14
 90
       25
 62
   256
 71
     3
340
F
 62
   256
 40
0.24
 90
        1
 40
0.75
 90
        1
300
%<\AcVar ViewType \f "%tc1">% %<\AcVar ViewDetailId>%\PSCALE %<\AcVar ViewScale \f "%sn">%
 71
     4
340
14
 90
       25
 62
   256
340
14
 90
       25
 62
   256
280
     0
  0
LAYOUT
  5
5C22
102
{ACAD_XDICTIONARY
360
CD03
102
}
102
{ACAD_REACTORS
330
5C1F
102
}
330
5C1F
100
AcDbPlotSettings
  1

  2
pdfFactory Pro
  4
A4
  6

 40
7.143749713897705
 41
7.143725872039794
 42
7.14373779296875
 43
7.14373779296875
 44
209.9733276367187
 45
297.0106506347656
 46
2.099437514849242
 47
0.0
 48
1.0
 49
1.0
140
283.535793
141
174.335932
142
1.0
143
2.921859477644063
 70
   692
 72
     1
 73
     1
 74
     1
  7
Carron Phoenix.ctb
 75
     0
147
0.342247807483991
 76
     0
 77
     2
 78
   300
148
0.0268790493087181
149
0.0288269791640232
100
AcDbLayout
  1
Layout1
 70
     1
 71
     1
 10
-20.89987702549854
 20
-27.03612118711686
 11
846.9235074929212
 21
586.4764362206919
 12
0.0
 22
0.0
 32
0.0
 14
0.0
 24
0.0
 34
0.0
 15
826.0
 25
559.4330351521971
 35
0.4
146
0.0
 13
0.0
 23
0.0
 33
0.0
 16
1.0
 26
0.0
 36
0.0
 17
0.0
 27
1.0
 37
0.0
 76
     0
330
15
331
3D
1001
ACAD_PSEXT
1000
pdfFactory Pro
1000
pdfFactory 2
1000
FPP2:
1000

1070
     0
  0
LAYOUT
  5
5C21
102
{ACAD_REACTORS
330
5C1F
102
}
330
5C1F
100
AcDbPlotSettings
  1

  2
AXISL3.pc3
  4
User1288
  6
P
 40
4.995332999999999
 41
16.933336
 42
4.995331
 43
16.933334
 44
296.925995
 45
209.804001
 46
0.0
 47
0.0
 48
80.83892073203015
 49
-120.0534720337518
140
1131.834676316042
141
462.3709243868811
142
1.0
143
4.0
 70
 11952
 72
     1
 73
     0
 74
     4
  7
Tommy.ctb
 75
    18
147
0.25
 76
     0
 77
     2
 78
   300
148
-80.83892073203015
149
120.0534720337518
100
AcDbLayout
  1
Model
 70
     1
 71
     0
 10
0.0
 20
0.0
 11
12.0
 21
9.0
 12
0.0
 22
0.0
 32
0.0
 14
0.0
 24
0.0
 34
0.0
 15
0.0
 25
0.0
 35
0.0
146
0.0
 13
0.0
 23
0.0
 33
0.0
 16
1.0
 26
0.0
 36
0.0
 17
0.0
 27
1.0
 37
0.0
 76
     0
330
18
331
FF32
  0
MATERIAL
  5
FF58
102
{ACAD_XDICTIONARY
360
FF59
102
}
102
{ACAD_REACTORS
330
CCC9
102
}
330
CCC9
100
AcDbMaterial
  1
ByBlock
 72
     0
 43
0.0208333333333333
 43
0.0
 43
0.0
 43
0.0
 43
0.0
 43
0.0208333333333333
 43
0.0
 43
0.0
 43
0.0
 43
0.0
 43
1.0
 43
0.0
 43
0.0
 43
0.0
 43
0.0
 43
1.0
 77
     0
 47
0.0208333333333333
 47
0.0
 47
0.0
 47
0.0
 47
0.0
 47
0.0208333333333333
 47
0.0
 47
0.0
 47
0.0
 47
0.0
 47
1.0
 47
0.0
 47
0.0
 47
0.0
 47
0.0
 47
1.0
171
     0
 49
0.0208333333333333
 49
0.0
 49
0.0
 49
0.0
 49
0.0
 49
0.0208333333333333
 49
0.0
 49
0.0
 49
0.0
 49
0.0
 49
1.0
 49
0.0
 49
0.0
 49
0.0
 49
0.0
 49
1.0
175
     0
142
0.0208333333333333
142
0.0
142
0.0
142
0.0
142
0.0
142
0.0208333333333333
142
0.0
142
0.0
142
0.0
142
0.0
142
1.0
142
0.0
142
0.0
142
0.0
142
0.0
142
1.0
179
     0
144
0.0208333333333333
144
0.0
144
0.0
144
0.0
144
0.0
144
0.0208333333333333
144
0.0
144
0.0
144
0.0
144
0.0
144
1.0
144
0.0
144
0.0
144
0.0
144
0.0
144
1.0
147
0.0208333333333333
147
0.0
147
0.0
147
0.0
147
0.0
147
0.0208333333333333
147
0.0
147
0.0
147
0.0
147
0.0
147
1.0
147
0.0
147
0.0
147
0.0
147
0.0
147
1.0
  0
MATERIAL
  5
FF50
102
{ACAD_XDICTIONARY
360
FF51
102
}
102
{ACAD_REACTORS
330
CCC9
102
}
330
CCC9
100
AcDbMaterial
  1
ByLayer
 72
     0
 43
0.0208333333333333
 43
0.0
 43
0.0
 43
0.0
 43
0.0
 43
0.0208333333333333
 43
0.0
 43
0.0
 43
0.0
 43
0.0
 43
1.0
 43
0.0
 43
0.0
 43
0.0
 43
0.0
 43
1.0
 77
     0
 47
0.0208333333333333
 47
0.0
 47
0.0
 47
0.0
 47
0.0
 47
0.0208333333333333
 47
0.0
 47
0.0
 47
0.0
 47
0.0
 47
1.0
 47
0.0
 47
0.0
 47
0.0
 47
0.0
 47
1.0
171
     0
 49
0.0208333333333333
 49
0.0
 49
0.0
 49
0.0
 49
0.0
 49
0.0208333333333333
 49
0.0
 49
0.0
 49
0.0
 49
0.0
 49
1.0
 49
0.0
 49
0.0
 49
0.0
 49
0.0
 49
1.0
175
     0
142
0.0208333333333333
142
0.0
142
0.0
142
0.0
142
0.0
142
0.0208333333333333
142
0.0
142
0.0
142
0.0
142
0.0
142
1.0
142
0.0
142
0.0
142
0.0
142
0.0
142
1.0
179
     0
144
0.0208333333333333
144
0.0
144
0.0
144
0.0
144
0.0
144
0.0208333333333333
144
0.0
144
0.0
144
0.0
144
0.0
144
1.0
144
0.0
144
0.0
144
0.0
144
0.0
144
1.0
147
0.0208333333333333
147
0.0
147
0.0
147
0.0
147
0.0
147
0.0208333333333333
147
0.0
147
0.0
147
0.0
147
0.0
147
1.0
147
0.0
147
0.0
147
0.0
147
0.0
147
1.0
  0
MATERIAL
  5
FF60
102
{ACAD_XDICTIONARY
360
FF61
102
}
102
{ACAD_REACTORS
330
CCC9
102
}
330
CCC9
100
AcDbMaterial
  1
Global
 72
     0
 43
0.0208333333333333
 43
0.0
 43
0.0
 43
0.0
 43
0.0
 43
0.0208333333333333
 43
0.0
 43
0.0
 43
0.0
 43
0.0
 43
1.0
 43
0.0
 43
0.0
 43
0.0
 43
0.0
 43
1.0
 77
     0
 47
0.0208333333333333
 47
0.0
 47
0.0
 47
0.0
 47
0.0
 47
0.0208333333333333
 47
0.0
 47
0.0
 47
0.0
 47
0.0
 47
1.0
 47
0.0
 47
0.0
 47
0.0
 47
0.0
 47
1.0
171
     0
 49
0.0208333333333333
 49
0.0
 49
0.0
 49
0.0
 49
0.0
 49
0.0208333333333333
 49
0.0
 49
0.0
 49
0.0
 49
0.0
 49
1.0
 49
0.0
 49
0.0
 49
0.0
 49
0.0
 49
1.0
175
     0
142
0.0208333333333333
142
0.0
142
0.0
142
0.0
142
0.0
142
0.0208333333333333
142
0.0
142
0.0
142
0.0
142
0.0
142
1.0
142
0.0
142
0.0
142
0.0
142
0.0
142
1.0
179
     0
144
0.0208333333333333
144
0.0
144
0.0
144
0.0
144
0.0
144
0.0208333333333333
144
0.0
144
0.0
144
0.0
144
0.0
144
1.0
144
0.0
144
0.0
144
0.0
144
0.0
144
1.0
147
0.0208333333333333
147
0.0
147
0.0
147
0.0
147
0.0
147
0.0208333333333333
147
0.0
147
0.0
147
0.0
147
0.0
147
1.0
147
0.0
147
0.0
147
0.0
147
0.0
147
1.0
  0
MLEADERSTYLE
  5
FF9C
102
{ACAD_REACTORS
330
FF9B
102
}
330
FF9B
100
AcDbMLeaderStyle
179
     2
170
     2
171
     1
172
     0
 90
        2
 40
0.0
 41
0.0
173
     1
 91
-1056964608
340
12
 92
       -2
290
     1
 42
0.09
291
     1
 43
0.36
  3
Standard
 44
0.18
300

342
F
174
     1
178
     6
175
     1
176
     0
 93
-1056964608
 45
0.18
292
     0
297
     0
 46
0.18
 94
-1056964608
 47
1.0
 49
1.0
140
1.0
293
     1
141
0.0
294
     1
177
     0
142
1.0
295
     0
296
     0
143
0.125
271
     0
272
     9
273
     9
298
     0
  0
MLINESTYLE
  5
1C
102
{ACAD_REACTORS
330
1B
102
}
330
0
100
AcDbMlineStyle
  2
STANDARD
 70
     0
  3

 62
   256
 51
90.0
 52
90.0
 71
     2
 49
0.5
 62
   256
  6
BYLAYER
 49
-0.5
 62
   256
  6
BYLAYER
  0
ACDBPLACEHOLDER
  5
5C1E
102
{ACAD_REACTORS
330
5C1D
102
}
330
5C1D
  0
SCALE
  5
FF7A
102
{ACAD_REACTORS
330
FF79
102
}
330
FF79
100
AcDbScale
 70
     0
300
1:1
140
1.0
141
1.0
290
     1
  0
SCALE
  5
FF7B
102
{ACAD_REACTORS
330
FF79
102
}
330
FF79
100
AcDbScale
 70
     0
300
1:2
140
1.0
141
2.0
290
     0
  0
SCALE
  5
FF7C
102
{ACAD_REACTORS
330
FF79
102
}
330
FF79
100
AcDbScale
 70
     0
300
1:4
140
1.0
141
4.0
290
     0
  0
SCALE
  5
FF7D
102
{ACAD_REACTORS
330
FF79
102
}
330
FF79
100
AcDbScale
 70
     0
300
1:5
140
1.0
141
5.0
290
     0
  0
SCALE
  5
FF7E
102
{ACAD_REACTORS
330
FF79
102
}
330
FF79
100
AcDbScale
 70
     0
300
1:8
140
1.0
141
8.0
290
     0
  0
SCALE
  5
FF7F
102
{ACAD_REACTORS
330
FF79
102
}
330
FF79
100
AcDbScale
 70
     0
300
1:10
140
1.0
141
10.0
290
     0
  0
SCALE
  5
FF80
102
{ACAD_REACTORS
330
FF79
102
}
330
FF79
100
AcDbScale
 70
     0
300
1:16
140
1.0
141
16.0
290
     0
  0
SCALE
  5
FF81
102
{ACAD_REACTORS
330
FF79
102
}
330
FF79
100
AcDbScale
 70
     0
300
1:20
140
1.0
141
20.0
290
     0
  0
SCALE
  5
FF82
102
{ACAD_REACTORS
330
FF79
102
}
330
FF79
100
AcDbScale
 70
     0
300
1:30
140
1.0
141
30.0
290
     0
  0
SCALE
  5
FF83
102
{ACAD_REACTORS
330
FF79
102
}
330
FF79
100
AcDbScale
 70
     0
300
1:40
140
1.0
141
40.0
290
     0
  0
SCALE
  5
FF84
102
{ACAD_REACTORS
330
FF79
102
}
330
FF79
100
AcDbScale
 70
     0
300
1:50
140
1.0
141
50.0
290
     0
  0
SCALE
  5
FF85
102
{ACAD_REACTORS
330
FF79
102
}
330
FF79
100
AcDbScale
 70
     0
300
1:100
140
1.0
141
100.0
290
     0
  0
SCALE
  5
FF86
102
{ACAD_REACTORS
330
FF79
102
}
330
FF79
100
AcDbScale
 70
     0
300
2:1
140
2.0
141
1.0
290
     0
  0
SCALE
  5
FF87
102
{ACAD_REACTORS
330
FF79
102
}
330
FF79
100
AcDbScale
 70
     0
300
4:1
140
4.0
141
1.0
290
     0
  0
SCALE
  5
FF88
102
{ACAD_REACTORS
330
FF79
102
}
330
FF79
100
AcDbScale
 70
     0
300
8:1
140
8.0
141
1.0
290
     0
  0
SCALE
  5
FF89
102
{ACAD_REACTORS
330
FF79
102
}
330
FF79
100
AcDbScale
 70
     0
300
10:1
140
10.0
141
1.0
290
     0
  0
SCALE
  5
FF8A
102
{ACAD_REACTORS
330
FF79
102
}
330
FF79
100
AcDbScale
 70
     0
300
100:1
140
100.0
141
1.0
290
     0
  0
SCALE
  5
FF8B
102
{ACAD_REACTORS
330
FF79
102
}
330
FF79
100
AcDbScale
 70
     0
300
1/128" = 1'-0"
140
0.0078125
141
12.0
290
     0
  0
SCALE
  5
FF8C
102
{ACAD_REACTORS
330
FF79
102
}
330
FF79
100
AcDbScale
 70
     0
300
1/64" = 1'-0"
140
0.015625
141
12.0
290
     0
  0
SCALE
  5
FF8D
102
{ACAD_REACTORS
330
FF79
102
}
330
FF79
100
AcDbScale
 70
     0
300
1/32" = 1'-0"
140
0.03125
141
12.0
290
     0
  0
SCALE
  5
FF8E
102
{ACAD_REACTORS
330
FF79
102
}
330
FF79
100
AcDbScale
 70
     0
300
1/16" = 1'-0"
140
0.0625
141
12.0
290
     0
  0
SCALE
  5
FF8F
102
{ACAD_REACTORS
330
FF79
102
}
330
FF79
100
AcDbScale
 70
     0
300
3/32" = 1'-0"
140
0.09375
141
12.0
290
     0
  0
SCALE
  5
FF90
102
{ACAD_REACTORS
330
FF79
102
}
330
FF79
100
AcDbScale
 70
     0
300
1/8" = 1'-0"
140
0.125
141
12.0
290
     0
  0
SCALE
  5
FF91
102
{ACAD_REACTORS
330
FF79
102
}
330
FF79
100
AcDbScale
 70
     0
300
3/16" = 1'-0"
140
0.1875
141
12.0
290
     0
  0
SCALE
  5
FF92
102
{ACAD_REACTORS
330
FF79
102
}
330
FF79
100
AcDbScale
 70
     0
300
1/4" = 1'-0"
140
0.25
141
12.0
290
     0
  0
SCALE
  5
FF93
102
{ACAD_REACTORS
330
FF79
102
}
330
FF79
100
AcDbScale
 70
     0
300
3/8" = 1'-0"
140
0.375
141
12.0
290
     0
  0
SCALE
  5
FF94
102
{ACAD_REACTORS
330
FF79
102
}
330
FF79
100
AcDbScale
 70
     0
300
1/2" = 1'-0"
140
0.5
141
12.0
290
     0
  0
SCALE
  5
FF95
102
{ACAD_REACTORS
330
FF79
102
}
330
FF79
100
AcDbScale
 70
     0
300
3/4" = 1'-0"
140
0.75
141
12.0
290
     0
  0
SCALE
  5
FF96
102
{ACAD_REACTORS
330
FF79
102
}
330
FF79
100
AcDbScale
 70
     0
300
1" = 1'-0"
140
1.0
141
12.0
290
     0
  0
SCALE
  5
FF97
102
{ACAD_REACTORS
330
FF79
102
}
330
FF79
100
AcDbScale
 70
     0
300
1-1/2" = 1'-0"
140
1.5
141
12.0
290
     0
  0
SCALE
  5
FF98
102
{ACAD_REACTORS
330
FF79
102
}
330
FF79
100
AcDbScale
 70
     0
300
3" = 1'-0"
140
3.0
141
12.0
290
     0
  0
SCALE
  5
FF99
102
{ACAD_REACTORS
330
FF79
102
}
330
FF79
100
AcDbScale
 70
     0
300
6" = 1'-0"
140
6.0
141
12.0
290
     0
  0
SCALE
  5
FF9A
102
{ACAD_REACTORS
330
FF79
102
}
330
FF79
100
AcDbScale
 70
     0
300
1'-0" = 1'-0"
140
12.0
141
12.0
290
     0
  0
ACDBSECTIONVIEWSTYLE
  5
1010089
102
{ACAD_XDICTIONARY
360
10100AC
102
}
102
{ACAD_REACTORS
330
1010088
102
}
330
1010088
100
AcDbModelDocViewStyle
 70
     0
  3
Imperial24
290
     0
100
AcDbSectionViewStyle
 70
     0
 71
     0
 90
       78
 71
     1
340
F
 62
   256
 40
0.24
340
0
340
0
 62
   256
 40
0.24
300
I, O, Q, S, X, Z
 40
0.48
 90
        3
 40
0.18
 90
        1
 71
     2
340
14
 90
       25
 62
   256
340
14
 90
       50
 62
   256
 40
0.24
 40
0.0
 40
0.24
 71
     3
340
F
 62
   256
 40
0.24
 90
        1
 40
0.75
 90
        1
300
%<\AcVar ViewType \f "%tc1">% %<\AcVar ViewSectionStartId>%-%<\AcVar ViewSectionEndId>%\PSCALE %<\AcVar ViewScale \f "%sn">%
 71
     4
 62
   256
 62
   257
300
ANSI31
 40
1.0
 90
        0
290
     0
290
     0
 90
        6
 40
0.0
 40
1.570796326794896
 40
0.2617993877991494
 40
1.308996938995747
 40
-0.2617993877991494
 40
1.832595714594046
  0
TABLESTYLE
  5
CCCC
102
{ACAD_XDICTIONARY
360
FFD7
102
}
102
{ACAD_REACTORS
330
CCCB
102
}
330
CCCB
100
AcDbTableStyle
280
     0
  3
Standard
 70
     0
 71
     0
 40
0.06
 41
0.06
280
     0
281
     0
  7
STANDARD
140
0.18
170
     2
 62
     0
 63
     7
283
     0
 90
        4
 91
        0
  1

274
    -2
284
     1
 64
     0
275
    -2
285
     1
 65
     0
276
    -2
286
     1
 66
     0
277
    -2
287
     1
 67
     0
278
    -2
288
     1
 68
     0
279
    -2
289
     1
 69
     0
  7
STANDARD
140
0.25
170
     5
 62
     0
 63
     7
283
     0
 90
        4
 91
        0
  1

274
    -2
284
     1
 64
     0
275
    -2
285
     1
 65
     0
276
    -2
286
     1
 66
     0
277
    -2
287
     1
 67
     0
278
    -2
288
     1
 68
     0
279
    -2
289
     1
 69
     0
  7
STANDARD
140
0.18
170
     5
 62
     0
 63
     7
283
     0
 90
        4
 91
        0
  1

274
    -2
284
     1
 64
     0
275
    -2
285
     1
 65
     0
276
    -2
286
     1
 66
     0
277
    -2
287
     1
 67
     0
278
    -2
288
     1
 68
     0
279
    -2
289
     1
 69
     0
  0
VISUALSTYLE
  5
FF6E
102
{ACAD_REACTORS
330
FF68
102
}
330
FF68
100
AcDbVisualStyle
  2
2dWireframe
 70
     4
177
     3
291
     0
 70
    58
 90
        0
176
     1
 90
        2
176
     1
 90
        0
176
     1
 90
        0
176
     1
 40
0.6
176
     1
 40
30.0
176
     1
 62
     7
420
 16777215
176
     1
 90
        1
176
     1
 90
        4
176
     1
 62
     7
176
     1
 62
   257
176
     1
 90
        1
176
     1
 90
        1
176
     1
 40
1.0
176
     1
 90
        0
176
     1
 62
   257
176
     1
 40
1.0
176
     1
 90
        1
176
     1
 90
        6
176
     1
 90
        2
176
     1
 62
     7
176
     1
 90
        5
176
     1
 90
        0
176
     1
 90
        0
176
     1
290
     0
176
     1
 90
        1
176
     1
 40
0.0
176
     1
 90
        0
176
     1
290
     1
176
     1
290
     1
176
     1
290
     0
176
     1
290
     0
176
     1
290
     0
176
     1
290
     0
176
     1
290
     0
176
     1
290
     0
176
     1
290
     0
176
     1
 90
       50
176
     1
 40
0.0
176
     1
 40
1.0
176
     1
 90
        0
176
     1
 62
    18
420
        0
176
     1
 90
       50
176
     1
 90
        3
176
     1
 62
     5
420
      255
176
     1
290
     0
176
     1
 90
       50
176
     1
 90
       50
176
     1
 90
       50
176
     1
290
     0
176
     1
 90
       50
176
     1
 62
   256
176
     0
 40
1.0
176
     0
 90
        2
176
     1
  1
strokes_ogs.tif
176
     1
290
     0
176
     1
 40
1.0
176
     1
 40
1.0
176
     1
  0
VISUALSTYLE
  5
FF70
102
{ACAD_REACTORS
330
FF68
102
}
330
FF68
100
AcDbVisualStyle
  2
3D Hidden
 70
     6
177
     3
291
     0
 70
    58
 90
        1
176
     1
 90
        2
176
     1
 90
        2
176
     1
 90
        0
176
     1
 40
0.6
176
     1
 40
30.0
176
     1
 62
     7
420
 16777215
176
     1
 90
        2
176
     1
 90
        2
176
     1
 62
     7
176
     1
 62
   257
176
     1
 90
        2
176
     1
 90
        1
176
     1
 40
40.0
176
     1
 90
        0
176
     1
 62
   257
176
     1
 40
1.0
176
     1
 90
        1
176
     1
 90
        6
176
     1
 90
        2
176
     1
 62
     7
176
     1
 90
        3
176
     1
 90
        0
176
     1
 90
        0
176
     1
290
     0
176
     1
 90
        1
176
     1
 40
0.0
176
     1
 90
        0
176
     1
290
     0
176
     1
290
     1
176
     1
290
     1
176
     1
290
     0
176
     1
290
     0
176
     1
290
     0
176
     1
290
     0
176
     1
290
     0
176
     1
290
     0
176
     1
 90
       50
176
     1
 40
0.0
176
     1
 40
1.0
176
     1
 90
        0
176
     1
 62
    18
420
        0
176
     1
 90
       50
176
     1
 90
        3
176
     1
 62
     5
420
      255
176
     1
290
     0
176
     1
 90
       50
176
     1
 90
       50
176
     1
 90
       50
176
     1
290
     0
176
     1
 90
       50
176
     1
 62
   256
176
     0
 40
1.0
176
     0
 90
        2
176
     1
  1
strokes_ogs.tif
176
     1
290
     0
176
     1
 40
1.0
176
     1
 40
1.0
176
     1
  0
VISUALSTYLE
  5
FF6F
102
{ACAD_REACTORS
330
FF68
102
}
330
FF68
100
AcDbVisualStyle
  2
3dWireframe
 70
     5
177
     3
291
     0
 70
    58
 90
        0
176
     1
 90
        2
176
     1
 90
        0
176
     1
 90
        0
176
     1
 40
0.6
176
     1
 40
30.0
176
     1
 62
     7
420
 16777215
176
     1
 90
        1
176
     1
 90
        4
176
     1
 62
     7
176
     1
 62
   257
176
     1
 90
        1
176
     1
 90
        1
176
     1
 40
1.0
176
     1
 90
        0
176
     1
 62
   257
176
     1
 40
1.0
176
     1
 90
        1
176
     1
 90
        6
176
     1
 90
        2
176
     1
 62
     7
176
     1
 90
        5
176
     1
 90
        0
176
     1
 90
        0
176
     1
290
     0
176
     1
 90
        1
176
     1
 40
0.0
176
     1
 90
        0
176
     1
290
     0
176
     1
290
     1
176
     1
290
     1
176
     1
290
     0
176
     1
290
     0
176
     1
290
     0
176
     1
290
     0
176
     1
290
     0
176
     1
290
     0
176
     1
 90
       50
176
     1
 40
0.0
176
     1
 40
1.0
176
     1
 90
        0
176
     1
 62
    18
420
        0
176
     1
 90
       50
176
     1
 90
        3
176
     1
 62
     5
420
      255
176
     1
290
     0
176
     1
 90
       50
176
     1
 90
       50
176
     1
 90
       50
176
     1
290
     0
176
     1
 90
       50
176
     1
 62
   256
176
     0
 40
1.0
176
     0
 90
        2
176
     1
  1
strokes_ogs.tif
176
     1
290
     0
176
     1
 40
1.0
176
     1
 40
1.0
176
     1
  0
VISUALSTYLE
  5
FF6D
102
{ACAD_REACTORS
330
FF68
102
}
330
FF68
100
AcDbVisualStyle
  2
Basic
 70
     7
177
     3
291
     1
 70
    58
 90
        1
176
     1
 90
        0
176
     1
 90
        1
176
     1
 90
        0
176
     1
 40
0.6
176
     1
 40
30.0
176
     1
 62
     7
420
 16777215
176
     1
 90
        0
176
     1
 90
        4
176
     1
 62
     7
176
     1
 62
   257
176
     1
 90
        1
176
     1
 90
        1
176
     1
 40
1.0
176
     1
 90
        8
176
     1
 62
     7
176
     1
 40
1.0
176
     1
 90
        1
176
     1
 90
        6
176
     1
 90
        2
176
     1
 62
     7
176
     1
 90
        5
176
     1
 90
        0
176
     1
 90
        0
176
     1
290
     0
176
     1
 90
        1
176
     1
 40
0.0
176
     1
 90
        0
176
     1
290
     0
176
     1
290
     1
176
     1
290
     1
176
     1
290
     0
176
     1
290
     0
176
     1
290
     0
176
     1
290
     0
176
     1
290
     0
176
     1
290
     0
176
     1
 90
       50
176
     1
 40
0.0
176
     1
 40
1.0
176
     1
 90
        0
176
     1
 62
    18
420
        0
176
     1
 90
       50
176
     1
 90
        3
176
     1
 62
     5
420
      255
176
     1
290
     0
176
     1
 90
       50
176
     1
 90
       50
176
     1
 90
       50
176
     1
290
     0
176
     1
 90
       50
176
     1
 62
   256
176
     0
 40
1.0
176
     0
 90
        2
176
     1
  1
strokes_ogs.tif
176
     1
290
     0
176
     1
 40
1.0
176
     1
 40
1.0
176
     1
  0
VISUALSTYLE
  5
FF74
102
{ACAD_REACTORS
330
FF68
102
}
330
FF68
100
AcDbVisualStyle
  2
Brighten
 70
    12
177
     3
291
     1
 70
    58
 90
        2
176
     1
 90
        2
176
     1
 90
        0
176
     1
 90
        0
176
     1
 40
0.6
176
     1
 40
30.0
176
     1
 62
     7
420
 16777215
176
     1
 90
        1
176
     1
 90
        4
176
     1
 62
     7
176
     1
 62
   257
176
     1
 90
        1
176
     1
 90
        1
176
     1
 40
1.0
176
     1
 90
        8
176
     1
 62
     7
176
     1
 40
1.0
176
     1
 90
        1
176
     1
 90
        6
176
     1
 90
        2
176
     1
 62
     7
176
     1
 90
        5
176
     1
 90
        0
176
     1
 90
        0
176
     1
290
     0
176
     1
 90
        1
176
     1
 40
50.0
176
     1
 90
        0
176
     1
290
     0
176
     1
290
     1
176
     1
290
     1
176
     1
290
     0
176
     1
290
     0
176
     1
290
     0
176
     1
290
     0
176
     1
290
     0
176
     1
290
     0
176
     1
 90
       50
176
     1
 40
0.0
176
     1
 40
1.0
176
     1
 90
        0
176
     1
 62
    18
420
        0
176
     1
 90
       50
176
     1
 90
        3
176
     1
 62
     5
420
      255
176
     1
290
     0
176
     1
 90
       50
176
     1
 90
       50
176
     1
 90
       50
176
     1
290
     0
176
     1
 90
       50
176
     1
 62
   256
176
     0
 40
1.0
176
     0
 90
        2
176
     1
  1
strokes_ogs.tif
176
     1
290
     0
176
     1
 40
1.0
176
     1
 40
1.0
176
     1
  0
VISUALSTYLE
  5
FF78
102
{ACAD_REACTORS
330
FF68
102
}
330
FF68
100
AcDbVisualStyle
  2
ColorChange
 70
    16
177
     3
291
     1
 70
    58
 90
        2
176
     1
 90
        2
176
     1
 90
        3
176
     1
 90
        0
176
     1
 40
0.6
176
     1
 40
30.0
176
     1
 62
     8
420
  8421504
176
     1
 90
        1
176
     1
 90
        4
176
     1
 62
     7
176
     1
 62
   257
176
     1
 90
        1
176
     1
 90
        1
176
     1
 40
1.0
176
     1
 90
        8
176
     1
 62
     8
420
  8421504
176
     1
 40
1.0
176
     1
 90
        1
176
     1
 90
        6
176
     1
 90
        2
176
     1
 62
     7
176
     1
 90
        5
176
     1
 90
        0
176
     1
 90
        0
176
     1
290
     0
176
     1
 90
        1
176
     1
 40
0.0
176
     1
 90
        0
176
     1
290
     0
176
     1
290
     1
176
     1
290
     1
176
     1
290
     0
176
     1
290
     0
176
     1
290
     0
176
     1
290
     0
176
     1
290
     0
176
     1
290
     0
176
     1
 90
       50
176
     1
 40
0.0
176
     1
 40
1.0
176
     1
 90
        0
176
     1
 62
    18
420
        0
176
     1
 90
       50
176
     1
 90
        3
176
     1
 62
     5
420
      255
176
     1
290
     0
176
     1
 90
       50
176
     1
 90
       50
176
     1
 90
       50
176
     1
290
     0
176
     1
 90
       50
176
     1
 62
   256
176
     0
 40
1.0
176
     0
 90
        2
176
     1
  1
strokes_ogs.tif
176
     1
290
     0
176
     1
 40
1.0
176
     1
 40
1.0
176
     1
  0
VISUALSTYLE
  5
FF71
102
{ACAD_REACTORS
330
FF68
102
}
330
FF68
100
AcDbVisualStyle
  2
Conceptual
 70
     9
177
     3
291
     0
 70
    58
 90
        3
176
     1
 90
        2
176
     1
 90
        0
176
     1
 90
        0
176
     1
 40
0.6
176
     1
 40
30.0
176
     1
 62
     7
420
 16777215
176
     1
 90
        2
176
     1
 90
        2
176
     1
 62
     7
176
     1
 62
   257
176
     1
 90
        1
176
     1
 90
        1
176
     1
 40
40.0
176
     1
 90
        8
176
     1
 62
     7
176
     1
 40
1.0
176
     1
 90
        1
176
     1
 90
        6
176
     1
 90
        2
176
     1
 62
     7
176
     1
 90
        3
176
     1
 90
        0
176
     1
 90
        0
176
     1
290
     0
176
     1
 90
        1
176
     1
 40
0.0
176
     1
 90
        0
176
     1
290
     0
176
     1
290
     1
176
     1
290
     1
176
     1
290
     0
176
     1
290
     0
176
     1
290
     0
176
     1
290
     0
176
     1
290
     0
176
     1
290
     0
176
     1
 90
       50
176
     1
 40
0.0
176
     1
 40
1.0
176
     1
 90
        0
176
     1
 62
    18
420
        0
176
     1
 90
       50
176
     1
 90
        3
176
     1
 62
     5
420
      255
176
     1
290
     0
176
     1
 90
       50
176
     1
 90
       50
176
     1
 90
       50
176
     1
290
     0
176
     1
 90
       50
176
     1
 62
   256
176
     0
 40
1.0
176
     0
 90
        2
176
     1
  1
strokes_ogs.tif
176
     1
290
     0
176
     1
 40
1.0
176
     1
 40
1.0
176
     1
  0
VISUALSTYLE
  5
FF73
102
{ACAD_REACTORS
330
FF68
102
}
330
FF68
100
AcDbVisualStyle
  2
Dim
 70
    11
177
     3
291
     1
 70
    58
 90
        2
176
     1
 90
        2
176
     1
 90
        0
176
     1
 90
        0
176
     1
 40
0.6
176
     1
 40
30.0
176
     1
 62
     7
420
 16777215
176
     1
 90
        1
176
     1
 90
        4
176
     1
 62
     7
176
     1
 62
   257
176
     1
 90
        1
176
     1
 90
        1
176
     1
 40
1.0
176
     1
 90
        8
176
     1
 62
     7
176
     1
 40
1.0
176
     1
 90
        1
176
     1
 90
        6
176
     1
 90
        2
176
     1
 62
     7
176
     1
 90
        5
176
     1
 90
        0
176
     1
 90
        0
176
     1
290
     0
176
     1
 90
        1
176
     1
 40
-50.0
176
     1
 90
        0
176
     1
290
     0
176
     1
290
     1
176
     1
290
     1
176
     1
290
     0
176
     1
290
     0
176
     1
290
     0
176
     1
290
     0
176
     1
290
     0
176
     1
290
     0
176
     1
 90
       50
176
     1
 40
0.0
176
     1
 40
1.0
176
     1
 90
        0
176
     1
 62
    18
420
        0
176
     1
 90
       50
176
     1
 90
        3
176
     1
 62
     5
420
      255
176
     1
290
     0
176
     1
 90
       50
176
     1
 90
       50
176
     1
 90
       50
176
     1
290
     0
176
     1
 90
       50
176
     1
 62
   256
176
     0
 40
1.0
176
     0
 90
        2
176
     1
  1
strokes_ogs.tif
176
     1
290
     0
176
     1
 40
1.0
176
     1
 40
1.0
176
     1
  0
VISUALSTYLE
  5
FFE1
102
{ACAD_REACTORS
330
FF68
102
}
330
FF68
100
AcDbVisualStyle
  2
EdgeColorOff
 70
    22
177
     3
291
     1
 70
    58
 90
        2
176
     0
 90
        2
176
     0
 90
        0
176
     0
 90
        0
176
     0
 40
0.6
176
     0
 40
30.0
176
     0
 62
     7
420
 16777215
176
     0
 90
        1
176
     0
 90
        4
176
     0
 62
     7
176
     0
 62
   257
176
     0
 90
        1
176
     0
 90
        1
176
     0
 40
1.0
176
     0
 90
        8
176
     2
 62
     7
176
     0
 40
1.0
176
     0
 90
        1
176
     0
 90
        6
176
     0
 90
        2
176
     0
 62
     7
176
     0
 90
        5
176
     0
 90
        0
176
     0
 90
        0
176
     0
290
     0
176
     0
 90
        1
176
     0
 40
0.0
176
     0
 90
        0
176
     0
290
     0
176
     1
290
     1
176
     1
290
     1
176
     1
290
     0
176
     1
290
     0
176
     1
290
     0
176
     1
290
     0
176
     1
290
     0
176
     1
290
     0
176
     1
 90
       50
176
     1
 40
0.0
176
     1
 40
1.0
176
     1
 90
        0
176
     1
 62
    18
420
        0
176
     1
 90
       50
176
     1
 90
        3
176
     1
 62
     5
420
      255
176
     1
290
     0
176
     1
 90
       50
176
     1
 90
       50
176
     1
 90
       50
176
     1
290
     0
176
     1
 90
       50
176
     1
 62
   256
176
     0
 40
1.0
176
     0
 90
        2
176
     1
  1
strokes_ogs.tif
176
     1
290
     0
176
     1
 40
1.0
176
     1
 40
1.0
176
     1
  0
VISUALSTYLE
  5
FF77
102
{ACAD_REACTORS
330
FF68
102
}
330
FF68
100
AcDbVisualStyle
  2
Facepattern
 70
    15
177
     3
291
     1
 70
    58
 90
        2
176
     1
 90
        2
176
     1
 90
        0
176
     1
 90
        0
176
     1
 40
0.6
176
     1
 40
30.0
176
     1
 62
     7
420
 16777215
176
     1
 90
        1
176
     1
 90
        4
176
     1
 62
     7
176
     1
 62
   257
176
     1
 90
        1
176
     1
 90
        1
176
     1
 40
1.0
176
     1
 90
        8
176
     1
 62
     7
176
     1
 40
1.0
176
     1
 90
        1
176
     1
 90
        6
176
     1
 90
        2
176
     1
 62
     7
176
     1
 90
        5
176
     1
 90
        0
176
     1
 90
        0
176
     1
290
     0
176
     1
 90
        1
176
     1
 40
0.0
176
     1
 90
        0
176
     1
290
     0
176
     1
290
     1
176
     1
290
     1
176
     1
290
     0
176
     1
290
     0
176
     1
290
     0
176
     1
290
     0
176
     1
290
     0
176
     1
290
     0
176
     1
 90
       50
176
     1
 40
0.0
176
     1
 40
1.0
176
     1
 90
        0
176
     1
 62
    18
420
        0
176
     1
 90
       50
176
     1
 90
        3
176
     1
 62
     5
420
      255
176
     1
290
     0
176
     1
 90
       50
176
     1
 90
       50
176
     1
 90
       50
176
     1
290
     0
176
     1
 90
       50
176
     1
 62
   256
176
     0
 40
1.0
176
     0
 90
        2
176
     1
  1
strokes_ogs.tif
176
     1
290
     0
176
     1
 40
1.0
176
     1
 40
1.0
176
     1
  0
VISUALSTYLE
  5
FF69
102
{ACAD_REACTORS
330
FF68
102
}
330
FF68
100
AcDbVisualStyle
  2
Flat
 70
     0
177
     3
291
     1
 70
    58
 90
        2
176
     1
 90
        1
176
     1
 90
        1
176
     1
 90
        2
176
     1
 40
0.6
176
     1
 40
30.0
176
     1
 62
     7
420
 16777215
176
     1
 90
        0
176
     1
 90
        4
176
     1
 62
     7
176
     1
 62
   257
176
     1
 90
        1
176
     1
 90
        1
176
     1
 40
1.0
176
     1
 90
        8
176
     1
 62
     7
176
     1
 40
1.0
176
     1
 90
        1
176
     1
 90
        6
176
     1
 90
        2
176
     1
 62
     7
176
     1
 90
        5
176
     1
 90
        0
176
     1
 90
        0
176
     1
290
     0
176
     1
 90
       13
176
     1
 40
0.0
176
     1
 90
        0
176
     1
290
     0
176
     1
290
     1
176
     1
290
     1
176
     1
290
     0
176
     1
290
     0
176
     1
290
     0
176
     1
290
     0
176
     1
290
     0
176
     1
290
     0
176
     1
 90
       50
176
     1
 40
0.0
176
     1
 40
1.0
176
     1
 90
        0
176
     1
 62
    18
420
        0
176
     1
 90
       50
176
     1
 90
        3
176
     1
 62
     5
420
      255
176
     1
290
     0
176
     1
 90
       50
176
     1
 90
       50
176
     1
 90
       50
176
     1
290
     0
176
     1
 90
       50
176
     1
 62
   256
176
     0
 40
1.0
176
     0
 90
        2
176
     1
  1
strokes_ogs.tif
176
     1
290
     0
176
     1
 40
1.0
176
     1
 40
1.0
176
     1
  0
VISUALSTYLE
  5
FF6A
102
{ACAD_REACTORS
330
FF68
102
}
330
FF68
100
AcDbVisualStyle
  2
FlatWithEdges
 70
     1
177
     3
291
     1
 70
    58
 90
        2
176
     1
 90
        1
176
     1
 90
        1
176
     1
 90
        2
176
     1
 40
0.6
176
     1
 40
30.0
176
     1
 62
     7
420
 16777215
176
     1
 90
        1
176
     1
 90
        4
176
     1
 62
     7
176
     1
 62
   257
176
     1
 90
        1
176
     1
 90
        1
176
     1
 40
1.0
176
     1
 90
        0
176
     1
 62
   257
176
     1
 40
1.0
176
     1
 90
        1
176
     1
 90
        6
176
     1
 90
        2
176
     1
 62
     7
176
     1
 90
        5
176
     1
 90
        0
176
     1
 90
        0
176
     1
290
     0
176
     1
 90
       13
176
     1
 40
0.0
176
     1
 90
        0
176
     1
290
     0
176
     1
290
     1
176
     1
290
     1
176
     1
290
     0
176
     1
290
     0
176
     1
290
     0
176
     1
290
     0
176
     1
290
     0
176
     1
290
     0
176
     1
 90
       50
176
     1
 40
0.0
176
     1
 40
1.0
176
     1
 90
        0
176
     1
 62
    18
420
        0
176
     1
 90
       50
176
     1
 90
        3
176
     1
 62
     5
420
      255
176
     1
290
     0
176
     1
 90
       50
176
     1
 90
       50
176
     1
 90
       50
176
     1
290
     0
176
     1
 90
       50
176
     1
 62
   256
176
     0
 40
1.0
176
     0
 90
        2
176
     1
  1
strokes_ogs.tif
176
     1
290
     0
176
     1
 40
1.0
176
     1
 40
1.0
176
     1
  0
VISUALSTYLE
  5
FF6B
102
{ACAD_REACTORS
330
FF68
102
}
330
FF68
100
AcDbVisualStyle
  2
Gouraud
 70
     2
177
     3
291
     1
 70
    58
 90
        2
176
     1
 90
        2
176
     1
 90
        1
176
     1
 90
        2
176
     1
 40
0.6
176
     1
 40
30.0
176
     1
 62
     7
420
 16777215
176
     1
 90
        0
176
     1
 90
        4
176
     1
 62
     7
176
     1
 62
   257
176
     1
 90
        1
176
     1
 90
        1
176
     1
 40
1.0
176
     1
 90
        0
176
     1
 62
     7
176
     1
 40
1.0
176
     1
 90
        1
176
     1
 90
        6
176
     1
 90
        2
176
     1
 62
     7
176
     1
 90
        5
176
     1
 90
        0
176
     1
 90
        0
176
     1
290
     0
176
     1
 90
       13
176
     1
 40
0.0
176
     1
 90
        0
176
     1
290
     0
176
     1
290
     1
176
     1
290
     1
176
     1
290
     0
176
     1
290
     0
176
     1
290
     0
176
     1
290
     0
176
     1
290
     0
176
     1
290
     0
176
     1
 90
       50
176
     1
 40
0.0
176
     1
 40
1.0
176
     1
 90
        0
176
     1
 62
    18
420
        0
176
     1
 90
       50
176
     1
 90
        3
176
     1
 62
     5
420
      255
176
     1
290
     0
176
     1
 90
       50
176
     1
 90
       50
176
     1
 90
       50
176
     1
290
     0
176
     1
 90
       50
176
     1
 62
   256
176
     0
 40
1.0
176
     0
 90
        2
176
     1
  1
strokes_ogs.tif
176
     1
290
     0
176
     1
 40
1.0
176
     1
 40
1.0
176
     1
  0
VISUALSTYLE
  5
FF6C
102
{ACAD_REACTORS
330
FF68
102
}
330
FF68
100
AcDbVisualStyle
  2
GouraudWithEdges
 70
     3
177
     3
291
     1
 70
    58
 90
        2
176
     1
 90
        2
176
     1
 90
        1
176
     1
 90
        2
176
     1
 40
0.6
176
     1
 40
30.0
176
     1
 62
     7
420
 16777215
176
     1
 90
        1
176
     1
 90
        4
176
     1
 62
     7
176
     1
 62
   257
176
     1
 90
        1
176
     1
 90
        1
176
     1
 40
1.0
176
     1
 90
        0
176
     1
 62
   257
176
     1
 40
1.0
176
     1
 90
        1
176
     1
 90
        6
176
     1
 90
        2
176
     1
 62
     7
176
     1
 90
        5
176
     1
 90
        0
176
     1
 90
        0
176
     1
290
     0
176
     1
 90
       13
176
     1
 40
0.0
176
     1
 90
        0
176
     1
290
     0
176
     1
290
     1
176
     1
290
     1
176
     1
290
     0
176
     1
290
     0
176
     1
290
     0
176
     1
290
     0
176
     1
290
     0
176
     1
290
     0
176
     1
 90
       50
176
     1
 40
0.0
176
     1
 40
1.0
176
     1
 90
        0
176
     1
 62
    18
420
        0
176
     1
 90
       50
176
     1
 90
        3
176
     1
 62
     5
420
      255
176
     1
290
     0
176
     1
 90
       50
176
     1
 90
       50
176
     1
 90
       50
176
     1
290
     0
176
     1
 90
       50
176
     1
 62
   256
176
     0
 40
1.0
176
     0
 90
        2
176
     1
  1
strokes_ogs.tif
176
     1
290
     0
176
     1
 40
1.0
176
     1
 40
1.0
176
     1
  0
VISUALSTYLE
  5
1010082
102
{ACAD_REACTORS
330
FF68
102
}
330
FF68
100
AcDbVisualStyle
  2
Hidden
 70
     6
177
     3
291
     0
 70
    58
 90
        1
176
     1
 90
        2
176
     1
 90
        2
176
     1
 90
        0
176
     1
 40
0.6
176
     1
 40
30.0
176
     1
 62
     7
420
 16777215
176
     1
 90
        2
176
     1
 90
        2
176
     1
 62
     7
176
     1
 62
   257
176
     1
 90
        2
176
     1
 90
        1
176
     1
 40
40.0
176
     1
 90
        0
176
     1
 62
   257
176
     1
 40
1.0
176
     1
 90
        1
176
     1
 90
        6
176
     1
 90
        2
176
     1
 62
     7
176
     1
 90
        3
176
     1
 90
        0
176
     1
 90
        0
176
     1
290
     0
176
     1
 90
        1
176
     1
 40
0.0
176
     1
 90
        0
176
     1
290
     0
176
     1
290
     1
176
     1
290
     1
176
     1
290
     0
176
     1
290
     0
176
     1
290
     0
176
     1
290
     0
176
     1
290
     0
176
     1
290
     0
176
     1
 90
       50
176
     1
 40
0.0
176
     1
 40
1.0
176
     1
 90
        0
176
     1
 62
    18
420
        0
176
     1
 90
       50
176
     1
 90
        3
176
     1
 62
     5
420
      255
176
     1
290
     0
176
     1
 90
       50
176
     1
 90
       50
176
     1
 90
       50
176
     1
290
     0
176
     1
 90
       50
176
     1
 62
   256
176
     0
 40
1.0
176
     0
 90
        2
176
     1
  1
strokes_ogs.tif
176
     1
290
     0
176
     1
 40
1.0
176
     1
 40
1.0
176
     1
  0
VISUALSTYLE
  5
FFDF
102
{ACAD_REACTORS
330
FF68
102
}
330
FF68
100
AcDbVisualStyle
  2
JitterOff
 70
    20
177
     3
291
     1
 70
    58
 90
        2
176
     0
 90
        2
176
     0
 90
        0
176
     0
 90
        0
176
     0
 40
0.6
176
     0
 40
30.0
176
     0
 62
     7
420
 16777215
176
     0
 90
        1
176
     0
 90
        4
176
     0
 62
     7
176
     0
 62
   257
176
     0
 90
        1
176
     0
 90
        1
176
     0
 40
1.0
176
     0
 90
       10
176
     2
 62
     7
176
     0
 40
1.0
176
     0
 90
        1
176
     0
 90
        6
176
     0
 90
        2
176
     0
 62
     7
176
     0
 90
        5
176
     0
 90
        0
176
     0
 90
        0
176
     0
290
     0
176
     0
 90
        1
176
     0
 40
0.0
176
     0
 90
        0
176
     0
290
     0
176
     1
290
     1
176
     1
290
     1
176
     1
290
     0
176
     1
290
     0
176
     1
290
     0
176
     1
290
     0
176
     1
290
     0
176
     1
290
     0
176
     1
 90
       50
176
     1
 40
0.0
176
     1
 40
1.0
176
     1
 90
        0
176
     1
 62
    18
420
        0
176
     1
 90
       50
176
     1
 90
        3
176
     1
 62
     5
420
      255
176
     1
290
     0
176
     1
 90
       50
176
     1
 90
       50
176
     1
 90
       50
176
     1
290
     0
176
     1
 90
       50
176
     1
 62
   256
176
     0
 40
1.0
176
     0
 90
        2
176
     1
  1
strokes_ogs.tif
176
     1
290
     0
176
     1
 40
1.0
176
     1
 40
1.0
176
     1
  0
VISUALSTYLE
  5
FF76
102
{ACAD_REACTORS
330
FF68
102
}
330
FF68
100
AcDbVisualStyle
  2
Linepattern
 70
    14
177
     3
291
     1
 70
    58
 90
        2
176
     1
 90
        2
176
     1
 90
        0
176
     1
 90
        0
176
     1
 40
0.6
176
     1
 40
30.0
176
     1
 62
     7
420
 16777215
176
     1
 90
        1
176
     1
 90
        4
176
     1
 62
     7
176
     1
 62
   257
176
     1
 90
        7
176
     1
 90
        7
176
     1
 40
1.0
176
     1
 90
        8
176
     1
 62
     7
176
     1
 40
1.0
176
     1
 90
        1
176
     1
 90
        6
176
     1
 90
        2
176
     1
 62
     7
176
     1
 90
        5
176
     1
 90
        0
176
     1
 90
        0
176
     1
290
     0
176
     1
 90
        1
176
     1
 40
0.0
176
     1
 90
        0
176
     1
290
     0
176
     1
290
     1
176
     1
290
     1
176
     1
290
     0
176
     1
290
     0
176
     1
290
     0
176
     1
290
     0
176
     1
290
     0
176
     1
290
     0
176
     1
 90
       50
176
     1
 40
0.0
176
     1
 40
1.0
176
     1
 90
        0
176
     1
 62
    18
420
        0
176
     1
 90
       50
176
     1
 90
        3
176
     1
 62
     5
420
      255
176
     1
290
     0
176
     1
 90
       50
176
     1
 90
       50
176
     1
 90
       50
176
     1
290
     0
176
     1
 90
       50
176
     1
 62
   256
176
     0
 40
1.0
176
     0
 90
        2
176
     1
  1
strokes_ogs.tif
176
     1
290
     0
176
     1
 40
1.0
176
     1
 40
1.0
176
     1
  0
VISUALSTYLE
  5
FFE0
102
{ACAD_REACTORS
330
FF68
102
}
330
FF68
100
AcDbVisualStyle
  2
OverhangOff
 70
    21
177
     3
291
     1
 70
    58
 90
        2
176
     0
 90
        2
176
     0
 90
        0
176
     0
 90
        0
176
     0
 40
0.6
176
     0
 40
30.0
176
     0
 62
     7
420
 16777215
176
     0
 90
        1
176
     0
 90
        4
176
     0
 62
     7
176
     0
 62
   257
176
     0
 90
        1
176
     0
 90
        1
176
     0
 40
1.0
176
     0
 90
        9
176
     2
 62
     7
176
     0
 40
1.0
176
     0
 90
        1
176
     0
 90
        6
176
     0
 90
        2
176
     0
 62
     7
176
     0
 90
        5
176
     0
 90
        0
176
     0
 90
        0
176
     0
290
     0
176
     0
 90
        1
176
     0
 40
0.0
176
     0
 90
        0
176
     0
290
     0
176
     1
290
     1
176
     1
290
     1
176
     1
290
     0
176
     1
290
     0
176
     1
290
     0
176
     1
290
     0
176
     1
290
     0
176
     1
290
     0
176
     1
 90
       50
176
     1
 40
0.0
176
     1
 40
1.0
176
     1
 90
        0
176
     1
 62
    18
420
        0
176
     1
 90
       50
176
     1
 90
        3
176
     1
 62
     5
420
      255
176
     1
290
     0
176
     1
 90
       50
176
     1
 90
       50
176
     1
 90
       50
176
     1
290
     0
176
     1
 90
       50
176
     1
 62
   256
176
     0
 40
1.0
176
     0
 90
        2
176
     1
  1
strokes_ogs.tif
176
     1
290
     0
176
     1
 40
1.0
176
     1
 40
1.0
176
     1
  0
VISUALSTYLE
  5
FF72
102
{ACAD_REACTORS
330
FF68
102
}
330
FF68
100
AcDbVisualStyle
  2
Realistic
 70
     8
177
     3
291
     0
 70
    58
 90
        2
176
     1
 90
        2
176
     1
 90
        0
176
     1
 90
        0
176
     1
 40
0.6
176
     1
 40
30.0
176
     1
 62
     7
420
 16777215
176
     1
 90
        1
176
     1
 90
        0
176
     1
 62
     7
176
     1
 62
   257
176
     1
 90
        1
176
     1
 90
        1
176
     1
 40
1.0
176
     1
 90
        8
176
     1
 62
     8
420
  7895160
176
     1
 40
1.0
176
     1
 90
        1
176
     1
 90
        6
176
     1
 90
        2
176
     1
 62
     7
176
     1
 90
        5
176
     1
 90
        0
176
     1
 90
        0
176
     1
290
     0
176
     1
 90
       13
176
     1
 40
0.0
176
     1
 90
        0
176
     1
290
     0
176
     1
290
     1
176
     1
290
     1
176
     1
290
     0
176
     1
290
     0
176
     1
290
     0
176
     1
290
     0
176
     1
290
     0
176
     1
290
     0
176
     1
 90
       50
176
     1
 40
0.0
176
     1
 40
1.0
176
     1
 90
        0
176
     1
 62
    18
420
        0
176
     1
 90
       50
176
     1
 90
        3
176
     1
 62
     5
420
      255
176
     1
290
     0
176
     1
 90
       50
176
     1
 90
       50
176
     1
 90
       50
176
     1
290
     0
176
     1
 90
       50
176
     1
 62
   256
176
     0
 40
1.0
176
     0
 90
        2
176
     1
  1
strokes_ogs.tif
176
     1
290
     0
176
     1
 40
1.0
176
     1
 40
1.0
176
     1
  0
VISUALSTYLE
  5
1010087
102
{ACAD_REACTORS
330
FF68
102
}
330
FF68
100
AcDbVisualStyle
  2
Shaded
 70
    27
177
     3
291
     0
 70
    58
 90
        2
176
     1
 90
        2
176
     1
 90
        1
176
     1
 90
        2
176
     1
 40
0.6
176
     1
 40
30.0
176
     1
 62
     7
420
 16777215
176
     1
 90
        0
176
     1
 90
        4
176
     1
 62
     7
176
     1
 62
   257
176
     1
 90
        1
176
     1
 90
        1
176
     1
 40
1.0
176
     1
 90
        8
176
     1
 62
   257
176
     1
 40
1.0
176
     1
 90
        1
176
     1
 90
        6
176
     1
 90
        2
176
     1
 62
     8
420
  7895160
176
     1
 90
        3
176
     1
 90
        0
176
     1
 90
        0
176
     1
290
     0
176
     1
 90
        5
176
     1
 40
0.0
176
     1
 90
        0
176
     1
290
     0
176
     1
290
     1
176
     1
290
     1
176
     1
290
     0
176
     1
290
     0
176
     1
290
     0
176
     1
290
     0
176
     1
290
     0
176
     1
290
     0
176
     1
 90
       50
176
     1
 40
0.0
176
     1
 40
1.0
176
     1
 90
        0
176
     1
 62
    18
420
        0
176
     1
 90
       50
176
     1
 90
        3
176
     1
 62
     5
420
      255
176
     1
290
     0
176
     1
 90
       50
176
     1
 90
       50
176
     1
 90
       50
176
     1
290
     0
176
     1
 90
       50
176
     1
 62
   256
176
     0
 40
1.0
176
     0
 90
        2
176
     1
  1
strokes_ogs.tif
176
     1
290
     0
176
     1
 40
1.0
176
     1
 40
1.0
176
     1
  0
VISUALSTYLE
  5
1010086
102
{ACAD_REACTORS
330
FF68
102
}
330
FF68
100
AcDbVisualStyle
  2
Shaded with edges
 70
    26
177
     3
291
     0
 70
    58
 90
        2
176
     1
 90
        2
176
     1
 90
        1
176
     1
 90
        2
176
     1
 40
0.6
176
     1
 40
30.0
176
     1
 62
     7
420
 16777215
176
     1
 90
        1
176
     1
 90
        2
176
     1
 62
     7
176
     1
 62
   257
176
     1
 90
        2
176
     1
 90
        1
176
     1
 40
1.0
176
     1
 90
        8
176
     1
 62
   257
176
     1
 40
1.0
176
     1
 90
        1
176
     1
 90
        6
176
     1
 90
        2
176
     1
 62
     7
176
     1
 90
        3
176
     1
 90
        0
176
     1
 90
        0
176
     1
290
     0
176
     1
 90
        5
176
     1
 40
0.0
176
     1
 90
        0
176
     1
290
     0
176
     1
290
     1
176
     1
290
     1
176
     1
290
     0
176
     1
290
     0
176
     1
290
     0
176
     1
290
     0
176
     1
290
     0
176
     1
290
     0
176
     1
 90
       50
176
     1
 40
0.0
176
     1
 40
1.0
176
     1
 90
        0
176
     1
 62
    18
420
        0
176
     1
 90
       50
176
     1
 90
        3
176
     1
 62
     5
420
      255
176
     1
290
     0
176
     1
 90
       50
176
     1
 90
       50
176
     1
 90
       50
176
     1
290
     0
176
     1
 90
       50
176
     1
 62
   256
176
     0
 40
1.0
176
     0
 90
        2
176
     1
  1
strokes_ogs.tif
176
     1
290
     0
176
     1
 40
1.0
176
     1
 40
1.0
176
     1
  0
VISUALSTYLE
  5
1010083
102
{ACAD_REACTORS
330
FF68
102
}
330
FF68
100
AcDbVisualStyle
  2
Shades of Gray
 70
    23
177
     3
291
     0
 70
    58
 90
        2
176
     1
 90
        2
176
     1
 90
        3
176
     1
 90
        0
176
     1
 40
0.6
176
     1
 40
30.0
176
     1
 62
     7
420
 16777215
176
     1
 90
        2
176
     1
 90
        2
176
     1
 62
     7
176
     1
 62
     7
176
     1
 90
        1
176
     1
 90
        1
176
     1
 40
40.0
176
     1
 90
        8
176
     1
 62
     7
176
     1
 40
1.0
176
     1
 90
        1
176
     1
 90
        6
176
     1
 90
        2
176
     1
 62
     7
176
     1
 90
        3
176
     1
 90
        0
176
     1
 90
        0
176
     1
290
     0
176
     1
 90
        1
176
     1
 40
0.0
176
     1
 90
        0
176
     1
290
     0
176
     1
290
     1
176
     1
290
     1
176
     1
290
     0
176
     1
290
     0
176
     1
290
     0
176
     1
290
     0
176
     1
290
     0
176
     1
290
     0
176
     1
 90
       50
176
     1
 40
0.0
176
     1
 40
1.0
176
     1
 90
        0
176
     1
 62
    18
420
        0
176
     1
 90
       50
176
     1
 90
        3
176
     1
 62
     5
420
      255
176
     1
290
     0
176
     1
 90
       50
176
     1
 90
       50
176
     1
 90
       50
176
     1
290
     0
176
     1
 90
       50
176
     1
 62
   256
176
     0
 40
1.0
176
     0
 90
        2
176
     1
  1
strokes_ogs.tif
176
     1
290
     0
176
     1
 40
1.0
176
     1
 40
1.0
176
     1
  0
VISUALSTYLE
  5
1010084
102
{ACAD_REACTORS
330
FF68
102
}
330
FF68
100
AcDbVisualStyle
  2
Sketchy
 70
    24
177
     3
291
     0
 70
    58
 90
        1
176
     1
 90
        2
176
     1
 90
        2
176
     1
 90
        0
176
     1
 40
0.6
176
     1
 40
30.0
176
     1
 62
     7
420
 16777215
176
     1
 90
        2
176
     1
 90
        2
176
     1
 62
     7
176
     1
 62
     7
176
     1
 90
        1
176
     1
 90
        1
176
     1
 40
40.0
176
     1
 90
       11
176
     1
 62
     7
176
     1
 40
1.0
176
     1
 90
        1
176
     1
 90
        6
176
     1
 90
        2
176
     1
 62
     7
176
     1
 90
        6
176
     1
 90
        0
176
     1
 90
        0
176
     1
290
     0
176
     1
 90
        1
176
     1
 40
0.0
176
     1
 90
        0
176
     1
290
     0
176
     1
290
     1
176
     1
290
     1
176
     1
290
     0
176
     1
290
     0
176
     1
290
     0
176
     1
290
     0
176
     1
290
     0
176
     1
290
     0
176
     1
 90
       50
176
     1
 40
0.0
176
     1
 40
1.0
176
     1
 90
        0
176
     1
 62
    18
420
        0
176
     1
 90
       50
176
     1
 90
        3
176
     1
 62
     5
420
      255
176
     1
290
     0
176
     1
 90
       50
176
     1
 90
       50
176
     1
 90
       50
176
     1
290
     0
176
     1
 90
       50
176
     1
 62
   256
176
     0
 40
1.0
176
     0
 90
        2
176
     1
  1
strokes_ogs.tif
176
     1
290
     0
176
     1
 40
1.0
176
     1
 40
1.0
176
     1
  0
VISUALSTYLE
  5
FF75
102
{ACAD_REACTORS
330
FF68
102
}
330
FF68
100
AcDbVisualStyle
  2
Thicken
 70
    13
177
     3
291
     1
 70
    58
 90
        2
176
     1
 90
        2
176
     1
 90
        0
176
     1
 90
        0
176
     1
 40
0.6
176
     1
 40
30.0
176
     1
 62
     7
420
 16777215
176
     1
 90
        1
176
     1
 90
        4
176
     1
 62
     7
176
     1
 62
   257
176
     1
 90
        1
176
     1
 90
        1
176
     1
 40
1.0
176
     1
 90
       12
176
     1
 62
     7
176
     1
 40
1.0
176
     1
 90
        1
176
     1
 90
        6
176
     1
 90
        2
176
     1
 62
     7
176
     1
 90
        5
176
     1
 90
        0
176
     1
 90
        0
176
     1
290
     0
176
     1
 90
        1
176
     1
 40
0.0
176
     1
 90
        0
176
     1
290
     0
176
     1
290
     1
176
     1
290
     1
176
     1
290
     0
176
     1
290
     0
176
     1
290
     0
176
     1
290
     0
176
     1
290
     0
176
     1
290
     0
176
     1
 90
       50
176
     1
 40
0.0
176
     1
 40
1.0
176
     1
 90
        0
176
     1
 62
    18
420
        0
176
     1
 90
       50
176
     1
 90
        3
176
     1
 62
     5
420
      255
176
     1
290
     0
176
     1
 90
       50
176
     1
 90
       50
176
     1
 90
       50
176
     1
290
     0
176
     1
 90
       50
176
     1
 62
   256
176
     0
 40
1.0
176
     0
 90
        2
176
     1
  1
strokes_ogs.tif
176
     1
290
     0
176
     1
 40
1.0
176
     1
 40
1.0
176
     1
  0
VISUALSTYLE
  5
1010081
102
{ACAD_REACTORS
330
FF68
102
}
330
FF68
100
AcDbVisualStyle
  2
Wireframe
 70
     5
177
     3
291
     0
 70
    58
 90
        0
176
     1
 90
        2
176
     1
 90
        0
176
     1
 90
        0
176
     1
 40
0.6
176
     1
 40
30.0
176
     1
 62
     7
420
 16777215
176
     1
 90
        1
176
     1
 90
        4
176
     1
 62
     7
176
     1
 62
   257
176
     1
 90
        1
176
     1
 90
        1
176
     1
 40
1.0
176
     1
 90
        0
176
     1
 62
   257
176
     1
 40
1.0
176
     1
 90
        1
176
     1
 90
        6
176
     1
 90
        2
176
     1
 62
     7
176
     1
 90
        3
176
     1
 90
        0
176
     1
 90
        0
176
     1
290
     0
176
     1
 90
        1
176
     1
 40
0.0
176
     1
 90
        0
176
     1
290
     0
176
     1
290
     1
176
     1
290
     1
176
     1
290
     0
176
     1
290
     0
176
     1
290
     0
176
     1
290
     0
176
     1
290
     0
176
     1
290
     0
176
     1
 90
       50
176
     1
 40
0.0
176
     1
 40
1.0
176
     1
 90
        0
176
     1
 62
    18
420
        0
176
     1
 90
       50
176
     1
 90
        3
176
     1
 62
     5
420
      255
176
     1
290
     0
176
     1
 90
       50
176
     1
 90
       50
176
     1
 90
       50
176
     1
290
     0
176
     1
 90
       50
176
     1
 62
   256
176
     0
 40
1.0
176
     0
 90
        2
176
     1
  1
strokes_ogs.tif
176
     1
290
     0
176
     1
 40
1.0
176
     1
 40
1.0
176
     1
  0
VISUALSTYLE
  5
1010085
102
{ACAD_REACTORS
330
FF68
102
}
330
FF68
100
AcDbVisualStyle
  2
X-Ray
 70
    25
177
     3
291
     0
 70
    58
 90
        2
176
     1
 90
        2
176
     1
 90
        1
176
     1
 90
        1
176
     1
 40
0.5
176
     1
 40
30.0
176
     1
 62
     7
420
 16777215
176
     1
 90
        1
176
     1
 90
        0
176
     1
 62
     7
176
     1
 62
   257
176
     1
 90
        1
176
     1
 90
        1
176
     1
 40
1.0
176
     1
 90
        8
176
     1
 62
     7
176
     1
 40
1.0
176
     1
 90
        1
176
     1
 90
        6
176
     1
 90
        2
176
     1
 62
     7
176
     1
 90
        3
176
     1
 90
        0
176
     1
 90
        0
176
     1
290
     0
176
     1
 90
       13
176
     1
 40
0.0
176
     1
 90
        0
176
     1
290
     0
176
     1
290
     1
176
     1
290
     1
176
     1
290
     0
176
     1
290
     0
176
     1
290
     0
176
     1
290
     0
176
     1
290
     0
176
     1
290
     0
176
     1
 90
       50
176
     1
 40
0.0
176
     1
 40
1.0
176
     1
 90
        0
176
     1
 62
    18
420
        0
176
     1
 90
       50
176
     1
 90
        3
176
     1
 62
     5
420
      255
176
     1
290
     0
176
     1
 90
       50
176
     1
 90
       50
176
     1
 90
       50
176
     1
290
     0
176
     1
 90
       50
176
     1
 62
   256
176
     0
 40
1.0
176
     0
 90
        2
176
     1
  1
strokes_ogs.tif
176
     1
290
     0
176
     1
 40
1.0
176
     1
 40
1.0
176
     1
  0
DICTIONARYVAR
  5
FFDC
102
{ACAD_REACTORS
330
2C7C
102
}
330
2C7C
100
DictionaryVariables
280
     0
  1
1:1
  0
DICTIONARYVAR
  5
FFDA
102
{ACAD_REACTORS
330
2C7C
102
}
330
2C7C
100
DictionaryVariables
280
     0
  1
STANDARD
  0
DICTIONARYVAR
  5
CCD1
102
{ACAD_REACTORS
330
2C7C
102
}
330
2C7C
100
DictionaryVariables
280
     0
  1
STANDARD
  0
DICTIONARYVAR
  5
10100A7
102
{ACAD_REACTORS
330
2C7C
102
}
330
2C7C
100
DictionaryVariables
280
     0
  1
Imperial24
  0
DICTIONARYVAR
  5
10100A8
102
{ACAD_REACTORS
330
2C7C
102
}
330
2C7C
100
DictionaryVariables
280
     0
  1
Imperial24
  0
DICTIONARYVAR
  5
CCC6
102
{ACAD_REACTORS
330
2C7C
102
}
330
2C7C
100
DictionaryVariables
280
     0
  1
1
  0
DICTIONARYVAR
  5
10100A9
102
{ACAD_REACTORS
330
2C7C
102
}
330
2C7C
100
DictionaryVariables
280
     0
  1
1
  0
DICTIONARYVAR
  5
10100AA
102
{ACAD_REACTORS
330
2C7C
102
}
330
2C7C
100
DictionaryVariables
280
     0
  1
15
  0
DICTIONARYVAR
  5
FFDD
102
{ACAD_REACTORS
330
2C7C
102
}
330
2C7C
100
DictionaryVariables
280
     0
  1
0
  0
DICTIONARYVAR
  5
FFDB
102
{ACAD_REACTORS
330
2C7C
102
}
330
2C7C
100
DictionaryVariables
280
     0
  1
0
  0
DICTIONARYVAR
  5
2C7D
102
{ACAD_REACTORS
330
2C7C
102
}
330
2C7C
100
DictionaryVariables
280
     0
  1
96
  0
DICTIONARY
  5
10100AE
330
101008B
100
AcDbDictionary
280
     1
281
     1
  3
ACAD_XREC_ROUNDTRIP
360
10100AF
  0
DICTIONARY
  5
CD03
330
5C22
100
AcDbDictionary
280
     1
281
     1
  0
DICTIONARY
  5
FF59
330
FF58
100
AcDbDictionary
280
     1
281
     1
  3
BUMPTILE
360
FF5B
  3
DIFFUSETILE
360
FF5A
  3
OPACITYTILE
360
FF5E
  3
REFLECTIONTILE
360
FF5D
  3
REFRACTIONTILE
360
FF5F
  3
SPECULARTILE
360
FF5C
  0
DICTIONARY
  5
FF51
330
FF50
100
AcDbDictionary
280
     1
281
     1
  3
BUMPTILE
360
FF53
  3
DIFFUSETILE
360
FF52
  3
OPACITYTILE
360
FF56
  3
REFLECTIONTILE
360
FF55
  3
REFRACTIONTILE
360
FF57
  3
SPECULARTILE
360
FF54
  0
DICTIONARY
  5
FF61
330
FF60
100
AcDbDictionary
280
     1
281
     1
  3
BUMPTILE
360
FF63
  3
DIFFUSETILE
360
FF62
  3
OPACITYTILE
360
FF66
  3
REFLECTIONTILE
360
FF65
  3
REFRACTIONTILE
360
FF67
  3
SPECULARTILE
360
FF64
  0
DICTIONARY
  5
10100AC
330
1010089
100
AcDbDictionary
280
     1
281
     1
  3
ACAD_XREC_ROUNDTRIP
360
10100AD
  0
DICTIONARY
  5
FFD7
330
CCCC
100
AcDbDictionary
280
     1
281
     1
  3
ACAD_ROUNDTRIP_2008_TABLESTYLE_CELLSTYLEMAP
360
10100AB
  0
XRECORD
  5
10100AF
102
{ACAD_REACTORS
330
10100AE
102
}
330
10100AE
100
AcDbXrecord
280
     1
102
DISPLAYNAME
  1
Imperial24
102
FLAGS
 90
        0
  0
XRECORD
  5
FF5B
102
{ACAD_REACTORS
330
FF59
102
}
330
FF59
100
AcDbXrecord
280
     1
270
     1
271
     1
  0
XRECORD
  5
FF5A
102
{ACAD_REACTORS
330
FF59
102
}
330
FF59
100
AcDbXrecord
280
     1
270
     1
271
     1
  0
XRECORD
  5
FF5E
102
{ACAD_REACTORS
330
FF59
102
}
330
FF59
100
AcDbXrecord
280
     1
270
     1
271
     1
  0
XRECORD
  5
FF5D
102
{ACAD_REACTORS
330
FF59
102
}
330
FF59
100
AcDbXrecord
280
     1
270
     1
271
     1
  0
XRECORD
  5
FF5F
102
{ACAD_REACTORS
330
FF59
102
}
330
FF59
100
AcDbXrecord
280
     1
270
     1
271
     1
  0
XRECORD
  5
FF5C
102
{ACAD_REACTORS
330
FF59
102
}
330
FF59
100
AcDbXrecord
280
     1
270
     1
271
     1
  0
XRECORD
  5
FF53
102
{ACAD_REACTORS
330
FF51
102
}
330
FF51
100
AcDbXrecord
280
     1
270
     1
271
     1
  0
XRECORD
  5
FF52
102
{ACAD_REACTORS
330
FF51
102
}
330
FF51
100
AcDbXrecord
280
     1
270
     1
271
     1
  0
XRECORD
  5
FF56
102
{ACAD_REACTORS
330
FF51
102
}
330
FF51
100
AcDbXrecord
280
     1
270
     1
271
     1
  0
XRECORD
  5
FF55
102
{ACAD_REACTORS
330
FF51
102
}
330
FF51
100
AcDbXrecord
280
     1
270
     1
271
     1
  0
XRECORD
  5
FF57
102
{ACAD_REACTORS
330
FF51
102
}
330
FF51
100
AcDbXrecord
280
     1
270
     1
271
     1
  0
XRECORD
  5
FF54
102
{ACAD_REACTORS
330
FF51
102
}
330
FF51
100
AcDbXrecord
280
     1
270
     1
271
     1
  0
XRECORD
  5
FF63
102
{ACAD_REACTORS
330
FF61
102
}
330
FF61
100
AcDbXrecord
280
     1
270
     1
271
     1
  0
XRECORD
  5
FF62
102
{ACAD_REACTORS
330
FF61
102
}
330
FF61
100
AcDbXrecord
280
     1
270
     1
271
     1
  0
XRECORD
  5
FF66
102
{ACAD_REACTORS
330
FF61
102
}
330
FF61
100
AcDbXrecord
280
     1
270
     1
271
     1
  0
XRECORD
  5
FF65
102
{ACAD_REACTORS
330
FF61
102
}
330
FF61
100
AcDbXrecord
280
     1
270
     1
271
     1
  0
XRECORD
  5
FF67
102
{ACAD_REACTORS
330
FF61
102
}
330
FF61
100
AcDbXrecord
280
     1
270
     1
271
     1
  0
XRECORD
  5
FF64
102
{ACAD_REACTORS
330
FF61
102
}
330
FF61
100
AcDbXrecord
280
     1
270
     1
271
     1
  0
XRECORD
  5
10100AD
102
{ACAD_REACTORS
330
10100AC
102
}
330
10100AC
100
AcDbXrecord
280
     1
102
DISPLAYNAME
  1
Imperial24
102
FLAGS
 90
        0
  0
CELLSTYLEMAP
  5
10100AB
102
{ACAD_REACTORS
330
FFD7
102
}
330
FFD7
100
AcDbCellStyleMap
 90
        3
300
CELLSTYLE
  1
TABLEFORMAT_BEGIN
 90
        5
170
     1
 91
        0
 92
    32768
 62
   257
 93
        1
300
CONTENTFORMAT
  1
CONTENTFORMAT_BEGIN
 90
        0
 91
        0
 92
        4
 93
        0
300

 40
0.0
140
1.0
 94
        5
 62
     0
340
F
144
0.25
309
CONTENTFORMAT_END
171
     0
 94
        6
 95
        1
302
GRIDFORMAT
  1
GRIDFORMAT_BEGIN
 90
        0
 91
        1
 62
     0
 92
       -2
340
0
 93
        0
 40
0.045
309
GRIDFORMAT_END
 95
        2
302
GRIDFORMAT
  1
GRIDFORMAT_BEGIN
 90
        0
 91
        1
 62
     0
 92
       -2
340
0
 93
        0
 40
0.045
309
GRIDFORMAT_END
 95
        4
302
GRIDFORMAT
  1
GRIDFORMAT_BEGIN
 90
        0
 91
        1
 62
     0
 92
       -2
340
0
 93
        0
 40
0.045
309
GRIDFORMAT_END
 95
        8
302
GRIDFORMAT
  1
GRIDFORMAT_BEGIN
 90
        0
 91
        1
 62
     0
 92
       -2
340
0
 93
        0
 40
0.045
309
GRIDFORMAT_END
 95
       16
302
GRIDFORMAT
  1
GRIDFORMAT_BEGIN
 90
        0
 91
        1
 62
     0
 92
       -2
340
0
 93
        0
 40
0.045
309
GRIDFORMAT_END
 95
       32
302
GRIDFORMAT
  1
GRIDFORMAT_BEGIN
 90
        0
 91
        1
 62
     0
 92
       -2
340
0
 93
        0
 40
0.045
309
GRIDFORMAT_END
309
TABLEFORMAT_END
  1
CELLSTYLE_BEGIN
 90
        1
 91
        1
300
_TITLE
309
CELLSTYLE_END
300
CELLSTYLE
  1
TABLEFORMAT_BEGIN
 90
        5
170
     1
 91
        0
 92
        0
 62
   257
 93
        1
300
CONTENTFORMAT
  1
CONTENTFORMAT_BEGIN
 90
        0
 91
        0
 92
        4
 93
        0
300

 40
0.0
140
1.0
 94
        5
 62
     0
340
F
144
0.18
309
CONTENTFORMAT_END
171
     0
 94
        6
 95
        1
302
GRIDFORMAT
  1
GRIDFORMAT_BEGIN
 90
        0
 91
        1
 62
     0
 92
       -2
340
0
 93
        0
 40
0.045
309
GRIDFORMAT_END
 95
        2
302
GRIDFORMAT
  1
GRIDFORMAT_BEGIN
 90
        0
 91
        1
 62
     0
 92
       -2
340
0
 93
        0
 40
0.045
309
GRIDFORMAT_END
 95
        4
302
GRIDFORMAT
  1
GRIDFORMAT_BEGIN
 90
        0
 91
        1
 62
     0
 92
       -2
340
0
 93
        0
 40
0.045
309
GRIDFORMAT_END
 95
        8
302
GRIDFORMAT
  1
GRIDFORMAT_BEGIN
 90
        0
 91
        1
 62
     0
 92
       -2
340
0
 93
        0
 40
0.045
309
GRIDFORMAT_END
 95
       16
302
GRIDFORMAT
  1
GRIDFORMAT_BEGIN
 90
        0
 91
        1
 62
     0
 92
       -2
340
0
 93
        0
 40
0.045
309
GRIDFORMAT_END
 95
       32
302
GRIDFORMAT
  1
GRIDFORMAT_BEGIN
 90
        0
 91
        1
 62
     0
 92
       -2
340
0
 93
        0
 40
0.045
309
GRIDFORMAT_END
309
TABLEFORMAT_END
  1
CELLSTYLE_BEGIN
 90
        2
 91
        1
300
_HEADER
309
CELLSTYLE_END
300
CELLSTYLE
  1
TABLEFORMAT_BEGIN
 90
        5
170
     1
 91
        0
 92
        0
 62
   257
 93
        1
300
CONTENTFORMAT
  1
CONTENTFORMAT_BEGIN
 90
        0
 91
        0
 92
        4
 93
        0
300

 40
0.0
140
1.0
 94
        2
 62
     0
340
F
144
0.18
309
CONTENTFORMAT_END
171
     0
 94
        6
 95
        1
302
GRIDFORMAT
  1
GRIDFORMAT_BEGIN
 90
        0
 91
        1
 62
     0
 92
       -2
340
0
 93
        0
 40
0.045
309
GRIDFORMAT_END
 95
        2
302
GRIDFORMAT
  1
GRIDFORMAT_BEGIN
 90
        0
 91
        1
 62
     0
 92
       -2
340
0
 93
        0
 40
0.045
309
GRIDFORMAT_END
 95
        4
302
GRIDFORMAT
  1
GRIDFORMAT_BEGIN
 90
        0
 91
        1
 62
     0
 92
       -2
340
0
 93
        0
 40
0.045
309
GRIDFORMAT_END
 95
        8
302
GRIDFORMAT
  1
GRIDFORMAT_BEGIN
 90
        0
 91
        1
 62
     0
 92
       -2
340
0
 93
        0
 40
0.045
309
GRIDFORMAT_END
 95
       16
302
GRIDFORMAT
  1
GRIDFORMAT_BEGIN
 90
        0
 91
        1
 62
     0
 92
       -2
340
0
 93
        0
 40
0.045
309
GRIDFORMAT_END
 95
       32
302
GRIDFORMAT
  1
GRIDFORMAT_BEGIN
 90
        0
 91
        1
 62
     0
 92
       -2
340
0
 93
        0
 40
0.045
309
GRIDFORMAT_END
309
TABLEFORMAT_END
  1
CELLSTYLE_BEGIN
 90
        3
 91
        2
300
_DATA
309
CELLSTYLE_END
  0
ENDSEC
  0
SECTION
  2
ACDSDATA
 70
     2
 71
     8
  0
ACDSSCHEMA
 90
        0
  1
AcDb_Thumbnail_Schema
  2
AcDbDs::ID
280
    10
 91
        8
  2
Thumbnail_Data
280
    15
 91
        0
101
ACDSRECORD
 95
        0
 90
        1
  2
AcDbDs::TreatedAsObjectData
280
     1
291
     1
101
ACDSRECORD
 95
        0
 90
        2
  2
AcDbDs::Legacy
280
     1
291
     1
101
ACDSRECORD
  1
AcDbDs::ID
 90
        3
  2
AcDs:Indexable
280
     1
291
     1
101
ACDSRECORD
  1
AcDbDs::ID
 90
        4
  2
AcDbDs::HandleAttribute
280
     7
282
     1
  0
ACDSSCHEMA
 90
        1
  1
AcDbDs::TreatedAsObjectDataSchema
  2
AcDbDs::TreatedAsObjectData
280
     1
 91
        0
  0
ACDSSCHEMA
 90
        2
  1
AcDbDs::LegacySchema
  2
AcDbDs::Legacy
280
     1
 91
        0
  0
ACDSSCHEMA
 90
        3
  1
AcDbDs::IndexedPropertySchema
  2
AcDs:Indexable
280
     1
 91
        0
  0
ACDSSCHEMA
 90
        4
  1
AcDbDs::HandleAttributeSchema
  2
AcDbDs::HandleAttribute
280
     7
 91
        1
284
     1
  0
ACDSRECORD
 90
        0
  2
AcDbDs::ID
280
    10
320
5C22
  2
Thumbnail_Data
280
    15
 94
     1962
310
89504E470D0A1A0A0000000D4948445200000100000000B5080300000087DCD12600000300504C5445FFFFFF000000C8C8C80000000000000000000000000000000000000000000000000000330000660000990000CC0000FF0033000033330033660033990033CC0033FF0066000066330066660066990066CC0066FF0099
310
000099330099660099990099CC0099FF00CC0000CC3300CC6600CC9900CCCC00CCFF00FF0000FF3300FF6600FF9900FFCC00FFFF3300003300333300663300993300CC3300FF3333003333333333663333993333CC3333FF3366003366333366663366993366CC3366FF3399003399333399663399993399CC3399FF33CC00
310
33CC3333CC6633CC9933CCCC33CCFF33FF0033FF3333FF6633FF9933FFCC33FFFF6600006600336600666600996600CC6600FF6633006633336633666633996633CC6633FF6666006666336666666666996666CC6666FF6699006699336699666699996699CC6699FF66CC0066CC3366CC6666CC9966CCCC66CCFF66FF0066
310
FF3366FF6666FF9966FFCC66FFFF9900009900339900669900999900CC9900FF9933009933339933669933999933CC9933FF9966009966339966669966999966CC9966FF9999009999339999669999999999CC9999FF99CC0099CC3399CC6699CC9999CCCC99CCFF99FF0099FF3399FF6699FF9999FFCC99FFFFCC0000CC00
310
33CC0066CC0099CC00CCCC00FFCC3300CC3333CC3366CC3399CC33CCCC33FFCC6600CC6633CC6666CC6699CC66CCCC66FFCC9900CC9933CC9966CC9999CC99CCCC99FFCCCC00CCCC33CCCC66CCCC99CCCCCCCCCCFFCCFF00CCFF33CCFF66CCFF99CCFFCCCCFFFFFF0000FF0033FF0066FF0099FF00CCFF00FFFF3300FF3333
310
FF3366FF3399FF33CCFF33FFFF6600FF6633FF6666FF6699FF66CCFF66FFFF9900FF9933FF9966FF9999FF99CCFF99FFFFCC00FFCC33FFCC66FFCC99FFCCCCFFCCFFFFFF00FFFF33FFFF66FFFF99FFFFCCFFFFFF0000000D0D0D1A1A1A2828283535354343435050505D5D5D6B6B6B787878868686939393A1A1A1AEAEAEBB
310
BBBBC9C9C9D6D6D6E4E4E4F1F1F1FFFFFF000000000000000000000000000000000000000000000000000000000000B0E2D235000004654944415478DAEDDD4B7684201005D05A8E13F63FAB95307298D38B880AF8FFA09628D4AB41D2491B8F5C0A508836FDFE7407FD4879000000000040137513CABE6ACF807A9901CA62
310
0630D5A969FFE7BCEABA9EFCE00B7F12606A576755FC70BC43BDD7074DE0B0C0B5D4A1AD26E6A9DF877E6DEBCD8D5F9C0198BEFB30C0D61BAB7FB62B39D2A1F9514734811940B20CB80410D907AC97691D60EF50F3EB04310C9E1E06A9801ADE6B6374D4040A00D8AF766D00A43003B6B663BD006E33D500561B80F15185B0
310
CC1A3360287F9300BD8032009705CCBA0046F9DF7780EA9A802B3FEB0058BB3EECCA6F0A07D8B940E6690684D3C242016CEDAAD86334FD1DF3340362E703326D02ECA307E0190033150D602729E1FB80B617209E9E0653E10093A1B0D200B0334B58B529F000003F5112160270AF5D7FD09E031A921F05F891B8DB04783C0A
310
8C77293F0A7C2B033647019AD04A8E028FD42B0B7582CBFE60E8035EC8009B1C606BCF2F75825F00D8F9AB920028054068D8263A6CFCA62200E3A9F0E5FAC07D007F8235997413880EF5DA80B8BE949D0640AA09CC777719E0F9B5C131806413B8014069FB8001C0C411D8A8E2B78DC0F4E99F054073D8824DA043584E5C69
310
01200300000000000000407100E1444829802BB90D2F340290CB80EE653CC0E5E9D18F01F80D6CD85A5B0684F76D7FAE1F05D0557F21006618058E040ACC80BEE3B3E17A0F006A009A666C57430940DB8BD9A1CA870CB06A32A00330C5025800C400AC0C833100D6660FC01C00E627424A00866DFA62FB53E12880029A80CF
310
00572A773164CCC1CC405E00DC0DF4C6EE453F1D40B65FF6DCD9BCBD6A747BBCF3CF32A986418E9F110A97C3654D88B0F6293100E805E0305D810C0000000000000000000000000000840172581B44063C0CF0F519A1F6F890010000000000000000000000CA018C1080C91420EAD6C90800BFB71C0122046C4CF9330690B8
310
71B2D96556374E72A834D1BBC733BA7596FB7B87E546817EA739017CE4F6F91701482C0398D2CC040A01F033002649D5DF0538FD0C0DFBF0133412039C8FF80C281560E5C94A2B4F5B2A1860A5156D742E6502B0E86639023CFA28B90C003E1A000000000000000000000000000000CE0274770D768FED178CF03938790090
310
FFEC16E1F257261300EAEE86EE3FBD4620BA7DA59D14BC09100E5A10C0E4D307B86F463A03940350760004803B473D7DB20E322057000300CD000600820094218060BD6907A8009011C0682153108072CC0043CA01DA614037000100000600AA014806C0640C50014004E07A31AEC78700AA9B001FCF009B06E054B50B0284
310
15B22B00FDA298B9DD92DF02F002CBD80038DE3A37804D8161EDD4FA8A3655255EFE970078E7BA7E593097011549957903E00042B4138C8AF9EAF9338B9FAF009C8C47FFEB01006F9C087D29EA0B0AA93300000000408A5160ABBFDF1A09005008008641FF21F3D47DE07C10F134C3FBB4C8019D19506E1F502F4A31FB4D3D
310
062B0BC065F812C03781AD8B863980BE580228FB3A05D01B000000009403FCE90EFA298F7FB78E4E44463651F30000000049454E44AE426082
  0
ENDSEC
  0
EOF
