  0
SECTION
  2
HEADER
  9
$ACADVER
  1
AC1027
  9
$ACADMAINTVER
 70
   125
  9
$DWGCODEPAGE
  3
ANSI_1252
  9
$LASTSAVEDBY
  1
fleminab
  9
$REQUIREDVERSIONS
160
                 0
  9
$INSBASE
 10
0.0
 20
0.0
 30
0.0
  9
$EXTMIN
 10
15581.32500531447
 20
-63.78638377095012
 30
-0.0015258207003583
  9
$EXTMAX
 10
16277.55995157733
 20
804.9425620558412
 30
0.0000000349246037
  9
$LIMMIN
 10
0.0
 20
0.0
  9
$LIMMAX
 10
420.0
 20
297.0
  9
$ORTHOMODE
 70
     0
  9
$REGENMODE
 70
     1
  9
$FILLMODE
 70
     1
  9
$QTEXTMODE
 70
     0
  9
$MIRRTEXT
 70
     0
  9
$LTSCALE
 40
1.0
  9
$ATTMODE
 70
     1
  9
$TEXTSIZE
 40
2.5
  9
$TRACEWID
 40
1.0
  9
$TEXTSTYLE
  7
Standard
  9
$CLAYER
  8
0
  9
$CELTYPE
  6
ByLayer
  9
$CECOLOR
 62
   256
  9
$CELTSCALE
 40
1.0
  9
$DISPSILH
 70
     0
  9
$DIMSCALE
 40
1.0
  9
$DIMASZ
 40
5.0
  9
$DIMEXO
 40
0.625
  9
$DIMDLI
 40
3.75
  9
$DIMRND
 40
0.0
  9
$DIMDLE
 40
0.0
  9
$DIMEXE
 40
1.25
  9
$DIMTP
 40
0.0
  9
$DIMTM
 40
0.0
  9
$DIMTXT
 40
15.0
  9
$DIMCEN
 40
2.5
  9
$DIMTSZ
 40
0.0
  9
$DIMTOL
 70
     0
  9
$DIMLIM
 70
     0
  9
$DIMTIH
 70
     0
  9
$DIMTOH
 70
     0
  9
$DIMSE1
 70
     0
  9
$DIMSE2
 70
     0
  9
$DIMTAD
 70
     1
  9
$DIMZIN
 70
     8
  9
$DIMBLK
  1

  9
$DIMASO
 70
     1
  9
$DIMSHO
 70
     1
  9
$DIMPOST
  1

  9
$DIMAPOST
  1

  9
$DIMALT
 70
     0
  9
$DIMALTD
 70
     3
  9
$DIMALTF
 40
0.03937007874016
  9
$DIMLFAC
 40
1.0
  9
$DIMTOFL
 70
     1
  9
$DIMTVP
 40
0.0
  9
$DIMTIX
 70
     0
  9
$DIMSOXD
 70
     0
  9
$DIMSAH
 70
     0
  9
$DIMBLK1
  1

  9
$DIMBLK2
  1

  9
$DIMSTYLE
  2
ISO-25
  9
$DIMCLRD
 70
     0
  9
$DIMCLRE
 70
     0
  9
$DIMCLRT
 70
     0
  9
$DIMTFAC
 40
1.0
  9
$DIMGAP
 40
0.625
  9
$DIMJUST
 70
     0
  9
$DIMSD1
 70
     0
  9
$DIMSD2
 70
     0
  9
$DIMTOLJ
 70
     0
  9
$DIMTZIN
 70
     8
  9
$DIMALTZ
 70
     0
  9
$DIMALTTZ
 70
     0
  9
$DIMUPT
 70
     0
  9
$DIMDEC
 70
     2
  9
$DIMTDEC
 70
     2
  9
$DIMALTU
 70
     2
  9
$DIMALTTD
 70
     3
  9
$DIMTXSTY
  7
Standard
  9
$DIMAUNIT
 70
     0
  9
$DIMADEC
 70
     0
  9
$DIMALTRND
 40
0.0
  9
$DIMAZIN
 70
     0
  9
$DIMDSEP
 70
    44
  9
$DIMATFIT
 70
     3
  9
$DIMFRAC
 70
     0
  9
$DIMLDRBLK
  1

  9
$DIMLUNIT
 70
     2
  9
$DIMLWD
 70
    -2
  9
$DIMLWE
 70
    -2
  9
$DIMTMOVE
 70
     0
  9
$DIMFXL
 40
1.25
  9
$DIMFXLON
 70
     0
  9
$DIMJOGANG
 40
1.570796326794896
  9
$DIMTFILL
 70
     0
  9
$DIMTFILLCLR
 70
     0
  9
$DIMARCSYM
 70
     0
  9
$DIMLTYPE
  6

  9
$DIMLTEX1
  6

  9
$DIMLTEX2
  6

  9
$DIMTXTDIRECTION
 70
     0
  9
$LUNITS
 70
     2
  9
$LUPREC
 70
     4
  9
$SKETCHINC
 40
1.0
  9
$FILLETRAD
 40
25.0
  9
$AUNITS
 70
     0
  9
$AUPREC
 70
     0
  9
$MENU
  1
.
  9
$ELEVATION
 40
0.0
  9
$PELEVATION
 40
0.0
  9
$THICKNESS
 40
0.0
  9
$LIMCHECK
 70
     0
  9
$CHAMFERA
 40
35.0
  9
$CHAMFERB
 40
35.0
  9
$CHAMFERC
 40
0.0
  9
$CHAMFERD
 40
0.0
  9
$SKPOLY
 70
     0
  9
$TDCREATE
 40
2454442.803668981
  9
$TDUCREATE
 40
2454442.345343600
  9
$TDUPDATE
 40
2458137.391250000
  9
$TDUUPDATE
 40
2458136.932916667
  9
$TDINDWG
 40
0.1728705440
  9
$TDUSRTIMER
 40
0.1728705440
  9
$USRTIMER
 70
     1
  9
$ANGBASE
 50
0.0
  9
$ANGDIR
 70
     0
  9
$PDMODE
 70
     0
  9
$PDSIZE
 40
0.0
  9
$PLINEWID
 40
0.0
  9
$SPLFRAME
 70
     0
  9
$SPLINETYPE
 70
     6
  9
$SPLINESEGS
 70
     8
  9
$HANDSEED
  5
133F
  9
$SURFTAB1
 70
     6
  9
$SURFTAB2
 70
     6
  9
$SURFTYPE
 70
     6
  9
$SURFU
 70
     6
  9
$SURFV
 70
     6
  9
$UCSBASE
  2

  9
$UCSNAME
  2

  9
$UCSORG
 10
0.0
 20
0.0
 30
0.0
  9
$UCSXDIR
 10
1.0
 20
0.0
 30
0.0
  9
$UCSYDIR
 10
0.0
 20
1.0
 30
0.0
  9
$UCSORTHOREF
  2

  9
$UCSORTHOVIEW
 70
     0
  9
$UCSORGTOP
 10
0.0
 20
0.0
 30
0.0
  9
$UCSORGBOTTOM
 10
0.0
 20
0.0
 30
0.0
  9
$UCSORGLEFT
 10
0.0
 20
0.0
 30
0.0
  9
$UCSORGRIGHT
 10
0.0
 20
0.0
 30
0.0
  9
$UCSORGFRONT
 10
0.0
 20
0.0
 30
0.0
  9
$UCSORGBACK
 10
0.0
 20
0.0
 30
0.0
  9
$PUCSBASE
  2

  9
$PUCSNAME
  2

  9
$PUCSORG
 10
0.0
 20
0.0
 30
0.0
  9
$PUCSXDIR
 10
1.0
 20
0.0
 30
0.0
  9
$PUCSYDIR
 10
0.0
 20
1.0
 30
0.0
  9
$PUCSORTHOREF
  2

  9
$PUCSORTHOVIEW
 70
     0
  9
$PUCSORGTOP
 10
0.0
 20
0.0
 30
0.0
  9
$PUCSORGBOTTOM
 10
0.0
 20
0.0
 30
0.0
  9
$PUCSORGLEFT
 10
0.0
 20
0.0
 30
0.0
  9
$PUCSORGRIGHT
 10
0.0
 20
0.0
 30
0.0
  9
$PUCSORGFRONT
 10
0.0
 20
0.0
 30
0.0
  9
$PUCSORGBACK
 10
0.0
 20
0.0
 30
0.0
  9
$USERI1
 70
     0
  9
$USERI2
 70
     0
  9
$USERI3
 70
     0
  9
$USERI4
 70
     0
  9
$USERI5
 70
     0
  9
$USERR1
 40
0.0
  9
$USERR2
 40
0.0
  9
$USERR3
 40
0.0
  9
$USERR4
 40
0.0
  9
$USERR5
 40
0.0
  9
$WORLDVIEW
 70
     1
  9
$SHADEDGE
 70
     3
  9
$SHADEDIF
 70
    70
  9
$TILEMODE
 70
     1
  9
$MAXACTVP
 70
    64
  9
$PINSBASE
 10
0.0
 20
0.0
 30
0.0
  9
$PLIMCHECK
 70
     0
  9
$PEXTMIN
 10
0.0
 20
0.0
 30
0.0
  9
$PEXTMAX
 10
0.0
 20
0.0
 30
0.0
  9
$PLIMMIN
 10
0.0
 20
0.0
  9
$PLIMMAX
 10
12.0
 20
9.0
  9
$UNITMODE
 70
     0
  9
$VISRETAIN
 70
     1
  9
$PLINEGEN
 70
     0
  9
$PSLTSCALE
 70
     1
  9
$TREEDEPTH
 70
  3020
  9
$CMLSTYLE
  2
Standard
  9
$CMLJUST
 70
     0
  9
$CMLSCALE
 40
20.0
  9
$PROXYGRAPHICS
 70
     1
  9
$MEASUREMENT
 70
     1
  9
$CELWEIGHT
370
    -1
  9
$ENDCAPS
280
     0
  9
$JOINSTYLE
280
     0
  9
$LWDISPLAY
290
     0
  9
$INSUNITS
 70
     4
  9
$HYPERLINKBASE
  1

  9
$STYLESHEET
  1

  9
$XEDIT
290
     1
  9
$CEPSNTYPE
380
     0
  9
$PSTYLEMODE
290
     1
  9
$FINGERPRINTGUID
  2
{11F3E576-4598-4ECD-919D-4F5E39D9FE39}
  9
$VERSIONGUID
  2
{5857BFDE-C2BF-E746-A495-1712D58F89EE}
  9
$EXTNAMES
290
     1
  9
$PSVPSCALE
 40
0.0
  9
$OLESTARTUP
290
     0
  9
$SORTENTS
280
   127
  9
$INDEXCTL
280
     0
  9
$HIDETEXT
280
     1
  9
$XCLIPFRAME
280
     0
  9
$HALOGAP
280
     0
  9
$OBSCOLOR
 70
   257
  9
$OBSLTYPE
280
     0
  9
$INTERSECTIONDISPLAY
280
     0
  9
$INTERSECTIONCOLOR
 70
   257
  9
$DIMASSOC
280
     2
  9
$PROJECTNAME
  1

  9
$CAMERADISPLAY
290
     0
  9
$LENSLENGTH
 40
50.0
  9
$CAMERAHEIGHT
 40
0.0
  9
$STEPSPERSEC
 40
2.0
  9
$STEPSIZE
 40
6.0
  9
$3DDWFPREC
 40
2.0
  9
$PSOLWIDTH
 40
0.25
  9
$PSOLHEIGHT
 40
4.0
  9
$LOFTANG1
 40
1.570796326794896
  9
$LOFTANG2
 40
1.570796326794896
  9
$LOFTMAG1
 40
0.0
  9
$LOFTMAG2
 40
0.0
  9
$LOFTPARAM
 70
     7
  9
$LOFTNORMALS
280
     1
  9
$LATITUDE
 40
37.795
  9
$LONGITUDE
 40
-122.394
  9
$NORTHDIRECTION
 40
0.0
  9
$TIMEZONE
 70
 -8000
  9
$LIGHTGLYPHDISPLAY
280
     1
  9
$TILEMODELIGHTSYNCH
280
     1
  9
$CMATERIAL
347
12DD
  9
$SOLIDHIST
280
     1
  9
$SHOWHIST
280
     1
  9
$DWFFRAME
280
     2
  9
$DGNFRAME
280
     0
  9
$REALWORLDSCALE
290
     1
  9
$INTERFERECOLOR
 62
     1
  9
$INTERFEREOBJVS
345
12EA
  9
$INTERFEREVPVS
346
12F7
  9
$CSHADOW
280
     0
  9
$SHADOWPLANELOCATION
 40
0.0
  0
ENDSEC
  0
SECTION
  2
CLASSES
  0
CLASS
  1
ACDBDICTIONARYWDFLT
  2
AcDbDictionaryWithDefault
  3
ObjectDBX Classes
 90
        0
 91
        1
280
     0
281
     0
  0
CLASS
  1
DICTIONARYVAR
  2
AcDbDictionaryVar
  3
ObjectDBX Classes
 90
        0
 91
       19
280
     0
281
     0
  0
CLASS
  1
TABLESTYLE
  2
AcDbTableStyle
  3
ObjectDBX Classes
 90
     4095
 91
        1
280
     0
281
     0
  0
CLASS
  1
SORTENTSTABLE
  2
AcDbSortentsTable
  3
ObjectDBX Classes
 90
        0
 91
        1
280
     0
281
     0
  0
CLASS
  1
DIMASSOC
  2
AcDbDimAssoc
  3
"AcDbDimAssoc|Product Desc:     AcDim ARX App For Dimension|Company:          Autodesk, Inc.|WEB Address:      www.autodesk.com"
 90
        0
 91
       20
280
     0
281
     0
  0
CLASS
  1
MATERIAL
  2
AcDbMaterial
  3
ObjectDBX Classes
 90
     1153
 91
        3
280
     0
281
     0
  0
CLASS
  1
VISUALSTYLE
  2
AcDbVisualStyle
  3
ObjectDBX Classes
 90
     4095
 91
       26
280
     0
281
     0
  0
CLASS
  1
SCALE
  2
AcDbScale
  3
ObjectDBX Classes
 90
     1153
 91
       17
280
     0
281
     0
  0
CLASS
  1
MLEADERSTYLE
  2
AcDbMLeaderStyle
  3
ACDB_MLEADERSTYLE_CLASS
 90
     4095
 91
        1
280
     0
281
     0
  0
CLASS
  1
ACDBSECTIONVIEWSTYLE
  2
AcDbSectionViewStyle
  3
ObjectDBX Classes
 90
     1025
 91
        1
280
     0
281
     0
  0
CLASS
  1
ACDBDETAILVIEWSTYLE
  2
AcDbDetailViewStyle
  3
ObjectDBX Classes
 90
     1025
 91
        1
280
     0
281
     0
  0
CLASS
  1
CELLSTYLEMAP
  2
AcDbCellStyleMap
  3
ObjectDBX Classes
 90
     1152
 91
        1
280
     0
281
     0
  0
ENDSEC
  0
SECTION
  2
TABLES
  0
TABLE
  2
VPORT
  5
8
330
0
100
AcDbSymbolTable
 70
     1
1001
ACAD
1000
DbSaveVer
1071
        5
  0
VPORT
  5
12DB
330
8
100
AcDbSymbolTableRecord
100
AcDbViewportTableRecord
  2
*Active
 70
     0
 10
0.0
 20
0.0
 11
1.0
 21
1.0
 12
15929.4424784459
 22
370.5780891424456
 13
0.0
 23
0.0
 14
10.0
 24
10.0
 15
10.0
 25
10.0
 16
0.0
 26
0.0
 36
1.0
 17
0.0
 27
0.0
 37
0.0
 40
874.9489621453603
 41
2.292712066905615
 42
50.0
 43
0.0
 44
0.0
 50
0.0
 51
0.0
 71
     0
 72
  1000
 73
     1
 74
     3
 75
     0
 76
     0
 77
     0
 78
     0
281
     0
 65
     1
110
0.0
120
0.0
130
0.0
111
1.0
121
0.0
131
0.0
112
0.0
122
1.0
132
0.0
 79
     0
146
0.0
348
12E6
 60
     3
 61
     5
292
     1
282
     1
141
0.0
142
0.0
 63
   250
421
  3355443
1001
ACAD_NAV_VCDISPLAY
1070
     3
  0
ENDTAB
  0
TABLE
  2
LTYPE
  5
5
330
0
100
AcDbSymbolTable
 70
     2
  0
LTYPE
  5
14
330
5
100
AcDbSymbolTableRecord
100
AcDbLinetypeTableRecord
  2
ByBlock
 70
     0
  3

 72
    65
 73
     0
 40
0.0
  0
LTYPE
  5
15
330
5
100
AcDbSymbolTableRecord
100
AcDbLinetypeTableRecord
  2
ByLayer
 70
     0
  3

 72
    65
 73
     0
 40
0.0
  0
LTYPE
  5
16
330
5
100
AcDbSymbolTableRecord
100
AcDbLinetypeTableRecord
  2
Continuous
 70
     0
  3
Solid line
 72
    65
 73
     0
 40
0.0
  0
LTYPE
  5
437
330
5
100
AcDbSymbolTableRecord
100
AcDbLinetypeTableRecord
  2
ACAD_ISO02W100
 70
     0
  3
ISO dash __ __ __ __ __ __ __ __ __ __ __ __ __
 72
    65
 73
     2
 40
15.0
 49
12.0
 74
     0
 49
-3.0
 74
     0
  0
ENDTAB
  0
TABLE
  2
LAYER
  5
2
330
0
100
AcDbSymbolTable
 70
     2
  0
LAYER
  5
10
102
{ACAD_XDICTIONARY
360
1320
102
}
330
2
100
AcDbSymbolTableRecord
100
AcDbLayerTableRecord
  2
0
 70
     0
 62
     7
  6
Continuous
370
    -3
390
F
347
12DF
348
0
  0
LAYER
  5
336
330
2
100
AcDbSymbolTableRecord
100
AcDbLayerTableRecord
  2
Defpoints
 70
     0
 62
     7
  6
Continuous
290
     0
370
    -3
390
F
347
12DF
348
0
  0
ENDTAB
  0
TABLE
  2
STYLE
  5
3
330
0
100
AcDbSymbolTable
 70
     2
  0
STYLE
  5
11
330
3
100
AcDbSymbolTableRecord
100
AcDbTextStyleTableRecord
  2
Standard
 70
     0
 40
0.0
 41
1.0
 50
0.0
 71
     0
 42
2.5
  3
txt
  4
gbcbig.shx
  0
STYLE
  5
436
330
3
100
AcDbSymbolTableRecord
100
AcDbTextStyleTableRecord
  2

 70
     1
 40
0.0
 41
1.0
 50
0.0
 71
     0
 42
2.5
  3
ltypeshp.shx
  4

  0
ENDTAB
  0
TABLE
  2
VIEW
  5
6
330
0
100
AcDbSymbolTable
 70
     0
  0
ENDTAB
  0
TABLE
  2
UCS
  5
7
330
0
100
AcDbSymbolTable
 70
     0
  0
ENDTAB
  0
TABLE
  2
APPID
  5
9
330
0
100
AcDbSymbolTable
 70
    13
  0
APPID
  5
12
330
9
100
AcDbSymbolTableRecord
100
AcDbRegAppTableRecord
  2
ACAD
 70
     0
  0
APPID
  5
9E
330
9
100
AcDbSymbolTableRecord
100
AcDbRegAppTableRecord
  2
ACAD_PSEXT
 70
     0
  0
APPID
  5
F1
330
9
100
AcDbSymbolTableRecord
100
AcDbRegAppTableRecord
  2
ACAD_DSTYLE_DIMTEXT_FILL
 70
     0
  0
APPID
  5
F2
330
9
100
AcDbSymbolTableRecord
100
AcDbRegAppTableRecord
  2
ACAD_DSTYLE_DIMEXT_LENGTH
 70
     0
  0
APPID
  5
F3
330
9
100
AcDbSymbolTableRecord
100
AcDbRegAppTableRecord
  2
ACAD_DSTYLE_DIMEXT_ENABLED
 70
     0
  0
APPID
  5
F4
330
9
100
AcDbSymbolTableRecord
100
AcDbRegAppTableRecord
  2
ACAD_DSTYLE_DIM_LINETYPE
 70
     0
  0
APPID
  5
F5
330
9
100
AcDbSymbolTableRecord
100
AcDbRegAppTableRecord
  2
ACAD_DSTYLE_DIM_EXT1_LINETYPE
 70
     0
  0
APPID
  5
F6
330
9
100
AcDbSymbolTableRecord
100
AcDbRegAppTableRecord
  2
ACAD_DSTYLE_DIM_EXT2_LINETYPE
 70
     0
  0
APPID
  5
1B2
330
9
100
AcDbSymbolTableRecord
100
AcDbRegAppTableRecord
  2
ACAD_DSTYLE_DIMJOGGED_JOGANGLE_SYMBOL
 70
     0
  0
APPID
  5
2D6
330
9
100
AcDbSymbolTableRecord
100
AcDbRegAppTableRecord
  2
ACAD_DSTYLE_DIMARC_LENGTH_SYMBOL
 70
     0
  0
APPID
  5
83E
330
9
100
AcDbSymbolTableRecord
100
AcDbRegAppTableRecord
  2
ACAD_EXEMPT_FROM_CAD_STANDARDS
 70
     0
  0
APPID
  5
1319
330
9
100
AcDbSymbolTableRecord
100
AcDbRegAppTableRecord
  2
AcadStringInfo
 70
     0
  0
APPID
  5
1322
330
9
100
AcDbSymbolTableRecord
100
AcDbRegAppTableRecord
  2
ACAD_NAV_VCDISPLAY
 70
     0
  0
ENDTAB
  0
TABLE
  2
DIMSTYLE
  5
A
330
0
100
AcDbSymbolTable
 70
     1
100
AcDbDimStyleTable
 71
     1
340
27
  0
DIMSTYLE
105
27
330
A
100
AcDbSymbolTableRecord
100
AcDbDimStyleTableRecord
  2
ISO-25
 70
     0
 41
5.0
 42
0.625
 43
3.75
 44
1.25
 49
1.25
 50
90.0
 73
     0
 74
     0
 77
     1
 78
     8
140
15.0
141
2.5
143
0.03937007874016
147
0.625
171
     3
172
     1
271
     2
272
     2
274
     3
278
    44
283
     0
284
     8
340
11
1001
ACAD_DSTYLE_DIMJOGGED_JOGANGLE_SYMBOL
1070
   384
1040
1.570796326794896
  0
ENDTAB
  0
TABLE
  2
BLOCK_RECORD
  5
1
330
0
100
AcDbSymbolTable
 70
    92
  0
BLOCK_RECORD
  5
1F
102
{ACAD_XDICTIONARY
360
30E
102
}
330
1
100
AcDbSymbolTableRecord
100
AcDbBlockTableRecord
  2
*Model_Space
340
22
 70
     0
280
     1
281
     0
  0
BLOCK_RECORD
  5
D2
330
1
100
AcDbSymbolTableRecord
100
AcDbBlockTableRecord
  2
*Paper_Space
340
D3
 70
     0
280
     1
281
     0
  0
BLOCK_RECORD
  5
D6
330
1
100
AcDbSymbolTableRecord
100
AcDbBlockTableRecord
  2
*Paper_Space0
340
D7
 70
     0
280
     1
281
     0
  0
BLOCK_RECORD
  5
808
330
1
100
AcDbSymbolTableRecord
100
AcDbBlockTableRecord
  2
_ClosedBlank
340
0
 70
     0
280
     1
281
     0
  0
BLOCK_RECORD
  5
E4F
330
1
100
AcDbSymbolTableRecord
100
AcDbBlockTableRecord
  2
*D65
340
0
 70
     0
280
     1
281
     0
  0
BLOCK_RECORD
  5
E5B
330
1
100
AcDbSymbolTableRecord
100
AcDbBlockTableRecord
  2
*D66
340
0
 70
     0
280
     1
281
     0
  0
BLOCK_RECORD
  5
E67
330
1
100
AcDbSymbolTableRecord
100
AcDbBlockTableRecord
  2
*D67
340
0
 70
     0
280
     1
281
     0
  0
BLOCK_RECORD
  5
E73
330
1
100
AcDbSymbolTableRecord
100
AcDbBlockTableRecord
  2
*D68
340
0
 70
     0
280
     1
281
     0
  0
BLOCK_RECORD
  5
E7F
330
1
100
AcDbSymbolTableRecord
100
AcDbBlockTableRecord
  2
*D69
340
0
 70
     0
280
     1
281
     0
  0
BLOCK_RECORD
  5
E8B
330
1
100
AcDbSymbolTableRecord
100
AcDbBlockTableRecord
  2
*D70
340
0
 70
     0
280
     1
281
     0
  0
BLOCK_RECORD
  5
E97
330
1
100
AcDbSymbolTableRecord
100
AcDbBlockTableRecord
  2
*D71
340
0
 70
     0
280
     1
281
     0
  0
BLOCK_RECORD
  5
EA3
330
1
100
AcDbSymbolTableRecord
100
AcDbBlockTableRecord
  2
*D72
340
0
 70
     0
280
     1
281
     0
  0
BLOCK_RECORD
  5
EAF
330
1
100
AcDbSymbolTableRecord
100
AcDbBlockTableRecord
  2
*D73
340
0
 70
     0
280
     1
281
     0
  0
BLOCK_RECORD
  5
EBB
330
1
100
AcDbSymbolTableRecord
100
AcDbBlockTableRecord
  2
*D74
340
0
 70
     0
280
     1
281
     0
  0
BLOCK_RECORD
  5
EC7
330
1
100
AcDbSymbolTableRecord
100
AcDbBlockTableRecord
  2
*D75
340
0
 70
     0
280
     1
281
     0
  0
BLOCK_RECORD
  5
ED3
330
1
100
AcDbSymbolTableRecord
100
AcDbBlockTableRecord
  2
*D76
340
0
 70
     0
280
     1
281
     0
  0
BLOCK_RECORD
  5
EDF
330
1
100
AcDbSymbolTableRecord
100
AcDbBlockTableRecord
  2
*D77
340
0
 70
     0
280
     1
281
     0
  0
BLOCK_RECORD
  5
EEB
330
1
100
AcDbSymbolTableRecord
100
AcDbBlockTableRecord
  2
*D78
340
0
 70
     0
280
     1
281
     0
  0
BLOCK_RECORD
  5
EF7
330
1
100
AcDbSymbolTableRecord
100
AcDbBlockTableRecord
  2
*D79
340
0
 70
     0
280
     1
281
     0
  0
BLOCK_RECORD
  5
F03
330
1
100
AcDbSymbolTableRecord
100
AcDbBlockTableRecord
  2
*D80
340
0
 70
     0
280
     1
281
     0
  0
BLOCK_RECORD
  5
F0F
330
1
100
AcDbSymbolTableRecord
100
AcDbBlockTableRecord
  2
*D81
340
0
 70
     0
280
     1
281
     0
  0
BLOCK_RECORD
  5
F1B
330
1
100
AcDbSymbolTableRecord
100
AcDbBlockTableRecord
  2
*D82
340
0
 70
     0
280
     1
281
     0
  0
BLOCK_RECORD
  5
F27
330
1
100
AcDbSymbolTableRecord
100
AcDbBlockTableRecord
  2
*D83
340
0
 70
     0
280
     1
281
     0
  0
BLOCK_RECORD
  5
F33
330
1
100
AcDbSymbolTableRecord
100
AcDbBlockTableRecord
  2
*D84
340
0
 70
     0
280
     1
281
     0
  0
BLOCK_RECORD
  5
F3F
330
1
100
AcDbSymbolTableRecord
100
AcDbBlockTableRecord
  2
方槽
340
0
 70
     4
280
     1
281
     0
1001
AcadStringInfo
1000
MIFCodePage
1070
     5
  0
ENDTAB
  0
ENDSEC
  0
SECTION
  2
BLOCKS
  0
BLOCK
  5
20
330
1F
100
AcDbEntity
  8
0
100
AcDbBlockBegin
  2
*Model_Space
 70
     0
 10
0.0
 20
0.0
 30
0.0
  3
*Model_Space
  1

  0
ENDBLK
  5
21
330
1F
100
AcDbEntity
  8
0
100
AcDbBlockEnd
  0
BLOCK
  5
D4
330
D2
100
AcDbEntity
 67
     1
  8
0
100
AcDbBlockBegin
  2
*Paper_Space
 70
     0
 10
0.0
 20
0.0
 30
0.0
  3
*Paper_Space
  1

  0
ENDBLK
  5
D5
330
D2
100
AcDbEntity
 67
     1
  8
0
100
AcDbBlockEnd
  0
BLOCK
  5
D8
330
D6
100
AcDbEntity
 67
     1
  8
0
100
AcDbBlockBegin
  2
*Paper_Space0
 70
     0
 10
0.0
 20
0.0
 30
0.0
  3
*Paper_Space0
  1

  0
ENDBLK
  5
D9
330
D6
100
AcDbEntity
 67
     1
  8
0
100
AcDbBlockEnd
  0
BLOCK
  5
809
330
808
100
AcDbEntity
  8
0
 62
     6
100
AcDbBlockBegin
  2
_ClosedBlank
 70
     0
 10
0.0
 20
0.0
 30
0.0
  3
_ClosedBlank
  1

  0
LINE
  5
80A
330
808
100
AcDbEntity
  8
0
  6
ByBlock
 62
     0
370
    -2
100
AcDbLine
 10
-1.0
 20
0.1666666666666666
 30
0.0
 11
0.0
 21
0.0
 31
0.0
  0
LINE
  5
80B
330
808
100
AcDbEntity
  8
0
  6
ByBlock
 62
     0
370
    -2
100
AcDbLine
 10
0.0
 20
0.0
 30
0.0
 11
-1.0
 21
-0.1666666666666666
 31
0.0
  0
LINE
  5
80C
330
808
100
AcDbEntity
  8
0
  6
ByBlock
 62
     0
370
    -2
100
AcDbLine
 10
-1.0
 20
0.1666666666666666
 30
0.0
 11
-1.0
 21
-0.1666666666666666
 31
0.0
  0
ENDBLK
  5
80D
330
808
100
AcDbEntity
  8
0
 62
     6
100
AcDbBlockEnd
  0
BLOCK
  5
E50
330
E4F
100
AcDbEntity
  8
0
100
AcDbBlockBegin
  2
*D65
 70
     1
 10
0.0
 20
0.0
 30
0.0
  3
*D65
  1

  0
LINE
  5
E51
330
E4F
100
AcDbEntity
  8
0
 62
     0
370
    -2
100
AcDbLine
 10
1827.924829353191
 20
817.62874007357
 30
0.0
 11
1967.550842247558
 21
817.62874007357
 31
0.0
  0
LINE
  5
E52
330
E4F
100
AcDbEntity
  8
0
 62
     0
370
    -2
100
AcDbLine
 10
1827.924829353191
 20
377.6287400735701
 30
0.0
 11
1967.550842247558
 21
377.62874007357
 31
0.0
  0
LINE
  5
E53
330
E4F
100
AcDbEntity
  8
0
 62
     0
370
    -2
100
AcDbLine
 10
1966.300842247558
 20
807.6287400735701
 30
0.0
 11
1966.300842247558
 21
387.62874007357
 31
0.0
  0
SOLID
  5
E54
330
E4F
100
AcDbEntity
  8
0
 62
     0
100
AcDbTrace
 10
1964.634175580891
 20
807.6287400735701
 30
0.0
 11
1967.967508914225
 21
807.6287400735701
 31
0.0
 12
1966.300842247558
 22
817.62874007357
 32
0.0
 13
1966.300842247558
 23
817.62874007357
 33
0.0
  0
SOLID
  5
E55
330
E4F
100
AcDbEntity
  8
0
 62
     0
100
AcDbTrace
 10
1964.634175580891
 20
387.62874007357
 30
0.0
 11
1967.967508914225
 21
387.62874007357
 31
0.0
 12
1966.300842247558
 22
377.62874007357
 32
0.0
 13
1966.300842247558
 23
377.62874007357
 33
0.0
  0
MTEXT
  5
E56
330
E4F
100
AcDbEntity
  8
0
 62
     0
100
AcDbMText
 10
1955.675842247558
 20
597.6287400735704
 30
0.0
 40
20.0
 41
0.0
 46
0.0
 71
     5
 72
     1
  1
440
 11
0.0000000000000001
 21
1.0
 31
0.0
 73
     1
 44
1.0
  0
POINT
  5
E57
330
E4F
100
AcDbEntity
  8
Defpoints
 62
     0
100
AcDbPoint
 10
1827.299829353191
 20
817.62874007357
 30
0.0
  0
POINT
  5
E58
330
E4F
100
AcDbEntity
  8
Defpoints
 62
     0
100
AcDbPoint
 10
1827.299829353191
 20
377.6287400735701
 30
0.0
  0
POINT
  5
E59
330
E4F
100
AcDbEntity
  8
Defpoints
 62
     0
100
AcDbPoint
 10
1966.300842247558
 20
377.62874007357
 30
0.0
  0
ENDBLK
  5
E5A
330
E4F
100
AcDbEntity
  8
0
100
AcDbBlockEnd
  0
BLOCK
  5
E5C
330
E5B
100
AcDbEntity
  8
0
100
AcDbBlockBegin
  2
*D66
 70
     1
 10
0.0
 20
0.0
 30
0.0
  3
*D66
  1

  0
LINE
  5
E5D
330
E5B
100
AcDbEntity
  8
0
 62
     0
370
    -2
100
AcDbLine
 10
1807.924829353191
 20
797.62874007357
 30
0.0
 11
1899.102354759398
 21
797.62874007357
 31
0.0
  0
LINE
  5
E5E
330
E5B
100
AcDbEntity
  8
0
 62
     0
370
    -2
100
AcDbLine
 10
1807.924829353191
 20
397.62874007357
 30
0.0
 11
1899.102354759398
 21
397.62874007357
 31
0.0
  0
LINE
  5
E5F
330
E5B
100
AcDbEntity
  8
0
 62
     0
370
    -2
100
AcDbLine
 10
1897.852354759398
 20
787.62874007357
 30
0.0
 11
1897.852354759397
 21
407.62874007357
 31
0.0
  0
SOLID
  5
E60
330
E5B
100
AcDbEntity
  8
0
 62
     0
100
AcDbTrace
 10
1896.185688092731
 20
787.62874007357
 30
0.0
 11
1899.519021426064
 21
787.62874007357
 31
0.0
 12
1897.852354759398
 22
797.62874007357
 32
0.0
 13
1897.852354759398
 23
797.62874007357
 33
0.0
  0
SOLID
  5
E61
330
E5B
100
AcDbEntity
  8
0
 62
     0
100
AcDbTrace
 10
1896.185688092731
 20
407.62874007357
 30
0.0
 11
1899.519021426064
 21
407.62874007357
 31
0.0
 12
1897.852354759397
 22
397.62874007357
 32
0.0
 13
1897.852354759397
 23
397.62874007357
 33
0.0
  0
MTEXT
  5
E62
330
E5B
100
AcDbEntity
  8
0
 62
     0
100
AcDbMText
 10
1887.227354759398
 20
597.6287400735704
 30
0.0
 40
20.0
 41
0.0
 46
0.0
 71
     5
 72
     1
  1
400
 11
0.0000000000000001
 21
1.0
 31
0.0
 73
     1
 44
1.0
  0
POINT
  5
E63
330
E5B
100
AcDbEntity
  8
Defpoints
 62
     0
100
AcDbPoint
 10
1807.299829353191
 20
797.62874007357
 30
0.0
  0
POINT
  5
E64
330
E5B
100
AcDbEntity
  8
Defpoints
 62
     0
100
AcDbPoint
 10
1807.299829353191
 20
397.62874007357
 30
0.0
  0
POINT
  5
E65
330
E5B
100
AcDbEntity
  8
Defpoints
 62
     0
100
AcDbPoint
 10
1897.852354759397
 20
397.62874007357
 30
0.0
  0
ENDBLK
  5
E66
330
E5B
100
AcDbEntity
  8
0
100
AcDbBlockEnd
  0
BLOCK
  5
E68
330
E67
100
AcDbEntity
  8
0
100
AcDbBlockBegin
  2
*D67
 70
     1
 10
0.0
 20
0.0
 30
0.0
  3
*D67
  1

  0
LINE
  5
E69
330
E67
100
AcDbEntity
  8
0
 62
     0
370
    -2
100
AcDbLine
 10
1827.299829353191
 20
397.0037400735701
 30
0.0
 11
1827.299829353191
 21
247.447950997007
 31
0.0
  0
LINE
  5
E6A
330
E67
100
AcDbEntity
  8
0
 62
     0
370
    -2
100
AcDbLine
 10
1387.299829353191
 20
377.0037400735699
 30
0.0
 11
1387.299829353191
 21
247.447950997007
 31
0.0
  0
LINE
  5
E6B
330
E67
100
AcDbEntity
  8
0
 62
     0
370
    -2
100
AcDbLine
 10
1817.299829353191
 20
248.697950997007
 30
0.0
 11
1397.299829353191
 21
248.697950997007
 31
0.0
  0
SOLID
  5
E6C
330
E67
100
AcDbEntity
  8
0
 62
     0
100
AcDbTrace
 10
1817.299829353191
 20
250.3646176636736
 30
0.0
 11
1817.299829353191
 21
247.0312843303403
 31
0.0
 12
1827.299829353191
 22
248.697950997007
 32
0.0
 13
1827.299829353191
 23
248.697950997007
 33
0.0
  0
SOLID
  5
E6D
330
E67
100
AcDbEntity
  8
0
 62
     0
100
AcDbTrace
 10
1397.299829353191
 20
250.3646176636736
 30
0.0
 11
1397.299829353191
 21
247.0312843303403
 31
0.0
 12
1387.299829353191
 22
248.697950997007
 32
0.0
 13
1387.299829353191
 23
248.697950997007
 33
0.0
  0
MTEXT
  5
E6E
330
E67
100
AcDbEntity
  8
0
 62
     0
100
AcDbMText
 10
1607.299829353191
 20
259.322950997007
 30
0.0
 40
20.0
 41
0.0
 46
0.0
 71
     5
 72
     1
  1
440
 73
     1
 44
1.0
  0
POINT
  5
E6F
330
E67
100
AcDbEntity
  8
Defpoints
 62
     0
100
AcDbPoint
 10
1827.299829353191
 20
397.62874007357
 30
0.0
  0
POINT
  5
E70
330
E67
100
AcDbEntity
  8
Defpoints
 62
     0
100
AcDbPoint
 10
1387.299829353191
 20
377.6287400735699
 30
0.0
  0
POINT
  5
E71
330
E67
100
AcDbEntity
  8
Defpoints
 62
     0
100
AcDbPoint
 10
1387.299829353191
 20
248.697950997007
 30
0.0
  0
ENDBLK
  5
E72
330
E67
100
AcDbEntity
  8
0
100
AcDbBlockEnd
  0
BLOCK
  5
E74
330
E73
100
AcDbEntity
  8
0
100
AcDbBlockBegin
  2
*D68
 70
     1
 10
0.0
 20
0.0
 30
0.0
  3
*D68
  1

  0
LINE
  5
E75
330
E73
100
AcDbEntity
  8
0
 62
     0
370
    -2
100
AcDbLine
 10
1407.299829353191
 20
397.0037400735701
 30
0.0
 11
1407.299829353191
 21
310.9552876365624
 31
0.0
  0
LINE
  5
E76
330
E73
100
AcDbEntity
  8
0
 62
     0
370
    -2
100
AcDbLine
 10
1807.299829353191
 20
397.0037400735701
 30
0.0
 11
1807.299829353191
 21
310.9552876365624
 31
0.0
  0
LINE
  5
E77
330
E73
100
AcDbEntity
  8
0
 62
     0
370
    -2
100
AcDbLine
 10
1417.299829353191
 20
312.2052876365624
 30
0.0
 11
1797.299829353191
 21
312.2052876365624
 31
0.0
  0
SOLID
  5
E78
330
E73
100
AcDbEntity
  8
0
 62
     0
100
AcDbTrace
 10
1417.299829353191
 20
313.8719543032291
 30
0.0
 11
1417.299829353191
 21
310.5386209698957
 31
0.0
 12
1407.299829353191
 22
312.2052876365624
 32
0.0
 13
1407.299829353191
 23
312.2052876365624
 33
0.0
  0
SOLID
  5
E79
330
E73
100
AcDbEntity
  8
0
 62
     0
100
AcDbTrace
 10
1797.299829353191
 20
313.8719543032291
 30
0.0
 11
1797.299829353191
 21
310.5386209698957
 31
0.0
 12
1807.299829353191
 22
312.2052876365624
 32
0.0
 13
1807.299829353191
 23
312.2052876365624
 33
0.0
  0
MTEXT
  5
E7A
330
E73
100
AcDbEntity
  8
0
 62
     0
100
AcDbMText
 10
1607.299829353191
 20
322.8302876365624
 30
0.0
 40
20.0
 41
0.0
 46
0.0
 71
     5
 72
     1
  1
400
 73
     1
 44
1.0
  0
POINT
  5
E7B
330
E73
100
AcDbEntity
  8
Defpoints
 62
     0
100
AcDbPoint
 10
1407.299829353191
 20
397.62874007357
 30
0.0
  0
POINT
  5
E7C
330
E73
100
AcDbEntity
  8
Defpoints
 62
     0
100
AcDbPoint
 10
1807.299829353191
 20
397.62874007357
 30
0.0
  0
POINT
  5
E7D
330
E73
100
AcDbEntity
  8
Defpoints
 62
     0
100
AcDbPoint
 10
1807.299829353191
 20
312.2052876365624
 30
0.0
  0
ENDBLK
  5
E7E
330
E73
100
AcDbEntity
  8
0
100
AcDbBlockEnd
  0
BLOCK
  5
E80
330
E7F
100
AcDbEntity
  8
0
100
AcDbBlockBegin
  2
*D69
 70
     1
 10
0.0
 20
0.0
 30
0.0
  3
*D69
  1

  0
LINE
  5
E81
330
E7F
100
AcDbEntity
  8
0
 62
     0
370
    -2
100
AcDbLine
 10
1807.924829353191
 20
175.4314956241787
 30
0.0
 11
1928.437425108692
 21
175.4314956241787
 31
0.0
  0
LINE
  5
E82
330
E7F
100
AcDbEntity
  8
0
 62
     0
370
    -2
100
AcDbLine
 10
1807.924829353191
 20
-24.56850437582125
 30
0.0
 11
1928.437425108692
 21
-24.56850437582129
 31
0.0
  0
LINE
  5
E83
330
E7F
100
AcDbEntity
  8
0
 62
     0
370
    -2
100
AcDbLine
 10
1927.187425108692
 20
165.4314956241787
 30
0.0
 11
1927.187425108692
 21
-14.56850437582128
 31
0.0
  0
SOLID
  5
E84
330
E7F
100
AcDbEntity
  8
0
 62
     0
100
AcDbTrace
 10
1925.520758442025
 20
165.4314956241787
 30
0.0
 11
1928.854091775358
 21
165.4314956241787
 31
0.0
 12
1927.187425108692
 22
175.4314956241787
 32
0.0
 13
1927.187425108692
 23
175.4314956241787
 33
0.0
  0
SOLID
  5
E85
330
E7F
100
AcDbEntity
  8
0
 62
     0
100
AcDbTrace
 10
1925.520758442025
 20
-14.56850437582128
 30
0.0
 11
1928.854091775358
 21
-14.56850437582128
 31
0.0
 12
1927.187425108692
 22
-24.56850437582128
 32
0.0
 13
1927.187425108692
 23
-24.56850437582128
 33
0.0
  0
MTEXT
  5
E86
330
E7F
100
AcDbEntity
  8
0
 62
     0
100
AcDbMText
 10
1916.562425108692
 20
75.43149562417903
 30
0.0
 40
20.0
 41
0.0
 46
0.0
 71
     5
 72
     1
  1
200
 11
0.0000000000000001
 21
1.0
 31
0.0
 73
     1
 44
1.0
  0
POINT
  5
E87
330
E7F
100
AcDbEntity
  8
Defpoints
 62
     0
100
AcDbPoint
 10
1807.299829353191
 20
175.4314956241787
 30
0.0
  0
POINT
  5
E88
330
E7F
100
AcDbEntity
  8
Defpoints
 62
     0
100
AcDbPoint
 10
1807.299829353191
 20
-24.56850437582125
 30
0.0
  0
POINT
  5
E89
330
E7F
100
AcDbEntity
  8
Defpoints
 62
     0
100
AcDbPoint
 10
1927.187425108692
 20
-24.56850437582128
 30
0.0
  0
ENDBLK
  5
E8A
330
E7F
100
AcDbEntity
  8
0
100
AcDbBlockEnd
  0
BLOCK
  5
E8C
330
E8B
100
AcDbEntity
  8
0
100
AcDbBlockBegin
  2
*D70
 70
     1
 10
0.0
 20
0.0
 30
0.0
  3
*D70
  1

  0
LINE
  5
E8D
330
E8B
100
AcDbEntity
  8
0
 62
     0
370
    -2
100
AcDbLine
 10
2851.045069244081
 20
807.9396124395925
 30
0.0
 11
2994.307992744463
 21
807.9396124395925
 31
0.0
  0
LINE
  5
E8E
330
E8B
100
AcDbEntity
  8
0
 62
     0
370
    -2
100
AcDbLine
 10
2851.045069244081
 20
367.9396124395925
 30
0.0
 11
2994.307992744463
 21
367.9396124395925
 31
0.0
  0
LINE
  5
E8F
330
E8B
100
AcDbEntity
  8
0
 62
     0
370
    -2
100
AcDbLine
 10
2993.057992744463
 20
797.9396124395925
 30
0.0
 11
2993.057992744463
 21
377.9396124395924
 31
0.0
  0
SOLID
  5
E90
330
E8B
100
AcDbEntity
  8
0
 62
     0
100
AcDbTrace
 10
2991.391326077797
 20
797.9396124395925
 30
0.0
 11
2994.72465941113
 21
797.9396124395925
 31
0.0
 12
2993.057992744463
 22
807.9396124395925
 32
0.0
 13
2993.057992744463
 23
807.9396124395925
 33
0.0
  0
SOLID
  5
E91
330
E8B
100
AcDbEntity
  8
0
 62
     0
100
AcDbTrace
 10
2991.391326077797
 20
377.9396124395924
 30
0.0
 11
2994.72465941113
 21
377.9396124395924
 31
0.0
 12
2993.057992744463
 22
367.9396124395925
 32
0.0
 13
2993.057992744463
 23
367.9396124395925
 33
0.0
  0
MTEXT
  5
E92
330
E8B
100
AcDbEntity
  8
0
 62
     0
100
AcDbMText
 10
2982.432992744464
 20
587.939612439593
 30
0.0
 40
20.0
 41
0.0
 46
0.0
 71
     5
 72
     1
  1
440
 11
0.0000000000000001
 21
1.0
 31
0.0
 73
     1
 44
1.0
  0
POINT
  5
E93
330
E8B
100
AcDbEntity
  8
Defpoints
 62
     0
100
AcDbPoint
 10
2850.420069244081
 20
807.9396124395925
 30
0.0
  0
POINT
  5
E94
330
E8B
100
AcDbEntity
  8
Defpoints
 62
     0
100
AcDbPoint
 10
2850.420069244081
 20
367.9396124395925
 30
0.0
  0
POINT
  5
E95
330
E8B
100
AcDbEntity
  8
Defpoints
 62
     0
100
AcDbPoint
 10
2993.057992744463
 20
367.9396124395925
 30
0.0
  0
ENDBLK
  5
E96
330
E8B
100
AcDbEntity
  8
0
100
AcDbBlockEnd
  0
BLOCK
  5
E98
330
E97
100
AcDbEntity
  8
0
100
AcDbBlockBegin
  2
*D71
 70
     1
 10
0.0
 20
0.0
 30
0.0
  3
*D71
  1

  0
LINE
  5
E99
330
E97
100
AcDbEntity
  8
0
 62
     0
370
    -2
100
AcDbLine
 10
2831.045069244081
 20
787.9396124395925
 30
0.0
 11
2906.992574933356
 21
787.9396124395925
 31
0.0
  0
LINE
  5
E9A
330
E97
100
AcDbEntity
  8
0
 62
     0
370
    -2
100
AcDbLine
 10
2831.045069244081
 20
387.9396124395926
 30
0.0
 11
2906.992574933356
 21
387.9396124395926
 31
0.0
  0
LINE
  5
E9B
330
E97
100
AcDbEntity
  8
0
 62
     0
370
    -2
100
AcDbLine
 10
2905.742574933356
 20
777.9396124395925
 30
0.0
 11
2905.742574933356
 21
397.9396124395926
 31
0.0
  0
SOLID
  5
E9C
330
E97
100
AcDbEntity
  8
0
 62
     0
100
AcDbTrace
 10
2904.07590826669
 20
777.9396124395925
 30
0.0
 11
2907.409241600023
 21
777.9396124395925
 31
0.0
 12
2905.742574933356
 22
787.9396124395925
 32
0.0
 13
2905.742574933356
 23
787.9396124395925
 33
0.0
  0
SOLID
  5
E9D
330
E97
100
AcDbEntity
  8
0
 62
     0
100
AcDbTrace
 10
2904.07590826669
 20
397.9396124395926
 30
0.0
 11
2907.409241600023
 21
397.9396124395926
 31
0.0
 12
2905.742574933356
 22
387.9396124395926
 32
0.0
 13
2905.742574933356
 23
387.9396124395926
 33
0.0
  0
MTEXT
  5
E9E
330
E97
100
AcDbEntity
  8
0
 62
     0
100
AcDbMText
 10
2895.117574933356
 20
587.939612439593
 30
0.0
 40
20.0
 41
0.0
 46
0.0
 71
     5
 72
     1
  1
400
 11
0.0000000000000001
 21
1.0
 31
0.0
 73
     1
 44
1.0
  0
POINT
  5
E9F
330
E97
100
AcDbEntity
  8
Defpoints
 62
     0
100
AcDbPoint
 10
2830.420069244081
 20
787.9396124395925
 30
0.0
  0
POINT
  5
EA0
330
E97
100
AcDbEntity
  8
Defpoints
 62
     0
100
AcDbPoint
 10
2830.420069244081
 20
387.9396124395926
 30
0.0
  0
POINT
  5
EA1
330
E97
100
AcDbEntity
  8
Defpoints
 62
     0
100
AcDbPoint
 10
2905.742574933356
 20
387.9396124395926
 30
0.0
  0
ENDBLK
  5
EA2
330
E97
100
AcDbEntity
  8
0
100
AcDbBlockEnd
  0
BLOCK
  5
EA4
330
EA3
100
AcDbEntity
  8
0
100
AcDbBlockBegin
  2
*D72
 70
     1
 10
0.0
 20
0.0
 30
0.0
  3
*D72
  1

  0
LINE
  5
EA5
330
EA3
100
AcDbEntity
  8
0
 62
     0
370
    -2
100
AcDbLine
 10
2360.420069244081
 20
367.3146124395926
 30
0.0
 11
2360.420069244081
 21
224.725798566742
 31
0.0
  0
LINE
  5
EA6
330
EA3
100
AcDbEntity
  8
0
 62
     0
370
    -2
100
AcDbLine
 10
2850.420069244081
 20
367.3146124395925
 30
0.0
 11
2850.420069244081
 21
224.725798566742
 31
0.0
  0
LINE
  5
EA7
330
EA3
100
AcDbEntity
  8
0
 62
     0
370
    -2
100
AcDbLine
 10
2370.420069244081
 20
225.975798566742
 30
0.0
 11
2840.420069244081
 21
225.975798566742
 31
0.0
  0
SOLID
  5
EA8
330
EA3
100
AcDbEntity
  8
0
 62
     0
100
AcDbTrace
 10
2370.420069244081
 20
227.6424652334087
 30
0.0
 11
2370.420069244081
 21
224.3091319000753
 31
0.0
 12
2360.420069244081
 22
225.975798566742
 32
0.0
 13
2360.420069244081
 23
225.975798566742
 33
0.0
  0
SOLID
  5
EA9
330
EA3
100
AcDbEntity
  8
0
 62
     0
100
AcDbTrace
 10
2840.420069244081
 20
227.6424652334087
 30
0.0
 11
2840.420069244081
 21
224.3091319000753
 31
0.0
 12
2850.420069244081
 22
225.975798566742
 32
0.0
 13
2850.420069244081
 23
225.975798566742
 33
0.0
  0
MTEXT
  5
EAA
330
EA3
100
AcDbEntity
  8
0
 62
     0
100
AcDbMText
 10
2605.420069244081
 20
236.600798566742
 30
0.0
 40
20.0
 41
0.0
 46
0.0
 71
     5
 72
     1
  1
490
 73
     1
 44
1.0
  0
POINT
  5
EAB
330
EA3
100
AcDbEntity
  8
Defpoints
 62
     0
100
AcDbPoint
 10
2360.420069244081
 20
367.9396124395926
 30
0.0
  0
POINT
  5
EAC
330
EA3
100
AcDbEntity
  8
Defpoints
 62
     0
100
AcDbPoint
 10
2850.420069244081
 20
367.9396124395925
 30
0.0
  0
POINT
  5
EAD
330
EA3
100
AcDbEntity
  8
Defpoints
 62
     0
100
AcDbPoint
 10
2850.420069244081
 20
225.975798566742
 30
0.0
  0
ENDBLK
  5
EAE
330
EA3
100
AcDbEntity
  8
0
100
AcDbBlockEnd
  0
BLOCK
  5
EB0
330
EAF
100
AcDbEntity
  8
0
100
AcDbBlockBegin
  2
*D73
 70
     1
 10
0.0
 20
0.0
 30
0.0
  3
*D73
  1

  0
LINE
  5
EB1
330
EAF
100
AcDbEntity
  8
0
 62
     0
370
    -2
100
AcDbLine
 10
2380.420069244081
 20
387.3146124395926
 30
0.0
 11
2380.420069244081
 21
301.064316225581
 31
0.0
  0
LINE
  5
EB2
330
EAF
100
AcDbEntity
  8
0
 62
     0
370
    -2
100
AcDbLine
 10
2830.420069244081
 20
387.3146124395926
 30
0.0
 11
2830.420069244081
 21
301.064316225581
 31
0.0
  0
LINE
  5
EB3
330
EAF
100
AcDbEntity
  8
0
 62
     0
370
    -2
100
AcDbLine
 10
2390.420069244081
 20
302.314316225581
 30
0.0
 11
2820.420069244081
 21
302.314316225581
 31
0.0
  0
SOLID
  5
EB4
330
EAF
100
AcDbEntity
  8
0
 62
     0
100
AcDbTrace
 10
2390.420069244081
 20
303.9809828922477
 30
0.0
 11
2390.420069244081
 21
300.6476495589144
 31
0.0
 12
2380.420069244081
 22
302.314316225581
 32
0.0
 13
2380.420069244081
 23
302.314316225581
 33
0.0
  0
SOLID
  5
EB5
330
EAF
100
AcDbEntity
  8
0
 62
     0
100
AcDbTrace
 10
2820.420069244081
 20
303.9809828922477
 30
0.0
 11
2820.420069244081
 21
300.6476495589144
 31
0.0
 12
2830.420069244081
 22
302.314316225581
 32
0.0
 13
2830.420069244081
 23
302.314316225581
 33
0.0
  0
MTEXT
  5
EB6
330
EAF
100
AcDbEntity
  8
0
 62
     0
100
AcDbMText
 10
2605.420069244081
 20
312.939316225581
 30
0.0
 40
20.0
 41
0.0
 46
0.0
 71
     5
 72
     1
  1
450
 73
     1
 44
1.0
  0
POINT
  5
EB7
330
EAF
100
AcDbEntity
  8
Defpoints
 62
     0
100
AcDbPoint
 10
2380.420069244081
 20
387.9396124395926
 30
0.0
  0
POINT
  5
EB8
330
EAF
100
AcDbEntity
  8
Defpoints
 62
     0
100
AcDbPoint
 10
2830.420069244081
 20
387.9396124395926
 30
0.0
  0
POINT
  5
EB9
330
EAF
100
AcDbEntity
  8
Defpoints
 62
     0
100
AcDbPoint
 10
2830.420069244081
 20
302.314316225581
 30
0.0
  0
ENDBLK
  5
EBA
330
EAF
100
AcDbEntity
  8
0
100
AcDbBlockEnd
  0
BLOCK
  5
EBC
330
EBB
100
AcDbEntity
  8
0
100
AcDbBlockBegin
  2
*D74
 70
     1
 10
0.0
 20
0.0
 30
0.0
  3
*D74
  1

  0
LINE
  5
EBD
330
EBB
100
AcDbEntity
  8
0
 62
     0
370
    -2
100
AcDbLine
 10
2831.045069244081
 20
146.2512861263858
 30
0.0
 11
2942.464460608441
 21
146.2512861263858
 31
0.0
  0
LINE
  5
EBE
330
EBB
100
AcDbEntity
  8
0
 62
     0
370
    -2
100
AcDbLine
 10
2831.045069244081
 20
-53.74871387361418
 30
0.0
 11
2942.464460608441
 21
-53.74871387361421
 31
0.0
  0
LINE
  5
EBF
330
EBB
100
AcDbEntity
  8
0
 62
     0
370
    -2
100
AcDbLine
 10
2941.214460608441
 20
136.2512861263858
 30
0.0
 11
2941.214460608441
 21
-43.74871387361421
 31
0.0
  0
SOLID
  5
EC0
330
EBB
100
AcDbEntity
  8
0
 62
     0
100
AcDbTrace
 10
2939.547793941774
 20
136.2512861263858
 30
0.0
 11
2942.881127275107
 21
136.2512861263858
 31
0.0
 12
2941.214460608441
 22
146.2512861263858
 32
0.0
 13
2941.214460608441
 23
146.2512861263858
 33
0.0
  0
SOLID
  5
EC1
330
EBB
100
AcDbEntity
  8
0
 62
     0
100
AcDbTrace
 10
2939.547793941774
 20
-43.74871387361421
 30
0.0
 11
2942.881127275107
 21
-43.74871387361421
 31
0.0
 12
2941.214460608441
 22
-53.74871387361421
 32
0.0
 13
2941.214460608441
 23
-53.74871387361421
 33
0.0
  0
MTEXT
  5
EC2
330
EBB
100
AcDbEntity
  8
0
 62
     0
100
AcDbMText
 10
2930.589460608441
 20
46.25128612638628
 30
0.0
 40
20.0
 41
0.0
 46
0.0
 71
     5
 72
     1
  1
200
 11
0.0000000000000001
 21
1.0
 31
0.0
 73
     1
 44
1.0
  0
POINT
  5
EC3
330
EBB
100
AcDbEntity
  8
Defpoints
 62
     0
100
AcDbPoint
 10
2830.420069244081
 20
146.2512861263858
 30
0.0
  0
POINT
  5
EC4
330
EBB
100
AcDbEntity
  8
Defpoints
 62
     0
100
AcDbPoint
 10
2830.420069244081
 20
-53.74871387361418
 30
0.0
  0
POINT
  5
EC5
330
EBB
100
AcDbEntity
  8
Defpoints
 62
     0
100
AcDbPoint
 10
2941.214460608441
 20
-53.74871387361421
 30
0.0
  0
ENDBLK
  5
EC6
330
EBB
100
AcDbEntity
  8
0
100
AcDbBlockEnd
  0
BLOCK
  5
EC8
330
EC7
100
AcDbEntity
  8
0
100
AcDbBlockBegin
  2
*D75
 70
     1
 10
0.0
 20
0.0
 30
0.0
  3
*D75
  1

  0
LINE
  5
EC9
330
EC7
100
AcDbEntity
  8
0
 62
     0
370
    -2
100
AcDbLine
 10
3601.265635836118
 20
779.5055342291917
 30
0.0
 11
3739.929788148073
 21
779.5055342291917
 31
0.0
  0
LINE
  5
ECA
330
EC7
100
AcDbEntity
  8
0
 62
     0
370
    -2
100
AcDbLine
 10
3601.265635836118
 20
339.5055342291917
 30
0.0
 11
3739.929788148073
 21
339.5055342291916
 31
0.0
  0
LINE
  5
ECB
330
EC7
100
AcDbEntity
  8
0
 62
     0
370
    -2
100
AcDbLine
 10
3738.679788148072
 20
769.5055342291917
 30
0.0
 11
3738.679788148072
 21
349.5055342291916
 31
0.0
  0
SOLID
  5
ECC
330
EC7
100
AcDbEntity
  8
0
 62
     0
100
AcDbTrace
 10
3737.013121481406
 20
769.5055342291917
 30
0.0
 11
3740.346454814739
 21
769.5055342291917
 31
0.0
 12
3738.679788148072
 22
779.5055342291917
 32
0.0
 13
3738.679788148072
 23
779.5055342291917
 33
0.0
  0
SOLID
  5
ECD
330
EC7
100
AcDbEntity
  8
0
 62
     0
100
AcDbTrace
 10
3737.013121481406
 20
349.5055342291916
 30
0.0
 11
3740.346454814739
 21
349.5055342291916
 31
0.0
 12
3738.679788148072
 22
339.5055342291916
 32
0.0
 13
3738.679788148072
 23
339.5055342291916
 33
0.0
  0
MTEXT
  5
ECE
330
EC7
100
AcDbEntity
  8
0
 62
     0
100
AcDbMText
 10
3728.054788148073
 20
559.5055342291923
 30
0.0
 40
20.0
 41
0.0
 46
0.0
 71
     5
 72
     1
  1
440
 11
0.0000000000000001
 21
1.0
 31
0.0
 73
     1
 44
1.0
  0
POINT
  5
ECF
330
EC7
100
AcDbEntity
  8
Defpoints
 62
     0
100
AcDbPoint
 10
3600.640635836118
 20
779.5055342291917
 30
0.0
  0
POINT
  5
ED0
330
EC7
100
AcDbEntity
  8
Defpoints
 62
     0
100
AcDbPoint
 10
3600.640635836118
 20
339.5055342291917
 30
0.0
  0
POINT
  5
ED1
330
EC7
100
AcDbEntity
  8
Defpoints
 62
     0
100
AcDbPoint
 10
3738.679788148072
 20
339.5055342291916
 30
0.0
  0
ENDBLK
  5
ED2
330
EC7
100
AcDbEntity
  8
0
100
AcDbBlockEnd
  0
BLOCK
  5
ED4
330
ED3
100
AcDbEntity
  8
0
100
AcDbBlockBegin
  2
*D76
 70
     1
 10
0.0
 20
0.0
 30
0.0
  3
*D76
  1

  0
LINE
  5
ED5
330
ED3
100
AcDbEntity
  8
0
 62
     0
370
    -2
100
AcDbLine
 10
3581.265635836118
 20
759.5055342291914
 30
0.0
 11
3670.018165798727
 21
759.5055342291914
 31
0.0
  0
LINE
  5
ED6
330
ED3
100
AcDbEntity
  8
0
 62
     0
370
    -2
100
AcDbLine
 10
3581.265635836118
 20
359.5055342291916
 30
0.0
 11
3670.018165798727
 21
359.5055342291916
 31
0.0
  0
LINE
  5
ED7
330
ED3
100
AcDbEntity
  8
0
 62
     0
370
    -2
100
AcDbLine
 10
3668.768165798727
 20
749.5055342291914
 30
0.0
 11
3668.768165798727
 21
369.5055342291917
 31
0.0
  0
SOLID
  5
ED8
330
ED3
100
AcDbEntity
  8
0
 62
     0
100
AcDbTrace
 10
3667.101499132061
 20
749.5055342291914
 30
0.0
 11
3670.434832465394
 21
749.5055342291914
 31
0.0
 12
3668.768165798727
 22
759.5055342291914
 32
0.0
 13
3668.768165798727
 23
759.5055342291914
 33
0.0
  0
SOLID
  5
ED9
330
ED3
100
AcDbEntity
  8
0
 62
     0
100
AcDbTrace
 10
3667.101499132061
 20
369.5055342291917
 30
0.0
 11
3670.434832465394
 21
369.5055342291917
 31
0.0
 12
3668.768165798727
 22
359.5055342291916
 32
0.0
 13
3668.768165798727
 23
359.5055342291916
 33
0.0
  0
MTEXT
  5
EDA
330
ED3
100
AcDbEntity
  8
0
 62
     0
100
AcDbMText
 10
3658.143165798727
 20
559.5055342291921
 30
0.0
 40
20.0
 41
0.0
 46
0.0
 71
     5
 72
     1
  1
400
 11
0.0000000000000001
 21
1.0
 31
0.0
 73
     1
 44
1.0
  0
POINT
  5
EDB
330
ED3
100
AcDbEntity
  8
Defpoints
 62
     0
100
AcDbPoint
 10
3580.640635836118
 20
759.5055342291914
 30
0.0
  0
POINT
  5
EDC
330
ED3
100
AcDbEntity
  8
Defpoints
 62
     0
100
AcDbPoint
 10
3580.640635836118
 20
359.5055342291916
 30
0.0
  0
POINT
  5
EDD
330
ED3
100
AcDbEntity
  8
Defpoints
 62
     0
100
AcDbPoint
 10
3668.768165798727
 20
359.5055342291916
 30
0.0
  0
ENDBLK
  5
EDE
330
ED3
100
AcDbEntity
  8
0
100
AcDbBlockEnd
  0
BLOCK
  5
EE0
330
EDF
100
AcDbEntity
  8
0
100
AcDbBlockBegin
  2
*D77
 70
     1
 10
0.0
 20
0.0
 30
0.0
  3
*D77
  1

  0
LINE
  5
EE1
330
EDF
100
AcDbEntity
  8
0
 62
     0
370
    -2
100
AcDbLine
 10
3380.640635836118
 20
338.8805342291917
 30
0.0
 11
3380.640635836118
 21
230.9600085260809
 31
0.0
  0
LINE
  5
EE2
330
EDF
100
AcDbEntity
  8
0
 62
     0
370
    -2
100
AcDbLine
 10
3600.640635836118
 20
338.8805342291917
 30
0.0
 11
3600.640635836118
 21
230.9600085260809
 31
0.0
  0
LINE
  5
EE3
330
EDF
100
AcDbEntity
  8
0
 62
     0
370
    -2
100
AcDbLine
 10
3390.640635836118
 20
232.2100085260808
 30
0.0
 11
3590.640635836118
 21
232.2100085260808
 31
0.0
  0
SOLID
  5
EE4
330
EDF
100
AcDbEntity
  8
0
 62
     0
100
AcDbTrace
 10
3390.640635836118
 20
233.8766751927475
 30
0.0
 11
3390.640635836118
 21
230.5433418594142
 31
0.0
 12
3380.640635836118
 22
232.2100085260808
 32
0.0
 13
3380.640635836118
 23
232.2100085260808
 33
0.0
  0
SOLID
  5
EE5
330
EDF
100
AcDbEntity
  8
0
 62
     0
100
AcDbTrace
 10
3590.640635836118
 20
233.8766751927475
 30
0.0
 11
3590.640635836118
 21
230.5433418594142
 31
0.0
 12
3600.640635836118
 22
232.2100085260808
 32
0.0
 13
3600.640635836118
 23
232.2100085260808
 33
0.0
  0
MTEXT
  5
EE6
330
EDF
100
AcDbEntity
  8
0
 62
     0
100
AcDbMText
 10
3490.640635836118
 20
242.8350085260809
 30
0.0
 40
20.0
 41
0.0
 46
0.0
 71
     5
 72
     1
  1
220
 73
     1
 44
1.0
  0
POINT
  5
EE7
330
EDF
100
AcDbEntity
  8
Defpoints
 62
     0
100
AcDbPoint
 10
3380.640635836118
 20
339.5055342291917
 30
0.0
  0
POINT
  5
EE8
330
EDF
100
AcDbEntity
  8
Defpoints
 62
     0
100
AcDbPoint
 10
3600.640635836118
 20
339.5055342291917
 30
0.0
  0
POINT
  5
EE9
330
EDF
100
AcDbEntity
  8
Defpoints
 62
     0
100
AcDbPoint
 10
3600.640635836118
 20
232.2100085260808
 30
0.0
  0
ENDBLK
  5
EEA
330
EDF
100
AcDbEntity
  8
0
100
AcDbBlockEnd
  0
BLOCK
  5
EEC
330
EEB
100
AcDbEntity
  8
0
100
AcDbBlockBegin
  2
*D78
 70
     1
 10
0.0
 20
0.0
 30
0.0
  3
*D78
  1

  0
LINE
  5
EED
330
EEB
100
AcDbEntity
  8
0
 62
     0
370
    -2
100
AcDbLine
 10
3400.640635836118
 20
358.8805342291916
 30
0.0
 11
3400.640635836118
 21
284.9384527477032
 31
0.0
  0
LINE
  5
EEE
330
EEB
100
AcDbEntity
  8
0
 62
     0
370
    -2
100
AcDbLine
 10
3580.640635836118
 20
358.8805342291916
 30
0.0
 11
3580.640635836118
 21
284.9384527477032
 31
0.0
  0
LINE
  5
EEF
330
EEB
100
AcDbEntity
  8
0
 62
     0
370
    -2
100
AcDbLine
 10
3410.640635836119
 20
286.1884527477032
 30
0.0
 11
3570.640635836119
 21
286.1884527477032
 31
0.0
  0
SOLID
  5
EF0
330
EEB
100
AcDbEntity
  8
0
 62
     0
100
AcDbTrace
 10
3410.640635836119
 20
287.8551194143699
 30
0.0
 11
3410.640635836119
 21
284.5217860810365
 31
0.0
 12
3400.640635836118
 22
286.1884527477032
 32
0.0
 13
3400.640635836118
 23
286.1884527477032
 33
0.0
  0
SOLID
  5
EF1
330
EEB
100
AcDbEntity
  8
0
 62
     0
100
AcDbTrace
 10
3570.640635836119
 20
287.8551194143699
 30
0.0
 11
3570.640635836119
 21
284.5217860810365
 31
0.0
 12
3580.640635836118
 22
286.1884527477032
 32
0.0
 13
3580.640635836118
 23
286.1884527477032
 33
0.0
  0
MTEXT
  5
EF2
330
EEB
100
AcDbEntity
  8
0
 62
     0
100
AcDbMText
 10
3490.640635836118
 20
296.8134527477032
 30
0.0
 40
20.0
 41
0.0
 46
0.0
 71
     5
 72
     1
  1
180
 73
     1
 44
1.0
  0
POINT
  5
EF3
330
EEB
100
AcDbEntity
  8
Defpoints
 62
     0
100
AcDbPoint
 10
3400.640635836118
 20
359.5055342291916
 30
0.0
  0
POINT
  5
EF4
330
EEB
100
AcDbEntity
  8
Defpoints
 62
     0
100
AcDbPoint
 10
3580.640635836118
 20
359.5055342291916
 30
0.0
  0
POINT
  5
EF5
330
EEB
100
AcDbEntity
  8
Defpoints
 62
     0
100
AcDbPoint
 10
3580.640635836118
 20
286.1884527477032
 30
0.0
  0
ENDBLK
  5
EF6
330
EEB
100
AcDbEntity
  8
0
100
AcDbBlockEnd
  0
BLOCK
  5
EF8
330
EF7
100
AcDbEntity
  8
0
100
AcDbBlockBegin
  2
*D79
 70
     1
 10
0.0
 20
0.0
 30
0.0
  3
*D79
  1

  0
LINE
  5
EF9
330
EF7
100
AcDbEntity
  8
0
 62
     0
370
    -2
100
AcDbLine
 10
3581.265635836118
 20
187.9896877612945
 30
0.0
 11
3660.500440210795
 21
187.9896877612945
 31
0.0
  0
LINE
  5
EFA
330
EF7
100
AcDbEntity
  8
0
 62
     0
370
    -2
100
AcDbLine
 10
3581.265635836118
 20
27.98968776129457
 30
0.0
 11
3660.500440210795
 21
27.98968776129454
 31
0.0
  0
LINE
  5
EFB
330
EF7
100
AcDbEntity
  8
0
 62
     0
370
    -2
100
AcDbLine
 10
3659.250440210796
 20
177.9896877612945
 30
0.0
 11
3659.250440210796
 21
37.98968776129455
 31
0.0
  0
SOLID
  5
EFC
330
EF7
100
AcDbEntity
  8
0
 62
     0
100
AcDbTrace
 10
3657.583773544129
 20
177.9896877612945
 30
0.0
 11
3660.917106877462
 21
177.9896877612945
 31
0.0
 12
3659.250440210796
 22
187.9896877612945
 32
0.0
 13
3659.250440210796
 23
187.9896877612945
 33
0.0
  0
SOLID
  5
EFD
330
EF7
100
AcDbEntity
  8
0
 62
     0
100
AcDbTrace
 10
3657.583773544129
 20
37.98968776129455
 30
0.0
 11
3660.917106877462
 21
37.98968776129455
 31
0.0
 12
3659.250440210796
 22
27.98968776129454
 32
0.0
 13
3659.250440210796
 23
27.98968776129454
 33
0.0
  0
MTEXT
  5
EFE
330
EF7
100
AcDbEntity
  8
0
 62
     0
100
AcDbMText
 10
3648.625440210795
 20
107.9896877612951
 30
0.0
 40
20.0
 41
0.0
 46
0.0
 71
     5
 72
     1
  1
160
 11
0.0000000000000001
 21
1.0
 31
0.0
 73
     1
 44
1.0
  0
POINT
  5
EFF
330
EF7
100
AcDbEntity
  8
Defpoints
 62
     0
100
AcDbPoint
 10
3580.640635836118
 20
187.9896877612945
 30
0.0
  0
POINT
  5
F00
330
EF7
100
AcDbEntity
  8
Defpoints
 62
     0
100
AcDbPoint
 10
3580.640635836118
 20
27.98968776129457
 30
0.0
  0
POINT
  5
F01
330
EF7
100
AcDbEntity
  8
Defpoints
 62
     0
100
AcDbPoint
 10
3659.250440210796
 20
27.98968776129454
 30
0.0
  0
ENDBLK
  5
F02
330
EF7
100
AcDbEntity
  8
0
100
AcDbBlockEnd
  0
BLOCK
  5
F04
330
F03
100
AcDbEntity
  8
0
100
AcDbBlockBegin
  2
*D80
 70
     1
 10
0.0
 20
0.0
 30
0.0
  3
*D80
  1

  0
LINE
  5
F05
330
F03
100
AcDbEntity
  8
0
 62
     0
370
    -2
100
AcDbLine
 10
4786.018003509028
 20
748.028865927212
 30
0.0
 11
4944.734698703782
 21
748.0288659272119
 31
0.0
  0
LINE
  5
F06
330
F03
100
AcDbEntity
  8
0
 62
     0
370
    -2
100
AcDbLine
 10
4786.018003509027
 20
308.0288659272119
 30
0.0
 11
4944.734698703782
 21
308.0288659272119
 31
0.0
  0
LINE
  5
F07
330
F03
100
AcDbEntity
  8
0
 62
     0
370
    -2
100
AcDbLine
 10
4943.484698703781
 20
738.0288659272118
 30
0.0
 11
4943.484698703781
 21
318.0288659272119
 31
0.0
  0
SOLID
  5
F08
330
F03
100
AcDbEntity
  8
0
 62
     0
100
AcDbTrace
 10
4941.818032037115
 20
738.0288659272118
 30
0.0
 11
4945.151365370449
 21
738.0288659272118
 31
0.0
 12
4943.484698703781
 22
748.0288659272119
 32
0.0
 13
4943.484698703781
 23
748.0288659272119
 33
0.0
  0
SOLID
  5
F09
330
F03
100
AcDbEntity
  8
0
 62
     0
100
AcDbTrace
 10
4941.818032037115
 20
318.0288659272119
 30
0.0
 11
4945.151365370449
 21
318.0288659272119
 31
0.0
 12
4943.484698703781
 22
308.0288659272119
 32
0.0
 13
4943.484698703781
 23
308.0288659272119
 33
0.0
  0
MTEXT
  5
F0A
330
F03
100
AcDbEntity
  8
0
 62
     0
100
AcDbMText
 10
4932.859698703782
 20
528.0288659272127
 30
0.0
 40
20.0
 41
0.0
 46
0.0
 71
     5
 72
     1
  1
440
 11
0.0000000000000001
 21
1.0
 31
0.0
 73
     1
 44
1.0
  0
POINT
  5
F0B
330
F03
100
AcDbEntity
  8
Defpoints
 62
     0
100
AcDbPoint
 10
4785.393003509027
 20
748.028865927212
 30
0.0
  0
POINT
  5
F0C
330
F03
100
AcDbEntity
  8
Defpoints
 62
     0
100
AcDbPoint
 10
4785.393003509027
 20
308.0288659272119
 30
0.0
  0
POINT
  5
F0D
330
F03
100
AcDbEntity
  8
Defpoints
 62
     0
100
AcDbPoint
 10
4943.484698703781
 20
308.0288659272119
 30
0.0
  0
ENDBLK
  5
F0E
330
F03
100
AcDbEntity
  8
0
100
AcDbBlockEnd
  0
BLOCK
  5
F10
330
F0F
100
AcDbEntity
  8
0
100
AcDbBlockBegin
  2
*D81
 70
     1
 10
0.0
 20
0.0
 30
0.0
  3
*D81
  1

  0
LINE
  5
F11
330
F0F
100
AcDbEntity
  8
0
 62
     0
370
    -2
100
AcDbLine
 10
4766.018003509027
 20
728.028865927212
 30
0.0
 11
4852.110754103444
 21
728.028865927212
 31
0.0
  0
LINE
  5
F12
330
F0F
100
AcDbEntity
  8
0
 62
     0
370
    -2
100
AcDbLine
 10
4766.018003509027
 20
328.028865927212
 30
0.0
 11
4852.110754103444
 21
328.028865927212
 31
0.0
  0
LINE
  5
F13
330
F0F
100
AcDbEntity
  8
0
 62
     0
370
    -2
100
AcDbLine
 10
4850.860754103443
 20
718.028865927212
 30
0.0
 11
4850.860754103443
 21
338.0288659272119
 31
0.0
  0
SOLID
  5
F14
330
F0F
100
AcDbEntity
  8
0
 62
     0
100
AcDbTrace
 10
4849.194087436776
 20
718.028865927212
 30
0.0
 11
4852.52742077011
 21
718.028865927212
 31
0.0
 12
4850.860754103443
 22
728.028865927212
 32
0.0
 13
4850.860754103443
 23
728.028865927212
 33
0.0
  0
SOLID
  5
F15
330
F0F
100
AcDbEntity
  8
0
 62
     0
100
AcDbTrace
 10
4849.194087436776
 20
338.0288659272119
 30
0.0
 11
4852.52742077011
 21
338.0288659272119
 31
0.0
 12
4850.860754103443
 22
328.028865927212
 32
0.0
 13
4850.860754103443
 23
328.028865927212
 33
0.0
  0
MTEXT
  5
F16
330
F0F
100
AcDbEntity
  8
0
 62
     0
100
AcDbMText
 10
4840.235754103443
 20
528.0288659272127
 30
0.0
 40
20.0
 41
0.0
 46
0.0
 71
     5
 72
     1
  1
400
 11
0.0000000000000001
 21
1.0
 31
0.0
 73
     1
 44
1.0
  0
POINT
  5
F17
330
F0F
100
AcDbEntity
  8
Defpoints
 62
     0
100
AcDbPoint
 10
4765.393003509028
 20
728.028865927212
 30
0.0
  0
POINT
  5
F18
330
F0F
100
AcDbEntity
  8
Defpoints
 62
     0
100
AcDbPoint
 10
4765.393003509027
 20
328.028865927212
 30
0.0
  0
POINT
  5
F19
330
F0F
100
AcDbEntity
  8
Defpoints
 62
     0
100
AcDbPoint
 10
4850.860754103443
 20
328.028865927212
 30
0.0
  0
ENDBLK
  5
F1A
330
F0F
100
AcDbEntity
  8
0
100
AcDbBlockEnd
  0
BLOCK
  5
F1C
330
F1B
100
AcDbEntity
  8
0
100
AcDbBlockBegin
  2
*D82
 70
     1
 10
0.0
 20
0.0
 30
0.0
  3
*D82
  1

  0
LINE
  5
F1D
330
F1B
100
AcDbEntity
  8
0
 62
     0
370
    -2
100
AcDbLine
 10
4045.393003509027
 20
307.4038659272118
 30
0.0
 11
4045.393003509027
 21
146.8976480937017
 31
0.0
  0
LINE
  5
F1E
330
F1B
100
AcDbEntity
  8
0
 62
     0
370
    -2
100
AcDbLine
 10
4785.393003509027
 20
327.403865927212
 30
0.0
 11
4785.393003509027
 21
146.8976480937017
 31
0.0
  0
LINE
  5
F1F
330
F1B
100
AcDbEntity
  8
0
 62
     0
370
    -2
100
AcDbLine
 10
4055.393003509027
 20
148.1476480937017
 30
0.0
 11
4775.393003509027
 21
148.1476480937017
 31
0.0
  0
SOLID
  5
F20
330
F1B
100
AcDbEntity
  8
0
 62
     0
100
AcDbTrace
 10
4055.393003509027
 20
149.8143147603683
 30
0.0
 11
4055.393003509027
 21
146.480981427035
 31
0.0
 12
4045.393003509027
 22
148.1476480937017
 32
0.0
 13
4045.393003509027
 23
148.1476480937017
 33
0.0
  0
SOLID
  5
F21
330
F1B
100
AcDbEntity
  8
0
 62
     0
100
AcDbTrace
 10
4775.393003509027
 20
149.8143147603683
 30
0.0
 11
4775.393003509027
 21
146.480981427035
 31
0.0
 12
4785.393003509027
 22
148.1476480937017
 32
0.0
 13
4785.393003509027
 23
148.1476480937017
 33
0.0
  0
MTEXT
  5
F22
330
F1B
100
AcDbEntity
  8
0
 62
     0
100
AcDbMText
 10
4415.393003509026
 20
158.7726480937017
 30
0.0
 40
20.0
 41
0.0
 46
0.0
 71
     5
 72
     1
  1
740
 73
     1
 44
1.0
  0
POINT
  5
F23
330
F1B
100
AcDbEntity
  8
Defpoints
 62
     0
100
AcDbPoint
 10
4045.393003509027
 20
308.0288659272118
 30
0.0
  0
POINT
  5
F24
330
F1B
100
AcDbEntity
  8
Defpoints
 62
     0
100
AcDbPoint
 10
4785.393003509027
 20
328.028865927212
 30
0.0
  0
POINT
  5
F25
330
F1B
100
AcDbEntity
  8
Defpoints
 62
     0
100
AcDbPoint
 10
4785.393003509027
 20
148.1476480937017
 30
0.0
  0
ENDBLK
  5
F26
330
F1B
100
AcDbEntity
  8
0
100
AcDbBlockEnd
  0
BLOCK
  5
F28
330
F27
100
AcDbEntity
  8
0
100
AcDbBlockBegin
  2
*D83
 70
     1
 10
0.0
 20
0.0
 30
0.0
  3
*D83
  1

  0
LINE
  5
F29
330
F27
100
AcDbEntity
  8
0
 62
     0
370
    -2
100
AcDbLine
 10
4065.393003509027
 20
327.4038659272119
 30
0.0
 11
4065.393003509027
 21
219.4354367065825
 31
0.0
  0
LINE
  5
F2A
330
F27
100
AcDbEntity
  8
0
 62
     0
370
    -2
100
AcDbLine
 10
4765.393003509027
 20
327.403865927212
 30
0.0
 11
4765.393003509027
 21
219.4354367065825
 31
0.0
  0
LINE
  5
F2B
330
F27
100
AcDbEntity
  8
0
 62
     0
370
    -2
100
AcDbLine
 10
4075.393003509026
 20
220.6854367065826
 30
0.0
 11
4755.393003509026
 21
220.6854367065826
 31
0.0
  0
SOLID
  5
F2C
330
F27
100
AcDbEntity
  8
0
 62
     0
100
AcDbTrace
 10
4075.393003509026
 20
222.3521033732492
 30
0.0
 11
4075.393003509026
 21
219.0187700399159
 31
0.0
 12
4065.393003509027
 22
220.6854367065826
 32
0.0
 13
4065.393003509027
 23
220.6854367065826
 33
0.0
  0
SOLID
  5
F2D
330
F27
100
AcDbEntity
  8
0
 62
     0
100
AcDbTrace
 10
4755.393003509026
 20
222.3521033732492
 30
0.0
 11
4755.393003509026
 21
219.0187700399159
 31
0.0
 12
4765.393003509027
 22
220.6854367065826
 32
0.0
 13
4765.393003509027
 23
220.6854367065826
 33
0.0
  0
MTEXT
  5
F2E
330
F27
100
AcDbEntity
  8
0
 62
     0
100
AcDbMText
 10
4415.393003509026
 20
231.3104367065825
 30
0.0
 40
20.0
 41
0.0
 46
0.0
 71
     5
 72
     1
  1
700
 73
     1
 44
1.0
  0
POINT
  5
F2F
330
F27
100
AcDbEntity
  8
Defpoints
 62
     0
100
AcDbPoint
 10
4065.393003509027
 20
328.0288659272119
 30
0.0
  0
POINT
  5
F30
330
F27
100
AcDbEntity
  8
Defpoints
 62
     0
100
AcDbPoint
 10
4765.393003509027
 20
328.028865927212
 30
0.0
  0
POINT
  5
F31
330
F27
100
AcDbEntity
  8
Defpoints
 62
     0
100
AcDbPoint
 10
4765.393003509027
 20
220.6854367065826
 30
0.0
  0
ENDBLK
  5
F32
330
F27
100
AcDbEntity
  8
0
100
AcDbBlockEnd
  0
BLOCK
  5
F34
330
F33
100
AcDbEntity
  8
0
100
AcDbBlockBegin
  2
*D84
 70
     1
 10
0.0
 20
0.0
 30
0.0
  3
*D84
  1

  0
LINE
  5
F35
330
F33
100
AcDbEntity
  8
0
 62
     0
370
    -2
100
AcDbLine
 10
4766.018003509027
 20
65.91288546494978
 30
0.0
 11
4879.64760411871
 21
65.91288546494975
 31
0.0
  0
LINE
  5
F36
330
F33
100
AcDbEntity
  8
0
 62
     0
370
    -2
100
AcDbLine
 10
4766.018003509029
 20
-134.0871145350502
 30
0.0
 11
4879.64760411871
 21
-134.0871145350502
 31
0.0
  0
LINE
  5
F37
330
F33
100
AcDbEntity
  8
0
 62
     0
370
    -2
100
AcDbLine
 10
4878.397604118711
 20
55.91288546494975
 30
0.0
 11
4878.397604118711
 21
-124.0871145350502
 31
0.0
  0
SOLID
  5
F38
330
F33
100
AcDbEntity
  8
0
 62
     0
100
AcDbTrace
 10
4876.730937452044
 20
55.91288546494975
 30
0.0
 11
4880.064270785378
 21
55.91288546494975
 31
0.0
 12
4878.397604118711
 22
65.91288546494975
 32
0.0
 13
4878.397604118711
 23
65.91288546494975
 33
0.0
  0
SOLID
  5
F39
330
F33
100
AcDbEntity
  8
0
 62
     0
100
AcDbTrace
 10
4876.730937452044
 20
-124.0871145350502
 30
0.0
 11
4880.064270785378
 21
-124.0871145350502
 31
0.0
 12
4878.397604118711
 22
-134.0871145350502
 32
0.0
 13
4878.397604118711
 23
-134.0871145350502
 33
0.0
  0
MTEXT
  5
F3A
330
F33
100
AcDbEntity
  8
0
 62
     0
100
AcDbMText
 10
4867.772604118711
 20
-34.08711453504948
 30
0.0
 40
20.0
 41
0.0
 46
0.0
 71
     5
 72
     1
  1
200
 11
0.0000000000000001
 21
1.0
 31
0.0
 73
     1
 44
1.0
  0
POINT
  5
F3B
330
F33
100
AcDbEntity
  8
Defpoints
 62
     0
100
AcDbPoint
 10
4765.393003509028
 20
65.91288546494978
 30
0.0
  0
POINT
  5
F3C
330
F33
100
AcDbEntity
  8
Defpoints
 62
     0
100
AcDbPoint
 10
4765.393003509029
 20
-134.0871145350502
 30
0.0
  0
POINT
  5
F3D
330
F33
100
AcDbEntity
  8
Defpoints
 62
     0
100
AcDbPoint
 10
4878.397604118711
 20
-134.0871145350502
 30
0.0
  0
ENDBLK
  5
F3E
330
F33
100
AcDbEntity
  8
0
100
AcDbBlockEnd
  0
BLOCK
  5
1054
330
F3F
100
AcDbEntity
  8
0
100
AcDbBlockBegin
  2
方槽
 70
     0
 10
0.0
 20
0.0
 30
0.0
  3
方槽
  1

1001
AcadStringInfo
1000
MIFCodePage
1070
     5
  0
LINE
  5
F40
330
F3F
100
AcDbEntity
  8
0
100
AcDbLine
 10
360.5359004577476
 20
793.0898403138294
 30
0.0
 11
360.5359004577476
 21
393.0898403138294
 31
0.0
  0
LINE
  5
F41
330
F3F
100
AcDbEntity
  8
0
100
AcDbLine
 10
360.5359004577476
 20
393.0898403138294
 30
0.0
 11
860.5359004577477
 21
393.0898403138294
 31
0.0
  0
LINE
  5
F42
330
F3F
100
AcDbEntity
  8
0
100
AcDbLine
 10
860.5359004577476
 20
793.0898403138294
 30
0.0
 11
860.5359004577476
 21
393.0898403138294
 31
0.0
  0
LINE
  5
F43
330
F3F
100
AcDbEntity
  8
0
100
AcDbLine
 10
360.5359004577476
 20
793.0898403138294
 30
0.0
 11
860.5359004577476
 21
793.0898403138294
 31
0.0
  0
CIRCLE
  5
F44
330
F3F
100
AcDbEntity
  8
0
100
AcDbCircle
 10
610.5359004577476
 20
643.0898403138294
 30
0.0
 40
45.0
  0
CIRCLE
  5
F45
330
F3F
100
AcDbEntity
  8
0
100
AcDbCircle
 10
610.5359004577476
 20
643.0898403138294
 30
0.0
 40
55.0
  0
LINE
  5
F46
330
F3F
100
AcDbEntity
  8
0
100
AcDbLine
 10
360.5359004577476
 20
793.0898403138294
 30
0.0
 11
563.3737895435577
 21
671.3871068623433
 31
0.0
  0
LINE
  5
F47
330
F3F
100
AcDbEntity
  8
0
100
AcDbLine
 10
657.6980113719375
 20
671.3871068623434
 30
0.0
 11
860.5359004577476
 21
793.0898403138294
 31
0.0
  0
LINE
  5
F48
330
F3F
100
AcDbEntity
  8
0
100
AcDbLine
 10
860.5359004577477
 20
393.0898403138294
 30
0.0
 11
649.4267734230077
 21
604.1989673485693
 31
0.0
  0
LINE
  5
F49
330
F3F
100
AcDbEntity
  8
0
100
AcDbLine
 10
360.5359004577476
 20
393.0898403138294
 30
0.0
 11
571.6450274924875
 21
604.1989673485692
 31
0.0
  0
LINE
  5
F4A
330
F3F
100
AcDbEntity
  8
0
100
AcDbLine
 10
340.5359004577476
 20
813.0898403138296
 30
0.0
 11
880.5359004577475
 21
813.0898403138294
 31
0.0
  0
LINE
  5
F4B
330
F3F
100
AcDbEntity
  8
0
100
AcDbLine
 10
340.5359004577475
 20
813.0898403138292
 30
0.0
 11
340.5359004577477
 21
373.0898403138294
 31
0.0
  0
LINE
  5
F4C
330
F3F
100
AcDbEntity
  8
0
100
AcDbLine
 10
340.5359004577477
 20
373.0898403138294
 30
0.0
 11
880.5359004577477
 21
373.0898403138294
 31
0.0
  0
LINE
  5
F4D
330
F3F
100
AcDbEntity
  8
0
100
AcDbLine
 10
880.5359004577475
 20
813.0898403138292
 30
0.0
 11
880.5359004577477
 21
373.0898403138294
 31
0.0
  0
LINE
  5
F4E
330
F3F
100
AcDbEntity
  8
0
100
AcDbLine
 10
340.5359004577477
 20
150.7023803317006
 30
0.0
 11
880.5359004577477
 21
150.7023803317006
 31
0.0
  0
LINE
  5
F4F
330
F3F
100
AcDbEntity
  8
0
100
AcDbLine
 10
360.5359004577476
 20
-49.29761966829937
 30
0.0
 11
860.5359004577476
 21
-49.29761966829937
 31
0.0
  0
LINE
  5
F50
330
F3F
100
AcDbEntity
  8
0
100
AcDbLine
 10
565.5359004577475
 20
-55.29761966829938
 30
0.0
 11
655.5359004577476
 21
-55.29761966829938
 31
0.0
  0
LINE
  5
F51
330
F3F
100
AcDbEntity
  8
0
100
AcDbLine
 10
555.5359004577476
 20
-49.29761966829937
 30
0.0
 11
565.5359004577475
 21
-55.29761966829937
 31
0.0
  0
LINE
  5
F52
330
F3F
100
AcDbEntity
  8
0
100
AcDbLine
 10
665.5359004577476
 20
-49.29761966829937
 30
0.0
 11
655.5359004577476
 21
-55.29761966829937
 31
0.0
  0
LINE
  5
F53
330
F3F
100
AcDbEntity
  8
0
100
AcDbLine
 10
860.5359004577476
 20
150.7023803317006
 30
0.0
 11
860.5359004577476
 21
-49.29761966829937
 31
0.0
  0
LINE
  5
F54
330
F3F
100
AcDbEntity
  8
0
100
AcDbLine
 10
360.5359004577476
 20
150.7023803317006
 30
0.0
 11
360.5359004577476
 21
-49.29761966829937
 31
0.0
  0
LINE
  5
F55
330
F3F
100
AcDbEntity
  8
0
100
AcDbLine
 10
1407.299829353191
 20
797.62874007357
 30
0.0
 11
1407.299829353191
 21
397.62874007357
 31
0.0
  0
LINE
  5
F56
330
F3F
100
AcDbEntity
  8
0
100
AcDbLine
 10
1407.299829353191
 20
397.62874007357
 30
0.0
 11
1807.299829353191
 21
397.62874007357
 31
0.0
  0
LINE
  5
F57
330
F3F
100
AcDbEntity
  8
0
100
AcDbLine
 10
1807.299829353191
 20
797.62874007357
 30
0.0
 11
1807.299829353191
 21
397.62874007357
 31
0.0
  0
LINE
  5
F58
102
{ACAD_REACTORS
330
F6F
102
}
330
F3F
100
AcDbEntity
  8
0
100
AcDbLine
 10
1407.299829353191
 20
797.62874007357
 30
0.0
 11
1807.299829353191
 21
797.62874007357
 31
0.0
  0
CIRCLE
  5
F59
330
F3F
100
AcDbEntity
  8
0
100
AcDbCircle
 10
1607.299829353191
 20
647.62874007357
 30
0.0
 40
45.0
  0
CIRCLE
  5
F5A
330
F3F
100
AcDbEntity
  8
0
100
AcDbCircle
 10
1607.299829353191
 20
647.62874007357
 30
0.0
 40
55.0
  0
LINE
  5
F5B
330
F3F
100
AcDbEntity
  8
0
100
AcDbLine
 10
1407.299829353191
 20
795.7697686601832
 30
0.0
 11
1563.10343122494
 21
680.3652394662831
 31
0.0
  0
LINE
  5
F5C
330
F3F
100
AcDbEntity
  8
0
100
AcDbLine
 10
1807.299829353191
 20
795.7697686601832
 30
0.0
 11
1651.496227481442
 21
680.365239466283
 31
0.0
  0
LINE
  5
F5D
102
{ACAD_REACTORS
330
F75
102
}
330
F3F
100
AcDbEntity
  8
0
100
AcDbLine
 10
1407.299829353191
 20
397.62874007357
 30
0.0
 11
1572.941601737697
 21
604.6809555542033
 31
0.0
  0
LINE
  5
F5E
102
{ACAD_REACTORS
330
F6F
330
F75
102
}
330
F3F
100
AcDbEntity
  8
0
100
AcDbLine
 10
1641.658056968684
 20
604.6809555542033
 30
0.0
 11
1807.299829353191
 21
397.62874007357
 31
0.0
  0
LINE
  5
F5F
330
F3F
100
AcDbEntity
  8
0
100
AcDbLine
 10
1387.299829353191
 20
817.62874007357
 30
0.0
 11
1827.299829353191
 21
817.6287400735699
 31
0.0
  0
LINE
  5
F60
102
{ACAD_REACTORS
330
F72
102
}
330
F3F
100
AcDbEntity
  8
0
100
AcDbLine
 10
1387.299829353191
 20
377.62874007357
 30
0.0
 11
1827.299829353191
 21
377.62874007357
 31
0.0
  0
LINE
  5
F61
102
{ACAD_REACTORS
330
F6C
102
}
330
F3F
100
AcDbEntity
  8
0
100
AcDbLine
 10
1827.299829353191
 20
817.62874007357
 30
0.0
 11
1827.299829353191
 21
377.6287400735701
 31
0.0
  0
LINE
  5
F62
102
{ACAD_REACTORS
330
F72
102
}
330
F3F
100
AcDbEntity
  8
0
100
AcDbLine
 10
1387.299829353191
 20
817.62874007357
 30
0.0
 11
1387.299829353191
 21
377.6287400735701
 31
0.0
  0
LINE
  5
F63
330
F3F
100
AcDbEntity
  8
0
100
AcDbLine
 10
1407.299829353191
 20
175.4314956241787
 30
0.0
 11
1407.299829353191
 21
-24.56850437582124
 31
0.0
  0
LINE
  5
F64
102
{ACAD_REACTORS
330
F78
102
}
330
F3F
100
AcDbEntity
  8
0
100
AcDbLine
 10
1807.299829353191
 20
175.4314956241788
 30
0.0
 11
1807.299829353191
 21
-24.56850437582125
 31
0.0
  0
LINE
  5
F65
102
{ACAD_REACTORS
330
F78
102
}
330
F3F
100
AcDbEntity
  8
0
100
AcDbLine
 10
1387.299829353191
 20
175.4314956241788
 30
0.0
 11
1827.299829353191
 21
175.4314956241787
 31
0.0
  0
LINE
  5
F66
330
F3F
100
AcDbEntity
  8
0
100
AcDbLine
 10
1562.299829353191
 20
-30.56850437582125
 30
0.0
 11
1652.299829353191
 21
-30.56850437582125
 31
0.0
  0
LINE
  5
F67
330
F3F
100
AcDbEntity
  8
0
100
AcDbLine
 10
1552.299829353191
 20
-24.56850437582125
 30
0.0
 11
1562.299829353191
 21
-30.56850437582125
 31
0.0
  0
LINE
  5
F68
330
F3F
100
AcDbEntity
  8
0
100
AcDbLine
 10
1662.299829353191
 20
-24.56850437582125
 30
0.0
 11
1652.299829353191
 21
-30.56850437582125
 31
0.0
  0
LINE
  5
F69
102
{ACAD_REACTORS
330
F78
102
}
330
F3F
100
AcDbEntity
  8
0
100
AcDbLine
 10
1407.299829353191
 20
-24.56850437582125
 30
0.0
 11
1807.299829353191
 21
-24.56850437582125
 31
0.0
  0
DIMENSION
  5
F6A
102
{ACAD_XDICTIONARY
360
F6B
102
}
102
{ACAD_REACTORS
330
F6C
102
}
330
F3F
100
AcDbEntity
  8
0
100
AcDbDimension
280
     0
  2
*D65
 10
1966.300842247558
 20
377.62874007357
 30
0.0
 11
1955.675842247558
 21
597.6287400735704
 31
0.0
 70
    32
 71
     5
 42
440.0
 73
     0
 74
     0
 75
     0
  3
ISO-25
100
AcDbAlignedDimension
 13
1827.299829353191
 23
817.62874007357
 33
0.0
 14
1827.299829353191
 24
377.6287400735701
 34
0.0
 50
90.0
100
AcDbRotatedDimension
  0
DIMENSION
  5
F6D
102
{ACAD_XDICTIONARY
360
F6E
102
}
102
{ACAD_REACTORS
330
F6F
102
}
330
F3F
100
AcDbEntity
  8
0
100
AcDbDimension
280
     0
  2
*D66
 10
1897.852354759397
 20
397.62874007357
 30
0.0
 11
1887.227354759398
 21
597.6287400735704
 31
0.0
 70
    32
 71
     5
 42
400.0
 73
     0
 74
     0
 75
     0
  3
ISO-25
100
AcDbAlignedDimension
 13
1807.299829353191
 23
797.62874007357
 33
0.0
 14
1807.299829353191
 24
397.62874007357
 34
0.0
 50
90.0
100
AcDbRotatedDimension
  0
DIMENSION
  5
F70
102
{ACAD_XDICTIONARY
360
F71
102
}
102
{ACAD_REACTORS
330
F72
102
}
330
F3F
100
AcDbEntity
  8
0
100
AcDbDimension
280
     0
  2
*D67
 10
1387.299829353191
 20
248.697950997007
 30
0.0
 11
1607.299829353191
 21
259.322950997007
 31
0.0
 70
    32
 71
     5
 42
440.0
 73
     0
 74
     0
 75
     0
  3
ISO-25
100
AcDbAlignedDimension
 13
1827.299829353191
 23
397.62874007357
 33
0.0
 14
1387.299829353191
 24
377.6287400735699
 34
0.0
100
AcDbRotatedDimension
  0
DIMENSION
  5
F73
102
{ACAD_XDICTIONARY
360
F74
102
}
102
{ACAD_REACTORS
330
F75
102
}
330
F3F
100
AcDbEntity
  8
0
100
AcDbDimension
280
     0
  2
*D68
 10
1807.299829353191
 20
312.2052876365624
 30
0.0
 11
1607.299829353191
 21
322.8302876365624
 31
0.0
 70
    32
 71
     5
 42
400.0
 73
     0
 74
     0
 75
     0
  3
ISO-25
100
AcDbAlignedDimension
 13
1407.299829353191
 23
397.62874007357
 33
0.0
 14
1807.299829353191
 24
397.62874007357
 34
0.0
100
AcDbRotatedDimension
  0
DIMENSION
  5
F76
102
{ACAD_XDICTIONARY
360
F77
102
}
102
{ACAD_REACTORS
330
F78
102
}
330
F3F
100
AcDbEntity
  8
0
100
AcDbDimension
280
     0
  2
*D69
 10
1927.187425108692
 20
-24.56850437582128
 30
0.0
 11
1916.562425108692
 21
75.43149562417903
 31
0.0
 70
    32
 71
     5
 42
200.0
 73
     0
 74
     0
 75
     0
  3
ISO-25
100
AcDbAlignedDimension
 13
1807.299829353191
 23
175.4314956241787
 33
0.0
 14
1807.299829353191
 24
-24.56850437582125
 34
0.0
 50
90.0
100
AcDbRotatedDimension
  0
LINE
  5
F79
330
F3F
100
AcDbEntity
  8
0
100
AcDbLine
 10
2360.420069244081
 20
807.9396124395925
 30
0.0
 11
2850.420069244081
 21
807.9396124395925
 31
0.0
  0
LINE
  5
F7A
102
{ACAD_REACTORS
330
F96
102
}
330
F3F
100
AcDbEntity
  8
0
100
AcDbLine
 10
2360.420069244081
 20
807.9396124395925
 30
0.0
 11
2360.420069244081
 21
367.9396124395926
 31
0.0
  0
LINE
  5
F7B
102
{ACAD_REACTORS
330
F90
102
}
330
F3F
100
AcDbEntity
  8
0
100
AcDbLine
 10
2850.420069244081
 20
807.9396124395925
 30
0.0
 11
2850.420069244081
 21
367.9396124395926
 31
0.0
  0
LINE
  5
F7C
102
{ACAD_REACTORS
330
F90
330
F96
102
}
330
F3F
100
AcDbEntity
  8
0
100
AcDbLine
 10
2360.420069244081
 20
367.9396124395925
 30
0.0
 11
2850.420069244081
 21
367.9396124395925
 31
0.0
  0
LINE
  5
F7D
330
F3F
100
AcDbEntity
  8
0
100
AcDbLine
 10
2830.420069244081
 20
787.9396124395925
 30
0.0
 11
2830.420069244081
 21
387.9396124395926
 31
0.0
  0
LINE
  5
F7E
102
{ACAD_REACTORS
330
F99
102
}
330
F3F
100
AcDbEntity
  8
0
100
AcDbLine
 10
2380.420069244081
 20
787.9396124395927
 30
0.0
 11
2380.420069244081
 21
387.9396124395926
 31
0.0
  0
LINE
  5
F7F
330
F3F
100
AcDbEntity
  8
0
100
AcDbLine
 10
2380.420069244081
 20
787.9396124395927
 30
0.0
 11
2830.420069244081
 21
787.9396124395925
 31
0.0
  0
LINE
  5
F80
330
F3F
100
AcDbEntity
  8
0
100
AcDbLine
 10
2380.420069244081
 20
387.9396124395926
 30
0.0
 11
2830.420069244081
 21
387.9396124395926
 31
0.0
  0
CIRCLE
  5
F81
330
F3F
100
AcDbEntity
  8
0
100
AcDbCircle
 10
2605.420069244081
 20
637.9396124395927
 30
0.0
 40
55.0
  0
CIRCLE
  5
F82
330
F3F
100
AcDbEntity
  8
0
100
AcDbCircle
 10
2605.420069244081
 20
637.9396124395927
 30
0.0
 40
45.0
  0
LINE
  5
F83
330
F3F
100
AcDbEntity
  8
0
100
AcDbLine
 10
2380.420069244081
 20
787.9396124395927
 30
0.0
 11
2559.6573030555
 21
668.4481232319803
 31
0.0
  0
LINE
  5
F84
102
{ACAD_REACTORS
330
F93
102
}
330
F3F
100
AcDbEntity
  8
0
100
AcDbLine
 10
2830.420069244081
 20
787.9396124395925
 30
0.0
 11
2651.182835432662
 21
668.4481232319804
 31
0.0
  0
LINE
  5
F85
330
F3F
100
AcDbEntity
  8
0
100
AcDbLine
 10
2380.420069244081
 20
387.9396124395926
 30
0.0
 11
2568.627009004847
 21
597.0584343959983
 31
0.0
  0
LINE
  5
F86
102
{ACAD_REACTORS
330
F93
330
F99
102
}
330
F3F
100
AcDbEntity
  8
0
100
AcDbLine
 10
2642.213129483316
 20
597.0584343959985
 30
0.0
 11
2830.420069244081
 21
387.9396124395926
 31
0.0
  0
LINE
  5
F87
330
F3F
100
AcDbEntity
  8
0
100
AcDbLine
 10
2380.420069244082
 20
146.2512861263858
 30
0.0
 11
2380.420069244081
 21
-53.74871387361416
 31
0.0
  0
LINE
  5
F88
102
{ACAD_REACTORS
330
F9C
102
}
330
F3F
100
AcDbEntity
  8
0
100
AcDbLine
 10
2830.420069244081
 20
146.2512861263858
 30
0.0
 11
2830.420069244081
 21
-53.74871387361419
 31
0.0
  0
LINE
  5
F89
330
F3F
100
AcDbEntity
  8
0
100
AcDbLine
 10
2360.420069244082
 20
146.2512861263858
 30
0.0
 11
2850.420069244082
 21
146.2512861263858
 31
0.0
  0
LINE
  5
F8A
102
{ACAD_REACTORS
330
F9C
102
}
330
F3F
100
AcDbEntity
  8
0
100
AcDbLine
 10
2380.420069244082
 20
-53.74871387361416
 30
0.0
 11
2830.420069244081
 21
-53.74871387361418
 31
0.0
  0
LINE
  5
F8B
330
F3F
100
AcDbEntity
  8
0
100
AcDbLine
 10
2560.420069244081
 20
-59.74871387361416
 30
0.0
 11
2650.420069244081
 21
-59.74871387361417
 31
0.0
  0
LINE
  5
F8C
330
F3F
100
AcDbEntity
  8
0
100
AcDbLine
 10
2550.420069244081
 20
-53.74871387361418
 30
0.0
 11
2560.420069244081
 21
-59.74871387361417
 31
0.0
  0
LINE
  5
F8D
330
F3F
100
AcDbEntity
  8
0
100
AcDbLine
 10
2660.420069244081
 20
-53.74871387361418
 30
0.0
 11
2650.420069244081
 21
-59.74871387361417
 31
0.0
  0
DIMENSION
  5
F8E
102
{ACAD_XDICTIONARY
360
F8F
102
}
102
{ACAD_REACTORS
330
F90
102
}
330
F3F
100
AcDbEntity
  8
0
100
AcDbDimension
280
     0
  2
*D70
 10
2993.057992744463
 20
367.9396124395925
 30
0.0
 11
2982.432992744464
 21
587.939612439593
 31
0.0
 70
    32
 71
     5
 42
440.0000000000001
 73
     0
 74
     0
 75
     0
  3
ISO-25
100
AcDbAlignedDimension
 13
2850.420069244081
 23
807.9396124395925
 33
0.0
 14
2850.420069244081
 24
367.9396124395925
 34
0.0
 50
90.0
100
AcDbRotatedDimension
  0
DIMENSION
  5
F91
102
{ACAD_XDICTIONARY
360
F92
102
}
102
{ACAD_REACTORS
330
F93
102
}
330
F3F
100
AcDbEntity
  8
0
100
AcDbDimension
280
     0
  2
*D71
 10
2905.742574933356
 20
387.9396124395926
 30
0.0
 11
2895.117574933356
 21
587.939612439593
 31
0.0
 70
    32
 71
     5
 42
400.0
 73
     0
 74
     0
 75
     0
  3
ISO-25
100
AcDbAlignedDimension
 13
2830.420069244081
 23
787.9396124395925
 33
0.0
 14
2830.420069244081
 24
387.9396124395926
 34
0.0
 50
90.0
100
AcDbRotatedDimension
  0
DIMENSION
  5
F94
102
{ACAD_XDICTIONARY
360
F95
102
}
102
{ACAD_REACTORS
330
F96
102
}
330
F3F
100
AcDbEntity
  8
0
100
AcDbDimension
280
     0
  2
*D72
 10
2850.420069244081
 20
225.975798566742
 30
0.0
 11
2605.420069244081
 21
236.600798566742
 31
0.0
 70
    32
 71
     5
 42
489.9999999999995
 73
     0
 74
     0
 75
     0
  3
ISO-25
100
AcDbAlignedDimension
 13
2360.420069244081
 23
367.9396124395926
 33
0.0
 14
2850.420069244081
 24
367.9396124395925
 34
0.0
100
AcDbRotatedDimension
  0
DIMENSION
  5
F97
102
{ACAD_XDICTIONARY
360
F98
102
}
102
{ACAD_REACTORS
330
F99
102
}
330
F3F
100
AcDbEntity
  8
0
100
AcDbDimension
280
     0
  2
*D73
 10
2830.420069244081
 20
302.314316225581
 30
0.0
 11
2605.420069244081
 21
312.939316225581
 31
0.0
 70
    32
 71
     5
 42
450.0
 73
     0
 74
     0
 75
     0
  3
ISO-25
100
AcDbAlignedDimension
 13
2380.420069244081
 23
387.9396124395926
 33
0.0
 14
2830.420069244081
 24
387.9396124395926
 34
0.0
100
AcDbRotatedDimension
  0
DIMENSION
  5
F9A
102
{ACAD_XDICTIONARY
360
F9B
102
}
102
{ACAD_REACTORS
330
F9C
102
}
330
F3F
100
AcDbEntity
  8
0
100
AcDbDimension
280
     0
  2
*D74
 10
2941.214460608441
 20
-53.74871387361421
 30
0.0
 11
2930.589460608441
 21
46.25128612638628
 31
0.0
 70
    32
 71
     5
 42
200.0
 73
     0
 74
     0
 75
     0
  3
ISO-25
100
AcDbAlignedDimension
 13
2830.420069244081
 23
146.2512861263858
 33
0.0
 14
2830.420069244081
 24
-53.74871387361418
 34
0.0
 50
90.0
100
AcDbRotatedDimension
  0
LINE
  5
F9D
330
F3F
100
AcDbEntity
  8
0
100
AcDbLine
 10
3400.640635836118
 20
359.5055342291916
 30
0.0
 11
3580.640635836119
 21
359.5055342291916
 31
0.0
  0
LINE
  5
F9E
330
F3F
100
AcDbEntity
  8
0
100
AcDbLine
 10
3400.640635836118
 20
759.5055342291916
 30
0.0
 11
3580.640635836118
 21
759.5055342291915
 31
0.0
  0
LINE
  5
F9F
330
F3F
100
AcDbEntity
  8
0
100
AcDbLine
 10
3600.640635836118
 20
779.5055342291917
 30
0.0
 11
3600.640635836118
 21
339.5055342291917
 31
0.0
  0
LINE
  5
FA0
102
{ACAD_REACTORS
330
FB4
102
}
330
F3F
100
AcDbEntity
  8
0
100
AcDbLine
 10
3380.640635836118
 20
779.5055342291917
 30
0.0
 11
3600.640635836118
 21
779.5055342291917
 31
0.0
  0
LINE
  5
FA1
102
{ACAD_REACTORS
330
FBA
102
}
330
F3F
100
AcDbEntity
  8
0
100
AcDbLine
 10
3380.640635836118
 20
779.5055342291917
 30
0.0
 11
3380.640635836118
 21
339.5055342291917
 31
0.0
  0
LINE
  5
FA2
102
{ACAD_REACTORS
330
FB4
330
FBA
102
}
330
F3F
100
AcDbEntity
  8
0
100
AcDbLine
 10
3380.640635836118
 20
339.5055342291916
 30
0.0
 11
3600.640635836118
 21
339.5055342291917
 31
0.0
  0
LINE
  5
FA3
330
F3F
100
AcDbEntity
  8
0
100
AcDbLine
 10
3580.640635836118
 20
759.5055342291914
 30
0.0
 11
3580.640635836118
 21
359.5055342291916
 31
0.0
  0
LINE
  5
FA4
330
F3F
100
AcDbEntity
  8
0
100
AcDbLine
 10
3400.640635836118
 20
759.5055342291915
 30
0.0
 11
3400.640635836118
 21
359.5055342291916
 31
0.0
  0
CIRCLE
  5
FA5
330
F3F
100
AcDbEntity
  8
0
100
AcDbCircle
 10
3490.640635836118
 20
609.5055342291916
 30
0.0
 40
45.0
  0
CIRCLE
  5
FA6
330
F3F
100
AcDbEntity
  8
0
100
AcDbCircle
 10
3490.640635836118
 20
609.5055342291916
 30
0.0
 40
55.0
  0
LINE
  5
FA7
330
F3F
100
AcDbEntity
  8
0
100
AcDbLine
 10
3400.640635836118
 20
759.5055342291916
 30
0.0
 11
3462.343369287604
 21
656.6676451433815
 31
0.0
  0
LINE
  5
FA8
102
{ACAD_REACTORS
330
FB7
102
}
330
F3F
100
AcDbEntity
  8
0
100
AcDbLine
 10
3580.640635836118
 20
759.5055342291914
 30
0.0
 11
3518.937902384632
 21
656.6676451433814
 31
0.0
  0
LINE
  5
FA9
102
{ACAD_REACTORS
330
FBD
102
}
330
F3F
100
AcDbEntity
  8
0
100
AcDbLine
 10
3400.640635836118
 20
359.5055342291916
 30
0.0
 11
3472.011065081118
 21
557.7567265764116
 31
0.0
  0
LINE
  5
FAA
102
{ACAD_REACTORS
330
FB7
330
FBD
102
}
330
F3F
100
AcDbEntity
  8
0
100
AcDbLine
 10
3509.270206591118
 20
557.7567265764116
 30
0.0
 11
3580.640635836118
 21
359.5055342291916
 31
0.0
  0
LINE
  5
FAB
330
F3F
100
AcDbEntity
  8
0
100
AcDbLine
 10
3400.640635836119
 20
187.9896877612945
 30
0.0
 11
3400.640635836119
 21
27.98968776129456
 31
0.0
  0
LINE
  5
FAC
102
{ACAD_REACTORS
330
FC0
102
}
330
F3F
100
AcDbEntity
  8
0
100
AcDbLine
 10
3580.640635836118
 20
187.9896877612945
 30
0.0
 11
3580.640635836118
 21
27.98968776129457
 31
0.0
  0
LINE
  5
FAD
330
F3F
100
AcDbEntity
  8
0
100
AcDbLine
 10
3380.640635836118
 20
187.9896877612945
 30
0.0
 11
3600.640635836118
 21
187.9896877612945
 31
0.0
  0
LINE
  5
FAE
330
F3F
100
AcDbEntity
  8
0
100
AcDbLine
 10
3400.640635836119
 20
27.98968776129456
 30
0.0
 11
3580.640635836118
 21
27.98968776129456
 31
0.0
  0
LINE
  5
FAF
330
F3F
100
AcDbEntity
  8
0
100
AcDbLine
 10
3445.640635836118
 20
21.98968776129456
 30
0.0
 11
3535.640635836118
 21
21.98968776129456
 31
0.0
  0
LINE
  5
FB0
330
F3F
100
AcDbEntity
  8
0
100
AcDbLine
 10
3435.640635836118
 20
27.98968776129459
 30
0.0
 11
3445.640635836118
 21
21.98968776129456
 31
0.0
  0
LINE
  5
FB1
330
F3F
100
AcDbEntity
  8
0
100
AcDbLine
 10
3545.640635836118
 20
27.98968776129459
 30
0.0
 11
3535.640635836118
 21
21.98968776129456
 31
0.0
  0
DIMENSION
  5
FB2
102
{ACAD_XDICTIONARY
360
FB3
102
}
102
{ACAD_REACTORS
330
FB4
102
}
330
F3F
100
AcDbEntity
  8
0
100
AcDbDimension
280
     0
  2
*D75
 10
3738.679788148072
 20
339.5055342291916
 30
0.0
 11
3728.054788148073
 21
559.5055342291923
 31
0.0
 70
    32
 71
     5
 42
440.0000000000001
 73
     0
 74
     0
 75
     0
  3
ISO-25
100
AcDbAlignedDimension
 13
3600.640635836118
 23
779.5055342291917
 33
0.0
 14
3600.640635836118
 24
339.5055342291917
 34
0.0
 50
90.0
100
AcDbRotatedDimension
  0
DIMENSION
  5
FB5
102
{ACAD_XDICTIONARY
360
FB6
102
}
102
{ACAD_REACTORS
330
FB7
102
}
330
F3F
100
AcDbEntity
  8
0
100
AcDbDimension
280
     0
  2
*D76
 10
3668.768165798727
 20
359.5055342291916
 30
0.0
 11
3658.143165798727
 21
559.5055342291921
 31
0.0
 70
    32
 71
     5
 42
399.9999999999998
 73
     0
 74
     0
 75
     0
  3
ISO-25
100
AcDbAlignedDimension
 13
3580.640635836118
 23
759.5055342291914
 33
0.0
 14
3580.640635836118
 24
359.5055342291916
 34
0.0
 50
90.0
100
AcDbRotatedDimension
  0
DIMENSION
  5
FB8
102
{ACAD_XDICTIONARY
360
FB9
102
}
102
{ACAD_REACTORS
330
FBA
102
}
330
F3F
100
AcDbEntity
  8
0
100
AcDbDimension
280
     0
  2
*D77
 10
3600.640635836118
 20
232.2100085260808
 30
0.0
 11
3490.640635836118
 21
242.8350085260809
 31
0.0
 70
    32
 71
     5
 42
219.9999999999991
 73
     0
 74
     0
 75
     0
  3
ISO-25
100
AcDbAlignedDimension
 13
3380.640635836118
 23
339.5055342291917
 33
0.0
 14
3600.640635836118
 24
339.5055342291917
 34
0.0
100
AcDbRotatedDimension
  0
DIMENSION
  5
FBB
102
{ACAD_XDICTIONARY
360
FBC
102
}
102
{ACAD_REACTORS
330
FBD
102
}
330
F3F
100
AcDbEntity
  8
0
100
AcDbDimension
280
     0
  2
*D78
 10
3580.640635836118
 20
286.1884527477032
 30
0.0
 11
3490.640635836118
 21
296.8134527477032
 31
0.0
 70
    32
 71
     5
 42
180.0
 73
     0
 74
     0
 75
     0
  3
ISO-25
100
AcDbAlignedDimension
 13
3400.640635836118
 23
359.5055342291916
 33
0.0
 14
3580.640635836118
 24
359.5055342291916
 34
0.0
100
AcDbRotatedDimension
  0
DIMENSION
  5
FBE
102
{ACAD_XDICTIONARY
360
FBF
102
}
102
{ACAD_REACTORS
330
FC0
102
}
330
F3F
100
AcDbEntity
  8
0
100
AcDbDimension
280
     0
  2
*D79
 10
3659.250440210796
 20
27.98968776129454
 30
0.0
 11
3648.625440210795
 21
107.9896877612951
 31
0.0
 70
    32
 71
     5
 42
159.9999999999999
 73
     0
 74
     0
 75
     0
  3
ISO-25
100
AcDbAlignedDimension
 13
3580.640635836118
 23
187.9896877612945
 33
0.0
 14
3580.640635836118
 24
27.98968776129457
 34
0.0
 50
90.0
100
AcDbRotatedDimension
  0
LINE
  5
FC1
330
F3F
100
AcDbEntity
  8
0
100
AcDbLine
 10
4065.393003509027
 20
728.0288659272119
 30
0.0
 11
4065.393003509027
 21
328.0288659272119
 31
0.0
  0
LINE
  5
FC2
330
F3F
100
AcDbEntity
  8
0
100
AcDbLine
 10
4065.393003509027
 20
328.0288659272119
 30
0.0
 11
4765.393003509028
 21
328.028865927212
 31
0.0
  0
LINE
  5
FC3
102
{ACAD_REACTORS
330
FDB
102
}
330
F3F
100
AcDbEntity
  8
0
100
AcDbLine
 10
4765.393003509028
 20
728.028865927212
 30
0.0
 11
4765.393003509027
 21
328.0288659272119
 31
0.0
  0
LINE
  5
FC4
330
F3F
100
AcDbEntity
  8
0
100
AcDbLine
 10
4065.393003509027
 20
728.0288659272119
 30
0.0
 11
4765.393003509027
 21
728.028865927212
 31
0.0
  0
LINE
  5
FC5
330
F3F
100
AcDbEntity
  8
0
100
AcDbLine
 10
4045.393003509027
 20
748.0288659272119
 30
0.0
 11
4785.393003509027
 21
748.0288659272119
 31
0.0
  0
LINE
  5
FC6
102
{ACAD_REACTORS
330
FD8
102
}
330
F3F
100
AcDbEntity
  8
0
100
AcDbLine
 10
4785.393003509027
 20
748.028865927212
 30
0.0
 11
4785.393003509027
 21
308.0288659272119
 31
0.0
  0
LINE
  5
FC7
102
{ACAD_REACTORS
330
FD8
330
FDE
102
}
330
F3F
100
AcDbEntity
  8
0
100
AcDbLine
 10
4045.393003509027
 20
308.0288659272118
 30
0.0
 11
4785.393003509027
 21
308.0288659272119
 31
0.0
  0
LINE
  5
FC8
330
F3F
100
AcDbEntity
  8
0
100
AcDbLine
 10
4045.393003509027
 20
748.0288659272119
 30
0.0
 11
4045.393003509027
 21
308.0288659272118
 31
0.0
  0
CIRCLE
  5
FC9
330
F3F
100
AcDbEntity
  8
0
100
AcDbCircle
 10
4415.393003509026
 20
578.0288659272119
 30
0.0
 40
55.0
  0
CIRCLE
  5
FCA
330
F3F
100
AcDbEntity
  8
0
100
AcDbCircle
 10
4415.393003509026
 20
578.0288659272119
 30
0.0
 40
45.0
  0
LINE
  5
FCB
330
F3F
100
AcDbEntity
  8
0
100
AcDbLine
 10
4065.393003509027
 20
728.0288659272119
 30
0.0
 11
4364.840026858034
 21
599.6944273490661
 31
0.0
  0
LINE
  5
FCC
330
F3F
100
AcDbEntity
  8
0
100
AcDbLine
 10
4765.393003509027
 20
728.028865927212
 30
0.0
 11
4465.945980160021
 21
599.6944273490662
 31
0.0
  0
LINE
  5
FCD
102
{ACAD_REACTORS
330
FE1
102
}
330
F3F
100
AcDbEntity
  8
0
100
AcDbLine
 10
4065.393003509027
 20
328.0288659272119
 30
0.0
 11
4370.637662592656
 21
546.0607652726618
 31
0.0
  0
LINE
  5
FCE
102
{ACAD_REACTORS
330
FDB
330
FE1
102
}
330
F3F
100
AcDbEntity
  8
0
100
AcDbLine
 10
4460.148344425397
 20
546.0607652726615
 30
0.0
 11
4765.393003509027
 21
328.028865927212
 31
0.0
  0
LINE
  5
FCF
330
F3F
100
AcDbEntity
  8
0
100
AcDbLine
 10
4065.393003509027
 20
65.91288546494979
 30
0.0
 11
4065.393003509027
 21
-134.0871145350502
 31
0.0
  0
LINE
  5
FD0
102
{ACAD_REACTORS
330
FE4
102
}
330
F3F
100
AcDbEntity
  8
0
100
AcDbLine
 10
4765.393003509028
 20
65.91288546494978
 30
0.0
 11
4765.393003509029
 21
-134.0871145350502
 31
0.0
  0
LINE
  5
FD1
330
F3F
100
AcDbEntity
  8
0
100
AcDbLine
 10
4045.393003509025
 20
65.91288546494979
 30
0.0
 11
4785.393003509027
 21
65.91288546494978
 31
0.0
  0
LINE
  5
FD2
102
{ACAD_REACTORS
330
FE4
102
}
330
F3F
100
AcDbEntity
  8
0
100
AcDbLine
 10
4065.393003509027
 20
-134.0871145350502
 30
0.0
 11
4765.393003509029
 21
-134.0871145350502
 31
0.0
  0
LINE
  5
FD3
330
F3F
100
AcDbEntity
  8
0
100
AcDbLine
 10
4370.393003509027
 20
-140.0871145350502
 30
0.0
 11
4460.393003509027
 21
-140.0871145350502
 31
0.0
  0
LINE
  5
FD4
330
F3F
100
AcDbEntity
  8
0
100
AcDbLine
 10
4360.393003509027
 20
-134.0871145350502
 30
0.0
 11
4370.393003509027
 21
-140.0871145350502
 31
0.0
  0
LINE
  5
FD5
330
F3F
100
AcDbEntity
  8
0
100
AcDbLine
 10
4470.393003509027
 20
-134.0871145350502
 30
0.0
 11
4460.393003509027
 21
-140.0871145350502
 31
0.0
  0
DIMENSION
  5
FD6
102
{ACAD_XDICTIONARY
360
FD7
102
}
102
{ACAD_REACTORS
330
FD8
102
}
330
F3F
100
AcDbEntity
  8
0
100
AcDbDimension
280
     0
  2
*D80
 10
4943.484698703781
 20
308.0288659272119
 30
0.0
 11
4932.859698703782
 21
528.0288659272127
 31
0.0
 70
    32
 71
     5
 42
440.0
 73
     0
 74
     0
 75
     0
  3
ISO-25
100
AcDbAlignedDimension
 13
4785.393003509027
 23
748.028865927212
 33
0.0
 14
4785.393003509027
 24
308.0288659272119
 34
0.0
 50
90.0
100
AcDbRotatedDimension
  0
DIMENSION
  5
FD9
102
{ACAD_XDICTIONARY
360
FDA
102
}
102
{ACAD_REACTORS
330
FDB
102
}
330
F3F
100
AcDbEntity
  8
0
100
AcDbDimension
280
     0
  2
*D81
 10
4850.860754103443
 20
328.028865927212
 30
0.0
 11
4840.235754103443
 21
528.0288659272127
 31
0.0
 70
    32
 71
     5
 42
400.0
 73
     0
 74
     0
 75
     0
  3
ISO-25
100
AcDbAlignedDimension
 13
4765.393003509028
 23
728.028865927212
 33
0.0
 14
4765.393003509027
 24
328.028865927212
 34
0.0
 50
90.0
100
AcDbRotatedDimension
  0
DIMENSION
  5
FDC
102
{ACAD_XDICTIONARY
360
FDD
102
}
102
{ACAD_REACTORS
330
FDE
102
}
330
F3F
100
AcDbEntity
  8
0
100
AcDbDimension
280
     0
  2
*D82
 10
4785.393003509027
 20
148.1476480937017
 30
0.0
 11
4415.393003509026
 21
158.7726480937017
 31
0.0
 70
    32
 71
     5
 42
740.0
 73
     0
 74
     0
 75
     0
  3
ISO-25
100
AcDbAlignedDimension
 13
4045.393003509027
 23
308.0288659272118
 33
0.0
 14
4785.393003509027
 24
328.028865927212
 34
0.0
100
AcDbRotatedDimension
  0
DIMENSION
  5
FDF
102
{ACAD_XDICTIONARY
360
FE0
102
}
102
{ACAD_REACTORS
330
FE1
102
}
330
F3F
100
AcDbEntity
  8
0
100
AcDbDimension
280
     0
  2
*D83
 10
4765.393003509027
 20
220.6854367065826
 30
0.0
 11
4415.393003509026
 21
231.3104367065825
 31
0.0
 70
    32
 71
     5
 42
700.0
 73
     0
 74
     0
 75
     0
  3
ISO-25
100
AcDbAlignedDimension
 13
4065.393003509027
 23
328.0288659272119
 33
0.0
 14
4765.393003509027
 24
328.028865927212
 34
0.0
100
AcDbRotatedDimension
  0
DIMENSION
  5
FE2
102
{ACAD_XDICTIONARY
360
FE3
102
}
102
{ACAD_REACTORS
330
FE4
102
}
330
F3F
100
AcDbEntity
  8
0
100
AcDbDimension
280
     0
  2
*D84
 10
4878.397604118711
 20
-134.0871145350502
 30
0.0
 11
4867.772604118711
 21
-34.08711453504948
 31
0.0
 70
    32
 71
     5
 42
200.0
 73
     0
 74
     0
 75
     0
  3
ISO-25
100
AcDbAlignedDimension
 13
4765.393003509028
 23
65.91288546494978
 33
0.0
 14
4765.393003509029
 24
-134.0871145350502
 34
0.0
 50
90.0
100
AcDbRotatedDimension
  0
LINE
  5
FE5
330
F3F
100
AcDbEntity
  8
0
100
AcDbLine
 10
360.5359004577476
 20
392.4648403138294
 30
0.0
 11
360.5359004577476
 21
312.355238322002
 31
0.0
  0
LINE
  5
FE6
330
F3F
100
AcDbEntity
  8
0
100
AcDbLine
 10
860.5359004577476
 20
392.4648403138295
 30
0.0
 11
860.5359004577476
 21
312.355238322002
 31
0.0
  0
LINE
  5
FE7
330
F3F
100
AcDbEntity
  8
0
100
AcDbLine
 10
370.5359004577476
 20
313.605238322002
 30
0.0
 11
850.5359004577476
 21
313.605238322002
 31
0.0
  0
SOLID
  5
FE8
330
F3F
100
AcDbEntity
  8
0
100
AcDbTrace
 10
370.5359004577476
 20
315.2719049886687
 30
0.0
 11
370.5359004577476
 21
311.9385716553353
 31
0.0
 12
360.5359004577476
 22
313.605238322002
 32
0.0
 13
360.5359004577476
 23
313.605238322002
 33
0.0
  0
SOLID
  5
FE9
330
F3F
100
AcDbEntity
  8
0
100
AcDbTrace
 10
850.5359004577476
 20
315.2719049886687
 30
0.0
 11
850.5359004577476
 21
311.9385716553353
 31
0.0
 12
860.5359004577476
 22
313.605238322002
 32
0.0
 13
860.5359004577476
 23
313.605238322002
 33
0.0
  0
MTEXT
  5
FEA
330
F3F
100
AcDbEntity
  8
0
100
AcDbMText
 10
610.5359004577476
 20
324.2302383220021
 30
0.0
 40
20.0
 41
0.0
 46
0.0
 71
     5
 72
     1
  1
500   19-3/4"
 73
     1
 44
1.0
  0
LINE
  5
FEB
330
F3F
100
AcDbEntity
  8
0
100
AcDbLine
 10
340.5359004577477
 20
372.4648403138294
 30
0.0
 11
340.5359004577477
 21
242.8004819440339
 31
0.0
  0
LINE
  5
FEC
330
F3F
100
AcDbEntity
  8
0
100
AcDbLine
 10
880.5359004577477
 20
372.4648403138294
 30
0.0
 11
880.5359004577477
 21
242.8004819440339
 31
0.0
  0
LINE
  5
FED
330
F3F
100
AcDbEntity
  8
0
100
AcDbLine
 10
350.5359004577477
 20
244.0504819440339
 30
0.0
 11
870.5359004577477
 21
244.0504819440339
 31
0.0
  0
SOLID
  5
FEE
330
F3F
100
AcDbEntity
  8
0
100
AcDbTrace
 10
350.5359004577477
 20
245.7171486107005
 30
0.0
 11
350.5359004577477
 21
242.3838152773672
 31
0.0
 12
340.5359004577477
 22
244.0504819440339
 32
0.0
 13
340.5359004577477
 23
244.0504819440339
 33
0.0
  0
SOLID
  5
FEF
330
F3F
100
AcDbEntity
  8
0
100
AcDbTrace
 10
870.5359004577477
 20
245.7171486107005
 30
0.0
 11
870.5359004577477
 21
242.3838152773672
 31
0.0
 12
880.5359004577477
 22
244.0504819440339
 32
0.0
 13
880.5359004577477
 23
244.0504819440339
 33
0.0
  0
MTEXT
  5
FF0
330
F3F
100
AcDbEntity
  8
0
100
AcDbMText
 10
610.5359004577477
 20
254.6754819440339
 30
0.0
 40
20.0
 41
0.0
 46
0.0
 71
     5
 72
     1
  1
540  21-1/4"
 73
     1
 44
1.0
  0
LINE
  5
FF1
330
F3F
100
AcDbEntity
  8
0
100
AcDbLine
 10
861.1609004577475
 20
793.0898403138294
 30
0.0
 11
944.39567133128
 21
793.0898403138294
 31
0.0
  0
LINE
  5
FF2
330
F3F
100
AcDbEntity
  8
0
100
AcDbLine
 10
861.1609004577475
 20
393.0898403138296
 30
0.0
 11
944.39567133128
 21
393.0898403138295
 31
0.0
  0
LINE
  5
FF3
330
F3F
100
AcDbEntity
  8
0
100
AcDbLine
 10
943.1456713312801
 20
783.0898403138294
 30
0.0
 11
943.1456713312799
 21
403.0898403138294
 31
0.0
  0
SOLID
  5
FF4
330
F3F
100
AcDbEntity
  8
0
100
AcDbTrace
 10
941.4790046646135
 20
783.0898403138294
 30
0.0
 11
944.8123379979467
 21
783.0898403138294
 31
0.0
 12
943.1456713312801
 22
793.0898403138294
 32
0.0
 13
943.1456713312801
 23
793.0898403138294
 33
0.0
  0
SOLID
  5
FF5
330
F3F
100
AcDbEntity
  8
0
100
AcDbTrace
 10
941.4790046646134
 20
403.0898403138294
 30
0.0
 11
944.8123379979467
 21
403.0898403138294
 31
0.0
 12
943.1456713312799
 22
393.0898403138295
 32
0.0
 13
943.1456713312799
 23
393.0898403138295
 33
0.0
  0
MTEXT
  5
FF6
330
F3F
100
AcDbEntity
  8
0
100
AcDbMText
 10
932.5206713312798
 20
593.0898403138295
 30
0.0
 40
20.0
 41
0.0
 46
0.0
 71
     5
 72
     1
  1
400  15-3/4"
 11
0.0000000000000001
 21
1.0
 31
0.0
 73
     1
 44
1.0
  0
LINE
  5
FF7
330
F3F
100
AcDbEntity
  8
0
100
AcDbLine
 10
881.1609004577475
 20
813.0898403138294
 30
0.0
 11
1035.610970778702
 21
813.0898403138294
 31
0.0
  0
LINE
  5
FF8
330
F3F
100
AcDbEntity
  8
0
100
AcDbLine
 10
881.1609004577476
 20
373.0898403138294
 30
0.0
 11
1035.610970778702
 21
373.0898403138294
 31
0.0
  0
LINE
  5
FF9
330
F3F
100
AcDbEntity
  8
0
100
AcDbLine
 10
1034.360970778702
 20
803.0898403138294
 30
0.0
 11
1034.360970778702
 21
383.0898403138294
 31
0.0
  0
SOLID
  5
FFA
330
F3F
100
AcDbEntity
  8
0
100
AcDbTrace
 10
1032.694304112035
 20
803.0898403138294
 30
0.0
 11
1036.027637445369
 21
803.0898403138294
 31
0.0
 12
1034.360970778702
 22
813.0898403138294
 32
0.0
 13
1034.360970778702
 23
813.0898403138294
 33
0.0
  0
SOLID
  5
FFB
330
F3F
100
AcDbEntity
  8
0
100
AcDbTrace
 10
1032.694304112035
 20
383.0898403138294
 30
0.0
 11
1036.027637445368
 21
383.0898403138294
 31
0.0
 12
1034.360970778702
 22
373.0898403138294
 32
0.0
 13
1034.360970778702
 23
373.0898403138294
 33
0.0
  0
MTEXT
  5
FFC
330
F3F
100
AcDbEntity
  8
0
100
AcDbMText
 10
1023.735970778702
 20
593.0898403138295
 30
0.0
 40
20.0
 41
0.0
 46
0.0
 71
     5
 72
     1
  1
440  17-3/8"
 11
0.0000000000000001
 21
1.0
 31
0.0
 73
     1
 44
1.0
  0
LINE
  5
FFD
330
F3F
100
AcDbEntity
  8
0
100
AcDbLine
 10
861.1609004577475
 20
150.7023803317006
 30
0.0
 11
970.8001022883399
 21
150.7023803317006
 31
0.0
  0
LINE
  5
FFE
330
F3F
100
AcDbEntity
  8
0
100
AcDbLine
 10
861.1609004577475
 20
-49.29761966829937
 30
0.0
 11
970.8001022883399
 21
-49.29761966829939
 31
0.0
  0
LINE
  5
FFF
330
F3F
100
AcDbEntity
  8
0
100
AcDbLine
 10
969.55010228834
 20
140.7023803317006
 30
0.0
 11
969.55010228834
 21
-39.2976196682994
 31
0.0
  0
SOLID
  5
1000
330
F3F
100
AcDbEntity
  8
0
100
AcDbTrace
 10
967.8834356216734
 20
140.7023803317006
 30
0.0
 11
971.2167689550065
 21
140.7023803317006
 31
0.0
 12
969.55010228834
 22
150.7023803317006
 32
0.0
 13
969.55010228834
 23
150.7023803317006
 33
0.0
  0
SOLID
  5
1001
330
F3F
100
AcDbEntity
  8
0
100
AcDbTrace
 10
967.8834356216734
 20
-39.2976196682994
 30
0.0
 11
971.2167689550065
 21
-39.2976196682994
 31
0.0
 12
969.55010228834
 22
-49.29761966829939
 32
0.0
 13
969.55010228834
 23
-49.29761966829939
 33
0.0
  0
MTEXT
  5
1002
330
F3F
100
AcDbEntity
  8
0
100
AcDbMText
 10
958.92510228834
 20
50.70238033170077
 30
0.0
 40
20.0
 41
0.0
 46
0.0
 71
     5
 72
     1
  1
220
 11
0.0000000000000001
 21
1.0
 31
0.0
 73
     1
 44
1.0
  0
MTEXT
  5
1003
330
F3F
100
AcDbEntity
  8
0
100
AcDbMText
 10
1016.030632806145
 20
40.7066324359304
 30
0.0
 40
20.0
 41
0.0
 46
0.0
 71
     5
 72
     1
  1
8 5/8"
 11
0.0000000000000001
 21
1.0
 31
0.0
 73
     1
 44
1.0
  0
MTEXT
  5
1004
330
F3F
100
AcDbEntity
  8
0
100
AcDbMText
 10
608.0335003101354
 20
917.0650390447445
 30
0.0
 40
20.0
 41
0.0
 46
0.0
 71
     5
 72
     1
  1
{\H1.25x;AF-5445}
 73
     1
 44
1.0
  0
MTEXT
  5
1005
330
F3F
100
AcDbEntity
  8
0
100
AcDbMText
 10
4449.263999468374
 20
814.6890484684991
 30
0.0
 40
20.0
 41
0.0
 46
0.0
 71
     5
 72
     1
  1
{\H1.25x;AF-7545}
 73
     1
 44
1.0
  0
MTEXT
  5
1006
330
F3F
100
AcDbEntity
  8
0
100
AcDbMText
 10
4433.236350175327
 20
-306.3534978036696
 30
0.0
 40
20.0
 41
0.0
 46
0.0
 71
     5
 72
     1
  1
{\H1.25x;AF-7545}
 73
     1
 44
1.0
  0
LINE
  5
1007
330
F3F
100
AcDbEntity
  8
0
100
AcDbLine
 10
4444.120695132351
 20
-574.9817809995071
 30
0.0
 11
4749.365354215981
 21
-793.0136803449568
 31
0.0
  0
LINE
  5
1008
330
F3F
100
AcDbEntity
  8
0
100
AcDbLine
 10
4049.365354215981
 20
-793.0136803449568
 30
0.0
 11
4354.610013299611
 21
-574.9817809995069
 31
0.0
  0
LINE
  5
1009
330
F3F
100
AcDbEntity
  8
0
100
AcDbLine
 10
4749.365354215981
 20
-393.0136803449567
 30
0.0
 11
4449.918330866974
 21
-521.3481189231024
 31
0.0
  0
LINE
  5
100A
330
F3F
100
AcDbEntity
  8
0
100
AcDbLine
 10
4049.365354215981
 20
-393.0136803449568
 30
0.0
 11
4348.812377564987
 21
-521.3481189231025
 31
0.0
  0
CIRCLE
  5
100B
330
F3F
100
AcDbEntity
  8
0
100
AcDbCircle
 10
4399.365354215981
 20
-543.0136803449568
 30
0.0
 40
45.0
  0
CIRCLE
  5
100C
330
F3F
100
AcDbEntity
  8
0
100
AcDbCircle
 10
4399.365354215981
 20
-543.0136803449568
 30
0.0
 40
55.0
  0
LINE
  5
100D
330
F3F
100
AcDbEntity
  8
0
100
AcDbLine
 10
4029.365354215982
 20
-373.0136803449568
 30
0.0
 11
4029.365354215982
 21
-813.0136803449568
 31
0.0
  0
LINE
  5
100E
330
F3F
100
AcDbEntity
  8
0
100
AcDbLine
 10
4029.365354215981
 20
-813.0136803449568
 30
0.0
 11
4769.36535421598
 21
-813.0136803449568
 31
0.0
  0
LINE
  5
100F
330
F3F
100
AcDbEntity
  8
0
100
AcDbLine
 10
4769.365354215982
 20
-373.0136803449567
 30
0.0
 11
4769.36535421598
 21
-813.0136803449568
 31
0.0
  0
LINE
  5
1010
330
F3F
100
AcDbEntity
  8
0
100
AcDbLine
 10
4029.365354215982
 20
-373.0136803449568
 30
0.0
 11
4769.365354215982
 21
-373.0136803449568
 31
0.0
  0
LINE
  5
1011
330
F3F
100
AcDbEntity
  8
0
100
AcDbLine
 10
4049.365354215981
 20
-393.0136803449568
 30
0.0
 11
4749.365354215981
 21
-393.0136803449567
 31
0.0
  0
LINE
  5
1012
330
F3F
100
AcDbEntity
  8
0
100
AcDbLine
 10
4749.365354215981
 20
-393.0136803449567
 30
0.0
 11
4749.365354215981
 21
-793.0136803449568
 31
0.0
  0
LINE
  5
1013
330
F3F
100
AcDbEntity
  8
0
100
AcDbLine
 10
4049.365354215981
 20
-793.0136803449568
 30
0.0
 11
4749.365354215981
 21
-793.0136803449568
 31
0.0
  0
LINE
  5
1014
330
F3F
100
AcDbEntity
  8
0
100
AcDbLine
 10
4049.365354215981
 20
-393.0136803449568
 30
0.0
 11
4049.365354215981
 21
-793.0136803449568
 31
0.0
  0
LINE
  5
1015
330
F3F
100
AcDbEntity
  8
0
100
AcDbLine
 10
4049.365354215981
 20
-793.6386803449567
 30
0.0
 11
4049.365354215981
 21
-901.6071095655862
 31
0.0
  0
LINE
  5
1016
330
F3F
100
AcDbEntity
  8
0
100
AcDbLine
 10
4749.365354215981
 20
-793.6386803449567
 30
0.0
 11
4749.365354215981
 21
-901.6071095655862
 31
0.0
  0
LINE
  5
1017
330
F3F
100
AcDbEntity
  8
0
100
AcDbLine
 10
4059.36535421598
 20
-900.3571095655861
 30
0.0
 11
4739.365354215981
 21
-900.3571095655861
 31
0.0
  0
SOLID
  5
1018
330
F3F
100
AcDbEntity
  8
0
100
AcDbTrace
 10
4059.36535421598
 20
-898.6904428989195
 30
0.0
 11
4059.36535421598
 21
-902.0237762322528
 31
0.0
 12
4049.365354215981
 22
-900.3571095655861
 32
0.0
 13
4049.365354215981
 23
-900.3571095655861
 33
0.0
  0
SOLID
  5
1019
330
F3F
100
AcDbEntity
  8
0
100
AcDbTrace
 10
4739.365354215981
 20
-898.6904428989195
 30
0.0
 11
4739.365354215981
 21
-902.0237762322528
 31
0.0
 12
4749.365354215981
 22
-900.3571095655861
 32
0.0
 13
4749.365354215981
 23
-900.3571095655861
 33
0.0
  0
MTEXT
  5
101A
330
F3F
100
AcDbEntity
  8
0
100
AcDbMText
 10
4399.365354215981
 20
-889.7321095655861
 30
0.0
 40
20.0
 41
0.0
 46
0.0
 71
     5
 72
     1
  1
27-1/2"
 73
     1
 44
1.0
  0
LINE
  5
101B
330
F3F
100
AcDbEntity
  8
0
100
AcDbLine
 10
4029.365354215981
 20
-813.6386803449568
 30
0.0
 11
4029.365354215981
 21
-974.1448981784669
 31
0.0
  0
LINE
  5
101C
330
F3F
100
AcDbEntity
  8
0
100
AcDbLine
 10
4769.36535421598
 20
-793.6386803449567
 30
0.0
 11
4769.36535421598
 21
-974.1448981784669
 31
0.0
  0
LINE
  5
101D
330
F3F
100
AcDbEntity
  8
0
100
AcDbLine
 10
4039.365354215981
 20
-972.894898178467
 30
0.0
 11
4759.36535421598
 21
-972.894898178467
 31
0.0
  0
SOLID
  5
101E
330
F3F
100
AcDbEntity
  8
0
100
AcDbTrace
 10
4039.365354215981
 20
-971.2282315118002
 30
0.0
 11
4039.365354215981
 21
-974.5615648451336
 31
0.0
 12
4029.365354215981
 22
-972.894898178467
 32
0.0
 13
4029.365354215981
 23
-972.894898178467
 33
0.0
  0
SOLID
  5
101F
330
F3F
100
AcDbEntity
  8
0
100
AcDbTrace
 10
4759.36535421598
 20
-971.2282315118002
 30
0.0
 11
4759.36535421598
 21
-974.5615648451336
 31
0.0
 12
4769.36535421598
 22
-972.894898178467
 32
0.0
 13
4769.36535421598
 23
-972.894898178467
 33
0.0
  0
MTEXT
  5
1020
330
F3F
100
AcDbEntity
  8
0
100
AcDbMText
 10
4399.365354215981
 20
-962.2698981784669
 30
0.0
 40
20.0
 41
0.0
 46
0.0
 71
     5
 72
     1
  1
29-1/4"
 73
     1
 44
1.0
  0
LINE
  5
1021
330
F3F
100
AcDbEntity
  8
0
100
AcDbLine
 10
4749.990354215982
 20
-393.0136803449567
 30
0.0
 11
4836.083104810398
 21
-393.0136803449567
 31
0.0
  0
LINE
  5
1022
330
F3F
100
AcDbEntity
  8
0
100
AcDbLine
 10
4749.99035421598
 20
-793.0136803449568
 30
0.0
 11
4836.083104810398
 21
-793.0136803449568
 31
0.0
  0
LINE
  5
1023
330
F3F
100
AcDbEntity
  8
0
100
AcDbLine
 10
4834.833104810397
 20
-403.0136803449567
 30
0.0
 11
4834.833104810397
 21
-783.0136803449568
 31
0.0
  0
SOLID
  5
1024
330
F3F
100
AcDbEntity
  8
0
100
AcDbTrace
 10
4833.166438143731
 20
-403.0136803449567
 30
0.0
 11
4836.499771477065
 21
-403.0136803449567
 31
0.0
 12
4834.833104810397
 22
-393.0136803449567
 32
0.0
 13
4834.833104810397
 23
-393.0136803449567
 33
0.0
  0
SOLID
  5
1025
330
F3F
100
AcDbEntity
  8
0
100
AcDbTrace
 10
4833.166438143731
 20
-783.0136803449568
 30
0.0
 11
4836.499771477065
 21
-783.0136803449568
 31
0.0
 12
4834.833104810397
 22
-793.0136803449568
 32
0.0
 13
4834.833104810397
 23
-793.0136803449568
 33
0.0
  0
MTEXT
  5
1026
330
F3F
100
AcDbEntity
  8
0
100
AcDbMText
 10
4824.208104810398
 20
-593.013680344956
 30
0.0
 40
20.0
 41
0.0
 46
0.0
 71
     5
 72
     1
  1
15-3/4"
 11
0.0000000000000001
 21
1.0
 31
0.0
 73
     1
 44
1.0
  0
LINE
  5
1027
330
F3F
100
AcDbEntity
  8
0
100
AcDbLine
 10
4769.990354215981
 20
-373.0136803449567
 30
0.0
 11
4928.707049410736
 21
-373.0136803449567
 31
0.0
  0
LINE
  5
1028
330
F3F
100
AcDbEntity
  8
0
100
AcDbLine
 10
4769.99035421598
 20
-813.0136803449568
 30
0.0
 11
4928.707049410736
 21
-813.013680344957
 31
0.0
  0
LINE
  5
1029
330
F3F
100
AcDbEntity
  8
0
100
AcDbLine
 10
4927.457049410736
 20
-383.0136803449567
 30
0.0
 11
4927.457049410736
 21
-803.0136803449568
 31
0.0
  0
SOLID
  5
102A
330
F3F
100
AcDbEntity
  8
0
100
AcDbTrace
 10
4925.790382744068
 20
-383.0136803449567
 30
0.0
 11
4929.123716077402
 21
-383.0136803449567
 31
0.0
 12
4927.457049410736
 22
-373.0136803449567
 32
0.0
 13
4927.457049410736
 23
-373.0136803449567
 33
0.0
  0
SOLID
  5
102B
330
F3F
100
AcDbEntity
  8
0
100
AcDbTrace
 10
4925.790382744068
 20
-803.0136803449568
 30
0.0
 11
4929.123716077402
 21
-803.0136803449568
 31
0.0
 12
4927.457049410736
 22
-813.013680344957
 32
0.0
 13
4927.457049410736
 23
-813.013680344957
 33
0.0
  0
MTEXT
  5
102C
330
F3F
100
AcDbEntity
  8
0
100
AcDbMText
 10
4916.832049410736
 20
-593.013680344956
 30
0.0
 40
20.0
 41
0.0
 46
0.0
 71
     5
 72
     1
  1
17-3/8"
 11
0.0000000000000001
 21
1.0
 31
0.0
 73
     1
 44
1.0
  0
MTEXT
  5
102D
330
F3F
100
AcDbEntity
  8
0
100
AcDbMText
 10
608.2003508081688
 20
-195.8755864084705
 30
0.0
 40
20.0
 41
0.0
 46
0.0
 71
     5
 72
     1
  1
{\H1.25x;AF-5445}
 73
     1
 44
1.0
  0
MTEXT
  5
102E
330
F3F
100
AcDbEntity
  8
0
100
AcDbMText
 10
1023.902821276735
 20
-519.8507851393855
 30
0.0
 40
20.0
 41
0.0
 46
0.0
 71
     5
 72
     1
  1
 17-3/8"
 11
0.0000000000000001
 21
1.0
 31
0.0
 73
     1
 44
1.0
  0
SOLID
  5
102F
330
F3F
100
AcDbEntity
  8
0
100
AcDbTrace
 10
1032.861154610068
 20
-729.8507851393856
 30
0.0
 11
1036.194487943402
 21
-729.8507851393856
 31
0.0
 12
1034.527821276735
 22
-739.8507851393856
 32
0.0
 13
1034.527821276735
 23
-739.8507851393856
 33
0.0
  0
SOLID
  5
1030
330
F3F
100
AcDbEntity
  8
0
100
AcDbTrace
 10
1032.861154610068
 20
-309.8507851393856
 30
0.0
 11
1036.194487943402
 21
-309.8507851393856
 31
0.0
 12
1034.527821276735
 22
-299.8507851393856
 32
0.0
 13
1034.527821276735
 23
-299.8507851393856
 33
0.0
  0
LINE
  5
1031
330
F3F
100
AcDbEntity
  8
0
100
AcDbLine
 10
1034.527821276735
 20
-309.8507851393856
 30
0.0
 11
1034.527821276735
 21
-729.8507851393856
 31
0.0
  0
LINE
  5
1032
330
F3F
100
AcDbEntity
  8
0
100
AcDbLine
 10
881.3277509557812
 20
-739.8507851393856
 30
0.0
 11
1035.777821276735
 21
-739.8507851393856
 31
0.0
  0
LINE
  5
1033
330
F3F
100
AcDbEntity
  8
0
100
AcDbLine
 10
881.327750955781
 20
-299.8507851393856
 30
0.0
 11
1035.777821276735
 21
-299.8507851393856
 31
0.0
  0
MTEXT
  5
1034
330
F3F
100
AcDbEntity
  8
0
100
AcDbMText
 10
932.6875218293134
 20
-519.8507851393855
 30
0.0
 40
20.0
 41
0.0
 46
0.0
 71
     5
 72
     1
  1
  15-3/4"
 11
0.0000000000000001
 21
1.0
 31
0.0
 73
     1
 44
1.0
  0
SOLID
  5
1035
330
F3F
100
AcDbEntity
  8
0
100
AcDbTrace
 10
941.6458551626469
 20
-709.8507851393856
 30
0.0
 11
944.97918849598
 21
-709.8507851393856
 31
0.0
 12
943.3125218293135
 22
-719.8507851393856
 32
0.0
 13
943.3125218293135
 23
-719.8507851393856
 33
0.0
  0
SOLID
  5
1036
330
F3F
100
AcDbEntity
  8
0
100
AcDbTrace
 10
941.6458551626469
 20
-329.8507851393856
 30
0.0
 11
944.9791884959802
 21
-329.8507851393856
 31
0.0
 12
943.3125218293136
 22
-319.8507851393856
 32
0.0
 13
943.3125218293136
 23
-319.8507851393856
 33
0.0
  0
LINE
  5
1037
330
F3F
100
AcDbEntity
  8
0
100
AcDbLine
 10
943.3125218293136
 20
-329.8507851393856
 30
0.0
 11
943.3125218293135
 21
-709.8507851393856
 31
0.0
  0
LINE
  5
1038
330
F3F
100
AcDbEntity
  8
0
100
AcDbLine
 10
861.3277509557811
 20
-719.8507851393855
 30
0.0
 11
944.5625218293134
 21
-719.8507851393856
 31
0.0
  0
LINE
  5
1039
330
F3F
100
AcDbEntity
  8
0
100
AcDbLine
 10
861.3277509557811
 20
-319.8507851393856
 30
0.0
 11
944.5625218293136
 21
-319.8507851393856
 31
0.0
  0
MTEXT
  5
103A
330
F3F
100
AcDbEntity
  8
0
100
AcDbMText
 10
610.7027509557812
 20
-858.2651435091811
 30
0.0
 40
20.0
 41
0.0
 46
0.0
 71
     5
 72
     1
  1
  21-1/4"
 73
     1
 44
1.0
  0
SOLID
  5
103B
330
F3F
100
AcDbEntity
  8
0
100
AcDbTrace
 10
870.7027509557812
 20
-867.2234768425145
 30
0.0
 11
870.7027509557812
 21
-870.5568101758478
 31
0.0
 12
880.7027509557812
 22
-868.8901435091811
 32
0.0
 13
880.7027509557812
 23
-868.8901435091811
 33
0.0
  0
SOLID
  5
103C
330
F3F
100
AcDbEntity
  8
0
100
AcDbTrace
 10
350.7027509557811
 20
-867.2234768425145
 30
0.0
 11
350.7027509557811
 21
-870.5568101758478
 31
0.0
 12
340.7027509557811
 22
-868.8901435091811
 32
0.0
 13
340.7027509557811
 23
-868.8901435091811
 33
0.0
  0
LINE
  5
103D
330
F3F
100
AcDbEntity
  8
0
100
AcDbLine
 10
350.7027509557811
 20
-868.8901435091811
 30
0.0
 11
870.7027509557812
 21
-868.8901435091811
 31
0.0
  0
LINE
  5
103E
330
F3F
100
AcDbEntity
  8
0
100
AcDbLine
 10
880.7027509557812
 20
-740.4757851393855
 30
0.0
 11
880.7027509557812
 21
-870.1401435091812
 31
0.0
  0
LINE
  5
103F
330
F3F
100
AcDbEntity
  8
0
100
AcDbLine
 10
340.7027509557811
 20
-740.4757851393855
 30
0.0
 11
340.7027509557811
 21
-870.1401435091812
 31
0.0
  0
MTEXT
  5
1040
330
F3F
100
AcDbEntity
  8
0
100
AcDbMText
 10
610.702750955781
 20
-788.7103871312128
 30
0.0
 40
20.0
 41
0.0
 46
0.0
 71
     5
 72
     1
  1
 19-3/4"
 73
     1
 44
1.0
  0
SOLID
  5
1041
330
F3F
100
AcDbEntity
  8
0
100
AcDbTrace
 10
850.7027509557811
 20
-797.6687204645464
 30
0.0
 11
850.7027509557811
 21
-801.0020537978796
 31
0.0
 12
860.7027509557811
 22
-799.3353871312129
 32
0.0
 13
860.7027509557811
 23
-799.3353871312129
 33
0.0
  0
SOLID
  5
1042
330
F3F
100
AcDbEntity
  8
0
100
AcDbTrace
 10
370.7027509557811
 20
-797.6687204645464
 30
0.0
 11
370.7027509557811
 21
-801.0020537978796
 31
0.0
 12
360.7027509557811
 22
-799.3353871312129
 32
0.0
 13
360.7027509557811
 23
-799.3353871312129
 33
0.0
  0
LINE
  5
1043
330
F3F
100
AcDbEntity
  8
0
100
AcDbLine
 10
370.7027509557811
 20
-799.3353871312129
 30
0.0
 11
850.7027509557811
 21
-799.3353871312129
 31
0.0
  0
LINE
  5
1044
330
F3F
100
AcDbEntity
  8
0
100
AcDbLine
 10
860.7027509557811
 20
-720.4757851393854
 30
0.0
 11
860.7027509557811
 21
-800.585387131213
 31
0.0
  0
LINE
  5
1045
330
F3F
100
AcDbEntity
  8
0
100
AcDbLine
 10
360.7027509557811
 20
-720.4757851393856
 30
0.0
 11
360.7027509557811
 21
-800.585387131213
 31
0.0
  0
LINE
  5
1046
330
F3F
100
AcDbEntity
  8
0
100
AcDbLine
 10
880.702750955781
 20
-299.8507851393857
 30
0.0
 11
880.7027509557812
 21
-739.8507851393856
 31
0.0
  0
LINE
  5
1047
330
F3F
100
AcDbEntity
  8
0
100
AcDbLine
 10
340.7027509557811
 20
-739.8507851393856
 30
0.0
 11
880.7027509557812
 21
-739.8507851393856
 31
0.0
  0
LINE
  5
1048
330
F3F
100
AcDbEntity
  8
0
100
AcDbLine
 10
340.702750955781
 20
-299.8507851393857
 30
0.0
 11
340.7027509557811
 21
-739.8507851393856
 31
0.0
  0
LINE
  5
1049
330
F3F
100
AcDbEntity
  8
0
100
AcDbLine
 10
340.702750955781
 20
-299.8507851393855
 30
0.0
 11
880.702750955781
 21
-299.8507851393856
 31
0.0
  0
LINE
  5
104A
330
F3F
100
AcDbEntity
  8
0
100
AcDbLine
 10
360.7027509557811
 20
-719.8507851393856
 30
0.0
 11
571.811877990521
 21
-508.7416581046458
 31
0.0
  0
LINE
  5
104B
330
F3F
100
AcDbEntity
  8
0
100
AcDbLine
 10
860.7027509557811
 20
-719.8507851393856
 30
0.0
 11
649.5936239210411
 21
-508.7416581046457
 31
0.0
  0
LINE
  5
104C
330
F3F
100
AcDbEntity
  8
0
100
AcDbLine
 10
657.864861869971
 20
-441.5535185908716
 30
0.0
 11
860.7027509557809
 21
-319.8507851393856
 31
0.0
  0
LINE
  5
104D
330
F3F
100
AcDbEntity
  8
0
100
AcDbLine
 10
360.702750955781
 20
-319.8507851393856
 30
0.0
 11
563.5406400415911
 21
-441.5535185908717
 31
0.0
  0
CIRCLE
  5
104E
330
F3F
100
AcDbEntity
  8
0
100
AcDbCircle
 10
610.702750955781
 20
-469.8507851393856
 30
0.0
 40
55.0
  0
CIRCLE
  5
104F
330
F3F
100
AcDbEntity
  8
0
100
AcDbCircle
 10
610.702750955781
 20
-469.8507851393856
 30
0.0
 40
45.0
  0
LINE
  5
1050
330
F3F
100
AcDbEntity
  8
0
100
AcDbLine
 10
360.7027509557811
 20
-319.8507851393856
 30
0.0
 11
860.7027509557811
 21
-319.8507851393856
 31
0.0
  0
LINE
  5
1051
330
F3F
100
AcDbEntity
  8
0
100
AcDbLine
 10
860.7027509557809
 20
-319.8507851393856
 30
0.0
 11
860.7027509557811
 21
-719.8507851393856
 31
0.0
  0
LINE
  5
1052
330
F3F
100
AcDbEntity
  8
0
100
AcDbLine
 10
360.7027509557811
 20
-719.8507851393856
 30
0.0
 11
860.7027509557811
 21
-719.8507851393856
 31
0.0
  0
LINE
  5
1053
330
F3F
100
AcDbEntity
  8
0
100
AcDbLine
 10
360.702750955781
 20
-319.8507851393856
 30
0.0
 11
360.7027509557811
 21
-719.8507851393856
 31
0.0
  0
ENDBLK
  5
1055
330
F3F
100
AcDbEntity
  8
0
100
AcDbBlockEnd
  0
ENDSEC
  0
SECTION
  2
ENTITIES
  0
LINE
  5
1057
330
1F
100
AcDbEntity
  8
0
100
AcDbLine
 10
15601.95228509621
 20
784.7943509504771
 30
0.0
 11
15601.95228509621
 21
384.7943509504771
 31
0.0
  0
LINE
  5
1058
330
1F
100
AcDbEntity
  8
0
100
AcDbLine
 10
15601.95228509621
 20
384.7943509504771
 30
0.0
 11
16101.95228509621
 21
384.7943509504771
 31
0.0
  0
LINE
  5
1059
330
1F
100
AcDbEntity
  8
0
100
AcDbLine
 10
16101.95228509621
 20
784.7943509504771
 30
0.0
 11
16101.95228509621
 21
384.7943509504771
 31
0.0
  0
LINE
  5
105A
330
1F
100
AcDbEntity
  8
0
100
AcDbLine
 10
15601.95228509621
 20
784.7943509504771
 30
0.0
 11
16101.95228509621
 21
784.7943509504771
 31
0.0
  0
CIRCLE
  5
105B
330
1F
100
AcDbEntity
  8
0
100
AcDbCircle
 10
15851.95228509622
 20
634.7943509504771
 30
0.0
 40
45.0
  0
CIRCLE
  5
105C
330
1F
100
AcDbEntity
  8
0
100
AcDbCircle
 10
15851.95228509622
 20
634.7943509504771
 30
0.0
 40
55.0
  0
LINE
  5
105D
330
1F
100
AcDbEntity
  8
0
100
AcDbLine
 10
15601.95228509621
 20
784.7943509504771
 30
0.0
 11
15804.79017418202
 21
663.091617498991
 31
0.0
  0
LINE
  5
105E
330
1F
100
AcDbEntity
  8
0
100
AcDbLine
 10
15899.1143960104
 20
663.0916174989911
 30
0.0
 11
16101.95228509621
 21
784.7943509504771
 31
0.0
  0
LINE
  5
105F
330
1F
100
AcDbEntity
  8
0
100
AcDbLine
 10
16101.95228509621
 20
384.7943509504771
 30
0.0
 11
15890.84315806147
 21
595.903477985217
 31
0.0
  0
LINE
  5
1060
330
1F
100
AcDbEntity
  8
0
100
AcDbLine
 10
15601.95228509621
 20
384.7943509504771
 30
0.0
 11
15813.06141213095
 21
595.9034779852169
 31
0.0
  0
LINE
  5
1061
330
1F
100
AcDbEntity
  8
0
100
AcDbLine
 10
15581.95228509621
 20
804.7943509504772
 30
0.0
 11
16121.95228509621
 21
804.794350950477
 31
0.0
  0
LINE
  5
1062
330
1F
100
AcDbEntity
  8
0
100
AcDbLine
 10
15581.95228509621
 20
804.794350950477
 30
0.0
 11
15581.95228509621
 21
364.7943509504771
 31
0.0
  0
LINE
  5
1063
330
1F
100
AcDbEntity
  8
0
100
AcDbLine
 10
15581.95228509621
 20
364.7943509504771
 30
0.0
 11
16121.95228509621
 21
364.7943509504771
 31
0.0
  0
LINE
  5
1064
330
1F
100
AcDbEntity
  8
0
100
AcDbLine
 10
16121.95228509621
 20
804.794350950477
 30
0.0
 11
16121.95228509621
 21
364.7943509504771
 31
0.0
  0
LINE
  5
1065
330
1F
100
AcDbEntity
  8
0
100
AcDbLine
 10
15581.95228509621
 20
142.4068909683483
 30
0.0
 11
16121.95228509621
 21
142.4068909683483
 31
0.0
  0
LINE
  5
1066
330
1F
100
AcDbEntity
  8
0
100
AcDbLine
 10
15601.95228509621
 20
-57.59310903165169
 30
0.0
 11
16101.95228509621
 21
-57.59310903165168
 31
0.0
  0
LINE
  5
1067
330
1F
100
AcDbEntity
  8
0
100
AcDbLine
 10
15806.95228509621
 20
-63.5931090316517
 30
0.0
 11
15896.95228509621
 21
-63.5931090316517
 31
0.0
  0
LINE
  5
1068
330
1F
100
AcDbEntity
  8
0
100
AcDbLine
 10
15796.95228509621
 20
-57.59310903165169
 30
0.0
 11
15806.95228509621
 21
-63.5931090316517
 31
0.0
  0
LINE
  5
1069
330
1F
100
AcDbEntity
  8
0
100
AcDbLine
 10
15906.95228509621
 20
-57.59310903165169
 30
0.0
 11
15896.95228509621
 21
-63.5931090316517
 31
0.0
  0
LINE
  5
106A
330
1F
100
AcDbEntity
  8
0
100
AcDbLine
 10
16101.95228509621
 20
142.4068909683483
 30
0.0
 11
16101.95228509621
 21
-57.59310903165168
 31
0.0
  0
LINE
  5
106B
330
1F
100
AcDbEntity
  8
0
100
AcDbLine
 10
15601.95228509621
 20
142.4068909683483
 30
0.0
 11
15601.95228509621
 21
-57.59310903165168
 31
0.0
  0
LINE
  5
10FC
330
1F
100
AcDbEntity
  8
0
100
AcDbLine
 10
15601.95228509621
 20
384.1693509504771
 30
0.0
 11
15601.95228509621
 21
304.0597489586497
 31
0.0
  0
LINE
  5
10FD
330
1F
100
AcDbEntity
  8
0
100
AcDbLine
 10
16101.95228509621
 20
384.1693509504772
 30
0.0
 11
16101.95228509621
 21
304.0597489586497
 31
0.0
  0
LINE
  5
10FE
330
1F
100
AcDbEntity
  8
0
100
AcDbLine
 10
15611.95228509622
 20
305.3097489586497
 30
0.0
 11
16091.95228509622
 21
305.3097489586497
 31
0.0
  0
SOLID
  5
10FF
330
1F
100
AcDbEntity
  8
0
100
AcDbTrace
 10
15611.95228509622
 20
306.9764156253164
 30
0.0
 11
15611.95228509622
 21
303.643082291983
 31
0.0
 12
15601.95228509621
 22
305.3097489586497
 32
0.0
 13
15601.95228509621
 23
305.3097489586497
 33
0.0
  0
SOLID
  5
1100
330
1F
100
AcDbEntity
  8
0
100
AcDbTrace
 10
16091.95228509622
 20
306.9764156253164
 30
0.0
 11
16091.95228509622
 21
303.643082291983
 31
0.0
 12
16101.95228509621
 22
305.3097489586497
 32
0.0
 13
16101.95228509621
 23
305.3097489586497
 33
0.0
  0
LINE
  5
1102
330
1F
100
AcDbEntity
  8
0
100
AcDbLine
 10
15581.95228509621
 20
364.1693509504771
 30
0.0
 11
15581.95228509621
 21
234.5049925806816
 31
0.0
  0
LINE
  5
1103
330
1F
100
AcDbEntity
  8
0
100
AcDbLine
 10
16121.95228509621
 20
364.1693509504771
 30
0.0
 11
16121.95228509621
 21
234.5049925806816
 31
0.0
  0
LINE
  5
1104
330
1F
100
AcDbEntity
  8
0
100
AcDbLine
 10
15591.95228509621
 20
235.7549925806816
 30
0.0
 11
16111.95228509622
 21
235.7549925806816
 31
0.0
  0
SOLID
  5
1105
330
1F
100
AcDbEntity
  8
0
100
AcDbTrace
 10
15591.95228509621
 20
237.4216592473482
 30
0.0
 11
15591.95228509621
 21
234.0883259140149
 31
0.0
 12
15581.95228509621
 22
235.7549925806816
 32
0.0
 13
15581.95228509621
 23
235.7549925806816
 33
0.0
  0
SOLID
  5
1106
330
1F
100
AcDbEntity
  8
0
100
AcDbTrace
 10
16111.95228509622
 20
237.4216592473482
 30
0.0
 11
16111.95228509622
 21
234.0883259140149
 31
0.0
 12
16121.95228509621
 22
235.7549925806816
 32
0.0
 13
16121.95228509621
 23
235.7549925806816
 33
0.0
  0
LINE
  5
1108
330
1F
100
AcDbEntity
  8
0
100
AcDbLine
 10
16102.57728509622
 20
784.7943509504771
 30
0.0
 11
16185.81205596975
 21
784.7943509504771
 31
0.0
  0
LINE
  5
1109
330
1F
100
AcDbEntity
  8
0
100
AcDbLine
 10
16102.57728509622
 20
384.7943509504773
 30
0.0
 11
16185.81205596975
 21
384.7943509504771
 31
0.0
  0
LINE
  5
110A
330
1F
100
AcDbEntity
  8
0
100
AcDbLine
 10
16184.56205596975
 20
774.7943509504771
 30
0.0
 11
16184.56205596975
 21
394.7943509504772
 31
0.0
  0
SOLID
  5
110B
330
1F
100
AcDbEntity
  8
0
100
AcDbTrace
 10
16182.89538930308
 20
774.7943509504771
 30
0.0
 11
16186.22872263641
 21
774.7943509504771
 31
0.0
 12
16184.56205596975
 22
784.7943509504771
 32
0.0
 13
16184.56205596975
 23
784.7943509504771
 33
0.0
  0
SOLID
  5
110C
330
1F
100
AcDbEntity
  8
0
100
AcDbTrace
 10
16182.89538930308
 20
394.7943509504772
 30
0.0
 11
16186.22872263641
 21
394.7943509504772
 31
0.0
 12
16184.56205596975
 22
384.7943509504771
 32
0.0
 13
16184.56205596975
 23
384.7943509504771
 33
0.0
  0
LINE
  5
110E
330
1F
100
AcDbEntity
  8
0
100
AcDbLine
 10
16122.57728509622
 20
804.794350950477
 30
0.0
 11
16277.02735541717
 21
804.794350950477
 31
0.0
  0
LINE
  5
110F
330
1F
100
AcDbEntity
  8
0
100
AcDbLine
 10
16122.57728509622
 20
364.7943509504771
 30
0.0
 11
16277.02735541717
 21
364.794350950477
 31
0.0
  0
LINE
  5
1110
330
1F
100
AcDbEntity
  8
0
100
AcDbLine
 10
16275.77735541717
 20
794.7943509504771
 30
0.0
 11
16275.77735541717
 21
374.7943509504771
 31
0.0
  0
SOLID
  5
1111
330
1F
100
AcDbEntity
  8
0
100
AcDbTrace
 10
16274.1106887505
 20
794.7943509504771
 30
0.0
 11
16277.44402208383
 21
794.7943509504771
 31
0.0
 12
16275.77735541717
 22
804.794350950477
 32
0.0
 13
16275.77735541717
 23
804.794350950477
 33
0.0
  0
SOLID
  5
1112
330
1F
100
AcDbEntity
  8
0
100
AcDbTrace
 10
16274.1106887505
 20
374.7943509504771
 30
0.0
 11
16277.44402208383
 21
374.7943509504771
 31
0.0
 12
16275.77735541717
 22
364.794350950477
 32
0.0
 13
16275.77735541717
 23
364.794350950477
 33
0.0
  0
LINE
  5
1114
330
1F
100
AcDbEntity
  8
0
100
AcDbLine
 10
16102.57728509622
 20
142.4068909683483
 30
0.0
 11
16212.21648692681
 21
142.4068909683483
 31
0.0
  0
LINE
  5
1115
330
1F
100
AcDbEntity
  8
0
100
AcDbLine
 10
16102.57728509622
 20
-57.59310903165168
 30
0.0
 11
16212.21648692681
 21
-57.59310903165172
 31
0.0
  0
LINE
  5
1116
330
1F
100
AcDbEntity
  8
0
100
AcDbLine
 10
16210.96648692681
 20
132.4068909683483
 30
0.0
 11
16210.96648692681
 21
-47.59310903165171
 31
0.0
  0
SOLID
  5
1117
330
1F
100
AcDbEntity
  8
0
100
AcDbTrace
 10
16209.29982026014
 20
132.4068909683483
 30
0.0
 11
16212.63315359347
 21
132.4068909683483
 31
0.0
 12
16210.96648692681
 22
142.4068909683483
 32
0.0
 13
16210.96648692681
 23
142.4068909683483
 33
0.0
  0
SOLID
  5
1118
330
1F
100
AcDbEntity
  8
0
100
AcDbTrace
 10
16209.29982026014
 20
-47.59310903165171
 30
0.0
 11
16212.63315359347
 21
-47.59310903165171
 31
0.0
 12
16210.96648692681
 22
-57.59310903165172
 32
0.0
 13
16210.96648692681
 23
-57.59310903165172
 33
0.0
  0
MTEXT
  5
1119
330
1F
100
AcDbEntity
  8
0
100
AcDbMText
 10
16200.34148692681
 20
42.40689096834844
 30
0.0
 40
20.0
 41
0.0
 46
0.0
 71
     5
 72
     1
  1
200
 11
0.0000000000000001
 21
1.0
 31
0.0
 73
     1
 44
1.0
1001
ACAD
1000
ACAD_MTEXT_DEFINED_HEIGHT_BEGIN
1070
    46
1040
0.0
1000
ACAD_MTEXT_DEFINED_HEIGHT_END
  0
TEXT
  5
12CD
330
1F
100
AcDbEntity
  8
0
100
AcDbText
 10
15851.95228509622
 20
305.9347489586498
 30
0.0
 40
20.0
  1
500   
100
AcDbText
  0
TEXT
  5
12CE
330
1F
100
AcDbEntity
  8
0
100
AcDbText
 10
15851.95228509622
 20
235.7549925806816
 30
0.0
 40
20.0
  1
540
100
AcDbText
  0
TEXT
  5
12CF
330
1F
100
AcDbEntity
  8
0
100
AcDbText
 10
16183.93705596975
 20
584.7943509504771
 30
0.0
 40
20.0
  1
400 
 50
90.0
100
AcDbText
  0
TEXT
  5
12D0
330
1F
100
AcDbEntity
  8
0
100
AcDbText
 10
16275.15235541717
 20
584.7943509504771
 30
0.0
 40
20.0
  1
440 
 50
90.0
100
AcDbText
  0
ENDSEC
  0
SECTION
  2
OBJECTS
  0
DICTIONARY
  5
C
330
0
100
AcDbDictionary
281
     1
  3
ACAD_CIP_PREVIOUS_PRODUCT_INFO
350
131F
  3
ACAD_COLOR
350
6B
  3
ACAD_DETAILVIEWSTYLE
350
1317
  3
ACAD_GROUP
350
D
  3
ACAD_LAYOUT
350
1A
  3
ACAD_MATERIAL
350
6A
  3
ACAD_MLEADERSTYLE
350
1313
  3
ACAD_MLINESTYLE
350
17
  3
ACAD_PLOTSETTINGS
350
19
  3
ACAD_PLOTSTYLENAME
350
E
  3
ACAD_SCALELIST
350
1301
  3
ACAD_SECTIONVIEWSTYLE
350
1315
  3
ACAD_TABLESTYLE
350
7E
  3
ACAD_VISUALSTYLE
350
12E0
  3
ACDB_RECOMPOSE_DATA
350
133E
  3
AcDbVariableDictionary
350
5E
  0
DICTIONARY
  5
1320
330
10
100
AcDbDictionary
280
     1
281
     1
  3
ADSK_XREC_LAYER_RECONCILED
360
1321
  0
DICTIONARY
  5
30E
330
1F
100
AcDbDictionary
280
     1
281
     1
  3
ACAD_SORTENTS
360
30F
  0
DICTIONARY
  5
F6B
330
F6A
100
AcDbDictionary
280
     1
281
     1
  3
ACAD_DIMASSOC
360
F6C
  0
DICTIONARY
  5
F6E
330
F6D
100
AcDbDictionary
280
     1
281
     1
  3
ACAD_DIMASSOC
360
F6F
  0
DICTIONARY
  5
F71
330
F70
100
AcDbDictionary
280
     1
281
     1
  3
ACAD_DIMASSOC
360
F72
  0
DICTIONARY
  5
F74
330
F73
100
AcDbDictionary
280
     1
281
     1
  3
ACAD_DIMASSOC
360
F75
  0
DICTIONARY
  5
F77
330
F76
100
AcDbDictionary
280
     1
281
     1
  3
ACAD_DIMASSOC
360
F78
  0
DICTIONARY
  5
F8F
330
F8E
100
AcDbDictionary
280
     1
281
     1
  3
ACAD_DIMASSOC
360
F90
  0
DICTIONARY
  5
F92
330
F91
100
AcDbDictionary
280
     1
281
     1
  3
ACAD_DIMASSOC
360
F93
  0
DICTIONARY
  5
F95
330
F94
100
AcDbDictionary
280
     1
281
     1
  3
ACAD_DIMASSOC
360
F96
  0
DICTIONARY
  5
F98
330
F97
100
AcDbDictionary
280
     1
281
     1
  3
ACAD_DIMASSOC
360
F99
  0
DICTIONARY
  5
F9B
330
F9A
100
AcDbDictionary
280
     1
281
     1
  3
ACAD_DIMASSOC
360
F9C
  0
DICTIONARY
  5
FB3
330
FB2
100
AcDbDictionary
280
     1
281
     1
  3
ACAD_DIMASSOC
360
FB4
  0
DICTIONARY
  5
FB6
330
FB5
100
AcDbDictionary
280
     1
281
     1
  3
ACAD_DIMASSOC
360
FB7
  0
DICTIONARY
  5
FB9
330
FB8
100
AcDbDictionary
280
     1
281
     1
  3
ACAD_DIMASSOC
360
FBA
  0
DICTIONARY
  5
FBC
330
FBB
100
AcDbDictionary
280
     1
281
     1
  3
ACAD_DIMASSOC
360
FBD
  0
DICTIONARY
  5
FBF
330
FBE
100
AcDbDictionary
280
     1
281
     1
  3
ACAD_DIMASSOC
360
FC0
  0
DICTIONARY
  5
FD7
330
FD6
100
AcDbDictionary
280
     1
281
     1
  3
ACAD_DIMASSOC
360
FD8
  0
DICTIONARY
  5
FDA
330
FD9
100
AcDbDictionary
280
     1
281
     1
  3
ACAD_DIMASSOC
360
FDB
  0
DICTIONARY
  5
FDD
330
FDC
100
AcDbDictionary
280
     1
281
     1
  3
ACAD_DIMASSOC
360
FDE
  0
DICTIONARY
  5
FE0
330
FDF
100
AcDbDictionary
280
     1
281
     1
  3
ACAD_DIMASSOC
360
FE1
  0
DICTIONARY
  5
FE3
330
FE2
100
AcDbDictionary
280
     1
281
     1
  3
ACAD_DIMASSOC
360
FE4
  0
XRECORD
  5
131F
102
{ACAD_REACTORS
330
C
102
}
330
C
100
AcDbXrecord
280
     1
300
ACD
300
2017
300
ACD_F_S
  0
DICTIONARY
  5
6B
102
{ACAD_REACTORS
330
C
102
}
330
C
100
AcDbDictionary
281
     1
  0
DICTIONARY
  5
1317
102
{ACAD_REACTORS
330
C
102
}
330
C
100
AcDbDictionary
281
     1
  3
Metric50
350
1318
  0
DICTIONARY
  5
D
102
{ACAD_REACTORS
330
C
102
}
330
C
100
AcDbDictionary
281
     1
  0
DICTIONARY
  5
1A
102
{ACAD_REACTORS
330
C
102
}
330
C
100
AcDbDictionary
281
     1
  3
Model
350
22
  3
布局1
350
D3
  3
布局2
350
D7
1001
AcadStringInfo
1000
MIFCodePage
1070
     5
  0
DICTIONARY
  5
6A
102
{ACAD_REACTORS
330
C
102
}
330
C
100
AcDbDictionary
281
     1
  3
ByBlock
350
12DE
  3
ByLayer
350
12DD
  3
Global
350
12DF
  0
DICTIONARY
  5
1313
102
{ACAD_REACTORS
330
C
102
}
330
C
100
AcDbDictionary
281
     1
  3
Standard
350
1314
  0
DICTIONARY
  5
17
102
{ACAD_REACTORS
330
C
102
}
330
C
100
AcDbDictionary
281
     1
  3
Standard
350
18
  0
DICTIONARY
  5
19
102
{ACAD_REACTORS
330
C
102
}
330
C
100
AcDbDictionary
281
     1
  0
ACDBDICTIONARYWDFLT
  5
E
102
{ACAD_REACTORS
330
C
102
}
330
C
100
AcDbDictionary
281
     1
  3
Normal
350
F
100
AcDbDictionaryWithDefault
340
F
  0
DICTIONARY
  5
1301
102
{ACAD_REACTORS
330
C
102
}
330
C
100
AcDbDictionary
281
     1
  3
A0
350
1302
  3
A1
350
1303
  3
A2
350
1304
  3
A3
350
1305
  3
A4
350
1306
  3
A5
350
1307
  3
A6
350
1308
  3
A7
350
1309
  3
A8
350
130A
  3
A9
350
130B
  3
B0
350
130C
  3
B1
350
130D
  3
B2
350
130E
  3
B3
350
130F
  3
B4
350
1310
  3
B5
350
1311
  3
B6
350
1312
  0
DICTIONARY
  5
1315
102
{ACAD_REACTORS
330
C
102
}
330
C
100
AcDbDictionary
281
     1
  3
Metric50
350
1316
  0
DICTIONARY
  5
7E
102
{ACAD_REACTORS
330
C
102
}
330
C
100
AcDbDictionary
281
     1
  3
Standard
350
7F
  0
DICTIONARY
  5
12E0
102
{ACAD_REACTORS
330
C
102
}
330
C
100
AcDbDictionary
281
     1
  3
2dWireframe
350
12E6
  3
3D Hidden
350
12E8
  3
3dWireframe
350
12E7
  3
Basic
350
12E5
  3
Brighten
350
12EC
  3
ColorChange
350
12F0
  3
Conceptual
350
12E9
  3
Dim
350
12EB
  3
EdgeColorOff
350
1300
  3
Facepattern
350
12EF
  3
Flat
350
12E1
  3
FlatWithEdges
350
12E2
  3
Gouraud
350
12E3
  3
GouraudWithEdges
350
12E4
  3
Hidden
350
12F8
  3
JitterOff
350
12FE
  3
Linepattern
350
12EE
  3
OverhangOff
350
12FF
  3
Realistic
350
12EA
  3
Shaded
350
12FD
  3
Shaded with edges
350
12FC
  3
Shades of Gray
350
12F9
  3
Sketchy
350
12FA
  3
Thicken
350
12ED
  3
Wireframe
350
12F7
  3
X-Ray
350
12FB
  0
XRECORD
  5
133E
102
{ACAD_REACTORS
330
C
102
}
330
C
100
AcDbXrecord
280
     1
 90
        1
330
7F
330
1316
330
1318
  0
DICTIONARY
  5
5E
102
{ACAD_REACTORS
330
C
102
}
330
C
100
AcDbDictionary
281
     1
  3
CANNOSCALE
350
1334
  3
CMLEADERSTYLE
350
1330
  3
CTABLESTYLE
350
84
  3
CVIEWDETAILSTYLE
350
1331
  3
CVIEWSECTIONSTYLE
350
1332
  3
DIMASSOC
350
5F
  3
HIDETEXT
350
63
  3
LAYEREVAL
350
1336
  3
LAYERNOTIFY
350
1337
  3
LIGHTINGUNITS
350
1335
  3
MSLTSCALE
350
1333
  0
XRECORD
  5
1321
102
{ACAD_REACTORS
330
1320
102
}
330
1320
100
AcDbXrecord
280
     1
290
     1
  0
SORTENTSTABLE
  5
30F
102
{ACAD_REACTORS
330
30E
102
}
330
30E
100
AcDbSortentsTable
330
1F
331
1064
  5
1064
331
1060
  5
1060
331
1068
  5
1068
331
12CD
  5
111A
331
1118
  5
12CD
331
105D
  5
105D
331
1059
  5
1059
331
110C
  5
1126
331
1108
  5
1122
331
1114
  5
1130
331
1110
  5
112B
331
10FD
  5
1115
331
1105
  5
111E
331
1065
  5
1065
331
1061
  5
1061
331
1069
  5
1069
331
12CE
  5
1121
331
105E
  5
105E
331
1119
  5
12CE
331
105A
  5
105A
331
1109
  5
1123
331
1115
  5
1131
331
1111
  5
112C
331
10FE
  5
1116
331
1106
  5
111F
331
1102
  5
111B
331
1066
  5
1066
331
1062
  5
1062
331
106A
  5
106A
331
12CF
  5
1128
331
1057
  5
1057
331
105F
  5
105F
331
105B
  5
105B
331
110E
  5
1129
331
110A
  5
1124
331
1116
  5
1133
331
1112
  5
112D
331
10FF
  5
1117
331
1103
  5
111C
331
1067
  5
1067
331
1063
  5
1063
331
106B
  5
106B
331
12D0
  5
112F
331
105C
  5
105C
331
1058
  5
1058
331
110F
  5
112A
331
110B
  5
1125
331
1117
  5
1134
331
10FC
  5
1114
331
1104
  5
111D
331
1100
  5
1118
  0
DIMASSOC
  5
F6C
102
{ACAD_REACTORS
330
F6B
102
}
330
F6B
100
AcDbDimAssoc
330
F6A
 90
        3
 70
     0
 71
     0
  1
AcDbOsnapPointRef
 72
    13
331
F61
 73
     2
 91
        0
 40
0.0
 10
0.0
 20
0.0
 30
2.000000000000000E+50
 75
     0
  1
AcDbOsnapPointRef
 72
     1
331
F61
 73
     2
 91
        0
 40
1.0
 10
0.0
 20
0.0
 30
2.000000000000000E+50
 75
     0
  0
DIMASSOC
  5
F6F
102
{ACAD_REACTORS
330
F6E
102
}
330
F6E
100
AcDbDimAssoc
330
F6D
 90
        3
 70
     0
 71
     0
  1
AcDbOsnapPointRef
 72
     1
331
F58
 73
     2
 91
        0
 40
1.0
 10
0.0
 20
0.0
 30
2.000000000000000E+50
 75
     0
  1
AcDbOsnapPointRef
 72
     1
331
F5E
 73
     2
 91
        0
 40
1.0
 10
0.0
 20
0.0
 30
2.000000000000000E+50
 75
     0
  0
DIMASSOC
  5
F72
102
{ACAD_REACTORS
330
F71
102
}
330
F71
100
AcDbDimAssoc
330
F70
 90
        2
 70
     0
 71
     0
  1
AcDbOsnapPointRef
 72
     6
331
F62
 73
     2
 91
        0
 40
1.0
 10
0.0
 20
0.0
 30
0.0
332
F60
 74
     2
 92
        0
 75
     0
  0
DIMASSOC
  5
F75
102
{ACAD_REACTORS
330
F74
102
}
330
F74
100
AcDbDimAssoc
330
F73
 90
        3
 70
     0
 71
     0
  1
AcDbOsnapPointRef
 72
    13
331
F5D
 73
     2
 91
        0
 40
0.0
 10
0.0
 20
0.0
 30
2.000000000000000E+50
 75
     0
  1
AcDbOsnapPointRef
 72
     1
331
F5E
 73
     2
 91
        0
 40
1.0
 10
0.0
 20
0.0
 30
2.000000000000000E+50
 75
     0
  0
DIMASSOC
  5
F78
102
{ACAD_REACTORS
330
F77
102
}
330
F77
100
AcDbDimAssoc
330
F76
 90
        3
 70
     0
 71
     0
  1
AcDbOsnapPointRef
 72
     6
331
F65
 73
     2
 91
        0
 40
0.9545454545454546
 10
0.0
 20
0.0
 30
0.0
332
F64
 74
     2
 92
        0
 75
     0
  1
AcDbOsnapPointRef
 72
     1
331
F69
 73
     2
 91
        0
 40
1.0
 10
0.0
 20
0.0
 30
2.000000000000000E+50
 75
     0
  0
DIMASSOC
  5
F90
102
{ACAD_REACTORS
330
F8F
102
}
330
F8F
100
AcDbDimAssoc
330
F8E
 90
        3
 70
     0
 71
     0
  1
AcDbOsnapPointRef
 72
    13
331
F7B
 73
     2
 91
        0
 40
0.0
 10
0.0
 20
0.0
 30
2.000000000000000E+50
 75
     0
  1
AcDbOsnapPointRef
 72
     1
331
F7C
 73
     2
 91
        0
 40
1.0
 10
0.0
 20
0.0
 30
2.000000000000000E+50
 75
     0
  0
DIMASSOC
  5
F93
102
{ACAD_REACTORS
330
F92
102
}
330
F92
100
AcDbDimAssoc
330
F91
 90
        3
 70
     0
 71
     0
  1
AcDbOsnapPointRef
 72
    13
331
F84
 73
     2
 91
        0
 40
0.0
 10
0.0
 20
0.0
 30
2.000000000000000E+50
 75
     0
  1
AcDbOsnapPointRef
 72
     1
331
F86
 73
     2
 91
        0
 40
1.0
 10
0.0
 20
0.0
 30
2.000000000000000E+50
 75
     0
  0
DIMASSOC
  5
F96
102
{ACAD_REACTORS
330
F95
102
}
330
F95
100
AcDbDimAssoc
330
F94
 90
        3
 70
     0
 71
     0
  1
AcDbOsnapPointRef
 72
     1
331
F7A
 73
     2
 91
        0
 40
1.0
 10
0.0
 20
0.0
 30
2.000000000000000E+50
 75
     0
  1
AcDbOsnapPointRef
 72
     1
331
F7C
 73
     2
 91
        0
 40
1.0
 10
0.0
 20
0.0
 30
2.000000000000000E+50
 75
     0
  0
DIMASSOC
  5
F99
102
{ACAD_REACTORS
330
F98
102
}
330
F98
100
AcDbDimAssoc
330
F97
 90
        3
 70
     0
 71
     0
  1
AcDbOsnapPointRef
 72
     1
331
F7E
 73
     2
 91
        0
 40
1.0
 10
0.0
 20
0.0
 30
2.000000000000000E+50
 75
     0
  1
AcDbOsnapPointRef
 72
     1
331
F86
 73
     2
 91
        0
 40
1.0
 10
0.0
 20
0.0
 30
2.000000000000000E+50
 75
     0
  0
DIMASSOC
  5
F9C
102
{ACAD_REACTORS
330
F9B
102
}
330
F9B
100
AcDbDimAssoc
330
F9A
 90
        3
 70
     0
 71
     0
  1
AcDbOsnapPointRef
 72
    13
331
F88
 73
     2
 91
        0
 40
0.0
 10
0.0
 20
0.0
 30
2.000000000000000E+50
 75
     0
  1
AcDbOsnapPointRef
 72
     1
331
F8A
 73
     2
 91
        0
 40
1.0
 10
0.0
 20
0.0
 30
2.000000000000000E+50
 75
     0
  0
DIMASSOC
  5
FB4
102
{ACAD_REACTORS
330
FB3
102
}
330
FB3
100
AcDbDimAssoc
330
FB2
 90
        3
 70
     0
 71
     0
  1
AcDbOsnapPointRef
 72
     1
331
FA0
 73
     2
 91
        0
 40
1.0
 10
0.0
 20
0.0
 30
2.000000000000000E+50
 75
     0
  1
AcDbOsnapPointRef
 72
     1
331
FA2
 73
     2
 91
        0
 40
1.0
 10
0.0
 20
0.0
 30
2.000000000000000E+50
 75
     0
  0
DIMASSOC
  5
FB7
102
{ACAD_REACTORS
330
FB6
102
}
330
FB6
100
AcDbDimAssoc
330
FB5
 90
        3
 70
     0
 71
     0
  1
AcDbOsnapPointRef
 72
    13
331
FA8
 73
     2
 91
        0
 40
0.0
 10
0.0
 20
0.0
 30
2.000000000000000E+50
 75
     0
  1
AcDbOsnapPointRef
 72
     1
331
FAA
 73
     2
 91
        0
 40
1.0
 10
0.0
 20
0.0
 30
2.000000000000000E+50
 75
     0
  0
DIMASSOC
  5
FBA
102
{ACAD_REACTORS
330
FB9
102
}
330
FB9
100
AcDbDimAssoc
330
FB8
 90
        3
 70
     0
 71
     0
  1
AcDbOsnapPointRef
 72
     1
331
FA1
 73
     2
 91
        0
 40
1.0
 10
0.0
 20
0.0
 30
2.000000000000000E+50
 75
     0
  1
AcDbOsnapPointRef
 72
     1
331
FA2
 73
     2
 91
        0
 40
1.0
 10
0.0
 20
0.0
 30
2.000000000000000E+50
 75
     0
  0
DIMASSOC
  5
FBD
102
{ACAD_REACTORS
330
FBC
102
}
330
FBC
100
AcDbDimAssoc
330
FBB
 90
        3
 70
     0
 71
     0
  1
AcDbOsnapPointRef
 72
    13
331
FA9
 73
     2
 91
        0
 40
0.0
 10
0.0
 20
0.0
 30
2.000000000000000E+50
 75
     0
  1
AcDbOsnapPointRef
 72
     1
331
FAA
 73
     2
 91
        0
 40
1.0
 10
0.0
 20
0.0
 30
2.000000000000000E+50
 75
     0
  0
DIMASSOC
  5
FC0
102
{ACAD_REACTORS
330
FBF
102
}
330
FBF
100
AcDbDimAssoc
330
FBE
 90
        3
 70
     0
 71
     0
  1
AcDbOsnapPointRef
 72
    13
331
FAC
 73
     2
 91
        0
 40
0.0
 10
0.0
 20
0.0
 30
2.000000000000000E+50
 75
     0
  1
AcDbOsnapPointRef
 72
     1
331
FAC
 73
     2
 91
        0
 40
1.0
 10
0.0
 20
0.0
 30
2.000000000000000E+50
 75
     0
  0
DIMASSOC
  5
FD8
102
{ACAD_REACTORS
330
FD7
102
}
330
FD7
100
AcDbDimAssoc
330
FD6
 90
        3
 70
     0
 71
     0
  1
AcDbOsnapPointRef
 72
    13
331
FC6
 73
     2
 91
        0
 40
0.0
 10
0.0
 20
0.0
 30
2.000000000000000E+50
 75
     0
  1
AcDbOsnapPointRef
 72
     1
331
FC7
 73
     2
 91
        0
 40
1.0
 10
0.0
 20
0.0
 30
2.000000000000000E+50
 75
     0
  0
DIMASSOC
  5
FDB
102
{ACAD_REACTORS
330
FDA
102
}
330
FDA
100
AcDbDimAssoc
330
FD9
 90
        3
 70
     0
 71
     0
  1
AcDbOsnapPointRef
 72
    13
331
FC3
 73
     2
 91
        0
 40
0.0
 10
0.0
 20
0.0
 30
2.000000000000000E+50
 75
     0
  1
AcDbOsnapPointRef
 72
     1
331
FCE
 73
     2
 91
        0
 40
1.0
 10
0.0
 20
0.0
 30
2.000000000000000E+50
 75
     0
  0
DIMASSOC
  5
FDE
102
{ACAD_REACTORS
330
FDD
102
}
330
FDD
100
AcDbDimAssoc
330
FDC
 90
        1
 70
     0
 71
     0
  1
AcDbOsnapPointRef
 72
    13
331
FC7
 73
     2
 91
        0
 40
0.0
 10
0.0
 20
0.0
 30
2.000000000000000E+50
 75
     0
  0
DIMASSOC
  5
FE1
102
{ACAD_REACTORS
330
FE0
102
}
330
FE0
100
AcDbDimAssoc
330
FDF
 90
        3
 70
     0
 71
     0
  1
AcDbOsnapPointRef
 72
    13
331
FCD
 73
     2
 91
        0
 40
0.0
 10
0.0
 20
0.0
 30
2.000000000000000E+50
 75
     0
  1
AcDbOsnapPointRef
 72
     1
331
FCE
 73
     2
 91
        0
 40
1.0
 10
0.0
 20
0.0
 30
2.000000000000000E+50
 75
     0
  0
DIMASSOC
  5
FE4
102
{ACAD_REACTORS
330
FE3
102
}
330
FE3
100
AcDbDimAssoc
330
FE2
 90
        3
 70
     0
 71
     0
  1
AcDbOsnapPointRef
 72
    13
331
FD0
 73
     2
 91
        0
 40
0.0
 10
0.0
 20
0.0
 30
2.000000000000000E+50
 75
     0
  1
AcDbOsnapPointRef
 72
     1
331
FD2
 73
     2
 91
        0
 40
1.0
 10
0.0
 20
0.0
 30
2.000000000000000E+50
 75
     0
  0
ACDBDETAILVIEWSTYLE
  5
1318
102
{ACAD_XDICTIONARY
360
133C
102
}
102
{ACAD_REACTORS
330
1317
102
}
330
1317
100
AcDbModelDocViewStyle
 70
     0
  3
Metric50
290
     0
100
AcDbDetailViewStyle
 70
     0
 71
     0
 90
        3
 71
     1
340
11
 62
   256
 40
5.0
340
0
 62
   256
 40
5.0
300

 40
0.0
280
     1
 71
     2
340
16
 90
       25
 62
   256
 71
     3
340
11
 62
   256
 40
5.0
 90
        0
 40
15.0
 90
        1
300
%<\AcVar ViewDetailId>% (%<\AcVar ViewScale \f "%sn">%)
 71
     4
340
16
 90
       25
 62
   256
340
16
 90
       25
 62
   256
280
     0
  0
LAYOUT
  5
22
102
{ACAD_REACTORS
330
1A
102
}
330
1A
100
AcDbPlotSettings
  1

  2
none_device
  4
ISO_A4_(210.00_x_297.00_MM)
  6

 40
7.5
 41
20.0
 42
7.5
 43
20.0
 44
210.0
 45
297.0
 46
11.54999923706054
 47
-13.65000009536743
 48
0.0
 49
0.0
140
0.0
141
0.0
142
1.0
143
8.704084754739808
 70
 11952
 72
     1
 73
     0
 74
     0
  7

 75
     0
147
0.1148885871608098
 76
     0
 77
     2
 78
   300
148
0.0
149
0.0
100
AcDbLayout
  1
Model
 70
     1
 71
     0
 10
0.0
 20
0.0
 11
12.0
 21
9.0
 12
0.0
 22
0.0
 32
0.0
 14
0.0
 24
0.0
 34
0.0
 15
0.0
 25
0.0
 35
0.0
146
0.0
 13
0.0
 23
0.0
 33
0.0
 16
1.0
 26
0.0
 36
0.0
 17
0.0
 27
1.0
 37
0.0
 76
     0
330
1F
331
12DB
1001
ACAD_PSEXT
1000
None
1000
None
1000
Not applicable
1000
The layout will not be plotted unless a new plotter configuration name is selected.
1070
     0
  0
LAYOUT
  5
D3
102
{ACAD_REACTORS
330
1A
102
}
330
1A
100
AcDbPlotSettings
  1

  2
C:\Documents and Settings\basas\Application Data\Autodesk\AutoCAD 2005\R16.1\enu\plotters\Default Windows System Printer.pc3
  4

  6

 40
0.0
 41
0.0
 42
0.0
 43
0.0
 44
0.0
 45
0.0
 46
0.0
 47
0.0
 48
0.0
 49
0.0
140
0.0
141
0.0
142
1.0
143
1.0
 70
   688
 72
     0
 73
     0
 74
     5
  7

 75
    16
147
1.0
 76
     0
 77
     2
 78
   300
148
0.0
149
0.0
100
AcDbLayout
  1
布局1
 70
     1
 71
     1
 10
0.0
 20
0.0
 11
12.0
 21
9.0
 12
0.0
 22
0.0
 32
0.0
 14
0.0
 24
0.0
 34
0.0
 15
0.0
 25
0.0
 35
0.0
146
0.0
 13
0.0
 23
0.0
 33
0.0
 16
1.0
 26
0.0
 36
0.0
 17
0.0
 27
1.0
 37
0.0
 76
     0
330
D2
1001
AcadStringInfo
1000
MIFCodePage
1070
     5
  0
LAYOUT
  5
D7
102
{ACAD_REACTORS
330
1A
102
}
330
1A
100
AcDbPlotSettings
  1

  2
C:\Documents and Settings\basas\Application Data\Autodesk\AutoCAD 2005\R16.1\enu\plotters\Default Windows System Printer.pc3
  4

  6

 40
0.0
 41
0.0
 42
0.0
 43
0.0
 44
0.0
 45
0.0
 46
0.0
 47
0.0
 48
0.0
 49
0.0
140
0.0
141
0.0
142
1.0
143
1.0
 70
   688
 72
     0
 73
     0
 74
     5
  7

 75
    16
147
1.0
 76
     0
 77
     2
 78
   300
148
0.0
149
0.0
100
AcDbLayout
  1
布局2
 70
     1
 71
     2
 10
0.0
 20
0.0
 11
12.0
 21
9.0
 12
0.0
 22
0.0
 32
0.0
 14
0.0
 24
0.0
 34
0.0
 15
0.0
 25
0.0
 35
0.0
146
0.0
 13
0.0
 23
0.0
 33
0.0
 16
1.0
 26
0.0
 36
0.0
 17
0.0
 27
1.0
 37
0.0
 76
     0
330
D6
1001
AcadStringInfo
1000
MIFCodePage
1070
     5
  0
MATERIAL
  5
12DE
102
{ACAD_REACTORS
330
6A
102
}
330
6A
100
AcDbMaterial
  1
ByBlock
 73
     1
 78
     1
172
     1
176
     1
270
     1
274
     1
 94
       63
  0
MATERIAL
  5
12DD
102
{ACAD_REACTORS
330
6A
102
}
330
6A
100
AcDbMaterial
  1
ByLayer
 73
     1
 78
     1
172
     1
176
     1
270
     1
274
     1
 94
       63
  0
MATERIAL
  5
12DF
102
{ACAD_REACTORS
330
6A
102
}
330
6A
100
AcDbMaterial
  1
Global
 73
     1
 78
     1
172
     1
176
     1
270
     1
274
     1
 94
       63
  0
MLEADERSTYLE
  5
1314
102
{ACAD_REACTORS
330
1313
102
}
330
1313
100
AcDbMLeaderStyle
179
     2
170
     2
171
     1
172
     0
 90
        2
 40
0.0
 41
0.0
173
     1
 91
-1056964608
340
14
 92
       -2
290
     1
 42
2.0
291
     1
 43
0.36
  3
Standard
 44
4.0
300

342
11
174
     1
178
     6
175
     1
176
     0
 93
-1056964608
 45
4.0
292
     0
297
     0
 46
4.0
 94
-1056964608
 47
1.0
 49
1.0
140
1.0
293
     1
141
0.0
294
     1
177
     0
142
1.0
295
     1
296
     0
143
0.125
271
     0
272
     9
273
     9
298
     1
  0
MLINESTYLE
  5
18
102
{ACAD_REACTORS
330
17
102
}
330
17
100
AcDbMlineStyle
  2
STANDARD
 70
     0
  3

 62
   256
 51
90.0
 52
90.0
 71
     2
 49
0.5
 62
   256
  6
BYLAYER
 49
-0.5
 62
   256
  6
BYLAYER
  0
ACDBPLACEHOLDER
  5
F
102
{ACAD_REACTORS
330
E
102
}
330
E
  0
SCALE
  5
1302
102
{ACAD_REACTORS
330
1301
102
}
330
1301
100
AcDbScale
 70
     0
300
1:1
140
1.0
141
1.0
290
     1
  0
SCALE
  5
1303
102
{ACAD_REACTORS
330
1301
102
}
330
1301
100
AcDbScale
 70
     0
300
1:2
140
1.0
141
2.0
290
     0
  0
SCALE
  5
1304
102
{ACAD_REACTORS
330
1301
102
}
330
1301
100
AcDbScale
 70
     0
300
1:4
140
1.0
141
4.0
290
     0
  0
SCALE
  5
1305
102
{ACAD_REACTORS
330
1301
102
}
330
1301
100
AcDbScale
 70
     0
300
1:5
140
1.0
141
5.0
290
     0
  0
SCALE
  5
1306
102
{ACAD_REACTORS
330
1301
102
}
330
1301
100
AcDbScale
 70
     0
300
1:8
140
1.0
141
8.0
290
     0
  0
SCALE
  5
1307
102
{ACAD_REACTORS
330
1301
102
}
330
1301
100
AcDbScale
 70
     0
300
1:10
140
1.0
141
10.0
290
     0
  0
SCALE
  5
1308
102
{ACAD_REACTORS
330
1301
102
}
330
1301
100
AcDbScale
 70
     0
300
1:16
140
1.0
141
16.0
290
     0
  0
SCALE
  5
1309
102
{ACAD_REACTORS
330
1301
102
}
330
1301
100
AcDbScale
 70
     0
300
1:20
140
1.0
141
20.0
290
     0
  0
SCALE
  5
130A
102
{ACAD_REACTORS
330
1301
102
}
330
1301
100
AcDbScale
 70
     0
300
1:30
140
1.0
141
30.0
290
     0
  0
SCALE
  5
130B
102
{ACAD_REACTORS
330
1301
102
}
330
1301
100
AcDbScale
 70
     0
300
1:40
140
1.0
141
40.0
290
     0
  0
SCALE
  5
130C
102
{ACAD_REACTORS
330
1301
102
}
330
1301
100
AcDbScale
 70
     0
300
1:50
140
1.0
141
50.0
290
     0
  0
SCALE
  5
130D
102
{ACAD_REACTORS
330
1301
102
}
330
1301
100
AcDbScale
 70
     0
300
1:100
140
1.0
141
100.0
290
     0
  0
SCALE
  5
130E
102
{ACAD_REACTORS
330
1301
102
}
330
1301
100
AcDbScale
 70
     0
300
2:1
140
2.0
141
1.0
290
     0
  0
SCALE
  5
130F
102
{ACAD_REACTORS
330
1301
102
}
330
1301
100
AcDbScale
 70
     0
300
4:1
140
4.0
141
1.0
290
     0
  0
SCALE
  5
1310
102
{ACAD_REACTORS
330
1301
102
}
330
1301
100
AcDbScale
 70
     0
300
8:1
140
8.0
141
1.0
290
     0
  0
SCALE
  5
1311
102
{ACAD_REACTORS
330
1301
102
}
330
1301
100
AcDbScale
 70
     0
300
10:1
140
10.0
141
1.0
290
     0
  0
SCALE
  5
1312
102
{ACAD_REACTORS
330
1301
102
}
330
1301
100
AcDbScale
 70
     0
300
100:1
140
100.0
141
1.0
290
     0
  0
ACDBSECTIONVIEWSTYLE
  5
1316
102
{ACAD_XDICTIONARY
360
133A
102
}
102
{ACAD_REACTORS
330
1315
102
}
330
1315
100
AcDbModelDocViewStyle
 70
     0
  3
Metric50
290
     0
100
AcDbSectionViewStyle
 70
     0
 71
     0
 90
      102
 71
     1
340
11
 62
   256
 40
5.0
340
0
340
0
 62
   256
 40
5.0
300
I, O, Q, S, X, Z
 40
10.0
 90
        0
 40
2.5
 90
        0
 71
     2
340
16
 90
       25
 62
   256
340
16
 90
       50
 62
   256
 40
5.0
 40
2.5
 40
5.0
 71
     3
340
11
 62
   256
 40
5.0
 90
        0
 40
15.0
 90
        1
300
%<\AcVar ViewSectionStartId>%-%<\AcVar ViewSectionEndId>% (%<\AcVar ViewScale \f "%sn">%)
 71
     4
 62
   256
 62
   257
300
ANSI31
 40
1.0
 90
        0
290
     0
290
     0
 90
        6
 40
0.0
 40
1.570796326794896
 40
0.2617993877991494
 40
1.308996938995747
 40
-0.2617993877991494
 40
1.832595714594046
  0
TABLESTYLE
  5
7F
102
{ACAD_XDICTIONARY
360
1338
102
}
102
{ACAD_REACTORS
330
7E
102
}
330
7E
100
AcDbTableStyle
280
     0
  3
Standard
 70
     0
 71
     0
 40
1.5
 41
1.5
280
     0
281
     0
  7
Standard
140
4.5
170
     2
 62
     0
 63
     7
283
     0
 90
        4
 91
        0
  1

274
    -2
284
     1
 64
     0
275
    -2
285
     1
 65
     0
276
    -2
286
     1
 66
     0
277
    -2
287
     1
 67
     0
278
    -2
288
     1
 68
     0
279
    -2
289
     1
 69
     0
  7
Standard
140
6.0
170
     5
 62
     0
 63
     7
283
     0
 90
        4
 91
        0
  1

274
    -2
284
     1
 64
     0
275
    -2
285
     1
 65
     0
276
    -2
286
     1
 66
     0
277
    -2
287
     1
 67
     0
278
    -2
288
     1
 68
     0
279
    -2
289
     1
 69
     0
  7
Standard
140
4.5
170
     5
 62
     0
 63
     7
283
     0
 90
        4
 91
        0
  1

274
    -2
284
     1
 64
     0
275
    -2
285
     1
 65
     0
276
    -2
286
     1
 66
     0
277
    -2
287
     1
 67
     0
278
    -2
288
     1
 68
     0
279
    -2
289
     1
 69
     0
  0
VISUALSTYLE
  5
12E6
102
{ACAD_REACTORS
330
12E0
102
}
330
12E0
100
AcDbVisualStyle
  2
2dWireframe
 70
     4
177
     3
291
     0
 70
    58
 90
        0
176
     1
 90
        2
176
     1
 90
        0
176
     1
 90
        0
176
     1
 40
0.6
176
     1
 40
30.0
176
     1
 62
     7
420
 16777215
176
     1
 90
        1
176
     1
 90
        4
176
     1
 62
     7
176
     1
 62
   257
176
     1
 90
        1
176
     1
 90
        1
176
     1
 40
1.0
176
     1
 90
        0
176
     1
 62
   257
176
     1
 40
1.0
176
     1
 90
        1
176
     1
 90
        6
176
     1
 90
        2
176
     1
 62
     7
176
     1
 90
        5
176
     1
 90
        0
176
     1
 90
        0
176
     1
290
     0
176
     1
 90
        1
176
     1
 40
0.0
176
     1
 90
        0
176
     1
290
     1
176
     1
290
     1
176
     1
290
     0
176
     1
290
     0
176
     1
290
     0
176
     1
290
     0
176
     1
290
     0
176
     1
290
     0
176
     1
290
     0
176
     1
 90
       50
176
     1
 40
0.0
176
     1
 40
1.0
176
     1
 90
        0
176
     1
 62
    18
420
        0
176
     1
 90
       50
176
     1
 90
        3
176
     1
 62
     5
420
      255
176
     1
290
     0
176
     1
 90
       50
176
     1
 90
       50
176
     1
 90
       50
176
     1
290
     0
176
     1
 90
       50
176
     1
 62
   256
176
     0
 40
1.0
176
     0
 90
        2
176
     1
  1
strokes_ogs.tif
176
     1
290
     0
176
     1
 40
1.0
176
     1
 40
1.0
176
     1
  0
VISUALSTYLE
  5
12E8
102
{ACAD_REACTORS
330
12E0
102
}
330
12E0
100
AcDbVisualStyle
  2
3D Hidden
 70
     6
177
     3
291
     0
 70
    58
 90
        1
176
     1
 90
        2
176
     1
 90
        2
176
     1
 90
        0
176
     1
 40
0.6
176
     1
 40
30.0
176
     1
 62
     7
420
 16777215
176
     1
 90
        2
176
     1
 90
        2
176
     1
 62
     7
176
     1
 62
   257
176
     1
 90
        2
176
     1
 90
        1
176
     1
 40
40.0
176
     1
 90
        0
176
     1
 62
   257
176
     1
 40
1.0
176
     1
 90
        1
176
     1
 90
        6
176
     1
 90
        2
176
     1
 62
     7
176
     1
 90
        3
176
     1
 90
        0
176
     1
 90
        0
176
     1
290
     0
176
     1
 90
        1
176
     1
 40
0.0
176
     1
 90
        0
176
     1
290
     0
176
     1
290
     1
176
     1
290
     1
176
     1
290
     0
176
     1
290
     0
176
     1
290
     0
176
     1
290
     0
176
     1
290
     0
176
     1
290
     0
176
     1
 90
       50
176
     1
 40
0.0
176
     1
 40
1.0
176
     1
 90
        0
176
     1
 62
    18
420
        0
176
     1
 90
       50
176
     1
 90
        3
176
     1
 62
     5
420
      255
176
     1
290
     0
176
     1
 90
       50
176
     1
 90
       50
176
     1
 90
       50
176
     1
290
     0
176
     1
 90
       50
176
     1
 62
   256
176
     0
 40
1.0
176
     0
 90
        2
176
     1
  1
strokes_ogs.tif
176
     1
290
     0
176
     1
 40
1.0
176
     1
 40
1.0
176
     1
  0
VISUALSTYLE
  5
12E7
102
{ACAD_REACTORS
330
12E0
102
}
330
12E0
100
AcDbVisualStyle
  2
3dWireframe
 70
     5
177
     3
291
     0
 70
    58
 90
        0
176
     1
 90
        2
176
     1
 90
        0
176
     1
 90
        0
176
     1
 40
0.6
176
     1
 40
30.0
176
     1
 62
     7
420
 16777215
176
     1
 90
        1
176
     1
 90
        4
176
     1
 62
     7
176
     1
 62
   257
176
     1
 90
        1
176
     1
 90
        1
176
     1
 40
1.0
176
     1
 90
        0
176
     1
 62
   257
176
     1
 40
1.0
176
     1
 90
        1
176
     1
 90
        6
176
     1
 90
        2
176
     1
 62
     7
176
     1
 90
        5
176
     1
 90
        0
176
     1
 90
        0
176
     1
290
     0
176
     1
 90
        1
176
     1
 40
0.0
176
     1
 90
        0
176
     1
290
     0
176
     1
290
     1
176
     1
290
     1
176
     1
290
     0
176
     1
290
     0
176
     1
290
     0
176
     1
290
     0
176
     1
290
     0
176
     1
290
     0
176
     1
 90
       50
176
     1
 40
0.0
176
     1
 40
1.0
176
     1
 90
        0
176
     1
 62
    18
420
        0
176
     1
 90
       50
176
     1
 90
        3
176
     1
 62
     5
420
      255
176
     1
290
     0
176
     1
 90
       50
176
     1
 90
       50
176
     1
 90
       50
176
     1
290
     0
176
     1
 90
       50
176
     1
 62
   256
176
     0
 40
1.0
176
     0
 90
        2
176
     1
  1
strokes_ogs.tif
176
     1
290
     0
176
     1
 40
1.0
176
     1
 40
1.0
176
     1
  0
VISUALSTYLE
  5
12E5
102
{ACAD_REACTORS
330
12E0
102
}
330
12E0
100
AcDbVisualStyle
  2
Basic
 70
     7
177
     3
291
     1
 70
    58
 90
        1
176
     1
 90
        0
176
     1
 90
        1
176
     1
 90
        0
176
     1
 40
0.6
176
     1
 40
30.0
176
     1
 62
     7
420
 16777215
176
     1
 90
        0
176
     1
 90
        4
176
     1
 62
     7
176
     1
 62
   257
176
     1
 90
        1
176
     1
 90
        1
176
     1
 40
1.0
176
     1
 90
        8
176
     1
 62
     7
176
     1
 40
1.0
176
     1
 90
        1
176
     1
 90
        6
176
     1
 90
        2
176
     1
 62
     7
176
     1
 90
        5
176
     1
 90
        0
176
     1
 90
        0
176
     1
290
     0
176
     1
 90
        1
176
     1
 40
0.0
176
     1
 90
        0
176
     1
290
     0
176
     1
290
     1
176
     1
290
     1
176
     1
290
     0
176
     1
290
     0
176
     1
290
     0
176
     1
290
     0
176
     1
290
     0
176
     1
290
     0
176
     1
 90
       50
176
     1
 40
0.0
176
     1
 40
1.0
176
     1
 90
        0
176
     1
 62
    18
420
        0
176
     1
 90
       50
176
     1
 90
        3
176
     1
 62
     5
420
      255
176
     1
290
     0
176
     1
 90
       50
176
     1
 90
       50
176
     1
 90
       50
176
     1
290
     0
176
     1
 90
       50
176
     1
 62
   256
176
     0
 40
1.0
176
     0
 90
        2
176
     1
  1
strokes_ogs.tif
176
     1
290
     0
176
     1
 40
1.0
176
     1
 40
1.0
176
     1
  0
VISUALSTYLE
  5
12EC
102
{ACAD_REACTORS
330
12E0
102
}
330
12E0
100
AcDbVisualStyle
  2
Brighten
 70
    12
177
     3
291
     1
 70
    58
 90
        2
176
     1
 90
        2
176
     1
 90
        0
176
     1
 90
        0
176
     1
 40
0.6
176
     1
 40
30.0
176
     1
 62
     7
420
 16777215
176
     1
 90
        1
176
     1
 90
        4
176
     1
 62
     7
176
     1
 62
   257
176
     1
 90
        1
176
     1
 90
        1
176
     1
 40
1.0
176
     1
 90
        8
176
     1
 62
     7
176
     1
 40
1.0
176
     1
 90
        1
176
     1
 90
        6
176
     1
 90
        2
176
     1
 62
     7
176
     1
 90
        5
176
     1
 90
        0
176
     1
 90
        0
176
     1
290
     0
176
     1
 90
        1
176
     1
 40
50.0
176
     1
 90
        0
176
     1
290
     0
176
     1
290
     1
176
     1
290
     1
176
     1
290
     0
176
     1
290
     0
176
     1
290
     0
176
     1
290
     0
176
     1
290
     0
176
     1
290
     0
176
     1
 90
       50
176
     1
 40
0.0
176
     1
 40
1.0
176
     1
 90
        0
176
     1
 62
    18
420
        0
176
     1
 90
       50
176
     1
 90
        3
176
     1
 62
     5
420
      255
176
     1
290
     0
176
     1
 90
       50
176
     1
 90
       50
176
     1
 90
       50
176
     1
290
     0
176
     1
 90
       50
176
     1
 62
   256
176
     0
 40
1.0
176
     0
 90
        2
176
     1
  1
strokes_ogs.tif
176
     1
290
     0
176
     1
 40
1.0
176
     1
 40
1.0
176
     1
  0
VISUALSTYLE
  5
12F0
102
{ACAD_REACTORS
330
12E0
102
}
330
12E0
100
AcDbVisualStyle
  2
ColorChange
 70
    16
177
     3
291
     1
 70
    58
 90
        2
176
     1
 90
        2
176
     1
 90
        3
176
     1
 90
        0
176
     1
 40
0.6
176
     1
 40
30.0
176
     1
 62
     8
420
  8421504
176
     1
 90
        1
176
     1
 90
        4
176
     1
 62
     7
176
     1
 62
   257
176
     1
 90
        1
176
     1
 90
        1
176
     1
 40
1.0
176
     1
 90
        8
176
     1
 62
     8
420
  8421504
176
     1
 40
1.0
176
     1
 90
        1
176
     1
 90
        6
176
     1
 90
        2
176
     1
 62
     7
176
     1
 90
        5
176
     1
 90
        0
176
     1
 90
        0
176
     1
290
     0
176
     1
 90
        1
176
     1
 40
0.0
176
     1
 90
        0
176
     1
290
     0
176
     1
290
     1
176
     1
290
     1
176
     1
290
     0
176
     1
290
     0
176
     1
290
     0
176
     1
290
     0
176
     1
290
     0
176
     1
290
     0
176
     1
 90
       50
176
     1
 40
0.0
176
     1
 40
1.0
176
     1
 90
        0
176
     1
 62
    18
420
        0
176
     1
 90
       50
176
     1
 90
        3
176
     1
 62
     5
420
      255
176
     1
290
     0
176
     1
 90
       50
176
     1
 90
       50
176
     1
 90
       50
176
     1
290
     0
176
     1
 90
       50
176
     1
 62
   256
176
     0
 40
1.0
176
     0
 90
        2
176
     1
  1
strokes_ogs.tif
176
     1
290
     0
176
     1
 40
1.0
176
     1
 40
1.0
176
     1
  0
VISUALSTYLE
  5
12E9
102
{ACAD_REACTORS
330
12E0
102
}
330
12E0
100
AcDbVisualStyle
  2
Conceptual
 70
     9
177
     3
291
     0
 70
    58
 90
        3
176
     1
 90
        2
176
     1
 90
        0
176
     1
 90
        0
176
     1
 40
0.6
176
     1
 40
30.0
176
     1
 62
     7
420
 16777215
176
     1
 90
        2
176
     1
 90
        2
176
     1
 62
     7
176
     1
 62
   257
176
     1
 90
        1
176
     1
 90
        1
176
     1
 40
40.0
176
     1
 90
        8
176
     1
 62
     7
176
     1
 40
1.0
176
     1
 90
        1
176
     1
 90
        6
176
     1
 90
        2
176
     1
 62
     7
176
     1
 90
        3
176
     1
 90
        0
176
     1
 90
        0
176
     1
290
     0
176
     1
 90
        1
176
     1
 40
0.0
176
     1
 90
        0
176
     1
290
     0
176
     1
290
     1
176
     1
290
     1
176
     1
290
     0
176
     1
290
     0
176
     1
290
     0
176
     1
290
     0
176
     1
290
     0
176
     1
290
     0
176
     1
 90
       50
176
     1
 40
0.0
176
     1
 40
1.0
176
     1
 90
        0
176
     1
 62
    18
420
        0
176
     1
 90
       50
176
     1
 90
        3
176
     1
 62
     5
420
      255
176
     1
290
     0
176
     1
 90
       50
176
     1
 90
       50
176
     1
 90
       50
176
     1
290
     0
176
     1
 90
       50
176
     1
 62
   256
176
     0
 40
1.0
176
     0
 90
        2
176
     1
  1
strokes_ogs.tif
176
     1
290
     0
176
     1
 40
1.0
176
     1
 40
1.0
176
     1
  0
VISUALSTYLE
  5
12EB
102
{ACAD_REACTORS
330
12E0
102
}
330
12E0
100
AcDbVisualStyle
  2
Dim
 70
    11
177
     3
291
     1
 70
    58
 90
        2
176
     1
 90
        2
176
     1
 90
        0
176
     1
 90
        0
176
     1
 40
0.6
176
     1
 40
30.0
176
     1
 62
     7
420
 16777215
176
     1
 90
        1
176
     1
 90
        4
176
     1
 62
     7
176
     1
 62
   257
176
     1
 90
        1
176
     1
 90
        1
176
     1
 40
1.0
176
     1
 90
        8
176
     1
 62
     7
176
     1
 40
1.0
176
     1
 90
        1
176
     1
 90
        6
176
     1
 90
        2
176
     1
 62
     7
176
     1
 90
        5
176
     1
 90
        0
176
     1
 90
        0
176
     1
290
     0
176
     1
 90
        1
176
     1
 40
-50.0
176
     1
 90
        0
176
     1
290
     0
176
     1
290
     1
176
     1
290
     1
176
     1
290
     0
176
     1
290
     0
176
     1
290
     0
176
     1
290
     0
176
     1
290
     0
176
     1
290
     0
176
     1
 90
       50
176
     1
 40
0.0
176
     1
 40
1.0
176
     1
 90
        0
176
     1
 62
    18
420
        0
176
     1
 90
       50
176
     1
 90
        3
176
     1
 62
     5
420
      255
176
     1
290
     0
176
     1
 90
       50
176
     1
 90
       50
176
     1
 90
       50
176
     1
290
     0
176
     1
 90
       50
176
     1
 62
   256
176
     0
 40
1.0
176
     0
 90
        2
176
     1
  1
strokes_ogs.tif
176
     1
290
     0
176
     1
 40
1.0
176
     1
 40
1.0
176
     1
  0
VISUALSTYLE
  5
1300
102
{ACAD_REACTORS
330
12E0
102
}
330
12E0
100
AcDbVisualStyle
  2
EdgeColorOff
 70
    22
177
     3
291
     1
 70
    58
 90
        2
176
     0
 90
        2
176
     0
 90
        0
176
     0
 90
        0
176
     0
 40
0.6
176
     0
 40
30.0
176
     0
 62
     7
420
 16777215
176
     0
 90
        1
176
     0
 90
        4
176
     0
 62
     7
176
     0
 62
   257
176
     0
 90
        1
176
     0
 90
        1
176
     0
 40
1.0
176
     0
 90
        8
176
     2
 62
     7
176
     0
 40
1.0
176
     0
 90
        1
176
     0
 90
        6
176
     0
 90
        2
176
     0
 62
     7
176
     0
 90
        5
176
     0
 90
        0
176
     0
 90
        0
176
     0
290
     0
176
     0
 90
        1
176
     0
 40
0.0
176
     0
 90
        0
176
     0
290
     0
176
     0
290
     1
176
     0
290
     1
176
     0
290
     0
176
     0
290
     0
176
     0
290
     0
176
     0
290
     0
176
     0
290
     0
176
     0
290
     0
176
     0
 90
       50
176
     0
 40
0.0
176
     0
 40
1.0
176
     0
 90
        0
176
     0
 62
    18
420
        0
176
     0
 90
       50
176
     0
 90
        3
176
     0
 62
     5
420
      255
176
     0
290
     0
176
     0
 90
       50
176
     0
 90
       50
176
     0
 90
       50
176
     0
290
     0
176
     0
 90
       50
176
     0
 62
   256
176
     0
 40
1.0
176
     0
 90
        2
176
     0
  1
strokes_ogs.tif
176
     0
290
     0
176
     0
 40
1.0
176
     0
 40
1.0
176
     0
  0
VISUALSTYLE
  5
12EF
102
{ACAD_REACTORS
330
12E0
102
}
330
12E0
100
AcDbVisualStyle
  2
Facepattern
 70
    15
177
     3
291
     1
 70
    58
 90
        2
176
     1
 90
        2
176
     1
 90
        0
176
     1
 90
        0
176
     1
 40
0.6
176
     1
 40
30.0
176
     1
 62
     7
420
 16777215
176
     1
 90
        1
176
     1
 90
        4
176
     1
 62
     7
176
     1
 62
   257
176
     1
 90
        1
176
     1
 90
        1
176
     1
 40
1.0
176
     1
 90
        8
176
     1
 62
     7
176
     1
 40
1.0
176
     1
 90
        1
176
     1
 90
        6
176
     1
 90
        2
176
     1
 62
     7
176
     1
 90
        5
176
     1
 90
        0
176
     1
 90
        0
176
     1
290
     0
176
     1
 90
        1
176
     1
 40
0.0
176
     1
 90
        0
176
     1
290
     0
176
     1
290
     1
176
     1
290
     1
176
     1
290
     0
176
     1
290
     0
176
     1
290
     0
176
     1
290
     0
176
     1
290
     0
176
     1
290
     0
176
     1
 90
       50
176
     1
 40
0.0
176
     1
 40
1.0
176
     1
 90
        0
176
     1
 62
    18
420
        0
176
     1
 90
       50
176
     1
 90
        3
176
     1
 62
     5
420
      255
176
     1
290
     0
176
     1
 90
       50
176
     1
 90
       50
176
     1
 90
       50
176
     1
290
     0
176
     1
 90
       50
176
     1
 62
   256
176
     0
 40
1.0
176
     0
 90
        2
176
     1
  1
strokes_ogs.tif
176
     1
290
     0
176
     1
 40
1.0
176
     1
 40
1.0
176
     1
  0
VISUALSTYLE
  5
12E1
102
{ACAD_REACTORS
330
12E0
102
}
330
12E0
100
AcDbVisualStyle
  2
Flat
 70
     0
177
     3
291
     1
 70
    58
 90
        2
176
     1
 90
        1
176
     1
 90
        1
176
     1
 90
        2
176
     1
 40
0.6
176
     1
 40
30.0
176
     1
 62
     7
420
 16777215
176
     1
 90
        0
176
     1
 90
        4
176
     1
 62
     7
176
     1
 62
   257
176
     1
 90
        1
176
     1
 90
        1
176
     1
 40
1.0
176
     1
 90
        8
176
     1
 62
     7
176
     1
 40
1.0
176
     1
 90
        1
176
     1
 90
        6
176
     1
 90
        2
176
     1
 62
     7
176
     1
 90
        5
176
     1
 90
        0
176
     1
 90
        0
176
     1
290
     0
176
     1
 90
       13
176
     1
 40
0.0
176
     1
 90
        0
176
     1
290
     0
176
     1
290
     1
176
     1
290
     1
176
     1
290
     0
176
     1
290
     0
176
     1
290
     0
176
     1
290
     0
176
     1
290
     0
176
     1
290
     0
176
     1
 90
       50
176
     1
 40
0.0
176
     1
 40
1.0
176
     1
 90
        0
176
     1
 62
    18
420
        0
176
     1
 90
       50
176
     1
 90
        3
176
     1
 62
     5
420
      255
176
     1
290
     0
176
     1
 90
       50
176
     1
 90
       50
176
     1
 90
       50
176
     1
290
     0
176
     1
 90
       50
176
     1
 62
   256
176
     0
 40
1.0
176
     0
 90
        2
176
     1
  1
strokes_ogs.tif
176
     1
290
     0
176
     1
 40
1.0
176
     1
 40
1.0
176
     1
  0
VISUALSTYLE
  5
12E2
102
{ACAD_REACTORS
330
12E0
102
}
330
12E0
100
AcDbVisualStyle
  2
FlatWithEdges
 70
     1
177
     3
291
     1
 70
    58
 90
        2
176
     1
 90
        1
176
     1
 90
        1
176
     1
 90
        2
176
     1
 40
0.6
176
     1
 40
30.0
176
     1
 62
     7
420
 16777215
176
     1
 90
        1
176
     1
 90
        4
176
     1
 62
     7
176
     1
 62
   257
176
     1
 90
        1
176
     1
 90
        1
176
     1
 40
1.0
176
     1
 90
        0
176
     1
 62
   257
176
     1
 40
1.0
176
     1
 90
        1
176
     1
 90
        6
176
     1
 90
        2
176
     1
 62
     7
176
     1
 90
        5
176
     1
 90
        0
176
     1
 90
        0
176
     1
290
     0
176
     1
 90
       13
176
     1
 40
0.0
176
     1
 90
        0
176
     1
290
     0
176
     1
290
     1
176
     1
290
     1
176
     1
290
     0
176
     1
290
     0
176
     1
290
     0
176
     1
290
     0
176
     1
290
     0
176
     1
290
     0
176
     1
 90
       50
176
     1
 40
0.0
176
     1
 40
1.0
176
     1
 90
        0
176
     1
 62
    18
420
        0
176
     1
 90
       50
176
     1
 90
        3
176
     1
 62
     5
420
      255
176
     1
290
     0
176
     1
 90
       50
176
     1
 90
       50
176
     1
 90
       50
176
     1
290
     0
176
     1
 90
       50
176
     1
 62
   256
176
     0
 40
1.0
176
     0
 90
        2
176
     1
  1
strokes_ogs.tif
176
     1
290
     0
176
     1
 40
1.0
176
     1
 40
1.0
176
     1
  0
VISUALSTYLE
  5
12E3
102
{ACAD_REACTORS
330
12E0
102
}
330
12E0
100
AcDbVisualStyle
  2
Gouraud
 70
     2
177
     3
291
     1
 70
    58
 90
        2
176
     1
 90
        2
176
     1
 90
        1
176
     1
 90
        2
176
     1
 40
0.6
176
     1
 40
30.0
176
     1
 62
     7
420
 16777215
176
     1
 90
        0
176
     1
 90
        4
176
     1
 62
     7
176
     1
 62
   257
176
     1
 90
        1
176
     1
 90
        1
176
     1
 40
1.0
176
     1
 90
        0
176
     1
 62
     7
176
     1
 40
1.0
176
     1
 90
        1
176
     1
 90
        6
176
     1
 90
        2
176
     1
 62
     7
176
     1
 90
        5
176
     1
 90
        0
176
     1
 90
        0
176
     1
290
     0
176
     1
 90
       13
176
     1
 40
0.0
176
     1
 90
        0
176
     1
290
     0
176
     1
290
     1
176
     1
290
     1
176
     1
290
     0
176
     1
290
     0
176
     1
290
     0
176
     1
290
     0
176
     1
290
     0
176
     1
290
     0
176
     1
 90
       50
176
     1
 40
0.0
176
     1
 40
1.0
176
     1
 90
        0
176
     1
 62
    18
420
        0
176
     1
 90
       50
176
     1
 90
        3
176
     1
 62
     5
420
      255
176
     1
290
     0
176
     1
 90
       50
176
     1
 90
       50
176
     1
 90
       50
176
     1
290
     0
176
     1
 90
       50
176
     1
 62
   256
176
     0
 40
1.0
176
     0
 90
        2
176
     1
  1
strokes_ogs.tif
176
     1
290
     0
176
     1
 40
1.0
176
     1
 40
1.0
176
     1
  0
VISUALSTYLE
  5
12E4
102
{ACAD_REACTORS
330
12E0
102
}
330
12E0
100
AcDbVisualStyle
  2
GouraudWithEdges
 70
     3
177
     3
291
     1
 70
    58
 90
        2
176
     1
 90
        2
176
     1
 90
        1
176
     1
 90
        2
176
     1
 40
0.6
176
     1
 40
30.0
176
     1
 62
     7
420
 16777215
176
     1
 90
        1
176
     1
 90
        4
176
     1
 62
     7
176
     1
 62
   257
176
     1
 90
        1
176
     1
 90
        1
176
     1
 40
1.0
176
     1
 90
        0
176
     1
 62
   257
176
     1
 40
1.0
176
     1
 90
        1
176
     1
 90
        6
176
     1
 90
        2
176
     1
 62
     7
176
     1
 90
        5
176
     1
 90
        0
176
     1
 90
        0
176
     1
290
     0
176
     1
 90
       13
176
     1
 40
0.0
176
     1
 90
        0
176
     1
290
     0
176
     1
290
     1
176
     1
290
     1
176
     1
290
     0
176
     1
290
     0
176
     1
290
     0
176
     1
290
     0
176
     1
290
     0
176
     1
290
     0
176
     1
 90
       50
176
     1
 40
0.0
176
     1
 40
1.0
176
     1
 90
        0
176
     1
 62
    18
420
        0
176
     1
 90
       50
176
     1
 90
        3
176
     1
 62
     5
420
      255
176
     1
290
     0
176
     1
 90
       50
176
     1
 90
       50
176
     1
 90
       50
176
     1
290
     0
176
     1
 90
       50
176
     1
 62
   256
176
     0
 40
1.0
176
     0
 90
        2
176
     1
  1
strokes_ogs.tif
176
     1
290
     0
176
     1
 40
1.0
176
     1
 40
1.0
176
     1
  0
VISUALSTYLE
  5
12F8
102
{ACAD_REACTORS
330
12E0
102
}
330
12E0
100
AcDbVisualStyle
  2
Hidden
 70
     6
177
     3
291
     0
 70
    58
 90
        1
176
     1
 90
        2
176
     1
 90
        2
176
     1
 90
        0
176
     1
 40
0.6
176
     1
 40
30.0
176
     1
 62
     7
420
 16777215
176
     1
 90
        2
176
     1
 90
        2
176
     1
 62
     7
176
     1
 62
   257
176
     1
 90
        2
176
     1
 90
        1
176
     1
 40
40.0
176
     1
 90
        0
176
     1
 62
   257
176
     1
 40
1.0
176
     1
 90
        1
176
     1
 90
        6
176
     1
 90
        2
176
     1
 62
     7
176
     1
 90
        3
176
     1
 90
        0
176
     1
 90
        0
176
     1
290
     0
176
     1
 90
        1
176
     1
 40
0.0
176
     1
 90
        0
176
     1
290
     0
176
     1
290
     1
176
     1
290
     1
176
     1
290
     0
176
     1
290
     0
176
     1
290
     0
176
     1
290
     0
176
     1
290
     0
176
     1
290
     0
176
     1
 90
       50
176
     1
 40
0.0
176
     1
 40
1.0
176
     1
 90
        0
176
     1
 62
    18
420
        0
176
     1
 90
       50
176
     1
 90
        3
176
     1
 62
     5
420
      255
176
     1
290
     0
176
     1
 90
       50
176
     1
 90
       50
176
     1
 90
       50
176
     1
290
     0
176
     1
 90
       50
176
     1
 62
   256
176
     0
 40
1.0
176
     0
 90
        2
176
     1
  1
strokes_ogs.tif
176
     1
290
     0
176
     1
 40
1.0
176
     1
 40
1.0
176
     1
  0
VISUALSTYLE
  5
12FE
102
{ACAD_REACTORS
330
12E0
102
}
330
12E0
100
AcDbVisualStyle
  2
JitterOff
 70
    20
177
     3
291
     1
 70
    58
 90
        2
176
     0
 90
        2
176
     0
 90
        0
176
     0
 90
        0
176
     0
 40
0.6
176
     0
 40
30.0
176
     0
 62
     7
420
 16777215
176
     0
 90
        1
176
     0
 90
        4
176
     0
 62
     7
176
     0
 62
   257
176
     0
 90
        1
176
     0
 90
        1
176
     0
 40
1.0
176
     0
 90
       10
176
     2
 62
     7
176
     0
 40
1.0
176
     0
 90
        1
176
     0
 90
        6
176
     0
 90
        2
176
     0
 62
     7
176
     0
 90
        5
176
     0
 90
        0
176
     0
 90
        0
176
     0
290
     0
176
     0
 90
        1
176
     0
 40
0.0
176
     0
 90
        0
176
     0
290
     0
176
     0
290
     1
176
     0
290
     1
176
     0
290
     0
176
     0
290
     0
176
     0
290
     0
176
     0
290
     0
176
     0
290
     0
176
     0
290
     0
176
     0
 90
       50
176
     0
 40
0.0
176
     0
 40
1.0
176
     0
 90
        0
176
     0
 62
    18
420
        0
176
     0
 90
       50
176
     0
 90
        3
176
     0
 62
     5
420
      255
176
     0
290
     0
176
     0
 90
       50
176
     0
 90
       50
176
     0
 90
       50
176
     0
290
     0
176
     0
 90
       50
176
     0
 62
   256
176
     0
 40
1.0
176
     0
 90
        2
176
     0
  1
strokes_ogs.tif
176
     0
290
     0
176
     0
 40
1.0
176
     0
 40
1.0
176
     0
  0
VISUALSTYLE
  5
12EE
102
{ACAD_REACTORS
330
12E0
102
}
330
12E0
100
AcDbVisualStyle
  2
Linepattern
 70
    14
177
     3
291
     1
 70
    58
 90
        2
176
     1
 90
        2
176
     1
 90
        0
176
     1
 90
        0
176
     1
 40
0.6
176
     1
 40
30.0
176
     1
 62
     7
420
 16777215
176
     1
 90
        1
176
     1
 90
        4
176
     1
 62
     7
176
     1
 62
   257
176
     1
 90
        7
176
     1
 90
        7
176
     1
 40
1.0
176
     1
 90
        8
176
     1
 62
     7
176
     1
 40
1.0
176
     1
 90
        1
176
     1
 90
        6
176
     1
 90
        2
176
     1
 62
     7
176
     1
 90
        5
176
     1
 90
        0
176
     1
 90
        0
176
     1
290
     0
176
     1
 90
        1
176
     1
 40
0.0
176
     1
 90
        0
176
     1
290
     0
176
     1
290
     1
176
     1
290
     1
176
     1
290
     0
176
     1
290
     0
176
     1
290
     0
176
     1
290
     0
176
     1
290
     0
176
     1
290
     0
176
     1
 90
       50
176
     1
 40
0.0
176
     1
 40
1.0
176
     1
 90
        0
176
     1
 62
    18
420
        0
176
     1
 90
       50
176
     1
 90
        3
176
     1
 62
     5
420
      255
176
     1
290
     0
176
     1
 90
       50
176
     1
 90
       50
176
     1
 90
       50
176
     1
290
     0
176
     1
 90
       50
176
     1
 62
   256
176
     0
 40
1.0
176
     0
 90
        2
176
     1
  1
strokes_ogs.tif
176
     1
290
     0
176
     1
 40
1.0
176
     1
 40
1.0
176
     1
  0
VISUALSTYLE
  5
12FF
102
{ACAD_REACTORS
330
12E0
102
}
330
12E0
100
AcDbVisualStyle
  2
OverhangOff
 70
    21
177
     3
291
     1
 70
    58
 90
        2
176
     0
 90
        2
176
     0
 90
        0
176
     0
 90
        0
176
     0
 40
0.6
176
     0
 40
30.0
176
     0
 62
     7
420
 16777215
176
     0
 90
        1
176
     0
 90
        4
176
     0
 62
     7
176
     0
 62
   257
176
     0
 90
        1
176
     0
 90
        1
176
     0
 40
1.0
176
     0
 90
        9
176
     2
 62
     7
176
     0
 40
1.0
176
     0
 90
        1
176
     0
 90
        6
176
     0
 90
        2
176
     0
 62
     7
176
     0
 90
        5
176
     0
 90
        0
176
     0
 90
        0
176
     0
290
     0
176
     0
 90
        1
176
     0
 40
0.0
176
     0
 90
        0
176
     0
290
     0
176
     0
290
     1
176
     0
290
     1
176
     0
290
     0
176
     0
290
     0
176
     0
290
     0
176
     0
290
     0
176
     0
290
     0
176
     0
290
     0
176
     0
 90
       50
176
     0
 40
0.0
176
     0
 40
1.0
176
     0
 90
        0
176
     0
 62
    18
420
        0
176
     0
 90
       50
176
     0
 90
        3
176
     0
 62
     5
420
      255
176
     0
290
     0
176
     0
 90
       50
176
     0
 90
       50
176
     0
 90
       50
176
     0
290
     0
176
     0
 90
       50
176
     0
 62
   256
176
     0
 40
1.0
176
     0
 90
        2
176
     0
  1
strokes_ogs.tif
176
     0
290
     0
176
     0
 40
1.0
176
     0
 40
1.0
176
     0
  0
VISUALSTYLE
  5
12EA
102
{ACAD_REACTORS
330
12E0
102
}
330
12E0
100
AcDbVisualStyle
  2
Realistic
 70
     8
177
     3
291
     0
 70
    58
 90
        2
176
     1
 90
        2
176
     1
 90
        0
176
     1
 90
        0
176
     1
 40
0.6
176
     1
 40
30.0
176
     1
 62
     7
420
 16777215
176
     1
 90
        1
176
     1
 90
        0
176
     1
 62
     7
176
     1
 62
   257
176
     1
 90
        1
176
     1
 90
        1
176
     1
 40
1.0
176
     1
 90
        8
176
     1
 62
     8
420
  7895160
176
     1
 40
1.0
176
     1
 90
        1
176
     1
 90
        6
176
     1
 90
        2
176
     1
 62
     7
176
     1
 90
        5
176
     1
 90
        0
176
     1
 90
        0
176
     1
290
     0
176
     1
 90
       13
176
     1
 40
0.0
176
     1
 90
        0
176
     1
290
     0
176
     1
290
     1
176
     1
290
     1
176
     1
290
     0
176
     1
290
     0
176
     1
290
     0
176
     1
290
     0
176
     1
290
     0
176
     1
290
     0
176
     1
 90
       50
176
     1
 40
0.0
176
     1
 40
1.0
176
     1
 90
        0
176
     1
 62
    18
420
        0
176
     1
 90
       50
176
     1
 90
        3
176
     1
 62
     5
420
      255
176
     1
290
     0
176
     1
 90
       50
176
     1
 90
       50
176
     1
 90
       50
176
     1
290
     0
176
     1
 90
       50
176
     1
 62
   256
176
     0
 40
1.0
176
     0
 90
        2
176
     1
  1
strokes_ogs.tif
176
     1
290
     0
176
     1
 40
1.0
176
     1
 40
1.0
176
     1
  0
VISUALSTYLE
  5
12FD
102
{ACAD_REACTORS
330
12E0
102
}
330
12E0
100
AcDbVisualStyle
  2
Shaded
 70
    27
177
     3
291
     0
 70
    58
 90
        2
176
     1
 90
        2
176
     1
 90
        1
176
     1
 90
        2
176
     1
 40
0.6
176
     1
 40
30.0
176
     1
 62
     7
420
 16777215
176
     1
 90
        0
176
     1
 90
        4
176
     1
 62
     7
176
     1
 62
   257
176
     1
 90
        1
176
     1
 90
        1
176
     1
 40
1.0
176
     1
 90
        8
176
     1
 62
   257
176
     1
 40
1.0
176
     1
 90
        1
176
     1
 90
        6
176
     1
 90
        2
176
     1
 62
     8
420
  7895160
176
     1
 90
        3
176
     1
 90
        0
176
     1
 90
        0
176
     1
290
     0
176
     1
 90
        5
176
     1
 40
0.0
176
     1
 90
        0
176
     1
290
     0
176
     1
290
     1
176
     1
290
     1
176
     1
290
     0
176
     1
290
     0
176
     1
290
     0
176
     1
290
     0
176
     1
290
     0
176
     1
290
     0
176
     1
 90
       50
176
     1
 40
0.0
176
     1
 40
1.0
176
     1
 90
        0
176
     1
 62
    18
420
        0
176
     1
 90
       50
176
     1
 90
        3
176
     1
 62
     5
420
      255
176
     1
290
     0
176
     1
 90
       50
176
     1
 90
       50
176
     1
 90
       50
176
     1
290
     0
176
     1
 90
       50
176
     1
 62
   256
176
     0
 40
1.0
176
     0
 90
        2
176
     1
  1
strokes_ogs.tif
176
     1
290
     0
176
     1
 40
1.0
176
     1
 40
1.0
176
     1
  0
VISUALSTYLE
  5
12FC
102
{ACAD_REACTORS
330
12E0
102
}
330
12E0
100
AcDbVisualStyle
  2
Shaded with edges
 70
    26
177
     3
291
     0
 70
    58
 90
        2
176
     1
 90
        2
176
     1
 90
        1
176
     1
 90
        2
176
     1
 40
0.6
176
     1
 40
30.0
176
     1
 62
     7
420
 16777215
176
     1
 90
        1
176
     1
 90
        2
176
     1
 62
     7
176
     1
 62
   257
176
     1
 90
        2
176
     1
 90
        1
176
     1
 40
1.0
176
     1
 90
        8
176
     1
 62
   257
176
     1
 40
1.0
176
     1
 90
        1
176
     1
 90
        6
176
     1
 90
        2
176
     1
 62
     7
176
     1
 90
        3
176
     1
 90
        0
176
     1
 90
        0
176
     1
290
     0
176
     1
 90
        5
176
     1
 40
0.0
176
     1
 90
        0
176
     1
290
     0
176
     1
290
     1
176
     1
290
     1
176
     1
290
     0
176
     1
290
     0
176
     1
290
     0
176
     1
290
     0
176
     1
290
     0
176
     1
290
     0
176
     1
 90
       50
176
     1
 40
0.0
176
     1
 40
1.0
176
     1
 90
        0
176
     1
 62
    18
420
        0
176
     1
 90
       50
176
     1
 90
        3
176
     1
 62
     5
420
      255
176
     1
290
     0
176
     1
 90
       50
176
     1
 90
       50
176
     1
 90
       50
176
     1
290
     0
176
     1
 90
       50
176
     1
 62
   256
176
     0
 40
1.0
176
     0
 90
        2
176
     1
  1
strokes_ogs.tif
176
     1
290
     0
176
     1
 40
1.0
176
     1
 40
1.0
176
     1
  0
VISUALSTYLE
  5
12F9
102
{ACAD_REACTORS
330
12E0
102
}
330
12E0
100
AcDbVisualStyle
  2
Shades of Gray
 70
    23
177
     3
291
     0
 70
    58
 90
        2
176
     1
 90
        2
176
     1
 90
        3
176
     1
 90
        0
176
     1
 40
0.6
176
     1
 40
30.0
176
     1
 62
     7
420
 16777215
176
     1
 90
        2
176
     1
 90
        2
176
     1
 62
     7
176
     1
 62
     7
176
     1
 90
        1
176
     1
 90
        1
176
     1
 40
40.0
176
     1
 90
        8
176
     1
 62
     7
176
     1
 40
1.0
176
     1
 90
        1
176
     1
 90
        6
176
     1
 90
        2
176
     1
 62
     7
176
     1
 90
        3
176
     1
 90
        0
176
     1
 90
        0
176
     1
290
     0
176
     1
 90
        1
176
     1
 40
0.0
176
     1
 90
        0
176
     1
290
     0
176
     1
290
     1
176
     1
290
     1
176
     1
290
     0
176
     1
290
     0
176
     1
290
     0
176
     1
290
     0
176
     1
290
     0
176
     1
290
     0
176
     1
 90
       50
176
     1
 40
0.0
176
     1
 40
1.0
176
     1
 90
        0
176
     1
 62
    18
420
        0
176
     1
 90
       50
176
     1
 90
        3
176
     1
 62
     5
420
      255
176
     1
290
     0
176
     1
 90
       50
176
     1
 90
       50
176
     1
 90
       50
176
     1
290
     0
176
     1
 90
       50
176
     1
 62
   256
176
     0
 40
1.0
176
     0
 90
        2
176
     1
  1
strokes_ogs.tif
176
     1
290
     0
176
     1
 40
1.0
176
     1
 40
1.0
176
     1
  0
VISUALSTYLE
  5
12FA
102
{ACAD_REACTORS
330
12E0
102
}
330
12E0
100
AcDbVisualStyle
  2
Sketchy
 70
    24
177
     3
291
     0
 70
    58
 90
        1
176
     1
 90
        2
176
     1
 90
        2
176
     1
 90
        0
176
     1
 40
0.6
176
     1
 40
30.0
176
     1
 62
     7
420
 16777215
176
     1
 90
        2
176
     1
 90
        2
176
     1
 62
     7
176
     1
 62
     7
176
     1
 90
        1
176
     1
 90
        1
176
     1
 40
40.0
176
     1
 90
       11
176
     1
 62
     7
176
     1
 40
1.0
176
     1
 90
        1
176
     1
 90
        6
176
     1
 90
        2
176
     1
 62
     7
176
     1
 90
        6
176
     1
 90
        0
176
     1
 90
        0
176
     1
290
     0
176
     1
 90
        1
176
     1
 40
0.0
176
     1
 90
        0
176
     1
290
     0
176
     1
290
     1
176
     1
290
     1
176
     1
290
     0
176
     1
290
     0
176
     1
290
     0
176
     1
290
     0
176
     1
290
     0
176
     1
290
     0
176
     1
 90
       50
176
     1
 40
0.0
176
     1
 40
1.0
176
     1
 90
        0
176
     1
 62
    18
420
        0
176
     1
 90
       50
176
     1
 90
        3
176
     1
 62
     5
420
      255
176
     1
290
     0
176
     1
 90
       50
176
     1
 90
       50
176
     1
 90
       50
176
     1
290
     0
176
     1
 90
       50
176
     1
 62
   256
176
     0
 40
1.0
176
     0
 90
        2
176
     1
  1
strokes_ogs.tif
176
     1
290
     0
176
     1
 40
1.0
176
     1
 40
1.0
176
     1
  0
VISUALSTYLE
  5
12ED
102
{ACAD_REACTORS
330
12E0
102
}
330
12E0
100
AcDbVisualStyle
  2
Thicken
 70
    13
177
     3
291
     1
 70
    58
 90
        2
176
     1
 90
        2
176
     1
 90
        0
176
     1
 90
        0
176
     1
 40
0.6
176
     1
 40
30.0
176
     1
 62
     7
420
 16777215
176
     1
 90
        1
176
     1
 90
        4
176
     1
 62
     7
176
     1
 62
   257
176
     1
 90
        1
176
     1
 90
        1
176
     1
 40
1.0
176
     1
 90
       12
176
     1
 62
     7
176
     1
 40
1.0
176
     1
 90
        1
176
     1
 90
        6
176
     1
 90
        2
176
     1
 62
     7
176
     1
 90
        5
176
     1
 90
        0
176
     1
 90
        0
176
     1
290
     0
176
     1
 90
        1
176
     1
 40
0.0
176
     1
 90
        0
176
     1
290
     0
176
     1
290
     1
176
     1
290
     1
176
     1
290
     0
176
     1
290
     0
176
     1
290
     0
176
     1
290
     0
176
     1
290
     0
176
     1
290
     0
176
     1
 90
       50
176
     1
 40
0.0
176
     1
 40
1.0
176
     1
 90
        0
176
     1
 62
    18
420
        0
176
     1
 90
       50
176
     1
 90
        3
176
     1
 62
     5
420
      255
176
     1
290
     0
176
     1
 90
       50
176
     1
 90
       50
176
     1
 90
       50
176
     1
290
     0
176
     1
 90
       50
176
     1
 62
   256
176
     0
 40
1.0
176
     0
 90
        2
176
     1
  1
strokes_ogs.tif
176
     1
290
     0
176
     1
 40
1.0
176
     1
 40
1.0
176
     1
  0
VISUALSTYLE
  5
12F7
102
{ACAD_REACTORS
330
12E0
102
}
330
12E0
100
AcDbVisualStyle
  2
Wireframe
 70
     5
177
     3
291
     0
 70
    58
 90
        0
176
     1
 90
        2
176
     1
 90
        0
176
     1
 90
        0
176
     1
 40
0.6
176
     1
 40
30.0
176
     1
 62
     7
420
 16777215
176
     1
 90
        1
176
     1
 90
        4
176
     1
 62
     7
176
     1
 62
   257
176
     1
 90
        1
176
     1
 90
        1
176
     1
 40
1.0
176
     1
 90
        0
176
     1
 62
   257
176
     1
 40
1.0
176
     1
 90
        1
176
     1
 90
        6
176
     1
 90
        2
176
     1
 62
     7
176
     1
 90
        3
176
     1
 90
        0
176
     1
 90
        0
176
     1
290
     0
176
     1
 90
        1
176
     1
 40
0.0
176
     1
 90
        0
176
     1
290
     0
176
     1
290
     1
176
     1
290
     1
176
     1
290
     0
176
     1
290
     0
176
     1
290
     0
176
     1
290
     0
176
     1
290
     0
176
     1
290
     0
176
     1
 90
       50
176
     1
 40
0.0
176
     1
 40
1.0
176
     1
 90
        0
176
     1
 62
    18
420
        0
176
     1
 90
       50
176
     1
 90
        3
176
     1
 62
     5
420
      255
176
     1
290
     0
176
     1
 90
       50
176
     1
 90
       50
176
     1
 90
       50
176
     1
290
     0
176
     1
 90
       50
176
     1
 62
   256
176
     0
 40
1.0
176
     0
 90
        2
176
     1
  1
strokes_ogs.tif
176
     1
290
     0
176
     1
 40
1.0
176
     1
 40
1.0
176
     1
  0
VISUALSTYLE
  5
12FB
102
{ACAD_REACTORS
330
12E0
102
}
330
12E0
100
AcDbVisualStyle
  2
X-Ray
 70
    25
177
     3
291
     0
 70
    58
 90
        2
176
     1
 90
        2
176
     1
 90
        1
176
     1
 90
        1
176
     1
 40
0.5
176
     1
 40
30.0
176
     1
 62
     7
420
 16777215
176
     1
 90
        1
176
     1
 90
        0
176
     1
 62
     7
176
     1
 62
   257
176
     1
 90
        1
176
     1
 90
        1
176
     1
 40
1.0
176
     1
 90
        8
176
     1
 62
     7
176
     1
 40
1.0
176
     1
 90
        1
176
     1
 90
        6
176
     1
 90
        2
176
     1
 62
     7
176
     1
 90
        3
176
     1
 90
        0
176
     1
 90
        0
176
     1
290
     0
176
     1
 90
       13
176
     1
 40
0.0
176
     1
 90
        0
176
     1
290
     0
176
     1
290
     1
176
     1
290
     1
176
     1
290
     0
176
     1
290
     0
176
     1
290
     0
176
     1
290
     0
176
     1
290
     0
176
     1
290
     0
176
     1
 90
       50
176
     1
 40
0.0
176
     1
 40
1.0
176
     1
 90
        0
176
     1
 62
    18
420
        0
176
     1
 90
       50
176
     1
 90
        3
176
     1
 62
     5
420
      255
176
     1
290
     0
176
     1
 90
       50
176
     1
 90
       50
176
     1
 90
       50
176
     1
290
     0
176
     1
 90
       50
176
     1
 62
   256
176
     0
 40
1.0
176
     0
 90
        2
176
     1
  1
strokes_ogs.tif
176
     1
290
     0
176
     1
 40
1.0
176
     1
 40
1.0
176
     1
  0
DICTIONARYVAR
  5
1334
102
{ACAD_REACTORS
330
5E
102
}
330
5E
100
DictionaryVariables
280
     0
  1
1:1
  0
DICTIONARYVAR
  5
1330
102
{ACAD_REACTORS
330
5E
102
}
330
5E
100
DictionaryVariables
280
     0
  1
STANDARD
  0
DICTIONARYVAR
  5
84
102
{ACAD_REACTORS
330
5E
102
}
330
5E
100
DictionaryVariables
280
     0
  1
STANDARD
  0
DICTIONARYVAR
  5
1331
102
{ACAD_REACTORS
330
5E
102
}
330
5E
100
DictionaryVariables
280
     0
  1
Metric50
  0
DICTIONARYVAR
  5
1332
102
{ACAD_REACTORS
330
5E
102
}
330
5E
100
DictionaryVariables
280
     0
  1
Metric50
  0
DICTIONARYVAR
  5
5F
102
{ACAD_REACTORS
330
5E
102
}
330
5E
100
DictionaryVariables
280
     0
  1
2
  0
DICTIONARYVAR
  5
63
102
{ACAD_REACTORS
330
5E
102
}
330
5E
100
DictionaryVariables
280
     0
  1
1
  0
DICTIONARYVAR
  5
1336
102
{ACAD_REACTORS
330
5E
102
}
330
5E
100
DictionaryVariables
280
     0
  1
1
  0
DICTIONARYVAR
  5
1337
102
{ACAD_REACTORS
330
5E
102
}
330
5E
100
DictionaryVariables
280
     0
  1
15
  0
DICTIONARYVAR
  5
1335
102
{ACAD_REACTORS
330
5E
102
}
330
5E
100
DictionaryVariables
280
     0
  1
0
  0
DICTIONARYVAR
  5
1333
102
{ACAD_REACTORS
330
5E
102
}
330
5E
100
DictionaryVariables
280
     0
  1
0
  0
DICTIONARY
  5
133C
330
1318
100
AcDbDictionary
280
     1
281
     1
  3
ACAD_XREC_ROUNDTRIP
360
133D
  0
DICTIONARY
  5
133A
330
1316
100
AcDbDictionary
280
     1
281
     1
  3
ACAD_XREC_ROUNDTRIP
360
133B
  0
DICTIONARY
  5
1338
330
7F
100
AcDbDictionary
280
     1
281
     1
  3
ACAD_ROUNDTRIP_2008_TABLESTYLE_CELLSTYLEMAP
360
1339
  0
XRECORD
  5
133D
102
{ACAD_REACTORS
330
133C
102
}
330
133C
100
AcDbXrecord
280
     1
102
DISPLAYNAME
  1
Metric50
102
FLAGS
 90
        0
  0
XRECORD
  5
133B
102
{ACAD_REACTORS
330
133A
102
}
330
133A
100
AcDbXrecord
280
     1
102
DISPLAYNAME
  1
Metric50
102
FLAGS
 90
        0
  0
CELLSTYLEMAP
  5
1339
102
{ACAD_REACTORS
330
1338
102
}
330
1338
100
AcDbCellStyleMap
 90
        3
300
CELLSTYLE
  1
TABLEFORMAT_BEGIN
 90
        5
170
     1
 91
        0
 92
    32768
 62
   257
 93
        1
300
CONTENTFORMAT
  1
CONTENTFORMAT_BEGIN
 90
        0
 91
        0
 92
        4
 93
        0
300

 40
0.0
140
1.0
 94
        5
 62
     0
340
11
144
6.0
309
CONTENTFORMAT_END
171
     1
301
MARGIN
  1
CELLMARGIN_BEGIN
 40
1.5
 40
1.5
 40
1.5
 40
1.5
 40
0.18
 40
0.18
309
CELLMARGIN_END
 94
        6
 95
        1
302
GRIDFORMAT
  1
GRIDFORMAT_BEGIN
 90
        0
 91
        1
 62
     0
 92
       -2
340
0
 93
        0
 40
0.045
309
GRIDFORMAT_END
 95
        2
302
GRIDFORMAT
  1
GRIDFORMAT_BEGIN
 90
        0
 91
        1
 62
     0
 92
       -2
340
0
 93
        0
 40
0.045
309
GRIDFORMAT_END
 95
        4
302
GRIDFORMAT
  1
GRIDFORMAT_BEGIN
 90
        0
 91
        1
 62
     0
 92
       -2
340
0
 93
        0
 40
0.045
309
GRIDFORMAT_END
 95
        8
302
GRIDFORMAT
  1
GRIDFORMAT_BEGIN
 90
        0
 91
        1
 62
     0
 92
       -2
340
0
 93
        0
 40
0.045
309
GRIDFORMAT_END
 95
       16
302
GRIDFORMAT
  1
GRIDFORMAT_BEGIN
 90
        0
 91
        1
 62
     0
 92
       -2
340
0
 93
        0
 40
0.045
309
GRIDFORMAT_END
 95
       32
302
GRIDFORMAT
  1
GRIDFORMAT_BEGIN
 90
        0
 91
        1
 62
     0
 92
       -2
340
0
 93
        0
 40
0.045
309
GRIDFORMAT_END
309
TABLEFORMAT_END
  1
CELLSTYLE_BEGIN
 90
        1
 91
        1
300
_TITLE
309
CELLSTYLE_END
300
CELLSTYLE
  1
TABLEFORMAT_BEGIN
 90
        5
170
     1
 91
        0
 92
        0
 62
   257
 93
        1
300
CONTENTFORMAT
  1
CONTENTFORMAT_BEGIN
 90
        0
 91
        0
 92
        4
 93
        0
300

 40
0.0
140
1.0
 94
        5
 62
     0
340
11
144
4.5
309
CONTENTFORMAT_END
171
     1
301
MARGIN
  1
CELLMARGIN_BEGIN
 40
1.5
 40
1.5
 40
1.5
 40
1.5
 40
0.18
 40
0.18
309
CELLMARGIN_END
 94
        6
 95
        1
302
GRIDFORMAT
  1
GRIDFORMAT_BEGIN
 90
        0
 91
        1
 62
     0
 92
       -2
340
0
 93
        0
 40
0.045
309
GRIDFORMAT_END
 95
        2
302
GRIDFORMAT
  1
GRIDFORMAT_BEGIN
 90
        0
 91
        1
 62
     0
 92
       -2
340
0
 93
        0
 40
0.045
309
GRIDFORMAT_END
 95
        4
302
GRIDFORMAT
  1
GRIDFORMAT_BEGIN
 90
        0
 91
        1
 62
     0
 92
       -2
340
0
 93
        0
 40
0.045
309
GRIDFORMAT_END
 95
        8
302
GRIDFORMAT
  1
GRIDFORMAT_BEGIN
 90
        0
 91
        1
 62
     0
 92
       -2
340
0
 93
        0
 40
0.045
309
GRIDFORMAT_END
 95
       16
302
GRIDFORMAT
  1
GRIDFORMAT_BEGIN
 90
        0
 91
        1
 62
     0
 92
       -2
340
0
 93
        0
 40
0.045
309
GRIDFORMAT_END
 95
       32
302
GRIDFORMAT
  1
GRIDFORMAT_BEGIN
 90
        0
 91
        1
 62
     0
 92
       -2
340
0
 93
        0
 40
0.045
309
GRIDFORMAT_END
309
TABLEFORMAT_END
  1
CELLSTYLE_BEGIN
 90
        2
 91
        1
300
_HEADER
309
CELLSTYLE_END
300
CELLSTYLE
  1
TABLEFORMAT_BEGIN
 90
        5
170
     1
 91
        0
 92
        0
 62
   257
 93
        1
300
CONTENTFORMAT
  1
CONTENTFORMAT_BEGIN
 90
        0
 91
        0
 92
        4
 93
        0
300

 40
0.0
140
1.0
 94
        2
 62
     0
340
11
144
4.5
309
CONTENTFORMAT_END
171
     1
301
MARGIN
  1
CELLMARGIN_BEGIN
 40
1.5
 40
1.5
 40
1.5
 40
1.5
 40
0.18
 40
0.18
309
CELLMARGIN_END
 94
        6
 95
        1
302
GRIDFORMAT
  1
GRIDFORMAT_BEGIN
 90
        0
 91
        1
 62
     0
 92
       -2
340
0
 93
        0
 40
0.045
309
GRIDFORMAT_END
 95
        2
302
GRIDFORMAT
  1
GRIDFORMAT_BEGIN
 90
        0
 91
        1
 62
     0
 92
       -2
340
0
 93
        0
 40
0.045
309
GRIDFORMAT_END
 95
        4
302
GRIDFORMAT
  1
GRIDFORMAT_BEGIN
 90
        0
 91
        1
 62
     0
 92
       -2
340
0
 93
        0
 40
0.045
309
GRIDFORMAT_END
 95
        8
302
GRIDFORMAT
  1
GRIDFORMAT_BEGIN
 90
        0
 91
        1
 62
     0
 92
       -2
340
0
 93
        0
 40
0.045
309
GRIDFORMAT_END
 95
       16
302
GRIDFORMAT
  1
GRIDFORMAT_BEGIN
 90
        0
 91
        1
 62
     0
 92
       -2
340
0
 93
        0
 40
0.045
309
GRIDFORMAT_END
 95
       32
302
GRIDFORMAT
  1
GRIDFORMAT_BEGIN
 90
        0
 91
        1
 62
     0
 92
       -2
340
0
 93
        0
 40
0.045
309
GRIDFORMAT_END
309
TABLEFORMAT_END
  1
CELLSTYLE_BEGIN
 90
        3
 91
        2
300
_DATA
309
CELLSTYLE_END
  0
ENDSEC
  0
EOF
