  0
SECTION
  2
HEADER
  9
$ACADVER
  1
AC1027
  9
$ACADMAINTVER
 70
   125
  9
$DWGCODEPAGE
  3
ANSI_1252
  9
$AUTHOR
  1
muni
  9
$LASTSAVEDBY
  1
fleminab
  9
$CUSTOMPROPERTYTAG
  1
Manager
  9
$CUSTOMPROPERTY
  1

  9
$CUSTOMPROPERTYTAG
  1
Company
  9
$CUSTOMPROPERTY
  1

  9
$CUSTOMPROPERTYTAG
  1
Category
  9
$CUSTOMPROPERTY
  1

  9
$CUSTOMPROPERTYTAG
  1
Part Number
  9
$CUSTOMPROPERTY
  1
YQDSMCPDXF
  9
$CUSTOMPROPERTYTAG
  1
Description
  9
$CUSTOMPROPERTY
  1

  9
$CUSTOMPROPERTYTAG
  1
Project
  9
$CUSTOMPROPERTY
  1

  9
$CUSTOMPROPERTYTAG
  1
Designer
  9
$CUSTOMPROPERTY
  1
muni
  9
$CUSTOMPROPERTYTAG
  1
Engineer
  9
$CUSTOMPROPERTY
  1

  9
$CUSTOMPROPERTYTAG
  1
Authority
  9
$CUSTOMPROPERTY
  1

  9
$CUSTOMPROPERTYTAG
  1
Cost Center
  9
$CUSTOMPROPERTY
  1

  9
$CUSTOMPROPERTYTAG
  1
Vendor
  9
$CUSTOMPROPERTY
  1

  9
$CUSTOMPROPERTYTAG
  1
User Status
  9
$CUSTOMPROPERTY
  1

  9
$CUSTOMPROPERTYTAG
  1
Design Status
  9
$CUSTOMPROPERTY
  1
WorkInProgress
  9
$CUSTOMPROPERTYTAG
  1
Checked by
  9
$CUSTOMPROPERTY
  1

  9
$CUSTOMPROPERTYTAG
  1
Engr Approved by
  9
$CUSTOMPROPERTY
  1

  9
$CUSTOMPROPERTYTAG
  1
Mfg Approved by
  9
$CUSTOMPROPERTY
  1

  9
$CUSTOMPROPERTYTAG
  1
Client
  9
$CUSTOMPROPERTY
  1

  9
$REQUIREDVERSIONS
160
                 0
  9
$INSBASE
 10
0.0
 20
0.0
 30
0.0
  9
$EXTMIN
 10
145.0920425675483
 20
63.75366316148279
 30
-0.0015258207003583
  9
$EXTMAX
 10
458.6061413621134
 20
387.8091440068199
 30
0.0000000349246037
  9
$LIMMIN
 10
0.0
 20
0.0
  9
$LIMMAX
 10
594.0
 20
420.0
  9
$ORTHOMODE
 70
     0
  9
$REGENMODE
 70
     1
  9
$FILLMODE
 70
     1
  9
$QTEXTMODE
 70
     0
  9
$MIRRTEXT
 70
     0
  9
$LTSCALE
 40
2.0
  9
$ATTMODE
 70
     1
  9
$TEXTSIZE
 40
0.2
  9
$TRACEWID
 40
0.05
  9
$TEXTSTYLE
  7
Standard
  9
$CLAYER
  8
0
  9
$CELTYPE
  6
ByLayer
  9
$CECOLOR
 62
   256
  9
$CELTSCALE
 40
1.0
  9
$DISPSILH
 70
     0
  9
$DIMSCALE
 40
1.0
  9
$DIMASZ
 40
1.799999999999999
  9
$DIMEXO
 40
0.0625
  9
$DIMDLI
 40
0.38
  9
$DIMRND
 40
0.0
  9
$DIMDLE
 40
0.0
  9
$DIMEXE
 40
0.18
  9
$DIMTP
 40
0.0
  9
$DIMTM
 40
0.0
  9
$DIMTXT
 40
0.25
  9
$DIMCEN
 40
0.09
  9
$DIMTSZ
 40
0.0
  9
$DIMTOL
 70
     0
  9
$DIMLIM
 70
     0
  9
$DIMTIH
 70
     1
  9
$DIMTOH
 70
     1
  9
$DIMSE1
 70
     0
  9
$DIMSE2
 70
     0
  9
$DIMTAD
 70
     0
  9
$DIMZIN
 70
     0
  9
$DIMBLK
  1

  9
$DIMASO
 70
     1
  9
$DIMSHO
 70
     1
  9
$DIMPOST
  1

  9
$DIMAPOST
  1

  9
$DIMALT
 70
     0
  9
$DIMALTD
 70
     2
  9
$DIMALTF
 40
25.4
  9
$DIMLFAC
 40
1.0
  9
$DIMTOFL
 70
     0
  9
$DIMTVP
 40
0.0
  9
$DIMTIX
 70
     0
  9
$DIMSOXD
 70
     0
  9
$DIMSAH
 70
     0
  9
$DIMBLK1
  1

  9
$DIMBLK2
  1

  9
$DIMSTYLE
  2
Standard
  9
$DIMCLRD
 70
     0
  9
$DIMCLRE
 70
     0
  9
$DIMCLRT
 70
     0
  9
$DIMTFAC
 40
1.0
  9
$DIMGAP
 40
0.09
  9
$DIMJUST
 70
     0
  9
$DIMSD1
 70
     0
  9
$DIMSD2
 70
     0
  9
$DIMTOLJ
 70
     1
  9
$DIMTZIN
 70
     0
  9
$DIMALTZ
 70
     0
  9
$DIMALTTZ
 70
     0
  9
$DIMUPT
 70
     0
  9
$DIMDEC
 70
     4
  9
$DIMTDEC
 70
     4
  9
$DIMALTU
 70
     2
  9
$DIMALTTD
 70
     2
  9
$DIMTXSTY
  7
Standard
  9
$DIMAUNIT
 70
     0
  9
$DIMADEC
 70
     0
  9
$DIMALTRND
 40
0.0
  9
$DIMAZIN
 70
     0
  9
$DIMDSEP
 70
    46
  9
$DIMATFIT
 70
     3
  9
$DIMFRAC
 70
     0
  9
$DIMLDRBLK
  1

  9
$DIMLUNIT
 70
     2
  9
$DIMLWD
 70
    -2
  9
$DIMLWE
 70
    -2
  9
$DIMTMOVE
 70
     0
  9
$DIMFXL
 40
1.0
  9
$DIMFXLON
 70
     0
  9
$DIMJOGANG
 40
0.7853981633974483
  9
$DIMTFILL
 70
     0
  9
$DIMTFILLCLR
 70
     0
  9
$DIMARCSYM
 70
     0
  9
$DIMLTYPE
  6

  9
$DIMLTEX1
  6

  9
$DIMLTEX2
  6

  9
$DIMTXTDIRECTION
 70
     0
  9
$LUNITS
 70
     2
  9
$LUPREC
 70
     4
  9
$SKETCHINC
 40
0.1
  9
$FILLETRAD
 40
0.0
  9
$AUNITS
 70
     0
  9
$AUPREC
 70
     0
  9
$MENU
  1
.
  9
$ELEVATION
 40
0.0
  9
$PELEVATION
 40
0.0
  9
$THICKNESS
 40
0.0
  9
$LIMCHECK
 70
     0
  9
$CHAMFERA
 40
0.0
  9
$CHAMFERB
 40
0.0
  9
$CHAMFERC
 40
0.0
  9
$CHAMFERD
 40
0.0
  9
$SKPOLY
 70
     0
  9
$TDCREATE
 40
2455649.521840278
  9
$TDUCREATE
 40
2455649.063509341
  9
$TDUPDATE
 40
2458068.700636574
  9
$TDUUPDATE
 40
2458068.242303241
  9
$TDINDWG
 40
0.0001512037
  9
$TDUSRTIMER
 40
0.0001512037
  9
$USRTIMER
 70
     1
  9
$ANGBASE
 50
0.0
  9
$ANGDIR
 70
     0
  9
$PDMODE
 70
     0
  9
$PDSIZE
 40
0.0
  9
$PLINEWID
 40
0.0
  9
$SPLFRAME
 70
     0
  9
$SPLINETYPE
 70
     6
  9
$SPLINESEGS
 70
     8
  9
$HANDSEED
  5
B05
  9
$SURFTAB1
 70
     6
  9
$SURFTAB2
 70
     6
  9
$SURFTYPE
 70
     6
  9
$SURFU
 70
     6
  9
$SURFV
 70
     6
  9
$UCSBASE
  2

  9
$UCSNAME
  2

  9
$UCSORG
 10
0.0
 20
0.0
 30
0.0
  9
$UCSXDIR
 10
1.0
 20
0.0
 30
0.0
  9
$UCSYDIR
 10
0.0
 20
1.0
 30
0.0
  9
$UCSORTHOREF
  2

  9
$UCSORTHOVIEW
 70
     0
  9
$UCSORGTOP
 10
0.0
 20
0.0
 30
0.0
  9
$UCSORGBOTTOM
 10
0.0
 20
0.0
 30
0.0
  9
$UCSORGLEFT
 10
0.0
 20
0.0
 30
0.0
  9
$UCSORGRIGHT
 10
0.0
 20
0.0
 30
0.0
  9
$UCSORGFRONT
 10
0.0
 20
0.0
 30
0.0
  9
$UCSORGBACK
 10
0.0
 20
0.0
 30
0.0
  9
$PUCSBASE
  2

  9
$PUCSNAME
  2

  9
$PUCSORG
 10
0.0
 20
0.0
 30
0.0
  9
$PUCSXDIR
 10
1.0
 20
0.0
 30
0.0
  9
$PUCSYDIR
 10
0.0
 20
1.0
 30
0.0
  9
$PUCSORTHOREF
  2

  9
$PUCSORTHOVIEW
 70
     0
  9
$PUCSORGTOP
 10
0.0
 20
0.0
 30
0.0
  9
$PUCSORGBOTTOM
 10
0.0
 20
0.0
 30
0.0
  9
$PUCSORGLEFT
 10
0.0
 20
0.0
 30
0.0
  9
$PUCSORGRIGHT
 10
0.0
 20
0.0
 30
0.0
  9
$PUCSORGFRONT
 10
0.0
 20
0.0
 30
0.0
  9
$PUCSORGBACK
 10
0.0
 20
0.0
 30
0.0
  9
$USERI1
 70
     0
  9
$USERI2
 70
     0
  9
$USERI3
 70
     0
  9
$USERI4
 70
     0
  9
$USERI5
 70
     0
  9
$USERR1
 40
0.0
  9
$USERR2
 40
0.0
  9
$USERR3
 40
0.0
  9
$USERR4
 40
0.0
  9
$USERR5
 40
0.0
  9
$WORLDVIEW
 70
     1
  9
$SHADEDGE
 70
     3
  9
$SHADEDIF
 70
    70
  9
$TILEMODE
 70
     1
  9
$MAXACTVP
 70
    64
  9
$PINSBASE
 10
0.0
 20
0.0
 30
0.0
  9
$PLIMCHECK
 70
     0
  9
$PEXTMIN
 10
0.0
 20
0.0
 30
0.0
  9
$PEXTMAX
 10
594.0
 20
420.0
 30
0.0
  9
$PLIMMIN
 10
0.0
 20
0.0
  9
$PLIMMAX
 10
594.0
 20
420.0
  9
$UNITMODE
 70
     0
  9
$VISRETAIN
 70
     1
  9
$PLINEGEN
 70
     0
  9
$PSLTSCALE
 70
     1
  9
$TREEDEPTH
 70
  3020
  9
$CMLSTYLE
  2
Standard
  9
$CMLJUST
 70
     0
  9
$CMLSCALE
 40
1.0
  9
$PROXYGRAPHICS
 70
     1
  9
$MEASUREMENT
 70
     1
  9
$CELWEIGHT
370
    -1
  9
$ENDCAPS
280
     0
  9
$JOINSTYLE
280
     0
  9
$LWDISPLAY
290
     0
  9
$INSUNITS
 70
     4
  9
$HYPERLINKBASE
  1

  9
$STYLESHEET
  1

  9
$XEDIT
290
     1
  9
$CEPSNTYPE
380
     0
  9
$PSTYLEMODE
290
     1
  9
$FINGERPRINTGUID
  2
{48EC8B91-10B0-442E-BB7D-33AC66BFE769}
  9
$VERSIONGUID
  2
{B54A33D0-BE57-8B46-97BF-C1438F611D43}
  9
$EXTNAMES
290
     1
  9
$PSVPSCALE
 40
0.0
  9
$OLESTARTUP
290
     0
  9
$SORTENTS
280
   127
  9
$INDEXCTL
280
     0
  9
$HIDETEXT
280
     1
  9
$XCLIPFRAME
280
     2
  9
$HALOGAP
280
     0
  9
$OBSCOLOR
 70
   257
  9
$OBSLTYPE
280
     0
  9
$INTERSECTIONDISPLAY
280
     0
  9
$INTERSECTIONCOLOR
 70
   257
  9
$DIMASSOC
280
     1
  9
$PROJECTNAME
  1

  9
$CAMERADISPLAY
290
     0
  9
$LENSLENGTH
 40
50.0
  9
$CAMERAHEIGHT
 40
0.0
  9
$STEPSPERSEC
 40
2.0
  9
$STEPSIZE
 40
6.0
  9
$3DDWFPREC
 40
2.0
  9
$PSOLWIDTH
 40
0.25
  9
$PSOLHEIGHT
 40
4.0
  9
$LOFTANG1
 40
1.570796326794896
  9
$LOFTANG2
 40
1.570796326794896
  9
$LOFTMAG1
 40
0.0
  9
$LOFTMAG2
 40
0.0
  9
$LOFTPARAM
 70
     7
  9
$LOFTNORMALS
280
     1
  9
$LATITUDE
 40
37.795
  9
$LONGITUDE
 40
-122.394
  9
$NORTHDIRECTION
 40
0.0
  9
$TIMEZONE
 70
 -8000
  9
$LIGHTGLYPHDISPLAY
280
     1
  9
$TILEMODELIGHTSYNCH
280
     1
  9
$CMATERIAL
347
11
  9
$SOLIDHIST
280
     0
  9
$SHOWHIST
280
     1
  9
$DWFFRAME
280
     2
  9
$DGNFRAME
280
     0
  9
$REALWORLDSCALE
290
     1
  9
$INTERFERECOLOR
 62
     1
  9
$INTERFEREOBJVS
345
33
  9
$INTERFEREVPVS
346
30
  9
$CSHADOW
280
     0
  9
$SHADOWPLANELOCATION
 40
0.0
  0
ENDSEC
  0
SECTION
  2
CLASSES
  0
CLASS
  1
ACDBDICTIONARYWDFLT
  2
AcDbDictionaryWithDefault
  3
ObjectDBX Classes
 90
        0
 91
        1
280
     0
281
     0
  0
CLASS
  1
MATERIAL
  2
AcDbMaterial
  3
ObjectDBX Classes
 90
     1153
 91
        3
280
     0
281
     0
  0
CLASS
  1
VISUALSTYLE
  2
AcDbVisualStyle
  3
ObjectDBX Classes
 90
     4095
 91
       24
280
     0
281
     0
  0
CLASS
  1
SCALE
  2
AcDbScale
  3
ObjectDBX Classes
 90
     1153
 91
       17
280
     0
281
     0
  0
CLASS
  1
TABLESTYLE
  2
AcDbTableStyle
  3
ObjectDBX Classes
 90
     4095
 91
        1
280
     0
281
     0
  0
CLASS
  1
MLEADERSTYLE
  2
AcDbMLeaderStyle
  3
ACDB_MLEADERSTYLE_CLASS
 90
     4095
 91
        1
280
     0
281
     0
  0
CLASS
  1
DICTIONARYVAR
  2
AcDbDictionaryVar
  3
ObjectDBX Classes
 90
        0
 91
       16
280
     0
281
     0
  0
CLASS
  1
CELLSTYLEMAP
  2
AcDbCellStyleMap
  3
ObjectDBX Classes
 90
     1152
 91
        2
280
     0
281
     0
  0
CLASS
  1
ACDBSECTIONVIEWSTYLE
  2
AcDbSectionViewStyle
  3
ObjectDBX Classes
 90
     1025
 91
        1
280
     0
281
     0
  0
CLASS
  1
ACDBDETAILVIEWSTYLE
  2
AcDbDetailViewStyle
  3
ObjectDBX Classes
 90
     1025
 91
        1
280
     0
281
     0
  0
ENDSEC
  0
SECTION
  2
TABLES
  0
TABLE
  2
VPORT
  5
8
330
0
100
AcDbSymbolTable
 70
     1
1001
ACAD
1000
DbSaveVer
1071
        5
  0
VPORT
  5
57
330
8
100
AcDbSymbolTableRecord
100
AcDbViewportTableRecord
  2
*Active
 70
     0
 10
0.0
 20
0.0
 11
1.0
 21
1.0
 12
301.8490919648309
 22
225.7814035841514
 13
0.0
 23
0.0
 14
1.0
 24
1.0
 15
0.0
 25
0.0
 16
0.0
 26
0.0
 36
1.0
 17
0.0
 27
0.0
 37
0.0
 40
326.3756871521057
 41
2.292712066905615
 42
50.0
 43
0.0
 44
0.0
 50
0.0
 51
0.0
 71
     0
 72
   100
 73
     1
 74
     1
 75
     0
 76
     0
 77
     0
 78
     0
281
     0
 65
     1
110
0.0
120
0.0
130
0.0
111
1.0
121
0.0
131
0.0
112
0.0
122
1.0
132
0.0
 79
     0
146
0.0
348
2F
 60
     3
 61
     5
292
     1
282
     1
141
0.0
142
0.0
 63
   250
421
  3355443
1001
ACAD_NAV_VCDISPLAY
1070
     3
  0
ENDTAB
  0
TABLE
  2
LTYPE
  5
5
330
0
100
AcDbSymbolTable
 70
    59
  0
LTYPE
  5
5B
330
5
100
AcDbSymbolTableRecord
100
AcDbLinetypeTableRecord
  2
ByBlock
 70
     0
  3

 72
    65
 73
     0
 40
0.0
  0
LTYPE
  5
5C
330
5
100
AcDbSymbolTableRecord
100
AcDbLinetypeTableRecord
  2
ByLayer
 70
     0
  3

 72
    65
 73
     0
 40
0.0
  0
LTYPE
  5
5D
330
5
100
AcDbSymbolTableRecord
100
AcDbLinetypeTableRecord
  2
Continuous
 70
     0
  3
Solid line
 72
    65
 73
     0
 40
0.0
  0
LTYPE
  5
74
330
5
100
AcDbSymbolTableRecord
100
AcDbLinetypeTableRecord
  2
Section_View_Lines
 70
     0
  3
Section View Lines
 72
    65
 73
     4
 40
0.8406
 49
0.6614
 74
     0
 49
-0.0827
 74
     0
 49
0.0138
 74
     0
 49
-0.0827
 74
     0
  0
LTYPE
  5
75
330
5
100
AcDbSymbolTableRecord
100
AcDbLinetypeTableRecord
  2
CHAIN
 70
     0
  3
Chain ____ _ ____ _ ____ _ ____ _ ____ _ ____
 72
    65
 73
     4
 40
0.3543
 49
0.2362
 74
     0
 49
-0.0295
 74
     0
 49
0.0591
 74
     0
 49
-0.0295
 74
     0
  0
LTYPE
  5
76
330
5
100
AcDbSymbolTableRecord
100
AcDbLinetypeTableRecord
  2
DASH_DOT
 70
     0
  3
Dash dot _._._._._._._._._._._._._._._.
 72
    65
 73
     4
 40
0.182
 49
0.1181
 74
     0
 49
-0.0295
 74
     0
 49
0.0049
 74
     0
 49
-0.0295
 74
     0
  0
LTYPE
  5
77
330
5
100
AcDbSymbolTableRecord
100
AcDbLinetypeTableRecord
  2
DASH_DOUBLE_DOT
 70
     0
  3
Dash Double Dot __ __ . __ __ . __ __ . __ _
 72
    65
 73
     6
 40
0.2164
 49
0.1181
 74
     0
 49
-0.0295
 74
     0
 49
0.0049
 74
     0
 49
-0.0295
 74
     0
 49
0.0049
 74
     0
 49
-0.0295
 74
     0
  0
LTYPE
  5
78
330
5
100
AcDbSymbolTableRecord
100
AcDbLinetypeTableRecord
  2
DASH_TRIPLE_DOT
 70
     0
  3
Dash Triple-Dot _ . . . _ . . . _ . . . _
 72
    65
 73
     8
 40
0.2508
 49
0.1181
 74
     0
 49
-0.0295
 74
     0
 49
0.0049
 74
     0
 49
-0.0295
 74
     0
 49
0.0049
 74
     0
 49
-0.0295
 74
     0
 49
0.0049
 74
     0
 49
-0.0295
 74
     0
  0
LTYPE
  5
79
330
5
100
AcDbSymbolTableRecord
100
AcDbLinetypeTableRecord
  2
DASHED
 70
     0
  3
Dashed __ __ __ __ __ __ __ __ __ __ __ __ __ _
 72
    65
 73
     2
 40
0.2068
 49
0.1655
 74
     0
 49
-0.0413
 74
     0
  0
LTYPE
  5
7A
330
5
100
AcDbSymbolTableRecord
100
AcDbLinetypeTableRecord
  2
DASHED_SPACE
 70
     0
  3
Dashed Space __ __ __ __ __ __ __ __ __ __ __ _
 72
    65
 73
     2
 40
0.2067
 49
0.1654
 74
     0
 49
-0.0413
 74
     0
  0
LTYPE
  5
7B
330
5
100
AcDbSymbolTableRecord
100
AcDbLinetypeTableRecord
  2
DOTTED
 70
     0
  3
Dotted . . . . . . . . . . . . . . . . . . . . 
 72
    65
 73
     2
 40
0.0481
 49
0.0068
 74
     0
 49
-0.0413
 74
     0
  0
LTYPE
  5
7C
330
5
100
AcDbSymbolTableRecord
100
AcDbLinetypeTableRecord
  2
DOUBLE_DASH_CHAIN
 70
     0
  3
Double Dash Chain ___ _ _ ___ _ _ ___ _ _ ___ _
 72
    65
 73
     6
 40
1.240299999999998
 49
0.6614
 74
     0
 49
-0.0827
 74
     0
 49
0.1654
 74
     0
 49
-0.0827
 74
     0
 49
0.1654
 74
     0
 49
-0.0827
 74
     0
  0
LTYPE
  5
7D
330
5
100
AcDbSymbolTableRecord
100
AcDbLinetypeTableRecord
  2
DOUBLE_DASH_DOT
 70
     0
  3
Double Dash Dot __ __ . __ __ . __ __ . __ _
 72
    65
 73
     6
 40
0.3296
 49
0.1181
 74
     0
 49
-0.0295
 74
     0
 49
0.1181
 74
     0
 49
-0.0295
 74
     0
 49
0.0049
 74
     0
 49
-0.0295
 74
     0
  0
LTYPE
  5
7E
330
5
100
AcDbSymbolTableRecord
100
AcDbLinetypeTableRecord
  2
DOUBLE_DASH_DOUBLE_DOT
 70
     0
  3
Double Dash Double Dot _ _ . . _ _ . . _ _
 72
    65
 73
     8
 40
0.364
 49
0.1181
 74
     0
 49
-0.0295
 74
     0
 49
0.1181
 74
     0
 49
-0.0295
 74
     0
 49
0.0049
 74
     0
 49
-0.0295
 74
     0
 49
0.0049
 74
     0
 49
-0.0295
 74
     0
  0
LTYPE
  5
7F
330
5
100
AcDbSymbolTableRecord
100
AcDbLinetypeTableRecord
  2
DOUBLE_DASH_TRIPLE_DOT
 70
     0
  3
Double Dash Triple Dot __ __ . . . __ __ . . .
 72
    65
 73
    10
 40
0.3984
 49
0.1181
 74
     0
 49
-0.0295
 74
     0
 49
0.1181
 74
     0
 49
-0.0295
 74
     0
 49
0.0049
 74
     0
 49
-0.0295
 74
     0
 49
0.0049
 74
     0
 49
-0.0295
 74
     0
 49
0.0049
 74
     0
 49
-0.0295
 74
     0
  0
LTYPE
  5
80
330
5
100
AcDbSymbolTableRecord
100
AcDbLinetypeTableRecord
  2
LONG_DASH_DOTTED
 70
     0
  3
Long Dash Dotted ____ . ____ . ____ . ____ . _
 72
    65
 73
     4
 40
0.3001
 49
0.2362
 74
     0
 49
-0.0295
 74
     0
 49
0.0049
 74
     0
 49
-0.0295
 74
     0
  0
LTYPE
  5
81
330
5
100
AcDbSymbolTableRecord
100
AcDbLinetypeTableRecord
  2
LONG_DASH_DOUBLE_DOT
 70
     0
  3
Long Dash Double Dot ____ . . ____ . . ____ . .
 72
    65
 73
     6
 40
0.3345
 49
0.2362
 74
     0
 49
-0.0295
 74
     0
 49
0.0049
 74
     0
 49
-0.0295
 74
     0
 49
0.0049
 74
     0
 49
-0.0295
 74
     0
  0
LTYPE
  5
82
330
5
100
AcDbSymbolTableRecord
100
AcDbLinetypeTableRecord
  2
LONG_DASH_TRIPLE_DOT
 70
     0
  3
Long Dash Triple Dot ____ ... ____ ... ____
 72
    65
 73
     8
 40
0.3689
 49
0.2362
 74
     0
 49
-0.0295
 74
     0
 49
0.0049
 74
     0
 49
-0.0295
 74
     0
 49
0.0049
 74
     0
 49
-0.0295
 74
     0
 49
0.0049
 74
     0
 49
-0.0295
 74
     0
  0
LTYPE
  5
83
330
5
100
AcDbSymbolTableRecord
100
AcDbLinetypeTableRecord
  2
BORDER
 70
     0
  3
Border __ __ . __ __ . __ __ . __ __ . __ __ .
 72
    65
 73
     6
 40
44.45
 49
12.7
 74
     0
 49
-6.349999999999998
 74
     0
 49
12.7
 74
     0
 49
-6.349999999999998
 74
     0
 49
0.0
 74
     0
 49
-6.349999999999998
 74
     0
  0
LTYPE
  5
84
330
5
100
AcDbSymbolTableRecord
100
AcDbLinetypeTableRecord
  2
BORDER2
 70
     0
  3
Border (.5x) __.__.__.__.__.__.__.__.__.__.__.
 72
    65
 73
     6
 40
22.225
 49
6.349999999999998
 74
     0
 49
-3.174999999999998
 74
     0
 49
6.349999999999998
 74
     0
 49
-3.174999999999998
 74
     0
 49
0.0
 74
     0
 49
-3.174999999999998
 74
     0
  0
LTYPE
  5
85
330
5
100
AcDbSymbolTableRecord
100
AcDbLinetypeTableRecord
  2
BORDERX2
 70
     0
  3
Border (2x) ____  ____  .  ____  ____  .  ___
 72
    65
 73
     6
 40
88.9
 49
25.4
 74
     0
 49
-12.7
 74
     0
 49
25.4
 74
     0
 49
-12.7
 74
     0
 49
0.0
 74
     0
 49
-12.7
 74
     0
  0
LTYPE
  5
86
330
5
100
AcDbSymbolTableRecord
100
AcDbLinetypeTableRecord
  2
CENTER
 70
     0
  3
Center ____ _ ____ _ ____ _ ____ _ ____ _ ____
 72
    65
 73
     4
 40
50.8
 49
31.75
 74
     0
 49
-6.349999999999998
 74
     0
 49
6.349999999999998
 74
     0
 49
-6.349999999999998
 74
     0
  0
LTYPE
  5
87
330
5
100
AcDbSymbolTableRecord
100
AcDbLinetypeTableRecord
  2
CENTER2
 70
     0
  3
Center (.5x) ___ _ ___ _ ___ _ ___ _ ___ _ ___
 72
    65
 73
     4
 40
28.575
 49
19.05
 74
     0
 49
-3.174999999999998
 74
     0
 49
3.174999999999998
 74
     0
 49
-3.174999999999998
 74
     0
  0
LTYPE
  5
88
330
5
100
AcDbSymbolTableRecord
100
AcDbLinetypeTableRecord
  2
CENTERX2
 70
     0
  3
Center (2x) ________  __  ________  __  _____
 72
    65
 73
     4
 40
101.6
 49
63.5
 74
     0
 49
-12.7
 74
     0
 49
12.7
 74
     0
 49
-12.7
 74
     0
  0
LTYPE
  5
89
330
5
100
AcDbSymbolTableRecord
100
AcDbLinetypeTableRecord
  2
DASHDOT2
 70
     0
  3
Dash dot (.5x) _._._._._._._._._._._._._._._.
 72
    65
 73
     4
 40
12.7
 49
6.349999999999998
 74
     0
 49
-3.174999999999998
 74
     0
 49
0.0
 74
     0
 49
-3.174999999999998
 74
     0
  0
LTYPE
  5
8A
330
5
100
AcDbSymbolTableRecord
100
AcDbLinetypeTableRecord
  2
DASHDOTX2
 70
     0
  3
Dash dot (2x) ____  .  ____  .  ____  .  ___
 72
    65
 73
     4
 40
50.8
 49
25.4
 74
     0
 49
-12.7
 74
     0
 49
0.0
 74
     0
 49
-12.7
 74
     0
  0
LTYPE
  5
8B
330
5
100
AcDbSymbolTableRecord
100
AcDbLinetypeTableRecord
  2
DASHED2
 70
     0
  3
Dashed (.5x) _ _ _ _ _ _ _ _ _ _ _ _ _ _ _ _ _
 72
    65
 73
     2
 40
9.524999999999996
 49
6.349999999999998
 74
     0
 49
-3.174999999999998
 74
     0
  0
LTYPE
  5
8C
330
5
100
AcDbSymbolTableRecord
100
AcDbLinetypeTableRecord
  2
DASHEDX2
 70
     0
  3
Dashed (2x) ____  ____  ____  ____  ____  ___
 72
    65
 73
     2
 40
38.1
 49
25.4
 74
     0
 49
-12.7
 74
     0
  0
LTYPE
  5
8D
330
5
100
AcDbSymbolTableRecord
100
AcDbLinetypeTableRecord
  2
DIVIDE
 70
     0
  3
Divide ____ . . ____ . . ____ . . ____ . . ____
 72
    65
 73
     6
 40
31.75
 49
12.7
 74
     0
 49
-6.349999999999998
 74
     0
 49
0.0
 74
     0
 49
-6.349999999999998
 74
     0
 49
0.0
 74
     0
 49
-6.349999999999998
 74
     0
  0
LTYPE
  5
8E
330
5
100
AcDbSymbolTableRecord
100
AcDbLinetypeTableRecord
  2
DIVIDE2
 70
     0
  3
Divide (.5x) __..__..__..__..__..__..__..__.._
 72
    65
 73
     6
 40
15.875
 49
6.349999999999998
 74
     0
 49
-3.174999999999998
 74
     0
 49
0.0
 74
     0
 49
-3.174999999999998
 74
     0
 49
0.0
 74
     0
 49
-3.174999999999998
 74
     0
  0
LTYPE
  5
8F
330
5
100
AcDbSymbolTableRecord
100
AcDbLinetypeTableRecord
  2
DIVIDEX2
 70
     0
  3
Divide (2x) ________  .  .  ________  .  .  _
 72
    65
 73
     6
 40
63.49999999999999
 49
25.4
 74
     0
 49
-12.7
 74
     0
 49
0.0
 74
     0
 49
-12.7
 74
     0
 49
0.0
 74
     0
 49
-12.7
 74
     0
  0
LTYPE
  5
90
330
5
100
AcDbSymbolTableRecord
100
AcDbLinetypeTableRecord
  2
DOT
 70
     0
  3
Dot . . . . . . . . . . . . . . . . . . . . . .
 72
    65
 73
     2
 40
6.349999999999998
 49
0.0
 74
     0
 49
-6.349999999999998
 74
     0
  0
LTYPE
  5
91
330
5
100
AcDbSymbolTableRecord
100
AcDbLinetypeTableRecord
  2
DOT2
 70
     0
  3
Dot (.5x) .....................................
 72
    65
 73
     2
 40
3.174999999999998
 49
0.0
 74
     0
 49
-3.174999999999998
 74
     0
  0
LTYPE
  5
92
330
5
100
AcDbSymbolTableRecord
100
AcDbLinetypeTableRecord
  2
DOTX2
 70
     0
  3
Dot (2x) .  .  .  .  .  .  .  .  .  .  .  .  . 
 72
    65
 73
     2
 40
12.7
 49
0.0
 74
     0
 49
-12.7
 74
     0
  0
LTYPE
  5
93
330
5
100
AcDbSymbolTableRecord
100
AcDbLinetypeTableRecord
  2
HIDDEN
 70
     0
  3
Hidden __ __ __ __ __ __ __ __ __ __ __ __ __ _
 72
    65
 73
     2
 40
9.524999999999996
 49
6.349999999999998
 74
     0
 49
-3.174999999999998
 74
     0
  0
LTYPE
  5
94
330
5
100
AcDbSymbolTableRecord
100
AcDbLinetypeTableRecord
  2
HIDDEN2
 70
     0
  3
Hidden (.5x) _ _ _ _ _ _ _ _ _ _ _ _ _ _ _ _ _
 72
    65
 73
     2
 40
4.762499999999998
 49
3.174999999999998
 74
     0
 49
-1.587499999999999
 74
     0
  0
LTYPE
  5
95
330
5
100
AcDbSymbolTableRecord
100
AcDbLinetypeTableRecord
  2
HIDDENX2
 70
     0
  3
Hidden (2x) ____ ____ ____ ____ ____ ____ ____
 72
    65
 73
     2
 40
19.05
 49
12.7
 74
     0
 49
-6.349999999999998
 74
     0
  0
LTYPE
  5
96
330
5
100
AcDbSymbolTableRecord
100
AcDbLinetypeTableRecord
  2
PHANTOM
 70
     0
  3
Phantom ______  __  __  ______  __  __  ______
 72
    65
 73
     6
 40
63.5
 49
31.75
 74
     0
 49
-6.349999999999998
 74
     0
 49
6.349999999999998
 74
     0
 49
-6.349999999999998
 74
     0
 49
6.349999999999998
 74
     0
 49
-6.349999999999998
 74
     0
  0
LTYPE
  5
97
330
5
100
AcDbSymbolTableRecord
100
AcDbLinetypeTableRecord
  2
PHANTOM2
 70
     0
  3
Phantom (.5x) ___ _ _ ___ _ _ ___ _ _ ___ _ _
 72
    65
 73
     6
 40
31.75
 49
15.875
 74
     0
 49
-3.174999999999998
 74
     0
 49
3.174999999999998
 74
     0
 49
-3.174999999999998
 74
     0
 49
3.174999999999998
 74
     0
 49
-3.174999999999998
 74
     0
  0
LTYPE
  5
98
330
5
100
AcDbSymbolTableRecord
100
AcDbLinetypeTableRecord
  2
PHANTOMX2
 70
     0
  3
Phantom (2x) ____________    ____    ____   _
 72
    65
 73
     6
 40
127.0
 49
63.5
 74
     0
 49
-12.7
 74
     0
 49
12.7
 74
     0
 49
-12.7
 74
     0
 49
12.7
 74
     0
 49
-12.7
 74
     0
  0
LTYPE
  5
99
330
5
100
AcDbSymbolTableRecord
100
AcDbLinetypeTableRecord
  2
ACAD_ISO02W100
 70
     0
  3
ISO dash __ __ __ __ __ __ __ __ __ __ __ __ __
 72
    65
 73
     2
 40
15.0
 49
12.0
 74
     0
 49
-3.0
 74
     0
  0
LTYPE
  5
9A
330
5
100
AcDbSymbolTableRecord
100
AcDbLinetypeTableRecord
  2
ACAD_ISO03W100
 70
     0
  3
ISO dash space __    __    __    __    __    __
 72
    65
 73
     2
 40
30.0
 49
12.0
 74
     0
 49
-18.0
 74
     0
  0
LTYPE
  5
9B
330
5
100
AcDbSymbolTableRecord
100
AcDbLinetypeTableRecord
  2
ACAD_ISO04W100
 70
     0
  3
ISO long-dash dot ____ . ____ . ____ . ____ . _
 72
    65
 73
     4
 40
30.0
 49
24.0
 74
     0
 49
-3.0
 74
     0
 49
0.0
 74
     0
 49
-3.0
 74
     0
  0
LTYPE
  5
9C
330
5
100
AcDbSymbolTableRecord
100
AcDbLinetypeTableRecord
  2
ACAD_ISO05W100
 70
     0
  3
ISO long-dash double-dot ____ .. ____ .. ____ .
 72
    65
 73
     6
 40
33.0
 49
24.0
 74
     0
 49
-3.0
 74
     0
 49
0.0
 74
     0
 49
-3.0
 74
     0
 49
0.0
 74
     0
 49
-3.0
 74
     0
  0
LTYPE
  5
9D
330
5
100
AcDbSymbolTableRecord
100
AcDbLinetypeTableRecord
  2
ACAD_ISO06W100
 70
     0
  3
ISO long-dash triple-dot ____ ... ____ ... ____
 72
    65
 73
     8
 40
36.0
 49
24.0
 74
     0
 49
-3.0
 74
     0
 49
0.0
 74
     0
 49
-3.0
 74
     0
 49
0.0
 74
     0
 49
-3.0
 74
     0
 49
0.0
 74
     0
 49
-3.0
 74
     0
  0
LTYPE
  5
9E
330
5
100
AcDbSymbolTableRecord
100
AcDbLinetypeTableRecord
  2
ACAD_ISO07W100
 70
     0
  3
ISO dot . . . . . . . . . . . . . . . . . . . .
 72
    65
 73
     2
 40
3.0
 49
0.0
 74
     0
 49
-3.0
 74
     0
  0
LTYPE
  5
9F
330
5
100
AcDbSymbolTableRecord
100
AcDbLinetypeTableRecord
  2
ACAD_ISO08W100
 70
     0
  3
ISO long-dash short-dash ____ __ ____ __ ____ _
 72
    65
 73
     4
 40
36.0
 49
24.0
 74
     0
 49
-3.0
 74
     0
 49
6.0
 74
     0
 49
-3.0
 74
     0
  0
LTYPE
  5
A0
330
5
100
AcDbSymbolTableRecord
100
AcDbLinetypeTableRecord
  2
ACAD_ISO09W100
 70
     0
  3
ISO long-dash double-short-dash ____ __ __ ____
 72
    65
 73
     6
 40
45.0
 49
24.0
 74
     0
 49
-3.0
 74
     0
 49
6.0
 74
     0
 49
-3.0
 74
     0
 49
6.0
 74
     0
 49
-3.0
 74
     0
  0
LTYPE
  5
A1
330
5
100
AcDbSymbolTableRecord
100
AcDbLinetypeTableRecord
  2
ACAD_ISO10W100
 70
     0
  3
ISO dash dot __ . __ . __ . __ . __ . __ . __ .
 72
    65
 73
     4
 40
18.0
 49
12.0
 74
     0
 49
-3.0
 74
     0
 49
0.0
 74
     0
 49
-3.0
 74
     0
  0
LTYPE
  5
A2
330
5
100
AcDbSymbolTableRecord
100
AcDbLinetypeTableRecord
  2
ACAD_ISO11W100
 70
     0
  3
ISO double-dash dot __ __ . __ __ . __ __ . __ 
 72
    65
 73
     6
 40
33.0
 49
12.0
 74
     0
 49
-3.0
 74
     0
 49
12.0
 74
     0
 49
-3.0
 74
     0
 49
0.0
 74
     0
 49
-3.0
 74
     0
  0
LTYPE
  5
A3
330
5
100
AcDbSymbolTableRecord
100
AcDbLinetypeTableRecord
  2
ACAD_ISO12W100
 70
     0
  3
ISO dash double-dot __ . . __ . . __ . . __ . .
 72
    65
 73
     6
 40
21.0
 49
12.0
 74
     0
 49
-3.0
 74
     0
 49
0.0
 74
     0
 49
-3.0
 74
     0
 49
0.0
 74
     0
 49
-3.0
 74
     0
  0
LTYPE
  5
A4
330
5
100
AcDbSymbolTableRecord
100
AcDbLinetypeTableRecord
  2
ACAD_ISO13W100
 70
     0
  3
ISO double-dash double-dot __ __ . . __ __ . . 
 72
    65
 73
     8
 40
36.0
 49
12.0
 74
     0
 49
-3.0
 74
     0
 49
12.0
 74
     0
 49
-3.0
 74
     0
 49
0.0
 74
     0
 49
-3.0
 74
     0
 49
0.0
 74
     0
 49
-3.0
 74
     0
  0
LTYPE
  5
A5
330
5
100
AcDbSymbolTableRecord
100
AcDbLinetypeTableRecord
  2
ACAD_ISO14W100
 70
     0
  3
ISO dash triple-dot __ . . . __ . . . __ . . . 
 72
    65
 73
     8
 40
24.0
 49
12.0
 74
     0
 49
-3.0
 74
     0
 49
0.0
 74
     0
 49
-3.0
 74
     0
 49
0.0
 74
     0
 49
-3.0
 74
     0
 49
0.0
 74
     0
 49
-3.0
 74
     0
  0
LTYPE
  5
A6
330
5
100
AcDbSymbolTableRecord
100
AcDbLinetypeTableRecord
  2
ACAD_ISO15W100
 70
     0
  3
ISO double-dash triple-dot __ __ . . . __ __ . 
 72
    65
 73
    10
 40
39.0
 49
12.0
 74
     0
 49
-3.0
 74
     0
 49
12.0
 74
     0
 49
-3.0
 74
     0
 49
0.0
 74
     0
 49
-3.0
 74
     0
 49
0.0
 74
     0
 49
-3.0
 74
     0
 49
0.0
 74
     0
 49
-3.0
 74
     0
  0
LTYPE
  5
A9
330
5
100
AcDbSymbolTableRecord
100
AcDbLinetypeTableRecord
  2
FENCELINE1
 70
     0
  3
Fenceline circle ----0-----0----0-----0----0---
 72
    65
 73
     4
 40
36.83
 49
6.349999999999998
 74
     0
 49
-2.54
 74
     4
 75
   133
340
A8
 46
2.54
 50
0.0
 44
-2.54
 45
0.0
 49
-2.54
 74
     0
 49
25.4
 74
     0
  0
LTYPE
  5
AA
330
5
100
AcDbSymbolTableRecord
100
AcDbLinetypeTableRecord
  2
FENCELINE2
 70
     0
  3
Fenceline square ----[]-----[]----[]-----[]----
 72
    65
 73
     4
 40
36.83
 49
6.349999999999998
 74
     0
 49
-2.54
 74
     4
 75
   132
340
A8
 46
2.54
 50
0.0
 44
-2.54
 45
0.0
 49
-2.54
 74
     0
 49
25.4
 74
     0
  0
LTYPE
  5
AB
330
5
100
AcDbSymbolTableRecord
100
AcDbLinetypeTableRecord
  2
TRACKS
 70
     0
  3
Tracks -|-|-|-|-|-|-|-|-|-|-|-|-|-|-|-|-|-|-|-|
 72
    65
 73
     2
 40
7.62
 49
3.81
 74
     4
 75
   130
340
A8
 46
6.349999999999998
 50
0.0
 44
0.0
 45
0.0
 49
3.81
 74
     0
  0
LTYPE
  5
AC
330
5
100
AcDbSymbolTableRecord
100
AcDbLinetypeTableRecord
  2
BATTING
 70
     0
  3
Batting SSSSSSSSSSSSSSSSSSSSSSSSSSSSSSSSSSSSSSS
 72
    65
 73
     4
 40
10.16254
 49
0.00254
 74
     0
 49
-2.54
 74
     4
 75
   134
340
A8
 46
2.54
 50
0.0
 44
-2.54
 45
0.0
 49
-5.08
 74
     4
 75
   134
340
A8
 46
2.54
 50
180.0
 44
2.54
 45
0.0
 49
-2.54
 74
     0
  0
LTYPE
  5
AD
330
5
100
AcDbSymbolTableRecord
100
AcDbLinetypeTableRecord
  2
HOT_WATER_SUPPLY
 70
     0
  3
Hot water supply ---- HW ---- HW ---- HW ----
 72
    65
 73
     3
 40
22.86
 49
12.7
 74
     0
 49
-5.08
 74
     2
 75
     0
340
55
 46
2.54
 50
0.0
 44
-2.54
 45
-1.27
  9
HW
 49
-5.08
 74
     0
  0
LTYPE
  5
AE
330
5
100
AcDbSymbolTableRecord
100
AcDbLinetypeTableRecord
  2
GAS_LINE
 70
     0
  3
Gas line ----GAS----GAS----GAS----GAS----GAS---
 72
    65
 73
     3
 40
24.13
 49
12.7
 74
     0
 49
-5.08
 74
     2
 75
     0
340
55
 46
2.54
 50
0.0
 44
-2.54
 45
-1.27
  9
GAS
 49
-6.349999999999998
 74
     0
  0
LTYPE
  5
AF
330
5
100
AcDbSymbolTableRecord
100
AcDbLinetypeTableRecord
  2
ZIGZAG
 70
     0
  3
Zig zag /\/\/\/\/\/\/\/\/\/\/\/\/\/\/\/\/\/\/\/
 72
    65
 73
     4
 40
20.32254
 49
0.00254
 74
     0
 49
-5.08
 74
     4
 75
   131
340
A8
 46
5.08
 50
0.0
 44
-5.08
 45
0.0
 49
-10.16
 74
     4
 75
   131
340
A8
 46
5.08
 50
180.0
 44
5.08
 45
0.0
 49
-5.08
 74
     0
  0
ENDTAB
  0
TABLE
  2
LAYER
  5
2
330
0
100
AcDbSymbolTable
 70
     8
  0
LAYER
  5
54
330
2
100
AcDbSymbolTableRecord
100
AcDbLayerTableRecord
  2
0
 70
     0
 62
     7
  6
Continuous
370
    -3
390
F
347
21
348
0
  0
LAYER
  5
D5
330
2
100
AcDbSymbolTableRecord
100
AcDbLayerTableRecord
  2
Dimensions(Ram)
 70
     0
 62
     7
  6
Continuous
370
    25
390
F
347
21
348
0
  0
LAYER
  5
D6
330
2
100
AcDbSymbolTableRecord
100
AcDbLayerTableRecord
  2
Hatch
 70
     0
 62
   179
  6
Continuous
370
     9
390
F
347
21
348
0
  0
LAYER
  5
E6
330
2
100
AcDbSymbolTableRecord
100
AcDbLayerTableRecord
  2
Sketch Geometry(Ram)
 70
     0
 62
     7
  6
Continuous
370
    50
390
F
347
21
348
0
  0
LAYER
  5
E8
330
2
100
AcDbSymbolTableRecord
100
AcDbLayerTableRecord
  2
Sketch Lines(Ram)
 70
     0
 62
     7
  6
Continuous
370
    18
390
F
347
21
348
0
  0
LAYER
  5
F2
330
2
100
AcDbSymbolTableRecord
100
AcDbLayerTableRecord
  2
Symbols(Ram)
 70
     0
 62
     7
  6
Continuous
370
    25
390
F
347
21
348
0
  0
LAYER
  5
FA
330
2
100
AcDbSymbolTableRecord
100
AcDbLayerTableRecord
  2
Visible Edges(Ram)
 70
     0
 62
     7
  6
Continuous
370
    50
390
F
347
21
348
0
  0
LAYER
  5
3E7
330
2
100
AcDbSymbolTableRecord
100
AcDbLayerTableRecord
  2
Defpoints
 70
     0
 62
     7
  6
Continuous
290
     0
370
    -3
390
F
347
21
348
0
  0
ENDTAB
  0
TABLE
  2
STYLE
  5
3
330
0
100
AcDbSymbolTable
 70
    16
  0
STYLE
  5
55
330
3
100
AcDbSymbolTableRecord
100
AcDbTextStyleTableRecord
  2
Standard
 70
     0
 40
0.0
 41
1.0
 50
0.0
 71
     0
 42
0.2
  3
ARIAL.TTF
  4

1001
ACAD
1000
Arial
1071
      256
  0
STYLE
  5
5A
330
3
100
AcDbSymbolTableRecord
100
AcDbTextStyleTableRecord
  2
Annotative
 70
     0
 40
0.0
 41
1.0
 50
0.0
 71
     0
 42
0.2
  3
txt
  4

1001
AcadAnnotative
1000
AnnotativeData
1002
{
1070
     1
1070
     1
1002
}
  0
STYLE
  5
A8
330
3
100
AcDbSymbolTableRecord
100
AcDbTextStyleTableRecord
  2

 70
     1
 40
0.0
 41
1.0
 50
0.0
 71
     0
 42
0.2
  3
ltypeshp.shx
  4

  0
STYLE
  5
103
330
3
100
AcDbSymbolTableRecord
100
AcDbTextStyleTableRecord
  2
Current-ISO
 70
     0
 40
0.0
 41
1.0
 50
0.0
 71
     0
 42
0.2
  3
ARIAL.TTF
  4

1001
ACAD
1000
Arial
1071
      256
  0
STYLE
  5
104
330
3
100
AcDbSymbolTableRecord
100
AcDbTextStyleTableRecord
  2
DEFAULT-BSI~0
 70
     0
 40
0.0
 41
1.0
 50
0.0
 71
     0
 42
0.2
  3
ARIAL.TTF
  4

1001
ACAD
1000
Arial
1071
      256
  0
STYLE
  5
105
330
3
100
AcDbSymbolTableRecord
100
AcDbTextStyleTableRecord
  2
DEFAULT-ISO
 70
     0
 40
0.0
 41
1.0
 50
0.0
 71
     0
 42
0.2
  3
ARIAL.TTF
  4

1001
ACAD
1000
Arial
1071
      256
  0
STYLE
  5
106
330
3
100
AcDbSymbolTableRecord
100
AcDbTextStyleTableRecord
  2
DEFAULT-ISOBigText
 70
     0
 40
0.0
 41
1.0
 50
0.0
 71
     0
 42
0.2
  3
ARIAL.TTF
  4

1001
ACAD
1000
Arial
1071
      256
  0
STYLE
  5
107
330
3
100
AcDbSymbolTableRecord
100
AcDbTextStyleTableRecord
  2
DEFAULT-ISOByLayer
 70
     0
 40
0.0
 41
1.0
 50
0.0
 71
     0
 42
0.2
  3
ARIAL.TTF
  4

1001
ACAD
1000
Arial
1071
      256
  0
STYLE
  5
108
330
3
100
AcDbSymbolTableRecord
100
AcDbTextStyleTableRecord
  2
Label Text (ISO)
 70
     0
 40
0.0
 41
1.0
 50
0.0
 71
     0
 42
0.2
  3
TAHOMA.TTF
  4

1001
ACAD
1000
Tahoma
1071
      256
  0
STYLE
  5
109
330
3
100
AcDbSymbolTableRecord
100
AcDbTextStyleTableRecord
  2
Std 1.8 Arial
 70
     0
 40
0.0
 41
1.0
 50
0.0
 71
     0
 42
0.2
  3
ARIAL.TTF
  4

1001
ACAD
1000
Arial
1071
      256
  0
STYLE
  5
10A
330
3
100
AcDbSymbolTableRecord
100
AcDbTextStyleTableRecord
  2
Std 2.0 Arial
 70
     0
 40
0.0
 41
1.0
 50
0.0
 71
     0
 42
0.2
  3
ARIAL.TTF
  4

1001
ACAD
1000
Arial
1071
      256
  0
STYLE
  5
10B
330
3
100
AcDbSymbolTableRecord
100
AcDbTextStyleTableRecord
  2
STD 2.5 ARIAL
 70
     0
 40
0.0
 41
1.0
 50
0.0
 71
     0
 42
0.2
  3
ARIAL.TTF
  4

1001
ACAD
1000
Arial
1071
      256
  0
STYLE
  5
10C
330
3
100
AcDbSymbolTableRecord
100
AcDbTextStyleTableRecord
  2
STD 2.5 ARIALBigText
 70
     0
 40
0.0
 41
1.0
 50
0.0
 71
     0
 42
0.2
  3
ARIAL.TTF
  4

1001
ACAD
1000
Arial
1071
      256
  0
STYLE
  5
10D
330
3
100
AcDbSymbolTableRecord
100
AcDbTextStyleTableRecord
  2
STD 2.5 ARIALByLayer
 70
     0
 40
0.0
 41
1.0
 50
0.0
 71
     0
 42
0.2
  3
ARIAL.TTF
  4

1001
ACAD
1000
Arial
1071
      256
  0
STYLE
  5
2E7
330
3
100
AcDbSymbolTableRecord
100
AcDbTextStyleTableRecord
  2
Text Style14
 70
     0
 40
0.0
 41
1.0
 50
0.0
 71
     0
 42
0.2
  3
ARIAL.TTF
  4

1001
ACAD
1000
Arial
1071
      256
  0
STYLE
  5
2EF
330
3
100
AcDbSymbolTableRecord
100
AcDbTextStyleTableRecord
  2
Text Style59
 70
     0
 40
0.0
 41
1.0
 50
0.0
 71
     0
 42
0.2
  3
ARIALBD.TTF
  4

1001
ACAD
1000
Arial
1071
 33554688
  0
ENDTAB
  0
TABLE
  2
VIEW
  5
6
330
0
100
AcDbSymbolTable
 70
     0
  0
ENDTAB
  0
TABLE
  2
UCS
  5
7
330
0
100
AcDbSymbolTable
 70
     0
  0
ENDTAB
  0
TABLE
  2
APPID
  5
9
330
0
100
AcDbSymbolTable
 70
     5
  0
APPID
  5
56
330
9
100
AcDbSymbolTableRecord
100
AcDbRegAppTableRecord
  2
ACAD
 70
     0
  0
APPID
  5
5E
330
9
100
AcDbSymbolTableRecord
100
AcDbRegAppTableRecord
  2
AcadAnnotative
 70
     0
  0
APPID
  5
2EA
330
9
100
AcDbSymbolTableRecord
100
AcDbRegAppTableRecord
  2
AcadAnnoPO
 70
     0
  0
APPID
  5
AB5
330
9
100
AcDbSymbolTableRecord
100
AcDbRegAppTableRecord
  2
ACAD_MLEADERVER
 70
     0
  0
APPID
  5
ACD
330
9
100
AcDbSymbolTableRecord
100
AcDbRegAppTableRecord
  2
ACAD_NAV_VCDISPLAY
 70
     0
  0
ENDTAB
  0
TABLE
  2
DIMSTYLE
  5
A
330
0
100
AcDbSymbolTable
 70
    25
100
AcDbDimStyleTable
 71
     2
340
11A
340
58
  0
DIMSTYLE
105
58
330
A
100
AcDbSymbolTableRecord
100
AcDbDimStyleTableRecord
  2
Standard
 70
     0
340
55
  0
DIMSTYLE
105
59
330
A
100
AcDbSymbolTableRecord
100
AcDbDimStyleTableRecord
  2
Annotative
 70
     0
340
55
1001
AcadAnnotative
1000
AnnotativeData
1002
{
1070
     1
1070
     1
1002
}
  0
DIMSTYLE
105
10E
330
A
100
AcDbSymbolTableRecord
100
AcDbDimStyleTableRecord
  2
DEFAULT-ISO
 70
     0
 40
2.0
 41
2.5
 42
1.0
 43
5.999999999999999
 44
3.174999999999998
 45
0.00000001
 46
10.0
 73
     0
 77
     1
140
2.5
143
0.03937
147
0.762
171
     3
172
     1
176
   250
177
   250
178
     7
179
     2
271
     2
272
     2
274
     3
340
104
371
    25
372
    25
  0
DIMSTYLE
105
10F
330
A
100
AcDbSymbolTableRecord
100
AcDbDimStyleTableRecord
  2
DEFAULT-ISO$7
 70
     0
 40
2.0
 41
2.5
 42
1.0
 43
5.999999999999999
 44
3.174999999999998
 45
0.00000001
 46
10.0
 73
     0
 77
     1
140
2.5
143
0.03937
147
0.762
171
     3
172
     1
176
     7
177
   250
178
     7
179
     2
271
     2
272
     2
274
     3
340
104
371
    25
372
    25
  0
DIMSTYLE
105
110
330
A
100
AcDbSymbolTableRecord
100
AcDbDimStyleTableRecord
  2
DEFAULT-ISOBigText
 70
     0
 40
2.0
 41
5.0
 42
0.0
 43
5.999999999999999
 44
3.174999999999998
 45
0.00000001
 46
10.0
 73
     0
 74
     0
 77
     1
140
5.25
143
0.03937
146
0.6666666666666666
147
0.762
171
     3
172
     1
176
   250
177
   250
178
     7
179
     2
271
     2
272
     2
274
     3
278
    44
340
106
371
    25
372
    25
  0
DIMSTYLE
105
111
330
A
100
AcDbSymbolTableRecord
100
AcDbDimStyleTableRecord
  2
DEFAULT-ISOBigText$7
 70
     0
 40
2.0
 41
5.0
 42
0.0
 43
5.999999999999999
 44
3.174999999999998
 45
0.00000001
 46
10.0
 73
     0
 74
     0
 77
     1
140
5.25
143
0.03937
146
0.6666666666666666
147
0.762
171
     3
172
     1
176
     7
177
   250
178
     7
179
     2
271
     2
272
     2
274
     3
278
    44
340
106
371
    25
372
    25
  0
DIMSTYLE
105
112
330
A
100
AcDbSymbolTableRecord
100
AcDbDimStyleTableRecord
  2
POINTS
 70
     0
 40
2.0
 41
2.5
 42
1.3
 43
5.999999999999999
 44
2.0
 45
0.00000001
 46
10.0
 73
     0
 74
     0
 77
     1
140
2.5
143
0.03937
147
1.0
171
     3
172
     1
176
     7
177
     7
178
     7
271
     2
272
     1
274
     3
340
10B
371
    25
372
    25
  0
DIMSTYLE
105
113
330
A
100
AcDbSymbolTableRecord
100
AcDbDimStyleTableRecord
  2
POINTS$7
 70
     0
 40
2.0
 41
2.5
 42
1.3
 43
5.999999999999999
 44
2.0
 45
0.00000001
 46
10.0
 73
     0
 74
     0
 77
     1
140
2.5
143
0.03937
147
1.0
171
     3
172
     1
176
     7
177
     7
178
     7
271
     2
272
     1
274
     3
340
10B
371
    15
372
    25
  0
DIMSTYLE
105
114
330
A
100
AcDbSymbolTableRecord
100
AcDbDimStyleTableRecord
  2
Ram Basic
 70
     0
 40
2.0
 41
2.5
 42
1.3
 43
5.999999999999999
 44
2.0
 45
0.00000001
 46
10.0
 73
     0
 74
     0
 77
     1
140
2.5
143
0.03937
147
1.0
171
     3
172
     1
176
     7
177
     7
178
     7
271
     1
272
     1
274
     3
340
10B
371
    25
372
    25
  0
DIMSTYLE
105
115
330
A
100
AcDbSymbolTableRecord
100
AcDbDimStyleTableRecord
  2
Ram Basic$7
 70
     0
 40
2.0
 41
2.5
 42
1.3
 43
5.999999999999999
 44
2.0
 45
0.00000001
 46
10.0
 73
     0
 74
     0
 77
     1
140
2.5
143
0.03937
147
1.0
171
     3
172
     1
176
     7
177
     7
178
     7
271
     1
272
     1
274
     3
340
10B
371
    15
372
    25
  0
DIMSTYLE
105
116
330
A
100
AcDbSymbolTableRecord
100
AcDbDimStyleTableRecord
  2
Ram Basic REF
 70
     0
 40
2.0
 41
2.5
 42
1.3
 43
5.999999999999999
 44
2.0
 45
0.00000001
 46
10.0
 73
     0
 74
     0
 77
     1
140
2.5
143
0.03937
147
1.0
171
     3
172
     1
176
     7
177
     7
178
     7
271
     2
272
     2
274
     3
340
10B
371
    25
372
    25
  0
DIMSTYLE
105
117
330
A
100
AcDbSymbolTableRecord
100
AcDbDimStyleTableRecord
  2
Ram Basic REF$7
 70
     0
 40
2.0
 41
2.5
 42
1.3
 43
5.999999999999999
 44
2.0
 45
0.00000001
 46
10.0
 73
     0
 74
     0
 77
     1
140
2.5
143
0.03937
147
1.0
171
     3
172
     1
176
     7
177
     7
178
     7
271
     2
272
     2
274
     3
340
10B
371
    15
372
    25
  0
DIMSTYLE
105
118
330
A
100
AcDbSymbolTableRecord
100
AcDbDimStyleTableRecord
  2
Small Font
 70
     0
 40
2.0
 41
2.5
 42
1.3
 43
5.999999999999999
 44
2.0
 45
0.00000001
 46
10.0
 73
     0
 74
     0
 77
     1
140
1.800000071525573
143
0.03937
146
0.8333333002196431
147
1.0
171
     3
172
     1
176
     7
177
     7
178
     7
271
     1
272
     1
274
     3
340
109
371
    25
372
    25
  0
DIMSTYLE
105
119
330
A
100
AcDbSymbolTableRecord
100
AcDbDimStyleTableRecord
  2
Small Font$7
 70
     0
 40
2.0
 41
2.5
 42
1.3
 43
5.999999999999999
 44
2.0
 45
0.00000001
 46
10.0
 73
     0
 74
     0
 77
     1
140
1.800000071525573
143
0.03937
146
0.8333333002196431
147
1.0
171
     3
172
     1
176
     7
177
     7
178
     7
271
     1
272
     1
274
     3
340
109
371
    15
372
    25
  0
DIMSTYLE
105
11A
102
{ACAD_REACTORS
330
3E6
330
4C9
330
5AB
330
79C
330
87E
330
966
102
}
330
A
100
AcDbSymbolTableRecord
100
AcDbDimStyleTableRecord
  2
Whole Number
 70
     0
 40
2.0
 41
2.5
 42
1.3
 43
5.999999999999999
 44
2.0
 45
0.00000001
 46
10.0
 73
     0
 74
     0
 77
     1
140
2.5
143
0.03937
147
1.0
171
     3
172
     1
176
     7
177
     7
178
     7
271
     0
272
     0
274
     3
340
10B
371
    25
372
    25
  0
DIMSTYLE
105
11B
330
A
100
AcDbSymbolTableRecord
100
AcDbDimStyleTableRecord
  2
Whole Number$7
 70
     0
 40
2.0
 41
2.5
 42
1.3
 43
5.999999999999999
 44
2.0
 45
0.00000001
 46
10.0
 73
     0
 74
     0
 77
     1
140
2.5
143
0.03937
147
1.0
171
     3
172
     1
176
     7
177
     7
178
     7
271
     0
272
     0
274
     3
340
10B
371
    15
372
    25
  0
DIMSTYLE
105
126
330
A
100
AcDbSymbolTableRecord
100
AcDbDimStyleTableRecord
  2
Leader-Datum(ISO)
 70
     0
 40
2.0
 41
2.5
340
55
342
127
  0
DIMSTYLE
105
12E
330
A
100
AcDbSymbolTableRecord
100
AcDbDimStyleTableRecord
  2
Leader-Datum(Ram)
 70
     0
 40
2.0
 41
2.5
340
55
342
127
  0
DIMSTYLE
105
12F
330
A
100
AcDbSymbolTableRecord
100
AcDbDimStyleTableRecord
  2
Leader-Dot(ISO)
 70
     0
 40
2.0
 41
2.5
340
55
342
127
  0
DIMSTYLE
105
130
330
A
100
AcDbSymbolTableRecord
100
AcDbDimStyleTableRecord
  2
Leader-Dot(Ram)
 70
     0
 40
2.0
 41
2.5
340
55
342
127
  0
DIMSTYLE
105
131
330
A
100
AcDbSymbolTableRecord
100
AcDbDimStyleTableRecord
  2
Leader-Large(Ram)
 70
     0
 40
2.0
 41
5.0
340
55
342
127
  0
DIMSTYLE
105
132
330
A
100
AcDbSymbolTableRecord
100
AcDbDimStyleTableRecord
  2
Leader-OriginIndicator(ISO)
 70
     0
 40
2.0
 41
2.5
340
55
342
127
  0
DIMSTYLE
105
133
330
A
100
AcDbSymbolTableRecord
100
AcDbDimStyleTableRecord
  2
Leader-OriginIndicator(Ram)
 70
     0
 40
2.0
 41
2.5
340
55
342
127
  0
DIMSTYLE
105
134
330
A
100
AcDbSymbolTableRecord
100
AcDbDimStyleTableRecord
  2
Leader(ISO)
 70
     0
 40
2.0
 41
2.5
340
55
342
127
  0
DIMSTYLE
105
135
330
A
100
AcDbSymbolTableRecord
100
AcDbDimStyleTableRecord
  2
Leader(Ram)
 70
     0
 40
2.0
 41
2.5
340
55
342
127
  0
ENDTAB
  0
TABLE
  2
BLOCK_RECORD
  5
1
330
0
100
AcDbSymbolTable
 70
    57
  0
BLOCK_RECORD
  5
6C
330
1
100
AcDbSymbolTableRecord
100
AcDbBlockTableRecord
  2
*Model_Space
340
6F
 70
     0
280
     1
281
     0
  0
BLOCK_RECORD
  5
68
330
1
100
AcDbSymbolTableRecord
100
AcDbBlockTableRecord
  2
*Paper_Space
340
6B
 70
     0
280
     1
281
     0
  0
BLOCK_RECORD
  5
70
330
1
100
AcDbSymbolTableRecord
100
AcDbBlockTableRecord
  2
*Paper_Space0
340
73
 70
     0
280
     1
281
     0
  0
BLOCK_RECORD
  5
11C
330
1
100
AcDbSymbolTableRecord
100
AcDbBlockTableRecord
  2
DatumFilled45
340
0
 70
     0
280
     1
281
     0
  0
BLOCK_RECORD
  5
127
330
1
100
AcDbSymbolTableRecord
100
AcDbBlockTableRecord
  2
_Closed
340
0
 70
     0
280
     1
281
     0
  0
BLOCK_RECORD
  5
136
330
1
100
AcDbSymbolTableRecord
100
AcDbBlockTableRecord
  2
1_4 TURN STD
340
0
 70
     0
280
     1
281
     0
  0
BLOCK_RECORD
  5
13B
330
1
100
AcDbSymbolTableRecord
100
AcDbBlockTableRecord
  2
1_4 TURN STD NO HOLE DETAIL
340
0
 70
     0
280
     1
281
     0
  0
BLOCK_RECORD
  5
13F
330
1
100
AcDbSymbolTableRecord
100
AcDbBlockTableRecord
  2
1_4 TURN STD SECURE FIT
340
0
 70
     0
280
     1
281
     0
  0
BLOCK_RECORD
  5
143
330
1
100
AcDbSymbolTableRecord
100
AcDbBlockTableRecord
  2
1_4 TURN STD SECURE FIT NO HOLE DETAIL
340
0
 70
     0
280
     1
281
     0
  0
BLOCK_RECORD
  5
147
330
1
100
AcDbSymbolTableRecord
100
AcDbBlockTableRecord
  2
16 UP
340
0
 70
     0
280
     1
281
     0
  0
BLOCK_RECORD
  5
1CC
330
1
100
AcDbSymbolTableRecord
100
AcDbBlockTableRecord
  2
2 UP
340
0
 70
     0
280
     1
281
     0
  0
BLOCK_RECORD
  5
1E1
330
1
100
AcDbSymbolTableRecord
100
AcDbBlockTableRecord
  2
4 UP
340
0
 70
     0
280
     1
281
     0
  0
BLOCK_RECORD
  5
206
330
1
100
AcDbSymbolTableRecord
100
AcDbBlockTableRecord
  2
6 UP
340
0
 70
     0
280
     1
281
     0
  0
BLOCK_RECORD
  5
23B
330
1
100
AcDbSymbolTableRecord
100
AcDbBlockTableRecord
  2
8 UP
340
0
 70
     0
280
     1
281
     0
  0
BLOCK_RECORD
  5
280
330
1
100
AcDbSymbolTableRecord
100
AcDbBlockTableRecord
  2
APPROVED STAMP
340
0
 70
     0
280
     1
281
     0
  0
BLOCK_RECORD
  5
289
330
1
100
AcDbSymbolTableRecord
100
AcDbBlockTableRecord
  2
AVAIL WELS 3 STAR
340
0
 70
     0
280
     1
281
     0
  0
BLOCK_RECORD
  5
28D
330
1
100
AcDbSymbolTableRecord
100
AcDbBlockTableRecord
  2
AVAIL WELS 4 STAR
340
0
 70
     0
280
     1
281
     0
  0
BLOCK_RECORD
  5
291
330
1
100
AcDbSymbolTableRecord
100
AcDbBlockTableRecord
  2
AVAIL WELS 5 & 6 STAR
340
0
 70
     0
280
     1
281
     0
  0
BLOCK_RECORD
  5
295
330
1
100
AcDbSymbolTableRecord
100
AcDbBlockTableRecord
  2
AVAIL WELS RATING
340
0
 70
     0
280
     1
281
     0
  0
BLOCK_RECORD
  5
299
330
1
100
AcDbSymbolTableRecord
100
AcDbBlockTableRecord
  2
AVAIL WELS WITH 4 STAR
340
0
 70
     0
280
     1
281
     0
  0
BLOCK_RECORD
  5
29D
330
1
100
AcDbSymbolTableRecord
100
AcDbBlockTableRecord
  2
AVAILABLE WELS 4_5_6
340
0
 70
     0
280
     1
281
     0
  0
BLOCK_RECORD
  5
2A1
330
1
100
AcDbSymbolTableRecord
100
AcDbBlockTableRecord
  2
CENTRE STICKER
340
0
 70
     0
280
     1
281
     0
  0
BLOCK_RECORD
  5
2A6
330
1
100
AcDbSymbolTableRecord
100
AcDbBlockTableRecord
  2
GREASE
340
0
 70
     0
280
     1
281
     0
  0
BLOCK_RECORD
  5
2AB
330
1
100
AcDbSymbolTableRecord
100
AcDbBlockTableRecord
  2
J_VALVE
340
0
 70
     0
280
     1
281
     0
  0
BLOCK_RECORD
  5
2AF
330
1
100
AcDbSymbolTableRecord
100
AcDbBlockTableRecord
  2
J_VALVE 3_4 TURN SECURE FIT NO HOLE DETAIL
340
0
 70
     0
280
     1
281
     0
  0
BLOCK_RECORD
  5
2B3
330
1
100
AcDbSymbolTableRecord
100
AcDbBlockTableRecord
  2
J_VALVE 3_4 TURN SECURE FIT SPOUT ONLY
340
0
 70
     0
280
     1
281
     0
  0
BLOCK_RECORD
  5
2B7
330
1
100
AcDbSymbolTableRecord
100
AcDbBlockTableRecord
  2
J_VALVE 3_4 TURN SECURE FIT TAP ONLY
340
0
 70
     0
280
     1
281
     0
  0
BLOCK_RECORD
  5
2BB
330
1
100
AcDbSymbolTableRecord
100
AcDbBlockTableRecord
  2
J_VALVE 3_4 TURN SPOUT ONLY
340
0
 70
     0
280
     1
281
     0
  0
BLOCK_RECORD
  5
2BF
330
1
100
AcDbSymbolTableRecord
100
AcDbBlockTableRecord
  2
J_VALVE 3_4 TURN TAP ONLY
340
0
 70
     0
280
     1
281
     0
  0
BLOCK_RECORD
  5
2C3
330
1
100
AcDbSymbolTableRecord
100
AcDbBlockTableRecord
  2
J_VALVE NO HOLE DETAIL
340
0
 70
     0
280
     1
281
     0
  0
BLOCK_RECORD
  5
2C7
330
1
100
AcDbSymbolTableRecord
100
AcDbBlockTableRecord
  2
J_VALVE SPOUT ONLY
340
0
 70
     0
280
     1
281
     0
  0
BLOCK_RECORD
  5
2CB
330
1
100
AcDbSymbolTableRecord
100
AcDbBlockTableRecord
  2
J_VALVE STD 3_4 TURN
340
0
 70
     0
280
     1
281
     0
  0
BLOCK_RECORD
  5
2CF
330
1
100
AcDbSymbolTableRecord
100
AcDbBlockTableRecord
  2
J_VALVE STD 3_4 TURN NO HOLE DETAIL
340
0
 70
     0
280
     1
281
     0
  0
BLOCK_RECORD
  5
2D3
330
1
100
AcDbSymbolTableRecord
100
AcDbBlockTableRecord
  2
J_VALVE STD 3_4 TURN SECURE FIT
340
0
 70
     0
280
     1
281
     0
  0
BLOCK_RECORD
  5
2D7
330
1
100
AcDbSymbolTableRecord
100
AcDbBlockTableRecord
  2
J_VALVE STD 3_4 TURN SECURE FIT NO HOLE DETAIL
340
0
 70
     0
280
     1
281
     0
  0
BLOCK_RECORD
  5
2DB
330
1
100
AcDbSymbolTableRecord
100
AcDbBlockTableRecord
  2
J_VALVE TAP ONLY
340
0
 70
     0
280
     1
281
     0
  0
BLOCK_RECORD
  5
2DF
330
1
100
AcDbSymbolTableRecord
100
AcDbBlockTableRecord
  2
Koh characteristic
340
0
 70
     0
280
     1
281
     0
  0
BLOCK_RECORD
  5
2EB
330
1
100
AcDbSymbolTableRecord
100
AcDbBlockTableRecord
  2
NOTE 001
340
0
 70
     0
280
     1
281
     0
  0
BLOCK_RECORD
  5
2F7
330
1
100
AcDbSymbolTableRecord
100
AcDbBlockTableRecord
  2
PRESSURE AND TEMP
340
0
 70
     0
280
     1
281
     0
  0
BLOCK_RECORD
  5
2FB
330
1
100
AcDbSymbolTableRecord
100
AcDbBlockTableRecord
  2
PRESSURE AND TEMP ONLY
340
0
 70
     0
280
     1
281
     0
  0
BLOCK_RECORD
  5
2FF
330
1
100
AcDbSymbolTableRecord
100
AcDbBlockTableRecord
  2
PRESSURE AND TEMP ONLY NO HOSE
340
0
 70
     0
280
     1
281
     0
  0
BLOCK_RECORD
  5
303
330
1
100
AcDbSymbolTableRecord
100
AcDbBlockTableRecord
  2
PRESSURE AND TEMP_LASER-ETCHED
340
0
 70
     0
280
     1
281
     0
  0
BLOCK_RECORD
  5
307
330
1
100
AcDbSymbolTableRecord
100
AcDbBlockTableRecord
  2
PRESSURE AND TEMP_LASER-ETCHED NO HOSE
340
0
 70
     0
280
     1
281
     0
  0
BLOCK_RECORD
  5
30B
330
1
100
AcDbSymbolTableRecord
100
AcDbBlockTableRecord
  2
QUOTATION ONLY
340
0
 70
     0
280
     1
281
     0
  0
BLOCK_RECORD
  5
30F
330
1
100
AcDbSymbolTableRecord
100
AcDbBlockTableRecord
  2
Quote Only
340
0
 70
     0
280
     1
281
     0
  0
BLOCK_RECORD
  5
313
330
1
100
AcDbSymbolTableRecord
100
AcDbBlockTableRecord
  2
SCREW-IN _ TURNS
340
0
 70
     0
280
     1
281
     0
  0
BLOCK_RECORD
  5
319
330
1
100
AcDbSymbolTableRecord
100
AcDbBlockTableRecord
  2
THREAD RETAINER
340
0
 70
     0
280
     1
281
     0
  0
BLOCK_RECORD
  5
335
330
1
100
AcDbSymbolTableRecord
100
AcDbBlockTableRecord
  2
THREAD RETAINER H
340
0
 70
     0
280
     1
281
     0
  0
BLOCK_RECORD
  5
351
330
1
100
AcDbSymbolTableRecord
100
AcDbBlockTableRecord
  2
TIGHTEN TO
340
0
 70
     0
280
     1
281
     0
  0
BLOCK_RECORD
  5
357
330
1
100
AcDbSymbolTableRecord
100
AcDbBlockTableRecord
  2
WATERMARK ETCH
340
0
 70
     0
280
     1
281
     0
  0
BLOCK_RECORD
  5
35C
330
1
100
AcDbSymbolTableRecord
100
AcDbBlockTableRecord
  2
WATERMARK STICKER
340
0
 70
     0
280
     1
281
     0
  0
BLOCK_RECORD
  5
361
330
1
100
AcDbSymbolTableRecord
100
AcDbBlockTableRecord
  2
WATERMARK STICKER RH SIDE
340
0
 70
     0
280
     1
281
     0
  0
BLOCK_RECORD
  5
366
330
1
100
AcDbSymbolTableRecord
100
AcDbBlockTableRecord
  2
WELS
340
0
 70
     0
280
     1
281
     0
  0
BLOCK_RECORD
  5
3E8
330
1
100
AcDbSymbolTableRecord
100
AcDbBlockTableRecord
  2
*D51
340
0
 70
     0
280
     1
281
     0
  0
BLOCK_RECORD
  5
4CA
330
1
100
AcDbSymbolTableRecord
100
AcDbBlockTableRecord
  2
*D52
340
0
 70
     0
280
     1
281
     0
  0
BLOCK_RECORD
  5
5AC
330
1
100
AcDbSymbolTableRecord
100
AcDbBlockTableRecord
  2
*D53
340
0
 70
     0
280
     1
281
     0
  0
BLOCK_RECORD
  5
79D
330
1
100
AcDbSymbolTableRecord
100
AcDbBlockTableRecord
  2
*D54
340
0
 70
     0
280
     1
281
     0
  0
BLOCK_RECORD
  5
87F
330
1
100
AcDbSymbolTableRecord
100
AcDbBlockTableRecord
  2
*D55
340
0
 70
     0
280
     1
281
     0
  0
BLOCK_RECORD
  5
967
330
1
100
AcDbSymbolTableRecord
100
AcDbBlockTableRecord
  2
*D56
340
0
 70
     0
280
     1
281
     0
  0
ENDTAB
  0
ENDSEC
  0
SECTION
  2
BLOCKS
  0
BLOCK
  5
6D
330
6C
100
AcDbEntity
  8
0
100
AcDbBlockBegin
  2
*Model_Space
 70
     0
 10
0.0
 20
0.0
 30
0.0
  3
*Model_Space
  1

  0
ENDBLK
  5
6E
330
6C
100
AcDbEntity
  8
0
100
AcDbBlockEnd
  0
BLOCK
  5
69
330
68
100
AcDbEntity
 67
     1
  8
0
100
AcDbBlockBegin
  2
*Paper_Space
 70
     0
 10
0.0
 20
0.0
 30
0.0
  3
*Paper_Space
  1

  0
ENDBLK
  5
6A
330
68
100
AcDbEntity
 67
     1
  8
0
100
AcDbBlockEnd
  0
BLOCK
  5
71
330
70
100
AcDbEntity
 67
     1
  8
0
100
AcDbBlockBegin
  2
*Paper_Space0
 70
     0
 10
0.0
 20
0.0
 30
0.0
  3
*Paper_Space0
  1

  0
ENDBLK
  5
72
330
70
100
AcDbEntity
 67
     1
  8
0
100
AcDbBlockEnd
  0
BLOCK
  5
11D
330
11C
100
AcDbEntity
  8
0
100
AcDbBlockBegin
  2
DatumFilled45
 70
     0
 10
0.0
 20
0.0
 30
0.0
  3
DatumFilled45
  1

  0
POLYLINE
  5
11F
330
11C
100
AcDbEntity
  8
0
 62
     0
100
AcDb2dPolyline
 66
     1
 10
0.0
 20
0.0
 30
0.0
 70
   128
  0
VERTEX
  5
120
330
11F
100
AcDbEntity
  8
0
 62
     0
100
AcDbVertex
100
AcDb2dVertex
 10
0.0
 20
1.0
 30
0.0
  0
VERTEX
  5
121
330
11F
100
AcDbEntity
  8
0
 62
     0
100
AcDbVertex
100
AcDb2dVertex
 10
0.0
 20
-1.0
 30
0.0
  0
VERTEX
  5
123
330
11F
100
AcDbEntity
  8
0
 62
     0
100
AcDbVertex
100
AcDb2dVertex
 10
-1.0
 20
0.0
 30
0.0
  0
VERTEX
  5
124
330
11F
100
AcDbEntity
  8
0
 62
     0
100
AcDbVertex
100
AcDb2dVertex
 10
0.0
 20
1.0
 30
0.0
  0
SEQEND
  5
122
330
11F
100
AcDbEntity
  8
0
 62
     0
  0
SOLID
  5
125
330
11C
100
AcDbEntity
  8
0
 62
     0
100
AcDbTrace
 10
0.0
 20
1.0
 30
0.0
 11
0.0
 21
-1.0
 31
0.0
 12
-1.0
 22
0.0
 32
0.0
 13
0.0
 23
1.0
 33
0.0
  0
ENDBLK
  5
11E
330
11C
100
AcDbEntity
  8
0
100
AcDbBlockEnd
  0
BLOCK
  5
12C
330
127
100
AcDbEntity
  8
0
100
AcDbBlockBegin
  2
_Closed
 70
     0
 10
0.0
 20
0.0
 30
0.0
  3
_Closed
  1

  0
LINE
  5
128
330
127
100
AcDbEntity
  8
0
  6
ByBlock
 62
     0
370
    -2
100
AcDbLine
 10
-1.0
 20
0.1666666666666666
 30
0.0
 11
0.0
 21
0.0
 31
0.0
  0
LINE
  5
129
330
127
100
AcDbEntity
  8
0
  6
ByBlock
 62
     0
370
    -2
100
AcDbLine
 10
0.0
 20
0.0
 30
0.0
 11
-1.0
 21
-0.1666666666666666
 31
0.0
  0
LINE
  5
12A
330
127
100
AcDbEntity
  8
0
  6
ByBlock
 62
     0
370
    -2
100
AcDbLine
 10
-1.0
 20
0.1666666666666666
 30
0.0
 11
-1.0
 21
-0.1666666666666666
 31
0.0
  0
LINE
  5
12B
330
127
100
AcDbEntity
  8
0
  6
ByBlock
 62
     0
370
    -2
100
AcDbLine
 10
0.0
 20
0.0
 30
0.0
 11
-1.0
 21
0.0
 31
0.0
  0
ENDBLK
  5
12D
330
127
100
AcDbEntity
  8
0
100
AcDbBlockEnd
  0
BLOCK
  5
137
330
136
100
AcDbEntity
  8
0
100
AcDbBlockBegin
  2
1_4 TURN STD
 70
     0
 10
0.0
 20
0.0
 30
0.0
  3
1_4 TURN STD
  1

  0
MTEXT
  5
139
330
136
100
AcDbEntity
  8
Symbols(Ram)
 62
     7
100
AcDbMText
 10
-26.10136985778809
 20
23.09343125671148
 30
0.0
 40
2.5
 41
0.0
 46
0.0
 71
     1
 72
     1
  3
Headworks Available:\PCeramic Disc 1/4 Turn (Standard)\P \PMax Pressure: 1000kpa\PMin Pressure: 150kpa\PMax Temp: 80\fAIGDT|b0|i0;\H2.5000;~\fArial|b0|i0;\H2.5000;c\P \PMounting Holes:\P- Taps - Min \fAIGDT|b0|i0;\H2.5000;n\fArial|b0|i0;\H2.5000;32mm
  1
\P- Spout - Min \fAIGDT|b0|i0;\H2.5000;n\fArial|b0|i0;\H2.5000;21mm
  7
STD 2.5 ARIAL
 73
     2
 44
1.146487116813659
1001
ACAD
1000
MTEXTBEGIN
1070
    73
1070
     2
1070
    44
1040
1.146487116813659
1070
    74
1070
     0
1000
MTEXTEND
  0
ENDBLK
  5
138
330
136
100
AcDbEntity
  8
0
100
AcDbBlockEnd
  0
BLOCK
  5
13C
330
13B
100
AcDbEntity
  8
0
100
AcDbBlockBegin
  2
1_4 TURN STD NO HOLE DETAIL
 70
     0
 10
0.0
 20
0.0
 30
0.0
  3
1_4 TURN STD NO HOLE DETAIL
  1

  0
MTEXT
  5
13E
330
13B
100
AcDbEntity
  8
Symbols(Ram)
 62
     7
100
AcDbMText
 10
-26.10136985778809
 20
12.35388394445181
 30
0.0
 40
2.5
 41
0.0
 46
0.0
 71
     1
 72
     1
  1
Headworks Available:\PCeramic Disc 1/4 Turn (Standard)\P \PMax Pressure: 1000kpa\PMin Pressure: 150kpa\PMax Temp: 80\fAIGDT|b0|i0;\H2.5000;~\fArial|b0|i0;\H2.5000;c
  7
STD 2.5 ARIAL
 73
     2
 44
1.03268015384674
1001
ACAD
1000
MTEXTBEGIN
1070
    73
1070
     2
1070
    44
1040
1.03268015384674
1070
    74
1070
     0
1000
MTEXTEND
  0
ENDBLK
  5
13D
330
13B
100
AcDbEntity
  8
0
100
AcDbBlockEnd
  0
BLOCK
  5
140
330
13F
100
AcDbEntity
  8
0
100
AcDbBlockBegin
  2
1_4 TURN STD SECURE FIT
 70
     0
 10
0.0
 20
0.0
 30
0.0
  3
1_4 TURN STD SECURE FIT
  1

  0
MTEXT
  5
142
330
13F
100
AcDbEntity
  8
Symbols(Ram)
 62
     7
100
AcDbMText
 10
-35.61356604099275
 20
27.02768739312887
 30
0.0
 40
2.5
 41
0.0
 46
0.0
 71
     1
 72
     1
  3
Headworks Available:\PCeramic Disc 1/4 Turn (Standard)\P \PHandles are \fArial|b0|i1;\H2.5000;Secure Fit\fArial|b0|i0;\H2.5000; - Fit with key supplied.\P \PMax Pressure: 1000kpa\PMin Pressure: 150kpa\PMax Temp: 80\fAIGDT|b0|i0;\H2.5000;~\fArial|b0|i
  1
0;\H2.5000;c\P \PMounting Holes:\P- Taps - Min \fAIGDT|b0|i0;\H2.5000;n\fArial|b0|i0;\H2.5000;32mm\P- Spout - Min \fAIGDT|b0|i0;\H2.5000;n\fArial|b0|i0;\H2.5000;21mm
  7
STD 2.5 ARIAL
 73
     2
 44
1.1097115278244
1001
ACAD
1000
MTEXTBEGIN
1070
    73
1070
     2
1070
    44
1040
1.1097115278244
1070
    74
1070
     0
1000
MTEXTEND
  0
ENDBLK
  5
141
330
13F
100
AcDbEntity
  8
0
100
AcDbBlockEnd
  0
BLOCK
  5
144
330
143
100
AcDbEntity
  8
0
100
AcDbBlockBegin
  2
1_4 TURN STD SECURE FIT NO HOLE DETAIL
 70
     0
 10
0.0
 20
0.0
 30
0.0
  3
1_4 TURN STD SECURE FIT NO HOLE DETAIL
  1

  0
MTEXT
  5
146
330
143
100
AcDbEntity
  8
Symbols(Ram)
 62
     7
100
AcDbMText
 10
-35.61356604099275
 20
16.28814008086919
 30
0.0
 40
2.5
 41
0.0
 46
0.0
 71
     1
 72
     1
  3
Headworks Available:\PCeramic Disc 1/4 Turn (Standard)\P \PHandles are \fArial|b0|i1;\H2.5000;Secure Fit\fArial|b0|i0;\H2.5000; - Fit with key supplied.\P \PMax Pressure: 1000kpa\PMin Pressure: 150kpa\PMax Temp: 80\fAIGDT|b0|i0;\H2.5000;~\fArial|b0|i
  1
0;\H2.5000;c
  7
STD 2.5 ARIAL
 73
     2
 44
1.007406234741209
1001
ACAD
1000
MTEXTBEGIN
1070
    73
1070
     2
1070
    44
1040
1.007406234741209
1070
    74
1070
     0
1000
MTEXTEND
  0
ENDBLK
  5
145
330
143
100
AcDbEntity
  8
0
100
AcDbBlockEnd
  0
BLOCK
  5
148
330
147
100
AcDbEntity
  8
0
100
AcDbBlockBegin
  2
16 UP
 70
     0
 10
0.0
 20
0.0
 30
0.0
  3
16 UP
  1

  0
LINE
  5
14A
330
147
100
AcDbEntity
  8
Sketch Geometry(Ram)
370
    18
100
AcDbLine
 10
-4.499999999999957
 20
5.0
 30
0.0
 11
-5.999999999999943
 21
5.0
 31
0.0
  0
LINE
  5
14B
330
147
100
AcDbEntity
  8
Sketch Geometry(Ram)
370
    18
100
AcDbLine
 10
-6.49999999999995
 20
5.500000000000007
 30
0.0
 11
-6.49999999999995
 21
7.999999999999988
 31
0.0
  0
LINE
  5
14C
330
147
100
AcDbEntity
  8
Sketch Geometry(Ram)
370
    18
100
AcDbLine
 10
-5.999999999999943
 20
8.499999999999996
 30
0.0
 11
-4.499999999999957
 21
8.499999999999976
 31
0.0
  0
LINE
  5
14D
330
147
100
AcDbEntity
  8
Sketch Geometry(Ram)
370
    18
100
AcDbLine
 10
-3.999999999999949
 20
7.999999999999988
 30
0.0
 11
-3.999999999999949
 21
5.500000000000007
 31
0.0
  0
ARC
  5
14E
330
147
100
AcDbEntity
  8
Sketch Geometry(Ram)
370
    18
100
AcDbCircle
 10
-5.999999999999943
 20
7.999999999999988
 30
0.0
 40
0.5
100
AcDbArc
 50
90.0
 51
180.0
  0
ARC
  5
14F
330
147
100
AcDbEntity
  8
Sketch Geometry(Ram)
370
    18
100
AcDbCircle
 10
-4.499999999999957
 20
7.999999999999988
 30
0.0
 40
0.5
100
AcDbArc
 50
0.0
 51
90.0
  0
ARC
  5
150
330
147
100
AcDbEntity
  8
Sketch Geometry(Ram)
370
    18
100
AcDbCircle
 10
-4.499999999999957
 20
5.500000000000007
 30
0.0
 40
0.5
100
AcDbArc
 50
270.0
 51
0.0
  0
ARC
  5
151
330
147
100
AcDbEntity
  8
Sketch Geometry(Ram)
370
    18
100
AcDbCircle
 10
-5.999999999999943
 20
5.500000000000007
 30
0.0
 40
0.5
100
AcDbArc
 50
180.0
 51
270.0
  0
LINE
  5
152
330
147
100
AcDbEntity
  8
Sketch Geometry(Ram)
370
    18
100
AcDbLine
 10
-2.499999999999964
 20
8.499999999999996
 30
0.0
 11
-0.9999999999999785
 21
8.499999999999976
 31
0.0
  0
ARC
  5
153
330
147
100
AcDbEntity
  8
Sketch Geometry(Ram)
370
    18
100
AcDbCircle
 10
-2.499999999999964
 20
7.999999999999988
 30
0.0
 40
0.5
100
AcDbArc
 50
90.0
 51
180.0
  0
LINE
  5
154
330
147
100
AcDbEntity
  8
Sketch Geometry(Ram)
370
    18
100
AcDbLine
 10
-2.999999999999971
 20
5.500000000000007
 30
0.0
 11
-2.999999999999971
 21
7.999999999999988
 31
0.0
  0
LINE
  5
155
330
147
100
AcDbEntity
  8
Sketch Geometry(Ram)
370
    18
100
AcDbLine
 10
-0.4999999999999716
 20
7.999999999999988
 30
0.0
 11
-0.4999999999999716
 21
5.500000000000007
 31
0.0
  0
ARC
  5
156
330
147
100
AcDbEntity
  8
Sketch Geometry(Ram)
370
    18
100
AcDbCircle
 10
-0.9999999999999785
 20
7.999999999999988
 30
0.0
 40
0.5
100
AcDbArc
 50
0.0
 51
90.0
  0
ARC
  5
157
330
147
100
AcDbEntity
  8
Sketch Geometry(Ram)
370
    18
100
AcDbCircle
 10
-0.9999999999999785
 20
5.500000000000007
 30
0.0
 40
0.5
100
AcDbArc
 50
270.0
 51
0.0
  0
LINE
  5
158
330
147
100
AcDbEntity
  8
Sketch Geometry(Ram)
370
    18
100
AcDbLine
 10
-0.9999999999999785
 20
5.0
 30
0.0
 11
-2.499999999999964
 21
5.0
 31
0.0
  0
ARC
  5
159
330
147
100
AcDbEntity
  8
Sketch Geometry(Ram)
370
    18
100
AcDbCircle
 10
-2.499999999999964
 20
5.500000000000007
 30
0.0
 40
0.5
100
AcDbArc
 50
180.0
 51
270.0
  0
LINE
  5
15A
330
147
100
AcDbEntity
  8
Sketch Geometry(Ram)
370
    18
100
AcDbLine
 10
-5.999999999999943
 20
4.000000000000002
 30
0.0
 11
-4.499999999999957
 21
3.999999999999984
 31
0.0
  0
ARC
  5
15B
330
147
100
AcDbEntity
  8
Sketch Geometry(Ram)
370
    18
100
AcDbCircle
 10
-5.999999999999943
 20
3.499999999999996
 30
0.0
 40
0.5
100
AcDbArc
 50
90.0
 51
180.0
  0
LINE
  5
15C
330
147
100
AcDbEntity
  8
Sketch Geometry(Ram)
370
    18
100
AcDbLine
 10
-6.49999999999995
 20
1.000000000000013
 30
0.0
 11
-6.49999999999995
 21
3.499999999999996
 31
0.0
  0
LINE
  5
15D
330
147
100
AcDbEntity
  8
Sketch Geometry(Ram)
370
    18
100
AcDbLine
 10
-3.999999999999949
 20
3.499999999999996
 30
0.0
 11
-3.999999999999949
 21
1.000000000000013
 31
0.0
  0
ARC
  5
15E
330
147
100
AcDbEntity
  8
Sketch Geometry(Ram)
370
    18
100
AcDbCircle
 10
-4.499999999999957
 20
3.499999999999996
 30
0.0
 40
0.5
100
AcDbArc
 50
0.0
 51
90.0
  0
ARC
  5
15F
330
147
100
AcDbEntity
  8
Sketch Geometry(Ram)
370
    18
100
AcDbCircle
 10
-4.499999999999957
 20
1.000000000000013
 30
0.0
 40
0.5
100
AcDbArc
 50
270.0
 51
0.0
  0
LINE
  5
160
330
147
100
AcDbEntity
  8
Sketch Geometry(Ram)
370
    18
100
AcDbLine
 10
-4.499999999999957
 20
0.5000000000000071
 30
0.0
 11
-5.999999999999943
 21
0.5000000000000071
 31
0.0
  0
ARC
  5
161
330
147
100
AcDbEntity
  8
Sketch Geometry(Ram)
370
    18
100
AcDbCircle
 10
-5.999999999999943
 20
1.000000000000013
 30
0.0
 40
0.5
100
AcDbArc
 50
180.0
 51
270.0
  0
LINE
  5
162
330
147
100
AcDbEntity
  8
Sketch Geometry(Ram)
370
    18
100
AcDbLine
 10
-2.499999999999964
 20
4.000000000000002
 30
0.0
 11
-0.9999999999999785
 21
3.999999999999984
 31
0.0
  0
ARC
  5
163
330
147
100
AcDbEntity
  8
Sketch Geometry(Ram)
370
    18
100
AcDbCircle
 10
-2.499999999999964
 20
3.499999999999996
 30
0.0
 40
0.5
100
AcDbArc
 50
90.0
 51
180.0
  0
LINE
  5
164
330
147
100
AcDbEntity
  8
Sketch Geometry(Ram)
370
    18
100
AcDbLine
 10
-2.999999999999971
 20
1.000000000000013
 30
0.0
 11
-2.999999999999971
 21
3.499999999999996
 31
0.0
  0
LINE
  5
165
330
147
100
AcDbEntity
  8
Sketch Geometry(Ram)
370
    18
100
AcDbLine
 10
-0.4999999999999716
 20
3.499999999999996
 30
0.0
 11
-0.4999999999999716
 21
1.000000000000013
 31
0.0
  0
ARC
  5
166
330
147
100
AcDbEntity
  8
Sketch Geometry(Ram)
370
    18
100
AcDbCircle
 10
-0.9999999999999785
 20
3.499999999999996
 30
0.0
 40
0.5
100
AcDbArc
 50
0.0
 51
90.0
  0
ARC
  5
167
330
147
100
AcDbEntity
  8
Sketch Geometry(Ram)
370
    18
100
AcDbCircle
 10
-0.9999999999999785
 20
1.000000000000013
 30
0.0
 40
0.5
100
AcDbArc
 50
270.0
 51
0.0
  0
LINE
  5
168
330
147
100
AcDbEntity
  8
Sketch Geometry(Ram)
370
    18
100
AcDbLine
 10
-0.9999999999999785
 20
0.5000000000000071
 30
0.0
 11
-2.499999999999964
 21
0.5000000000000071
 31
0.0
  0
ARC
  5
169
330
147
100
AcDbEntity
  8
Sketch Geometry(Ram)
370
    18
100
AcDbCircle
 10
-2.499999999999964
 20
1.000000000000013
 30
0.0
 40
0.5
100
AcDbArc
 50
180.0
 51
270.0
  0
LINE
  5
16A
330
147
100
AcDbEntity
  8
Sketch Geometry(Ram)
370
    18
100
AcDbLine
 10
1.000000000000013
 20
8.499999999999996
 30
0.0
 11
2.5
 21
8.499999999999976
 31
0.0
  0
ARC
  5
16B
330
147
100
AcDbEntity
  8
Sketch Geometry(Ram)
370
    18
100
AcDbCircle
 10
1.000000000000013
 20
7.999999999999988
 30
0.0
 40
0.5
100
AcDbArc
 50
90.0
 51
180.0
  0
LINE
  5
16C
330
147
100
AcDbEntity
  8
Sketch Geometry(Ram)
370
    18
100
AcDbLine
 10
0.5000000000000071
 20
5.500000000000007
 30
0.0
 11
0.5000000000000071
 21
7.999999999999988
 31
0.0
  0
LINE
  5
16D
330
147
100
AcDbEntity
  8
Sketch Geometry(Ram)
370
    18
100
AcDbLine
 10
3.000000000000006
 20
7.999999999999988
 30
0.0
 11
3.000000000000006
 21
5.500000000000007
 31
0.0
  0
ARC
  5
16E
330
147
100
AcDbEntity
  8
Sketch Geometry(Ram)
370
    18
100
AcDbCircle
 10
2.5
 20
7.999999999999988
 30
0.0
 40
0.5
100
AcDbArc
 50
0.0
 51
90.0
  0
ARC
  5
16F
330
147
100
AcDbEntity
  8
Sketch Geometry(Ram)
370
    18
100
AcDbCircle
 10
2.5
 20
5.500000000000007
 30
0.0
 40
0.5
100
AcDbArc
 50
270.0
 51
0.0
  0
LINE
  5
170
330
147
100
AcDbEntity
  8
Sketch Geometry(Ram)
370
    18
100
AcDbLine
 10
2.5
 20
5.0
 30
0.0
 11
1.000000000000013
 21
5.0
 31
0.0
  0
ARC
  5
171
330
147
100
AcDbEntity
  8
Sketch Geometry(Ram)
370
    18
100
AcDbCircle
 10
1.000000000000013
 20
5.500000000000007
 30
0.0
 40
0.5
100
AcDbArc
 50
180.0
 51
270.0
  0
LINE
  5
172
330
147
100
AcDbEntity
  8
Sketch Geometry(Ram)
370
    18
100
AcDbLine
 10
1.000000000000013
 20
4.000000000000002
 30
0.0
 11
2.5
 21
3.999999999999984
 31
0.0
  0
ARC
  5
173
330
147
100
AcDbEntity
  8
Sketch Geometry(Ram)
370
    18
100
AcDbCircle
 10
1.000000000000013
 20
3.499999999999996
 30
0.0
 40
0.5
100
AcDbArc
 50
90.0
 51
180.0
  0
LINE
  5
174
330
147
100
AcDbEntity
  8
Sketch Geometry(Ram)
370
    18
100
AcDbLine
 10
0.5000000000000071
 20
1.000000000000013
 30
0.0
 11
0.5000000000000071
 21
3.499999999999996
 31
0.0
  0
LINE
  5
175
330
147
100
AcDbEntity
  8
Sketch Geometry(Ram)
370
    18
100
AcDbLine
 10
3.000000000000006
 20
3.499999999999996
 30
0.0
 11
3.000000000000006
 21
1.000000000000013
 31
0.0
  0
ARC
  5
176
330
147
100
AcDbEntity
  8
Sketch Geometry(Ram)
370
    18
100
AcDbCircle
 10
2.5
 20
3.499999999999996
 30
0.0
 40
0.5
100
AcDbArc
 50
0.0
 51
90.0
  0
ARC
  5
177
330
147
100
AcDbEntity
  8
Sketch Geometry(Ram)
370
    18
100
AcDbCircle
 10
2.5
 20
1.000000000000013
 30
0.0
 40
0.5
100
AcDbArc
 50
270.0
 51
0.0
  0
LINE
  5
178
330
147
100
AcDbEntity
  8
Sketch Geometry(Ram)
370
    18
100
AcDbLine
 10
2.5
 20
0.5000000000000071
 30
0.0
 11
1.000000000000013
 21
0.5000000000000071
 31
0.0
  0
ARC
  5
179
330
147
100
AcDbEntity
  8
Sketch Geometry(Ram)
370
    18
100
AcDbCircle
 10
1.000000000000013
 20
1.000000000000013
 30
0.0
 40
0.5
100
AcDbArc
 50
180.0
 51
270.0
  0
LINE
  5
17A
330
147
100
AcDbEntity
  8
Sketch Geometry(Ram)
370
    18
100
AcDbLine
 10
4.499999999999992
 20
8.499999999999996
 30
0.0
 11
5.999999999999976
 21
8.499999999999976
 31
0.0
  0
ARC
  5
17B
330
147
100
AcDbEntity
  8
Sketch Geometry(Ram)
370
    18
100
AcDbCircle
 10
4.499999999999992
 20
7.999999999999988
 30
0.0
 40
0.5
100
AcDbArc
 50
90.0
 51
180.0
  0
LINE
  5
17C
330
147
100
AcDbEntity
  8
Sketch Geometry(Ram)
370
    18
100
AcDbLine
 10
3.999999999999984
 20
5.500000000000007
 30
0.0
 11
3.999999999999984
 21
7.999999999999988
 31
0.0
  0
LINE
  5
17D
330
147
100
AcDbEntity
  8
Sketch Geometry(Ram)
370
    18
100
AcDbLine
 10
6.499999999999985
 20
7.999999999999988
 30
0.0
 11
6.499999999999985
 21
5.500000000000007
 31
0.0
  0
ARC
  5
17E
330
147
100
AcDbEntity
  8
Sketch Geometry(Ram)
370
    18
100
AcDbCircle
 10
5.999999999999976
 20
7.999999999999988
 30
0.0
 40
0.5
100
AcDbArc
 50
0.0
 51
90.0
  0
ARC
  5
17F
330
147
100
AcDbEntity
  8
Sketch Geometry(Ram)
370
    18
100
AcDbCircle
 10
5.999999999999976
 20
5.500000000000007
 30
0.0
 40
0.5
100
AcDbArc
 50
270.0
 51
0.0
  0
LINE
  5
180
330
147
100
AcDbEntity
  8
Sketch Geometry(Ram)
370
    18
100
AcDbLine
 10
5.999999999999976
 20
5.0
 30
0.0
 11
4.499999999999992
 21
5.0
 31
0.0
  0
ARC
  5
181
330
147
100
AcDbEntity
  8
Sketch Geometry(Ram)
370
    18
100
AcDbCircle
 10
4.499999999999992
 20
5.500000000000007
 30
0.0
 40
0.5
100
AcDbArc
 50
180.0
 51
270.0
  0
LINE
  5
182
330
147
100
AcDbEntity
  8
Sketch Geometry(Ram)
370
    18
100
AcDbLine
 10
4.499999999999992
 20
4.000000000000002
 30
0.0
 11
5.999999999999976
 21
3.999999999999984
 31
0.0
  0
ARC
  5
183
330
147
100
AcDbEntity
  8
Sketch Geometry(Ram)
370
    18
100
AcDbCircle
 10
4.499999999999992
 20
3.499999999999996
 30
0.0
 40
0.5
100
AcDbArc
 50
90.0
 51
180.0
  0
LINE
  5
184
330
147
100
AcDbEntity
  8
Sketch Geometry(Ram)
370
    18
100
AcDbLine
 10
3.999999999999984
 20
1.000000000000013
 30
0.0
 11
3.999999999999984
 21
3.499999999999996
 31
0.0
  0
LINE
  5
185
330
147
100
AcDbEntity
  8
Sketch Geometry(Ram)
370
    18
100
AcDbLine
 10
6.499999999999985
 20
3.499999999999996
 30
0.0
 11
6.499999999999985
 21
1.000000000000013
 31
0.0
  0
ARC
  5
186
330
147
100
AcDbEntity
  8
Sketch Geometry(Ram)
370
    18
100
AcDbCircle
 10
5.999999999999976
 20
3.499999999999996
 30
0.0
 40
0.5
100
AcDbArc
 50
0.0
 51
90.0
  0
ARC
  5
187
330
147
100
AcDbEntity
  8
Sketch Geometry(Ram)
370
    18
100
AcDbCircle
 10
5.999999999999976
 20
1.000000000000013
 30
0.0
 40
0.5
100
AcDbArc
 50
270.0
 51
0.0
  0
LINE
  5
188
330
147
100
AcDbEntity
  8
Sketch Geometry(Ram)
370
    18
100
AcDbLine
 10
5.999999999999976
 20
0.5000000000000071
 30
0.0
 11
4.499999999999992
 21
0.5000000000000071
 31
0.0
  0
ARC
  5
189
330
147
100
AcDbEntity
  8
Sketch Geometry(Ram)
370
    18
100
AcDbCircle
 10
4.499999999999992
 20
1.000000000000013
 30
0.0
 40
0.5
100
AcDbArc
 50
180.0
 51
270.0
  0
LINE
  5
18A
330
147
100
AcDbEntity
  8
Sketch Geometry(Ram)
370
    18
100
AcDbLine
 10
-5.999999999999943
 20
-0.4999999999999895
 30
0.0
 11
-4.499999999999957
 21
-0.5000000000000071
 31
0.0
  0
ARC
  5
18B
330
147
100
AcDbEntity
  8
Sketch Geometry(Ram)
370
    18
100
AcDbCircle
 10
-5.999999999999943
 20
-0.9999999999999964
 30
0.0
 40
0.5
100
AcDbArc
 50
90.0
 51
180.0
  0
LINE
  5
18C
330
147
100
AcDbEntity
  8
Sketch Geometry(Ram)
370
    18
100
AcDbLine
 10
-6.49999999999995
 20
-3.499999999999977
 30
0.0
 11
-6.49999999999995
 21
-0.9999999999999964
 31
0.0
  0
LINE
  5
18D
330
147
100
AcDbEntity
  8
Sketch Geometry(Ram)
370
    18
100
AcDbLine
 10
-3.999999999999949
 20
-0.9999999999999964
 30
0.0
 11
-3.999999999999949
 21
-3.499999999999977
 31
0.0
  0
ARC
  5
18E
330
147
100
AcDbEntity
  8
Sketch Geometry(Ram)
370
    18
100
AcDbCircle
 10
-4.499999999999957
 20
-0.9999999999999964
 30
0.0
 40
0.5
100
AcDbArc
 50
0.0
 51
90.0
  0
ARC
  5
18F
330
147
100
AcDbEntity
  8
Sketch Geometry(Ram)
370
    18
100
AcDbCircle
 10
-4.499999999999957
 20
-3.499999999999977
 30
0.0
 40
0.5
100
AcDbArc
 50
270.0
 51
0.0
  0
LINE
  5
190
330
147
100
AcDbEntity
  8
Sketch Geometry(Ram)
370
    18
100
AcDbLine
 10
-4.499999999999957
 20
-3.999999999999984
 30
0.0
 11
-5.999999999999943
 21
-3.999999999999984
 31
0.0
  0
ARC
  5
191
330
147
100
AcDbEntity
  8
Sketch Geometry(Ram)
370
    18
100
AcDbCircle
 10
-5.999999999999943
 20
-3.499999999999977
 30
0.0
 40
0.5
100
AcDbArc
 50
180.0
 51
270.0
  0
LINE
  5
192
330
147
100
AcDbEntity
  8
Sketch Geometry(Ram)
370
    18
100
AcDbLine
 10
-2.499999999999964
 20
-0.4999999999999895
 30
0.0
 11
-0.9999999999999785
 21
-0.5000000000000071
 31
0.0
  0
ARC
  5
193
330
147
100
AcDbEntity
  8
Sketch Geometry(Ram)
370
    18
100
AcDbCircle
 10
-2.499999999999964
 20
-0.9999999999999964
 30
0.0
 40
0.5
100
AcDbArc
 50
90.0
 51
180.0
  0
LINE
  5
194
330
147
100
AcDbEntity
  8
Sketch Geometry(Ram)
370
    18
100
AcDbLine
 10
-2.999999999999971
 20
-3.499999999999977
 30
0.0
 11
-2.999999999999971
 21
-0.9999999999999964
 31
0.0
  0
LINE
  5
195
330
147
100
AcDbEntity
  8
Sketch Geometry(Ram)
370
    18
100
AcDbLine
 10
-0.4999999999999716
 20
-0.9999999999999964
 30
0.0
 11
-0.4999999999999716
 21
-3.499999999999977
 31
0.0
  0
ARC
  5
196
330
147
100
AcDbEntity
  8
Sketch Geometry(Ram)
370
    18
100
AcDbCircle
 10
-0.9999999999999785
 20
-0.9999999999999964
 30
0.0
 40
0.5
100
AcDbArc
 50
0.0
 51
90.0
  0
ARC
  5
197
330
147
100
AcDbEntity
  8
Sketch Geometry(Ram)
370
    18
100
AcDbCircle
 10
-0.9999999999999785
 20
-3.499999999999977
 30
0.0
 40
0.5
100
AcDbArc
 50
270.0
 51
0.0
  0
LINE
  5
198
330
147
100
AcDbEntity
  8
Sketch Geometry(Ram)
370
    18
100
AcDbLine
 10
-0.9999999999999785
 20
-3.999999999999984
 30
0.0
 11
-2.499999999999964
 21
-3.999999999999984
 31
0.0
  0
ARC
  5
199
330
147
100
AcDbEntity
  8
Sketch Geometry(Ram)
370
    18
100
AcDbCircle
 10
-2.499999999999964
 20
-3.499999999999977
 30
0.0
 40
0.5
100
AcDbArc
 50
180.0
 51
270.0
  0
LINE
  5
19A
330
147
100
AcDbEntity
  8
Sketch Geometry(Ram)
370
    18
100
AcDbLine
 10
1.000000000000013
 20
-0.4999999999999895
 30
0.0
 11
2.5
 21
-0.5000000000000071
 31
0.0
  0
ARC
  5
19B
330
147
100
AcDbEntity
  8
Sketch Geometry(Ram)
370
    18
100
AcDbCircle
 10
1.000000000000013
 20
-0.9999999999999964
 30
0.0
 40
0.5
100
AcDbArc
 50
90.0
 51
180.0
  0
LINE
  5
19C
330
147
100
AcDbEntity
  8
Sketch Geometry(Ram)
370
    18
100
AcDbLine
 10
0.5000000000000071
 20
-3.499999999999977
 30
0.0
 11
0.5000000000000071
 21
-0.9999999999999964
 31
0.0
  0
LINE
  5
19D
330
147
100
AcDbEntity
  8
Sketch Geometry(Ram)
370
    18
100
AcDbLine
 10
3.000000000000006
 20
-0.9999999999999964
 30
0.0
 11
3.000000000000006
 21
-3.499999999999977
 31
0.0
  0
ARC
  5
19E
330
147
100
AcDbEntity
  8
Sketch Geometry(Ram)
370
    18
100
AcDbCircle
 10
2.5
 20
-0.9999999999999964
 30
0.0
 40
0.5
100
AcDbArc
 50
0.0
 51
90.0
  0
ARC
  5
19F
330
147
100
AcDbEntity
  8
Sketch Geometry(Ram)
370
    18
100
AcDbCircle
 10
2.5
 20
-3.499999999999977
 30
0.0
 40
0.5
100
AcDbArc
 50
270.0
 51
0.0
  0
LINE
  5
1A0
330
147
100
AcDbEntity
  8
Sketch Geometry(Ram)
370
    18
100
AcDbLine
 10
2.5
 20
-3.999999999999984
 30
0.0
 11
1.000000000000013
 21
-3.999999999999984
 31
0.0
  0
ARC
  5
1A1
330
147
100
AcDbEntity
  8
Sketch Geometry(Ram)
370
    18
100
AcDbCircle
 10
1.000000000000013
 20
-3.499999999999977
 30
0.0
 40
0.5
100
AcDbArc
 50
180.0
 51
270.0
  0
LINE
  5
1A2
330
147
100
AcDbEntity
  8
Sketch Geometry(Ram)
370
    18
100
AcDbLine
 10
4.499999999999992
 20
-0.4999999999999895
 30
0.0
 11
5.999999999999976
 21
-0.5000000000000071
 31
0.0
  0
ARC
  5
1A3
330
147
100
AcDbEntity
  8
Sketch Geometry(Ram)
370
    18
100
AcDbCircle
 10
4.499999999999992
 20
-0.9999999999999964
 30
0.0
 40
0.5
100
AcDbArc
 50
90.0
 51
180.0
  0
LINE
  5
1A4
330
147
100
AcDbEntity
  8
Sketch Geometry(Ram)
370
    18
100
AcDbLine
 10
3.999999999999984
 20
-3.499999999999977
 30
0.0
 11
3.999999999999984
 21
-0.9999999999999964
 31
0.0
  0
LINE
  5
1A5
330
147
100
AcDbEntity
  8
Sketch Geometry(Ram)
370
    18
100
AcDbLine
 10
6.499999999999985
 20
-0.9999999999999964
 30
0.0
 11
6.499999999999985
 21
-3.499999999999977
 31
0.0
  0
ARC
  5
1A6
330
147
100
AcDbEntity
  8
Sketch Geometry(Ram)
370
    18
100
AcDbCircle
 10
5.999999999999976
 20
-0.9999999999999964
 30
0.0
 40
0.5
100
AcDbArc
 50
0.0
 51
90.0
  0
ARC
  5
1A7
330
147
100
AcDbEntity
  8
Sketch Geometry(Ram)
370
    18
100
AcDbCircle
 10
5.999999999999976
 20
-3.499999999999977
 30
0.0
 40
0.5
100
AcDbArc
 50
270.0
 51
0.0
  0
LINE
  5
1A8
330
147
100
AcDbEntity
  8
Sketch Geometry(Ram)
370
    18
100
AcDbLine
 10
5.999999999999976
 20
-3.999999999999984
 30
0.0
 11
4.499999999999992
 21
-3.999999999999984
 31
0.0
  0
ARC
  5
1A9
330
147
100
AcDbEntity
  8
Sketch Geometry(Ram)
370
    18
100
AcDbCircle
 10
4.499999999999992
 20
-3.499999999999977
 30
0.0
 40
0.5
100
AcDbArc
 50
180.0
 51
270.0
  0
LINE
  5
1AA
330
147
100
AcDbEntity
  8
Sketch Geometry(Ram)
370
    18
100
AcDbLine
 10
-5.999999999999943
 20
-4.999999999999981
 30
0.0
 11
-4.499999999999957
 21
-5.0
 31
0.0
  0
ARC
  5
1AB
330
147
100
AcDbEntity
  8
Sketch Geometry(Ram)
370
    18
100
AcDbCircle
 10
-5.999999999999943
 20
-5.499999999999988
 30
0.0
 40
0.5
100
AcDbArc
 50
90.0
 51
180.0
  0
LINE
  5
1AC
330
147
100
AcDbEntity
  8
Sketch Geometry(Ram)
370
    18
100
AcDbLine
 10
-6.49999999999995
 20
-7.999999999999971
 30
0.0
 11
-6.49999999999995
 21
-5.499999999999988
 31
0.0
  0
LINE
  5
1AD
330
147
100
AcDbEntity
  8
Sketch Geometry(Ram)
370
    18
100
AcDbLine
 10
-3.999999999999949
 20
-5.499999999999988
 30
0.0
 11
-3.999999999999949
 21
-7.999999999999971
 31
0.0
  0
ARC
  5
1AE
330
147
100
AcDbEntity
  8
Sketch Geometry(Ram)
370
    18
100
AcDbCircle
 10
-4.499999999999957
 20
-5.499999999999988
 30
0.0
 40
0.5
100
AcDbArc
 50
0.0
 51
90.0
  0
ARC
  5
1AF
330
147
100
AcDbEntity
  8
Sketch Geometry(Ram)
370
    18
100
AcDbCircle
 10
-4.499999999999957
 20
-7.999999999999971
 30
0.0
 40
0.5
100
AcDbArc
 50
270.0
 51
0.0
  0
LINE
  5
1B0
330
147
100
AcDbEntity
  8
Sketch Geometry(Ram)
370
    18
100
AcDbLine
 10
-4.499999999999957
 20
-8.499999999999976
 30
0.0
 11
-5.999999999999943
 21
-8.499999999999976
 31
0.0
  0
ARC
  5
1B1
330
147
100
AcDbEntity
  8
Sketch Geometry(Ram)
370
    18
100
AcDbCircle
 10
-5.999999999999943
 20
-7.999999999999971
 30
0.0
 40
0.5
100
AcDbArc
 50
180.0
 51
270.0
  0
LINE
  5
1B2
330
147
100
AcDbEntity
  8
Sketch Geometry(Ram)
370
    18
100
AcDbLine
 10
-2.499999999999964
 20
-4.999999999999981
 30
0.0
 11
-0.9999999999999785
 21
-5.0
 31
0.0
  0
ARC
  5
1B3
330
147
100
AcDbEntity
  8
Sketch Geometry(Ram)
370
    18
100
AcDbCircle
 10
-2.499999999999964
 20
-5.499999999999988
 30
0.0
 40
0.5
100
AcDbArc
 50
90.0
 51
180.0
  0
LINE
  5
1B4
330
147
100
AcDbEntity
  8
Sketch Geometry(Ram)
370
    18
100
AcDbLine
 10
-2.999999999999971
 20
-7.999999999999971
 30
0.0
 11
-2.999999999999971
 21
-5.499999999999988
 31
0.0
  0
LINE
  5
1B5
330
147
100
AcDbEntity
  8
Sketch Geometry(Ram)
370
    18
100
AcDbLine
 10
-0.4999999999999716
 20
-5.499999999999988
 30
0.0
 11
-0.4999999999999716
 21
-7.999999999999971
 31
0.0
  0
ARC
  5
1B6
330
147
100
AcDbEntity
  8
Sketch Geometry(Ram)
370
    18
100
AcDbCircle
 10
-0.9999999999999785
 20
-5.499999999999988
 30
0.0
 40
0.5
100
AcDbArc
 50
0.0
 51
90.0
  0
ARC
  5
1B7
330
147
100
AcDbEntity
  8
Sketch Geometry(Ram)
370
    18
100
AcDbCircle
 10
-0.9999999999999785
 20
-7.999999999999971
 30
0.0
 40
0.5
100
AcDbArc
 50
270.0
 51
0.0
  0
LINE
  5
1B8
330
147
100
AcDbEntity
  8
Sketch Geometry(Ram)
370
    18
100
AcDbLine
 10
-0.9999999999999785
 20
-8.499999999999976
 30
0.0
 11
-2.499999999999964
 21
-8.499999999999976
 31
0.0
  0
ARC
  5
1B9
330
147
100
AcDbEntity
  8
Sketch Geometry(Ram)
370
    18
100
AcDbCircle
 10
-2.499999999999964
 20
-7.999999999999971
 30
0.0
 40
0.5
100
AcDbArc
 50
180.0
 51
270.0
  0
LINE
  5
1BA
330
147
100
AcDbEntity
  8
Sketch Geometry(Ram)
370
    18
100
AcDbLine
 10
1.000000000000013
 20
-4.999999999999981
 30
0.0
 11
2.5
 21
-5.0
 31
0.0
  0
ARC
  5
1BB
330
147
100
AcDbEntity
  8
Sketch Geometry(Ram)
370
    18
100
AcDbCircle
 10
1.000000000000013
 20
-5.499999999999988
 30
0.0
 40
0.5
100
AcDbArc
 50
90.0
 51
180.0
  0
LINE
  5
1BC
330
147
100
AcDbEntity
  8
Sketch Geometry(Ram)
370
    18
100
AcDbLine
 10
0.5000000000000071
 20
-7.999999999999971
 30
0.0
 11
0.5000000000000071
 21
-5.499999999999988
 31
0.0
  0
LINE
  5
1BD
330
147
100
AcDbEntity
  8
Sketch Geometry(Ram)
370
    18
100
AcDbLine
 10
3.000000000000006
 20
-5.499999999999988
 30
0.0
 11
3.000000000000006
 21
-7.999999999999971
 31
0.0
  0
ARC
  5
1BE
330
147
100
AcDbEntity
  8
Sketch Geometry(Ram)
370
    18
100
AcDbCircle
 10
2.5
 20
-5.499999999999988
 30
0.0
 40
0.5
100
AcDbArc
 50
0.0
 51
90.0
  0
ARC
  5
1BF
330
147
100
AcDbEntity
  8
Sketch Geometry(Ram)
370
    18
100
AcDbCircle
 10
2.5
 20
-7.999999999999971
 30
0.0
 40
0.5
100
AcDbArc
 50
270.0
 51
0.0
  0
LINE
  5
1C0
330
147
100
AcDbEntity
  8
Sketch Geometry(Ram)
370
    18
100
AcDbLine
 10
2.5
 20
-8.499999999999976
 30
0.0
 11
1.000000000000013
 21
-8.499999999999976
 31
0.0
  0
ARC
  5
1C1
330
147
100
AcDbEntity
  8
Sketch Geometry(Ram)
370
    18
100
AcDbCircle
 10
1.000000000000013
 20
-7.999999999999971
 30
0.0
 40
0.5
100
AcDbArc
 50
180.0
 51
270.0
  0
LINE
  5
1C2
330
147
100
AcDbEntity
  8
Sketch Geometry(Ram)
370
    18
100
AcDbLine
 10
4.499999999999992
 20
-4.999999999999981
 30
0.0
 11
5.999999999999976
 21
-5.0
 31
0.0
  0
ARC
  5
1C3
330
147
100
AcDbEntity
  8
Sketch Geometry(Ram)
370
    18
100
AcDbCircle
 10
4.499999999999992
 20
-5.499999999999988
 30
0.0
 40
0.5
100
AcDbArc
 50
90.0
 51
180.0
  0
LINE
  5
1C4
330
147
100
AcDbEntity
  8
Sketch Geometry(Ram)
370
    18
100
AcDbLine
 10
3.999999999999984
 20
-7.999999999999971
 30
0.0
 11
3.999999999999984
 21
-5.499999999999988
 31
0.0
  0
LINE
  5
1C5
330
147
100
AcDbEntity
  8
Sketch Geometry(Ram)
370
    18
100
AcDbLine
 10
6.499999999999985
 20
-5.499999999999988
 30
0.0
 11
6.499999999999985
 21
-7.999999999999971
 31
0.0
  0
ARC
  5
1C6
330
147
100
AcDbEntity
  8
Sketch Geometry(Ram)
370
    18
100
AcDbCircle
 10
5.999999999999976
 20
-5.499999999999988
 30
0.0
 40
0.5
100
AcDbArc
 50
0.0
 51
90.0
  0
ARC
  5
1C7
330
147
100
AcDbEntity
  8
Sketch Geometry(Ram)
370
    18
100
AcDbCircle
 10
5.999999999999976
 20
-7.999999999999971
 30
0.0
 40
0.5
100
AcDbArc
 50
270.0
 51
0.0
  0
LINE
  5
1C8
330
147
100
AcDbEntity
  8
Sketch Geometry(Ram)
370
    18
100
AcDbLine
 10
5.999999999999976
 20
-8.499999999999976
 30
0.0
 11
4.499999999999992
 21
-8.499999999999976
 31
0.0
  0
ARC
  5
1C9
330
147
100
AcDbEntity
  8
Sketch Geometry(Ram)
370
    18
100
AcDbCircle
 10
4.499999999999992
 20
-7.999999999999971
 30
0.0
 40
0.5
100
AcDbArc
 50
180.0
 51
270.0
  0
MTEXT
  5
1CA
330
147
100
AcDbEntity
  8
Symbols(Ram)
 62
     7
100
AcDbMText
 10
-5.999999999999943
 20
5.0
 30
0.0
 40
6.99999988079071
 41
0.0
 46
0.0
 71
     1
 72
     1
  1
\fArial|b1|i0;\H7.0000;16
  7
STD 2.5 ARIAL
 73
     1
 44
1.0
1001
ACAD
1000
MTEXTBEGIN
1070
    73
1070
     1
1070
    44
1040
1.0
1070
    74
1070
     0
1000
MTEXTEND
  0
MTEXT
  5
1CB
330
147
100
AcDbEntity
  8
Symbols(Ram)
 62
     7
100
AcDbMText
 10
-0.0510837138014608
 20
-10.57935449735255
 30
0.0
 40
1.49859994649887
 41
13.03165197372436
 46
0.0
 71
     2
 72
     1
  1
\fArial|b0|i0;\H1.4986;SKIN PACK 140 X 100mm
  7
STD 2.5 ARIAL
 73
     2
 44
0.9442214369773862
1001
ACAD
1000
MTEXTBEGIN
1070
    73
1070
     2
1070
    44
1040
0.9442214369773862
1070
    74
1070
     0
1000
MTEXTEND
  0
ENDBLK
  5
149
330
147
100
AcDbEntity
  8
0
100
AcDbBlockEnd
  0
BLOCK
  5
1CD
330
1CC
100
AcDbEntity
  8
0
100
AcDbBlockBegin
  2
2 UP
 70
     0
 10
0.0
 20
0.0
 30
0.0
  3
2 UP
  1

  0
LINE
  5
1CF
330
1CC
100
AcDbEntity
  8
Sketch Geometry(Ram)
370
    18
100
AcDbLine
 10
5.999999999999996
 20
-8.500000000000012
 30
0.0
 11
-5.999999999999996
 21
-8.500000000000012
 31
0.0
  0
LINE
  5
1D0
330
1CC
100
AcDbEntity
  8
Sketch Geometry(Ram)
370
    18
100
AcDbLine
 10
-6.499999999999993
 20
-7.999999999999988
 30
0.0
 11
-6.500000000000013
 21
-0.9999999999999964
 31
0.0
  0
LINE
  5
1D1
330
1CC
100
AcDbEntity
  8
Sketch Geometry(Ram)
370
    18
100
AcDbLine
 10
-6.000000000000004
 20
-0.4999999999999895
 30
0.0
 11
5.999999999999996
 21
-0.4999999999999895
 31
0.0
  0
LINE
  5
1D2
330
1CC
100
AcDbEntity
  8
Sketch Geometry(Ram)
370
    18
100
AcDbLine
 10
6.499999999999993
 20
-0.9999999999999964
 30
0.0
 11
6.499999999999993
 21
-7.999999999999988
 31
0.0
  0
ARC
  5
1D3
330
1CC
100
AcDbEntity
  8
Sketch Geometry(Ram)
370
    18
100
AcDbCircle
 10
-6.000000000000004
 20
-0.9999999999999964
 30
0.0
 40
0.5
100
AcDbArc
 50
90.0
 51
180.0
  0
ARC
  5
1D4
330
1CC
100
AcDbEntity
  8
Sketch Geometry(Ram)
370
    18
100
AcDbCircle
 10
5.999999999999996
 20
-0.9999999999999964
 30
0.0
 40
0.5
100
AcDbArc
 50
0.0
 51
90.0
  0
ARC
  5
1D5
330
1CC
100
AcDbEntity
  8
Sketch Geometry(Ram)
370
    18
100
AcDbCircle
 10
5.999999999999996
 20
-7.999999999999988
 30
0.0
 40
0.5
100
AcDbArc
 50
270.0
 51
0.0
  0
ARC
  5
1D6
330
1CC
100
AcDbEntity
  8
Sketch Geometry(Ram)
370
    18
100
AcDbCircle
 10
-6.000000000000004
 20
-7.999999999999988
 30
0.0
 40
0.5
100
AcDbArc
 50
180.0
 51
270.0
  0
LINE
  5
1D7
330
1CC
100
AcDbEntity
  8
Sketch Geometry(Ram)
370
    18
100
AcDbLine
 10
-6.499999999999993
 20
1.000000000000013
 30
0.0
 11
-6.500000000000013
 21
8.000000000000008
 31
0.0
  0
LINE
  5
1D8
330
1CC
100
AcDbEntity
  8
Sketch Geometry(Ram)
370
    18
100
AcDbLine
 10
-6.000000000000004
 20
8.500000000000012
 30
0.0
 11
5.999999999999996
 21
8.500000000000012
 31
0.0
  0
ARC
  5
1D9
330
1CC
100
AcDbEntity
  8
Sketch Geometry(Ram)
370
    18
100
AcDbCircle
 10
-6.000000000000004
 20
8.000000000000008
 30
0.0
 40
0.5
100
AcDbArc
 50
90.0
 51
180.0
  0
ARC
  5
1DA
330
1CC
100
AcDbEntity
  8
Sketch Geometry(Ram)
370
    18
100
AcDbCircle
 10
-6.000000000000004
 20
1.000000000000013
 30
0.0
 40
0.5
100
AcDbArc
 50
180.0
 51
270.0
  0
LINE
  5
1DB
330
1CC
100
AcDbEntity
  8
Sketch Geometry(Ram)
370
    18
100
AcDbLine
 10
5.999999999999996
 20
0.4999999999999895
 30
0.0
 11
-5.999999999999996
 21
0.4999999999999895
 31
0.0
  0
LINE
  5
1DC
330
1CC
100
AcDbEntity
  8
Sketch Geometry(Ram)
370
    18
100
AcDbLine
 10
6.499999999999993
 20
8.000000000000008
 30
0.0
 11
6.499999999999993
 21
1.000000000000013
 31
0.0
  0
ARC
  5
1DD
330
1CC
100
AcDbEntity
  8
Sketch Geometry(Ram)
370
    18
100
AcDbCircle
 10
5.999999999999996
 20
8.000000000000008
 30
0.0
 40
0.5
100
AcDbArc
 50
0.0
 51
90.0
  0
ARC
  5
1DE
330
1CC
100
AcDbEntity
  8
Sketch Geometry(Ram)
370
    18
100
AcDbCircle
 10
5.999999999999996
 20
1.000000000000013
 30
0.0
 40
0.5
100
AcDbArc
 50
270.0
 51
0.0
  0
MTEXT
  5
1DF
330
1CC
100
AcDbEntity
  8
Symbols(Ram)
 62
     7
100
AcDbMText
 10
-2.693369958193557
 20
3.877714748987841
 30
0.0
 40
6.99999988079071
 41
0.0
 46
0.0
 71
     1
 72
     1
  1
\fArial|b1|i0;\H7.0000;2
  7
STD 2.5 ARIAL
 73
     1
 44
1.0
1001
ACAD
1000
MTEXTBEGIN
1070
    73
1070
     1
1070
    44
1040
1.0
1070
    74
1070
     0
1000
MTEXTEND
  0
MTEXT
  5
1E0
330
1CC
100
AcDbEntity
  8
Symbols(Ram)
 62
     7
100
AcDbMText
 10
-0.1943525311948591
 20
-10.85544927742214
 30
0.0
 40
1.49859994649887
 41
12.69037379631852
 46
0.0
 71
     2
 72
     1
  1
\fArial|b0|i0;\H1.4986;SKIN PACK 435 x 290mm
  7
STD 2.5 ARIAL
 73
     2
 44
0.9442214369773862
1001
ACAD
1000
MTEXTBEGIN
1070
    73
1070
     2
1070
    44
1040
0.9442214369773862
1070
    74
1070
     0
1000
MTEXTEND
  0
ENDBLK
  5
1CE
330
1CC
100
AcDbEntity
  8
0
100
AcDbBlockEnd
  0
BLOCK
  5
1E2
330
1E1
100
AcDbEntity
  8
0
100
AcDbBlockBegin
  2
4 UP
 70
     0
 10
0.0
 20
0.0
 30
0.0
  3
4 UP
  1

  0
LINE
  5
1E4
330
1E1
100
AcDbEntity
  8
Sketch Geometry(Ram)
370
    18
100
AcDbLine
 10
-1.000000000000005
 20
0.5000000000000071
 30
0.0
 11
-6.000000000000004
 21
0.5000000000000071
 31
0.0
  0
LINE
  5
1E5
330
1E1
100
AcDbEntity
  8
Sketch Geometry(Ram)
370
    18
100
AcDbLine
 10
-6.500000000000002
 20
1.00000000000003
 30
0.0
 11
-6.500000000000021
 21
8.000000000000042
 31
0.0
  0
LINE
  5
1E6
330
1E1
100
AcDbEntity
  8
Sketch Geometry(Ram)
370
    18
100
AcDbLine
 10
-6.000000000000004
 20
8.500000000000012
 30
0.0
 11
-1.000000000000005
 21
8.500000000000012
 31
0.0
  0
LINE
  5
1E7
330
1E1
100
AcDbEntity
  8
Sketch Geometry(Ram)
370
    18
100
AcDbLine
 10
-0.5000000000000071
 20
8.000000000000023
 30
0.0
 11
-0.5000000000000071
 21
1.00000000000003
 31
0.0
  0
ARC
  5
1E8
330
1E1
100
AcDbEntity
  8
Sketch Geometry(Ram)
370
    18
100
AcDbCircle
 10
-6.000000000000004
 20
8.000000000000023
 30
0.0
 40
0.5
100
AcDbArc
 50
90.0
 51
180.0
  0
ARC
  5
1E9
330
1E1
100
AcDbEntity
  8
Sketch Geometry(Ram)
370
    18
100
AcDbCircle
 10
-1.000000000000005
 20
8.000000000000023
 30
0.0
 40
0.5
100
AcDbArc
 50
0.0
 51
90.0
  0
ARC
  5
1EA
330
1E1
100
AcDbEntity
  8
Sketch Geometry(Ram)
370
    18
100
AcDbCircle
 10
-1.000000000000005
 20
1.00000000000003
 30
0.0
 40
0.5
100
AcDbArc
 50
270.0
 51
0.0
  0
ARC
  5
1EB
330
1E1
100
AcDbEntity
  8
Sketch Geometry(Ram)
370
    18
100
AcDbCircle
 10
-6.000000000000004
 20
1.00000000000003
 30
0.0
 40
0.5
100
AcDbArc
 50
180.0
 51
270.0
  0
LINE
  5
1EC
330
1E1
100
AcDbEntity
  8
Sketch Geometry(Ram)
370
    18
100
AcDbLine
 10
0.9999999999999964
 20
8.500000000000012
 30
0.0
 11
5.999999999999996
 21
8.500000000000012
 31
0.0
  0
ARC
  5
1ED
330
1E1
100
AcDbEntity
  8
Sketch Geometry(Ram)
370
    18
100
AcDbCircle
 10
0.9999999999999964
 20
8.000000000000023
 30
0.0
 40
0.5
100
AcDbArc
 50
90.0
 51
180.0
  0
LINE
  5
1EE
330
1E1
100
AcDbEntity
  8
Sketch Geometry(Ram)
370
    18
100
AcDbLine
 10
0.4999999999999984
 20
1.00000000000003
 30
0.0
 11
0.4999999999999806
 21
8.000000000000042
 31
0.0
  0
LINE
  5
1EF
330
1E1
100
AcDbEntity
  8
Sketch Geometry(Ram)
370
    18
100
AcDbLine
 10
6.499999999999993
 20
8.000000000000023
 30
0.0
 11
6.499999999999993
 21
1.00000000000003
 31
0.0
  0
ARC
  5
1F0
330
1E1
100
AcDbEntity
  8
Sketch Geometry(Ram)
370
    18
100
AcDbCircle
 10
5.999999999999996
 20
8.000000000000023
 30
0.0
 40
0.5
100
AcDbArc
 50
0.0
 51
90.0
  0
ARC
  5
1F1
330
1E1
100
AcDbEntity
  8
Sketch Geometry(Ram)
370
    18
100
AcDbCircle
 10
5.999999999999996
 20
1.00000000000003
 30
0.0
 40
0.5
100
AcDbArc
 50
270.0
 51
0.0
  0
LINE
  5
1F2
330
1E1
100
AcDbEntity
  8
Sketch Geometry(Ram)
370
    18
100
AcDbLine
 10
5.999999999999996
 20
0.5000000000000071
 30
0.0
 11
0.9999999999999964
 21
0.5000000000000071
 31
0.0
  0
ARC
  5
1F3
330
1E1
100
AcDbEntity
  8
Sketch Geometry(Ram)
370
    18
100
AcDbCircle
 10
0.9999999999999964
 20
1.00000000000003
 30
0.0
 40
0.5
100
AcDbArc
 50
180.0
 51
270.0
  0
LINE
  5
1F4
330
1E1
100
AcDbEntity
  8
Sketch Geometry(Ram)
370
    18
100
AcDbLine
 10
-6.000000000000004
 20
-0.4999999999999895
 30
0.0
 11
-1.000000000000005
 21
-0.5000000000000071
 31
0.0
  0
ARC
  5
1F5
330
1E1
100
AcDbEntity
  8
Sketch Geometry(Ram)
370
    18
100
AcDbCircle
 10
-6.000000000000004
 20
-1.000000000000013
 30
0.0
 40
0.5
100
AcDbArc
 50
90.0
 51
180.0
  0
LINE
  5
1F6
330
1E1
100
AcDbEntity
  8
Sketch Geometry(Ram)
370
    18
100
AcDbLine
 10
-6.500000000000002
 20
-7.999999999999988
 30
0.0
 11
-6.500000000000013
 21
-1.000000000000013
 31
0.0
  0
LINE
  5
1F7
330
1E1
100
AcDbEntity
  8
Sketch Geometry(Ram)
370
    18
100
AcDbLine
 10
-0.5000000000000071
 20
-0.9999999999999964
 30
0.0
 11
-0.5000000000000071
 21
-7.999999999999988
 31
0.0
  0
ARC
  5
1F8
330
1E1
100
AcDbEntity
  8
Sketch Geometry(Ram)
370
    18
100
AcDbCircle
 10
-1.000000000000005
 20
-0.9999999999999964
 30
0.0
 40
0.5
100
AcDbArc
 50
0.0
 51
90.0
  0
ARC
  5
1F9
330
1E1
100
AcDbEntity
  8
Sketch Geometry(Ram)
370
    18
100
AcDbCircle
 10
-1.000000000000005
 20
-7.999999999999988
 30
0.0
 40
0.5
100
AcDbArc
 50
270.0
 51
0.0
  0
LINE
  5
1FA
330
1E1
100
AcDbEntity
  8
Sketch Geometry(Ram)
370
    18
100
AcDbLine
 10
-1.000000000000005
 20
-8.500000000000012
 30
0.0
 11
-6.000000000000004
 21
-8.500000000000012
 31
0.0
  0
ARC
  5
1FB
330
1E1
100
AcDbEntity
  8
Sketch Geometry(Ram)
370
    18
100
AcDbCircle
 10
-6.000000000000004
 20
-7.999999999999988
 30
0.0
 40
0.5
100
AcDbArc
 50
180.0
 51
270.0
  0
LINE
  5
1FC
330
1E1
100
AcDbEntity
  8
Sketch Geometry(Ram)
370
    18
100
AcDbLine
 10
0.9999999999999964
 20
-0.4999999999999895
 30
0.0
 11
5.999999999999996
 21
-0.5000000000000071
 31
0.0
  0
ARC
  5
1FD
330
1E1
100
AcDbEntity
  8
Sketch Geometry(Ram)
370
    18
100
AcDbCircle
 10
0.9999999999999964
 20
-0.9999999999999785
 30
0.0
 40
0.5
100
AcDbArc
 50
90.0
 51
180.0
  0
LINE
  5
1FE
330
1E1
100
AcDbEntity
  8
Sketch Geometry(Ram)
370
    18
100
AcDbLine
 10
0.4999999999999984
 20
-7.999999999999988
 30
0.0
 11
0.4999999999999806
 21
-0.9999999999999607
 31
0.0
  0
LINE
  5
1FF
330
1E1
100
AcDbEntity
  8
Sketch Geometry(Ram)
370
    18
100
AcDbLine
 10
6.499999999999993
 20
-0.9999999999999964
 30
0.0
 11
6.499999999999993
 21
-7.999999999999988
 31
0.0
  0
ARC
  5
200
330
1E1
100
AcDbEntity
  8
Sketch Geometry(Ram)
370
    18
100
AcDbCircle
 10
5.999999999999996
 20
-0.9999999999999964
 30
0.0
 40
0.5
100
AcDbArc
 50
0.0
 51
90.0
  0
ARC
  5
201
330
1E1
100
AcDbEntity
  8
Sketch Geometry(Ram)
370
    18
100
AcDbCircle
 10
5.999999999999996
 20
-7.999999999999988
 30
0.0
 40
0.5
100
AcDbArc
 50
270.0
 51
0.0
  0
LINE
  5
202
330
1E1
100
AcDbEntity
  8
Sketch Geometry(Ram)
370
    18
100
AcDbLine
 10
5.999999999999996
 20
-8.500000000000012
 30
0.0
 11
0.9999999999999964
 21
-8.500000000000012
 31
0.0
  0
ARC
  5
203
330
1E1
100
AcDbEntity
  8
Sketch Geometry(Ram)
370
    18
100
AcDbCircle
 10
0.9999999999999964
 20
-7.999999999999988
 30
0.0
 40
0.5
100
AcDbArc
 50
180.0
 51
270.0
  0
MTEXT
  5
204
330
1E1
100
AcDbEntity
  8
Symbols(Ram)
 62
     7
100
AcDbMText
 10
-3.285501171173564
 20
3.819317278035381
 30
0.0
 40
6.99999988079071
 41
0.0
 46
0.0
 71
     1
 72
     1
  1
\fArial|b1|i0;\H7.0000;4
  7
STD 2.5 ARIAL
 73
     1
 44
1.0
1001
ACAD
1000
MTEXTBEGIN
1070
    73
1070
     1
1070
    44
1040
1.0
1070
    74
1070
     0
1000
MTEXTEND
  0
MTEXT
  5
205
330
1E1
100
AcDbEntity
  8
Symbols(Ram)
 62
     7
100
AcDbMText
 10
0.0818006588334175
 20
-11.29726315604326
 30
0.0
 40
1.49859994649887
 41
12.69037379631852
 46
0.0
 71
     2
 72
     1
  1
\fArial|b0|i0;\H1.4986;SKIN PACK 290 x 210mm
  7
STD 2.5 ARIAL
 73
     2
 44
0.9442214369773862
1001
ACAD
1000
MTEXTBEGIN
1070
    73
1070
     2
1070
    44
1040
0.9442214369773862
1070
    74
1070
     0
1000
MTEXTEND
  0
ENDBLK
  5
1E3
330
1E1
100
AcDbEntity
  8
0
100
AcDbBlockEnd
  0
BLOCK
  5
207
330
206
100
AcDbEntity
  8
0
100
AcDbBlockBegin
  2
6 UP
 70
     0
 10
0.0
 20
0.0
 30
0.0
  3
6 UP
  1

  0
LINE
  5
209
330
206
100
AcDbEntity
  8
Sketch Geometry(Ram)
370
    18
100
AcDbLine
 10
-1.000000000000005
 20
3.499999999999996
 30
0.0
 11
-6.000000000000004
 21
3.499999999999996
 31
0.0
  0
LINE
  5
20A
330
206
100
AcDbEntity
  8
Sketch Geometry(Ram)
370
    18
100
AcDbLine
 10
-6.499999999999993
 20
4.000000000000021
 30
0.0
 11
-6.500000000000002
 21
8.000000000000008
 31
0.0
  0
LINE
  5
20B
330
206
100
AcDbEntity
  8
Sketch Geometry(Ram)
370
    18
100
AcDbLine
 10
-5.999999999999996
 20
8.500000000000012
 30
0.0
 11
-1.000000000000005
 21
8.50000000000003
 31
0.0
  0
LINE
  5
20C
330
206
100
AcDbEntity
  8
Sketch Geometry(Ram)
370
    18
100
AcDbLine
 10
-0.5000000000000071
 20
8.000000000000008
 30
0.0
 11
-0.5000000000000071
 21
4.000000000000021
 31
0.0
  0
ARC
  5
20D
330
206
100
AcDbEntity
  8
Sketch Geometry(Ram)
370
    18
100
AcDbCircle
 10
-5.999999999999996
 20
8.000000000000008
 30
0.0
 40
0.5
100
AcDbArc
 50
90.0
 51
180.0
  0
ARC
  5
20E
330
206
100
AcDbEntity
  8
Sketch Geometry(Ram)
370
    18
100
AcDbCircle
 10
-0.9999999999999964
 20
8.000000000000008
 30
0.0
 40
0.5
100
AcDbArc
 50
0.0
 51
90.0
  0
ARC
  5
20F
330
206
100
AcDbEntity
  8
Sketch Geometry(Ram)
370
    18
100
AcDbCircle
 10
-0.9999999999999964
 20
4.000000000000021
 30
0.0
 40
0.5
100
AcDbArc
 50
270.0
 51
0.0
  0
ARC
  5
210
330
206
100
AcDbEntity
  8
Sketch Geometry(Ram)
370
    18
100
AcDbCircle
 10
-6.000000000000004
 20
4.000000000000021
 30
0.0
 40
0.5
100
AcDbArc
 50
180.0
 51
270.0
  0
LINE
  5
211
330
206
100
AcDbEntity
  8
Sketch Geometry(Ram)
370
    18
100
AcDbLine
 10
1.000000000000005
 20
8.500000000000012
 30
0.0
 11
5.999999999999996
 21
8.50000000000003
 31
0.0
  0
ARC
  5
212
330
206
100
AcDbEntity
  8
Sketch Geometry(Ram)
370
    18
100
AcDbCircle
 10
1.000000000000005
 20
8.000000000000008
 30
0.0
 40
0.5
100
AcDbArc
 50
90.0
 51
180.0
  0
LINE
  5
213
330
206
100
AcDbEntity
  8
Sketch Geometry(Ram)
370
    18
100
AcDbLine
 10
5.999999999999996
 20
3.499999999999996
 30
0.0
 11
0.9999999999999964
 21
3.499999999999996
 31
0.0
  0
ARC
  5
214
330
206
100
AcDbEntity
  8
Sketch Geometry(Ram)
370
    18
100
AcDbCircle
 10
0.9999999999999964
 20
4.000000000000021
 30
0.0
 40
0.5
100
AcDbArc
 50
180.0
 51
270.0
  0
LINE
  5
215
330
206
100
AcDbEntity
  8
Sketch Geometry(Ram)
370
    18
100
AcDbLine
 10
0.5000000000000071
 20
4.000000000000021
 30
0.0
 11
0.4999999999999984
 21
8.000000000000008
 31
0.0
  0
LINE
  5
216
330
206
100
AcDbEntity
  8
Sketch Geometry(Ram)
370
    18
100
AcDbLine
 10
6.499999999999993
 20
8.000000000000008
 30
0.0
 11
6.499999999999993
 21
4.000000000000021
 31
0.0
  0
ARC
  5
217
330
206
100
AcDbEntity
  8
Sketch Geometry(Ram)
370
    18
100
AcDbCircle
 10
6.000000000000004
 20
8.000000000000008
 30
0.0
 40
0.5
100
AcDbArc
 50
0.0
 51
90.0
  0
ARC
  5
218
330
206
100
AcDbEntity
  8
Sketch Geometry(Ram)
370
    18
100
AcDbCircle
 10
6.000000000000004
 20
4.000000000000021
 30
0.0
 40
0.5
100
AcDbArc
 50
270.0
 51
0.0
  0
LINE
  5
219
330
206
100
AcDbEntity
  8
Sketch Geometry(Ram)
370
    18
100
AcDbLine
 10
-5.999999999999996
 20
2.500000000000016
 30
0.0
 11
-1.000000000000005
 21
2.500000000000035
 31
0.0
  0
ARC
  5
21A
330
206
100
AcDbEntity
  8
Sketch Geometry(Ram)
370
    18
100
AcDbCircle
 10
-5.999999999999996
 20
2.00000000000001
 30
0.0
 40
0.5
100
AcDbArc
 50
90.0
 51
180.0
  0
LINE
  5
21B
330
206
100
AcDbEntity
  8
Sketch Geometry(Ram)
370
    18
100
AcDbLine
 10
-1.000000000000005
 20
-2.5
 30
0.0
 11
-6.000000000000004
 21
-2.5
 31
0.0
  0
ARC
  5
21C
330
206
100
AcDbEntity
  8
Sketch Geometry(Ram)
370
    18
100
AcDbCircle
 10
-6.000000000000004
 20
-1.999999999999974
 30
0.0
 40
0.5
100
AcDbArc
 50
180.0
 51
270.0
  0
LINE
  5
21D
330
206
100
AcDbEntity
  8
Sketch Geometry(Ram)
370
    18
100
AcDbLine
 10
-6.499999999999993
 20
-1.999999999999974
 30
0.0
 11
-6.500000000000002
 21
2.00000000000001
 31
0.0
  0
LINE
  5
21E
330
206
100
AcDbEntity
  8
Sketch Geometry(Ram)
370
    18
100
AcDbLine
 10
-0.5000000000000071
 20
2.00000000000001
 30
0.0
 11
-0.5000000000000071
 21
-1.999999999999974
 31
0.0
  0
ARC
  5
21F
330
206
100
AcDbEntity
  8
Sketch Geometry(Ram)
370
    18
100
AcDbCircle
 10
-0.9999999999999964
 20
2.00000000000001
 30
0.0
 40
0.5
100
AcDbArc
 50
0.0
 51
90.0
  0
ARC
  5
220
330
206
100
AcDbEntity
  8
Sketch Geometry(Ram)
370
    18
100
AcDbCircle
 10
-0.9999999999999964
 20
-1.999999999999974
 30
0.0
 40
0.5
100
AcDbArc
 50
270.0
 51
0.0
  0
LINE
  5
221
330
206
100
AcDbEntity
  8
Sketch Geometry(Ram)
370
    18
100
AcDbLine
 10
1.000000000000005
 20
2.500000000000016
 30
0.0
 11
5.999999999999996
 21
2.500000000000035
 31
0.0
  0
ARC
  5
222
330
206
100
AcDbEntity
  8
Sketch Geometry(Ram)
370
    18
100
AcDbCircle
 10
1.000000000000005
 20
2.00000000000001
 30
0.0
 40
0.5
100
AcDbArc
 50
90.0
 51
180.0
  0
LINE
  5
223
330
206
100
AcDbEntity
  8
Sketch Geometry(Ram)
370
    18
100
AcDbLine
 10
5.999999999999996
 20
-2.5
 30
0.0
 11
0.9999999999999964
 21
-2.5
 31
0.0
  0
ARC
  5
224
330
206
100
AcDbEntity
  8
Sketch Geometry(Ram)
370
    18
100
AcDbCircle
 10
0.9999999999999964
 20
-1.999999999999974
 30
0.0
 40
0.5
100
AcDbArc
 50
180.0
 51
270.0
  0
LINE
  5
225
330
206
100
AcDbEntity
  8
Sketch Geometry(Ram)
370
    18
100
AcDbLine
 10
0.5000000000000071
 20
-1.999999999999974
 30
0.0
 11
0.4999999999999984
 21
2.00000000000001
 31
0.0
  0
LINE
  5
226
330
206
100
AcDbEntity
  8
Sketch Geometry(Ram)
370
    18
100
AcDbLine
 10
6.499999999999993
 20
2.00000000000001
 30
0.0
 11
6.499999999999993
 21
-1.999999999999974
 31
0.0
  0
ARC
  5
227
330
206
100
AcDbEntity
  8
Sketch Geometry(Ram)
370
    18
100
AcDbCircle
 10
6.000000000000004
 20
2.00000000000001
 30
0.0
 40
0.5
100
AcDbArc
 50
0.0
 51
90.0
  0
ARC
  5
228
330
206
100
AcDbEntity
  8
Sketch Geometry(Ram)
370
    18
100
AcDbCircle
 10
6.000000000000004
 20
-1.999999999999974
 30
0.0
 40
0.5
100
AcDbArc
 50
270.0
 51
0.0
  0
LINE
  5
229
330
206
100
AcDbEntity
  8
Sketch Geometry(Ram)
370
    18
100
AcDbLine
 10
-5.999999999999996
 20
-3.499999999999996
 30
0.0
 11
-1.000000000000005
 21
-3.49999999999996
 31
0.0
  0
ARC
  5
22A
330
206
100
AcDbEntity
  8
Sketch Geometry(Ram)
370
    18
100
AcDbCircle
 10
-5.999999999999996
 20
-4.000000000000002
 30
0.0
 40
0.5
100
AcDbArc
 50
90.0
 51
180.0
  0
LINE
  5
22B
330
206
100
AcDbEntity
  8
Sketch Geometry(Ram)
370
    18
100
AcDbLine
 10
-1.000000000000005
 20
-8.499999999999996
 30
0.0
 11
-6.000000000000004
 21
-8.499999999999996
 31
0.0
  0
ARC
  5
22C
330
206
100
AcDbEntity
  8
Sketch Geometry(Ram)
370
    18
100
AcDbCircle
 10
-6.000000000000004
 20
-7.999999999999988
 30
0.0
 40
0.5
100
AcDbArc
 50
180.0
 51
270.0
  0
LINE
  5
22D
330
206
100
AcDbEntity
  8
Sketch Geometry(Ram)
370
    18
100
AcDbLine
 10
-6.499999999999993
 20
-7.999999999999988
 30
0.0
 11
-6.500000000000002
 21
-4.000000000000002
 31
0.0
  0
LINE
  5
22E
330
206
100
AcDbEntity
  8
Sketch Geometry(Ram)
370
    18
100
AcDbLine
 10
-0.5000000000000071
 20
-4.000000000000002
 30
0.0
 11
-0.5000000000000071
 21
-7.999999999999988
 31
0.0
  0
ARC
  5
22F
330
206
100
AcDbEntity
  8
Sketch Geometry(Ram)
370
    18
100
AcDbCircle
 10
-0.9999999999999964
 20
-4.000000000000002
 30
0.0
 40
0.5
100
AcDbArc
 50
0.0
 51
90.0
  0
ARC
  5
230
330
206
100
AcDbEntity
  8
Sketch Geometry(Ram)
370
    18
100
AcDbCircle
 10
-0.9999999999999964
 20
-7.999999999999988
 30
0.0
 40
0.5
100
AcDbArc
 50
270.0
 51
0.0
  0
LINE
  5
231
330
206
100
AcDbEntity
  8
Sketch Geometry(Ram)
370
    18
100
AcDbLine
 10
1.000000000000005
 20
-3.499999999999977
 30
0.0
 11
5.999999999999996
 21
-3.49999999999996
 31
0.0
  0
ARC
  5
232
330
206
100
AcDbEntity
  8
Sketch Geometry(Ram)
370
    18
100
AcDbCircle
 10
1.000000000000005
 20
-3.999999999999984
 30
0.0
 40
0.5
100
AcDbArc
 50
90.0
 51
180.0
  0
LINE
  5
233
330
206
100
AcDbEntity
  8
Sketch Geometry(Ram)
370
    18
100
AcDbLine
 10
5.999999999999996
 20
-8.499999999999996
 30
0.0
 11
0.9999999999999964
 21
-8.499999999999996
 31
0.0
  0
ARC
  5
234
330
206
100
AcDbEntity
  8
Sketch Geometry(Ram)
370
    18
100
AcDbCircle
 10
0.9999999999999964
 20
-7.999999999999971
 30
0.0
 40
0.5
100
AcDbArc
 50
180.0
 51
270.0
  0
LINE
  5
235
330
206
100
AcDbEntity
  8
Sketch Geometry(Ram)
370
    18
100
AcDbLine
 10
0.5000000000000071
 20
-7.999999999999971
 30
0.0
 11
0.4999999999999984
 21
-3.999999999999984
 31
0.0
  0
LINE
  5
236
330
206
100
AcDbEntity
  8
Sketch Geometry(Ram)
370
    18
100
AcDbLine
 10
6.499999999999993
 20
-3.999999999999984
 30
0.0
 11
6.499999999999993
 21
-7.999999999999971
 31
0.0
  0
ARC
  5
237
330
206
100
AcDbEntity
  8
Sketch Geometry(Ram)
370
    18
100
AcDbCircle
 10
6.000000000000004
 20
-3.999999999999984
 30
0.0
 40
0.5
100
AcDbArc
 50
0.0
 51
90.0
  0
ARC
  5
238
330
206
100
AcDbEntity
  8
Sketch Geometry(Ram)
370
    18
100
AcDbCircle
 10
6.000000000000004
 20
-7.999999999999971
 30
0.0
 40
0.5
100
AcDbArc
 50
270.0
 51
0.0
  0
MTEXT
  5
239
330
206
100
AcDbEntity
  8
Symbols(Ram)
 62
     7
100
AcDbMText
 10
-2.501412751660002
 20
4.308296391833169
 30
0.0
 40
6.99999988079071
 41
0.0
 46
0.0
 71
     1
 72
     1
  1
\fArial|b1|i0;\H7.0000;6
  7
STD 2.5 ARIAL
 73
     1
 44
1.0
1001
ACAD
1000
MTEXTBEGIN
1070
    73
1070
     1
1070
    44
1040
1.0
1070
    74
1070
     0
1000
MTEXTEND
  0
MTEXT
  5
23A
330
206
100
AcDbEntity
  8
Symbols(Ram)
 62
     7
100
AcDbMText
 10
-0.1522701282913097
 20
-9.87539018147526
 30
0.0
 40
1.49859994649887
 41
13.03165197372436
 46
0.0
 71
     2
 72
     1
  1
\fArial|b0|i0;\H1.4986;SKIN PACK 210 X 190mm
  7
STD 2.5 ARIAL
 73
     2
 44
0.9442214369773862
1001
ACAD
1000
MTEXTBEGIN
1070
    73
1070
     2
1070
    44
1040
0.9442214369773862
1070
    74
1070
     0
1000
MTEXTEND
  0
ENDBLK
  5
208
330
206
100
AcDbEntity
  8
0
100
AcDbBlockEnd
  0
BLOCK
  5
23C
330
23B
100
AcDbEntity
  8
0
100
AcDbBlockBegin
  2
8 UP
 70
     0
 10
0.0
 20
0.0
 30
0.0
  3
8 UP
  1

  0
LINE
  5
23E
330
23B
100
AcDbEntity
  8
Sketch Geometry(Ram)
370
    18
100
AcDbLine
 10
-4.499999999999992
 20
0.5000000000000071
 30
0.0
 11
-5.999999999999996
 21
0.4999999999999895
 31
0.0
  0
LINE
  5
23F
330
23B
100
AcDbEntity
  8
Sketch Geometry(Ram)
370
    18
100
AcDbLine
 10
-6.499999999999985
 20
1.000000000000013
 30
0.0
 11
-6.499999999999993
 21
8.000000000000023
 31
0.0
  0
LINE
  5
240
330
23B
100
AcDbEntity
  8
Sketch Geometry(Ram)
370
    18
100
AcDbLine
 10
-5.999999999999996
 20
8.500000000000012
 30
0.0
 11
-4.499999999999992
 21
8.500000000000012
 31
0.0
  0
LINE
  5
241
330
23B
100
AcDbEntity
  8
Sketch Geometry(Ram)
370
    18
100
AcDbLine
 10
-4.000000000000002
 20
8.000000000000008
 30
0.0
 11
-4.000000000000002
 21
1.000000000000013
 31
0.0
  0
ARC
  5
242
330
23B
100
AcDbEntity
  8
Sketch Geometry(Ram)
370
    18
100
AcDbCircle
 10
-5.999999999999996
 20
8.000000000000023
 30
0.0
 40
0.5
100
AcDbArc
 50
90.0
 51
180.0
  0
ARC
  5
243
330
23B
100
AcDbEntity
  8
Sketch Geometry(Ram)
370
    18
100
AcDbCircle
 10
-4.499999999999992
 20
8.000000000000008
 30
0.0
 40
0.5
100
AcDbArc
 50
0.0
 51
90.0
  0
ARC
  5
244
330
23B
100
AcDbEntity
  8
Sketch Geometry(Ram)
370
    18
100
AcDbCircle
 10
-4.499999999999992
 20
1.000000000000013
 30
0.0
 40
0.5
100
AcDbArc
 50
270.0
 51
0.0
  0
ARC
  5
245
330
23B
100
AcDbEntity
  8
Sketch Geometry(Ram)
370
    18
100
AcDbCircle
 10
-5.999999999999996
 20
1.000000000000013
 30
0.0
 40
0.5
100
AcDbArc
 50
180.0
 51
270.0
  0
LINE
  5
246
330
23B
100
AcDbEntity
  8
Sketch Geometry(Ram)
370
    18
100
AcDbLine
 10
-2.5
 20
8.500000000000012
 30
0.0
 11
-0.9999999999999964
 21
8.500000000000012
 31
0.0
  0
ARC
  5
247
330
23B
100
AcDbEntity
  8
Sketch Geometry(Ram)
370
    18
100
AcDbCircle
 10
-2.5
 20
8.000000000000023
 30
0.0
 40
0.5
100
AcDbArc
 50
90.0
 51
180.0
  0
LINE
  5
248
330
23B
100
AcDbEntity
  8
Sketch Geometry(Ram)
370
    18
100
AcDbLine
 10
-2.999999999999988
 20
1.000000000000013
 30
0.0
 11
-2.999999999999998
 21
8.000000000000023
 31
0.0
  0
LINE
  5
249
330
23B
100
AcDbEntity
  8
Sketch Geometry(Ram)
370
    18
100
AcDbLine
 10
-0.5000000000000071
 20
8.000000000000008
 30
0.0
 11
-0.5000000000000071
 21
1.000000000000013
 31
0.0
  0
ARC
  5
24A
330
23B
100
AcDbEntity
  8
Sketch Geometry(Ram)
370
    18
100
AcDbCircle
 10
-0.9999999999999964
 20
8.000000000000008
 30
0.0
 40
0.5
100
AcDbArc
 50
0.0
 51
90.0
  0
ARC
  5
24B
330
23B
100
AcDbEntity
  8
Sketch Geometry(Ram)
370
    18
100
AcDbCircle
 10
-0.9999999999999964
 20
1.000000000000013
 30
0.0
 40
0.5
100
AcDbArc
 50
270.0
 51
0.0
  0
LINE
  5
24C
330
23B
100
AcDbEntity
  8
Sketch Geometry(Ram)
370
    18
100
AcDbLine
 10
-0.9999999999999964
 20
0.5000000000000071
 30
0.0
 11
-2.5
 21
0.4999999999999895
 31
0.0
  0
ARC
  5
24D
330
23B
100
AcDbEntity
  8
Sketch Geometry(Ram)
370
    18
100
AcDbCircle
 10
-2.5
 20
1.000000000000013
 30
0.0
 40
0.5
100
AcDbArc
 50
180.0
 51
270.0
  0
LINE
  5
24E
330
23B
100
AcDbEntity
  8
Sketch Geometry(Ram)
370
    18
100
AcDbLine
 10
-5.999999999999996
 20
-0.4999999999999895
 30
0.0
 11
-4.499999999999992
 21
-0.4999999999999895
 31
0.0
  0
ARC
  5
24F
330
23B
100
AcDbEntity
  8
Sketch Geometry(Ram)
370
    18
100
AcDbCircle
 10
-5.999999999999996
 20
-0.9999999999999785
 30
0.0
 40
0.5
100
AcDbArc
 50
90.0
 51
180.0
  0
LINE
  5
250
330
23B
100
AcDbEntity
  8
Sketch Geometry(Ram)
370
    18
100
AcDbLine
 10
-6.499999999999985
 20
-7.999999999999988
 30
0.0
 11
-6.499999999999993
 21
-0.9999999999999785
 31
0.0
  0
LINE
  5
251
330
23B
100
AcDbEntity
  8
Sketch Geometry(Ram)
370
    18
100
AcDbLine
 10
-4.000000000000002
 20
-0.9999999999999964
 30
0.0
 11
-4.000000000000002
 21
-7.999999999999988
 31
0.0
  0
ARC
  5
252
330
23B
100
AcDbEntity
  8
Sketch Geometry(Ram)
370
    18
100
AcDbCircle
 10
-4.499999999999992
 20
-0.9999999999999964
 30
0.0
 40
0.5
100
AcDbArc
 50
0.0
 51
90.0
  0
ARC
  5
253
330
23B
100
AcDbEntity
  8
Sketch Geometry(Ram)
370
    18
100
AcDbCircle
 10
-4.499999999999992
 20
-7.999999999999988
 30
0.0
 40
0.5
100
AcDbArc
 50
270.0
 51
0.0
  0
LINE
  5
254
330
23B
100
AcDbEntity
  8
Sketch Geometry(Ram)
370
    18
100
AcDbLine
 10
-4.499999999999992
 20
-8.499999999999996
 30
0.0
 11
-5.999999999999996
 21
-8.500000000000012
 31
0.0
  0
ARC
  5
255
330
23B
100
AcDbEntity
  8
Sketch Geometry(Ram)
370
    18
100
AcDbCircle
 10
-5.999999999999996
 20
-7.999999999999988
 30
0.0
 40
0.5
100
AcDbArc
 50
180.0
 51
270.0
  0
LINE
  5
256
330
23B
100
AcDbEntity
  8
Sketch Geometry(Ram)
370
    18
100
AcDbLine
 10
-2.5
 20
-0.4999999999999895
 30
0.0
 11
-0.9999999999999964
 21
-0.4999999999999895
 31
0.0
  0
ARC
  5
257
330
23B
100
AcDbEntity
  8
Sketch Geometry(Ram)
370
    18
100
AcDbCircle
 10
-2.5
 20
-0.9999999999999785
 30
0.0
 40
0.5
100
AcDbArc
 50
90.0
 51
180.0
  0
LINE
  5
258
330
23B
100
AcDbEntity
  8
Sketch Geometry(Ram)
370
    18
100
AcDbLine
 10
-2.999999999999988
 20
-7.999999999999988
 30
0.0
 11
-2.999999999999998
 21
-0.9999999999999785
 31
0.0
  0
LINE
  5
259
330
23B
100
AcDbEntity
  8
Sketch Geometry(Ram)
370
    18
100
AcDbLine
 10
-0.5000000000000071
 20
-0.9999999999999964
 30
0.0
 11
-0.5000000000000071
 21
-7.999999999999988
 31
0.0
  0
ARC
  5
25A
330
23B
100
AcDbEntity
  8
Sketch Geometry(Ram)
370
    18
100
AcDbCircle
 10
-0.9999999999999964
 20
-0.9999999999999964
 30
0.0
 40
0.5
100
AcDbArc
 50
0.0
 51
90.0
  0
ARC
  5
25B
330
23B
100
AcDbEntity
  8
Sketch Geometry(Ram)
370
    18
100
AcDbCircle
 10
-0.9999999999999964
 20
-7.999999999999988
 30
0.0
 40
0.5
100
AcDbArc
 50
270.0
 51
0.0
  0
LINE
  5
25C
330
23B
100
AcDbEntity
  8
Sketch Geometry(Ram)
370
    18
100
AcDbLine
 10
-0.9999999999999964
 20
-8.499999999999996
 30
0.0
 11
-2.5
 21
-8.500000000000012
 31
0.0
  0
ARC
  5
25D
330
23B
100
AcDbEntity
  8
Sketch Geometry(Ram)
370
    18
100
AcDbCircle
 10
-2.5
 20
-7.999999999999988
 30
0.0
 40
0.5
100
AcDbArc
 50
180.0
 51
270.0
  0
LINE
  5
25E
330
23B
100
AcDbEntity
  8
Sketch Geometry(Ram)
370
    18
100
AcDbLine
 10
0.9999999999999964
 20
8.500000000000012
 30
0.0
 11
2.5
 21
8.500000000000012
 31
0.0
  0
ARC
  5
25F
330
23B
100
AcDbEntity
  8
Sketch Geometry(Ram)
370
    18
100
AcDbCircle
 10
0.9999999999999964
 20
8.000000000000023
 30
0.0
 40
0.5
100
AcDbArc
 50
90.0
 51
180.0
  0
LINE
  5
260
330
23B
100
AcDbEntity
  8
Sketch Geometry(Ram)
370
    18
100
AcDbLine
 10
0.5000000000000071
 20
1.000000000000013
 30
0.0
 11
0.4999999999999984
 21
8.000000000000023
 31
0.0
  0
LINE
  5
261
330
23B
100
AcDbEntity
  8
Sketch Geometry(Ram)
370
    18
100
AcDbLine
 10
2.999999999999988
 20
8.000000000000008
 30
0.0
 11
2.999999999999988
 21
1.000000000000013
 31
0.0
  0
ARC
  5
262
330
23B
100
AcDbEntity
  8
Sketch Geometry(Ram)
370
    18
100
AcDbCircle
 10
2.5
 20
8.000000000000008
 30
0.0
 40
0.5
100
AcDbArc
 50
0.0
 51
90.0
  0
ARC
  5
263
330
23B
100
AcDbEntity
  8
Sketch Geometry(Ram)
370
    18
100
AcDbCircle
 10
2.5
 20
1.000000000000013
 30
0.0
 40
0.5
100
AcDbArc
 50
270.0
 51
0.0
  0
LINE
  5
264
330
23B
100
AcDbEntity
  8
Sketch Geometry(Ram)
370
    18
100
AcDbLine
 10
2.5
 20
0.5000000000000071
 30
0.0
 11
0.9999999999999964
 21
0.4999999999999895
 31
0.0
  0
ARC
  5
265
330
23B
100
AcDbEntity
  8
Sketch Geometry(Ram)
370
    18
100
AcDbCircle
 10
0.9999999999999964
 20
1.000000000000013
 30
0.0
 40
0.5
100
AcDbArc
 50
180.0
 51
270.0
  0
LINE
  5
266
330
23B
100
AcDbEntity
  8
Sketch Geometry(Ram)
370
    18
100
AcDbLine
 10
0.9999999999999964
 20
-0.4999999999999895
 30
0.0
 11
2.5
 21
-0.4999999999999895
 31
0.0
  0
ARC
  5
267
330
23B
100
AcDbEntity
  8
Sketch Geometry(Ram)
370
    18
100
AcDbCircle
 10
0.9999999999999964
 20
-0.9999999999999785
 30
0.0
 40
0.5
100
AcDbArc
 50
90.0
 51
180.0
  0
LINE
  5
268
330
23B
100
AcDbEntity
  8
Sketch Geometry(Ram)
370
    18
100
AcDbLine
 10
0.5000000000000071
 20
-7.999999999999988
 30
0.0
 11
0.4999999999999984
 21
-0.9999999999999785
 31
0.0
  0
LINE
  5
269
330
23B
100
AcDbEntity
  8
Sketch Geometry(Ram)
370
    18
100
AcDbLine
 10
2.999999999999988
 20
-0.9999999999999964
 30
0.0
 11
2.999999999999988
 21
-7.999999999999988
 31
0.0
  0
ARC
  5
26A
330
23B
100
AcDbEntity
  8
Sketch Geometry(Ram)
370
    18
100
AcDbCircle
 10
2.5
 20
-0.9999999999999964
 30
0.0
 40
0.5
100
AcDbArc
 50
0.0
 51
90.0
  0
ARC
  5
26B
330
23B
100
AcDbEntity
  8
Sketch Geometry(Ram)
370
    18
100
AcDbCircle
 10
2.5
 20
-7.999999999999988
 30
0.0
 40
0.5
100
AcDbArc
 50
270.0
 51
0.0
  0
LINE
  5
26C
330
23B
100
AcDbEntity
  8
Sketch Geometry(Ram)
370
    18
100
AcDbLine
 10
2.5
 20
-8.499999999999996
 30
0.0
 11
0.9999999999999964
 21
-8.500000000000012
 31
0.0
  0
ARC
  5
26D
330
23B
100
AcDbEntity
  8
Sketch Geometry(Ram)
370
    18
100
AcDbCircle
 10
0.9999999999999964
 20
-7.999999999999988
 30
0.0
 40
0.5
100
AcDbArc
 50
180.0
 51
270.0
  0
LINE
  5
26E
330
23B
100
AcDbEntity
  8
Sketch Geometry(Ram)
370
    18
100
AcDbLine
 10
4.499999999999992
 20
8.500000000000012
 30
0.0
 11
5.999999999999996
 21
8.500000000000012
 31
0.0
  0
ARC
  5
26F
330
23B
100
AcDbEntity
  8
Sketch Geometry(Ram)
370
    18
100
AcDbCircle
 10
4.499999999999992
 20
8.000000000000023
 30
0.0
 40
0.5
100
AcDbArc
 50
90.0
 51
180.0
  0
LINE
  5
270
330
23B
100
AcDbEntity
  8
Sketch Geometry(Ram)
370
    18
100
AcDbLine
 10
4.000000000000002
 20
1.000000000000013
 30
0.0
 11
3.999999999999993
 21
8.000000000000023
 31
0.0
  0
LINE
  5
271
330
23B
100
AcDbEntity
  8
Sketch Geometry(Ram)
370
    18
100
AcDbLine
 10
6.499999999999985
 20
8.000000000000008
 30
0.0
 11
6.499999999999985
 21
1.000000000000013
 31
0.0
  0
ARC
  5
272
330
23B
100
AcDbEntity
  8
Sketch Geometry(Ram)
370
    18
100
AcDbCircle
 10
5.999999999999996
 20
8.000000000000008
 30
0.0
 40
0.5
100
AcDbArc
 50
0.0
 51
90.0
  0
ARC
  5
273
330
23B
100
AcDbEntity
  8
Sketch Geometry(Ram)
370
    18
100
AcDbCircle
 10
5.999999999999996
 20
1.000000000000013
 30
0.0
 40
0.5
100
AcDbArc
 50
270.0
 51
0.0
  0
LINE
  5
274
330
23B
100
AcDbEntity
  8
Sketch Geometry(Ram)
370
    18
100
AcDbLine
 10
5.999999999999996
 20
0.5000000000000071
 30
0.0
 11
4.499999999999992
 21
0.4999999999999895
 31
0.0
  0
ARC
  5
275
330
23B
100
AcDbEntity
  8
Sketch Geometry(Ram)
370
    18
100
AcDbCircle
 10
4.499999999999992
 20
1.000000000000013
 30
0.0
 40
0.5
100
AcDbArc
 50
180.0
 51
270.0
  0
LINE
  5
276
330
23B
100
AcDbEntity
  8
Sketch Geometry(Ram)
370
    18
100
AcDbLine
 10
4.499999999999992
 20
-0.4999999999999895
 30
0.0
 11
5.999999999999996
 21
-0.4999999999999895
 31
0.0
  0
ARC
  5
277
330
23B
100
AcDbEntity
  8
Sketch Geometry(Ram)
370
    18
100
AcDbCircle
 10
4.499999999999992
 20
-0.9999999999999785
 30
0.0
 40
0.5
100
AcDbArc
 50
90.0
 51
180.0
  0
LINE
  5
278
330
23B
100
AcDbEntity
  8
Sketch Geometry(Ram)
370
    18
100
AcDbLine
 10
4.000000000000002
 20
-7.999999999999988
 30
0.0
 11
3.999999999999993
 21
-0.9999999999999785
 31
0.0
  0
LINE
  5
279
330
23B
100
AcDbEntity
  8
Sketch Geometry(Ram)
370
    18
100
AcDbLine
 10
6.499999999999985
 20
-0.9999999999999964
 30
0.0
 11
6.499999999999985
 21
-7.999999999999988
 31
0.0
  0
ARC
  5
27A
330
23B
100
AcDbEntity
  8
Sketch Geometry(Ram)
370
    18
100
AcDbCircle
 10
5.999999999999996
 20
-0.9999999999999964
 30
0.0
 40
0.5
100
AcDbArc
 50
0.0
 51
90.0
  0
ARC
  5
27B
330
23B
100
AcDbEntity
  8
Sketch Geometry(Ram)
370
    18
100
AcDbCircle
 10
5.999999999999996
 20
-7.999999999999988
 30
0.0
 40
0.5
100
AcDbArc
 50
270.0
 51
0.0
  0
LINE
  5
27C
330
23B
100
AcDbEntity
  8
Sketch Geometry(Ram)
370
    18
100
AcDbLine
 10
5.999999999999996
 20
-8.499999999999996
 30
0.0
 11
4.499999999999992
 21
-8.500000000000012
 31
0.0
  0
ARC
  5
27D
330
23B
100
AcDbEntity
  8
Sketch Geometry(Ram)
370
    18
100
AcDbCircle
 10
4.499999999999992
 20
-7.999999999999988
 30
0.0
 40
0.5
100
AcDbArc
 50
180.0
 51
270.0
  0
MTEXT
  5
27E
330
23B
100
AcDbEntity
  8
Symbols(Ram)
 62
     7
100
AcDbMText
 10
-2.622583667679929
 20
3.966036591120508
 30
0.0
 40
6.99999988079071
 41
0.0
 46
0.0
 71
     1
 72
     1
  1
\fArial|b1|i0;\H7.0000;8
  7
STD 2.5 ARIAL
 73
     1
 44
1.0
1001
ACAD
1000
MTEXTBEGIN
1070
    73
1070
     1
1070
    44
1040
1.0
1070
    74
1070
     0
1000
MTEXTEND
  0
MTEXT
  5
27F
330
23B
100
AcDbEntity
  8
Symbols(Ram)
 62
     7
100
AcDbMText
 10
-0.383652901660243
 20
-10.53909050618999
 30
0.0
 40
1.49859994649887
 41
12.69037379631852
 46
0.0
 71
     2
 72
     1
  1
\fArial|b0|i0;\H1.4986;SKIN PACK 290 x 100mm
  7
STD 2.5 ARIAL
 73
     2
 44
0.9442214369773862
1001
ACAD
1000
MTEXTBEGIN
1070
    73
1070
     2
1070
    44
1040
0.9442214369773862
1070
    74
1070
     0
1000
MTEXTEND
  0
ENDBLK
  5
23D
330
23B
100
AcDbEntity
  8
0
100
AcDbBlockEnd
  0
BLOCK
  5
281
330
280
100
AcDbEntity
  8
0
100
AcDbBlockBegin
  2
APPROVED STAMP
 70
     0
 10
0.0
 20
0.0
 30
0.0
  3
APPROVED STAMP
  1

  0
LINE
  5
283
330
280
100
AcDbEntity
  8
Sketch Geometry(Ram)
 62
   136
100
AcDbLine
 10
-35.54560624499878
 20
15.6783200154738
 30
0.0
 11
-35.54560624499878
 21
-15.67832001547382
 31
0.0
  0
LINE
  5
284
330
280
100
AcDbEntity
  8
Sketch Geometry(Ram)
 62
   136
100
AcDbLine
 10
-35.54560624499878
 20
-15.67832001547382
 30
0.0
 11
35.54560624499877
 21
-15.6783200154738
 31
0.0
  0
LINE
  5
285
330
280
100
AcDbEntity
  8
Sketch Geometry(Ram)
 62
   136
100
AcDbLine
 10
35.54560624499877
 20
-15.6783200154738
 30
0.0
 11
35.54560624499877
 21
15.67832001547382
 31
0.0
  0
LINE
  5
286
330
280
100
AcDbEntity
  8
Sketch Geometry(Ram)
 62
   136
100
AcDbLine
 10
35.54560624499877
 20
15.67832001547382
 30
0.0
 11
-35.54560624499878
 21
15.6783200154738
 31
0.0
  0
MTEXT
  5
287
330
280
100
AcDbEntity
  8
Symbols(Ram)
 62
   116
100
AcDbMText
 10
-13.49989445979156
 20
14.13192209042362
 30
0.0
 40
3.499999940395355
 41
27.45045900344849
 46
0.0
 71
     1
 72
     1
  1
\fArial|b1|i0;\H3.5000;APPROVED
  7
STD 2.5 ARIAL
 73
     1
 44
1.0
1001
ACAD
1000
MTEXTBEGIN
1070
    73
1070
     1
1070
    44
1040
1.0
1070
    74
1070
     0
1000
MTEXTEND
  0
MTEXT
  5
288
330
280
100
AcDbEntity
  8
Symbols(Ram)
 62
     7
100
AcDbMText
 10
-34.3463054353912
 20
4.981424486020865
 30
0.0
 40
2.5
 41
60.84163436697946
 46
0.0
 71
     1
 72
     1
  1
NAME: ...........................................\PSIGNATURE: ..................................\PDATE:  ......../...../........
  7
STD 2.5 ARIAL
 73
     2
 44
1.727335691452025
1001
ACAD
1000
MTEXTBEGIN
1070
    73
1070
     2
1070
    44
1040
1.727335691452025
1070
    74
1070
     0
1000
MTEXTEND
  0
ENDBLK
  5
282
330
280
100
AcDbEntity
  8
0
100
AcDbBlockEnd
  0
BLOCK
  5
28A
330
289
100
AcDbEntity
  8
0
100
AcDbBlockBegin
  2
AVAIL WELS 3 STAR
 70
     0
 10
0.0
 20
0.0
 30
0.0
  3
AVAIL WELS 3 STAR
  1

  0
MTEXT
  5
28C
330
289
100
AcDbEntity
  8
Symbols(Ram)
 62
     7
100
AcDbMText
 10
-12.80678272247314
 20
7.172344643622636
 30
0.0
 40
2.5
 41
0.0
 46
0.0
 71
     1
 72
     1
  1
\fArial|b1|i0;\H2.5000;AVAILABLE\PWELS RATING:\P \P\fArial|b0|i0;\H2.5000;3 STAR - 9 LPM
  7
STD 2.5 ARIAL
 73
     2
 44
0.9442214965820312
1001
ACAD
1000
MTEXTBEGIN
1070
    73
1070
     2
1070
    44
1040
0.9442214965820312
1070
    74
1070
     0
1000
MTEXTEND
  0
ENDBLK
  5
28B
330
289
100
AcDbEntity
  8
0
100
AcDbBlockEnd
  0
BLOCK
  5
28E
330
28D
100
AcDbEntity
  8
0
100
AcDbBlockBegin
  2
AVAIL WELS 4 STAR
 70
     0
 10
0.0
 20
0.0
 30
0.0
  3
AVAIL WELS 4 STAR
  1

  0
MTEXT
  5
290
330
28D
100
AcDbEntity
  8
Symbols(Ram)
 62
     7
100
AcDbMText
 10
-14.16825413703918
 20
7.172344643622636
 30
0.0
 40
2.5
 41
0.0
 46
0.0
 71
     1
 72
     1
  1
\fArial|b1|i0;\H2.5000;AVAILABLE\PWELS RATING:\P \P\fArial|b0|i0;\H2.5000;4 STAR - 7.5 LPM
  7
STD 2.5 ARIAL
 73
     2
 44
0.9442214965820312
1001
ACAD
1000
MTEXTBEGIN
1070
    73
1070
     2
1070
    44
1040
0.9442214965820312
1070
    74
1070
     0
1000
MTEXTEND
  0
ENDBLK
  5
28F
330
28D
100
AcDbEntity
  8
0
100
AcDbBlockEnd
  0
BLOCK
  5
292
330
291
100
AcDbEntity
  8
0
100
AcDbBlockBegin
  2
AVAIL WELS 5 & 6 STAR
 70
     0
 10
0.0
 20
0.0
 30
0.0
  3
AVAIL WELS 5 & 6 STAR
  1

  0
MTEXT
  5
294
330
291
100
AcDbEntity
  8
Symbols(Ram)
 62
     7
100
AcDbMText
 10
-12.80678272247314
 20
9.139472711831333
 30
0.0
 40
2.5
 41
0.0
 46
0.0
 71
     1
 72
     1
  1
\fArial|b1|i0;\H2.5000;AVAILABLE\PWELS RATING:\P \fArial|b0|i0;\H2.5000;\P5 STAR - 6 LPM\P6 STAR - 4 LPM
  7
STD 2.5 ARIAL
 73
     2
 44
0.9442214965820312
1001
ACAD
1000
MTEXTBEGIN
1070
    73
1070
     2
1070
    44
1040
0.9442214965820312
1070
    74
1070
     0
1000
MTEXTEND
  0
ENDBLK
  5
293
330
291
100
AcDbEntity
  8
0
100
AcDbBlockEnd
  0
BLOCK
  5
296
330
295
100
AcDbEntity
  8
0
100
AcDbBlockBegin
  2
AVAIL WELS RATING
 70
     0
 10
0.0
 20
0.0
 30
0.0
  3
AVAIL WELS RATING
  1

  0
MTEXT
  5
298
330
295
100
AcDbEntity
  8
Symbols(Ram)
 62
     7
100
AcDbMText
 10
-12.80678272247312
 20
11.10660078004002
 30
0.0
 40
2.5
 41
25.61356544494629
 46
0.0
 71
     1
 72
     1
  1
\fArial|b1|i0;\H2.5000;AVAILABLE\PWELS RATING:\P \P\fArial|b0|i0;\H2.5000;3 STAR - 9 LPM\P5 STAR - 6 LPM\P6 STAR - 4 LPM
  7
STD 2.5 ARIAL
 73
     2
 44
0.9442214965820312
1001
ACAD
1000
MTEXTBEGIN
1070
    73
1070
     2
1070
    44
1040
0.9442214965820312
1070
    74
1070
     0
1000
MTEXTEND
  0
ENDBLK
  5
297
330
295
100
AcDbEntity
  8
0
100
AcDbBlockEnd
  0
BLOCK
  5
29A
330
299
100
AcDbEntity
  8
0
100
AcDbBlockBegin
  2
AVAIL WELS WITH 4 STAR
 70
     0
 10
0.0
 20
0.0
 30
0.0
  3
AVAIL WELS WITH 4 STAR
  1

  0
MTEXT
  5
29C
330
299
100
AcDbEntity
  8
Symbols(Ram)
 62
     7
100
AcDbMText
 10
-14.16825413703918
 20
13.07372884824872
 30
0.0
 40
2.5
 41
0.0
 46
0.0
 71
     1
 72
     1
  1
\fArial|b1|i0;\H2.5000;AVAILABLE\PWELS RATING:\P \P\fArial|b0|i0;\H2.5000;3 STAR - 9 LPM\P4 STAR - 7.5 LPM\P5 STAR - 6 LPM\P6 STAR - 4 LPM
  7
STD 2.5 ARIAL
 73
     2
 44
0.9442214965820312
1001
ACAD
1000
MTEXTBEGIN
1070
    73
1070
     2
1070
    44
1040
0.9442214965820312
1070
    74
1070
     0
1000
MTEXTEND
  0
ENDBLK
  5
29B
330
299
100
AcDbEntity
  8
0
100
AcDbBlockEnd
  0
BLOCK
  5
29E
330
29D
100
AcDbEntity
  8
0
100
AcDbBlockBegin
  2
AVAILABLE WELS 4_5_6
 70
     0
 10
0.0
 20
0.0
 30
0.0
  3
AVAILABLE WELS 4_5_6
  1

  0
MTEXT
  5
2A0
330
29D
100
AcDbEntity
  8
Symbols(Ram)
 62
     7
100
AcDbMText
 10
-14.16825413703918
 20
11.10660078004002
 30
0.0
 40
2.5
 41
0.0
 46
0.0
 71
     1
 72
     1
  1
\fArial|b1|i0;\H2.5000;AVAILABLE\PWELS RATING:\P \P\fArial|b0|i0;\H2.5000;4 STAR - 7.5 LPM\P5 STAR - 6 LPM\P6 STAR - 4 LPM
  7
STD 2.5 ARIAL
 73
     2
 44
0.9442214965820312
1001
ACAD
1000
MTEXTBEGIN
1070
    73
1070
     2
1070
    44
1040
0.9442214965820312
1070
    74
1070
     0
1000
MTEXTEND
  0
ENDBLK
  5
29F
330
29D
100
AcDbEntity
  8
0
100
AcDbBlockEnd
  0
BLOCK
  5
2A2
330
2A1
100
AcDbEntity
  8
0
100
AcDbBlockBegin
  2
CENTRE STICKER
 70
     0
 10
0.0
 20
0.0
 30
0.0
  3
CENTRE STICKER
  1

  0
LINE
  5
2A4
330
2A1
100
AcDbEntity
  8
Sketch Geometry(Ram)
100
AcDbLine
 10
0.0
 20
0.0
 30
0.0
 11
2.999999999999998
 21
0.0
 31
0.0
  0
MTEXT
  5
2A5
330
2A1
100
AcDbEntity
  8
Symbols(Ram)
 62
     7
100
AcDbMText
 10
17.0
 20
1.124056048754846
 30
0.0
 40
2.5
 41
0.0
 46
0.0
 71
     2
 72
     1
  1
APPLY CENTRE\PSTICKER\P(STK10)
  7
STD 2.5 ARIAL
 73
     2
 44
0.9442214965820312
1001
ACAD
1000
MTEXTBEGIN
1070
    73
1070
     2
1070
    44
1040
0.9442214965820312
1070
    74
1070
     0
1000
MTEXTEND
  0
ENDBLK
  5
2A3
330
2A1
100
AcDbEntity
  8
0
100
AcDbBlockEnd
  0
BLOCK
  5
2A7
330
2A6
100
AcDbEntity
  8
0
100
AcDbBlockBegin
  2
GREASE
 70
     0
 10
0.0
 20
0.0
 30
0.0
  3
GREASE
  1

  0
LINE
  5
2A9
330
2A6
100
AcDbEntity
  8
Sketch Geometry(Ram)
100
AcDbLine
 10
0.0
 20
0.0
 30
0.0
 11
-3.000000000000006
 21
0.0
 31
0.0
  0
MTEXT
  5
2AA
330
2A6
100
AcDbEntity
  8
Symbols(Ram)
 62
     7
100
AcDbMText
 10
-19.0
 20
1.165139314759784
 30
0.0
 40
2.5
 41
0.0
 46
0.0
 71
     1
 72
     1
  1
GREASE
  7
STD 2.5 ARIAL
 73
     1
 44
1.0
1001
ACAD
1000
MTEXTBEGIN
1070
    73
1070
     1
1070
    44
1040
1.0
1070
    74
1070
     0
1000
MTEXTEND
  0
ENDBLK
  5
2A8
330
2A6
100
AcDbEntity
  8
0
100
AcDbBlockEnd
  0
BLOCK
  5
2AC
330
2AB
100
AcDbEntity
  8
0
100
AcDbBlockBegin
  2
J_VALVE
 70
     0
 10
0.0
 20
0.0
 30
0.0
  3
J_VALVE
  1

  0
MTEXT
  5
2AE
330
2AB
100
AcDbEntity
  8
Symbols(Ram)
 62
     7
100
AcDbMText
 10
-19.40834522247314
 20
23.09343125671148
 30
0.0
 40
2.5
 41
0.0
 46
0.0
 71
     1
 72
     1
  3
Headworks Available:\PJumper Valve (Standard)\P \PMax Pressure: 1000kpa\PMin Pressure: 150kpa\PMax Temp: 80\fAIGDT|b0|i0;\H2.5000;~\fArial|b0|i0;\H2.5000;c\P \PMounting Holes:\P- Taps - Min \fAIGDT|b0|i0;\H2.5000;n\fArial|b0|i0;\H2.5000;32mm\P- Spout
  1
 - Min \fAIGDT|b0|i0;\H2.5000;n\fArial|b0|i0;\H2.5000;21mm
  7
STD 2.5 ARIAL
 73
     2
 44
1.146487116813659
1001
ACAD
1000
MTEXTBEGIN
1070
    73
1070
     2
1070
    44
1040
1.146487116813659
1070
    74
1070
     0
1000
MTEXTEND
  0
ENDBLK
  5
2AD
330
2AB
100
AcDbEntity
  8
0
100
AcDbBlockEnd
  0
BLOCK
  5
2B0
330
2AF
100
AcDbEntity
  8
0
100
AcDbBlockBegin
  2
J_VALVE 3_4 TURN SECURE FIT NO HOLE DETAIL
 70
     0
 10
0.0
 20
0.0
 30
0.0
  3
J_VALVE 3_4 TURN SECURE FIT NO HOLE DETAIL
  1

  0
MTEXT
  5
2B2
330
2AF
100
AcDbEntity
  8
Symbols(Ram)
 62
     7
100
AcDbMText
 10
-35.61356604099275
 20
18.25526814907789
 30
0.0
 40
2.5
 41
0.0
 46
0.0
 71
     1
 72
     1
  3
Headworks Available:\PJumper Valve (Standard)\PCeramic Disc 3/4 Turn (Optional)\P \PHandles are \fArial|b0|i1;\H2.5000;Secure Fit\fArial|b0|i0;\H2.5000; - Fit with key supplied.\P \PMax Pressure: 1000kpa\PMin Pressure: 150kpa\PMax Temp: 80\fAIGDT|b0|
  1
i0;\H2.5000;~\fArial|b0|i0;\H2.5000;c
  7
STD 2.5 ARIAL
 73
     2
 44
0.999508261680603
1001
ACAD
1000
MTEXTBEGIN
1070
    73
1070
     2
1070
    44
1040
0.999508261680603
1070
    74
1070
     0
1000
MTEXTEND
  0
ENDBLK
  5
2B1
330
2AF
100
AcDbEntity
  8
0
100
AcDbBlockEnd
  0
BLOCK
  5
2B4
330
2B3
100
AcDbEntity
  8
0
100
AcDbBlockBegin
  2
J_VALVE 3_4 TURN SECURE FIT SPOUT ONLY
 70
     0
 10
0.0
 20
0.0
 30
0.0
  3
J_VALVE 3_4 TURN SECURE FIT SPOUT ONLY
  1

  0
MTEXT
  5
2B6
330
2B3
100
AcDbEntity
  8
Symbols(Ram)
 62
     7
100
AcDbMText
 10
-35.61356604099275
 20
25.59216987341642
 30
0.0
 40
2.5
 41
0.0
 46
0.0
 71
     1
 72
     1
  3
Headworks Available:\PJumper Valve (Standard)\PCeramic Disc 3/4 Turn (Optional)\P \PHandles are \fArial|b0|i1;\H2.5000;Secure Fit\fArial|b0|i0;\H2.5000; - Fit with key supplied.\P \PMax Pressure: 1000kpa\PMin Pressure: 150kpa\PMax Temp: 80\fAIGDT|b0|
  1
i0;\H2.5000;~\fArial|b0|i0;\H2.5000;c\P \PMounting Holes:\P- Spout - Min \fAIGDT|b0|i0;\H2.5000;n\fArial|b0|i0;\H2.5000;21mm
  7
STD 2.5 ARIAL
 73
     2
 44
1.047070741653442
1001
ACAD
1000
MTEXTBEGIN
1070
    73
1070
     2
1070
    44
1040
1.047070741653442
1070
    74
1070
     0
1000
MTEXTEND
  0
ENDBLK
  5
2B5
330
2B3
100
AcDbEntity
  8
0
100
AcDbBlockEnd
  0
BLOCK
  5
2B8
330
2B7
100
AcDbEntity
  8
0
100
AcDbBlockBegin
  2
J_VALVE 3_4 TURN SECURE FIT TAP ONLY
 70
     0
 10
0.0
 20
0.0
 30
0.0
  3
J_VALVE 3_4 TURN SECURE FIT TAP ONLY
  1

  0
MTEXT
  5
2BA
330
2B7
100
AcDbEntity
  8
Symbols(Ram)
 62
     7
100
AcDbMText
 10
-35.61356604099275
 20
25.59216987341642
 30
0.0
 40
2.5
 41
0.0
 46
0.0
 71
     1
 72
     1
  3
Headworks Available:\PJumper Valve (Standard)\PCeramic Disc 3/4 Turn (Optional)\P \PHandles are \fArial|b0|i1;\H2.5000;Secure Fit\fArial|b0|i0;\H2.5000; - Fit with key supplied.\P \PMax Pressure: 1000kpa\PMin Pressure: 150kpa\PMax Temp: 80\fAIGDT|b0|
  1
i0;\H2.5000;~\fArial|b0|i0;\H2.5000;c\P \PMounting Holes:\P- Taps - Min \fAIGDT|b0|i0;\H2.5000;n\fArial|b0|i0;\H2.5000;32mm
  7
STD 2.5 ARIAL
 73
     2
 44
1.047070741653442
1001
ACAD
1000
MTEXTBEGIN
1070
    73
1070
     2
1070
    44
1040
1.047070741653442
1070
    74
1070
     0
1000
MTEXTEND
  0
ENDBLK
  5
2B9
330
2B7
100
AcDbEntity
  8
0
100
AcDbBlockEnd
  0
BLOCK
  5
2BC
330
2BB
100
AcDbEntity
  8
0
100
AcDbBlockBegin
  2
J_VALVE 3_4 TURN SPOUT ONLY
 70
     0
 10
0.0
 20
0.0
 30
0.0
  3
J_VALVE 3_4 TURN SPOUT ONLY
  1

  0
MTEXT
  5
2BE
330
2BB
100
AcDbEntity
  8
Symbols(Ram)
 62
     7
100
AcDbMText
 10
-25.51829099655151
 20
21.65791373699903
 30
0.0
 40
2.5
 41
0.0
 46
0.0
 71
     1
 72
     1
  3
Headworks Available:\PJumper Valve (Standard)\PCeramic Disc 3/4 Turn (Optional)\P \PMax Pressure: 1000kpa\PMin Pressure: 150kpa\PMax Temp: 80\fAIGDT|b0|i0;\H2.5000;~\fArial|b0|i0;\H2.5000;c\P \PMounting Holes:\P- Spout - Min \fAIGDT|b0|i0;\H2.5000;n\
  1
fArial|b0|i0;\H2.5000;21mm
  7
STD 2.5 ARIAL
 73
     2
 44
1.069926142692564
1001
ACAD
1000
MTEXTBEGIN
1070
    73
1070
     2
1070
    44
1040
1.069926142692564
1070
    74
1070
     0
1000
MTEXTEND
  0
ENDBLK
  5
2BD
330
2BB
100
AcDbEntity
  8
0
100
AcDbBlockEnd
  0
BLOCK
  5
2C0
330
2BF
100
AcDbEntity
  8
0
100
AcDbBlockBegin
  2
J_VALVE 3_4 TURN TAP ONLY
 70
     0
 10
0.0
 20
0.0
 30
0.0
  3
J_VALVE 3_4 TURN TAP ONLY
  1

  0
MTEXT
  5
2C2
330
2BF
100
AcDbEntity
  8
Symbols(Ram)
 62
     7
100
AcDbMText
 10
-25.51829099655151
 20
21.65791373699903
 30
0.0
 40
2.5
 41
0.0
 46
0.0
 71
     1
 72
     1
  3
Headworks Available:\PJumper Valve (Standard)\PCeramic Disc 3/4 Turn (Optional)\P \PMax Pressure: 1000kpa\PMin Pressure: 150kpa\PMax Temp: 80\fAIGDT|b0|i0;\H2.5000;~\fArial|b0|i0;\H2.5000;c\P \PMounting Holes:\P- Taps - Min \fAIGDT|b0|i0;\H2.5000;n\f
  1
Arial|b0|i0;\H2.5000;32mm
  7
STD 2.5 ARIAL
 73
     2
 44
1.069926142692564
1001
ACAD
1000
MTEXTBEGIN
1070
    73
1070
     2
1070
    44
1040
1.069926142692564
1070
    74
1070
     0
1000
MTEXTEND
  0
ENDBLK
  5
2C1
330
2BF
100
AcDbEntity
  8
0
100
AcDbBlockEnd
  0
BLOCK
  5
2C4
330
2C3
100
AcDbEntity
  8
0
100
AcDbBlockBegin
  2
J_VALVE NO HOLE DETAIL
 70
     0
 10
0.0
 20
0.0
 30
0.0
  3
J_VALVE NO HOLE DETAIL
  1

  0
MTEXT
  5
2C6
330
2C3
100
AcDbEntity
  8
Symbols(Ram)
 62
     7
100
AcDbMText
 10
-19.40834522247314
 20
12.35388394445181
 30
0.0
 40
2.5
 41
0.0
 46
0.0
 71
     1
 72
     1
  1
Headworks Available:\PJumper Valve (Standard)\P \PMax Pressure: 1000kpa\PMin Pressure: 150kpa\PMax Temp: 80\fAIGDT|b0|i0;\H2.5000;~\fArial|b0|i0;\H2.5000;c
  7
STD 2.5 ARIAL
 73
     2
 44
1.03268015384674
1001
ACAD
1000
MTEXTBEGIN
1070
    73
1070
     2
1070
    44
1040
1.03268015384674
1070
    74
1070
     0
1000
MTEXTEND
  0
ENDBLK
  5
2C5
330
2C3
100
AcDbEntity
  8
0
100
AcDbBlockEnd
  0
BLOCK
  5
2C8
330
2C7
100
AcDbEntity
  8
0
100
AcDbBlockBegin
  2
J_VALVE SPOUT ONLY
 70
     0
 10
0.0
 20
0.0
 30
0.0
  3
J_VALVE SPOUT ONLY
  1

  0
MTEXT
  5
2CA
330
2C7
100
AcDbEntity
  8
Symbols(Ram)
 62
     7
100
AcDbMText
 10
-19.40834522247314
 20
19.69078566879034
 30
0.0
 40
2.5
 41
0.0
 46
0.0
 71
     1
 72
     1
  1
Headworks Available:\PJumper Valve (Standard)\P \PMax Pressure: 1000kpa\PMin Pressure: 150kpa\PMax Temp: 80\fAIGDT|b0|i0;\H2.5000;~\fArial|b0|i0;\H2.5000;c\P \PMounting Holes:\P- Spout - Min \fAIGDT|b0|i0;\H2.5000;n\fArial|b0|i0;\H2.5000;21mm
  7
STD 2.5 ARIAL
 73
     2
 44
1.085639238357542
1001
ACAD
1000
MTEXTBEGIN
1070
    73
1070
     2
1070
    44
1040
1.085639238357542
1070
    74
1070
     0
1000
MTEXTEND
  0
ENDBLK
  5
2C9
330
2C7
100
AcDbEntity
  8
0
100
AcDbBlockEnd
  0
BLOCK
  5
2CC
330
2CB
100
AcDbEntity
  8
0
100
AcDbBlockBegin
  2
J_VALVE STD 3_4 TURN
 70
     0
 10
0.0
 20
0.0
 30
0.0
  3
J_VALVE STD 3_4 TURN
  1

  0
MTEXT
  5
2CE
330
2CB
100
AcDbEntity
  8
Symbols(Ram)
 62
     7
100
AcDbMText
 10
-25.51829099655151
 20
25.06055932492018
 30
0.0
 40
2.5
 41
0.0
 46
0.0
 71
     1
 72
     1
  3
Headworks Available:\PJumper Valve (Standard)\PCeramic Disc 3/4 Turn (Optional)\P \PMax Pressure: 1000kpa\PMin Pressure: 150kpa\PMax Temp: 80\fAIGDT|b0|i0;\H2.5000;~\fArial|b0|i0;\H2.5000;c\P \PMounting Holes:\P- Taps - Min \fAIGDT|b0|i0;\H2.5000;n\f
  1
Arial|b0|i0;\H2.5000;32mm\P- Spout - Min \fAIGDT|b0|i0;\H2.5000;n\fArial|b0|i0;\H2.5000;21mm
  7
STD 2.5 ARIAL
 73
     2
 44
1.126260519027708
1001
ACAD
1000
MTEXTBEGIN
1070
    73
1070
     2
1070
    44
1040
1.126260519027708
1070
    74
1070
     0
1000
MTEXTEND
  0
ENDBLK
  5
2CD
330
2CB
100
AcDbEntity
  8
0
100
AcDbBlockEnd
  0
BLOCK
  5
2D0
330
2CF
100
AcDbEntity
  8
0
100
AcDbBlockBegin
  2
J_VALVE STD 3_4 TURN NO HOLE DETAIL
 70
     0
 10
0.0
 20
0.0
 30
0.0
  3
J_VALVE STD 3_4 TURN NO HOLE DETAIL
  1

  0
MTEXT
  5
2D2
330
2CF
100
AcDbEntity
  8
Symbols(Ram)
 62
     7
100
AcDbMText
 10
-25.51829099655151
 20
14.3210120126605
 30
0.0
 40
2.5
 41
0.0
 46
0.0
 71
     1
 72
     1
  1
Headworks Available:\PJumper Valve (Standard)\PCeramic Disc 3/4 Turn (Optional)\P \PMax Pressure: 1000kpa\PMin Pressure: 150kpa\PMax Temp: 80\fAIGDT|b0|i0;\H2.5000;~\fArial|b0|i0;\H2.5000;c
  7
STD 2.5 ARIAL
 73
     2
 44
1.017937064170837
1001
ACAD
1000
MTEXTBEGIN
1070
    73
1070
     2
1070
    44
1040
1.017937064170837
1070
    74
1070
     0
1000
MTEXTEND
  0
ENDBLK
  5
2D1
330
2CF
100
AcDbEntity
  8
0
100
AcDbBlockEnd
  0
BLOCK
  5
2D4
330
2D3
100
AcDbEntity
  8
0
100
AcDbBlockBegin
  2
J_VALVE STD 3_4 TURN SECURE FIT
 70
     0
 10
0.0
 20
0.0
 30
0.0
  3
J_VALVE STD 3_4 TURN SECURE FIT
  1

  0
MTEXT
  5
2D6
330
2D3
100
AcDbEntity
  8
Symbols(Ram)
 62
     7
100
AcDbMText
 10
-35.61356604099275
 20
28.99481546133756
 30
0.0
 40
2.5
 41
0.0
 46
0.0
 71
     1
 72
     1
  3
Headworks Available:\PJumper Valve (Standard)\PCeramic Disc 3/4 Turn (Optional)\P \PHandles are \fArial|b0|i1;\H2.5000;Secure Fit\fArial|b0|i0;\H2.5000; - Fit with key supplied.\P \PMax Pressure: 1000kpa\PMin pressure: 150kpa\PMax Temp: 80\fAIGDT|b0|
  1
i0;\H2.5000;~\fArial|b0|i0;\H2.5000;c\P \PMounting Holes:\P- Taps - Min \fAIGDT|b0|i0;\H2.5000;n\fArial|b0|i0;\H2.5000;32mm\P- Spout - Min \fAIGDT|b0|i0;\H2.5000;n\fArial|b0|i0;\H2.5000;21mm
  7
STD 2.5 ARIAL
 73
     2
 44
1.095920681953429
1001
ACAD
1000
MTEXTBEGIN
1070
    73
1070
     2
1070
    44
1040
1.095920681953429
1070
    74
1070
     0
1000
MTEXTEND
  0
ENDBLK
  5
2D5
330
2D3
100
AcDbEntity
  8
0
100
AcDbBlockEnd
  0
BLOCK
  5
2D8
330
2D7
100
AcDbEntity
  8
0
100
AcDbBlockBegin
  2
J_VALVE STD 3_4 TURN SECURE FIT NO HOLE DETAIL
 70
     0
 10
0.0
 20
0.0
 30
0.0
  3
J_VALVE STD 3_4 TURN SECURE FIT NO HOLE DETAIL
  1

  0
MTEXT
  5
2DA
330
2D7
100
AcDbEntity
  8
Symbols(Ram)
 62
     7
100
AcDbMText
 10
-35.61356604099275
 20
18.25526814907789
 30
0.0
 40
2.5
 41
0.0
 46
0.0
 71
     1
 72
     1
  3
Headworks Available:\PJumper Valve (Standard)\PCeramic Disc 3/4 Turn (Optional)\P \PHandles are \fArial|b0|i1;\H2.5000;Secure Fit\fArial|b0|i0;\H2.5000; - Fit with key supplied.\P \PMax Pressure: 1000kpa\PMin pressure: 150kpa\PMax Temp: 80\fAIGDT|b0|
  1
i0;\H2.5000;~\fArial|b0|i0;\H2.5000;c
  7
STD 2.5 ARIAL
 73
     2
 44
0.999508261680603
1001
ACAD
1000
MTEXTBEGIN
1070
    73
1070
     2
1070
    44
1040
0.999508261680603
1070
    74
1070
     0
1000
MTEXTEND
  0
ENDBLK
  5
2D9
330
2D7
100
AcDbEntity
  8
0
100
AcDbBlockEnd
  0
BLOCK
  5
2DC
330
2DB
100
AcDbEntity
  8
0
100
AcDbBlockBegin
  2
J_VALVE TAP ONLY
 70
     0
 10
0.0
 20
0.0
 30
0.0
  3
J_VALVE TAP ONLY
  1

  0
MTEXT
  5
2DE
330
2DB
100
AcDbEntity
  8
Symbols(Ram)
 62
     7
100
AcDbMText
 10
-19.40834522247314
 20
19.69078566879034
 30
0.0
 40
2.5
 41
0.0
 46
0.0
 71
     1
 72
     1
  1
Headworks Available:\PJumper Valve (Standard)\P \PMax Pressure: 1000kpa\PMin Pressure: 150kpa\PMax Temp: 80\fAIGDT|b0|i0;\H2.5000;~\fArial|b0|i0;\H2.5000;c\P \PMounting Holes:\P- Taps - Min \fAIGDT|b0|i0;\H2.5000;n\fArial|b0|i0;\H2.5000;32mm
  7
STD 2.5 ARIAL
 73
     2
 44
1.085639238357542
1001
ACAD
1000
MTEXTBEGIN
1070
    73
1070
     2
1070
    44
1040
1.085639238357542
1070
    74
1070
     0
1000
MTEXTEND
  0
ENDBLK
  5
2DD
330
2DB
100
AcDbEntity
  8
0
100
AcDbBlockEnd
  0
BLOCK
  5
2E0
330
2DF
100
AcDbEntity
  8
0
100
AcDbBlockBegin
  2
Koh characteristic
 70
     2
 10
0.0
 20
0.0
 30
0.0
  3
Koh characteristic
  1

  0
LINE
  5
2E2
330
2DF
100
AcDbEntity
  8
Sketch Lines(Ram)
100
AcDbLine
 10
-2.798607274432844
 20
5.375062500920826
 30
0.0
 11
-2.798607274432844
 21
-5.375062500920826
 31
0.0
  0
LINE
  5
2E3
330
2DF
100
AcDbEntity
  8
Sketch Lines(Ram)
100
AcDbLine
 10
-2.798607274432844
 20
-5.375062500920826
 30
0.0
 11
2.798607274432836
 21
-5.375062500920826
 31
0.0
  0
LINE
  5
2E4
330
2DF
100
AcDbEntity
  8
Sketch Lines(Ram)
100
AcDbLine
 10
2.798607274432836
 20
-5.375062500920826
 30
0.0
 11
2.798607274432836
 21
5.375062500920826
 31
0.0
  0
LINE
  5
2E5
330
2DF
100
AcDbEntity
  8
Sketch Lines(Ram)
100
AcDbLine
 10
2.798607274432836
 20
5.375062500920826
 30
0.0
 11
-2.798607274432844
 21
5.375062500920826
 31
0.0
  0
LINE
  5
2E6
330
2DF
100
AcDbEntity
  8
Sketch Lines(Ram)
100
AcDbLine
 10
-2.798607274432844
 20
0.0
 30
0.0
 11
2.798607274432836
 21
0.0
 31
0.0
  0
ATTDEF
  5
2E8
102
{ACAD_XDICTIONARY
360
A60
102
}
330
2DF
100
AcDbEntity
  8
Symbols(Ram)
 62
     7
100
AcDbText
 10
-0.8478202475273363
 20
1.573328946584412
 30
0.0
 40
2.489199936389923
  1
3
  7
Text Style14
100
AcDbAttributeDefinition
280
     0
  3
Enter Prompt for Field
  2
Enter_Prompt_for_Field_001
 70
     0
280
     0
  0
ENDBLK
  5
2E1
330
2DF
100
AcDbEntity
  8
0
100
AcDbBlockEnd
  0
BLOCK
  5
2EC
330
2EB
100
AcDbEntity
  8
0
100
AcDbBlockBegin
  2
NOTE 001
 70
     2
 10
0.0
 20
0.0
 30
0.0
  3
NOTE 001
  1

  0
MTEXT
  5
2EE
330
2EB
100
AcDbEntity
  8
Symbols(Ram)
 62
     7
100
AcDbMText
 10
-42.35590971613071
 20
16.96511149406433
 30
0.0
 40
2.5
 41
0.0
 46
0.0
 71
     1
 72
     1
  1
NOTE:\P \P1. INSTALLATION INSTRUCTIONS:\P2. APPLY WELS LABEL:\P3. CARTON:\P4. LABEL:\P5. MISC. PACKING:\P6. WARANTY CARD:\P 
  7
STD 2.5 ARIAL
 73
     2
 44
0.9442215561866758
1001
ACAD
1000
MTEXTBEGIN
1070
    73
1070
     2
1070
    44
1040
0.9442215561866758
1070
    74
1070
     0
1000
MTEXTEND
  0
ATTDEF
  5
2F0
102
{ACAD_XDICTIONARY
360
A63
102
}
330
2EB
100
AcDbEntity
  8
Symbols(Ram)
 62
     7
100
AcDbText
 10
16.26863993311069
 20
6.719737660884844
 30
0.0
 40
2.489199936389923
  1
AAAA
  7
Text Style59
100
AcDbAttributeDefinition
280
     0
  3
INSTRUCTIONS
  2
INSTRUCTIONS_001
 70
     0
280
     0
  0
ATTDEF
  5
2F2
102
{ACAD_XDICTIONARY
360
A66
102
}
330
2EB
100
AcDbEntity
  8
Symbols(Ram)
 62
     7
100
AcDbText
 10
-2.025255139964639
 20
2.789737660884838
 30
0.0
 40
2.489199936389923
  1
BBBBB
  7
Text Style59
100
AcDbAttributeDefinition
280
     0
  3
WELS LABEL
  2
WELS_LABEL_001
 70
     0
280
     0
  0
ATTDEF
  5
2F3
102
{ACAD_XDICTIONARY
360
A69
102
}
330
2EB
100
AcDbEntity
  8
Symbols(Ram)
 62
     7
100
AcDbText
 10
-21.5001692928418
 20
-1.182711178412404
 30
0.0
 40
2.489199936389923
  1
CCCC
  7
Text Style59
100
AcDbAttributeDefinition
280
     0
  3
CARTON
  2
CARTON_001
 70
     0
280
     0
  0
ATTDEF
  5
2F4
102
{ACAD_XDICTIONARY
360
A6C
102
}
330
2EB
100
AcDbEntity
  8
Symbols(Ram)
 62
     7
100
AcDbText
 10
-9.91961932874967
 20
-9.000262339115181
 30
0.0
 40
2.489199936389923
  1
DDDD
  7
Text Style59
100
AcDbAttributeDefinition
280
     0
  3
MISC. PACKING
  2
MISC._PACKING_001
 70
     0
280
     0
  0
ATTDEF
  5
2F5
102
{ACAD_XDICTIONARY
360
A6F
102
}
330
2EB
100
AcDbEntity
  8
Symbols(Ram)
 62
     7
100
AcDbText
 10
-25.62709020036181
 20
-5.070262339115174
 30
0.0
 40
2.489199936389923
  1
EEEE
  7
Text Style59
100
AcDbAttributeDefinition
280
     0
  3
LABEL
  2
LABEL_001
 70
     0
280
     0
  0
ATTDEF
  5
2F6
102
{ACAD_XDICTIONARY
360
A72
102
}
330
2EB
100
AcDbEntity
  8
Symbols(Ram)
 62
     7
100
AcDbText
 10
-7.950273165483126
 20
-12.93026233911518
 30
0.0
 40
2.489199936389923
  1
FFFF
  7
Text Style59
100
AcDbAttributeDefinition
280
     0
  3
WARRANTY CARD
  2
WARRANTY_CARD_001
 70
     0
280
     0
  0
ENDBLK
  5
2ED
330
2EB
100
AcDbEntity
  8
0
100
AcDbBlockEnd
  0
BLOCK
  5
2F8
330
2F7
100
AcDbEntity
  8
0
100
AcDbBlockBegin
  2
PRESSURE AND TEMP
 70
     0
 10
0.0
 20
0.0
 30
0.0
  3
PRESSURE AND TEMP
  1

  0
MTEXT
  5
2FA
330
2F7
100
AcDbEntity
  8
Symbols(Ram)
 62
     7
100
AcDbMText
 10
-22.5190544128418
 20
3.216175381094216
 30
0.0
 40
2.5
 41
0.0
 46
0.0
 71
     1
 72
     1
  1
MAX PRESSURE : 1000 kpa\PMAX TEMP : 80°c
  7
STD 2.5 ARIAL
 73
     2
 44
0.9442214965820312
1001
ACAD
1000
MTEXTBEGIN
1070
    73
1070
     2
1070
    44
1040
0.9442214965820312
1070
    74
1070
     0
1000
MTEXTEND
  0
ENDBLK
  5
2F9
330
2F7
100
AcDbEntity
  8
0
100
AcDbBlockEnd
  0
BLOCK
  5
2FC
330
2FB
100
AcDbEntity
  8
0
100
AcDbBlockBegin
  2
PRESSURE AND TEMP ONLY
 70
     0
 10
0.0
 20
0.0
 30
0.0
  3
PRESSURE AND TEMP ONLY
  1

  0
MTEXT
  5
2FE
330
2FB
100
AcDbEntity
  8
Symbols(Ram)
 62
     7
100
AcDbMText
 10
-34.83803272247314
 20
11.57488588243723
 30
0.0
 40
2.5
 41
0.0
 46
0.0
 71
     1
 72
     1
  1
NOTES:\P1. Maximum Hydrostatic Pressure: : 1000kpa\P2. Minimum Hydrostatic Pressure: : 150kpa\P3. Maximum Water Temperature : 80°c\P4. Supplied With Flexible Connectors.\P5. Requires a \fAIGDT|b0|i0;\H2.5000;n\fArial|b0|i0;\H2.5000;32 - 35mm Hole.
  7
STD 2.5 ARIAL
 73
     2
 44
0.9600000381469724
1001
ACAD
1000
MTEXTBEGIN
1070
    73
1070
     2
1070
    44
1040
0.9600000381469724
1070
    74
1070
     0
1000
MTEXTEND
  0
ENDBLK
  5
2FD
330
2FB
100
AcDbEntity
  8
0
100
AcDbBlockEnd
  0
BLOCK
  5
300
330
2FF
100
AcDbEntity
  8
0
100
AcDbBlockBegin
  2
PRESSURE AND TEMP ONLY NO HOSE
 70
     0
 10
0.0
 20
0.0
 30
0.0
  3
PRESSURE AND TEMP ONLY NO HOSE
  1

  0
MTEXT
  5
302
330
2FF
100
AcDbEntity
  8
Symbols(Ram)
 62
     7
100
AcDbMText
 10
-33.86813879013061
 20
7.4762699380517
 30
0.0
 40
2.5
 41
0.0
 46
0.0
 71
     1
 72
     1
  1
NOTES:\P1. Maximum Hydrostatic Pressure: 1000kpa\P2. Minimum Hydrostatic Pressure: 150kpa\P3. Maximum Water Temperature : 80°c
  7
STD 2.5 ARIAL
 73
     2
 44
0.9442214965820312
1001
ACAD
1000
MTEXTBEGIN
1070
    73
1070
     2
1070
    44
1040
0.9442214965820312
1070
    74
1070
     0
1000
MTEXTEND
  0
ENDBLK
  5
301
330
2FF
100
AcDbEntity
  8
0
100
AcDbBlockEnd
  0
BLOCK
  5
304
330
303
100
AcDbEntity
  8
0
100
AcDbBlockBegin
  2
PRESSURE AND TEMP_LASER-ETCHED
 70
     0
 10
0.0
 20
0.0
 30
0.0
  3
PRESSURE AND TEMP_LASER-ETCHED
  1

  0
MTEXT
  5
306
330
303
100
AcDbEntity
  8
Symbols(Ram)
 62
     7
100
AcDbMText
 10
-33.86813879013061
 20
13.59489351511001
 30
0.0
 40
2.5
 41
0.0
 46
0.0
 71
     1
 72
     1
  3
NOTES:\P1. Maximum Hydrostatic Pressure: 1000kpa\P2. Minimum Hydrostatic Pressure: 150kpa\P3. Maximum Water Temperature : 80°c\P4. Supplied With Flexible Connectors.\P5. Requires a \fAIGDT|b0|i0;\H2.5000;n\fArial|b0|i0;\H2.5000;32 - 35mm Hole.\P6. La
  1
ser-etched H and C Markings.
  7
STD 2.5 ARIAL
 73
     2
 44
0.9600000381469724
1001
ACAD
1000
MTEXTBEGIN
1070
    73
1070
     2
1070
    44
1040
0.9600000381469724
1070
    74
1070
     0
1000
MTEXTEND
  0
ENDBLK
  5
305
330
303
100
AcDbEntity
  8
0
100
AcDbBlockEnd
  0
BLOCK
  5
308
330
307
100
AcDbEntity
  8
0
100
AcDbBlockBegin
  2
PRESSURE AND TEMP_LASER-ETCHED NO HOSE
 70
     0
 10
0.0
 20
0.0
 30
0.0
  3
PRESSURE AND TEMP_LASER-ETCHED NO HOSE
  1

  0
MTEXT
  5
30A
330
307
100
AcDbEntity
  8
Symbols(Ram)
 62
     7
100
AcDbMText
 10
-34.35308456420898
 20
9.463405609130859
 30
0.0
 40
2.5
 41
0.0
 46
0.0
 71
     1
 72
     1
  1
NOTES:\P1. Maximum Hydrostatic Pressure : 1000kpa\P2. Minimum Hydrostatic Pressure : 150kpa\P3. Maximum Water Temperature : 80°c\P4. Laser-etched H and C Markings.
  7
STD 2.5 ARIAL
 73
     2
 44
0.9442214965820312
1001
ACAD
1000
MTEXTBEGIN
1070
    73
1070
     2
1070
    44
1040
0.9442214965820312
1070
    74
1070
     0
1000
MTEXTEND
  0
ENDBLK
  5
309
330
307
100
AcDbEntity
  8
0
100
AcDbBlockEnd
  0
BLOCK
  5
30C
330
30B
100
AcDbEntity
  8
0
100
AcDbBlockBegin
  2
QUOTATION ONLY
 70
     0
 10
0.0
 20
0.0
 30
0.0
  3
QUOTATION ONLY
  1

  0
MTEXT
  5
30E
102
{ACAD_XDICTIONARY
360
A75
102
}
330
30B
100
AcDbEntity
  8
Symbols(Ram)
 62
     1
100
AcDbMText
 10
-3.530143797397613
 20
6.114388415116795
 30
0.0
 40
2.5
 41
42.70007610321044
 46
0.0
 71
     2
 72
     1
  1
{\H1.4x;QUOTATION \PONLY\H1.27999x; \H0.78126x;\P}May be subject to alteration {\H1.31916x; }prior to production.{\H1.14106x; }
  7
STD 2.5 ARIAL
 11
0.8660254037844385
 21
0.5000000000000007
 31
0.0
 73
     1
 44
0.8339310288429258
1001
ACAD
1000
MTEXTBEGIN
1070
    73
1070
     1
1070
    44
1040
0.8339310288429258
1070
    74
1070
     0
1000
MTEXTEND
  0
ENDBLK
  5
30D
330
30B
100
AcDbEntity
  8
0
100
AcDbBlockEnd
  0
BLOCK
  5
310
330
30F
100
AcDbEntity
  8
0
100
AcDbBlockBegin
  2
Quote Only
 70
     0
 10
0.0
 20
0.0
 30
0.0
  3
Quote Only
  1

  0
MTEXT
  5
312
102
{ACAD_XDICTIONARY
360
A77
102
}
330
30F
100
AcDbEntity
  8
Symbols(Ram)
 62
     1
100
AcDbMText
 10
-5.960016744211316
 20
10.32305181493523
 30
0.0
 40
2.5
 41
42.51561164855953
 46
0.0
 71
     2
 72
     1
  1
{\H2.8x;QUOTE\PONLY\H1.39959x; \H0.71449x;\P}NOT FOR PRODUCTION{\H1.97342x; }
  7
STD 2.5 ARIAL
 11
0.8660254037844385
 21
0.5000000000000007
 31
0.0
 73
     1
 44
0.8201032876968382
1001
ACAD
1000
MTEXTBEGIN
1070
    73
1070
     1
1070
    44
1040
0.8201032876968382
1070
    74
1070
     0
1000
MTEXTEND
  0
ENDBLK
  5
311
330
30F
100
AcDbEntity
  8
0
100
AcDbBlockEnd
  0
BLOCK
  5
314
330
313
100
AcDbEntity
  8
0
100
AcDbBlockBegin
  2
SCREW-IN _ TURNS
 70
     2
 10
0.0
 20
0.0
 30
0.0
  3
SCREW-IN _ TURNS
  1

  0
LINE
  5
316
330
313
100
AcDbEntity
  8
Sketch Geometry(Ram)
100
AcDbLine
 10
0.0
 20
0.0
 30
0.0
 11
2.999999999999998
 21
0.0
 31
0.0
  0
MTEXT
  5
317
330
313
100
AcDbEntity
  8
Symbols(Ram)
 62
     7
100
AcDbMText
 10
13.0
 20
0.661960271490365
 30
0.0
 40
2.489199936389923
 41
0.0
 46
0.0
 71
     2
 72
     1
  1
\fArial|b0|i0;SCREW-IN\P    FULL \PTURNS
  7
STD 2.5 ARIAL
 73
     2
 44
0.9442214369773862
1001
ACAD
1000
MTEXTBEGIN
1070
    73
1070
     2
1070
    44
1040
0.9442214369773862
1070
    74
1070
     0
1000
MTEXTEND
  0
ATTDEF
  5
318
102
{ACAD_XDICTIONARY
360
A79
102
}
330
313
100
AcDbEntity
  8
Symbols(Ram)
 62
     7
100
AcDbText
 10
7.525716082480031
 20
-5.755678613203656
 30
0.0
 40
2.489199936389923
  1
5
  7
Text Style14
100
AcDbAttributeDefinition
280
     0
  3
NUMBER
  2
NUMBER_001
 70
     0
280
     0
  0
ENDBLK
  5
315
330
313
100
AcDbEntity
  8
0
100
AcDbBlockEnd
  0
BLOCK
  5
31A
330
319
100
AcDbEntity
  8
0
100
AcDbBlockBegin
  2
THREAD RETAINER
 70
     0
 10
0.0
 20
0.0
 30
0.0
  3
THREAD RETAINER
  1

  0
ARC
  5
31C
330
319
100
AcDbEntity
  8
Sketch Geometry(Ram)
370
    18
100
AcDbCircle
 10
-0.6774969242626128
 20
-0.6613829731234056
 30
0.0
 40
1.0
100
AcDbArc
 50
225.0000000000015
 51
255.0000000000018
  0
LINE
  5
31D
330
319
100
AcDbEntity
  8
Sketch Geometry(Ram)
370
    18
100
AcDbLine
 10
-1.42215834333104
 20
-1.330935116427927
 30
0.0
 11
-1.598935038627668
 21
-1.507711811724553
 31
0.0
  0
ARC
  5
31E
330
319
100
AcDbEntity
  8
Sketch Geometry(Ram)
370
    18
100
AcDbCircle
 10
-1.634290377686991
 20
-1.472356472665231
 30
0.0
 40
0.05
100
AcDbArc
 50
225.0
 51
314.9999999999999
  0
LINE
  5
31F
330
319
100
AcDbEntity
  8
Sketch Geometry(Ram)
370
    18
100
AcDbLine
 10
0.097851138708478
 20
-1.904413040859527
 30
0.0
 11
-0.9363159693650755
 21
-1.627308799412379
 31
0.0
  0
ARC
  5
320
330
319
100
AcDbEntity
  8
Sketch Geometry(Ram)
370
    18
100
AcDbCircle
 10
0.2633301278051192
 20
-1.286837045965682
 30
0.0
 40
0.639361717106625
100
AcDbArc
 50
255.000000000001
 51
315.0
  0
LINE
  5
321
330
319
100
AcDbEntity
  8
Sketch Geometry(Ram)
370
    18
100
AcDbLine
 10
-1.669645716746313
 20
-1.507711811724553
 30
0.0
 11
-2.588884532290548
 21
-0.5884729961804425
 31
0.0
  0
ARC
  5
322
330
319
100
AcDbEntity
  8
Sketch Geometry(Ram)
370
    18
100
AcDbCircle
 10
-2.553529193231208
 20
-0.5531176571211029
 30
0.0
 40
0.05
100
AcDbArc
 50
135.0000000000001
 51
224.9999999999999
  0
LINE
  5
323
330
319
100
AcDbEntity
  8
Sketch Geometry(Ram)
370
    18
100
AcDbLine
 10
-2.58888453229053
 20
-0.5177623180617808
 30
0.0
 11
-2.412107836993904
 21
-0.3409856227651531
 31
0.0
  0
LINE
  5
324
330
319
100
AcDbEntity
  8
Sketch Geometry(Ram)
370
    18
100
AcDbLine
 10
-1.38460370544907
 20
-1.368489754309897
 30
0.0
 11
-2.44966247487742
 21
-0.3034309848816541
 31
0.0
  0
LINE
  5
325
330
319
100
AcDbEntity
  8
Sketch Geometry(Ram)
370
    18
100
AcDbLine
 10
3.288844482959021
 20
7.001357097865116
 30
0.0
 11
5.920184377297452
 21
4.370017203526757
 31
0.0
  0
LINE
  5
326
330
319
100
AcDbEntity
  8
Sketch Geometry(Ram)
370
    18
100
AcDbLine
 10
5.920184377297452
 20
3.465823191932404
 30
0.0
 11
0.7154271336022866
 21
-1.738934051762849
 31
0.0
  0
LINE
  5
327
330
319
100
AcDbEntity
  8
Sketch Geometry(Ram)
370
    18
100
AcDbLine
 10
-2.820106772330531
 20
1.796599854169896
 30
0.0
 11
2.384650471364686
 21
7.001357097865116
 31
0.0
  0
ARC
  5
328
330
319
100
AcDbEntity
  8
Sketch Geometry(Ram)
370
    18
100
AcDbCircle
 10
-2.368009766533365
 20
1.344502848372729
 30
0.0
 40
0.639361717106625
100
AcDbArc
 50
135.0
 51
194.9999999999997
  0
ARC
  5
329
330
319
100
AcDbEntity
  8
Sketch Geometry(Ram)
370
    18
100
AcDbCircle
 10
2.836747477161853
 20
6.54926009206795
 30
0.0
 40
0.639361717106625
100
AcDbArc
 50
45.0
 51
135.0
  0
ARC
  5
32A
330
319
100
AcDbEntity
  8
Sketch Geometry(Ram)
370
    18
100
AcDbCircle
 10
5.468087371500284
 20
3.917920197729571
 30
0.0
 40
0.639361717106625
100
AcDbArc
 50
315.0
 51
45.00000000000111
  0
ARC
  5
32B
330
319
100
AcDbEntity
  8
Sketch Geometry(Ram)
370
    18
100
AcDbCircle
 10
-1.742555693690928
 20
0.4036757963049277
 30
0.0
 40
1.0
100
AcDbArc
 50
195.0000000000004
 51
225.0000000000035
  0
LINE
  5
32C
330
319
100
AcDbEntity
  8
Sketch Geometry(Ram)
370
    18
100
AcDbLine
 10
-2.985585761427173
 20
1.179023859276089
 30
0.0
 11
-2.708481519980007
 21
0.1448567512023935
 31
0.0
  0
LINE
  5
32D
330
319
100
AcDbEntity
  8
Sketch Geometry(Ram)
370
    18
100
AcDbLine
 10
-5.450847264539451
 20
-4.213552536714376
 30
0.0
 11
-2.553629214331412
 21
-0.6237283141395446
 31
0.0
  0
LINE
  5
32E
330
319
100
AcDbEntity
  8
Sketch Geometry(Ram)
370
    18
100
AcDbLine
 10
-1.704901034705431
 20
-1.472456493765434
 30
0.0
 11
-5.294725257281863
 21
-4.369674543972035
 31
0.0
  0
ARC
  5
32F
330
319
100
AcDbEntity
  8
Sketch Geometry(Ram)
370
    18
100
AcDbCircle
 10
-5.364451872038014
 20
-4.28327915147058
 30
0.0
 40
0.1110223610397212
100
AcDbArc
 50
141.0942481659214
 51
308.9057518340514
  0
ARC
  5
330
330
319
100
AcDbEntity
  8
Sketch Geometry(Ram)
370
    18
100
AcDbCircle
 10
-5.364451872038014
 20
-4.933672957984676
 30
0.0
 40
0.1
100
AcDbArc
 50
10.7837787376784
 51
169.2162212623296
  0
ARC
  5
331
330
319
100
AcDbEntity
  8
Sketch Geometry(Ram)
370
    18
100
AcDbCircle
 10
-2.810367191575781
 20
-4.447204618800917
 30
0.0
 40
2.5
100
AcDbArc
 50
190.7837787376725
 51
218.041075036832
  0
ARC
  5
332
330
319
100
AcDbEntity
  8
Sketch Geometry(Ram)
370
    18
100
AcDbCircle
 10
-7.918536552500227
 20
-4.447204618800917
 30
0.0
 40
2.5
100
AcDbArc
 50
321.9589249631677
 51
349.216221262327
  0
ARC
  5
333
330
319
100
AcDbEntity
  8
Sketch Geometry(Ram)
370
    18
100
AcDbCircle
 10
-5.364451872038014
 20
-6.445624592605661
 30
0.0
 40
0.7429972165688831
100
AcDbArc
 50
141.9589249631685
 51
38.04107503683136
  0
MTEXT
  5
334
330
319
100
AcDbEntity
  8
Symbols(Ram)
 62
     7
100
AcDbMText
 10
-1.083429051210895
 20
-8.380980076428057
 30
0.0
 40
1.49859994649887
 41
16.53502489896194
 46
0.0
 71
     2
 72
     1
  1
\fArial|b0|i0;\H1.4986;APPLY MEDIUM\PSTRENGTH\PTHREAD RETAINER
  7
STD 2.5 ARIAL
 73
     2
 44
0.9442214369773862
1001
ACAD
1000
MTEXTBEGIN
1070
    73
1070
     2
1070
    44
1040
0.9442214369773862
1070
    74
1070
     0
1000
MTEXTEND
  0
ENDBLK
  5
31B
330
319
100
AcDbEntity
  8
0
100
AcDbBlockEnd
  0
BLOCK
  5
336
330
335
100
AcDbEntity
  8
0
100
AcDbBlockBegin
  2
THREAD RETAINER H
 70
     0
 10
0.0
 20
0.0
 30
0.0
  3
THREAD RETAINER H
  1

  0
LINE
  5
338
330
335
100
AcDbEntity
  8
Sketch Geometry(Ram)
370
    18
100
AcDbLine
 10
3.288844482959021
 20
7.001357097865116
 30
0.0
 11
5.920184377297452
 21
4.370017203526757
 31
0.0
  0
LINE
  5
339
330
335
100
AcDbEntity
  8
Sketch Geometry(Ram)
370
    18
100
AcDbLine
 10
5.920184377297452
 20
3.465823191932404
 30
0.0
 11
0.7154271336022866
 21
-1.738934051762849
 31
0.0
  0
LINE
  5
33A
330
335
100
AcDbEntity
  8
Sketch Geometry(Ram)
370
    18
100
AcDbLine
 10
-2.820106772330531
 20
1.796599854169896
 30
0.0
 11
2.384650471364686
 21
7.001357097865116
 31
0.0
  0
ARC
  5
33B
330
335
100
AcDbEntity
  8
Sketch Geometry(Ram)
370
    18
100
AcDbCircle
 10
0.2633301278051192
 20
-1.286837045965682
 30
0.0
 40
0.639361717106625
100
AcDbArc
 50
255.000000000001
 51
315.0
  0
ARC
  5
33C
330
335
100
AcDbEntity
  8
Sketch Geometry(Ram)
370
    18
100
AcDbCircle
 10
-2.368009766533365
 20
1.344502848372729
 30
0.0
 40
0.639361717106625
100
AcDbArc
 50
135.0
 51
194.9999999999997
  0
ARC
  5
33D
330
335
100
AcDbEntity
  8
Sketch Geometry(Ram)
370
    18
100
AcDbCircle
 10
2.836747477161853
 20
6.54926009206795
 30
0.0
 40
0.639361717106625
100
AcDbArc
 50
45.0
 51
135.0
  0
ARC
  5
33E
330
335
100
AcDbEntity
  8
Sketch Geometry(Ram)
370
    18
100
AcDbCircle
 10
5.468087371500284
 20
3.917920197729571
 30
0.0
 40
0.639361717106625
100
AcDbArc
 50
315.0
 51
45.00000000000111
  0
LINE
  5
33F
330
335
100
AcDbEntity
  8
Sketch Geometry(Ram)
370
    18
100
AcDbLine
 10
0.097851138708478
 20
-1.904413040859527
 30
0.0
 11
-0.9363159693650755
 21
-1.627308799412379
 31
0.0
  0
LINE
  5
340
330
335
100
AcDbEntity
  8
Sketch Geometry(Ram)
370
    18
100
AcDbLine
 10
-2.985585761427173
 20
1.179023859276089
 30
0.0
 11
-2.708481519980007
 21
0.1448567512023935
 31
0.0
  0
LINE
  5
341
330
335
100
AcDbEntity
  8
Sketch Geometry(Ram)
370
    18
100
AcDbLine
 10
-1.38460370544907
 20
-1.368489754309897
 30
0.0
 11
-2.44966247487742
 21
-0.3034309848816541
 31
0.0
  0
LINE
  5
342
330
335
100
AcDbEntity
  8
Sketch Geometry(Ram)
370
    18
100
AcDbLine
 10
-1.42215834333104
 20
-1.330935116427927
 30
0.0
 11
-1.598935038627668
 21
-1.507711811724553
 31
0.0
  0
LINE
  5
343
330
335
100
AcDbEntity
  8
Sketch Geometry(Ram)
370
    18
100
AcDbLine
 10
-1.669645716746313
 20
-1.507711811724553
 30
0.0
 11
-2.588884532290548
 21
-0.5884729961804425
 31
0.0
  0
LINE
  5
344
330
335
100
AcDbEntity
  8
Sketch Geometry(Ram)
370
    18
100
AcDbLine
 10
-2.58888453229053
 20
-0.5177623180617808
 30
0.0
 11
-2.412107836993904
 21
-0.3409856227651531
 31
0.0
  0
ARC
  5
345
330
335
100
AcDbEntity
  8
Sketch Geometry(Ram)
370
    18
100
AcDbCircle
 10
-5.364451872038014
 20
-4.28327915147058
 30
0.0
 40
0.1110223610397212
100
AcDbArc
 50
141.0942481659214
 51
308.9057518340514
  0
LINE
  5
346
330
335
100
AcDbEntity
  8
Sketch Geometry(Ram)
370
    18
100
AcDbLine
 10
-5.450847264539451
 20
-4.213552536714376
 30
0.0
 11
-2.553629214331412
 21
-0.6237283141395446
 31
0.0
  0
LINE
  5
347
330
335
100
AcDbEntity
  8
Sketch Geometry(Ram)
370
    18
100
AcDbLine
 10
-1.704901034705431
 20
-1.472456493765434
 30
0.0
 11
-5.294725257281863
 21
-4.369674543972035
 31
0.0
  0
ARC
  5
348
330
335
100
AcDbEntity
  8
Sketch Geometry(Ram)
370
    18
100
AcDbCircle
 10
-0.6774969242626128
 20
-0.6613829731234056
 30
0.0
 40
1.0
100
AcDbArc
 50
225.0000000000015
 51
255.0000000000018
  0
ARC
  5
349
330
335
100
AcDbEntity
  8
Sketch Geometry(Ram)
370
    18
100
AcDbCircle
 10
-1.742555693690928
 20
0.4036757963049277
 30
0.0
 40
1.0
100
AcDbArc
 50
195.0000000000004
 51
225.0000000000035
  0
ARC
  5
34A
330
335
100
AcDbEntity
  8
Sketch Geometry(Ram)
370
    18
100
AcDbCircle
 10
-5.364451872038014
 20
-6.445624592605661
 30
0.0
 40
0.7429972165688831
100
AcDbArc
 50
141.9589249631685
 51
38.04107503683136
  0
ARC
  5
34B
330
335
100
AcDbEntity
  8
Sketch Geometry(Ram)
370
    18
100
AcDbCircle
 10
-7.918536552500227
 20
-4.447204618800917
 30
0.0
 40
2.5
100
AcDbArc
 50
321.9589249631677
 51
349.216221262327
  0
ARC
  5
34C
330
335
100
AcDbEntity
  8
Sketch Geometry(Ram)
370
    18
100
AcDbCircle
 10
-2.810367191575781
 20
-4.447204618800917
 30
0.0
 40
2.5
100
AcDbArc
 50
190.7837787376725
 51
218.041075036832
  0
ARC
  5
34D
330
335
100
AcDbEntity
  8
Sketch Geometry(Ram)
370
    18
100
AcDbCircle
 10
-5.364451872038014
 20
-4.933672957984676
 30
0.0
 40
0.1
100
AcDbArc
 50
10.7837787376784
 51
169.2162212623296
  0
ARC
  5
34E
330
335
100
AcDbEntity
  8
Sketch Geometry(Ram)
370
    18
100
AcDbCircle
 10
-1.634290377686991
 20
-1.472356472665231
 30
0.0
 40
0.05
100
AcDbArc
 50
225.0
 51
314.9999999999999
  0
ARC
  5
34F
330
335
100
AcDbEntity
  8
Sketch Geometry(Ram)
370
    18
100
AcDbCircle
 10
-2.553529193231208
 20
-0.5531176571211029
 30
0.0
 40
0.05
100
AcDbArc
 50
135.0000000000001
 51
224.9999999999999
  0
MTEXT
  5
350
330
335
100
AcDbEntity
  8
Symbols(Ram)
 62
     7
100
AcDbMText
 10
-0.5191429966991557
 20
-8.252703968673174
 30
0.0
 40
1.49859994649887
 41
12.69037379631854
 46
0.0
 71
     2
 72
     1
  1
\fArial|b0|i0;\H1.4986;APPLY HIGH\PSTRENGTH\PTHREAD RETAINER
  7
STD 2.5 ARIAL
 73
     2
 44
0.9442214369773862
1001
ACAD
1000
MTEXTBEGIN
1070
    73
1070
     2
1070
    44
1040
0.9442214369773862
1070
    74
1070
     0
1000
MTEXTEND
  0
ENDBLK
  5
337
330
335
100
AcDbEntity
  8
0
100
AcDbBlockEnd
  0
BLOCK
  5
352
330
351
100
AcDbEntity
  8
0
100
AcDbBlockBegin
  2
TIGHTEN TO
 70
     2
 10
0.0
 20
0.0
 30
0.0
  3
TIGHTEN TO
  1

  0
LINE
  5
354
330
351
100
AcDbEntity
  8
Sketch Geometry(Ram)
100
AcDbLine
 10
0.0
 20
0.0
 30
0.0
 11
3.000000000000006
 21
0.0
 31
0.0
  0
MTEXT
  5
355
330
351
100
AcDbEntity
  8
Symbols(Ram)
 62
     7
100
AcDbMText
 10
4.000000000000002
 20
-0.4158152686432004
 30
0.0
 40
2.489199936389923
 41
0.0
 46
0.0
 71
     4
 72
     1
  1
\fArial|b0|i0;TIGHTEN\PTO      N/m
  7
STD 2.5 ARIAL
 73
     2
 44
0.9442214369773862
1001
ACAD
1000
MTEXTBEGIN
1070
    73
1070
     2
1070
    44
1040
0.9442214369773862
1070
    74
1070
     0
1000
MTEXTEND
  0
ATTDEF
  5
356
102
{ACAD_XDICTIONARY
360
A7C
102
}
330
351
100
AcDbEntity
  8
Symbols(Ram)
 62
     7
100
AcDbText
 10
9.459908783374833
 20
-3.246431671331386
 30
0.0
 40
2.489199936389923
  1
10
  7
Text Style14
100
AcDbAttributeDefinition
280
     0
  3
AMOUNT
  2
AMOUNT_001
 70
     0
280
     0
  0
ENDBLK
  5
353
330
351
100
AcDbEntity
  8
0
100
AcDbBlockEnd
  0
BLOCK
  5
358
330
357
100
AcDbEntity
  8
0
100
AcDbBlockBegin
  2
WATERMARK ETCH
 70
     0
 10
0.0
 20
0.0
 30
0.0
  3
WATERMARK ETCH
  1

  0
LINE
  5
35A
330
357
100
AcDbEntity
  8
Sketch Geometry(Ram)
100
AcDbLine
 10
0.0
 20
0.0
 30
0.0
 11
-3.000000000000006
 21
0.0
 31
0.0
  0
MTEXT
  5
35B
330
357
100
AcDbEntity
  8
Symbols(Ram)
 62
     7
100
AcDbMText
 10
-21.00000000000001
 20
1.164973430248376
 30
0.0
 40
2.489199936389923
 41
0.0
 46
0.0
 71
     2
 72
     1
  1
\fArial|b0|i0;WATERMARK - ETCH\PAFTER SUCCESSFUL\PPRESSURE TEST
  7
STD 2.5 ARIAL
 73
     2
 44
0.9442214369773862
1001
ACAD
1000
MTEXTBEGIN
1070
    73
1070
     2
1070
    44
1040
0.9442214369773862
1070
    74
1070
     0
1000
MTEXTEND
  0
ENDBLK
  5
359
330
357
100
AcDbEntity
  8
0
100
AcDbBlockEnd
  0
BLOCK
  5
35D
330
35C
100
AcDbEntity
  8
0
100
AcDbBlockBegin
  2
WATERMARK STICKER
 70
     0
 10
0.0
 20
0.0
 30
0.0
  3
WATERMARK STICKER
  1

  0
LINE
  5
35F
330
35C
100
AcDbEntity
  8
Sketch Geometry(Ram)
100
AcDbLine
 10
0.0
 20
0.0
 30
0.0
 11
-2.999999999999998
 21
0.0
 31
0.0
  0
MTEXT
  5
360
330
35C
100
AcDbEntity
  8
Symbols(Ram)
 62
     7
100
AcDbMText
 10
-21.0
 20
1.063789565959075
 30
0.0
 40
2.489199936389923
 41
0.0
 46
0.0
 71
     2
 72
     1
  1
\fArial|b0|i0;APPLY WATERMARK\PSTICKER (STK09)\PAFTER SUCCESSFUL\PPRESSURE TEST
  7
STD 2.5 ARIAL
 73
     2
 44
0.9442214369773862
1001
ACAD
1000
MTEXTBEGIN
1070
    73
1070
     2
1070
    44
1040
0.9442214369773862
1070
    74
1070
     0
1000
MTEXTEND
  0
ENDBLK
  5
35E
330
35C
100
AcDbEntity
  8
0
100
AcDbBlockEnd
  0
BLOCK
  5
362
330
361
100
AcDbEntity
  8
0
100
AcDbBlockBegin
  2
WATERMARK STICKER RH SIDE
 70
     0
 10
0.0
 20
0.0
 30
0.0
  3
WATERMARK STICKER RH SIDE
  1

  0
LINE
  5
364
330
361
100
AcDbEntity
  8
Sketch Geometry(Ram)
100
AcDbLine
 10
0.0
 20
0.0
 30
0.0
 11
2.999999999999998
 21
0.0
 31
0.0
  0
MTEXT
  5
365
330
361
100
AcDbEntity
  8
Symbols(Ram)
 62
     7
100
AcDbMText
 10
21.00000000000001
 20
0.8759048483026532
 30
0.0
 40
2.489199936389923
 41
0.0
 46
0.0
 71
     2
 72
     1
  1
\fArial|b0|i0;APPLY WATERMARK\PSTICKER (STK09)\PAFTER SUCCESSFUL\PPRESSURE TEST
  7
STD 2.5 ARIAL
 73
     2
 44
0.9442214369773862
1001
ACAD
1000
MTEXTBEGIN
1070
    73
1070
     2
1070
    44
1040
0.9442214369773862
1070
    74
1070
     0
1000
MTEXTEND
  0
ENDBLK
  5
363
330
361
100
AcDbEntity
  8
0
100
AcDbBlockEnd
  0
BLOCK
  5
367
330
366
100
AcDbEntity
  8
0
100
AcDbBlockBegin
  2
WELS
 70
     0
 10
0.0
 20
0.0
 30
0.0
  3
WELS
  1

  0
HATCH
  5
36D
330
366
100
AcDbEntity
  8
Hatch
 62
     7
100
AcDbHatch
 10
0.0
 20
0.0
 30
0.0
210
0.0
220
0.0
230
1.0
  2
SOLID
 70
     1
 71
     0
 91
        1
 92
        1
 93
        4
 72
     1
 10
-12.13704218324615
 20
-1.7414967295168
 11
-12.13704218324612
 21
-10.3955455537293
 72
     1
 10
-12.13704218324612
 20
-10.3955455537293
 11
12.13704218324613
 21
-10.3955455537293
 72
     1
 10
12.13704218324613
 20
-10.3955455537293
 11
12.13704218324615
 21
-1.7414967295168
 72
     1
 10
12.13704218324615
 20
-1.7414967295168
 11
-12.13704218324615
 21
-1.7414967295168
 97
        0
 75
     0
 76
     1
 98
        1
 10
0.0
 20
0.0
450
        0
451
        0
460
0.0
461
0.0
452
        0
462
0.0
453
        0
470

  0
LINE
  5
36E
330
366
100
AcDbEntity
  8
Sketch Lines(Ram)
100
AcDbLine
 10
-12.13704218324615
 20
-1.7414967295168
 30
0.0
 11
12.13704218324615
 21
-1.7414967295168
 31
0.0
  0
LINE
  5
36F
330
366
100
AcDbEntity
  8
Sketch Lines(Ram)
100
AcDbLine
 10
12.13704218324615
 20
-1.7414967295168
 30
0.0
 11
12.13704218324613
 21
-10.3955455537293
 31
0.0
  0
LINE
  5
370
330
366
100
AcDbEntity
  8
Sketch Lines(Ram)
100
AcDbLine
 10
12.13704218324613
 20
-10.3955455537293
 30
0.0
 11
-12.13704218324612
 21
-10.3955455537293
 31
0.0
  0
LINE
  5
371
330
366
100
AcDbEntity
  8
Sketch Lines(Ram)
100
AcDbLine
 10
-12.13704218324612
 20
-10.3955455537293
 30
0.0
 11
-12.13704218324615
 21
-1.7414967295168
 31
0.0
  0
ARC
  5
372
330
366
100
AcDbEntity
  8
Sketch Lines(Ram)
100
AcDbCircle
 10
0.0
 20
-1.7414967295168
 30
0.0
 40
12.13704218324612
100
AcDbArc
 50
0.0
 51
180.0
  0
ARC
  5
373
330
366
100
AcDbEntity
  8
Sketch Lines(Ram)
100
AcDbCircle
 10
0.0
 20
-1.7414967295168
 30
0.0
 40
6.544500934971217
100
AcDbArc
 50
0.0
 51
180.0
  0
LINE
  5
374
330
366
100
AcDbEntity
  8
Sketch Lines(Ram)
100
AcDbLine
 10
-9.166134316541008
 20
2.793877233418715
 30
0.0
 11
-9.671290790193019
 21
1.239165470762344
 31
0.0
  0
LINE
  5
375
330
366
100
AcDbEntity
  8
Sketch Lines(Ram)
100
AcDbLine
 10
-9.671290790193019
 20
1.239165470762344
 30
0.0
 11
-11.3060114782051
 21
1.239165470762344
 31
0.0
  0
LINE
  5
376
330
366
100
AcDbEntity
  8
Sketch Lines(Ram)
100
AcDbLine
 10
-11.3060114782051
 20
1.239165470762344
 30
0.0
 11
-9.983494660547016
 21
0.2783007587314401
 31
0.0
  0
LINE
  5
377
330
366
100
AcDbEntity
  8
Sketch Lines(Ram)
100
AcDbLine
 10
-9.983494660547016
 20
0.2783007587314401
 30
0.0
 11
-10.48865113419906
 21
-1.276411003924913
 31
0.0
  0
LINE
  5
378
330
366
100
AcDbEntity
  8
Sketch Lines(Ram)
100
AcDbLine
 10
-10.48865113419906
 20
-1.276411003924913
 30
0.0
 11
-9.166134316541008
 21
-0.3155462918940088
 31
0.0
  0
LINE
  5
379
330
366
100
AcDbEntity
  8
Sketch Lines(Ram)
100
AcDbLine
 10
-9.166134316541008
 20
-0.3155462918940088
 30
0.0
 11
-7.843617498882924
 21
-1.276411003924895
 31
0.0
  0
LINE
  5
37A
330
366
100
AcDbEntity
  8
Sketch Lines(Ram)
100
AcDbLine
 10
-7.843617498882924
 20
-1.276411003924895
 30
0.0
 11
-8.348773972534946
 21
0.2783007587314579
 31
0.0
  0
LINE
  5
37B
330
366
100
AcDbEntity
  8
Sketch Lines(Ram)
100
AcDbLine
 10
-8.348773972534946
 20
0.2783007587314579
 30
0.0
 11
-7.026257154876897
 21
1.239165470762362
 31
0.0
  0
LINE
  5
37C
330
366
100
AcDbEntity
  8
Sketch Lines(Ram)
100
AcDbLine
 10
-7.026257154876897
 20
1.239165470762362
 30
0.0
 11
-8.66097784288895
 21
1.239165470762344
 31
0.0
  0
LINE
  5
37D
330
366
100
AcDbEntity
  8
Sketch Lines(Ram)
100
AcDbLine
 10
-8.66097784288895
 20
1.239165470762344
 30
0.0
 11
-9.166134316541008
 21
2.793877233418715
 31
0.0
  0
LINE
  5
37E
330
366
100
AcDbEntity
  8
Sketch Lines(Ram)
100
AcDbLine
 10
-6.220351606545442
 20
4.182086192073696
 30
0.0
 11
-4.59458608950598
 21
4.352961033463405
 31
0.0
  0
LINE
  5
37F
330
366
100
AcDbEntity
  8
Sketch Lines(Ram)
100
AcDbLine
 10
-4.59458608950598
 20
4.352961033463405
 30
0.0
 11
-6.010295733416412
 21
5.170321377469432
 31
0.0
  0
LINE
  5
380
330
366
100
AcDbEntity
  8
Sketch Lines(Ram)
100
AcDbLine
 10
-6.010295733416412
 20
5.170321377469432
 30
0.0
 11
-5.670418191157065
 21
6.769319496318378
 31
0.0
  0
LINE
  5
381
330
366
100
AcDbEntity
  8
Sketch Lines(Ram)
100
AcDbLine
 10
-5.670418191157065
 20
6.769319496318378
 30
0.0
 11
-6.88525241155407
 21
5.675477851121487
 31
0.0
  0
LINE
  5
382
330
366
100
AcDbEntity
  8
Sketch Lines(Ram)
100
AcDbLine
 10
-6.88525241155407
 20
5.675477851121487
 30
0.0
 11
-8.300962055464502
 21
6.492838195127513
 31
0.0
  0
LINE
  5
383
330
366
100
AcDbEntity
  8
Sketch Lines(Ram)
100
AcDbLine
 10
-8.300962055464502
 20
6.492838195127513
 30
0.0
 11
-7.636061250455892
 21
4.99944653607967
 31
0.0
  0
LINE
  5
384
330
366
100
AcDbEntity
  8
Sketch Lines(Ram)
100
AcDbLine
 10
-7.636061250455892
 20
4.99944653607967
 30
0.0
 11
-8.850895470852897
 21
3.905604890882816
 31
0.0
  0
LINE
  5
385
330
366
100
AcDbEntity
  8
Sketch Lines(Ram)
100
AcDbLine
 10
-8.850895470852897
 20
3.905604890882816
 30
0.0
 11
-7.225129953813436
 21
4.076479732272576
 31
0.0
  0
LINE
  5
386
330
366
100
AcDbEntity
  8
Sketch Lines(Ram)
100
AcDbLine
 10
-7.225129953813436
 20
4.076479732272576
 30
0.0
 11
-6.560229148804807
 21
2.583088073224768
 31
0.0
  0
LINE
  5
387
330
366
100
AcDbEntity
  8
Sketch Lines(Ram)
100
AcDbLine
 10
-6.560229148804807
 20
2.583088073224768
 30
0.0
 11
-6.220351606545442
 21
4.182086192073696
 31
0.0
  0
LINE
  5
388
330
366
100
AcDbEntity
  8
Sketch Lines(Ram)
100
AcDbLine
 10
-2.425191050944448
 20
6.498652365276951
 30
0.0
 11
-0.9317993918966747
 21
5.833751560268342
 31
0.0
  0
LINE
  5
389
330
366
100
AcDbEntity
  8
Sketch Lines(Ram)
100
AcDbLine
 10
-0.9317993918966747
 20
5.833751560268342
 30
0.0
 11
-1.749159735902718
 21
7.249461204178738
 31
0.0
  0
LINE
  5
38A
330
366
100
AcDbEntity
  8
Sketch Lines(Ram)
100
AcDbLine
 10
-1.749159735902718
 20
7.249461204178738
 30
0.0
 11
-0.6553180907058298
 21
8.464295424575796
 31
0.0
  0
LINE
  5
38B
330
366
100
AcDbEntity
  8
Sketch Lines(Ram)
100
AcDbLine
 10
-0.6553180907058298
 20
8.464295424575796
 30
0.0
 11
-2.254316209554739
 21
8.124417882316432
 31
0.0
  0
LINE
  5
38C
330
366
100
AcDbEntity
  8
Sketch Lines(Ram)
100
AcDbLine
 10
-2.254316209554739
 20
8.124417882316432
 30
0.0
 11
-3.071676553560783
 21
9.540127526226827
 31
0.0
  0
LINE
  5
38D
330
366
100
AcDbEntity
  8
Sketch Lines(Ram)
100
AcDbLine
 10
-3.071676553560783
 20
9.540127526226827
 30
0.0
 11
-3.242551394950528
 21
7.914362009187332
 31
0.0
  0
LINE
  5
38E
330
366
100
AcDbEntity
  8
Sketch Lines(Ram)
100
AcDbLine
 10
-3.242551394950528
 20
7.914362009187332
 30
0.0
 11
-4.841549513799421
 21
7.574484466928002
 31
0.0
  0
LINE
  5
38F
330
366
100
AcDbEntity
  8
Sketch Lines(Ram)
100
AcDbLine
 10
-4.841549513799421
 20
7.574484466928002
 30
0.0
 11
-3.348157854751628
 21
6.909583661919408
 31
0.0
  0
LINE
  5
390
330
366
100
AcDbEntity
  8
Sketch Lines(Ram)
100
AcDbLine
 10
-3.348157854751628
 20
6.909583661919408
 30
0.0
 11
-3.519032696141337
 21
5.283818144879911
 31
0.0
  0
LINE
  5
391
330
366
100
AcDbEntity
  8
Sketch Lines(Ram)
100
AcDbLine
 10
-3.519032696141337
 20
5.283818144879911
 30
0.0
 11
-2.425191050944448
 21
6.498652365276951
 31
0.0
  0
LINE
  5
392
330
366
100
AcDbEntity
  8
Sketch Lines(Ram)
100
AcDbLine
 10
2.019797488248311
 20
6.607277243018144
 30
0.0
 11
2.980662200279161
 21
5.284760425360079
 31
0.0
  0
LINE
  5
393
330
366
100
AcDbEntity
  8
Sketch Lines(Ram)
100
AcDbLine
 10
2.980662200279161
 20
5.284760425360079
 30
0.0
 11
2.980662200279161
 21
6.91948111337215
 31
0.0
  0
LINE
  5
394
330
366
100
AcDbEntity
  8
Sketch Lines(Ram)
100
AcDbLine
 10
2.980662200279161
 20
6.91948111337215
 30
0.0
 11
4.53537396293555
 21
7.424637587024206
 31
0.0
  0
LINE
  5
395
330
366
100
AcDbEntity
  8
Sketch Lines(Ram)
100
AcDbLine
 10
4.53537396293555
 20
7.424637587024206
 30
0.0
 11
2.980662200279161
 21
7.92979406067621
 31
0.0
  0
LINE
  5
396
330
366
100
AcDbEntity
  8
Sketch Lines(Ram)
100
AcDbLine
 10
2.980662200279161
 20
7.92979406067621
 30
0.0
 11
2.980662200279143
 21
9.564514748688264
 31
0.0
  0
LINE
  5
397
330
366
100
AcDbEntity
  8
Sketch Lines(Ram)
100
AcDbLine
 10
2.980662200279143
 20
9.564514748688264
 30
0.0
 11
2.01979748824824
 21
8.241997931030216
 31
0.0
  0
LINE
  5
398
330
366
100
AcDbEntity
  8
Sketch Lines(Ram)
100
AcDbLine
 10
2.01979748824824
 20
8.241997931030216
 30
0.0
 11
0.4650857255919051
 21
8.747154404682271
 31
0.0
  0
LINE
  5
399
330
366
100
AcDbEntity
  8
Sketch Lines(Ram)
100
AcDbLine
 10
0.4650857255919051
 20
8.747154404682271
 30
0.0
 11
1.425950437622809
 21
7.424637587024206
 31
0.0
  0
LINE
  5
39A
330
366
100
AcDbEntity
  8
Sketch Lines(Ram)
100
AcDbLine
 10
1.425950437622809
 20
7.424637587024206
 30
0.0
 11
0.4650857255919229
 21
6.102120769366107
 31
0.0
  0
LINE
  5
39B
330
366
100
AcDbEntity
  8
Sketch Lines(Ram)
100
AcDbLine
 10
0.4650857255919229
 20
6.102120769366107
 30
0.0
 11
2.019797488248311
 21
6.607277243018144
 31
0.0
  0
LINE
  5
39C
330
366
100
AcDbEntity
  8
Sketch Lines(Ram)
100
AcDbLine
 10
5.923582921590513
 20
4.478854877028624
 30
0.0
 11
6.094457762980222
 21
2.853089359989162
 31
0.0
  0
LINE
  5
39D
330
366
100
AcDbEntity
  8
Sketch Lines(Ram)
100
AcDbLine
 10
6.094457762980222
 20
2.853089359989162
 30
0.0
 11
6.911818106986248
 21
4.268799003899611
 31
0.0
  0
LINE
  5
39E
330
366
100
AcDbEntity
  8
Sketch Lines(Ram)
100
AcDbLine
 10
6.911818106986248
 20
4.268799003899611
 30
0.0
 11
8.510816225835178
 21
3.928921461640245
 31
0.0
  0
LINE
  5
39F
330
366
100
AcDbEntity
  8
Sketch Lines(Ram)
100
AcDbLine
 10
8.510816225835178
 20
3.928921461640245
 30
0.0
 11
7.416974580638271
 21
5.143755682037233
 31
0.0
  0
LINE
  5
3A0
330
366
100
AcDbEntity
  8
Sketch Lines(Ram)
100
AcDbLine
 10
7.416974580638271
 20
5.143755682037233
 30
0.0
 11
8.234334924644278
 21
6.559465325947666
 31
0.0
  0
LINE
  5
3A1
330
366
100
AcDbEntity
  8
Sketch Lines(Ram)
100
AcDbLine
 10
8.234334924644278
 20
6.559465325947666
 30
0.0
 11
6.740943265596505
 21
5.894564520939107
 31
0.0
  0
LINE
  5
3A2
330
366
100
AcDbEntity
  8
Sketch Lines(Ram)
100
AcDbLine
 10
6.740943265596505
 20
5.894564520939107
 30
0.0
 11
5.647101620399652
 21
7.109398741336113
 31
0.0
  0
LINE
  5
3A3
330
366
100
AcDbEntity
  8
Sketch Lines(Ram)
100
AcDbLine
 10
5.647101620399652
 20
7.109398741336113
 30
0.0
 11
5.817976461789378
 21
5.483633224296599
 31
0.0
  0
LINE
  5
3A4
330
366
100
AcDbEntity
  8
Sketch Lines(Ram)
100
AcDbLine
 10
5.817976461789378
 20
5.483633224296599
 30
0.0
 11
4.324584802741603
 21
4.818732419287972
 31
0.0
  0
LINE
  5
3A5
330
366
100
AcDbEntity
  8
Sketch Lines(Ram)
100
AcDbLine
 10
4.324584802741603
 20
4.818732419287972
 30
0.0
 11
5.923582921590513
 21
4.478854877028624
 31
0.0
  0
LINE
  5
3A6
330
366
100
AcDbEntity
  8
Sketch Lines(Ram)
100
AcDbLine
 10
8.240149094793736
 20
0.6836943214276481
 30
0.0
 11
7.575248289785142
 21
-0.8096973376201431
 31
0.0
  0
LINE
  5
3A7
330
366
100
AcDbEntity
  8
Sketch Lines(Ram)
100
AcDbLine
 10
7.575248289785142
 20
-0.8096973376201431
 30
0.0
 11
8.990957933695574
 21
0.0076630063859007
 31
0.0
  0
LINE
  5
3A8
330
366
100
AcDbEntity
  8
Sketch Lines(Ram)
100
AcDbLine
 10
8.990957933695574
 20
0.0076630063859007
 30
0.0
 11
10.20579215409256
 21
-1.086178638810987
 31
0.0
  0
LINE
  5
3A9
330
366
100
AcDbEntity
  8
Sketch Lines(Ram)
100
AcDbLine
 10
10.20579215409256
 20
-1.086178638810987
 30
0.0
 11
9.865914611833179
 21
0.5128194800379227
 31
0.0
  0
LINE
  5
3AA
330
366
100
AcDbEntity
  8
Sketch Lines(Ram)
100
AcDbLine
 10
9.865914611833179
 20
0.5128194800379227
 30
0.0
 11
11.28162425574359
 21
1.330179824043984
 31
0.0
  0
LINE
  5
3AB
330
366
100
AcDbEntity
  8
Sketch Lines(Ram)
100
AcDbLine
 10
11.28162425574359
 20
1.330179824043984
 30
0.0
 11
9.655858738704168
 21
1.501054665433726
 31
0.0
  0
LINE
  5
3AC
330
366
100
AcDbEntity
  8
Sketch Lines(Ram)
100
AcDbLine
 10
9.655858738704168
 20
1.501054665433726
 30
0.0
 11
9.315981196444838
 21
3.100052784282619
 31
0.0
  0
LINE
  5
3AD
330
366
100
AcDbEntity
  8
Sketch Lines(Ram)
100
AcDbLine
 10
9.315981196444838
 20
3.100052784282619
 30
0.0
 11
8.651080391436208
 21
1.606661125234811
 31
0.0
  0
LINE
  5
3AE
330
366
100
AcDbEntity
  8
Sketch Lines(Ram)
100
AcDbLine
 10
8.651080391436208
 20
1.606661125234811
 30
0.0
 11
7.02531487439673
 21
1.7775359666245
 31
0.0
  0
LINE
  5
3AF
330
366
100
AcDbEntity
  8
Sketch Lines(Ram)
100
AcDbLine
 10
7.02531487439673
 20
1.7775359666245
 30
0.0
 11
8.240149094793736
 21
0.6836943214276481
 31
0.0
  0
MTEXT
  5
3B0
330
366
100
AcDbEntity
  8
Symbols(Ram)
 62
     7
100
AcDbMText
 10
0.2641538309346636
 20
-2.814653579225723
 30
0.0
 40
2.5
 41
0.0
 46
0.0
 71
     2
 72
     1
  1
\fArial|b1|i0;\H2.5000;WELS \PPRODUCT
  7
STD 2.5 ARIAL
 73
     2
 44
0.9442214965820312
1001
ACAD
1000
MTEXTBEGIN
1070
    73
1070
     2
1070
    44
1040
0.9442214965820312
1070
    74
1070
     0
1000
MTEXTEND
  0
ENDBLK
  5
368
330
366
100
AcDbEntity
  8
0
100
AcDbBlockEnd
  0
BLOCK
  5
3E9
330
3E8
100
AcDbEntity
  8
0
100
AcDbBlockBegin
  2
*D51
 70
     1
 10
0.0
 20
0.0
 30
0.0
  3
*D51
  1

  0
LINE
  5
4C0
330
3E8
100
AcDbEntity
  8
Dimensions(Ram)
  6
Continuous
 62
     7
440
 16777216
370
    25
100
AcDbLine
 10
196.5640640480335
 20
196.759297685425
 30
0.0
 11
149.5329264572493
 21
196.759297685425
 31
0.0
  0
LINE
  5
4C1
330
3E8
100
AcDbEntity
  8
Dimensions(Ram)
  6
Continuous
 62
     7
440
 16777216
370
    25
100
AcDbLine
 10
186.0640640480341
 20
143.759297685425
 30
0.0
 11
149.5329264572493
 21
143.759297685425
 31
0.0
  0
LINE
  5
4C2
330
3E8
100
AcDbEntity
  8
Dimensions(Ram)
  6
Continuous
 62
     7
440
 16777216
370
    25
100
AcDbLine
 10
153.5329264572493
 20
191.759297685425
 30
0.0
 11
153.5329264572493
 21
148.759297685425
 31
0.0
  0
SOLID
  5
4C3
330
3E8
100
AcDbEntity
  8
Dimensions(Ram)
  6
Continuous
 62
     7
440
 16777216
100
AcDbTrace
 10
152.699593123916
 20
191.759297685425
 30
0.0
 11
154.3662597905826
 21
191.759297685425
 31
0.0
 12
153.5329264572493
 22
196.759297685425
 32
0.0
 13
153.5329264572493
 23
196.759297685425
 33
0.0
  0
SOLID
  5
4C4
330
3E8
100
AcDbEntity
  8
Dimensions(Ram)
  6
Continuous
 62
     7
440
 16777216
100
AcDbTrace
 10
152.699593123916
 20
148.759297685425
 30
0.0
 11
154.3662597905826
 21
148.759297685425
 31
0.0
 12
153.5329264572493
 22
143.759297685425
 32
0.0
 13
153.5329264572493
 23
143.759297685425
 33
0.0
  0
MTEXT
  5
4C5
330
3E8
100
AcDbEntity
  8
Dimensions(Ram)
  6
Continuous
 62
     7
440
 16777216
370
    25
100
AcDbMText
 10
146.4237859388318
 20
166.678124424852
 30
0.0
 40
5.0
 41
0.0
 46
0.0
 71
     1
 72
     1
  1
\A1;53
  7
STD 2.5 ARIAL
 11
0.0000000000000001
 21
1.0
 31
0.0
 73
     1
 44
1.0
1001
ACAD
1000
MTEXTBEGIN
1070
    73
1070
     1
1070
    44
1040
1.0
1070
    74
1070
     0
1000
MTEXTEND
  0
POINT
  5
4C6
330
3E8
100
AcDbEntity
  8
Defpoints
  6
Continuous
 62
     0
440
 16777216
100
AcDbPoint
 10
199.1640640480335
 20
196.759297685425
 30
0.0
  0
POINT
  5
4C7
330
3E8
100
AcDbEntity
  8
Defpoints
  6
Continuous
 62
     0
440
 16777216
100
AcDbPoint
 10
188.6640640480341
 20
143.759297685425
 30
0.0
  0
POINT
  5
4C8
330
3E8
100
AcDbEntity
  8
Defpoints
  6
Continuous
 62
     0
440
 16777216
100
AcDbPoint
 10
153.5329264572493
 20
143.759297685425
 30
0.0
  0
ENDBLK
  5
3EA
330
3E8
100
AcDbEntity
  8
0
100
AcDbBlockEnd
  0
BLOCK
  5
4CB
330
4CA
100
AcDbEntity
  8
0
100
AcDbBlockBegin
  2
*D52
 70
     1
 10
0.0
 20
0.0
 30
0.0
  3
*D52
  1

  0
LINE
  5
5A2
330
4CA
100
AcDbEntity
  8
Dimensions(Ram)
  6
Continuous
 62
     7
440
 16777216
370
    25
100
AcDbLine
 10
251.6640640480331
 20
223.7592976854255
 30
0.0
 11
281.8345909716354
 21
223.7592976854255
 31
0.0
  0
LINE
  5
5A3
330
4CA
100
AcDbEntity
  8
Dimensions(Ram)
  6
Continuous
 62
     7
440
 16777216
370
    25
100
AcDbLine
 10
251.6640640480345
 20
103.7592976854255
 30
0.0
 11
281.8345909716352
 21
103.7592976854255
 31
0.0
  0
LINE
  5
5A4
330
4CA
100
AcDbEntity
  8
Dimensions(Ram)
  6
Continuous
 62
     7
440
 16777216
370
    25
100
AcDbLine
 10
277.8345909716354
 20
218.7592976854254
 30
0.0
 11
277.8345909716352
 21
108.7592976854255
 31
0.0
  0
SOLID
  5
5A5
330
4CA
100
AcDbEntity
  8
Dimensions(Ram)
  6
Continuous
 62
     7
440
 16777216
100
AcDbTrace
 10
277.001257638302
 20
218.7592976854254
 30
0.0
 11
278.6679243049686
 21
218.7592976854254
 31
0.0
 12
277.8345909716354
 22
223.7592976854255
 32
0.0
 13
277.8345909716354
 23
223.7592976854255
 33
0.0
  0
SOLID
  5
5A6
330
4CA
100
AcDbEntity
  8
Dimensions(Ram)
  6
Continuous
 62
     7
440
 16777216
100
AcDbTrace
 10
277.0012576383019
 20
108.7592976854255
 30
0.0
 11
278.6679243049686
 21
108.7592976854255
 31
0.0
 12
277.8345909716352
 22
103.7592976854255
 32
0.0
 13
277.8345909716352
 23
103.7592976854255
 33
0.0
  0
MTEXT
  5
5A7
330
4CA
100
AcDbEntity
  8
Dimensions(Ram)
  6
Continuous
 62
     7
440
 16777216
370
    25
100
AcDbMText
 10
270.7288610944183
 20
158.4796251069807
 30
0.0
 40
5.0
 41
0.0
 46
0.0
 71
     1
 72
     1
  1
\A1;120
  7
STD 2.5 ARIAL
 11
0.0000000000000001
 21
1.0
 31
0.0
 73
     1
 44
1.0
1001
ACAD
1000
MTEXTBEGIN
1070
    73
1070
     1
1070
    44
1040
1.0
1070
    74
1070
     0
1000
MTEXTEND
  0
POINT
  5
5A8
330
4CA
100
AcDbEntity
  8
Defpoints
  6
Continuous
 62
     0
440
 16777216
100
AcDbPoint
 10
249.0640640480331
 20
223.7592976854255
 30
0.0
  0
POINT
  5
5A9
330
4CA
100
AcDbEntity
  8
Defpoints
  6
Continuous
 62
     0
440
 16777216
100
AcDbPoint
 10
249.0640640480346
 20
103.7592976854255
 30
0.0
  0
POINT
  5
5AA
330
4CA
100
AcDbEntity
  8
Defpoints
  6
Continuous
 62
     0
440
 16777216
100
AcDbPoint
 10
277.8345909716352
 20
103.7592976854255
 30
0.0
  0
ENDBLK
  5
4CC
330
4CA
100
AcDbEntity
  8
0
100
AcDbBlockEnd
  0
BLOCK
  5
5AD
330
5AC
100
AcDbEntity
  8
0
100
AcDbBlockBegin
  2
*D53
 70
     1
 10
0.0
 20
0.0
 30
0.0
  3
*D53
  1

  0
LINE
  5
684
330
5AC
100
AcDbEntity
  8
Dimensions(Ram)
  6
Continuous
 62
     7
440
 16777216
370
    25
100
AcDbLine
 10
174.0640640480332
 20
226.3592976854245
 30
0.0
 11
174.0640640480332
 21
251.4422908825579
 31
0.0
  0
LINE
  5
685
330
5AC
100
AcDbEntity
  8
Dimensions(Ram)
  6
Continuous
 62
     7
440
 16777216
370
    25
100
AcDbLine
 10
249.0640640480331
 20
226.3592976854254
 30
0.0
 11
249.0640640480331
 21
251.4422908825579
 31
0.0
  0
LINE
  5
686
330
5AC
100
AcDbEntity
  8
Dimensions(Ram)
  6
Continuous
 62
     7
440
 16777216
370
    25
100
AcDbLine
 10
179.0640640480331
 20
247.4422908825579
 30
0.0
 11
244.0640640480331
 21
247.4422908825579
 31
0.0
  0
SOLID
  5
687
330
5AC
100
AcDbEntity
  8
Dimensions(Ram)
  6
Continuous
 62
     7
440
 16777216
100
AcDbTrace
 10
179.0640640480331
 20
248.2756242158913
 30
0.0
 11
179.0640640480331
 21
246.6089575492246
 31
0.0
 12
174.0640640480332
 22
247.4422908825579
 32
0.0
 13
174.0640640480332
 23
247.4422908825579
 33
0.0
  0
SOLID
  5
688
330
5AC
100
AcDbEntity
  8
Dimensions(Ram)
  6
Continuous
 62
     7
440
 16777216
100
AcDbTrace
 10
244.0640640480331
 20
248.2756242158913
 30
0.0
 11
244.0640640480331
 21
246.6089575492246
 31
0.0
 12
249.0640640480331
 22
247.4422908825579
 32
0.0
 13
249.0640640480331
 23
247.4422908825579
 33
0.0
  0
MTEXT
  5
689
330
5AC
100
AcDbEntity
  8
Dimensions(Ram)
  6
Continuous
 62
     7
440
 16777216
370
    25
100
AcDbMText
 10
207.9845961080605
 20
254.5275569125716
 30
0.0
 40
5.0
 41
0.0
 46
0.0
 71
     1
 72
     1
  1
\A1;75
  7
STD 2.5 ARIAL
 73
     1
 44
1.0
1001
ACAD
1000
MTEXTBEGIN
1070
    73
1070
     1
1070
    44
1040
1.0
1070
    74
1070
     0
1000
MTEXTEND
  0
POINT
  5
68A
330
5AC
100
AcDbEntity
  8
Defpoints
  6
Continuous
 62
     0
440
 16777216
100
AcDbPoint
 10
174.0640640480332
 20
223.7592976854245
 30
0.0
  0
POINT
  5
68B
330
5AC
100
AcDbEntity
  8
Defpoints
  6
Continuous
 62
     0
440
 16777216
100
AcDbPoint
 10
249.0640640480331
 20
223.7592976854255
 30
0.0
  0
POINT
  5
68C
330
5AC
100
AcDbEntity
  8
Defpoints
  6
Continuous
 62
     0
440
 16777216
100
AcDbPoint
 10
249.0640640480331
 20
247.4422908825579
 30
0.0
  0
ENDBLK
  5
5AE
330
5AC
100
AcDbEntity
  8
0
100
AcDbBlockEnd
  0
BLOCK
  5
79E
330
79D
100
AcDbEntity
  8
0
100
AcDbBlockBegin
  2
*D54
 70
     1
 10
0.0
 20
0.0
 30
0.0
  3
*D54
  1

  0
LINE
  5
875
330
79D
100
AcDbEntity
  8
Dimensions(Ram)
  6
Continuous
 62
     7
440
 16777216
370
    25
100
AcDbLine
 10
369.7863627231487
 20
143.7592976854251
 30
0.0
 11
323.7443547937234
 21
143.7592976854251
 31
0.0
  0
LINE
  5
876
330
79D
100
AcDbEntity
  8
Dimensions(Ram)
  6
Continuous
 62
     7
440
 16777216
370
    25
100
AcDbLine
 10
347.7950892586461
 20
63.76810070853739
 30
0.0
 11
323.7443547937234
 21
63.76810070853739
 31
0.0
  0
LINE
  5
877
330
79D
100
AcDbEntity
  8
Dimensions(Ram)
  6
Continuous
 62
     7
440
 16777216
370
    25
100
AcDbLine
 10
327.7443547937235
 20
138.759297685425
 30
0.0
 11
327.7443547937235
 21
68.7681007085374
 31
0.0
  0
SOLID
  5
878
330
79D
100
AcDbEntity
  8
Dimensions(Ram)
  6
Continuous
 62
     7
440
 16777216
100
AcDbTrace
 10
326.9110214603902
 20
138.759297685425
 30
0.0
 11
328.5776881270568
 21
138.759297685425
 31
0.0
 12
327.7443547937235
 22
143.7592976854251
 32
0.0
 13
327.7443547937235
 23
143.7592976854251
 33
0.0
  0
SOLID
  5
879
330
79D
100
AcDbEntity
  8
Dimensions(Ram)
  6
Continuous
 62
     7
440
 16777216
100
AcDbTrace
 10
326.9110214603902
 20
68.7681007085374
 30
0.0
 11
328.5776881270568
 21
68.7681007085374
 31
0.0
 12
327.7443547937235
 22
63.76810070853739
 32
0.0
 13
327.7443547937235
 23
63.76810070853739
 33
0.0
  0
MTEXT
  5
87A
330
79D
100
AcDbEntity
  8
Dimensions(Ram)
  6
Continuous
 62
     7
440
 16777216
370
    25
100
AcDbMText
 10
320.6386249165065
 20
100.187641898209
 30
0.0
 40
5.0
 41
0.0
 46
0.0
 71
     1
 72
     1
  1
\A1;80
  7
STD 2.5 ARIAL
 11
0.0000000000000001
 21
1.0
 31
0.0
 73
     1
 44
1.0
1001
ACAD
1000
MTEXTBEGIN
1070
    73
1070
     1
1070
    44
1040
1.0
1070
    74
1070
     0
1000
MTEXTEND
  0
POINT
  5
87B
330
79D
100
AcDbEntity
  8
Defpoints
  6
Continuous
 62
     0
440
 16777216
100
AcDbPoint
 10
372.3863627231486
 20
143.7592976854251
 30
0.0
  0
POINT
  5
87C
330
79D
100
AcDbEntity
  8
Defpoints
  6
Continuous
 62
     0
440
 16777216
100
AcDbPoint
 10
350.3950892586463
 20
63.76810070853739
 30
0.0
  0
POINT
  5
87D
330
79D
100
AcDbEntity
  8
Defpoints
  6
Continuous
 62
     0
440
 16777216
100
AcDbPoint
 10
327.7443547937235
 20
63.76810070853739
 30
0.0
  0
ENDBLK
  5
79F
330
79D
100
AcDbEntity
  8
0
100
AcDbBlockEnd
  0
BLOCK
  5
880
330
87F
100
AcDbEntity
  8
0
100
AcDbBlockBegin
  2
*D55
 70
     1
 10
0.0
 20
0.0
 30
0.0
  3
*D55
  1

  0
LINE
  5
95D
330
87F
100
AcDbEntity
  8
Dimensions(Ram)
  6
Continuous
 62
     7
440
 16777216
370
    25
100
AcDbLine
 10
386.1497340918575
 20
161.259297685425
 30
0.0
 11
386.1497340918574
 21
126.259297685425
 31
0.0
  0
LINE
  5
95E
330
87F
100
AcDbEntity
  8
Dimensions(Ram)
  6
Continuous
 62
     7
440
 16777216
370
    25
100
AcDbLine
 10
364.509897802635
 20
92.46427397301129
 30
0.0
 11
386.1497340918574
 21
92.46427397301129
 31
0.0
  0
LINE
  5
95F
330
87F
100
AcDbEntity
  8
Dimensions(Ram)
  6
Continuous
 62
     7
440
 16777216
370
    25
100
AcDbLine
 10
386.1497340918574
 20
92.46427397301129
 30
0.0
 11
386.1497340918574
 21
121.259297685425
 31
0.0
  0
MTEXT
  5
960
330
87F
100
AcDbEntity
  8
Dimensions(Ram)
  6
Continuous
 62
     7
440
 16777216
370
    25
100
AcDbMText
 10
366.509897802635
 20
99.84967642867301
 30
0.0
 40
5.0
 41
0.0
 46
0.0
 71
     1
 72
     1
  1
\A1;{Ø}45
  7
STD 2.5 ARIAL
 73
     1
 44
1.0
1001
ACAD
1000
MTEXTBEGIN
1070
    73
1070
     1
1070
    44
1040
1.0
1070
    74
1070
     0
1000
MTEXTEND
  0
SOLID
  5
961
330
87F
100
AcDbEntity
  8
Dimensions(Ram)
  6
Continuous
 62
     7
440
 16777216
100
AcDbTrace
 10
385.3164007585241
 20
161.259297685425
 30
0.0
 11
386.9830674251908
 21
161.259297685425
 31
0.0
 12
386.1497340918575
 22
166.259297685425
 32
0.0
 13
386.1497340918575
 23
166.259297685425
 33
0.0
  0
SOLID
  5
962
330
87F
100
AcDbEntity
  8
Dimensions(Ram)
  6
Continuous
 62
     7
440
 16777216
100
AcDbTrace
 10
385.3164007585241
 20
126.259297685425
 30
0.0
 11
386.9830674251907
 21
126.259297685425
 31
0.0
 12
386.1497340918574
 22
121.259297685425
 32
0.0
 13
386.1497340918574
 23
121.259297685425
 33
0.0
  0
POINT
  5
963
330
87F
100
AcDbEntity
  8
Defpoints
  6
Continuous
 62
     0
440
 16777216
100
AcDbPoint
 10
386.1497340918575
 20
166.259297685425
 30
0.0
  0
POINT
  5
964
330
87F
100
AcDbEntity
  8
Defpoints
  6
Continuous
 62
     0
440
 16777216
100
AcDbPoint
 10
386.1497340918575
 20
121.259297685425
 30
0.0
  0
POINT
  5
965
330
87F
100
AcDbEntity
  8
Defpoints
  6
Continuous
 62
     0
440
 16777216
100
AcDbPoint
 10
386.1497340918574
 20
121.259297685425
 30
0.0
  0
ENDBLK
  5
881
330
87F
100
AcDbEntity
  8
0
100
AcDbBlockEnd
  0
BLOCK
  5
968
330
967
100
AcDbEntity
  8
0
100
AcDbBlockBegin
  2
*D56
 70
     1
 10
0.0
 20
0.0
 30
0.0
  3
*D56
  1

  0
LINE
  5
A45
330
967
100
AcDbEntity
  8
Dimensions(Ram)
  6
Continuous
 62
     7
440
 16777216
370
    25
100
AcDbLine
 10
385.876811759693
 20
189.8592976854248
 30
0.0
 11
385.876811759693
 21
203.6592976854248
 31
0.0
  0
LINE
  5
A46
330
967
100
AcDbEntity
  8
Dimensions(Ram)
  6
Continuous
 62
     7
440
 16777216
370
    25
100
AcDbLine
 10
364.2949563708799
 20
223.46699088126
 30
0.0
 11
385.876811759693
 21
223.46699088126
 31
0.0
  0
LINE
  5
A47
330
967
100
AcDbEntity
  8
Dimensions(Ram)
  6
Continuous
 62
     7
440
 16777216
370
    25
100
AcDbLine
 10
385.876811759693
 20
223.46699088126
 30
0.0
 11
385.876811759693
 21
208.6592976854248
 31
0.0
  0
MTEXT
  5
A48
330
967
100
AcDbEntity
  8
Dimensions(Ram)
  6
Continuous
 62
     7
440
 16777216
370
    25
100
AcDbMText
 10
366.2949563708798
 20
230.8523933369218
 30
0.0
 40
5.0
 41
0.0
 46
0.0
 71
     1
 72
     1
  1
\A1;{Ø}24
  7
STD 2.5 ARIAL
 73
     1
 44
1.0
1001
ACAD
1000
MTEXTBEGIN
1070
    73
1070
     1
1070
    44
1040
1.0
1070
    74
1070
     0
1000
MTEXTEND
  0
SOLID
  5
A49
330
967
100
AcDbEntity
  8
Dimensions(Ram)
  6
Continuous
 62
     7
440
 16777216
100
AcDbTrace
 10
385.0434784263597
 20
189.8592976854248
 30
0.0
 11
386.7101450930263
 21
189.8592976854248
 31
0.0
 12
385.876811759693
 22
184.8592976854248
 32
0.0
 13
385.876811759693
 23
184.8592976854248
 33
0.0
  0
SOLID
  5
A4A
330
967
100
AcDbEntity
  8
Dimensions(Ram)
  6
Continuous
 62
     7
440
 16777216
100
AcDbTrace
 10
385.0434784263597
 20
203.6592976854248
 30
0.0
 11
386.7101450930263
 21
203.6592976854248
 31
0.0
 12
385.876811759693
 22
208.6592976854248
 32
0.0
 13
385.876811759693
 23
208.6592976854248
 33
0.0
  0
POINT
  5
A4B
330
967
100
AcDbEntity
  8
Defpoints
  6
Continuous
 62
     0
440
 16777216
100
AcDbPoint
 10
385.876811759693
 20
184.8592976854248
 30
0.0
  0
POINT
  5
A4C
330
967
100
AcDbEntity
  8
Defpoints
  6
Continuous
 62
     0
440
 16777216
100
AcDbPoint
 10
385.876811759693
 20
208.6592976854248
 30
0.0
  0
POINT
  5
A4D
330
967
100
AcDbEntity
  8
Defpoints
  6
Continuous
 62
     0
440
 16777216
100
AcDbPoint
 10
385.876811759693
 20
208.6592976854248
 30
0.0
  0
ENDBLK
  5
969
330
967
100
AcDbEntity
  8
0
100
AcDbBlockEnd
  0
ENDSEC
  0
SECTION
  2
ENTITIES
  0
LINE
  5
3B1
330
6C
100
AcDbEntity
  8
Visible Edges(Ram)
100
AcDbLine
 10
224.3227915804961
 20
226.7592976854247
 30
0.0
 11
198.805336515568
 21
226.7592976854247
 31
0.0
  0
LINE
  5
3B2
330
6C
100
AcDbEntity
  8
Visible Edges(Ram)
100
AcDbLine
 10
224.3227915804961
 20
226.7592976854247
 30
0.0
 11
224.8227915804961
 21
226.2592976854247
 31
0.0
  0
LINE
  5
3B3
330
6C
100
AcDbEntity
  8
Visible Edges(Ram)
100
AcDbLine
 10
198.805336515568
 20
226.7592976854247
 30
0.0
 11
198.305336515568
 21
226.2592976854247
 31
0.0
  0
LINE
  5
3B4
330
6C
100
AcDbEntity
  8
Visible Edges(Ram)
100
AcDbLine
 10
225.0640640480319
 20
223.7592976854251
 30
0.0
 11
225.0640640480319
 21
224.7680238886434
 31
0.0
  0
LINE
  5
3B5
330
6C
100
AcDbEntity
  8
Visible Edges(Ram)
100
AcDbLine
 10
225.0640640480319
 20
225.2592976854247
 30
0.0
 11
225.0640640480319
 21
224.7680238886434
 31
0.0
  0
LINE
  5
3B6
330
6C
100
AcDbEntity
  8
Visible Edges(Ram)
100
AcDbLine
 10
198.0640640480321
 20
224.7680238886434
 30
0.0
 11
198.0640640480321
 21
223.7592976854247
 31
0.0
  0
LINE
  5
3B7
330
6C
100
AcDbEntity
  8
Visible Edges(Ram)
100
AcDbLine
 10
198.0640640480321
 20
224.7680238886434
 30
0.0
 11
198.0640640480321
 21
225.2592976854247
 31
0.0
  0
LINE
  5
3B8
330
6C
100
AcDbEntity
  8
Visible Edges(Ram)
100
AcDbLine
 10
224.8227915804961
 20
226.2592976854247
 30
0.0
 11
224.8291577351041
 21
225.8945809321969
 31
0.0
  0
LINE
  5
3B9
330
6C
100
AcDbEntity
  8
Visible Edges(Ram)
100
AcDbLine
 10
198.305336515568
 20
226.2592976854247
 30
0.0
 11
198.29897036096
 21
225.8945809321969
 31
0.0
  0
ARC
  5
3BA
330
6C
100
AcDbEntity
  8
Visible Edges(Ram)
100
AcDbCircle
 10
197.7990465133818
 20
225.9033071354156
 30
0.0
 40
0.4999999999999976
100
AcDbArc
 50
319.9085520070129
 51
359.0000000000002
  0
ARC
  5
3BB
330
6C
100
AcDbEntity
  8
Visible Edges(Ram)
100
AcDbCircle
 10
225.3290815826823
 20
225.9033071354156
 30
0.0
 40
0.4999999999999976
100
AcDbArc
 50
180.9999999999999
 51
220.0914479938164
  0
SPLINE
  5
3BC
330
6C
100
AcDbEntity
  8
Visible Edges(Ram)
100
AcDbSpline
210
0.0
220
0.0
230
1.0
 70
     8
 71
     3
 72
     8
 73
     4
 74
     0
 42
0.000000001
 43
0.0000000001
 40
-0.8716518089251067
 40
-0.8716518089251067
 40
-0.8716518089251067
 40
-0.8716518089251067
 40
-0.8707968598450378
 40
-0.8707968598450378
 40
-0.8707968598450378
 40
-0.8707968598450378
 10
233.6288111541409
 20
140.4738453273606
 30
0.0
 10
233.6288806838996
 20
140.4744858626072
 30
0.0
 10
233.6289047843846
 20
140.4748222660411
 30
0.0
 10
233.6288801960451
 20
140.4748259261535
 30
0.0
  0
SPLINE
  5
3BD
330
6C
100
AcDbEntity
  8
Visible Edges(Ram)
100
AcDbSpline
210
0.0
220
0.0
230
1.0
 70
     8
 71
     3
 72
     8
 73
     4
 74
     0
 42
0.000000001
 43
0.0000000001
 40
-0.8652674144235131
 40
-0.8652674144235131
 40
-0.8652674144235131
 40
-0.8652674144235131
 40
-0.8644124653434534
 40
-0.8644124653434534
 40
-0.8644124653434534
 40
-0.8644124653434534
 10
189.4992479000164
 20
140.4748259261532
 30
0.0
 10
189.4992232392706
 20
140.4748227524634
 30
0.0
 10
189.4992473466448
 20
140.474486302749
 30
0.0
 10
189.4993168974579
 20
140.473845626059
 30
0.0
  0
LINE
  5
3BE
330
6C
100
AcDbEntity
  8
Visible Edges(Ram)
100
AcDbLine
 10
189.4993141109386
 20
140.4738644293807
 30
0.0
 11
197.2508355839416
 21
69.11989667410887
 31
0.0
  0
SPLINE
  5
3BF
330
6C
100
AcDbEntity
  8
Visible Edges(Ram)
100
AcDbSpline
210
0.0
220
0.0
230
1.0
 70
     8
 71
     3
 72
    16
 73
    12
 74
     0
 42
0.000000001
 43
0.0000000001
 40
-0.7312587926286715
 40
-0.7312587926286715
 40
-0.7312587926286715
 40
-0.7312587926286715
 40
-0.438755275577203
 40
-0.438755275577203
 40
-0.1462517585257346
 40
-0.1462517585257346
 40
0.1462517585257338
 40
0.1462517585257338
 40
0.4387552755772023
 40
0.4387552755772023
 40
0.7312587926286707
 40
0.7312587926286707
 40
0.7312587926286707
 40
0.7312587926286707
 10
203.2155520966632
 20
63.7680626316015
 30
0.0
 10
202.6305293950886
 20
63.7680626316015
 30
0.0
 10
202.0455806125091
 20
63.85422875862817
 30
0.0
 10
200.9252457336527
 20
64.19161729260304
 30
0.0
 10
200.389995845337
 20
64.44279875652319
 30
0.0
 10
199.4145493054997
 20
65.08891819559984
 30
0.0
 10
198.9744712686412
 20
65.48377763510476
 30
0.0
 10
198.2267834076138
 20
66.38373826985803
 30
0.0
 10
197.9192644700458
 20
66.88873002602448
 30
0.0
 10
197.46285388867
 20
67.96607428151952
 30
0.0
 10
197.314017658785
 20
68.53829579139276
 30
0.0
 10
197.2508355839416
 20
69.11989667410887
 30
0.0
  0
LINE
  5
3C0
330
6C
100
AcDbEntity
  8
Visible Edges(Ram)
100
AcDbLine
 10
225.8772925121203
 20
69.11989667410896
 30
0.0
 11
233.6288139851228
 21
140.4738644293809
 31
0.0
  0
LINE
  5
3C1
330
6C
100
AcDbEntity
  8
Visible Edges(Ram)
100
AcDbLine
 10
203.2155520966632
 20
63.7680626316015
 30
0.0
 11
219.9125759993987
 21
63.76806263160156
 31
0.0
  0
SPLINE
  5
3C2
330
6C
100
AcDbEntity
  8
Visible Edges(Ram)
100
AcDbSpline
210
0.0
220
0.0
230
1.0
 70
     8
 71
     3
 72
    16
 73
    12
 74
     0
 42
0.000000001
 43
0.0000000001
 40
-0.7312587926286706
 40
-0.7312587926286706
 40
-0.7312587926286706
 40
-0.7312587926286706
 40
-0.4387552755772023
 40
-0.4387552755772023
 40
-0.1462517585257339
 40
-0.1462517585257339
 40
0.1462517585257344
 40
0.1462517585257344
 40
0.4387552755772028
 40
0.4387552755772028
 40
0.7312587926286711
 40
0.7312587926286711
 40
0.7312587926286711
 40
0.7312587926286711
 10
225.8772925121203
 20
69.11989667410897
 30
0.0
 10
225.8141104372768
 20
68.53829579139286
 30
0.0
 10
225.6652742073919
 20
67.96607428151961
 30
0.0
 10
225.2088636260161
 20
66.88873002602457
 30
0.0
 10
224.9013446884481
 20
66.38373826985807
 30
0.0
 10
224.1536568274207
 20
65.48377763510484
 30
0.0
 10
223.7135787905621
 20
65.0889181955999
 30
0.0
 10
222.738132250725
 20
64.44279875652326
 30
0.0
 10
222.2028823624092
 20
64.19161729260311
 30
0.0
 10
221.0825474835528
 20
63.85422875862822
 30
0.0
 10
220.4975987009734
 20
63.76806263160156
 30
0.0
 10
219.9125759993987
 20
63.76806263160156
 30
0.0
  0
LINE
  5
3C3
330
6C
100
AcDbEntity
  8
Visible Edges(Ram)
100
AcDbLine
 10
203.1570517343352
 20
70.81806251239247
 30
0.0
 11
202.6928749129718
 21
70.8180625123926
 31
0.0
  0
LINE
  5
3C4
330
6C
100
AcDbEntity
  8
Visible Edges(Ram)
100
AcDbLine
 10
203.1570517343357
 20
72.46669053309698
 30
0.0
 11
203.1570517343352
 21
70.81806251239247
 31
0.0
  0
LINE
  5
3C5
330
6C
100
AcDbEntity
  8
Visible Edges(Ram)
100
AcDbLine
 10
204.9710760936869
 20
72.46669053309647
 30
0.0
 11
203.1570517343357
 21
72.46669053309698
 31
0.0
  0
LINE
  5
3C6
330
6C
100
AcDbEntity
  8
Visible Edges(Ram)
100
AcDbLine
 10
204.9710760936864
 20
70.81806251239195
 30
0.0
 11
204.9710760936869
 21
72.46669053309647
 31
0.0
  0
LINE
  5
3C7
330
6C
100
AcDbEntity
  8
Visible Edges(Ram)
100
AcDbLine
 10
205.4352529150498
 20
70.81806251239179
 30
0.0
 11
204.9710760936864
 21
70.81806251239195
 31
0.0
  0
LINE
  5
3C8
330
6C
100
AcDbEntity
  8
Visible Edges(Ram)
100
AcDbLine
 10
205.4352529150509
 20
74.31806245278716
 30
0.0
 11
205.4352529150498
 21
70.81806251239179
 31
0.0
  0
LINE
  5
3C9
330
6C
100
AcDbEntity
  8
Visible Edges(Ram)
100
AcDbLine
 10
204.9710760936875
 20
74.31806245278728
 30
0.0
 11
205.4352529150509
 21
74.31806245278716
 31
0.0
  0
LINE
  5
3CA
330
6C
100
AcDbEntity
  8
Visible Edges(Ram)
100
AcDbLine
 10
204.971076093687
 20
72.88018137971329
 30
0.0
 11
204.9710760936875
 21
74.31806245278728
 31
0.0
  0
LINE
  5
3CB
330
6C
100
AcDbEntity
  8
Visible Edges(Ram)
100
AcDbLine
 10
203.1570517343358
 20
72.88018137971381
 30
0.0
 11
204.971076093687
 21
72.88018137971329
 31
0.0
  0
LINE
  5
3CC
330
6C
100
AcDbEntity
  8
Visible Edges(Ram)
100
AcDbLine
 10
203.1570517343362
 20
74.31806245278782
 30
0.0
 11
203.1570517343358
 21
72.88018137971381
 31
0.0
  0
LINE
  5
3CD
330
6C
100
AcDbEntity
  8
Visible Edges(Ram)
100
AcDbLine
 10
202.6928749129728
 20
74.31806245278796
 30
0.0
 11
203.1570517343362
 21
74.31806245278782
 31
0.0
  0
LINE
  5
3CE
330
6C
100
AcDbEntity
  8
Visible Edges(Ram)
100
AcDbLine
 10
202.6928749129718
 20
70.8180625123926
 30
0.0
 11
202.6928749129728
 21
74.31806245278796
 31
0.0
  0
LINE
  5
3CF
330
6C
100
AcDbEntity
  8
Visible Edges(Ram)
100
AcDbLine
 10
223.7640640480309
 20
72.56806263160156
 30
0.0
 11
221.5990005385698
 21
71.31806263160152
 31
0.0
  0
LINE
  5
3D0
330
6C
100
AcDbEntity
  8
Visible Edges(Ram)
100
AcDbLine
 10
221.5990005385698
 20
73.81806263160155
 30
0.0
 11
223.7640640480309
 21
72.56806263160156
 31
0.0
  0
LINE
  5
3D1
330
6C
100
AcDbEntity
  8
Visible Edges(Ram)
100
AcDbLine
 10
221.5990005385698
 20
71.31806263160152
 30
0.0
 11
221.5990005385698
 21
73.81806263160155
 31
0.0
  0
LINE
  5
3D2
330
6C
100
AcDbEntity
  8
Visible Edges(Ram)
100
AcDbLine
 10
199.3640640480309
 20
72.56806263160149
 30
0.0
 11
201.529127557492
 21
73.81806263160149
 31
0.0
  0
LINE
  5
3D3
330
6C
100
AcDbEntity
  8
Visible Edges(Ram)
100
AcDbLine
 10
201.529127557492
 20
71.31806263160149
 30
0.0
 11
199.3640640480309
 21
72.56806263160149
 31
0.0
  0
LINE
  5
3D4
330
6C
100
AcDbEntity
  8
Visible Edges(Ram)
100
AcDbLine
 10
201.529127557492
 20
73.81806263160149
 30
0.0
 11
201.529127557492
 21
71.31806263160149
 31
0.0
  0
SPLINE
  5
3D5
330
6C
100
AcDbEntity
  8
Visible Edges(Ram)
100
AcDbSpline
210
0.0
220
0.0
230
1.0
 70
     8
 71
     2
 72
     7
 73
     4
 74
     0
 42
0.000000001
 43
0.0000000001
 40
0.0
 40
0.0
 40
0.0
 40
1.0
 40
2.0
 40
2.0
 40
2.0
 10
219.1467620833342
 20
71.15552453783692
 30
0.0
 10
219.5362437840185
 20
71.15552453783681
 30
0.0
 10
220.0751157260611
 20
71.60369526191167
 30
0.0
 10
220.1711523097916
 20
72.04653062022384
 30
0.0
  0
SPLINE
  5
3D6
330
6C
100
AcDbEntity
  8
Visible Edges(Ram)
100
AcDbSpline
210
0.0
220
0.0
230
1.0
 70
     8
 71
     2
 72
     8
 73
     5
 74
     0
 42
0.000000001
 43
0.0000000001
 40
0.0
 40
0.0
 40
0.0
 40
1.0
 40
2.0
 40
3.0
 40
3.0
 40
3.0
 10
218.018332224503
 20
72.59607329379266
 30
0.0
 10
218.0183322245028
 20
72.15057025259905
 30
0.0
 10
218.2797651468797
 20
71.48364953224923
 30
0.0
 10
218.8266401375664
 20
71.15552453783703
 30
0.0
 10
219.1467620833342
 20
71.15552453783692
 30
0.0
  0
SPLINE
  5
3D7
330
6C
100
AcDbEntity
  8
Visible Edges(Ram)
100
AcDbSpline
210
0.0
220
0.0
230
1.0
 70
     8
 71
     2
 72
     8
 73
     5
 74
     0
 42
0.000000001
 43
0.0000000001
 40
0.0
 40
0.0
 40
0.0
 40
1.0
 40
2.0
 40
3.0
 40
3.0
 40
3.0
 10
219.1841096436747
 20
73.98060070923834
 30
0.0
 10
218.7812895285834
 20
73.98060070923846
 30
0.0
 10
218.2370822207779
 20
73.59378669143578
 30
0.0
 10
218.0183322245031
 20
72.94287206837451
 30
0.0
 10
218.018332224503
 20
72.59607329379266
 30
0.0
  0
SPLINE
  5
3D8
330
6C
100
AcDbEntity
  8
Visible Edges(Ram)
100
AcDbSpline
210
0.0
220
0.0
230
1.0
 70
     8
 71
     2
 72
     7
 73
     4
 74
     0
 42
0.000000001
 43
0.0000000001
 40
0.0
 40
0.0
 40
0.0
 40
1.0
 40
2.0
 40
2.0
 40
2.0
 10
220.1204663350455
 20
73.24965559973477
 30
0.0
 10
219.9977529225012
 20
73.63113425177484
 30
0.0
 10
219.5362437840194
 20
73.98060070923825
 30
0.0
 10
219.1841096436747
 20
73.98060070923834
 30
0.0
  0
LINE
  5
3D9
330
6C
100
AcDbEntity
  8
Visible Edges(Ram)
100
AcDbLine
 10
220.5766401077647
 20
73.35903059787198
 30
0.0
 11
220.1204663350455
 21
73.24965559973477
 31
0.0
  0
SPLINE
  5
3DA
330
6C
100
AcDbEntity
  8
Visible Edges(Ram)
100
AcDbSpline
210
0.0
220
0.0
230
1.0
 70
     8
 71
     2
 72
     7
 73
     4
 74
     0
 42
0.000000001
 43
0.0000000001
 40
0.0
 40
0.0
 40
0.0
 40
1.0
 40
2.0
 40
2.0
 40
2.0
 10
219.1947803752004
 20
74.37808545856675
 30
0.0
 10
219.720313902836
 20
74.37808545856663
 30
0.0
 10
220.4352529150507
 20
73.84188119940524
 30
0.0
 10
220.5766401077647
 20
73.35903059787198
 30
0.0
  0
SPLINE
  5
3DB
330
6C
100
AcDbEntity
  8
Visible Edges(Ram)
100
AcDbSpline
210
0.0
220
0.0
230
1.0
 70
     8
 71
     2
 72
     8
 73
     5
 74
     0
 42
0.000000001
 43
0.0000000001
 40
0.0
 40
0.0
 40
0.0
 40
1.0
 40
2.0
 40
3.0
 40
3.0
 40
3.0
 10
217.5408169887325
 20
72.59340561091139
 30
0.0
 10
217.5408169887327
 20
73.14028060159817
 30
0.0
 10
217.9596432011126
 20
73.95659156330609
 30
0.0
 10
218.7306035538369
 20
74.3780854585669
 30
0.0
 10
219.1947803752004
 20
74.37808545856675
 30
0.0
  0
SPLINE
  5
3DC
330
6C
100
AcDbEntity
  8
Visible Edges(Ram)
100
AcDbSpline
210
0.0
220
0.0
230
1.0
 70
     8
 71
     2
 72
     8
 73
     5
 74
     0
 42
0.000000001
 43
0.0000000001
 40
0.0
 40
0.0
 40
0.0
 40
1.0
 40
2.0
 40
3.0
 40
3.0
 40
3.0
 10
219.1867773265551
 20
70.75803978850847
 30
0.0
 10
218.6212285556986
 20
70.75803978850863
 30
0.0
 10
217.9116249092466
 20
71.21954892699084
 30
0.0
 10
217.5408169887324
 20
72.09188122920839
 30
0.0
 10
217.5408169887325
 20
72.59340561091139
 30
0.0
  0
SPLINE
  5
3DD
330
6C
100
AcDbEntity
  8
Visible Edges(Ram)
100
AcDbSpline
210
0.0
220
0.0
230
1.0
 70
     8
 71
     2
 72
     7
 73
     4
 74
     0
 42
0.000000001
 43
0.0000000001
 40
0.0
 40
0.0
 40
0.0
 40
1.0
 40
2.0
 40
2.0
 40
2.0
 10
220.6353291311551
 20
71.92915257344217
 30
0.0
 10
220.488606572678
 20
71.35826843682284
 30
0.0
 10
219.7336523172419
 20
70.75803978850832
 30
0.0
 10
219.1867773265551
 20
70.75803978850847
 30
0.0
  0
LINE
  5
3DE
330
6C
100
AcDbEntity
  8
Visible Edges(Ram)
100
AcDbLine
 10
220.1711523097916
 20
72.04653062022386
 30
0.0
 11
220.6353291311551
 21
71.92915257344217
 31
0.0
  0
CIRCLE
  5
3DF
330
6C
100
AcDbEntity
  8
Visible Edges(Ram)
100
AcDbCircle
 10
211.5640640480335
 20
196.759297685425
 30
0.0
 40
12.39999999999999
  0
ARC
  5
3E0
330
6C
100
AcDbEntity
  8
Visible Edges(Ram)
100
AcDbCircle
 10
211.5640640480342
 20
143.759297685425
 30
0.0
 40
22.89999999999999
100
AcDbArc
 50
340.5514418448962
 51
199.4485581550314
  0
LINE
  5
3E1
330
6C
100
AcDbEntity
  8
Visible Edges(Ram)
100
AcDbLine
 10
174.0640640480332
 20
223.7592976854245
 30
0.0
 11
249.0640640480331
 21
223.7592976854255
 31
0.0
  0
LINE
  5
3E2
330
6C
100
AcDbEntity
  8
Visible Edges(Ram)
100
AcDbLine
 10
249.0640640480331
 20
223.7592976854255
 30
0.0
 11
249.0640640480346
 21
103.7592976854255
 31
0.0
  0
LINE
  5
3E3
330
6C
100
AcDbEntity
  8
Visible Edges(Ram)
100
AcDbLine
 10
249.0640640480346
 20
103.7592976854255
 30
0.0
 11
229.6403356784384
 21
103.7592976854253
 31
0.0
  0
LINE
  5
3E4
330
6C
100
AcDbEntity
  8
Visible Edges(Ram)
100
AcDbLine
 10
193.4877924176233
 20
103.7592976854248
 30
0.0
 11
174.0640640480346
 21
103.7592976854246
 31
0.0
  0
LINE
  5
3E5
330
6C
100
AcDbEntity
  8
Visible Edges(Ram)
100
AcDbLine
 10
174.0640640480346
 20
103.7592976854246
 30
0.0
 11
174.0640640480332
 21
223.7592976854245
 31
0.0
  0
DIMENSION
  5
3E6
330
6C
100
AcDbEntity
  8
Dimensions(Ram)
  6
Continuous
 62
     7
370
    25
100
AcDbDimension
280
     0
  2
*D51
 10
153.5329264572493
 20
143.759297685425
 30
0.0
 11
153.5329264572493
 21
170.259297685425
 31
0.0
 70
   160
  1
<>
 71
     5
 42
53.0
 73
     0
 74
     0
 75
     0
  3
Whole Number
100
AcDbAlignedDimension
 13
199.1640640480335
 23
196.759297685425
 33
0.0
 14
188.6640640480341
 24
143.759297685425
 34
0.0
 50
90.0
100
AcDbRotatedDimension
1001
ACAD
1000
DSTYLE
1002
{
1070
   172
1070
     0
1070
   289
1070
     1
1070
   271
1070
     0
1070
   272
1070
     0
1070
    48
1040
0.0
1070
    47
1040
0.0
1002
}
  0
DIMENSION
  5
4C9
330
6C
100
AcDbEntity
  8
Dimensions(Ram)
  6
Continuous
 62
     7
370
    25
100
AcDbDimension
280
     0
  2
*D52
 10
277.8345909716352
 20
103.7592976854255
 30
0.0
 11
277.8345909716352
 21
163.7592976854254
 31
0.0
 70
   160
  1
<>
 71
     5
 42
119.9999999999999
 73
     0
 74
     0
 75
     0
  3
Whole Number
100
AcDbAlignedDimension
 13
249.0640640480331
 23
223.7592976854255
 33
0.0
 14
249.0640640480346
 24
103.7592976854255
 34
0.0
 50
90.0
100
AcDbRotatedDimension
1001
ACAD
1000
DSTYLE
1002
{
1070
   172
1070
     0
1070
   289
1070
     1
1070
   271
1070
     0
1070
   272
1070
     0
1070
    48
1040
0.0
1070
    47
1040
0.0
1002
}
  0
DIMENSION
  5
5AB
330
6C
100
AcDbEntity
  8
Dimensions(Ram)
  6
Continuous
 62
     7
370
    25
100
AcDbDimension
280
     0
  2
*D53
 10
249.0640640480331
 20
247.4422908825579
 30
0.0
 11
211.5640640480332
 21
247.4422908825579
 31
0.0
 70
   160
  1
<>
 71
     5
 42
74.99999999999992
 73
     0
 74
     0
 75
     0
  3
Whole Number
100
AcDbAlignedDimension
 13
174.0640640480332
 23
223.7592976854245
 33
0.0
 14
249.0640640480331
 24
223.7592976854255
 34
0.0
 50
180.0
100
AcDbRotatedDimension
1001
ACAD
1000
DSTYLE
1002
{
1070
   172
1070
     0
1070
   289
1070
     1
1070
   271
1070
     0
1070
   272
1070
     0
1070
    48
1040
0.0
1070
    47
1040
0.0
1002
}
  0
LINE
  5
68D
330
6C
100
AcDbEntity
  8
Visible Edges(Ram)
100
AcDbLine
 10
416.8863627231454
 20
122.759297685425
 30
0.0
 11
416.8863627231454
 21
164.759297685425
 31
0.0
  0
LINE
  5
68E
330
6C
100
AcDbEntity
  8
Visible Edges(Ram)
100
AcDbLine
 10
416.8863627231454
 20
122.759297685425
 30
0.0
 11
416.3863627231454
 21
122.759297685425
 31
0.0
  0
LINE
  5
68F
330
6C
100
AcDbEntity
  8
Visible Edges(Ram)
100
AcDbLine
 10
416.8863627231454
 20
164.759297685425
 30
0.0
 11
416.3863627231452
 21
164.759297685425
 31
0.0
  0
LINE
  5
690
330
6C
100
AcDbEntity
  8
Visible Edges(Ram)
100
AcDbLine
 10
434.3613627231452
 20
170.7592976854249
 30
0.0
 11
434.3613627231452
 21
175.7592976854247
 31
0.0
  0
LINE
  5
691
330
6C
100
AcDbEntity
  8
Visible Edges(Ram)
100
AcDbLine
 10
453.4113627231453
 20
170.7592976854249
 30
0.0
 11
453.4113627231453
 21
175.7592976854248
 31
0.0
  0
LINE
  5
692
330
6C
100
AcDbEntity
  8
Visible Edges(Ram)
100
AcDbLine
 10
406.5863627231451
 20
183.2592976854249
 30
0.0
 11
406.5863627231451
 21
210.2592976854248
 31
0.0
  0
LINE
  5
693
330
6C
100
AcDbEntity
  8
Visible Edges(Ram)
100
AcDbLine
 10
406.5863627231451
 20
210.2592976854248
 30
0.0
 11
408.0863627231452
 21
211.7592976854248
 31
0.0
  0
LINE
  5
694
330
6C
100
AcDbEntity
  8
Visible Edges(Ram)
100
AcDbLine
 10
406.5863627231452
 20
183.2592976854249
 30
0.0
 11
408.0863627231452
 21
181.7592976854249
 31
0.0
  0
CIRCLE
  5
695
330
6C
100
AcDbEntity
  8
Visible Edges(Ram)
100
AcDbCircle
 10
424.386362723149
 20
196.7592976854248
 30
0.0
 40
3.499999999999996
  0
CIRCLE
  5
696
330
6C
100
AcDbEntity
  8
Visible Edges(Ram)
100
AcDbCircle
 10
429.9863627231533
 20
196.7592976854248
 30
0.0
 40
9.315499999999994
  0
CIRCLE
  5
697
330
6C
100
AcDbEntity
  8
Visible Edges(Ram)
100
AcDbCircle
 10
429.9863627231537
 20
196.7592976854248
 30
0.0
 40
10.51549999999999
  0
CIRCLE
  5
698
330
6C
100
AcDbEntity
  8
Visible Edges(Ram)
100
AcDbCircle
 10
429.9863627231535
 20
196.7592976854248
 30
0.0
 40
13.25872620321863
  0
ARC
  5
699
330
6C
100
AcDbEntity
  8
Visible Edges(Ram)
100
AcDbCircle
 10
429.8831881176641
 20
212.2592976854248
 30
0.0
 40
0.4999999999999998
100
AcDbArc
 50
269.9999999999919
 51
358.9999999999956
  0
ARC
  5
69A
330
6C
100
AcDbEntity
  8
Visible Edges(Ram)
100
AcDbCircle
 10
457.8900796534453
 20
212.2282279173449
 30
0.0
 40
0.4999999999999997
100
AcDbArc
 50
180.9999999999958
 51
258.3180994573075
  0
LINE
  5
69B
330
6C
100
AcDbEntity
  8
Visible Edges(Ram)
100
AcDbLine
 10
458.5863627231453
 20
210.7592976854248
 30
0.0
 11
458.5863627231453
 21
182.7592976854249
 31
0.0
  0
ARC
  5
69C
330
6C
100
AcDbEntity
  8
Visible Edges(Ram)
100
AcDbCircle
 10
457.5863627231452
 20
182.7592976854249
 30
0.0
 40
0.9999999999999992
100
AcDbArc
 50
288.6405184972724
 51
0.0
  0
ARC
  5
69D
330
6C
100
AcDbEntity
  8
Visible Edges(Ram)
100
AcDbCircle
 10
457.5863627231452
 20
210.7592976854248
 30
0.0
 40
0.9999999999999992
100
AcDbArc
 50
0.0
 51
78.3180994573119
  0
ARC
  5
69E
330
6C
100
AcDbEntity
  8
Visible Edges(Ram)
100
AcDbCircle
 10
429.5489350704603
 20
180.7592976854249
 30
0.0
 40
0.9999999999999992
100
AcDbArc
 50
0.9999999999999001
 51
90.0
  0
ARC
  5
69F
330
6C
100
AcDbEntity
  8
Visible Edges(Ram)
100
AcDbCircle
 10
458.2256216700916
 20
180.8642124633969
 30
0.0
 40
0.9999999999999984
100
AcDbArc
 50
108.6405184972724
 51
179.0000000000019
  0
LINE
  5
6A0
330
6C
100
AcDbEntity
  8
Visible Edges(Ram)
100
AcDbLine
 10
456.6450902556092
 20
226.7592976854247
 30
0.0
 11
431.127635190681
 21
226.7592976854247
 31
0.0
  0
LINE
  5
6A1
330
6C
100
AcDbEntity
  8
Visible Edges(Ram)
100
AcDbLine
 10
456.6450902556092
 20
226.7592976854247
 30
0.0
 11
457.1450902556092
 21
226.2592976854247
 31
0.0
  0
LINE
  5
6A2
330
6C
100
AcDbEntity
  8
Visible Edges(Ram)
100
AcDbLine
 10
431.127635190681
 20
226.7592976854247
 30
0.0
 11
430.6276351906811
 21
226.2592976854247
 31
0.0
  0
LINE
  5
6A3
330
6C
100
AcDbEntity
  8
Visible Edges(Ram)
100
AcDbLine
 10
456.6363627231452
 20
175.7592976854249
 30
0.0
 11
431.1363627231452
 21
175.7592976854249
 31
0.0
  0
LINE
  5
6A4
330
6C
100
AcDbEntity
  8
Visible Edges(Ram)
100
AcDbLine
 10
431.1363627231452
 20
175.7592976854249
 30
0.0
 11
430.6276365199265
 21
176.2592215330031
 31
0.0
  0
LINE
  5
6A5
330
6C
100
AcDbEntity
  8
Visible Edges(Ram)
100
AcDbLine
 10
456.6363627231452
 20
175.7592976854249
 30
0.0
 11
457.1450889263639
 21
176.2592215330031
 31
0.0
  0
LINE
  5
6A6
330
6C
100
AcDbEntity
  8
Visible Edges(Ram)
100
AcDbLine
 10
429.5489350704603
 20
181.7592976854249
 30
0.0
 11
408.0863627231452
 21
181.7592976854249
 31
0.0
  0
LINE
  5
6A7
330
6C
100
AcDbEntity
  8
Visible Edges(Ram)
100
AcDbLine
 10
429.8831881176641
 20
211.7592976854248
 30
0.0
 11
408.0863627231452
 21
211.7592976854248
 31
0.0
  0
LINE
  5
6A8
330
6C
100
AcDbEntity
  8
Visible Edges(Ram)
100
AcDbLine
 10
457.1450902556092
 20
226.2592976854247
 30
0.0
 11
457.3901558058673
 21
212.2195017141263
 31
0.0
  0
LINE
  5
6A9
330
6C
100
AcDbEntity
  8
Visible Edges(Ram)
100
AcDbLine
 10
430.6276351906811
 20
226.2592976854247
 30
0.0
 11
430.3831119652423
 21
212.2505714822061
 31
0.0
  0
LINE
  5
6AA
330
6C
100
AcDbEntity
  8
Visible Edges(Ram)
100
AcDbLine
 10
430.6276365199265
 20
176.2592215330031
 30
0.0
 11
430.5487827656166
 21
180.7767500918622
 31
0.0
  0
LINE
  5
6AB
330
6C
100
AcDbEntity
  8
Visible Edges(Ram)
100
AcDbLine
 10
457.1450889263639
 20
176.2592215330031
 30
0.0
 11
457.2257739749351
 21
180.8816648698341
 31
0.0
  0
SPLINE
  5
6AC
330
6C
100
AcDbEntity
  8
Visible Edges(Ram)
100
AcDbSpline
210
0.0
220
0.0
230
1.0
 70
    24
 71
     3
 72
    14
 73
    10
 74
     0
 42
0.000000001
 43
0.0000000001
 40
0.0
 40
0.0
 40
0.0
 40
0.0
 40
0.2334867515370382
 40
0.2334867515370382
 40
0.4348152502589671
 40
0.4348152502589671
 40
0.5797536670119561
 40
0.5797536670119561
 40
0.6143689823530566
 40
0.6143689823530566
 40
0.6143689823530566
 40
0.6143689823530566
 10
456.5863627231498
 20
170.7592976854249
 30
0.0
 10
456.5863627231498
 20
170.7592976854249
 30
0.0
 10
456.4293203901454
 20
170.7592976854249
 30
0.0
 10
455.8761996708819
 20
170.7592976854249
 30
0.0
 10
455.5088903980511
 20
170.7592976854249
 30
0.0
 10
454.7365723586125
 20
170.7592976854249
 30
0.0
 10
454.3699344323504
 20
170.7592976854249
 30
0.0
 10
453.8707353933393
 20
170.7592976854249
 30
0.0
 10
453.7725815569037
 20
170.7592976854249
 30
0.0
 10
453.6727707788371
 20
170.7592976854249
 30
0.0
  0
LINE
  5
6AD
330
6C
100
AcDbEntity
  8
Visible Edges(Ram)
100
AcDbLine
 10
430.5576494762071
 20
170.7592976854249
 30
0.0
 11
451.2427511580593
 21
170.7592976854249
 31
0.0
  0
SPLINE
  5
6AE
330
6C
100
AcDbEntity
  8
Visible Edges(Ram)
100
AcDbSpline
210
0.0
220
0.0
230
1.0
 70
    24
 71
     3
 72
    12
 73
     8
 74
     0
 42
0.000000001
 43
0.0000000001
 40
0.6143689823530566
 40
0.6143689823530566
 40
0.6143689823530566
 40
0.6143689823530566
 40
0.6522228753884506
 40
0.6522228753884506
 40
0.7681736087908419
 40
0.7681736087908419
 40
0.8711189518308881
 40
0.8711189518308881
 40
0.8711189518308881
 40
0.8711189518308881
 10
453.6727707788371
 20
170.7592976854249
 30
0.0
 10
453.5636217943639
 20
170.7592976854249
 30
0.0
 10
453.452490669458
 20
170.7592976854249
 30
0.0
 10
452.9943351401247
 20
170.7592976854249
 30
0.0
 10
452.6343716129225
 20
170.7592976854249
 30
0.0
 10
451.9279920936993
 20
170.7592976854249
 30
0.0
 10
451.5872388607596
 20
170.7592976854249
 30
0.0
 10
451.2427511580593
 20
170.7592976854249
 30
0.0
  0
ARC
  5
6AF
330
6C
100
AcDbEntity
  8
Visible Edges(Ram)
100
AcDbCircle
 10
421.8863627231483
 20
129.7592976854251
 30
0.0
 40
2.999999999999991
100
AcDbArc
 50
90.0
 51
180.0
  0
SPLINE
  5
6B0
330
6C
100
AcDbEntity
  8
Visible Edges(Ram)
100
AcDbSpline
210
0.0
220
0.0
230
1.0
 70
     8
 71
     3
 72
    10
 73
     6
 74
     0
 42
0.000000001
 43
0.0000000001
 40
2.973021414336732
 40
2.973021414336732
 40
2.973021414336732
 40
2.973021414336732
 40
3.176505841625964
 40
3.176505841625964
 40
3.185621060810336
 40
3.185621060810336
 40
3.185621060810336
 40
3.185621060810336
 10
455.5863627231525
 20
152.4317046368278
 30
0.0
 10
455.1551887004086
 20
153.0277109025942
 30
0.0
 10
454.6831401010959
 20
153.580646698333
 30
0.0
 10
454.1873828392327
 20
154.0867288896843
 30
0.0
 10
454.1659923977638
 20
154.1084273508119
 30
0.0
 10
454.1444687019336
 20
154.1301218750965
 30
0.0
  0
SPLINE
  5
6B1
330
6C
100
AcDbEntity
  8
Visible Edges(Ram)
100
AcDbSpline
210
0.0
220
0.0
230
1.0
 70
     8
 71
     3
 72
    14
 73
    10
 74
     0
 42
0.000000001
 43
0.0000000001
 40
2.365244568777665
 40
2.365244568777665
 40
2.365244568777665
 40
2.365244568777665
 40
2.369912034243753
 40
2.369912034243753
 40
2.637536047040336
 40
2.637536047040336
 40
2.907020944333151
 40
2.907020944333151
 40
2.973021414336732
 40
2.973021414336732
 40
2.973021414336732
 40
2.973021414336732
 10
458.0863627231391
 20
146.5321994537753
 30
0.0
 10
458.0834118949403
 20
146.5488916015208
 30
0.0
 10
458.0804312837191
 20
146.5655789082481
 30
0.0
 10
457.9048153143348
 20
147.5387737487809
 30
0.0
 10
457.6290449688417
 20
148.4767074084226
 30
0.0
 10
456.9704266139483
 20
150.1405120511817
 30
0.0
 10
456.5258800841488
 20
151.0188763710923
 30
0.0
 10
455.8619057189348
 20
152.0406428872425
 30
0.0
 10
455.7262146446658
 20
152.2383891375058
 30
0.0
 10
455.5863627231525
 20
152.4317046368278
 30
0.0
  0
CIRCLE
  5
6B2
330
6C
100
AcDbEntity
  8
Visible Edges(Ram)
100
AcDbCircle
 10
443.8863627231525
 20
143.759297685425
 30
0.0
 40
9.315499999999977
  0
CIRCLE
  5
6B3
330
6C
100
AcDbEntity
  8
Visible Edges(Ram)
100
AcDbCircle
 10
443.8863627231531
 20
143.759297685425
 30
0.0
 40
10.81549999999997
  0
CIRCLE
  5
6B4
330
6C
100
AcDbEntity
  8
Visible Edges(Ram)
100
AcDbCircle
 10
443.8863627231531
 20
143.759297685425
 30
0.0
 40
13.33972473588535
  0
SPLINE
  5
6B5
330
6C
100
AcDbEntity
  8
Visible Edges(Ram)
100
AcDbSpline
210
0.0
220
0.0
230
1.0
 70
     8
 71
     3
 72
    14
 73
    10
 74
     0
 42
0.000000001
 43
0.0000000001
 40
2.15860715691967
 40
2.15860715691967
 40
2.15860715691967
 40
2.15860715691967
 40
2.257066810113022
 40
2.257066810113022
 40
2.469904447659049
 40
2.469904447659049
 40
2.682742085205076
 40
2.682742085205076
 40
2.828108659948741
 40
2.828108659948741
 40
2.828108659948741
 40
2.828108659948741
 10
444.8863627231477
 20
135.7577313142501
 30
0.0
 10
444.5487019796295
 20
135.7447050185381
 30
0.0
 10
444.2145615671257
 20
135.7385331389993
 30
0.0
 10
443.1769039313278
 20
135.7385331389993
 30
0.0
 10
442.4397475257272
 20
135.7672854742977
 30
0.0
 10
440.9584078322776
 20
135.8967859075624
 30
0.0
 10
440.2141478635122
 20
135.9974782635467
 30
0.0
 10
438.9935068728837
 20
136.2429609212872
 30
0.0
 10
438.5075254082023
 20
136.3634741832635
 30
0.0
 10
438.0369148645889
 20
136.5092976854252
 30
0.0
  0
LINE
  5
6B6
330
6C
100
AcDbEntity
  8
Visible Edges(Ram)
100
AcDbLine
 10
444.8863627231466
 20
142.2025022769297
 30
0.0
 11
444.8863627231466
 21
135.7577313142501
 31
0.0
  0
SPLINE
  5
6B7
330
6C
100
AcDbEntity
  8
Visible Edges(Ram)
100
AcDbSpline
210
0.0
220
0.0
230
1.0
 70
     8
 71
     3
 72
    19
 73
    15
 74
     0
 42
0.000000001
 43
0.0000000001
 40
-1.013089845177017
 40
-1.013089845177017
 40
-1.013089845177017
 40
-1.013089845177017
 40
-0.8691823452612528
 40
-0.8691823452612528
 40
-0.6988564223047944
 40
-0.6988564223047944
 40
-0.3494282111523974
 40
-0.3494282111523974
 40
-0.1747141055761991
 40
-0.1747141055761991
 40
0.0
 40
0.0
 40
0.0
 40
0.1033561140245572
 40
0.1033561140245572
 40
0.1033561140245572
 40
0.1033561140245572
 10
434.9860233897294
 20
141.0092976854249
 30
0.0
 10
435.2893844738765
 20
141.3134324964515
 30
0.0
 10
435.6633861513966
 20
141.5581591509992
 30
0.0
 10
436.5354506995894
 20
141.9885872514767
 30
0.0
 10
437.0443021592396
 20
142.1531012402925
 30
0.0
 10
438.490053500698
 20
142.4924961701541
 30
0.0
 10
439.5581757684912
 20
142.5534227798624
 30
0.0
 10
441.1551995308015
 20
142.438912376743
 30
0.0
 10
441.6858753193492
 20
142.3657256593167
 30
0.0
 10
442.7595514453336
 20
142.2142290832197
 30
0.0
 10
443.3039823712261
 20
142.1394095396301
 30
0.0
 10
443.8863627231468
 20
142.1394095396301
 30
0.0
 10
444.2308831032286
 20
142.1394095396301
 30
0.0
 10
444.5621713345684
 20
142.16521442102
 30
0.0
 10
444.8863627231466
 20
142.2025022769297
 30
0.0
  0
SPLINE
  5
6B8
330
6C
100
AcDbEntity
  8
Visible Edges(Ram)
100
AcDbSpline
210
0.0
220
0.0
230
1.0
 70
     8
 71
     3
 72
    22
 73
    18
 74
     0
 42
0.000000001
 43
0.0000000001
 40
2.029953565582748
 40
2.029953565582748
 40
2.029953565582748
 40
2.029953565582748
 40
2.040819718115248
 40
2.040819718115248
 40
2.22912443930868
 40
2.22912443930868
 40
2.333144895989422
 40
2.333144895989422
 40
2.437165352670164
 40
2.437165352670164
 40
2.503057770967392
 40
2.503057770967392
 40
2.568950189264619
 40
2.568950189264619
 40
2.700735025859071
 40
2.700735025859071
 40
2.857966380654687
 40
2.857966380654687
 40
2.857966380654687
 40
2.857966380654687
 10
444.8863627231466
 20
142.2025022769297
 30
0.0
 10
444.9050135225893
 20
142.1768948468255
 30
0.0
 10
444.9234835982481
 20
142.1515170467757
 30
0.0
 10
445.2583256011043
 20
141.6910955923516
 30
0.0
 10
445.6359611410421
 20
141.1673509679002
 30
0.0
 10
446.1032607809412
 20
140.4750688102647
 30
0.0
 10
446.2824647167781
 20
140.2036330494295
 30
0.0
 10
446.581737401155
 20
139.645705558917
 30
0.0
 10
446.7016370281506
 20
139.3584605205218
 30
0.0
 10
446.6776337555418
 20
138.8527179905683
 30
0.0
 10
446.6205803325606
 20
138.6714318699498
 30
0.0
 10
446.4771191559196
 20
138.3194769706934
 30
0.0
 10
446.3898361755018
 20
138.1489464364088
 30
0.0
 10
446.1106347428811
 20
137.6393385843736
 30
0.0
 10
445.9020971732686
 20
137.3046616506994
 30
0.0
 10
445.4285414773917
 20
136.5645655072144
 30
0.0
 10
445.1600086767064
 20
136.1616339686599
 30
0.0
 10
444.8863627231477
 20
135.7577313142501
 30
0.0
  0
LINE
  5
6B9
330
6C
100
AcDbEntity
  8
Visible Edges(Ram)
100
AcDbLine
 10
434.0597407196311
 20
132.7592976854251
 30
0.0
 11
421.8863627231483
 21
132.7592976854251
 31
0.0
  0
ARC
  5
6BA
330
6C
100
AcDbEntity
  8
Visible Edges(Ram)
100
AcDbCircle
 10
452.5863627231522
 20
157.7792834200825
 30
0.0
 40
2.999999999999996
100
AcDbArc
 50
288.1396920810324
 51
0.0
  0
SPLINE
  5
6BB
330
6C
100
AcDbEntity
  8
Visible Edges(Ram)
100
AcDbSpline
210
0.0
220
0.0
230
1.0
 70
     8
 71
     3
 72
    14
 73
    10
 74
     0
 42
0.000000001
 43
0.0000000001
 40
0.0
 40
0.0
 40
0.0
 40
0.0
 40
0.0408636460583494
 40
0.0408636460583494
 40
0.0802750243659414
 40
0.0802750243659414
 40
0.1190187884323685
 40
0.1190187884323685
 40
0.1475288003859285
 40
0.1475288003859285
 40
0.1475288003859285
 40
0.1475288003859285
 10
454.1444687019336
 20
154.1301218750965
 30
0.0
 10
454.0485630887273
 20
154.2267886683444
 30
0.0
 10
453.9595645977605
 20
154.3272844569503
 30
0.0
 10
453.8053524000548
 20
154.5197910375595
 30
0.0
 10
453.7414365374253
 20
154.6091787195329
 30
0.0
 10
453.6375551314163
 20
154.761938097898
 30
0.0
 10
453.5984012901405
 20
154.8235692561342
 30
0.0
 10
453.5491702754936
 20
154.8964397161006
 30
0.0
 10
453.534398113936
 20
154.9161833447128
 30
0.0
 10
453.5254668703522
 20
154.9239398117753
 30
0.0
  0
LINE
  5
6BC
330
6C
100
AcDbEntity
  8
Visible Edges(Ram)
100
AcDbLine
 10
455.5863627231523
 20
167.8290966788299
 30
0.0
 11
455.5863627231524
 21
157.7792834200825
 31
0.0
  0
ARC
  5
6BD
330
6C
100
AcDbEntity
  8
Visible Edges(Ram)
100
AcDbCircle
 10
456.5863627231516
 20
169.7592976854249
 30
0.0
 40
1.000000000000001
100
AcDbArc
 50
90.0
 51
180.0
  0
LINE
  5
6BE
330
6C
100
AcDbEntity
  8
Visible Edges(Ram)
100
AcDbLine
 10
455.5863627231523
 20
167.8290966788299
 30
0.0
 11
455.5863627231516
 21
169.7592976854249
 31
0.0
  0
SPLINE
  5
6BF
330
6C
100
AcDbEntity
  8
Visible Edges(Ram)
100
AcDbSpline
210
0.0
220
0.0
230
1.0
 70
     8
 71
     3
 72
    14
 73
    10
 74
     0
 42
0.000000001
 43
0.0000000001
 40
-0.3358992462510201
 40
-0.3358992462510201
 40
-0.3358992462510201
 40
-0.3358992462510201
 40
-0.331470252187404
 40
-0.331470252187404
 40
-0.2059423832615146
 40
-0.2059423832615146
 40
-0.0982744568001943
 40
-0.0982744568001943
 40
-0.0382227046043038
 40
-0.0382227046043038
 40
-0.0382227046043038
 40
-0.0382227046043038
 10
456.6244164872474
 20
136.3225991043467
 30
0.0
 10
456.6291483797212
 20
136.3307041939201
 30
0.0
 10
456.6338372259981
 20
136.3389048512221
 30
0.0
 10
456.7701956589921
 20
136.5823489817078
 30
0.0
 10
456.8610621784156
 20
136.8815763643954
 30
0.0
 10
457.0337611742804
 20
137.5303803304667
 30
0.0
 10
457.113884090636
 20
137.8569011026273
 30
0.0
 10
457.2742158463134
 20
138.383769876418
 30
0.0
 10
457.337405768702
 20
138.5724706159067
 30
0.0
 10
457.4064979289041
 20
138.759297685425
 30
0.0
  0
ARC
  5
6C0
330
6C
100
AcDbEntity
  8
Visible Edges(Ram)
100
AcDbCircle
 10
443.8863627231528
 20
143.759297685425
 30
0.0
 40
14.41506350946112
100
AcDbArc
 50
339.7046593362859
 51
356.0960440711493
  0
LINE
  5
6C1
330
6C
100
AcDbEntity
  8
Visible Edges(Ram)
100
AcDbLine
 10
458.5863627231518
 20
135.759297685425
 30
0.0
 11
458.5863627231526
 21
137.4905424619748
 31
0.0
  0
LINE
  5
6C2
330
6C
100
AcDbEntity
  8
Visible Edges(Ram)
100
AcDbLine
 10
458.5863627231518
 20
135.7592976854251
 30
0.0
 11
456.2783964545458
 21
135.759297685425
 31
0.0
  0
LINE
  5
6C3
330
6C
100
AcDbEntity
  8
Visible Edges(Ram)
100
AcDbLine
 10
430.5576494762071
 20
170.7592976854249
 30
0.0
 11
430.3991254802292
 21
161.6774640383061
 31
0.0
  0
ARC
  5
6C4
330
6C
100
AcDbEntity
  8
Visible Edges(Ram)
100
AcDbCircle
 10
421.8863627231453
 20
161.7592976854249
 30
0.0
 40
2.999999999999993
100
AcDbArc
 50
180.0
 51
270.0
  0
LINE
  5
6C5
330
6C
100
AcDbEntity
  8
Visible Edges(Ram)
100
AcDbLine
 10
427.4295778256148
 20
158.759297685425
 30
0.0
 11
421.8863627231453
 21
158.7592976854249
 31
0.0
  0
ARC
  5
6C6
330
6C
100
AcDbEntity
  8
Visible Edges(Ram)
100
AcDbCircle
 10
427.4295778256148
 20
161.7292976854249
 30
0.0
 40
2.969999999999993
100
AcDbArc
 50
270.0
 51
359.0000000000005
  0
ARC
  5
6C7
330
6C
100
AcDbEntity
  8
Visible Edges(Ram)
100
AcDbCircle
 10
443.8863627231524
 20
143.759297685425
 30
0.0
 40
14.75000000000008
100
AcDbArc
 50
49.1939429232811
 51
329.7228698958469
  0
LINE
  5
6C8
330
6C
100
AcDbEntity
  8
Visible Edges(Ram)
100
AcDbLine
 10
458.0863627231517
 20
170.7592976854249
 30
0.0
 11
456.5863627231516
 21
170.7592976854249
 31
0.0
  0
LINE
  5
6C9
330
6C
100
AcDbEntity
  8
Visible Edges(Ram)
100
AcDbLine
 10
418.8863627231453
 20
124.7592976854251
 30
0.0
 11
418.886362723149
 21
130.0570989017009
 31
0.0
  0
SPLINE
  5
6CA
330
6C
100
AcDbEntity
  8
Visible Edges(Ram)
100
AcDbSpline
210
0.0
220
0.0
230
1.0
 70
     8
 71
     3
 72
    20
 73
    16
 74
     0
 42
0.000000001
 43
0.0000000001
 40
-0.8116897773001813
 40
-0.8116897773001813
 40
-0.8116897773001813
 40
-0.8116897773001813
 40
-0.7385314150788052
 40
-0.7385314150788052
 40
-0.6448356985004629
 40
-0.6448356985004629
 40
-0.5860614746515831
 40
-0.5860614746515831
 40
-0.5303118908031605
 40
-0.5303118908031605
 40
-0.4522979132600414
 40
-0.4522979132600414
 40
-0.2774872604749432
 40
-0.2774872604749432
 40
-0.1707165664587374
 40
-0.1707165664587374
 40
-0.1707165664587374
 40
-0.1707165664587374
 10
419.0482749270881
 20
137.7592976854248
 30
0.0
 10
419.0864231029411
 20
137.4247061659841
 30
0.0
 10
419.1268879741188
 20
137.0934420280875
 30
0.0
 10
419.2113000547833
 20
136.3465594951149
 30
0.0
 10
419.2528715853776
 20
135.93267710182
 30
0.0
 10
419.2941205289747
 20
135.2644720880596
 30
0.0
 10
419.3035183597319
 20
135.0112607664099
 30
0.0
 10
419.3072704973661
 20
134.5196865391245
 30
0.0
 10
419.3023517477269
 20
134.2849658700308
 30
0.0
 10
419.2754629787835
 20
133.7251707775053
 30
0.0
 10
419.2476805943408
 20
133.4077293982998
 30
0.0
 10
419.1344600795528
 20
132.3957989928734
 30
0.0
 10
419.0214148357401
 20
131.7273494446874
 30
0.0
 10
418.9088134571782
 20
130.7056726684383
 30
0.0
 10
418.8863627231491
 20
130.3639254826984
 30
0.0
 10
418.886362723149
 20
130.0570989017009
 30
0.0
  0
SPLINE
  5
6CB
330
6C
100
AcDbEntity
  8
Visible Edges(Ram)
100
AcDbSpline
210
0.0
220
0.0
230
1.0
 70
     8
 71
     3
 72
    10
 73
     6
 74
     0
 42
0.000000001
 43
0.0000000001
 40
3.428028795128319
 40
3.428028795128319
 40
3.428028795128319
 40
3.428028795128319
 40
3.749151275281781
 40
3.749151275281781
 40
4.001954900771985
 40
4.001954900771985
 40
4.001954900771985
 40
4.001954900771985
 10
418.8863627231506
 20
143.7592976854249
 30
0.0
 10
418.8863627231506
 20
142.6888894182467
 30
0.0
 10
418.8806502627526
 20
141.5189835580001
 30
0.0
 10
418.9185284202246
 20
139.4690411298538
 30
0.0
 10
418.9547163126938
 20
138.5798852560434
 30
0.0
 10
419.0482749270881
 20
137.7592976854248
 30
0.0
  0
SPLINE
  5
6CC
330
6C
100
AcDbEntity
  8
Visible Edges(Ram)
100
AcDbSpline
210
0.0
220
0.0
230
1.0
 70
     8
 71
     3
 72
     8
 73
     4
 74
     0
 42
0.000000001
 43
0.0000000001
 40
3.378689917395463
 40
3.378689917395463
 40
3.378689917395463
 40
3.378689917395463
 40
3.428028795128319
 40
3.428028795128319
 40
3.428028795128319
 40
3.428028795128319
 10
418.8863699394162
 20
144.2592976854246
 30
0.0
 10
418.886360197422
 20
144.0905764977665
 30
0.0
 10
418.8863627231506
 20
143.9237606112011
 30
0.0
 10
418.8863627231506
 20
143.7592976854249
 30
0.0
  0
SPLINE
  5
6CD
330
6C
100
AcDbEntity
  8
Visible Edges(Ram)
100
AcDbSpline
210
0.0
220
0.0
230
1.0
 70
     8
 71
     3
 72
     8
 73
     4
 74
     0
 42
0.000000001
 43
0.0000000001
 40
-0.094194030687656
 40
-0.094194030687656
 40
-0.094194030687656
 40
-0.094194030687656
 40
0.0
 40
0.0
 40
0.0
 40
0.0
 10
418.8863627231506
 20
145.1807996375578
 30
0.0
 10
418.8863627231506
 20
144.8803998208006
 30
0.0
 10
418.88638806241
 20
144.5731690494897
 30
0.0
 10
418.8863699394162
 20
144.2592976854214
 30
0.0
  0
LINE
  5
6CE
330
6C
100
AcDbEntity
  8
Visible Edges(Ram)
100
AcDbLine
 10
418.8863627231507
 20
145.1807996375579
 30
0.0
 11
418.8863627231453
 21
162.7592976854249
 31
0.0
  0
LINE
  5
6CF
330
6C
100
AcDbEntity
  8
Visible Edges(Ram)
100
AcDbLine
 10
418.8863627231453
 20
124.7592976854251
 30
0.0
 11
416.8863627231452
 21
124.7592976854251
 31
0.0
  0
LINE
  5
6D0
330
6C
100
AcDbEntity
  8
Visible Edges(Ram)
100
AcDbLine
 10
418.8863627231453
 20
162.7592976854249
 30
0.0
 11
416.8863627231452
 21
162.7592976854249
 31
0.0
  0
LINE
  5
6D1
330
6C
100
AcDbEntity
  8
Visible Edges(Ram)
100
AcDbLine
 10
458.5863627231516
 20
170.2592976854249
 30
0.0
 11
458.5863627231524
 21
167.8465464271812
 31
0.0
  0
ARC
  5
6D2
330
6C
100
AcDbEntity
  8
Visible Edges(Ram)
100
AcDbCircle
 10
458.0863627231517
 20
170.2592976854249
 30
0.0
 40
0.4999999999999972
100
AcDbArc
 50
0.0
 51
90.0
  0
LINE
  5
6D3
330
6C
100
AcDbEntity
  8
Visible Edges(Ram)
100
AcDbLine
 10
458.5863627231526
 20
137.4905424619748
 30
0.0
 11
458.5863627231524
 21
167.8465464271812
 31
0.0
  0
SPLINE
  5
6D4
330
6C
100
AcDbEntity
  8
Visible Edges(Ram)
100
AcDbSpline
210
0.0
220
0.0
230
1.0
 70
     8
 71
     3
 72
    12
 73
     8
 74
     0
 42
0.000000001
 43
0.0000000001
 40
-0.3395582024306052
 40
-0.3395582024306052
 40
-0.3395582024306052
 40
-0.3395582024306052
 40
-0.3049070530481743
 40
-0.3049070530481743
 40
-0.1517415920872181
 40
-0.1517415920872181
 40
-0.0889282365794188
 40
-0.0889282365794188
 40
-0.0889282365794188
 40
-0.0889282365794188
 10
458.2679772368701
 20
142.7778599845799
 30
0.0
 10
458.2963041388203
 20
143.0258195588441
 30
0.0
 10
458.3176190293128
 20
143.2704381669197
 30
0.0
 10
458.3858896620721
 20
144.5901540062773
 30
0.0
 10
458.2618364975534
 20
145.4110215238308
 30
0.0
 10
458.1569057415117
 20
146.1185924271938
 30
0.0
 10
458.1229100478656
 20
146.3254597511578
 30
0.0
 10
458.0863627231258
 20
146.5321994537729
 30
0.0
  0
LINE
  5
6D5
330
6C
100
AcDbEntity
  8
Visible Edges(Ram)
100
AcDbLine
 10
416.3863627231452
 20
121.259297685425
 30
0.0
 11
416.3863627231452
 21
166.259297685425
 31
0.0
  0
ARC
  5
6D6
330
6C
100
AcDbEntity
  8
Visible Edges(Ram)
100
AcDbCircle
 10
378.8863627231454
 20
137.4571976854249
 30
0.0
 40
16.19790000000001
100
AcDbArc
 50
246.341366115568
 51
270.0
  0
ARC
  5
6D7
330
6C
100
AcDbEntity
  8
Visible Edges(Ram)
100
AcDbCircle
 10
378.8863627231454
 20
150.061397685425
 30
0.0
 40
16.1979
100
AcDbArc
 50
90.0
 51
130.9932859976299
  0
LINE
  5
6D8
330
6C
100
AcDbEntity
  8
Visible Edges(Ram)
100
AcDbLine
 10
378.8863627231454
 20
166.259297685425
 30
0.0
 11
394.1932033998979
 21
166.259297685425
 31
0.0
  0
LINE
  5
6D9
330
6C
100
AcDbEntity
  8
Visible Edges(Ram)
100
AcDbLine
 10
400.1932033998977
 20
166.259297685425
 30
0.0
 11
416.3863627231452
 21
166.259297685425
 31
0.0
  0
LINE
  5
6DA
330
6C
100
AcDbEntity
  8
Visible Edges(Ram)
100
AcDbLine
 10
378.8863627231454
 20
121.2592976854249
 30
0.0
 11
394.1932033998979
 21
121.2592976854249
 31
0.0
  0
LINE
  5
6DB
330
6C
100
AcDbEntity
  8
Visible Edges(Ram)
100
AcDbLine
 10
400.1932033998977
 20
121.2592976854249
 30
0.0
 11
416.3863627231452
 21
121.2592976854249
 31
0.0
  0
LINE
  5
6DC
330
6C
100
AcDbEntity
  8
Visible Edges(Ram)
100
AcDbLine
 10
354.6871489459707
 20
208.3592976854247
 30
0.0
 11
354.6871489459707
 21
185.1592976854248
 31
0.0
  0
LINE
  5
6DD
330
6C
100
AcDbEntity
  8
Visible Edges(Ram)
100
AcDbLine
 10
351.6871489459707
 20
185.1592976854248
 30
0.0
 11
351.6871489459707
 21
208.3592976854246
 31
0.0
  0
LINE
  5
6DE
330
6C
100
AcDbEntity
  8
Visible Edges(Ram)
100
AcDbLine
 10
362.0871489459708
 20
185.1592976854248
 30
0.0
 11
362.0871489459708
 21
208.3592976854246
 31
0.0
  0
ARC
  5
6DF
330
6C
100
AcDbEntity
  8
Visible Edges(Ram)
100
AcDbCircle
 10
354.3871489459707
 20
208.3592976854246
 30
0.0
 40
0.2999999999999995
100
AcDbArc
 50
0.0
 51
90.0
  0
ARC
  5
6E0
330
6C
100
AcDbEntity
  8
Visible Edges(Ram)
100
AcDbCircle
 10
354.3871489459707
 20
185.1592976854248
 30
0.0
 40
0.2999999999999995
100
AcDbArc
 50
270.0
 51
0.0
  0
ARC
  5
6E1
330
6C
100
AcDbEntity
  8
Visible Edges(Ram)
100
AcDbCircle
 10
351.9871489459707
 20
185.1592976854248
 30
0.0
 40
0.2999999999999995
100
AcDbArc
 50
180.0
 51
270.0
  0
ARC
  5
6E2
330
6C
100
AcDbEntity
  8
Visible Edges(Ram)
100
AcDbCircle
 10
351.9871489459707
 20
208.3592976854246
 30
0.0
 40
0.2999999999999995
100
AcDbArc
 50
90.0
 51
180.0
  0
ARC
  5
6E3
330
6C
100
AcDbEntity
  8
Visible Edges(Ram)
100
AcDbCircle
 10
362.3871489459709
 20
185.1592976854248
 30
0.0
 40
0.2999999999999995
100
AcDbArc
 50
180.0
 51
270.0
  0
ARC
  5
6E4
330
6C
100
AcDbEntity
  8
Visible Edges(Ram)
100
AcDbCircle
 10
362.3871489459709
 20
208.3592976854247
 30
0.0
 40
0.2999999999999995
100
AcDbArc
 50
90.0
 51
180.0
  0
LINE
  5
6E5
330
6C
100
AcDbEntity
  8
Visible Edges(Ram)
100
AcDbLine
 10
372.4871489459707
 20
207.6592976854247
 30
0.0
 11
372.4871489459707
 21
185.8592976854248
 31
0.0
  0
ARC
  5
6E6
330
6C
100
AcDbEntity
  8
Visible Edges(Ram)
100
AcDbCircle
 10
371.4871489459707
 20
185.8592976854248
 30
0.0
 40
0.9999999999999982
100
AcDbArc
 50
270.0
 51
0.0
  0
ARC
  5
6E7
330
6C
100
AcDbEntity
  8
Visible Edges(Ram)
100
AcDbCircle
 10
371.4871489459707
 20
207.6592976854247
 30
0.0
 40
0.9999999999999984
100
AcDbArc
 50
0.0
 51
90.0
  0
LINE
  5
6E8
330
6C
100
AcDbEntity
  8
Visible Edges(Ram)
100
AcDbLine
 10
354.3871489459707
 20
184.8592976854248
 30
0.0
 11
351.9871489459707
 21
184.8592976854248
 31
0.0
  0
LINE
  5
6E9
330
6C
100
AcDbEntity
  8
Visible Edges(Ram)
100
AcDbLine
 10
354.3871489459707
 20
208.6592976854246
 30
0.0
 11
351.9871489459707
 21
208.6592976854246
 31
0.0
  0
LINE
  5
6EA
330
6C
100
AcDbEntity
  8
Visible Edges(Ram)
100
AcDbLine
 10
371.4871489459707
 20
184.8592976854248
 30
0.0
 11
362.3871489459707
 21
184.8592976854248
 31
0.0
  0
LINE
  5
6EB
330
6C
100
AcDbEntity
  8
Visible Edges(Ram)
100
AcDbLine
 10
371.4871489459707
 20
208.6592976854246
 30
0.0
 11
362.3871489459707
 21
208.6592976854246
 31
0.0
  0
ARC
  5
6EC
330
6C
100
AcDbEntity
  8
Visible Edges(Ram)
100
AcDbCircle
 10
361.0871489459707
 20
188.4592976854248
 30
0.0
 40
0.9999999999999984
100
AcDbArc
 50
0.0
 51
90.0
  0
ARC
  5
6ED
330
6C
100
AcDbEntity
  8
Visible Edges(Ram)
100
AcDbCircle
 10
361.0871489459707
 20
205.0592976854247
 30
0.0
 40
0.9999999999999982
100
AcDbArc
 50
270.0
 51
0.0
  0
ARC
  5
6EE
330
6C
100
AcDbEntity
  8
Visible Edges(Ram)
100
AcDbCircle
 10
355.6871489459707
 20
188.4592976854248
 30
0.0
 40
0.9999999999999982
100
AcDbArc
 50
90.0
 51
180.0
  0
ARC
  5
6EF
330
6C
100
AcDbEntity
  8
Visible Edges(Ram)
100
AcDbCircle
 10
355.6871489459707
 20
205.0592976854247
 30
0.0
 40
0.9999999999999984
100
AcDbArc
 50
180.0
 51
270.0
  0
LINE
  5
6F0
330
6C
100
AcDbEntity
  8
Visible Edges(Ram)
100
AcDbLine
 10
355.6871489459707
 20
204.0592976854247
 30
0.0
 11
361.0871489459707
 21
204.0592976854247
 31
0.0
  0
LINE
  5
6F1
330
6C
100
AcDbEntity
  8
Visible Edges(Ram)
100
AcDbLine
 10
355.6871489459707
 20
189.4592976854247
 30
0.0
 11
361.0871489459707
 21
189.4592976854248
 31
0.0
  0
LINE
  5
6F2
330
6C
100
AcDbEntity
  8
Visible Edges(Ram)
100
AcDbLine
 10
372.5863627231453
 20
185.8592976854248
 30
0.0
 11
372.5863627231453
 21
207.6592976854248
 31
0.0
  0
ARC
  5
6F3
330
6C
100
AcDbEntity
  8
Visible Edges(Ram)
100
AcDbCircle
 10
373.5863627231453
 20
207.6592976854249
 30
0.0
 40
1.000000000000001
100
AcDbArc
 50
90.0
 51
180.0
  0
ARC
  5
6F4
330
6C
100
AcDbEntity
  8
Visible Edges(Ram)
100
AcDbCircle
 10
373.5863627231453
 20
185.8592976854248
 30
0.0
 40
1.000000000000001
100
AcDbArc
 50
180.0
 51
270.0
  0
LINE
  5
6F5
330
6C
100
AcDbEntity
  8
Visible Edges(Ram)
100
AcDbLine
 10
406.586362723145
 20
185.1592976854245
 30
0.0
 11
406.2863627231453
 21
184.8592976854248
 31
0.0
  0
LINE
  5
6F6
330
6C
100
AcDbEntity
  8
Visible Edges(Ram)
100
AcDbLine
 10
406.586362723145
 20
208.359297685425
 30
0.0
 11
406.2863627231451
 21
208.6592976854249
 31
0.0
  0
LINE
  5
6F7
330
6C
100
AcDbEntity
  8
Visible Edges(Ram)
100
AcDbLine
 10
373.5863627231453
 20
208.6592976854249
 30
0.0
 11
394.1932033998977
 21
208.6592976854248
 31
0.0
  0
LINE
  5
6F8
330
6C
100
AcDbEntity
  8
Visible Edges(Ram)
100
AcDbLine
 10
400.1932033998977
 20
208.6592976854249
 30
0.0
 11
406.2863627231451
 21
208.6592976854249
 31
0.0
  0
LINE
  5
6F9
330
6C
100
AcDbEntity
  8
Visible Edges(Ram)
100
AcDbLine
 10
373.5863627231453
 20
184.8592976854247
 30
0.0
 11
394.1932033998977
 21
184.8592976854248
 31
0.0
  0
LINE
  5
6FA
330
6C
100
AcDbEntity
  8
Visible Edges(Ram)
100
AcDbLine
 10
400.1932033998977
 20
184.8592976854248
 30
0.0
 11
406.2863627231451
 21
184.8592976854248
 31
0.0
  0
LINE
  5
6FB
330
6C
100
AcDbEntity
  8
Visible Edges(Ram)
100
AcDbLine
 10
372.5863627231453
 20
188.2592976854247
 30
0.0
 11
372.4871489459709
 21
188.2592976854247
 31
0.0
  0
LINE
  5
6FC
330
6C
100
AcDbEntity
  8
Visible Edges(Ram)
100
AcDbLine
 10
372.5863627231453
 20
205.2592976854248
 30
0.0
 11
372.4871489459707
 21
205.2592976854248
 31
0.0
  0
SPLINE
  5
6FD
330
6C
100
AcDbEntity
  8
Visible Edges(Ram)
100
AcDbSpline
210
0.0
220
0.0
230
1.0
 70
     8
 71
     3
 72
     8
 73
     4
 74
     0
 42
0.000000001
 43
0.0000000001
 40
0.4583832623301201
 40
0.4583832623301201
 40
0.4583832623301201
 40
0.4583832623301201
 40
0.4985774387218606
 40
0.4985774387218606
 40
0.498577438732469
 40
0.498577438732469
 10
365.1603141083811
 20
121.3262427952316
 30
0.0
 10
365.1777054048332
 20
121.3235289719865
 30
0.0
 10
365.1863627231455
 20
121.3221311335185
 30
0.0
 10
365.1863627231453
 20
121.3221311335185
 30
0.0
  0
SPLINE
  5
6FE
330
6C
100
AcDbEntity
  8
Visible Edges(Ram)
100
AcDbSpline
210
0.0
220
0.0
230
1.0
 70
     8
 71
     3
 72
     8
 73
     4
 74
     0
 42
0.000000001
 43
0.0000000001
 40
1.494606818390725
 40
1.494606818390725
 40
1.494606818391128
 40
1.494606818391128
 40
1.575513321127401
 40
1.575513321127401
 40
1.575513321127401
 40
1.575513321127401
 10
358.5863627231454
 20
121.3797284609374
 30
0.0
 10
358.5863627231459
 20
121.3797284609375
 30
0.0
 10
358.6214400926036
 20
121.3847943131783
 30
0.0
 10
358.6922627142708
 20
121.3942482078355
 30
0.0
  0
LINE
  5
6FF
330
6C
100
AcDbEntity
  8
Visible Edges(Ram)
100
AcDbLine
 10
367.3863627231453
 20
166.2156633464712
 30
0.0
 11
372.3863627231517
 21
143.7592976854251
 31
0.0
  0
LINE
  5
700
330
6C
100
AcDbEntity
  8
Visible Edges(Ram)
100
AcDbLine
 10
372.3863627231454
 20
121.259297685425
 30
0.0
 11
372.3863627231517
 21
143.7592976854251
 31
0.0
  0
LINE
  5
701
330
6C
100
AcDbEntity
  8
Visible Edges(Ram)
100
AcDbLine
 10
350.377636187647
 20
166.0672304387067
 30
0.0
 11
367.3863627231453
 21
166.2156633464712
 31
0.0
  0
LINE
  5
702
330
6C
100
AcDbEntity
  8
Visible Edges(Ram)
100
AcDbLine
 10
358.4212688651389
 20
121.3811692132094
 30
0.0
 11
358.5863627231454
 21
121.3797284609374
 31
0.0
  0
LINE
  5
703
330
6C
100
AcDbEntity
  8
Visible Edges(Ram)
100
AcDbLine
 10
365.1863627231453
 20
121.3221311335185
 30
0.0
 11
372.3863627231454
 21
121.259297685425
 31
0.0
  0
LINE
  5
704
330
6C
100
AcDbEntity
  8
Visible Edges(Ram)
100
AcDbLine
 10
349.3863627231513
 20
140.6027129297717
 30
0.0
 11
349.3863627231452
 21
165.0672685156425
 31
0.0
  0
LINE
  5
705
330
6C
100
AcDbEntity
  8
Visible Edges(Ram)
100
AcDbLine
 10
349.3863627231514
 20
140.6027129297717
 30
0.0
 11
349.3863627231493
 21
69.227896029815
 31
0.0
  0
ARC
  5
706
330
6C
100
AcDbEntity
  8
Visible Edges(Ram)
100
AcDbCircle
 10
350.3863627231478
 20
64.76806263160153
 30
0.0
 40
0.9999999999999998
100
AcDbArc
 50
180.0
 51
270.5000000000021
  0
LINE
  5
707
330
6C
100
AcDbEntity
  8
Visible Edges(Ram)
100
AcDbLine
 10
349.3863627231478
 20
64.76806263160153
 30
0.0
 11
349.3863627231492
 21
69.227896029815
 31
0.0
  0
ARC
  5
708
330
6C
100
AcDbEntity
  8
Visible Edges(Ram)
100
AcDbCircle
 10
350.3863627231453
 20
165.0672685156425
 30
0.0
 40
1.0
100
AcDbArc
 50
90.49999999999807
 51
180.0
  0
ARC
  5
709
330
6C
100
AcDbEntity
  8
Visible Edges(Ram)
100
AcDbCircle
 10
353.3863627231478
 20
64.79424323497385
 30
0.0
 40
0.9999999999999996
100
AcDbArc
 50
270.499999999998
 51
0.0
  0
LINE
  5
70A
330
6C
100
AcDbEntity
  8
Visible Edges(Ram)
100
AcDbLine
 10
354.3863627231492
 20
69.25407663318728
 30
0.0
 11
354.3863627231478
 21
64.79424323497383
 31
0.0
  0
LINE
  5
70B
330
6C
100
AcDbEntity
  8
Visible Edges(Ram)
100
AcDbLine
 10
354.3863627231492
 20
69.25407663318728
 30
0.0
 11
354.3863627231508
 21
125.9455466452733
 31
0.0
  0
LINE
  5
70C
330
6C
100
AcDbEntity
  8
Visible Edges(Ram)
100
AcDbLine
 10
350.3950892586463
 20
63.76810070853739
 30
0.0
 11
353.3950892586462
 21
63.79428131190968
 31
0.0
  0
ARC
  5
70D
330
6C
100
AcDbEntity
  8
Visible Edges(Ram)
100
AcDbCircle
 10
358.3863627231454
 20
117.3813215209527
 30
0.0
 40
4.000000000000002
100
AcDbArc
 50
89.4999999999999
 51
180.0
  0
LINE
  5
70E
330
6C
100
AcDbEntity
  8
Visible Edges(Ram)
100
AcDbLine
 10
358.6915548118351
 20
121.397782064128
 30
0.0
 11
358.6915548118351
 21
121.2592976854249
 31
0.0
  0
LINE
  5
70F
330
6C
100
AcDbEntity
  8
Visible Edges(Ram)
100
AcDbLine
 10
365.1609936712318
 20
121.2592976854249
 30
0.0
 11
365.1609936712318
 21
121.3297615569498
 31
0.0
  0
LINE
  5
710
330
6C
100
AcDbEntity
  8
Visible Edges(Ram)
100
AcDbLine
 10
358.6117317750591
 20
121.2592976854249
 30
0.0
 11
358.6117317750591
 21
121.3832337799882
 31
0.0
  0
LINE
  5
711
330
6C
100
AcDbEntity
  8
Visible Edges(Ram)
100
AcDbLine
 10
358.3654362716383
 20
121.2592976854249
 30
0.0
 11
365.4072891746527
 21
121.2592976854249
 31
0.0
  0
ARC
  5
712
330
6C
100
AcDbEntity
  8
Visible Edges(Ram)
100
AcDbCircle
 10
365.4072891746527
 20
121.1092976854249
 30
0.0
 40
0.1500000000000001
100
AcDbArc
 50
307.6402108889029
 51
90.0
  0
ARC
  5
713
330
6C
100
AcDbEntity
  8
Visible Edges(Ram)
100
AcDbCircle
 10
358.3654362716383
 20
121.1092976854249
 30
0.0
 40
0.1500000000000001
100
AcDbArc
 50
90.0
 51
232.3597891110972
  0
ARC
  5
714
330
6C
100
AcDbEntity
  8
Visible Edges(Ram)
100
AcDbCircle
 10
361.8863627231454
 20
125.6746823008096
 30
0.0
 40
5.915384615384625
100
AcDbArc
 50
232.3597891111057
 51
307.6402108888941
  0
LINE
  5
715
330
6C
100
AcDbEntity
  8
Visible Edges(Ram)
100
AcDbLine
 10
400.1932033999088
 20
103.7592976854255
 30
0.0
 11
400.1932033999088
 21
223.7592976854255
 31
0.0
  0
LINE
  5
716
330
6C
100
AcDbEntity
  8
Visible Edges(Ram)
100
AcDbLine
 10
400.1932033999088
 20
223.7592976854255
 30
0.0
 11
394.1932033999088
 21
223.7592976854255
 31
0.0
  0
LINE
  5
717
330
6C
100
AcDbEntity
  8
Visible Edges(Ram)
100
AcDbLine
 10
394.1932033999088
 20
223.7592976854255
 30
0.0
 11
394.1932033999089
 21
103.7592976854255
 31
0.0
  0
LINE
  5
718
330
6C
100
AcDbEntity
  8
Visible Edges(Ram)
100
AcDbLine
 10
400.1932033999088
 20
103.7592976854255
 30
0.0
 11
394.1932033999089
 21
103.7592976854255
 31
0.0
  0
LINE
  5
719
330
6C
100
AcDbEntity
  8
Visible Edges(Ram)
100
AcDbLine
 10
196.5640640481356
 20
346.0810103998595
 30
0.0
 11
190.564064048138
 21
346.0810103998551
 31
0.0
  0
LINE
  5
71A
330
6C
100
AcDbEntity
  8
Visible Edges(Ram)
100
AcDbLine
 10
232.5640640481381
 20
345.7739148155007
 30
0.0
 11
232.5640640481381
 21
345.5810103998552
 31
0.0
  0
LINE
  5
71B
330
6C
100
AcDbEntity
  8
Visible Edges(Ram)
100
AcDbLine
 10
190.564064048138
 20
346.0810103998551
 30
0.0
 11
190.564064048138
 21
345.5810103998552
 31
0.0
  0
LINE
  5
71C
330
6C
100
AcDbEntity
  8
Visible Edges(Ram)
100
AcDbLine
 10
225.0640640481354
 20
335.7810103998705
 30
0.0
 11
198.0640640481356
 21
335.7810103998709
 31
0.0
  0
LINE
  5
71D
330
6C
100
AcDbEntity
  8
Visible Edges(Ram)
100
AcDbLine
 10
198.0640640481356
 20
335.781010399871
 30
0.0
 11
196.5640640481356
 21
337.281010399871
 31
0.0
  0
LINE
  5
71E
330
6C
100
AcDbEntity
  8
Visible Edges(Ram)
100
AcDbLine
 10
225.0640640481354
 20
335.7810103998705
 30
0.0
 11
226.5640640481354
 21
337.2810103998705
 31
0.0
  0
LINE
  5
71F
330
6C
100
AcDbEntity
  8
Visible Edges(Ram)
100
AcDbLine
 10
241.5640640481359
 20
371.9310103998702
 30
0.0
 11
241.5640640481355
 21
346.4310103998702
 31
0.0
  0
LINE
  5
720
330
6C
100
AcDbEntity
  8
Visible Edges(Ram)
100
AcDbLine
 10
241.5640640481355
 20
346.4310103998702
 30
0.0
 11
241.0641402005573
 21
345.9222841966516
 31
0.0
  0
LINE
  5
721
330
6C
100
AcDbEntity
  8
Visible Edges(Ram)
100
AcDbLine
 10
241.5640640481359
 20
371.9310103998702
 30
0.0
 11
241.0641402005577
 21
372.4397366030888
 31
0.0
  0
LINE
  5
722
330
6C
100
AcDbEntity
  8
Visible Edges(Ram)
100
AcDbLine
 10
199.7030525503761
 20
387.781010399873
 30
0.0
 11
225.5640640481362
 21
387.7810103998704
 31
0.0
  0
LINE
  5
723
330
6C
100
AcDbEntity
  8
Visible Edges(Ram)
100
AcDbLine
 10
199.7030525503761
 20
387.781010399873
 30
0.0
 11
198.0086223364104
 21
387.7810103998728
 31
0.0
  0
ARC
  5
724
330
6C
100
AcDbEntity
  8
Visible Edges(Ram)
100
AcDbCircle
 10
185.5640640481364
 20
386.7810103998719
 30
0.0
 40
1.000000000000003
100
AcDbArc
 50
90.0
 51
180.0
  0
LINE
  5
725
330
6C
100
AcDbEntity
  8
Visible Edges(Ram)
100
AcDbLine
 10
198.0086223364104
 20
387.7810103998728
 30
0.0
 11
189.5640640481364
 21
387.781010399873
 31
0.0
  0
LINE
  5
726
330
6C
100
AcDbEntity
  8
Visible Edges(Ram)
100
AcDbLine
 10
185.5640640481364
 20
387.7810103998718
 30
0.0
 11
189.5640640481364
 21
387.781010399873
 31
0.0
  0
LINE
  5
727
330
6C
100
AcDbEntity
  8
Visible Edges(Ram)
100
AcDbLine
 10
189.5640640481363
 20
382.781010399873
 30
0.0
 11
196.9438725309228
 21
382.7810103998729
 31
0.0
  0
ARC
  5
728
330
6C
100
AcDbEntity
  8
Visible Edges(Ram)
100
AcDbCircle
 10
185.5640640481364
 20
383.7810103998719
 30
0.0
 40
1.000000000000003
100
AcDbArc
 50
180.0
 51
270.0
  0
LINE
  5
729
330
6C
100
AcDbEntity
  8
Visible Edges(Ram)
100
AcDbLine
 10
189.5640640481363
 20
382.781010399873
 30
0.0
 11
185.5640640481363
 21
382.7810103998718
 31
0.0
  0
ARC
  5
72A
330
6C
100
AcDbEntity
  8
Visible Edges(Ram)
100
AcDbCircle
 10
225.5640640481362
 20
386.7810103998704
 30
0.0
 40
0.9999999999999992
100
AcDbArc
 50
0.0
 51
90.0
  0
ARC
  5
72B
330
6C
100
AcDbEntity
  8
Visible Edges(Ram)
100
AcDbCircle
 10
195.5640640481363
 20
381.781010399871
 30
0.0
 40
0.9999999999999992
100
AcDbArc
 50
0.0
 51
90.0
  0
LINE
  5
72C
330
6C
100
AcDbEntity
  8
Visible Edges(Ram)
100
AcDbLine
 10
241.0641402005573
 20
345.9222841966516
 30
0.0
 11
228.0378854384796
 21
345.6949100740082
 31
0.0
  0
LINE
  5
72D
330
6C
100
AcDbEntity
  8
Visible Edges(Ram)
100
AcDbLine
 10
241.0641402005577
 20
372.4397366030888
 30
0.0
 11
226.564064048136
 21
372.6928363737938
 31
0.0
  0
CIRCLE
  5
72E
330
6C
100
AcDbEntity
  8
Visible Edges(Ram)
100
AcDbCircle
 10
211.5640640481361
 20
373.0810103998794
 30
0.0
 40
13.2587275324641
  0
CIRCLE
  5
72F
330
6C
100
AcDbEntity
  8
Visible Edges(Ram)
100
AcDbCircle
 10
211.5640640481361
 20
373.0810103998795
 30
0.0
 40
12.7587275324641
  0
CIRCLE
  5
730
330
6C
100
AcDbEntity
  8
Visible Edges(Ram)
100
AcDbCircle
 10
211.5640640481361
 20
373.0810103998792
 30
0.0
 40
9.315499999999994
  0
CIRCLE
  5
731
330
6C
100
AcDbEntity
  8
Visible Edges(Ram)
100
AcDbCircle
 10
211.5640640481361
 20
373.0810103998795
 30
0.0
 40
10.51549999999999
  0
ELLIPSE
  5
732
330
6C
100
AcDbEntity
  8
Visible Edges(Ram)
100
AcDbEllipse
 10
211.5640640481361
 20
376.9810103998745
 30
0.0
 11
-0.0000000000000394
 21
-2.538533830976431
 31
0.0
210
0.0
220
0.0
230
1.0
 40
0.984820438275733
 41
0.0
 42
6.283185307179585
  0
SPLINE
  5
733
330
6C
100
AcDbEntity
  8
Visible Edges(Ram)
100
AcDbSpline
210
0.0
220
0.0
230
1.0
 70
     8
 71
     3
 72
    22
 73
    18
 74
     0
 42
0.000000001
 43
0.0000000001
 40
0.0759262701055421
 40
0.0759262701055421
 40
0.0759262701055421
 40
0.0759262701055421
 40
0.0988750069100493
 40
0.0988750069100493
 40
0.1977500138200985
 40
0.1977500138200985
 40
0.296372224910059
 40
0.296372224910059
 40
0.3949944360000193
 40
0.3949944360000193
 40
0.49361664708998
 40
0.49361664708998
 40
0.5922388581799403
 40
0.5922388581799403
 40
0.6911138650899895
 40
0.6911138650899895
 40
0.7140626018944962
 40
0.7140626018944962
 40
0.7140626018944962
 40
0.7140626018944962
 10
209.1784854304573
 20
377.7395320136288
 30
0.0
 10
209.2012759519461
 20
377.6629841303775
 30
0.0
 10
209.2273903644113
 20
377.587345262606
 30
0.0
 10
209.3832779399116
 20
377.1935829177767
 30
0.0
 10
209.5700639273914
 20
376.9006324297247
 30
0.0
 10
210.0000156583642
 20
376.4297323439478
 30
0.0
 10
210.2750565617369
 20
376.2173964008355
 30
0.0
 10
210.8923974101047
 20
375.9284264782837
 30
0.0
 10
211.2353233445029
 20
375.8524897152038
 30
0.0
 10
211.8928047517693
 20
375.8524897152038
 30
0.0
 10
212.2357306861676
 20
375.9284264782837
 30
0.0
 10
212.8530715345354
 20
376.2173964008355
 30
0.0
 10
213.1281124379081
 20
376.4297323439476
 30
0.0
 10
213.5580641688809
 20
376.9006324297247
 30
0.0
 10
213.7448501563607
 20
377.1935829177767
 30
0.0
 10
213.900737731861
 20
377.5873452626059
 30
0.0
 10
213.9268521443261
 20
377.6629841303773
 30
0.0
 10
213.9496426658149
 20
377.7395320136288
 30
0.0
  0
LINE
  5
734
330
6C
100
AcDbEntity
  8
Visible Edges(Ram)
100
AcDbLine
 10
184.5640640481364
 20
386.7810103998719
 30
0.0
 11
184.5640640481363
 21
383.7810103998719
 31
0.0
  0
LINE
  5
735
330
6C
100
AcDbEntity
  8
Visible Edges(Ram)
100
AcDbLine
 10
226.5640640481355
 20
344.1951385312736
 30
0.0
 11
226.5640640481354
 21
337.2810103998705
 31
0.0
  0
LINE
  5
736
330
6C
100
AcDbEntity
  8
Visible Edges(Ram)
100
AcDbLine
 10
196.5640640481363
 20
381.7810103998709
 30
0.0
 11
196.5640640481356
 21
337.281010399871
 31
0.0
  0
LINE
  5
737
330
6C
100
AcDbEntity
  8
Visible Edges(Ram)
100
AcDbLine
 10
226.5640640481362
 20
386.7810103998704
 30
0.0
 11
226.564064048136
 21
372.6928363737938
 31
0.0
  0
ARC
  5
738
330
6C
100
AcDbEntity
  8
Visible Edges(Ram)
100
AcDbCircle
 10
228.0640640481355
 20
344.1951385312736
 30
0.0
 40
1.499999999999999
100
AcDbArc
 50
91.00000000000013
 51
180.0
  0
LINE
  5
739
330
6C
100
AcDbEntity
  8
Visible Edges(Ram)
100
AcDbLine
 10
196.5640640481357
 20
348.0810103998587
 30
0.0
 11
192.6173141368691
 21
348.0810103998556
 31
0.0
  0
SPLINE
  5
73A
330
6C
100
AcDbEntity
  8
Visible Edges(Ram)
100
AcDbSpline
210
0.0
220
0.0
230
1.0
 70
     8
 71
     3
 72
     8
 73
     4
 74
     0
 42
0.000000001
 43
0.0000000001
 40
-0.8448311285377666
 40
-0.8448311285377666
 40
-0.8448311285377666
 40
-0.8448311285377666
 40
-0.8003333974955825
 40
-0.8003333974955825
 40
-0.8003333974955825
 40
-0.8003333974955825
 10
192.5706441349132
 20
348.0810176161213
 30
0.0
 10
192.5789573735995
 20
348.0810358501091
 30
0.0
 10
192.5949201405215
 20
348.0810103998556
 30
0.0
 10
192.6173141368691
 20
348.0810103998558
 30
0.0
  0
SPLINE
  5
73B
330
6C
100
AcDbEntity
  8
Visible Edges(Ram)
100
AcDbSpline
210
0.0
220
0.0
230
1.0
 70
     8
 71
     3
 72
     8
 73
     4
 74
     0
 42
0.000000001
 43
0.0000000001
 40
3.428028795128358
 40
3.428028795128358
 40
3.428028795128358
 40
3.428028795128358
 40
3.477367672861235
 40
3.477367672861235
 40
3.477367672861235
 40
3.477367672861235
 10
192.5640640481358
 20
348.0810103998554
 30
0.0
 10
192.5640640481358
 20
348.0810103998554
 30
0.0
 10
192.5662025654531
 20
348.0810078741269
 30
0.0
 10
192.5706441349132
 20
348.0810176161211
 30
0.0
  0
LINE
  5
73C
330
6C
100
AcDbEntity
  8
Visible Edges(Ram)
100
AcDbLine
 10
192.5640640481358
 20
348.0810103998554
 30
0.0
 11
192.5640640481358
 21
346.0810103998554
 31
0.0
  0
LINE
  5
73D
330
6C
100
AcDbEntity
  8
Visible Edges(Ram)
100
AcDbLine
 10
234.7240352617473
 20
387.7810103998624
 30
0.0
 11
237.2225123292951
 21
387.7810103998617
 31
0.0
  0
SPLINE
  5
73E
330
6C
100
AcDbEntity
  8
Visible Edges(Ram)
100
AcDbSpline
210
0.0
220
0.0
230
1.0
 70
     8
 71
     3
 72
    10
 73
     6
 74
     0
 42
0.000000001
 43
0.0000000001
 40
0.0104119190956684
 40
0.0104119190956684
 40
0.0104119190956684
 40
0.0104119190956684
 40
0.0891282927068199
 40
0.0891282927068199
 40
0.1374579371063139
 40
0.1374579371063139
 40
0.1374579371063139
 40
0.1374579371063139
 10
238.5640640481362
 20
387.6604599272774
 30
0.0
 10
238.5640640481362
 20
387.6684055956801
 30
0.0
 10
238.5275055933252
 20
387.7109408712829
 30
0.0
 10
238.4097764820092
 20
387.7647226632942
 30
0.0
 10
238.3515992826154
 20
387.7810103998527
 30
0.0
 10
238.2825673464546
 20
387.7810103998527
 30
0.0
  0
LINE
  5
73F
330
6C
100
AcDbEntity
  8
Visible Edges(Ram)
100
AcDbLine
 10
238.2825673464546
 20
387.7810103998527
 30
0.0
 11
237.2225123292951
 21
387.7810103998616
 31
0.0
  0
SPLINE
  5
740
330
6C
100
AcDbEntity
  8
Visible Edges(Ram)
100
AcDbSpline
210
0.0
220
0.0
230
1.0
 70
     8
 71
     3
 72
    10
 73
     6
 74
     0
 42
0.000000001
 43
0.0000000001
 40
-0.2930472175552159
 40
-0.2930472175552159
 40
-0.2930472175552159
 40
-0.2930472175552159
 40
-0.1517415920872181
 40
-0.1517415920872181
 40
-0.0889282365794188
 40
-0.0889282365794188
 40
-0.0889282365794188
 40
-0.0889282365794188
 10
238.4949276763426
 20
387.5346690120295
 30
0.0
 10
238.4462785450343
 20
387.5616237077601
 30
0.0
 10
238.4804231842028
 20
387.4507222133136
 30
0.0
 10
238.4775499944932
 20
387.3515534182141
 30
0.0
 10
238.4743500084717
 20
387.3175577245683
 30
0.0
 10
238.46713049897
 20
387.2810103998284
 30
0.0
  0
LINE
  5
741
330
6C
100
AcDbEntity
  8
Visible Edges(Ram)
100
AcDbLine
 10
238.5640640481362
 20
387.6604599272774
 30
0.0
 11
238.5640640481362
 21
387.4960739093154
 31
0.0
  0
LINE
  5
742
330
6C
100
AcDbEntity
  8
Visible Edges(Ram)
100
AcDbLine
 10
234.7240352617473
 20
387.7810103998624
 30
0.0
 11
225.5640640481362
 21
387.7810103998626
 31
0.0
  0
LINE
  5
743
330
6C
100
AcDbEntity
  8
Visible Edges(Ram)
100
AcDbLine
 10
184.5640640481365
 20
387.496073909316
 30
0.0
 11
184.5640640481365
 21
387.6605471065904
 31
0.0
  0
SPLINE
  5
744
330
6C
100
AcDbEntity
  8
Visible Edges(Ram)
100
AcDbSpline
210
0.0
220
0.0
230
1.0
 70
     8
 71
     3
 72
    10
 73
     6
 74
     0
 42
0.000000001
 43
0.0000000001
 40
-1.002372022180574
 40
-1.002372022180574
 40
-1.002372022180574
 40
-1.002372022180574
 40
-0.5751364438550836
 40
-0.5751364438550836
 40
-0.4746151095694637
 40
-0.4746151095694637
 40
-0.4746151095694637
 40
-0.4746151095694637
 10
184.6608852715097
 20
387.2810103998288
 30
0.0
 10
184.6377764353474
 20
387.3979786024071
 30
0.0
 10
184.657499111365
 20
387.4865106201265
 30
0.0
 10
184.6547576268306
 20
387.5292881464105
 30
0.0
 10
184.6490154675604
 20
387.5455516188907
 30
0.0
 10
184.6281240011082
 20
387.5336393757805
 30
0.0
  0
LINE
  5
745
330
6C
100
AcDbEntity
  8
Visible Edges(Ram)
100
AcDbLine
 10
185.5640640481364
 20
387.7810103998596
 30
0.0
 11
184.8454661435525
 21
387.7810103998535
 31
0.0
  0
SPLINE
  5
746
330
6C
100
AcDbEntity
  8
Visible Edges(Ram)
100
AcDbSpline
210
0.0
220
0.0
230
1.0
 70
     8
 71
     3
 72
    10
 73
     6
 74
     0
 42
0.000000001
 43
0.0000000001
 40
0.8420807357812114
 40
0.8420807357812114
 40
0.8420807357812114
 40
0.8420807357812114
 40
0.890390921100646
 40
0.890390921100646
 40
0.9691031824324811
 40
0.9691031824324811
 40
0.9691031824324811
 40
0.9691031824324811
 10
184.8454661435525
 20
387.7810103998535
 30
0.0
 10
184.7764718280843
 20
387.7810103998536
 30
0.0
 10
184.7183241523315
 20
387.7647398031335
 30
0.0
 10
184.6006195327888
 20
387.7109996359067
 30
0.0
 10
184.5640640481365
 20
387.6684880956343
 30
0.0
 10
184.5640640481365
 20
387.6605471065904
 30
0.0
  0
SPLINE
  5
747
330
6C
100
AcDbEntity
  8
Visible Edges(Ram)
100
AcDbSpline
210
0.0
220
0.0
230
1.0
 70
     8
 71
     3
 72
    10
 73
     6
 74
     0
 42
0.000000001
 43
0.0000000001
 40
2.973021414336732
 40
2.973021414336732
 40
2.973021414336732
 40
2.973021414336732
 40
3.176505841625964
 40
3.176505841625964
 40
3.185621060810336
 40
3.185621060810336
 40
3.185621060810336
 40
3.185621060810336
 10
238.2611152383571
 20
384.7810103998571
 30
0.0
 10
238.2403022409346
 20
384.3498363771133
 30
0.0
 10
238.2209932974679
 20
383.8777877778008
 30
0.0
 10
238.2033205179198
 20
383.3820305159376
 30
0.0
 10
238.2025627909605
 20
383.3606400744687
 30
0.0
 10
238.2018052014787
 20
383.3391163786387
 30
0.0
  0
SPLINE
  5
748
330
6C
100
AcDbEntity
  8
Visible Edges(Ram)
100
AcDbSpline
210
0.0
220
0.0
230
1.0
 70
     8
 71
     3
 72
    14
 73
    10
 74
     0
 42
0.000000001
 43
0.0000000001
 40
2.365244568777665
 40
2.365244568777665
 40
2.365244568777665
 40
2.365244568777665
 40
2.369912034243753
 40
2.369912034243753
 40
2.637536047040336
 40
2.637536047040336
 40
2.907020944333151
 40
2.907020944333151
 40
2.973021414336732
 40
2.973021414336732
 40
2.973021414336732
 40
2.973021414336732
 10
238.4671304989699
 20
387.2810103998416
 30
0.0
 10
238.4665475963261
 20
387.2780595716428
 30
0.0
 10
238.4659648627345
 20
387.2750789604217
 30
0.0
 10
238.4319801500377
 20
387.0994629910376
 30
0.0
 10
238.3992267849107
 20
386.823692645545
 30
0.0
 10
238.3411254465017
 20
386.1650742906522
 30
0.0
 10
238.3104522885563
 20
385.7205277608528
 30
0.0
 10
238.2747714155714
 20
385.0565533956392
 30
0.0
 10
238.2678659643481
 20
384.9208623213704
 30
0.0
 10
238.2611152383571
 20
384.7810103998571
 30
0.0
  0
SPLINE
  5
749
330
6C
100
AcDbEntity
  8
Visible Edges(Ram)
100
AcDbSpline
210
0.0
220
0.0
230
1.0
 70
     8
 71
     3
 72
    10
 73
     6
 74
     0
 42
0.000000001
 43
0.0000000001
 40
1.869802395235272
 40
1.869802395235272
 40
1.869802395235272
 40
1.869802395235272
 40
1.890681755469364
 40
1.890681755469364
 40
1.895376674245426
 40
1.895376674245426
 40
1.895376674245426
 40
1.895376674245426
 10
184.6704482600243
 20
387.2297586321247
 30
0.0
 10
184.6678517012767
 20
387.2444565174101
 30
0.0
 10
184.66524969546
 20
387.258550571578
 30
0.0
 10
184.6620577673474
 20
387.2750446683332
 30
0.0
 10
184.6614716048986
 20
387.2780426016312
 30
0.0
 10
184.6608852715098
 20
387.2810103998422
 30
0.0
  0
LINE
  5
74A
330
6C
100
AcDbEntity
  8
Visible Edges(Ram)
100
AcDbLine
 10
183.5640640481364
 20
386.4207351357404
 30
0.0
 11
183.564064048136
 21
359.7412856639705
 31
0.0
  0
LINE
  5
74B
330
6C
100
AcDbEntity
  8
Visible Edges(Ram)
100
AcDbLine
 10
239.5640640481362
 20
386.4207351357399
 30
0.0
 11
239.564064048136
 21
372.4659205297148
 31
0.0
  0
ARC
  5
74C
330
6C
100
AcDbEntity
  8
Visible Edges(Ram)
100
AcDbCircle
 10
192.5640640481358
 20
351.0810103998555
 30
0.0
 40
3.000000000000015
100
AcDbArc
 50
270.1256705011549
 51
0.0
  0
LINE
  5
74D
330
6C
100
AcDbEntity
  8
Visible Edges(Ram)
100
AcDbLine
 10
195.5640640481359
 20
356.6186017061071
 30
0.0
 11
195.5640640481357
 21
351.0810103998553
 31
0.0
  0
SPLINE
  5
74E
330
6C
100
AcDbEntity
  8
Visible Edges(Ram)
100
AcDbSpline
210
0.0
220
0.0
230
1.0
 70
     8
 71
     3
 72
    14
 73
    10
 74
     0
 42
0.000000001
 43
0.0000000001
 40
0.0
 40
0.0
 40
0.0
 40
0.0
 40
0.0408636460583494
 40
0.0408636460583494
 40
0.0802750243659414
 40
0.0802750243659414
 40
0.1190187884323685
 40
0.1190187884323685
 40
0.158366925479461
 40
0.158366925479461
 40
0.158366925479461
 40
0.158366925479461
 10
238.2018052014787
 20
383.3391163786387
 30
0.0
 10
238.1984295226741
 20
383.2432107654323
 30
0.0
 10
238.1710267396857
 20
383.1542122744655
 30
0.0
 10
238.067974835377
 20
383.0000000767601
 30
0.0
 10
237.9954396039238
 20
382.9360842141306
 30
0.0
 10
237.8126006691709
 20
382.8322028081215
 30
0.0
 10
237.7052956174523
 20
382.7930489668458
 30
0.0
 10
237.4665297017175
 20
382.735884243093
 30
0.0
 10
237.3372457678247
 20
382.7186956804959
 30
0.0
 10
237.2065441067241
 20
382.7124470662915
 30
0.0
  0
SPLINE
  5
74F
330
6C
100
AcDbEntity
  8
Visible Edges(Ram)
100
AcDbSpline
210
0.0
220
0.0
230
1.0
 70
     8
 71
     3
 72
    10
 73
     6
 74
     0
 42
0.000000001
 43
0.0000000001
 40
0.0
 40
0.0
 40
0.0
 40
0.0
 40
0.0388443897235144
 40
0.0388443897235144
 40
0.0483404671316216
 40
0.0483404671316216
 40
0.0483404671316216
 40
0.0483404671316216
 10
185.9214823777007
 20
382.7124519218704
 30
0.0
 10
185.7921642182706
 20
382.7186285292969
 30
0.0
 10
185.6642201192501
 20
382.7355203538581
 30
0.0
 10
185.5158262591096
 20
382.7706804820892
 30
0.0
 10
185.4873438127405
 20
382.7782379102829
 30
0.0
 10
185.4596115187629
 20
382.7864688238177
 30
0.0
  0
SPLINE
  5
750
330
6C
100
AcDbEntity
  8
Visible Edges(Ram)
100
AcDbSpline
210
0.0
220
0.0
230
1.0
 70
     8
 71
     3
 72
    20
 73
    16
 74
     0
 42
0.000000001
 43
0.0000000001
 40
-0.3836713634519407
 40
-0.3836713634519407
 40
-0.3836713634519407
 40
-0.3836713634519407
 40
-0.3764990831586538
 40
-0.3764990831586538
 40
-0.3580865964701171
 40
-0.3580865964701171
 40
-0.327078608351683
 40
-0.327078608351683
 40
-0.2397038843633656
 40
-0.2397038843633656
 40
-0.1627171685007847
 40
-0.1627171685007847
 40
-0.0842591950811338
 40
-0.0842591950811338
 40
-0.0107549465766235
 40
-0.0107549465766235
 40
-0.0107549465766235
 40
-0.0107549465766235
 10
187.9791275575974
 20
380.1991922180406
 30
0.0
 10
187.9791275575974
 20
380.219555315435
 30
0.0
 10
187.9789249906234
 20
380.240069954856
 30
0.0
 10
187.9774782745396
 20
380.3137546637497
 30
0.0
 10
187.975101625126
 20
380.3677310382155
 30
0.0
 10
187.9650444761074
 20
380.5146861297274
 30
0.0
 10
187.9548616232059
 20
380.6091107650201
 30
0.0
 10
187.8996644458261
 20
380.9746897177997
 30
0.0
 10
187.8264741142369
 20
381.2513414280237
 30
0.0
 10
187.5968038058547
 20
381.7460357858656
 30
0.0
 10
187.4554747816337
 20
381.9563874784453
 30
0.0
 10
187.0896743006332
 20
382.3188448925541
 30
0.0
 10
186.8729669395821
 20
382.4602088454756
 30
0.0
 10
186.4068876012894
 20
382.6495511524703
 30
0.0
 10
186.165810581728
 20
382.7007821037549
 30
0.0
 10
185.9214823777007
 20
382.7124519218704
 30
0.0
  0
SPLINE
  5
751
330
6C
100
AcDbEntity
  8
Visible Edges(Ram)
100
AcDbSpline
210
0.0
220
0.0
230
1.0
 70
     8
 71
     3
 72
    20
 73
    16
 74
     0
 42
0.000000001
 43
0.0000000001
 40
0.0107648932081395
 40
0.0107648932081395
 40
0.0107648932081395
 40
0.0107648932081395
 40
0.0831669006479823
 40
0.0831669006479823
 40
0.1543056369628482
 40
0.1543056369628482
 40
0.2223370437789973
 40
0.2223370437789973
 40
0.3074267589913668
 40
0.3074267589913668
 40
0.3494231015734066
 40
0.3494231015734066
 40
0.3704296919186065
 40
0.3704296919186065
 40
0.3833952921669157
 40
0.3833952921669157
 40
0.3833952921669157
 40
0.3833952921669157
 10
237.2065441067241
 20
382.7124470662915
 30
0.0
 10
236.9658699072717
 20
382.700940860413
 30
0.0
 10
236.7283173001609
 20
382.6510397782397
 30
0.0
 10
236.2870509821545
 20
382.4744658840987
 30
0.0
 10
236.0873027716284
 20
382.3508427163659
 30
0.0
 10
235.7466009355115
 20
382.0406019585238
 30
0.0
 10
235.6098700534302
 20
381.8629346905149
 30
0.0
 10
235.3630945141148
 20
381.417361090718
 30
0.0
 10
235.2748867896989
 20
381.1513342318622
 30
0.0
 10
235.1928020773706
 20
380.7540375399343
 30
0.0
 10
235.17417088844
 20
380.6240715780348
 30
0.0
 10
235.1570342599673
 20
380.4344851938311
 30
0.0
 10
235.1531388544394
 20
380.3721762286211
 30
0.0
 10
235.1496617304449
 20
380.2732964662622
 30
0.0
 10
235.1490005386751
 20
380.2359961990784
 30
0.0
 10
235.1490005386751
 20
380.1991922180398
 30
0.0
  0
LINE
  5
752
330
6C
100
AcDbEntity
  8
Visible Edges(Ram)
100
AcDbLine
 10
235.1490005386751
 20
380.1991922180398
 30
0.0
 11
235.149000538675
 21
372.5429857499349
 31
0.0
  0
LINE
  5
753
330
6C
100
AcDbEntity
  8
Visible Edges(Ram)
100
AcDbLine
 10
187.9791275575974
 20
380.1991922180406
 30
0.0
 11
187.9791275575971
 21
359.5810103998553
 31
0.0
  0
ARC
  5
754
330
6C
100
AcDbEntity
  8
Visible Edges(Ram)
100
AcDbCircle
 10
192.5940640481359
 20
356.6110103998553
 30
0.0
 40
2.969999999999993
100
AcDbArc
 50
0.0
 51
89.99999999999927
  0
ARC
  5
755
330
6C
100
AcDbEntity
  8
Visible Edges(Ram)
100
AcDbCircle
 10
237.3140640481363
 20
385.3310103998547
 30
0.0
 40
2.49999999999999
100
AcDbArc
 50
25.84193276316854
 51
61.8154075127795
  0
LINE
  5
756
330
6C
100
AcDbEntity
  8
Visible Edges(Ram)
100
AcDbLine
 10
192.5940640481359
 20
359.5810103998553
 30
0.0
 11
187.9791275575971
 21
359.5810103998553
 31
0.0
  0
ARC
  5
757
330
6C
100
AcDbEntity
  8
Visible Edges(Ram)
100
AcDbCircle
 10
185.8140640481365
 20
385.3310103998554
 30
0.0
 40
2.49999999999996
100
AcDbArc
 50
118.1884549826447
 51
154.1580672368344
  0
ARC
  5
758
330
6C
100
AcDbEntity
  8
Visible Edges(Ram)
100
AcDbCircle
 10
185.8140640481361
 20
360.8310103998555
 30
0.0
 40
2.499999999999958
100
AcDbArc
 50
205.8419327631638
 51
329.9999999999958
  0
LINE
  5
759
330
6C
100
AcDbEntity
  8
Visible Edges(Ram)
100
AcDbLine
 10
196.5640640481356
 20
345.5810103998601
 30
0.0
 11
189.0640640481381
 21
345.5810103998552
 31
0.0
  0
LINE
  5
75A
330
6C
100
AcDbEntity
  8
Visible Edges(Ram)
100
AcDbLine
 10
234.0640640481382
 20
345.5810103998552
 30
0.0
 11
227.4901658308263
 21
345.5810103998599
 31
0.0
  0
ARC
  5
75B
330
6C
100
AcDbEntity
  8
Visible Edges(Ram)
100
AcDbCircle
 10
217.8661640481381
 20
308.0810103998552
 30
0.0
 40
16.19790000000001
100
AcDbArc
 50
330.3296212122595
 51
0.0
  0
ARC
  5
75C
330
6C
100
AcDbEntity
  8
Visible Edges(Ram)
100
AcDbCircle
 10
205.2619640481381
 20
308.0810103998552
 30
0.0
 40
16.19790000000001
100
AcDbArc
 50
180.0
 51
209.670378787763
  0
LINE
  5
75D
330
6C
100
AcDbEntity
  8
Visible Edges(Ram)
100
AcDbLine
 10
189.0640640481381
 20
308.0810103998552
 30
0.0
 11
189.0640640481381
 21
323.3878510766074
 31
0.0
  0
LINE
  5
75E
330
6C
100
AcDbEntity
  8
Visible Edges(Ram)
100
AcDbLine
 10
189.0640640481381
 20
329.3878510766074
 30
0.0
 11
189.0640640481381
 21
345.5810103998552
 31
0.0
  0
LINE
  5
75F
330
6C
100
AcDbEntity
  8
Visible Edges(Ram)
100
AcDbLine
 10
234.0640640481382
 20
308.0810103998552
 30
0.0
 11
234.0640640481382
 21
323.3878510766074
 31
0.0
  0
LINE
  5
760
330
6C
100
AcDbEntity
  8
Visible Edges(Ram)
100
AcDbLine
 10
234.0640640481382
 20
329.3878510766074
 30
0.0
 11
234.0640640481382
 21
345.5810103998552
 31
0.0
  0
LINE
  5
761
330
6C
100
AcDbEntity
  8
Visible Edges(Ram)
100
AcDbLine
 10
199.9640640481374
 20
283.8817966226963
 30
0.0
 11
223.1640640481372
 21
283.8817966226962
 31
0.0
  0
LINE
  5
762
330
6C
100
AcDbEntity
  8
Visible Edges(Ram)
100
AcDbLine
 10
223.1640640481372
 20
280.8817966226962
 30
0.0
 11
199.9640640481374
 21
280.8817966226962
 31
0.0
  0
LINE
  5
763
330
6C
100
AcDbEntity
  8
Visible Edges(Ram)
100
AcDbLine
 10
223.1640640481373
 20
291.2817966226961
 30
0.0
 11
199.9640640481374
 21
291.2817966226961
 31
0.0
  0
ARC
  5
764
330
6C
100
AcDbEntity
  8
Visible Edges(Ram)
100
AcDbCircle
 10
199.9640640481374
 20
283.5817966226962
 30
0.0
 40
0.2999999999999995
100
AcDbArc
 50
90.0
 51
180.0
  0
ARC
  5
765
330
6C
100
AcDbEntity
  8
Visible Edges(Ram)
100
AcDbCircle
 10
223.1640640481372
 20
283.5817966226962
 30
0.0
 40
0.2999999999999995
100
AcDbArc
 50
0.0
 51
90.0
  0
ARC
  5
766
330
6C
100
AcDbEntity
  8
Visible Edges(Ram)
100
AcDbCircle
 10
223.1640640481372
 20
281.1817966226962
 30
0.0
 40
0.2999999999999995
100
AcDbArc
 50
270.0
 51
0.0
  0
ARC
  5
767
330
6C
100
AcDbEntity
  8
Visible Edges(Ram)
100
AcDbCircle
 10
199.9640640481374
 20
281.1817966226962
 30
0.0
 40
0.2999999999999995
100
AcDbArc
 50
180.0
 51
270.0
  0
ARC
  5
768
330
6C
100
AcDbEntity
  8
Visible Edges(Ram)
100
AcDbCircle
 10
223.1640640481373
 20
291.5817966226961
 30
0.0
 40
0.2999999999999995
100
AcDbArc
 50
270.0
 51
0.0
  0
ARC
  5
769
330
6C
100
AcDbEntity
  8
Visible Edges(Ram)
100
AcDbCircle
 10
199.9640640481374
 20
291.5817966226962
 30
0.0
 40
0.2999999999999995
100
AcDbArc
 50
180.0
 51
270.0
  0
LINE
  5
76A
330
6C
100
AcDbEntity
  8
Visible Edges(Ram)
100
AcDbLine
 10
200.6640640481375
 20
301.6817966226962
 30
0.0
 11
222.4640640481373
 21
301.6817966226962
 31
0.0
  0
ARC
  5
76B
330
6C
100
AcDbEntity
  8
Visible Edges(Ram)
100
AcDbCircle
 10
222.4640640481373
 20
300.6817966226961
 30
0.0
 40
0.9999999999999982
100
AcDbArc
 50
0.0
 51
90.0
  0
ARC
  5
76C
330
6C
100
AcDbEntity
  8
Visible Edges(Ram)
100
AcDbCircle
 10
200.6640640481375
 20
300.6817966226962
 30
0.0
 40
0.9999999999999984
100
AcDbArc
 50
90.0
 51
180.0
  0
LINE
  5
76D
330
6C
100
AcDbEntity
  8
Visible Edges(Ram)
100
AcDbLine
 10
223.4640640481373
 20
283.5817966226961
 30
0.0
 11
223.4640640481372
 21
281.1817966226962
 31
0.0
  0
LINE
  5
76E
330
6C
100
AcDbEntity
  8
Visible Edges(Ram)
100
AcDbLine
 10
199.6640640481374
 20
283.5817966226962
 30
0.0
 11
199.6640640481374
 21
281.1817966226963
 31
0.0
  0
LINE
  5
76F
330
6C
100
AcDbEntity
  8
Visible Edges(Ram)
100
AcDbLine
 10
223.4640640481373
 20
300.6817966226961
 30
0.0
 11
223.4640640481373
 21
291.5817966226961
 31
0.0
  0
LINE
  5
770
330
6C
100
AcDbEntity
  8
Visible Edges(Ram)
100
AcDbLine
 10
199.6640640481374
 20
300.6817966226962
 30
0.0
 11
199.6640640481374
 21
291.5817966226962
 31
0.0
  0
ARC
  5
771
330
6C
100
AcDbEntity
  8
Visible Edges(Ram)
100
AcDbCircle
 10
219.8640640481372
 20
290.2817966226962
 30
0.0
 40
0.9999999999999984
100
AcDbArc
 50
90.0
 51
180.0
  0
ARC
  5
772
330
6C
100
AcDbEntity
  8
Visible Edges(Ram)
100
AcDbCircle
 10
203.2640640481374
 20
290.2817966226962
 30
0.0
 40
0.9999999999999982
100
AcDbArc
 50
0.0
 51
90.0
  0
ARC
  5
773
330
6C
100
AcDbEntity
  8
Visible Edges(Ram)
100
AcDbCircle
 10
219.8640640481372
 20
284.8817966226962
 30
0.0
 40
0.9999999999999982
100
AcDbArc
 50
180.0
 51
270.0
  0
ARC
  5
774
330
6C
100
AcDbEntity
  8
Visible Edges(Ram)
100
AcDbCircle
 10
203.2640640481374
 20
284.8817966226962
 30
0.0
 40
0.9999999999999984
100
AcDbArc
 50
270.0
 51
0.0
  0
LINE
  5
775
330
6C
100
AcDbEntity
  8
Visible Edges(Ram)
100
AcDbLine
 10
204.2640640481374
 20
284.8817966226962
 30
0.0
 11
204.2640640481374
 21
290.2817966226962
 31
0.0
  0
LINE
  5
776
330
6C
100
AcDbEntity
  8
Visible Edges(Ram)
100
AcDbLine
 10
218.8640640481373
 20
284.8817966226962
 30
0.0
 11
218.8640640481373
 21
290.2817966226962
 31
0.0
  0
LINE
  5
777
330
6C
100
AcDbEntity
  8
Visible Edges(Ram)
100
AcDbLine
 10
209.7890640481377
 20
378.4317966226961
 30
0.0
 11
213.3390640481377
 21
378.4317966226961
 31
0.0
  0
LINE
  5
778
330
6C
100
AcDbEntity
  8
Visible Edges(Ram)
100
AcDbLine
 10
213.6390640481377
 20
378.131796622696
 30
0.0
 11
209.4890640481377
 21
378.131796622696
 31
0.0
  0
LINE
  5
779
330
6C
100
AcDbEntity
  8
Visible Edges(Ram)
100
AcDbLine
 10
213.3390640481377
 20
378.4317966226961
 30
0.0
 11
213.6390640481377
 21
378.131796622696
 31
0.0
  0
LINE
  5
77A
330
6C
100
AcDbEntity
  8
Visible Edges(Ram)
100
AcDbLine
 10
209.7890640481377
 20
378.4317966226961
 30
0.0
 11
209.4890640481377
 21
378.131796622696
 31
0.0
  0
LINE
  5
77B
330
6C
100
AcDbEntity
  8
Visible Edges(Ram)
100
AcDbLine
 10
209.4890640481377
 20
377.4317966226961
 30
0.0
 11
209.4890640481377
 21
378.1317966226961
 31
0.0
  0
LINE
  5
77C
330
6C
100
AcDbEntity
  8
Visible Edges(Ram)
100
AcDbLine
 10
213.6390640481377
 20
377.431796622696
 30
0.0
 11
213.6390640481377
 21
378.131796622696
 31
0.0
  0
LINE
  5
77D
330
6C
100
AcDbEntity
  8
Visible Edges(Ram)
100
AcDbLine
 10
222.4640640481374
 20
301.7810103998708
 30
0.0
 11
200.6640640481374
 21
301.7810103998708
 31
0.0
  0
ARC
  5
77E
330
6C
100
AcDbEntity
  8
Visible Edges(Ram)
100
AcDbCircle
 10
200.6640640481374
 20
302.7810103998708
 30
0.0
 40
1.000000000000001
100
AcDbArc
 50
180.0
 51
270.0
  0
ARC
  5
77F
330
6C
100
AcDbEntity
  8
Visible Edges(Ram)
100
AcDbCircle
 10
222.4640640481374
 20
302.7810103998707
 30
0.0
 40
1.000000000000001
100
AcDbArc
 50
270.0
 51
0.0
  0
LINE
  5
780
330
6C
100
AcDbEntity
  8
Visible Edges(Ram)
100
AcDbLine
 10
223.1640640481379
 20
335.7810103998704
 30
0.0
 11
223.4640640481376
 21
335.4810103998707
 31
0.0
  0
LINE
  5
781
330
6C
100
AcDbEntity
  8
Visible Edges(Ram)
100
AcDbLine
 10
199.9640640481375
 20
335.7810103998708
 30
0.0
 11
199.6640640481375
 21
335.4810103998707
 31
0.0
  0
LINE
  5
782
330
6C
100
AcDbEntity
  8
Visible Edges(Ram)
100
AcDbLine
 10
199.6640640481374
 20
302.7810103998708
 30
0.0
 11
199.6640640481374
 21
323.3878510766231
 31
0.0
  0
LINE
  5
783
330
6C
100
AcDbEntity
  8
Visible Edges(Ram)
100
AcDbLine
 10
199.6640640481375
 20
329.3878510766231
 30
0.0
 11
199.6640640481375
 21
335.4810103998707
 31
0.0
  0
LINE
  5
784
330
6C
100
AcDbEntity
  8
Visible Edges(Ram)
100
AcDbLine
 10
223.4640640481375
 20
302.7810103998707
 30
0.0
 11
223.4640640481376
 21
323.3878510766231
 31
0.0
  0
LINE
  5
785
330
6C
100
AcDbEntity
  8
Visible Edges(Ram)
100
AcDbLine
 10
223.4640640481376
 20
329.3878510766231
 30
0.0
 11
223.4640640481376
 21
335.4810103998707
 31
0.0
  0
LINE
  5
786
330
6C
100
AcDbEntity
  8
Visible Edges(Ram)
100
AcDbLine
 10
220.0640640481374
 20
301.7810103998708
 30
0.0
 11
220.0640640481374
 21
301.6817966226962
 31
0.0
  0
LINE
  5
787
330
6C
100
AcDbEntity
  8
Visible Edges(Ram)
100
AcDbLine
 10
203.0640640481374
 20
301.7810103998708
 30
0.0
 11
203.0640640481374
 21
301.6817966226962
 31
0.0
  0
LINE
  5
788
330
6C
100
AcDbEntity
  8
Visible Edges(Ram)
100
AcDbLine
 10
209.290461699762
 20
377.4317966226968
 30
0.0
 11
213.8376663965104
 21
377.4317966226968
 31
0.0
  0
LINE
  5
789
330
6C
100
AcDbEntity
  8
Visible Edges(Ram)
100
AcDbLine
 10
209.5708592009279
 20
376.9317966226973
 30
0.0
 11
213.557268895343
 21
376.9317966226973
 31
0.0
  0
LINE
  5
78A
330
6C
100
AcDbEntity
  8
Visible Edges(Ram)
100
AcDbLine
 10
210.676638006513
 20
376.0317966226974
 30
0.0
 11
212.4514900897594
 21
376.0317966226973
 31
0.0
  0
ELLIPSE
  5
78B
330
6C
100
AcDbEntity
  8
Visible Edges(Ram)
100
AcDbEllipse
 10
211.5640640481351
 20
301.5903120406058
 30
0.0
 11
21.50004058705624
 21
-0.0000000000002966
 31
0.0
210
0.0
220
0.0
230
1.0
 40
0.222654436355073
 41
3.143535726973496
 42
4.125843356866012
  0
ELLIPSE
  5
78C
330
6C
100
AcDbEntity
  8
Visible Edges(Ram)
100
AcDbEllipse
 10
211.5640640481351
 20
301.5903120406058
 30
0.0
 11
21.50004058705624
 21
-0.0000000000002966
 31
0.0
210
0.0
220
0.0
230
1.0
 40
0.222654436355073
 41
5.298934603903616
 42
6.281242233795856
  0
ELLIPSE
  5
78D
330
6C
100
AcDbEntity
  8
Visible Edges(Ram)
100
AcDbEllipse
 10
211.5640640481351
 20
301.5907446750593
 30
0.0
 11
22.50004247482625
 21
-0.0000000000003286
 31
0.0
210
0.0
220
0.0
230
1.0
 40
0.222654436355074
 41
5.269678628821075
 42
6.281242233795928
  0
ELLIPSE
  5
78E
330
6C
100
AcDbEntity
  8
Visible Edges(Ram)
100
AcDbEllipse
 10
211.5640640481351
 20
301.5907446750593
 30
0.0
 11
22.50004247482625
 21
-0.0000000000003286
 31
0.0
210
0.0
220
0.0
230
1.0
 40
0.222654436355074
 41
3.143535726973562
 42
4.155099331948575
  0
LINE
  5
78F
330
6C
100
AcDbEntity
  8
Visible Edges(Ram)
100
AcDbLine
 10
233.0640640481351
 20
301.5810103998547
 30
0.0
 11
234.0640640481351
 21
301.5810103998547
 31
0.0
  0
LINE
  5
790
330
6C
100
AcDbEntity
  8
Visible Edges(Ram)
100
AcDbLine
 10
189.0640640481351
 20
301.5810103998554
 30
0.0
 11
190.0640640481351
 21
301.5810103998554
 31
0.0
  0
LINE
  5
791
330
6C
100
AcDbEntity
  8
Visible Edges(Ram)
100
AcDbLine
 10
190.0640640481351
 20
301.5810103998554
 30
0.0
 11
190.4254562241924
 21
301.5810103998542
 31
0.0
  0
LINE
  5
792
330
6C
100
AcDbEntity
  8
Visible Edges(Ram)
100
AcDbLine
 10
232.7026718720836
 20
301.5810103998536
 30
0.0
 11
233.0640640481351
 21
301.5810103998547
 31
0.0
  0
LINE
  5
793
330
6C
100
AcDbEntity
  8
Visible Edges(Ram)
100
AcDbLine
 10
232.8720348783523
 20
278.5810103998547
 30
0.0
 11
190.2560932179171
 21
278.5810103998553
 31
0.0
  0
ARC
  5
794
330
6C
100
AcDbEntity
  8
Visible Edges(Ram)
100
AcDbCircle
 10
232.8720348783523
 20
279.5810103998547
 30
0.0
 40
1.0
100
AcDbArc
 50
270.0
 51
359.5000000000023
  0
ARC
  5
795
330
6C
100
AcDbEntity
  8
Visible Edges(Ram)
100
AcDbCircle
 10
190.2560932179171
 20
279.5810103998554
 30
0.0
 40
1.0
100
AcDbArc
 50
180.4999999999998
 51
270.0
  0
LINE
  5
796
330
6C
100
AcDbEntity
  8
Visible Edges(Ram)
100
AcDbLine
 10
189.256131294853
 20
279.572283864357
 30
0.0
 11
189.0640640481351
 21
301.5810103998554
 31
0.0
  0
LINE
  5
797
330
6C
100
AcDbEntity
  8
Visible Edges(Ram)
100
AcDbLine
 10
233.8719968014165
 20
279.5722838643564
 30
0.0
 11
234.0640640481351
 21
301.5810103998547
 31
0.0
  0
LINE
  5
798
330
6C
100
AcDbEntity
  8
Visible Edges(Ram)
100
AcDbLine
 10
249.0640640481371
 20
329.3878510766313
 30
0.0
 11
174.0640640481371
 21
329.3878510766313
 31
0.0
  0
LINE
  5
799
330
6C
100
AcDbEntity
  8
Visible Edges(Ram)
100
AcDbLine
 10
174.0640640481371
 20
323.3878510766312
 30
0.0
 11
249.0640640481371
 21
323.3878510766312
 31
0.0
  0
LINE
  5
79A
330
6C
100
AcDbEntity
  8
Visible Edges(Ram)
100
AcDbLine
 10
249.0640640481371
 20
329.3878510766313
 30
0.0
 11
249.0640640481371
 21
323.3878510766312
 31
0.0
  0
LINE
  5
79B
330
6C
100
AcDbEntity
  8
Visible Edges(Ram)
100
AcDbLine
 10
174.0640640481371
 20
329.3878510766313
 30
0.0
 11
174.0640640481371
 21
323.3878510766312
 31
0.0
  0
DIMENSION
  5
79C
330
6C
100
AcDbEntity
  8
Dimensions(Ram)
  6
Continuous
 62
     7
370
    25
100
AcDbDimension
280
     0
  2
*D54
 10
327.7443547937235
 20
63.76810070853739
 30
0.0
 11
327.7443547937235
 21
103.7636991969812
 31
0.0
 70
   160
  1
<>
 71
     5
 42
79.99119697688768
 73
     0
 74
     0
 75
     0
  3
Whole Number
100
AcDbAlignedDimension
 13
372.3863627231486
 23
143.7592976854251
 33
0.0
 14
350.3950892586463
 24
63.76810070853739
 34
0.0
 50
90.0
100
AcDbRotatedDimension
1001
ACAD
1000
DSTYLE
1002
{
1070
   172
1070
     0
1070
   289
1070
     1
1070
   271
1070
     0
1070
   272
1070
     0
1070
    48
1040
0.0
1070
    47
1040
0.0
1002
}
  0
DIMENSION
  5
87E
330
6C
100
AcDbEntity
  8
Dimensions(Ram)
  6
Continuous
 62
     7
370
    25
100
AcDbDimension
280
     0
  2
*D55
 10
386.1497340918574
 20
121.259297685425
 30
0.0
 11
385.2544670381872
 21
92.46427397301131
 31
0.0
 70
   160
  1
{Ø}<>
 71
     5
 42
45.0
 73
     0
 74
     0
 75
     0
  3
Whole Number
100
AcDbAlignedDimension
 13
386.1497340918575
 23
166.259297685425
 33
0.0
 14
386.1497340918575
 24
121.259297685425
 34
0.0
 50
270.0
100
AcDbRotatedDimension
1001
ACAD
1000
DSTYLE
1002
{
1070
   172
1070
     0
1070
   289
1070
     2
1070
   279
1070
     1
1070
    73
1070
     1
1070
    74
1070
     1
1070
   271
1070
     0
1070
    76
1070
     1
1070
    75
1070
     1
1070
   272
1070
     0
1070
    48
1040
0.0
1070
    47
1040
0.0
1002
}
  0
DIMENSION
  5
966
330
6C
100
AcDbEntity
  8
Dimensions(Ram)
  6
Continuous
 62
     7
370
    25
100
AcDbDimension
280
     0
  2
*D56
 10
385.876811759693
 20
208.6592976854248
 30
0.0
 11
385.4106745778132
 21
223.4669908812601
 31
0.0
 70
   160
  1
{Ø}<>
 71
     5
 42
23.80000000000001
 73
     0
 74
     0
 75
     0
  3
Whole Number
100
AcDbAlignedDimension
 13
385.876811759693
 23
184.8592976854248
 33
0.0
 14
385.876811759693
 24
208.6592976854248
 34
0.0
 50
270.0
100
AcDbRotatedDimension
1001
ACAD
1000
DSTYLE
1002
{
1070
   172
1070
     0
1070
   289
1070
     2
1070
   279
1070
     1
1070
    73
1070
     1
1070
    74
1070
     1
1070
   271
1070
     0
1070
    76
1070
     1
1070
    75
1070
     1
1070
   272
1070
     0
1070
    48
1040
0.0
1070
    47
1040
0.0
1002
}
  0
ENDSEC
  0
SECTION
  2
OBJECTS
  0
DICTIONARY
  5
C
330
0
100
AcDbDictionary
281
     1
  3
ACAD_CIP_PREVIOUS_PRODUCT_INFO
350
ACA
  3
ACAD_COLOR
350
63
  3
ACAD_DETAILVIEWSTYLE
350
AC2
  3
ACAD_GROUP
350
D
  3
ACAD_LAYOUT
350
62
  3
ACAD_MATERIAL
350
10
  3
ACAD_MLEADERSTYLE
350
66
  3
ACAD_MLINESTYLE
350
5F
  3
ACAD_PLOTSETTINGS
350
61
  3
ACAD_PLOTSTYLENAME
350
E
  3
ACAD_SCALELIST
350
42
  3
ACAD_SECTIONVIEWSTYLE
350
AC0
  3
ACAD_TABLESTYLE
350
64
  3
ACAD_VISUALSTYLE
350
29
  3
ACDB_RECOMPOSE_DATA
350
B04
  3
AcDbVariableDictionary
350
A4E
  0
DICTIONARY
  5
A60
330
2E8
100
AcDbDictionary
280
     1
281
     1
  3
ACAD_MLATT
360
AED
  3
ACAD_XREC_ROUNDTRIP
360
AEC
  0
DICTIONARY
  5
A63
330
2F0
100
AcDbDictionary
280
     1
281
     1
  3
ACAD_MLATT
360
AEF
  3
ACAD_XREC_ROUNDTRIP
360
AEE
  0
DICTIONARY
  5
A66
330
2F2
100
AcDbDictionary
280
     1
281
     1
  3
ACAD_MLATT
360
AF1
  3
ACAD_XREC_ROUNDTRIP
360
AF0
  0
DICTIONARY
  5
A69
330
2F3
100
AcDbDictionary
280
     1
281
     1
  3
ACAD_MLATT
360
AF3
  3
ACAD_XREC_ROUNDTRIP
360
AF2
  0
DICTIONARY
  5
A6C
330
2F4
100
AcDbDictionary
280
     1
281
     1
  3
ACAD_MLATT
360
AF5
  3
ACAD_XREC_ROUNDTRIP
360
AF4
  0
DICTIONARY
  5
A6F
330
2F5
100
AcDbDictionary
280
     1
281
     1
  3
ACAD_MLATT
360
AF7
  3
ACAD_XREC_ROUNDTRIP
360
AF6
  0
DICTIONARY
  5
A72
330
2F6
100
AcDbDictionary
280
     1
281
     1
  3
ACAD_MLATT
360
AF9
  3
ACAD_XREC_ROUNDTRIP
360
AF8
  0
DICTIONARY
  5
A75
330
30E
100
AcDbDictionary
280
     1
281
     1
  3
ACAD_MTEXT_2008_RT
360
AFA
  0
DICTIONARY
  5
A77
330
312
100
AcDbDictionary
280
     1
281
     1
  3
ACAD_MTEXT_2008_RT
360
AFB
  0
DICTIONARY
  5
A79
330
318
100
AcDbDictionary
280
     1
281
     1
  3
ACAD_MLATT
360
AFD
  3
ACAD_XREC_ROUNDTRIP
360
AFC
  0
DICTIONARY
  5
A7C
330
356
100
AcDbDictionary
280
     1
281
     1
  3
ACAD_MLATT
360
AFF
  3
ACAD_XREC_ROUNDTRIP
360
AFE
  0
XRECORD
  5
ACA
102
{ACAD_REACTORS
330
C
102
}
330
C
100
AcDbXrecord
280
     1
300
ACD
300
2017
300
ACD_F_S
  0
DICTIONARY
  5
63
102
{ACAD_REACTORS
330
C
102
}
330
C
100
AcDbDictionary
281
     1
  0
DICTIONARY
  5
AC2
102
{ACAD_REACTORS
330
C
102
}
330
C
100
AcDbDictionary
281
     1
  3
Metric50
350
AC3
  0
DICTIONARY
  5
D
102
{ACAD_REACTORS
330
C
102
}
330
C
100
AcDbDictionary
281
     1
  0
DICTIONARY
  5
62
102
{ACAD_REACTORS
330
C
102
}
330
C
100
AcDbDictionary
281
     1
  3
Layout1
350
6B
  3
Layout2
350
73
  3
Model
350
6F
  0
DICTIONARY
  5
10
102
{ACAD_REACTORS
330
C
102
}
330
C
100
AcDbDictionary
281
     1
  3
ByBlock
350
19
  3
ByLayer
350
11
  3
Global
350
21
  0
DICTIONARY
  5
66
102
{ACAD_REACTORS
330
C
102
}
330
C
100
AcDbDictionary
281
     1
  3
Standard
350
67
  0
DICTIONARY
  5
5F
102
{ACAD_REACTORS
330
C
102
}
330
C
100
AcDbDictionary
281
     1
  3
Standard
350
60
  0
DICTIONARY
  5
61
102
{ACAD_REACTORS
330
C
102
}
330
C
100
AcDbDictionary
281
     1
  0
ACDBDICTIONARYWDFLT
  5
E
102
{ACAD_REACTORS
330
C
102
}
330
C
100
AcDbDictionary
281
     1
  3
Normal
350
F
100
AcDbDictionaryWithDefault
340
F
  0
DICTIONARY
  5
42
102
{ACAD_REACTORS
330
C
102
}
330
C
100
AcDbDictionary
281
     1
  3
A0
350
43
  3
A1
350
44
  3
A2
350
45
  3
A3
350
46
  3
A4
350
47
  3
A5
350
48
  3
A6
350
49
  3
A7
350
4A
  3
A8
350
4B
  3
A9
350
4C
  3
B0
350
4D
  3
B1
350
4E
  3
B2
350
4F
  3
B3
350
50
  3
B4
350
51
  3
B5
350
52
  3
B6
350
53
  0
DICTIONARY
  5
AC0
102
{ACAD_REACTORS
330
C
102
}
330
C
100
AcDbDictionary
281
     1
  3
Metric50
350
AC1
  0
DICTIONARY
  5
64
102
{ACAD_REACTORS
330
C
102
}
330
C
100
AcDbDictionary
281
     1
  3
Standard
350
65
  0
DICTIONARY
  5
29
102
{ACAD_REACTORS
330
C
102
}
330
C
100
AcDbDictionary
281
     1
  3
2dWireframe
350
2F
  3
Basic
350
2E
  3
Brighten
350
35
  3
ColorChange
350
39
  3
Conceptual
350
32
  3
Dim
350
34
  3
EdgeColorOff
350
41
  3
Facepattern
350
38
  3
Flat
350
2A
  3
FlatWithEdges
350
2B
  3
Gouraud
350
2C
  3
GouraudWithEdges
350
2D
  3
Hidden
350
31
  3
JitterOff
350
3F
  3
Linepattern
350
37
  3
OverhangOff
350
40
  3
Realistic
350
33
  3
Shaded
350
3E
  3
Shaded with edges
350
3D
  3
Shades of Gray
350
3A
  3
Sketchy
350
3B
  3
Thicken
350
36
  3
Wireframe
350
30
  3
X-Ray
350
3C
  0
XRECORD
  5
B04
102
{ACAD_REACTORS
330
C
102
}
330
C
100
AcDbXrecord
280
     1
 90
        1
330
65
330
2E8
330
2F0
330
2F2
330
2F3
330
2F4
330
2F5
330
2F6
330
30E
330
312
330
318
330
356
330
AC1
330
AC3
  0
DICTIONARY
  5
A4E
102
{ACAD_REACTORS
330
C
102
}
330
C
100
AcDbDictionary
281
     1
  3
CANNOSCALE
350
A52
  3
CMLEADERSTYLE
350
A50
  3
CTABLESTYLE
350
A4F
  3
CVIEWDETAILSTYLE
350
AE9
  3
CVIEWSECTIONSTYLE
350
AEA
  3
DIMASSOC
350
A59
  3
HIDETEXT
350
A58
  3
INDEXCTL
350
A57
  3
LAYEREVAL
350
A54
  3
LAYERNOTIFY
350
A55
  3
LIGHTINGUNITS
350
A53
  3
MSLTSCALE
350
A51
  3
SORTENTS
350
A56
  0
XRECORD
  5
AED
102
{ACAD_REACTORS
330
A60
102
}
330
A60
100
AcDbXrecord
280
     1
 70
     4
 70
     0
 70
     0
 40
1.0
  2
Enter_Prompt_for_Field
  1
Embedded Object
 10
0.1132214741620885
 20
2.80094937906048
 30
0.0
 40
2.489199936389923
 41
16.74543584364862
 46
0.0
 71
     5
 72
     5
  1
3
  7
Text Style14
 73
     1
 44
1.0
  0
XRECORD
  5
AEC
102
{ACAD_REACTORS
330
A60
102
}
330
A60
100
AcDbXrecord
280
     1
102
ACAD_MATT_HEIGHT
140
2.489199936389923
  0
XRECORD
  5
AEF
102
{ACAD_REACTORS
330
A63
102
}
330
A63
100
AcDbXrecord
280
     1
 70
     4
 70
     0
 70
     0
 40
1.0
  2
INSTRUCTIONS
  1
Embedded Object
 10
16.26863993311069
 20
9.208937597274767
 30
0.0
 40
2.489199936389923
 41
0.0
 46
0.0
 71
     1
 72
     5
  1
AAAA
  7
Text Style59
 73
     1
 44
1.0
  0
XRECORD
  5
AEE
102
{ACAD_REACTORS
330
A63
102
}
330
A63
100
AcDbXrecord
280
     1
102
ACAD_MATT_HEIGHT
140
2.489199936389923
  0
XRECORD
  5
AF1
102
{ACAD_REACTORS
330
A66
102
}
330
A66
100
AcDbXrecord
280
     1
 70
     4
 70
     0
 70
     0
 40
1.0
  2
WELS_LABEL
  1
Embedded Object
 10
-1.770562104181223
 20
5.278937597274762
 30
0.0
 40
2.489199936389923
 41
0.0
 46
0.0
 71
     1
 72
     5
  1
BBBBB
  7
Text Style59
 73
     1
 44
1.0
  0
XRECORD
  5
AF0
102
{ACAD_REACTORS
330
A66
102
}
330
A66
100
AcDbXrecord
280
     1
102
ACAD_MATT_HEIGHT
140
2.489199936389923
  0
XRECORD
  5
AF3
102
{ACAD_REACTORS
330
A69
102
}
330
A69
100
AcDbXrecord
280
     1
 70
     4
 70
     0
 70
     0
 40
1.0
  2
CARTON
  1
Embedded Object
 10
-21.33546779636852
 20
1.348937597274755
 30
0.0
 40
2.489199936389923
 41
0.0
 46
0.0
 71
     1
 72
     5
  1
CCCC
  7
Text Style59
 73
     1
 44
1.0
  0
XRECORD
  5
AF2
102
{ACAD_REACTORS
330
A69
102
}
330
A69
100
AcDbXrecord
280
     1
102
ACAD_MATT_HEIGHT
140
2.489199936389923
  0
XRECORD
  5
AF5
102
{ACAD_REACTORS
330
A6C
102
}
330
A6C
100
AcDbXrecord
280
     1
 70
     4
 70
     0
 70
     0
 40
1.0
  2
MISC._PACKING
  1
Embedded Object
 10
-9.668322200110033
 20
-6.511062402725257
 30
0.0
 40
2.489199936389923
 41
0.0
 46
0.0
 71
     1
 72
     5
  1
DDDD
  7
Text Style59
 73
     1
 44
1.0
  0
XRECORD
  5
AF4
102
{ACAD_REACTORS
330
A6C
102
}
330
A6C
100
AcDbXrecord
280
     1
102
ACAD_MATT_HEIGHT
140
2.489199936389923
  0
XRECORD
  5
AF7
102
{ACAD_REACTORS
330
A6F
102
}
330
A6F
100
AcDbXrecord
280
     1
 70
     4
 70
     0
 70
     0
 40
1.0
  2
LABEL
  1
Embedded Object
 10
-25.37409511815028
 20
-2.581062402725251
 30
0.0
 40
2.489199936389923
 41
0.0
 46
0.0
 71
     1
 72
     5
  1
EEEE
  7
Text Style59
 73
     1
 44
1.0
  0
XRECORD
  5
AF6
102
{ACAD_REACTORS
330
A6F
102
}
330
A6F
100
AcDbXrecord
280
     1
102
ACAD_MATT_HEIGHT
140
2.489199936389923
  0
XRECORD
  5
AF9
102
{ACAD_REACTORS
330
A72
102
}
330
A72
100
AcDbXrecord
280
     1
 70
     4
 70
     0
 70
     0
 40
1.0
  2
WARRANTY_CARD
  1
Embedded Object
 10
-7.693882176127821
 20
-10.44106240272526
 30
0.0
 40
2.489199936389923
 41
0.0
 46
0.0
 71
     1
 72
     5
  1
FFFF
  7
Text Style59
 73
     1
 44
1.0
  0
XRECORD
  5
AF8
102
{ACAD_REACTORS
330
A72
102
}
330
A72
100
AcDbXrecord
280
     1
102
ACAD_MATT_HEIGHT
140
2.489199936389923
  0
XRECORD
  5
AFA
102
{ACAD_REACTORS
330
A75
102
}
330
A75
100
AcDbXrecord
280
     1
 40
673191.0
  1
\pxsm0.94;\fArial|b0|i0;\H3.5000;QUOTATION \PONLY\P\fArial|b0|i0;\H2.5000;May be subject to alteration prior to production.
  0
XRECORD
  5
AFB
102
{ACAD_REACTORS
330
A77
102
}
330
A77
100
AcDbXrecord
280
     1
 40
214000.0
  1
\pxsm0.94;\fArial|b0|i0;\H7.0000;QUOTE\PONLY\P\fArial|b0|i0;\H2.5000;NOT FOR PRODUCTION
  0
XRECORD
  5
AFD
102
{ACAD_REACTORS
330
A79
102
}
330
A79
100
AcDbXrecord
280
     1
 70
     4
 70
     0
 70
     0
 40
1.0
  2
NUMBER
  1
Embedded Object
 10
8.495247572028903
 20
-3.266478676813732
 30
0.0
 40
2.489199936389923
 41
0.0
 46
0.0
 71
     2
 72
     5
  1
5
  7
Text Style14
 73
     1
 44
1.0
  0
XRECORD
  5
AFC
102
{ACAD_REACTORS
330
A79
102
}
330
A79
100
AcDbXrecord
280
     1
102
ACAD_MATT_HEIGHT
140
2.489199936389923
  0
XRECORD
  5
AFF
102
{ACAD_REACTORS
330
A7C
102
}
330
A7C
100
AcDbXrecord
280
     1
 70
     4
 70
     0
 70
     0
 40
1.0
  2
AMOUNT
  1
Embedded Object
 10
11.5
 20
-2.017962262069374
 30
0.0
 40
2.489199936389923
 41
0.0
 46
0.0
 71
     5
 72
     5
  1
10
  7
Text Style14
 73
     1
 44
1.0
  0
XRECORD
  5
AFE
102
{ACAD_REACTORS
330
A7C
102
}
330
A7C
100
AcDbXrecord
280
     1
102
ACAD_MATT_HEIGHT
140
2.489199936389923
  0
ACDBDETAILVIEWSTYLE
  5
AC3
102
{ACAD_XDICTIONARY
360
B02
102
}
102
{ACAD_REACTORS
330
AC2
102
}
330
AC2
100
AcDbModelDocViewStyle
 70
     0
  3
Metric50
290
     0
100
AcDbDetailViewStyle
 70
     0
 71
     0
 90
        3
 71
     1
340
55
 62
   256
 40
5.0
340
0
 62
   256
 40
5.0
300

 40
0.0
280
     1
 71
     2
340
5D
 90
       25
 62
   256
 71
     3
340
55
 62
   256
 40
5.0
 90
        0
 40
15.0
 90
        1
300
%<\AcVar ViewDetailId>% (%<\AcVar ViewScale \f "%sn">%)
 71
     4
340
5D
 90
       25
 62
   256
340
5D
 90
       25
 62
   256
280
     0
  0
LAYOUT
  5
6B
102
{ACAD_REACTORS
330
62
102
}
330
62
100
AcDbPlotSettings
  1

  2

  4

  6

 40
0.0
 41
0.0
 42
0.0
 43
0.0
 44
0.0
 45
0.0
 46
0.0
 47
0.0
 48
0.0
 49
0.0
140
0.0
141
0.0
142
1.0
143
1.0
 70
   688
 72
     0
 73
     0
 74
     5
  7

 75
    16
147
1.0
 76
     0
 77
     2
 78
   300
148
0.0
149
0.0
100
AcDbLayout
  1
Layout1
 70
     1
 71
     1
 10
0.0
 20
0.0
 11
594.0
 21
420.0
 12
0.0
 22
0.0
 32
0.0
 14
0.0
 24
0.0
 34
0.0
 15
594.0
 25
420.0
 35
0.0
146
0.0
 13
0.0
 23
0.0
 33
0.0
 16
1.0
 26
0.0
 36
0.0
 17
0.0
 27
1.0
 37
0.0
 76
     0
330
68
  0
LAYOUT
  5
73
102
{ACAD_REACTORS
330
62
102
}
330
62
100
AcDbPlotSettings
  1

  2

  4

  6

 40
0.0
 41
0.0
 42
0.0
 43
0.0
 44
0.0
 45
0.0
 46
0.0
 47
0.0
 48
0.0
 49
0.0
140
0.0
141
0.0
142
1.0
143
1.0
 70
   688
 72
     0
 73
     0
 74
     5
  7

 75
    16
147
1.0
 76
     0
 77
     2
 78
   300
148
0.0
149
0.0
100
AcDbLayout
  1
Layout2
 70
     1
 71
     2
 10
0.0
 20
0.0
 11
12.0
 21
9.0
 12
0.0
 22
0.0
 32
0.0
 14
0.0
 24
0.0
 34
0.0
 15
0.0
 25
0.0
 35
0.0
146
0.0
 13
0.0
 23
0.0
 33
0.0
 16
1.0
 26
0.0
 36
0.0
 17
0.0
 27
1.0
 37
0.0
 76
     0
330
70
  0
LAYOUT
  5
6F
102
{ACAD_REACTORS
330
62
102
}
330
62
100
AcDbPlotSettings
  1

  2

  4

  6

 40
0.0
 41
0.0
 42
0.0
 43
0.0
 44
0.0
 45
0.0
 46
0.0
 47
0.0
 48
0.0
 49
0.0
140
0.0
141
0.0
142
1.0
143
1.0
 70
  1712
 72
     0
 73
     0
 74
     0
  7

 75
     0
147
1.0
 76
     0
 77
     2
 78
   300
148
0.0
149
0.0
100
AcDbLayout
  1
Model
 70
     1
 71
     0
 10
0.0
 20
0.0
 11
12.0
 21
9.0
 12
0.0
 22
0.0
 32
0.0
 14
0.0
 24
0.0
 34
0.0
 15
0.0
 25
0.0
 35
0.0
146
0.0
 13
0.0
 23
0.0
 33
0.0
 16
1.0
 26
0.0
 36
0.0
 17
0.0
 27
1.0
 37
0.0
 76
     0
330
6C
331
57
  0
MATERIAL
  5
19
102
{ACAD_XDICTIONARY
360
1A
102
}
102
{ACAD_REACTORS
330
10
102
}
330
10
100
AcDbMaterial
  1
ByBlock
 72
     0
 43
0.0208333333333333
 43
0.0
 43
0.0
 43
0.0
 43
0.0
 43
0.0208333333333333
 43
0.0
 43
0.0
 43
0.0
 43
0.0
 43
1.0
 43
0.0
 43
0.0
 43
0.0
 43
0.0
 43
1.0
 77
     0
 47
0.0208333333333333
 47
0.0
 47
0.0
 47
0.0
 47
0.0
 47
0.0208333333333333
 47
0.0
 47
0.0
 47
0.0
 47
0.0
 47
1.0
 47
0.0
 47
0.0
 47
0.0
 47
0.0
 47
1.0
171
     0
 49
0.0208333333333333
 49
0.0
 49
0.0
 49
0.0
 49
0.0
 49
0.0208333333333333
 49
0.0
 49
0.0
 49
0.0
 49
0.0
 49
1.0
 49
0.0
 49
0.0
 49
0.0
 49
0.0
 49
1.0
175
     0
142
0.0208333333333333
142
0.0
142
0.0
142
0.0
142
0.0
142
0.0208333333333333
142
0.0
142
0.0
142
0.0
142
0.0
142
1.0
142
0.0
142
0.0
142
0.0
142
0.0
142
1.0
179
     0
144
0.0208333333333333
144
0.0
144
0.0
144
0.0
144
0.0
144
0.0208333333333333
144
0.0
144
0.0
144
0.0
144
0.0
144
1.0
144
0.0
144
0.0
144
0.0
144
0.0
144
1.0
147
0.0208333333333333
147
0.0
147
0.0
147
0.0
147
0.0
147
0.0208333333333333
147
0.0
147
0.0
147
0.0
147
0.0
147
1.0
147
0.0
147
0.0
147
0.0
147
0.0
147
1.0
  0
MATERIAL
  5
11
102
{ACAD_XDICTIONARY
360
12
102
}
102
{ACAD_REACTORS
330
10
102
}
330
10
100
AcDbMaterial
  1
ByLayer
 72
     0
 43
0.0208333333333333
 43
0.0
 43
0.0
 43
0.0
 43
0.0
 43
0.0208333333333333
 43
0.0
 43
0.0
 43
0.0
 43
0.0
 43
1.0
 43
0.0
 43
0.0
 43
0.0
 43
0.0
 43
1.0
 77
     0
 47
0.0208333333333333
 47
0.0
 47
0.0
 47
0.0
 47
0.0
 47
0.0208333333333333
 47
0.0
 47
0.0
 47
0.0
 47
0.0
 47
1.0
 47
0.0
 47
0.0
 47
0.0
 47
0.0
 47
1.0
171
     0
 49
0.0208333333333333
 49
0.0
 49
0.0
 49
0.0
 49
0.0
 49
0.0208333333333333
 49
0.0
 49
0.0
 49
0.0
 49
0.0
 49
1.0
 49
0.0
 49
0.0
 49
0.0
 49
0.0
 49
1.0
175
     0
142
0.0208333333333333
142
0.0
142
0.0
142
0.0
142
0.0
142
0.0208333333333333
142
0.0
142
0.0
142
0.0
142
0.0
142
1.0
142
0.0
142
0.0
142
0.0
142
0.0
142
1.0
179
     0
144
0.0208333333333333
144
0.0
144
0.0
144
0.0
144
0.0
144
0.0208333333333333
144
0.0
144
0.0
144
0.0
144
0.0
144
1.0
144
0.0
144
0.0
144
0.0
144
0.0
144
1.0
147
0.0208333333333333
147
0.0
147
0.0
147
0.0
147
0.0
147
0.0208333333333333
147
0.0
147
0.0
147
0.0
147
0.0
147
1.0
147
0.0
147
0.0
147
0.0
147
0.0
147
1.0
  0
MATERIAL
  5
21
102
{ACAD_XDICTIONARY
360
22
102
}
102
{ACAD_REACTORS
330
10
102
}
330
10
100
AcDbMaterial
  1
Global
 72
     0
 43
0.0208333333333333
 43
0.0
 43
0.0
 43
0.0
 43
0.0
 43
0.0208333333333333
 43
0.0
 43
0.0
 43
0.0
 43
0.0
 43
1.0
 43
0.0
 43
0.0
 43
0.0
 43
0.0
 43
1.0
 77
     0
 47
0.0208333333333333
 47
0.0
 47
0.0
 47
0.0
 47
0.0
 47
0.0208333333333333
 47
0.0
 47
0.0
 47
0.0
 47
0.0
 47
1.0
 47
0.0
 47
0.0
 47
0.0
 47
0.0
 47
1.0
171
     0
 49
0.0208333333333333
 49
0.0
 49
0.0
 49
0.0
 49
0.0
 49
0.0208333333333333
 49
0.0
 49
0.0
 49
0.0
 49
0.0
 49
1.0
 49
0.0
 49
0.0
 49
0.0
 49
0.0
 49
1.0
175
     0
142
0.0208333333333333
142
0.0
142
0.0
142
0.0
142
0.0
142
0.0208333333333333
142
0.0
142
0.0
142
0.0
142
0.0
142
1.0
142
0.0
142
0.0
142
0.0
142
0.0
142
1.0
179
     0
144
0.0208333333333333
144
0.0
144
0.0
144
0.0
144
0.0
144
0.0208333333333333
144
0.0
144
0.0
144
0.0
144
0.0
144
1.0
144
0.0
144
0.0
144
0.0
144
0.0
144
1.0
147
0.0208333333333333
147
0.0
147
0.0
147
0.0
147
0.0
147
0.0208333333333333
147
0.0
147
0.0
147
0.0
147
0.0
147
1.0
147
0.0
147
0.0
147
0.0
147
0.0
147
1.0
  0
MLEADERSTYLE
  5
67
102
{ACAD_REACTORS
330
66
102
}
330
66
100
AcDbMLeaderStyle
179
     2
170
     2
171
     1
172
     0
 90
        2
 40
0.0
 41
0.0
173
     1
 91
-1056964608
340
5B
 92
       -2
290
     1
 42
0.09
291
     1
 43
0.36
  3
Standard
 44
0.18
300

342
55
174
     1
178
     6
175
     1
176
     0
 93
-1056964608
 45
0.18
292
     0
297
     0
 46
0.18
 94
-1056964608
 47
1.0
 49
1.0
140
1.0
293
     1
141
0.0
294
     1
177
     0
142
1.0
295
     0
296
     0
143
0.125
271
     0
272
     9
273
     9
298
     0
1001
ACAD_MLEADERVER
1070
     2
  0
MLINESTYLE
  5
60
102
{ACAD_REACTORS
330
5F
102
}
330
5F
100
AcDbMlineStyle
  2
STANDARD
 70
     0
  3

 62
   256
 51
90.0
 52
90.0
 71
     2
 49
0.5
 62
   256
  6
BYLAYER
 49
-0.5
 62
   256
  6
BYLAYER
  0
ACDBPLACEHOLDER
  5
F
102
{ACAD_REACTORS
330
E
102
}
330
E
  0
SCALE
  5
43
102
{ACAD_REACTORS
330
42
102
}
330
42
100
AcDbScale
 70
     0
300
1:1
140
1.0
141
1.0
290
     1
  0
SCALE
  5
44
102
{ACAD_REACTORS
330
42
102
}
330
42
100
AcDbScale
 70
     0
300
1/128" = 1'-0"
140
0.0078125
141
12.0
290
     0
  0
SCALE
  5
45
102
{ACAD_REACTORS
330
42
102
}
330
42
100
AcDbScale
 70
     0
300
1/64" = 1'-0"
140
0.015625
141
12.0
290
     0
  0
SCALE
  5
46
102
{ACAD_REACTORS
330
42
102
}
330
42
100
AcDbScale
 70
     0
300
1/32" = 1'-0"
140
0.03125
141
12.0
290
     0
  0
SCALE
  5
47
102
{ACAD_REACTORS
330
42
102
}
330
42
100
AcDbScale
 70
     0
300
1/16" = 1'-0"
140
0.0625
141
12.0
290
     0
  0
SCALE
  5
48
102
{ACAD_REACTORS
330
42
102
}
330
42
100
AcDbScale
 70
     0
300
3/32" = 1'-0"
140
0.09375
141
12.0
290
     0
  0
SCALE
  5
49
102
{ACAD_REACTORS
330
42
102
}
330
42
100
AcDbScale
 70
     0
300
1/8" = 1'-0"
140
0.125
141
12.0
290
     0
  0
SCALE
  5
4A
102
{ACAD_REACTORS
330
42
102
}
330
42
100
AcDbScale
 70
     0
300
3/16" = 1'-0"
140
0.1875
141
12.0
290
     0
  0
SCALE
  5
4B
102
{ACAD_REACTORS
330
42
102
}
330
42
100
AcDbScale
 70
     0
300
1/4" = 1'-0"
140
0.25
141
12.0
290
     0
  0
SCALE
  5
4C
102
{ACAD_REACTORS
330
42
102
}
330
42
100
AcDbScale
 70
     0
300
3/8" = 1'-0"
140
0.375
141
12.0
290
     0
  0
SCALE
  5
4D
102
{ACAD_REACTORS
330
42
102
}
330
42
100
AcDbScale
 70
     0
300
1/2" = 1'-0"
140
0.5
141
12.0
290
     0
  0
SCALE
  5
4E
102
{ACAD_REACTORS
330
42
102
}
330
42
100
AcDbScale
 70
     0
300
3/4" = 1'-0"
140
0.75
141
12.0
290
     0
  0
SCALE
  5
4F
102
{ACAD_REACTORS
330
42
102
}
330
42
100
AcDbScale
 70
     0
300
1" = 1'-0"
140
1.0
141
12.0
290
     0
  0
SCALE
  5
50
102
{ACAD_REACTORS
330
42
102
}
330
42
100
AcDbScale
 70
     0
300
1-1/2" = 1'-0"
140
1.5
141
12.0
290
     0
  0
SCALE
  5
51
102
{ACAD_REACTORS
330
42
102
}
330
42
100
AcDbScale
 70
     0
300
3" = 1'-0"
140
3.0
141
12.0
290
     0
  0
SCALE
  5
52
102
{ACAD_REACTORS
330
42
102
}
330
42
100
AcDbScale
 70
     0
300
6" = 1'-0"
140
6.0
141
12.0
290
     0
  0
SCALE
  5
53
102
{ACAD_REACTORS
330
42
102
}
330
42
100
AcDbScale
 70
     0
300
1'-0" = 1'-0"
140
12.0
141
12.0
290
     0
  0
ACDBSECTIONVIEWSTYLE
  5
AC1
102
{ACAD_XDICTIONARY
360
B00
102
}
102
{ACAD_REACTORS
330
AC0
102
}
330
AC0
100
AcDbModelDocViewStyle
 70
     0
  3
Metric50
290
     0
100
AcDbSectionViewStyle
 70
     0
 71
     0
 90
      102
 71
     1
340
55
 62
   256
 40
5.0
340
0
340
0
 62
   256
 40
5.0
300
I, O, Q, S, X, Z
 40
10.0
 90
        0
 40
2.5
 90
        0
 71
     2
340
5D
 90
       25
 62
   256
340
5D
 90
       50
 62
   256
 40
5.0
 40
2.5
 40
5.0
 71
     3
340
55
 62
   256
 40
5.0
 90
        0
 40
15.0
 90
        1
300
%<\AcVar ViewSectionStartId>%-%<\AcVar ViewSectionEndId>% (%<\AcVar ViewScale \f "%sn">%)
 71
     4
 62
   256
 62
   257
300
ANSI31
 40
1.0
 90
        0
290
     0
290
     0
 90
        6
 40
0.0
 40
1.570796326794896
 40
0.2617993877991494
 40
1.308996938995747
 40
-0.2617993877991494
 40
1.832595714594046
  0
TABLESTYLE
  5
65
102
{ACAD_XDICTIONARY
360
A5B
102
}
102
{ACAD_REACTORS
330
64
102
}
330
64
100
AcDbTableStyle
280
     0
  3
Standard
 70
     0
 71
     0
 40
0.06
 41
0.06
280
     0
281
     0
  7
Standard
140
0.18
170
     2
 62
     0
 63
     7
283
     0
 90
      512
 91
        0
  1

274
    -2
284
     1
 64
     0
275
    -2
285
     1
 65
     0
276
    -2
286
     1
 66
     0
277
    -2
287
     1
 67
     0
278
    -2
288
     1
 68
     0
279
    -2
289
     1
 69
     0
  7
Standard
140
0.25
170
     5
 62
     0
 63
     7
283
     0
 90
      512
 91
        0
  1

274
    -2
284
     1
 64
     0
275
    -2
285
     1
 65
     0
276
    -2
286
     1
 66
     0
277
    -2
287
     1
 67
     0
278
    -2
288
     1
 68
     0
279
    -2
289
     1
 69
     0
  7
Standard
140
0.18
170
     5
 62
     0
 63
     7
283
     0
 90
      512
 91
        0
  1

274
    -2
284
     1
 64
     0
275
    -2
285
     1
 65
     0
276
    -2
286
     1
 66
     0
277
    -2
287
     1
 67
     0
278
    -2
288
     1
 68
     0
279
    -2
289
     1
 69
     0
  0
VISUALSTYLE
  5
2F
102
{ACAD_REACTORS
330
29
102
}
330
29
100
AcDbVisualStyle
  2

 70
     4
177
     3
291
     0
 70
    58
 90
        0
176
     1
 90
        2
176
     1
 90
        0
176
     1
 90
        0
176
     1
 40
0.6
176
     1
 40
30.0
176
     1
 62
     7
176
     1
 90
        1
176
     1
 90
        4
176
     1
 62
     7
176
     1
 62
   257
176
     1
 90
        1
176
     1
 90
        1
176
     1
 40
1.0
176
     1
 90
        0
176
     1
 62
   257
176
     1
 40
1.0
176
     1
 90
        1
176
     1
 90
        6
176
     1
 90
        2
176
     1
 62
     7
176
     1
 90
        5
176
     1
 90
        0
176
     1
 90
        0
176
     1
290
     0
176
     1
 90
        1
176
     1
 40
0.0
176
     1
 90
        0
176
     1
290
     1
176
     1
290
     1
176
     1
290
     0
176
     1
290
     0
176
     1
290
     0
176
     1
290
     0
176
     1
290
     0
176
     1
290
     0
176
     1
290
     0
176
     1
 90
       50
176
     1
 40
0.0
176
     1
 40
1.0
176
     1
 90
        0
176
     1
 62
    18
420
        0
176
     1
 90
       50
176
     1
 90
        3
176
     1
 62
     5
420
      255
176
     1
290
     0
176
     1
 90
       50
176
     1
 90
       50
176
     1
 90
       50
176
     1
290
     0
176
     1
 90
       50
176
     1
 62
   256
176
     0
 40
1.0
176
     0
 90
        2
176
     1
  1
strokes_ogs.tif
176
     1
290
     0
176
     1
 40
1.0
176
     1
 40
1.0
176
     1
1001
ACAD
1000
AcDbSavedByObjectVersion
1070
     0
  0
VISUALSTYLE
  5
2E
102
{ACAD_REACTORS
330
29
102
}
330
29
100
AcDbVisualStyle
  2

 70
     7
177
     3
291
     1
 70
    58
 90
        1
176
     1
 90
        0
176
     1
 90
        1
176
     1
 90
        0
176
     1
 40
0.6
176
     1
 40
30.0
176
     1
 62
     7
176
     1
 90
        0
176
     1
 90
        4
176
     1
 62
     7
176
     1
 62
   257
176
     1
 90
        1
176
     1
 90
        1
176
     1
 40
1.0
176
     1
 90
        8
176
     1
 62
     7
176
     1
 40
1.0
176
     1
 90
        1
176
     1
 90
        6
176
     1
 90
        2
176
     1
 62
     7
176
     1
 90
        5
176
     1
 90
        0
176
     1
 90
        0
176
     1
290
     0
176
     1
 90
        1
176
     1
 40
0.0
176
     1
 90
        0
176
     1
290
     0
176
     1
290
     1
176
     1
290
     1
176
     1
290
     0
176
     1
290
     0
176
     1
290
     0
176
     1
290
     0
176
     1
290
     0
176
     1
290
     0
176
     1
 90
       50
176
     1
 40
0.0
176
     1
 40
1.0
176
     1
 90
        0
176
     1
 62
    18
420
        0
176
     1
 90
       50
176
     1
 90
        3
176
     1
 62
     5
420
      255
176
     1
290
     0
176
     1
 90
       50
176
     1
 90
       50
176
     1
 90
       50
176
     1
290
     0
176
     1
 90
       50
176
     1
 62
   256
176
     0
 40
1.0
176
     0
 90
        2
176
     1
  1
strokes_ogs.tif
176
     1
290
     0
176
     1
 40
1.0
176
     1
 40
1.0
176
     1
1001
ACAD
1000
AcDbSavedByObjectVersion
1070
     0
  0
VISUALSTYLE
  5
35
102
{ACAD_REACTORS
330
29
102
}
330
29
100
AcDbVisualStyle
  2

 70
    12
177
     3
291
     1
 70
    58
 90
        2
176
     1
 90
        2
176
     1
 90
        0
176
     1
 90
        0
176
     1
 40
0.6
176
     1
 40
30.0
176
     1
 62
     7
176
     1
 90
        1
176
     1
 90
        4
176
     1
 62
     7
176
     1
 62
   257
176
     1
 90
        1
176
     1
 90
        1
176
     1
 40
1.0
176
     1
 90
        8
176
     1
 62
     7
176
     1
 40
1.0
176
     1
 90
        1
176
     1
 90
        6
176
     1
 90
        2
176
     1
 62
     7
176
     1
 90
        5
176
     1
 90
        0
176
     1
 90
        0
176
     1
290
     0
176
     1
 90
        1
176
     1
 40
50.0
176
     1
 90
        0
176
     1
290
     0
176
     1
290
     1
176
     1
290
     1
176
     1
290
     0
176
     1
290
     0
176
     1
290
     0
176
     1
290
     0
176
     1
290
     0
176
     1
290
     0
176
     1
 90
       50
176
     1
 40
0.0
176
     1
 40
1.0
176
     1
 90
        0
176
     1
 62
    18
420
        0
176
     1
 90
       50
176
     1
 90
        3
176
     1
 62
     5
420
      255
176
     1
290
     0
176
     1
 90
       50
176
     1
 90
       50
176
     1
 90
       50
176
     1
290
     0
176
     1
 90
       50
176
     1
 62
   256
176
     0
 40
1.0
176
     0
 90
        2
176
     1
  1
strokes_ogs.tif
176
     1
290
     0
176
     1
 40
1.0
176
     1
 40
1.0
176
     1
1001
ACAD
1000
AcDbSavedByObjectVersion
1070
     0
  0
VISUALSTYLE
  5
39
102
{ACAD_REACTORS
330
29
102
}
330
29
100
AcDbVisualStyle
  2

 70
    16
177
     3
291
     1
 70
    58
 90
        2
176
     1
 90
        2
176
     1
 90
        3
176
     1
 90
        0
176
     1
 40
0.6
176
     1
 40
30.0
176
     1
 62
     8
176
     1
 90
        1
176
     1
 90
        4
176
     1
 62
     7
176
     1
 62
   257
176
     1
 90
        1
176
     1
 90
        1
176
     1
 40
1.0
176
     1
 90
        8
176
     1
 62
     8
176
     1
 40
1.0
176
     1
 90
        1
176
     1
 90
        6
176
     1
 90
        2
176
     1
 62
     7
176
     1
 90
        5
176
     1
 90
        0
176
     1
 90
        0
176
     1
290
     0
176
     1
 90
        1
176
     1
 40
0.0
176
     1
 90
        0
176
     1
290
     0
176
     1
290
     1
176
     1
290
     1
176
     1
290
     0
176
     1
290
     0
176
     1
290
     0
176
     1
290
     0
176
     1
290
     0
176
     1
290
     0
176
     1
 90
       50
176
     1
 40
0.0
176
     1
 40
1.0
176
     1
 90
        0
176
     1
 62
    18
420
        0
176
     1
 90
       50
176
     1
 90
        3
176
     1
 62
     5
420
      255
176
     1
290
     0
176
     1
 90
       50
176
     1
 90
       50
176
     1
 90
       50
176
     1
290
     0
176
     1
 90
       50
176
     1
 62
   256
176
     0
 40
1.0
176
     0
 90
        2
176
     1
  1
strokes_ogs.tif
176
     1
290
     0
176
     1
 40
1.0
176
     1
 40
1.0
176
     1
1001
ACAD
1000
AcDbSavedByObjectVersion
1070
     0
  0
VISUALSTYLE
  5
32
102
{ACAD_REACTORS
330
29
102
}
330
29
100
AcDbVisualStyle
  2

 70
     9
177
     3
291
     0
 70
    58
 90
        3
176
     1
 90
        2
176
     1
 90
        0
176
     1
 90
        0
176
     1
 40
0.6
176
     1
 40
30.0
176
     1
 62
     7
176
     1
 90
        2
176
     1
 90
        2
176
     1
 62
     7
176
     1
 62
   257
176
     1
 90
        1
176
     1
 90
        1
176
     1
 40
179.0
176
     1
 90
        8
176
     1
 62
     7
176
     1
 40
1.0
176
     1
 90
        1
176
     1
 90
        6
176
     1
 90
        2
176
     1
 62
     7
176
     1
 90
        3
176
     1
 90
        0
176
     1
 90
        0
176
     1
290
     0
176
     1
 90
        1
176
     1
 40
0.0
176
     1
 90
        0
176
     1
290
     0
176
     1
290
     1
176
     1
290
     1
176
     1
290
     0
176
     1
290
     0
176
     1
290
     0
176
     1
290
     0
176
     1
290
     0
176
     1
290
     0
176
     1
 90
       50
176
     1
 40
0.0
176
     1
 40
1.0
176
     1
 90
        0
176
     1
 62
    18
420
        0
176
     1
 90
       50
176
     1
 90
        3
176
     1
 62
     5
420
      255
176
     1
290
     0
176
     1
 90
       50
176
     1
 90
       50
176
     1
 90
       50
176
     1
290
     0
176
     1
 90
       50
176
     1
 62
   256
176
     0
 40
1.0
176
     0
 90
        2
176
     1
  1
strokes_ogs.tif
176
     1
290
     0
176
     1
 40
1.0
176
     1
 40
1.0
176
     1
1001
ACAD
1000
AcDbSavedByObjectVersion
1070
     0
  0
VISUALSTYLE
  5
34
102
{ACAD_REACTORS
330
29
102
}
330
29
100
AcDbVisualStyle
  2

 70
    11
177
     3
291
     1
 70
    58
 90
        2
176
     1
 90
        2
176
     1
 90
        0
176
     1
 90
        0
176
     1
 40
0.6
176
     1
 40
30.0
176
     1
 62
     7
176
     1
 90
        1
176
     1
 90
        4
176
     1
 62
     7
176
     1
 62
   257
176
     1
 90
        1
176
     1
 90
        1
176
     1
 40
1.0
176
     1
 90
        8
176
     1
 62
     7
176
     1
 40
1.0
176
     1
 90
        1
176
     1
 90
        6
176
     1
 90
        2
176
     1
 62
     7
176
     1
 90
        5
176
     1
 90
        0
176
     1
 90
        0
176
     1
290
     0
176
     1
 90
        1
176
     1
 40
-50.0
176
     1
 90
        0
176
     1
290
     0
176
     1
290
     1
176
     1
290
     1
176
     1
290
     0
176
     1
290
     0
176
     1
290
     0
176
     1
290
     0
176
     1
290
     0
176
     1
290
     0
176
     1
 90
       50
176
     1
 40
0.0
176
     1
 40
1.0
176
     1
 90
        0
176
     1
 62
    18
420
        0
176
     1
 90
       50
176
     1
 90
        3
176
     1
 62
     5
420
      255
176
     1
290
     0
176
     1
 90
       50
176
     1
 90
       50
176
     1
 90
       50
176
     1
290
     0
176
     1
 90
       50
176
     1
 62
   256
176
     0
 40
1.0
176
     0
 90
        2
176
     1
  1
strokes_ogs.tif
176
     1
290
     0
176
     1
 40
1.0
176
     1
 40
1.0
176
     1
1001
ACAD
1000
AcDbSavedByObjectVersion
1070
     0
  0
VISUALSTYLE
  5
41
102
{ACAD_REACTORS
330
29
102
}
330
29
100
AcDbVisualStyle
  2

 70
    22
177
     3
291
     1
 70
    58
 90
        2
176
     0
 90
        2
176
     0
 90
        0
176
     0
 90
        0
176
     0
 40
0.6
176
     0
 40
30.0
176
     0
 62
     7
176
     0
 90
        1
176
     0
 90
        4
176
     0
 62
     7
176
     0
 62
   257
176
     0
 90
        1
176
     0
 90
        1
176
     0
 40
1.0
176
     0
 90
        8
176
     2
 62
     7
176
     0
 40
1.0
176
     0
 90
        1
176
     0
 90
        6
176
     0
 90
        2
176
     0
 62
     7
176
     0
 90
        5
176
     0
 90
        0
176
     0
 90
        0
176
     0
290
     0
176
     0
 90
        1
176
     0
 40
0.0
176
     0
 90
        0
176
     0
290
     0
176
     0
290
     1
176
     0
290
     1
176
     0
290
     0
176
     0
290
     0
176
     0
290
     0
176
     1
290
     0
176
     1
290
     0
176
     1
290
     0
176
     1
 90
       50
176
     1
 40
0.0
176
     1
 40
1.0
176
     1
 90
        0
176
     1
 62
    18
420
        0
176
     1
 90
       50
176
     1
 90
        3
176
     1
 62
     5
420
      255
176
     1
290
     0
176
     1
 90
       50
176
     1
 90
       50
176
     1
 90
       50
176
     1
290
     0
176
     1
 90
       50
176
     1
 62
   256
176
     0
 40
1.0
176
     0
 90
        2
176
     1
  1
strokes_ogs.tif
176
     1
290
     0
176
     1
 40
1.0
176
     1
 40
1.0
176
     1
1001
ACAD
1000
AcDbSavedByObjectVersion
1070
     0
  0
VISUALSTYLE
  5
38
102
{ACAD_REACTORS
330
29
102
}
330
29
100
AcDbVisualStyle
  2

 70
    15
177
     3
291
     1
 70
    58
 90
        2
176
     1
 90
        2
176
     1
 90
        0
176
     1
 90
        0
176
     1
 40
0.6
176
     1
 40
30.0
176
     1
 62
     7
176
     1
 90
        1
176
     1
 90
        4
176
     1
 62
     7
176
     1
 62
   257
176
     1
 90
        1
176
     1
 90
        1
176
     1
 40
1.0
176
     1
 90
        8
176
     1
 62
     7
176
     1
 40
1.0
176
     1
 90
        1
176
     1
 90
        6
176
     1
 90
        2
176
     1
 62
     7
176
     1
 90
        5
176
     1
 90
        0
176
     1
 90
        0
176
     1
290
     0
176
     1
 90
        1
176
     1
 40
0.0
176
     1
 90
        0
176
     1
290
     0
176
     1
290
     1
176
     1
290
     1
176
     1
290
     0
176
     1
290
     0
176
     1
290
     0
176
     1
290
     0
176
     1
290
     0
176
     1
290
     0
176
     1
 90
       50
176
     1
 40
0.0
176
     1
 40
1.0
176
     1
 90
        0
176
     1
 62
    18
420
        0
176
     1
 90
       50
176
     1
 90
        3
176
     1
 62
     5
420
      255
176
     1
290
     0
176
     1
 90
       50
176
     1
 90
       50
176
     1
 90
       50
176
     1
290
     0
176
     1
 90
       50
176
     1
 62
   256
176
     0
 40
1.0
176
     0
 90
        2
176
     1
  1
strokes_ogs.tif
176
     1
290
     0
176
     1
 40
1.0
176
     1
 40
1.0
176
     1
1001
ACAD
1000
AcDbSavedByObjectVersion
1070
     0
  0
VISUALSTYLE
  5
2A
102
{ACAD_REACTORS
330
29
102
}
330
29
100
AcDbVisualStyle
  2

 70
     0
177
     3
291
     1
 70
    58
 90
        2
176
     1
 90
        1
176
     1
 90
        1
176
     1
 90
        2
176
     1
 40
0.6
176
     1
 40
30.0
176
     1
 62
     7
176
     1
 90
        0
176
     1
 90
        0
176
     1
 62
     7
176
     1
 62
   257
176
     1
 90
        1
176
     1
 90
        1
176
     1
 40
1.0
176
     1
 90
        8
176
     1
 62
     7
176
     1
 40
1.0
176
     1
 90
        1
176
     1
 90
        6
176
     1
 90
        2
176
     1
 62
     7
176
     1
 90
        5
176
     1
 90
        0
176
     1
 90
        0
176
     1
290
     0
176
     1
 90
       13
176
     1
 40
0.0
176
     1
 90
        0
176
     1
290
     0
176
     1
290
     1
176
     1
290
     1
176
     1
290
     0
176
     1
290
     0
176
     1
290
     0
176
     1
290
     0
176
     1
290
     0
176
     1
290
     0
176
     1
 90
       50
176
     1
 40
0.0
176
     1
 40
1.0
176
     1
 90
        0
176
     1
 62
    18
420
        0
176
     1
 90
       50
176
     1
 90
        3
176
     1
 62
     5
420
      255
176
     1
290
     0
176
     1
 90
       50
176
     1
 90
       50
176
     1
 90
       50
176
     1
290
     0
176
     1
 90
       50
176
     1
 62
   256
176
     0
 40
1.0
176
     0
 90
        2
176
     1
  1
strokes_ogs.tif
176
     1
290
     0
176
     1
 40
1.0
176
     1
 40
1.0
176
     1
1001
ACAD
1000
AcDbSavedByObjectVersion
1070
     0
  0
VISUALSTYLE
  5
2B
102
{ACAD_REACTORS
330
29
102
}
330
29
100
AcDbVisualStyle
  2

 70
     1
177
     3
291
     1
 70
    58
 90
        2
176
     1
 90
        1
176
     1
 90
        1
176
     1
 90
        2
176
     1
 40
0.6
176
     1
 40
30.0
176
     1
 62
     7
176
     1
 90
        1
176
     1
 90
        0
176
     1
 62
     7
176
     1
 62
   257
176
     1
 90
        1
176
     1
 90
        1
176
     1
 40
1.0
176
     1
 90
        0
176
     1
 62
   257
176
     1
 40
1.0
176
     1
 90
        1
176
     1
 90
        6
176
     1
 90
        2
176
     1
 62
     7
176
     1
 90
        5
176
     1
 90
        0
176
     1
 90
        0
176
     1
290
     0
176
     1
 90
       13
176
     1
 40
0.0
176
     1
 90
        0
176
     1
290
     0
176
     1
290
     1
176
     1
290
     1
176
     1
290
     0
176
     1
290
     0
176
     1
290
     0
176
     1
290
     0
176
     1
290
     0
176
     1
290
     0
176
     1
 90
       50
176
     1
 40
0.0
176
     1
 40
1.0
176
     1
 90
        0
176
     1
 62
    18
420
        0
176
     1
 90
       50
176
     1
 90
        3
176
     1
 62
     5
420
      255
176
     1
290
     0
176
     1
 90
       50
176
     1
 90
       50
176
     1
 90
       50
176
     1
290
     0
176
     1
 90
       50
176
     1
 62
   256
176
     0
 40
1.0
176
     0
 90
        2
176
     1
  1
strokes_ogs.tif
176
     1
290
     0
176
     1
 40
1.0
176
     1
 40
1.0
176
     1
1001
ACAD
1000
AcDbSavedByObjectVersion
1070
     0
  0
VISUALSTYLE
  5
2C
102
{ACAD_REACTORS
330
29
102
}
330
29
100
AcDbVisualStyle
  2

 70
     2
177
     3
291
     1
 70
    58
 90
        2
176
     1
 90
        2
176
     1
 90
        1
176
     1
 90
        2
176
     1
 40
0.6
176
     1
 40
30.0
176
     1
 62
     7
176
     1
 90
        0
176
     1
 90
        0
176
     1
 62
     7
176
     1
 62
   257
176
     1
 90
        1
176
     1
 90
        1
176
     1
 40
1.0
176
     1
 90
        0
176
     1
 62
     7
176
     1
 40
1.0
176
     1
 90
        1
176
     1
 90
        6
176
     1
 90
        2
176
     1
 62
     7
176
     1
 90
        5
176
     1
 90
        0
176
     1
 90
        0
176
     1
290
     0
176
     1
 90
       13
176
     1
 40
0.0
176
     1
 90
        0
176
     1
290
     0
176
     1
290
     1
176
     1
290
     1
176
     1
290
     0
176
     1
290
     0
176
     1
290
     0
176
     1
290
     0
176
     1
290
     0
176
     1
290
     0
176
     1
 90
       50
176
     1
 40
0.0
176
     1
 40
1.0
176
     1
 90
        0
176
     1
 62
    18
420
        0
176
     1
 90
       50
176
     1
 90
        3
176
     1
 62
     5
420
      255
176
     1
290
     0
176
     1
 90
       50
176
     1
 90
       50
176
     1
 90
       50
176
     1
290
     0
176
     1
 90
       50
176
     1
 62
   256
176
     0
 40
1.0
176
     0
 90
        2
176
     1
  1
strokes_ogs.tif
176
     1
290
     0
176
     1
 40
1.0
176
     1
 40
1.0
176
     1
1001
ACAD
1000
AcDbSavedByObjectVersion
1070
     0
  0
VISUALSTYLE
  5
2D
102
{ACAD_REACTORS
330
29
102
}
330
29
100
AcDbVisualStyle
  2

 70
     3
177
     3
291
     1
 70
    58
 90
        2
176
     1
 90
        2
176
     1
 90
        1
176
     1
 90
        2
176
     1
 40
0.6
176
     1
 40
30.0
176
     1
 62
     7
176
     1
 90
        1
176
     1
 90
        0
176
     1
 62
     7
176
     1
 62
   257
176
     1
 90
        1
176
     1
 90
        1
176
     1
 40
1.0
176
     1
 90
        0
176
     1
 62
   257
176
     1
 40
1.0
176
     1
 90
        1
176
     1
 90
        6
176
     1
 90
        2
176
     1
 62
     7
176
     1
 90
        5
176
     1
 90
        0
176
     1
 90
        0
176
     1
290
     0
176
     1
 90
       13
176
     1
 40
0.0
176
     1
 90
        0
176
     1
290
     0
176
     1
290
     1
176
     1
290
     1
176
     1
290
     0
176
     1
290
     0
176
     1
290
     0
176
     1
290
     0
176
     1
290
     0
176
     1
290
     0
176
     1
 90
       50
176
     1
 40
0.0
176
     1
 40
1.0
176
     1
 90
        0
176
     1
 62
    18
420
        0
176
     1
 90
       50
176
     1
 90
        3
176
     1
 62
     5
420
      255
176
     1
290
     0
176
     1
 90
       50
176
     1
 90
       50
176
     1
 90
       50
176
     1
290
     0
176
     1
 90
       50
176
     1
 62
   256
176
     0
 40
1.0
176
     0
 90
        2
176
     1
  1
strokes_ogs.tif
176
     1
290
     0
176
     1
 40
1.0
176
     1
 40
1.0
176
     1
1001
ACAD
1000
AcDbSavedByObjectVersion
1070
     0
  0
VISUALSTYLE
  5
31
102
{ACAD_REACTORS
330
29
102
}
330
29
100
AcDbVisualStyle
  2

 70
     6
177
     3
291
     0
 70
    58
 90
        1
176
     1
 90
        2
176
     1
 90
        2
176
     1
 90
        0
176
     1
 40
0.6
176
     1
 40
30.0
176
     1
 62
     7
176
     1
 90
        2
176
     1
 90
        2
176
     1
 62
     7
176
     1
 62
   257
176
     1
 90
        2
176
     1
 90
        1
176
     1
 40
40.0
176
     1
 90
        0
176
     1
 62
   257
176
     1
 40
1.0
176
     1
 90
        1
176
     1
 90
        6
176
     1
 90
        2
176
     1
 62
     7
176
     1
 90
        3
176
     1
 90
        0
176
     1
 90
        0
176
     1
290
     0
176
     1
 90
        1
176
     1
 40
0.0
176
     1
 90
        0
176
     1
290
     0
176
     1
290
     1
176
     1
290
     1
176
     1
290
     0
176
     1
290
     0
176
     1
290
     0
176
     1
290
     0
176
     1
290
     0
176
     1
290
     0
176
     1
 90
       50
176
     1
 40
0.0
176
     1
 40
1.0
176
     1
 90
        0
176
     1
 62
    18
420
        0
176
     1
 90
       50
176
     1
 90
        3
176
     1
 62
     5
420
      255
176
     1
290
     0
176
     1
 90
       50
176
     1
 90
       50
176
     1
 90
       50
176
     1
290
     0
176
     1
 90
       50
176
     1
 62
   256
176
     0
 40
1.0
176
     0
 90
        2
176
     1
  1
strokes_ogs.tif
176
     1
290
     0
176
     1
 40
1.0
176
     1
 40
1.0
176
     1
1001
ACAD
1000
AcDbSavedByObjectVersion
1070
     0
  0
VISUALSTYLE
  5
3F
102
{ACAD_REACTORS
330
29
102
}
330
29
100
AcDbVisualStyle
  2

 70
    20
177
     3
291
     1
 70
    58
 90
        2
176
     0
 90
        2
176
     0
 90
        0
176
     0
 90
        0
176
     0
 40
0.6
176
     0
 40
30.0
176
     0
 62
     7
176
     0
 90
        1
176
     0
 90
        4
176
     0
 62
     7
176
     0
 62
   257
176
     0
 90
        1
176
     0
 90
        1
176
     0
 40
1.0
176
     0
 90
       10
176
     2
 62
     7
176
     0
 40
1.0
176
     0
 90
        1
176
     0
 90
        6
176
     0
 90
        2
176
     0
 62
     7
176
     0
 90
        5
176
     0
 90
        0
176
     0
 90
        0
176
     0
290
     0
176
     0
 90
        1
176
     0
 40
0.0
176
     0
 90
        0
176
     0
290
     0
176
     0
290
     1
176
     0
290
     1
176
     0
290
     0
176
     0
290
     0
176
     0
290
     0
176
     1
290
     0
176
     1
290
     0
176
     1
290
     0
176
     1
 90
       50
176
     1
 40
0.0
176
     1
 40
1.0
176
     1
 90
        0
176
     1
 62
    18
420
        0
176
     1
 90
       50
176
     1
 90
        3
176
     1
 62
     5
420
      255
176
     1
290
     0
176
     1
 90
       50
176
     1
 90
       50
176
     1
 90
       50
176
     1
290
     0
176
     1
 90
       50
176
     1
 62
   256
176
     0
 40
1.0
176
     0
 90
        2
176
     1
  1
strokes_ogs.tif
176
     1
290
     0
176
     1
 40
1.0
176
     1
 40
1.0
176
     1
1001
ACAD
1000
AcDbSavedByObjectVersion
1070
     0
  0
VISUALSTYLE
  5
37
102
{ACAD_REACTORS
330
29
102
}
330
29
100
AcDbVisualStyle
  2

 70
    14
177
     3
291
     1
 70
    58
 90
        2
176
     1
 90
        2
176
     1
 90
        0
176
     1
 90
        0
176
     1
 40
0.6
176
     1
 40
30.0
176
     1
 62
     7
176
     1
 90
        1
176
     1
 90
        4
176
     1
 62
     7
176
     1
 62
   257
176
     1
 90
        7
176
     1
 90
        7
176
     1
 40
1.0
176
     1
 90
        8
176
     1
 62
     7
176
     1
 40
1.0
176
     1
 90
        1
176
     1
 90
        6
176
     1
 90
        2
176
     1
 62
     7
176
     1
 90
        5
176
     1
 90
        0
176
     1
 90
        0
176
     1
290
     0
176
     1
 90
        1
176
     1
 40
0.0
176
     1
 90
        0
176
     1
290
     0
176
     1
290
     1
176
     1
290
     1
176
     1
290
     0
176
     1
290
     0
176
     1
290
     0
176
     1
290
     0
176
     1
290
     0
176
     1
290
     0
176
     1
 90
       50
176
     1
 40
0.0
176
     1
 40
1.0
176
     1
 90
        0
176
     1
 62
    18
420
        0
176
     1
 90
       50
176
     1
 90
        3
176
     1
 62
     5
420
      255
176
     1
290
     0
176
     1
 90
       50
176
     1
 90
       50
176
     1
 90
       50
176
     1
290
     0
176
     1
 90
       50
176
     1
 62
   256
176
     0
 40
1.0
176
     0
 90
        2
176
     1
  1
strokes_ogs.tif
176
     1
290
     0
176
     1
 40
1.0
176
     1
 40
1.0
176
     1
1001
ACAD
1000
AcDbSavedByObjectVersion
1070
     0
  0
VISUALSTYLE
  5
40
102
{ACAD_REACTORS
330
29
102
}
330
29
100
AcDbVisualStyle
  2

 70
    21
177
     3
291
     1
 70
    58
 90
        2
176
     0
 90
        2
176
     0
 90
        0
176
     0
 90
        0
176
     0
 40
0.6
176
     0
 40
30.0
176
     0
 62
     7
176
     0
 90
        1
176
     0
 90
        4
176
     0
 62
     7
176
     0
 62
   257
176
     0
 90
        1
176
     0
 90
        1
176
     0
 40
1.0
176
     0
 90
        9
176
     2
 62
     7
176
     0
 40
1.0
176
     0
 90
        1
176
     0
 90
        6
176
     0
 90
        2
176
     0
 62
     7
176
     0
 90
        5
176
     0
 90
        0
176
     0
 90
        0
176
     0
290
     0
176
     0
 90
        1
176
     0
 40
0.0
176
     0
 90
        0
176
     0
290
     0
176
     0
290
     1
176
     0
290
     1
176
     0
290
     0
176
     0
290
     0
176
     0
290
     0
176
     1
290
     0
176
     1
290
     0
176
     1
290
     0
176
     1
 90
       50
176
     1
 40
0.0
176
     1
 40
1.0
176
     1
 90
        0
176
     1
 62
    18
420
        0
176
     1
 90
       50
176
     1
 90
        3
176
     1
 62
     5
420
      255
176
     1
290
     0
176
     1
 90
       50
176
     1
 90
       50
176
     1
 90
       50
176
     1
290
     0
176
     1
 90
       50
176
     1
 62
   256
176
     0
 40
1.0
176
     0
 90
        2
176
     1
  1
strokes_ogs.tif
176
     1
290
     0
176
     1
 40
1.0
176
     1
 40
1.0
176
     1
1001
ACAD
1000
AcDbSavedByObjectVersion
1070
     0
  0
VISUALSTYLE
  5
33
102
{ACAD_REACTORS
330
29
102
}
330
29
100
AcDbVisualStyle
  2

 70
     8
177
     3
291
     0
 70
    58
 90
        2
176
     1
 90
        3
176
     1
 90
        0
176
     1
 90
        2
176
     1
 40
0.6
176
     1
 40
30.0
176
     1
 62
     7
176
     1
 90
        0
176
     1
 90
        0
176
     1
 62
     7
176
     1
 62
   257
176
     1
 90
        1
176
     1
 90
        1
176
     1
 40
1.0
176
     1
 90
        8
176
     1
 62
   257
176
     1
 40
1.0
176
     1
 90
        1
176
     1
 90
        6
176
     1
 90
        2
176
     1
 62
     7
176
     1
 90
        3
176
     1
 90
        0
176
     1
 90
        0
176
     1
290
     0
176
     1
 90
       13
176
     1
 40
0.0
176
     1
 90
        0
176
     1
290
     0
176
     1
290
     1
176
     1
290
     1
176
     1
290
     0
176
     1
290
     0
176
     1
290
     0
176
     1
290
     0
176
     1
290
     0
176
     1
290
     0
176
     1
 90
       50
176
     1
 40
0.0
176
     1
 40
1.0
176
     1
 90
        0
176
     1
 62
    18
420
        0
176
     1
 90
       50
176
     1
 90
        3
176
     1
 62
     5
420
      255
176
     1
290
     0
176
     1
 90
       50
176
     1
 90
       50
176
     1
 90
       50
176
     1
290
     0
176
     1
 90
       50
176
     1
 62
   256
176
     0
 40
1.0
176
     0
 90
        2
176
     1
  1
strokes_ogs.tif
176
     1
290
     0
176
     1
 40
1.0
176
     1
 40
1.0
176
     1
1001
ACAD
1000
AcDbSavedByObjectVersion
1070
     0
  0
VISUALSTYLE
  5
3E
102
{ACAD_REACTORS
330
29
102
}
330
29
100
AcDbVisualStyle
  2

 70
    27
177
     3
291
     0
 70
    58
 90
        2
176
     1
 90
        2
176
     1
 90
        1
176
     1
 90
        2
176
     1
 40
0.6
176
     1
 40
30.0
176
     1
 62
     7
176
     1
 90
        0
176
     1
 90
        4
176
     1
 62
     7
176
     1
 62
   257
176
     1
 90
        1
176
     1
 90
        1
176
     1
 40
1.0
176
     1
 90
        8
176
     1
 62
   257
176
     1
 40
1.0
176
     1
 90
        1
176
     1
 90
        6
176
     1
 90
        2
176
     1
 62
     8
176
     1
 90
        3
176
     1
 90
        0
176
     1
 90
        0
176
     1
290
     0
176
     1
 90
        5
176
     1
 40
0.0
176
     1
 90
        0
176
     1
290
     0
176
     1
290
     1
176
     1
290
     1
176
     1
290
     0
176
     1
290
     0
176
     1
290
     0
176
     1
290
     0
176
     1
290
     0
176
     1
290
     0
176
     1
 90
       50
176
     1
 40
0.0
176
     1
 40
1.0
176
     1
 90
        0
176
     1
 62
    18
420
        0
176
     1
 90
       50
176
     1
 90
        3
176
     1
 62
     5
420
      255
176
     1
290
     0
176
     1
 90
       50
176
     1
 90
       50
176
     1
 90
       50
176
     1
290
     0
176
     1
 90
       50
176
     1
 62
   256
176
     0
 40
1.0
176
     0
 90
        2
176
     1
  1
strokes_ogs.tif
176
     1
290
     0
176
     1
 40
1.0
176
     1
 40
1.0
176
     1
1001
ACAD
1000
AcDbSavedByObjectVersion
1070
     0
  0
VISUALSTYLE
  5
3D
102
{ACAD_REACTORS
330
29
102
}
330
29
100
AcDbVisualStyle
  2

 70
    26
177
     3
291
     0
 70
    58
 90
        2
176
     1
 90
        2
176
     1
 90
        1
176
     1
 90
        2
176
     1
 40
0.6
176
     1
 40
30.0
176
     1
 62
     7
176
     1
 90
        1
176
     1
 90
       10
176
     1
 62
     7
176
     1
 62
   257
176
     1
 90
        2
176
     1
 90
        1
176
     1
 40
1.0
176
     1
 90
        8
176
     1
 62
   257
176
     1
 40
1.0
176
     1
 90
        1
176
     1
 90
        6
176
     1
 90
        2
176
     1
 62
     7
176
     1
 90
        3
176
     1
 90
        0
176
     1
 90
        0
176
     1
290
     0
176
     1
 90
        5
176
     1
 40
0.0
176
     1
 90
        0
176
     1
290
     0
176
     1
290
     1
176
     1
290
     1
176
     1
290
     0
176
     1
290
     0
176
     1
290
     0
176
     1
290
     0
176
     1
290
     0
176
     1
290
     0
176
     1
 90
       50
176
     1
 40
0.0
176
     1
 40
1.0
176
     1
 90
        0
176
     1
 62
    18
420
        0
176
     1
 90
       50
176
     1
 90
        3
176
     1
 62
     5
420
      255
176
     1
290
     0
176
     1
 90
       50
176
     1
 90
       50
176
     1
 90
       50
176
     1
290
     0
176
     1
 90
       50
176
     1
 62
   256
176
     0
 40
1.0
176
     0
 90
        2
176
     1
  1
strokes_ogs.tif
176
     1
290
     0
176
     1
 40
1.0
176
     1
 40
1.0
176
     1
1001
ACAD
1000
AcDbSavedByObjectVersion
1070
     0
  0
VISUALSTYLE
  5
3A
102
{ACAD_REACTORS
330
29
102
}
330
29
100
AcDbVisualStyle
  2

 70
    23
177
     3
291
     0
 70
    58
 90
        2
176
     1
 90
        2
176
     1
 90
        3
176
     1
 90
        0
176
     1
 40
0.6
176
     1
 40
30.0
176
     1
 62
     7
176
     1
 90
        2
176
     1
 90
        2
176
     1
 62
     7
176
     1
 62
     7
176
     1
 90
        1
176
     1
 90
        1
176
     1
 40
40.0
176
     1
 90
        8
176
     1
 62
     7
176
     1
 40
1.0
176
     1
 90
        1
176
     1
 90
        6
176
     1
 90
        2
176
     1
 62
     7
176
     1
 90
        3
176
     1
 90
        0
176
     1
 90
        0
176
     1
290
     0
176
     1
 90
        1
176
     1
 40
0.0
176
     1
 90
        0
176
     1
290
     0
176
     1
290
     1
176
     1
290
     1
176
     1
290
     0
176
     1
290
     0
176
     1
290
     0
176
     1
290
     0
176
     1
290
     0
176
     1
290
     0
176
     1
 90
       50
176
     1
 40
0.0
176
     1
 40
1.0
176
     1
 90
        0
176
     1
 62
    18
420
        0
176
     1
 90
       50
176
     1
 90
        3
176
     1
 62
     5
420
      255
176
     1
290
     0
176
     1
 90
       50
176
     1
 90
       50
176
     1
 90
       50
176
     1
290
     0
176
     1
 90
       50
176
     1
 62
   256
176
     0
 40
1.0
176
     0
 90
        2
176
     1
  1
strokes_ogs.tif
176
     1
290
     0
176
     1
 40
1.0
176
     1
 40
1.0
176
     1
1001
ACAD
1000
AcDbSavedByObjectVersion
1070
     0
  0
VISUALSTYLE
  5
3B
102
{ACAD_REACTORS
330
29
102
}
330
29
100
AcDbVisualStyle
  2

 70
    24
177
     3
291
     0
 70
    58
 90
        1
176
     1
 90
        2
176
     1
 90
        2
176
     1
 90
        0
176
     1
 40
0.6
176
     1
 40
30.0
176
     1
 62
     7
176
     1
 90
        2
176
     1
 90
        2
176
     1
 62
     7
176
     1
 62
     7
176
     1
 90
        1
176
     1
 90
        1
176
     1
 40
40.0
176
     1
 90
       11
176
     1
 62
     7
176
     1
 40
1.0
176
     1
 90
        1
176
     1
 90
        6
176
     1
 90
        2
176
     1
 62
     7
176
     1
 90
        6
176
     1
 90
        0
176
     1
 90
        0
176
     1
290
     0
176
     1
 90
        1
176
     1
 40
0.0
176
     1
 90
        0
176
     1
290
     0
176
     1
290
     1
176
     1
290
     1
176
     1
290
     0
176
     1
290
     0
176
     1
290
     0
176
     1
290
     0
176
     1
290
     0
176
     1
290
     0
176
     1
 90
       50
176
     1
 40
0.0
176
     1
 40
1.0
176
     1
 90
        0
176
     1
 62
    18
420
        0
176
     1
 90
       50
176
     1
 90
        3
176
     1
 62
     5
420
      255
176
     1
290
     0
176
     1
 90
       50
176
     1
 90
       50
176
     1
 90
       50
176
     1
290
     0
176
     1
 90
       50
176
     1
 62
   256
176
     0
 40
1.0
176
     0
 90
        2
176
     1
  1
strokes_ogs.tif
176
     1
290
     0
176
     1
 40
1.0
176
     1
 40
1.0
176
     1
1001
ACAD
1000
AcDbSavedByObjectVersion
1070
     0
  0
VISUALSTYLE
  5
36
102
{ACAD_REACTORS
330
29
102
}
330
29
100
AcDbVisualStyle
  2

 70
    13
177
     3
291
     1
 70
    58
 90
        2
176
     1
 90
        2
176
     1
 90
        0
176
     1
 90
        0
176
     1
 40
0.6
176
     1
 40
30.0
176
     1
 62
     7
176
     1
 90
        1
176
     1
 90
        4
176
     1
 62
     7
176
     1
 62
   257
176
     1
 90
        1
176
     1
 90
        1
176
     1
 40
1.0
176
     1
 90
       12
176
     1
 62
     7
176
     1
 40
1.0
176
     1
 90
        1
176
     1
 90
        6
176
     1
 90
        2
176
     1
 62
     7
176
     1
 90
        5
176
     1
 90
        0
176
     1
 90
        0
176
     1
290
     0
176
     1
 90
        1
176
     1
 40
0.0
176
     1
 90
        0
176
     1
290
     0
176
     1
290
     1
176
     1
290
     1
176
     1
290
     0
176
     1
290
     0
176
     1
290
     0
176
     1
290
     0
176
     1
290
     0
176
     1
290
     0
176
     1
 90
       50
176
     1
 40
0.0
176
     1
 40
1.0
176
     1
 90
        0
176
     1
 62
    18
420
        0
176
     1
 90
       50
176
     1
 90
        3
176
     1
 62
     5
420
      255
176
     1
290
     0
176
     1
 90
       50
176
     1
 90
       50
176
     1
 90
       50
176
     1
290
     0
176
     1
 90
       50
176
     1
 62
   256
176
     0
 40
1.0
176
     0
 90
        2
176
     1
  1
strokes_ogs.tif
176
     1
290
     0
176
     1
 40
1.0
176
     1
 40
1.0
176
     1
1001
ACAD
1000
AcDbSavedByObjectVersion
1070
     0
  0
VISUALSTYLE
  5
30
102
{ACAD_REACTORS
330
29
102
}
330
29
100
AcDbVisualStyle
  2

 70
     5
177
     3
291
     0
 70
    58
 90
        0
176
     1
 90
        2
176
     1
 90
        0
176
     1
 90
        0
176
     1
 40
0.6
176
     1
 40
30.0
176
     1
 62
     7
176
     1
 90
        1
176
     1
 90
        4
176
     1
 62
     7
176
     1
 62
   257
176
     1
 90
        1
176
     1
 90
        1
176
     1
 40
1.0
176
     1
 90
        0
176
     1
 62
   257
176
     1
 40
1.0
176
     1
 90
        1
176
     1
 90
        6
176
     1
 90
        2
176
     1
 62
     7
176
     1
 90
        3
176
     1
 90
        0
176
     1
 90
        0
176
     1
290
     0
176
     1
 90
        1
176
     1
 40
0.0
176
     1
 90
        0
176
     1
290
     0
176
     1
290
     1
176
     1
290
     1
176
     1
290
     0
176
     1
290
     0
176
     1
290
     0
176
     1
290
     0
176
     1
290
     0
176
     1
290
     0
176
     1
 90
       50
176
     1
 40
0.0
176
     1
 40
1.0
176
     1
 90
        0
176
     1
 62
    18
420
        0
176
     1
 90
       50
176
     1
 90
        3
176
     1
 62
     5
420
      255
176
     1
290
     0
176
     1
 90
       50
176
     1
 90
       50
176
     1
 90
       50
176
     1
290
     0
176
     1
 90
       50
176
     1
 62
   256
176
     0
 40
1.0
176
     0
 90
        2
176
     1
  1
strokes_ogs.tif
176
     1
290
     0
176
     1
 40
1.0
176
     1
 40
1.0
176
     1
1001
ACAD
1000
AcDbSavedByObjectVersion
1070
     0
  0
VISUALSTYLE
  5
3C
102
{ACAD_REACTORS
330
29
102
}
330
29
100
AcDbVisualStyle
  2

 70
    25
177
     3
291
     0
 70
    58
 90
        2
176
     1
 90
        2
176
     1
 90
        1
176
     1
 90
        1
176
     1
 40
0.5
176
     1
 40
30.0
176
     1
 62
     7
176
     1
 90
        1
176
     1
 90
        0
176
     1
 62
     7
176
     1
 62
   257
176
     1
 90
        1
176
     1
 90
        1
176
     1
 40
1.0
176
     1
 90
        8
176
     1
 62
     7
176
     1
 40
1.0
176
     1
 90
        1
176
     1
 90
        6
176
     1
 90
        2
176
     1
 62
     7
176
     1
 90
        3
176
     1
 90
        0
176
     1
 90
        0
176
     1
290
     0
176
     1
 90
       13
176
     1
 40
0.0
176
     1
 90
        0
176
     1
290
     0
176
     1
290
     1
176
     1
290
     1
176
     1
290
     0
176
     1
290
     0
176
     1
290
     0
176
     1
290
     0
176
     1
290
     0
176
     1
290
     0
176
     1
 90
       50
176
     1
 40
0.0
176
     1
 40
1.0
176
     1
 90
        0
176
     1
 62
    18
420
        0
176
     1
 90
       50
176
     1
 90
        3
176
     1
 62
     5
420
      255
176
     1
290
     0
176
     1
 90
       50
176
     1
 90
       50
176
     1
 90
       50
176
     1
290
     0
176
     1
 90
       50
176
     1
 62
   256
176
     0
 40
1.0
176
     0
 90
        2
176
     1
  1
strokes_ogs.tif
176
     1
290
     0
176
     1
 40
1.0
176
     1
 40
1.0
176
     1
1001
ACAD
1000
AcDbSavedByObjectVersion
1070
     0
  0
DICTIONARYVAR
  5
A52
102
{ACAD_REACTORS
330
A4E
102
}
330
A4E
100
DictionaryVariables
280
     0
  1
1:1
  0
DICTIONARYVAR
  5
A50
102
{ACAD_REACTORS
330
A4E
102
}
330
A4E
100
DictionaryVariables
280
     0
  1
STANDARD
  0
DICTIONARYVAR
  5
A4F
102
{ACAD_REACTORS
330
A4E
102
}
330
A4E
100
DictionaryVariables
280
     0
  1
STANDARD
  0
DICTIONARYVAR
  5
AE9
102
{ACAD_REACTORS
330
A4E
102
}
330
A4E
100
DictionaryVariables
280
     0
  1
Metric50
  0
DICTIONARYVAR
  5
AEA
102
{ACAD_REACTORS
330
A4E
102
}
330
A4E
100
DictionaryVariables
280
     0
  1
Metric50
  0
DICTIONARYVAR
  5
A59
102
{ACAD_REACTORS
330
A4E
102
}
330
A4E
100
DictionaryVariables
280
     0
  1
1
  0
DICTIONARYVAR
  5
A58
102
{ACAD_REACTORS
330
A4E
102
}
330
A4E
100
DictionaryVariables
280
     0
  1
1
  0
DICTIONARYVAR
  5
A57
102
{ACAD_REACTORS
330
A4E
102
}
330
A4E
100
DictionaryVariables
280
     0
  1
0
  0
DICTIONARYVAR
  5
A54
102
{ACAD_REACTORS
330
A4E
102
}
330
A4E
100
DictionaryVariables
280
     0
  1
0
  0
DICTIONARYVAR
  5
A55
102
{ACAD_REACTORS
330
A4E
102
}
330
A4E
100
DictionaryVariables
280
     0
  1
0
  0
DICTIONARYVAR
  5
A53
102
{ACAD_REACTORS
330
A4E
102
}
330
A4E
100
DictionaryVariables
280
     0
  1
2
  0
DICTIONARYVAR
  5
A51
102
{ACAD_REACTORS
330
A4E
102
}
330
A4E
100
DictionaryVariables
280
     0
  1
1
  0
DICTIONARYVAR
  5
A56
102
{ACAD_REACTORS
330
A4E
102
}
330
A4E
100
DictionaryVariables
280
     0
  1
127
  0
DICTIONARY
  5
B02
330
AC3
100
AcDbDictionary
280
     1
281
     1
  3
ACAD_XREC_ROUNDTRIP
360
B03
  0
DICTIONARY
  5
1A
330
19
100
AcDbDictionary
280
     1
281
     1
  3
ACAD_XREC_ROUNDTRIP
360
A82
  3
BUMPTILE
360
1C
  3
DIFFUSETILE
360
1B
  3
OPACITYTILE
360
1F
  3
REFLECTIONTILE
360
1E
  3
REFRACTIONTILE
360
20
  3
SPECULARTILE
360
1D
  0
DICTIONARY
  5
12
330
11
100
AcDbDictionary
280
     1
281
     1
  3
ACAD_XREC_ROUNDTRIP
360
A81
  3
BUMPTILE
360
14
  3
DIFFUSETILE
360
13
  3
OPACITYTILE
360
17
  3
REFLECTIONTILE
360
16
  3
REFRACTIONTILE
360
18
  3
SPECULARTILE
360
15
  0
DICTIONARY
  5
22
330
21
100
AcDbDictionary
280
     1
281
     1
  3
ACAD_XREC_ROUNDTRIP
360
A83
  3
BUMPTILE
360
24
  3
DIFFUSETILE
360
23
  3
OPACITYTILE
360
27
  3
REFLECTIONTILE
360
26
  3
REFRACTIONTILE
360
28
  3
SPECULARTILE
360
25
  0
DICTIONARY
  5
B00
330
AC1
100
AcDbDictionary
280
     1
281
     1
  3
ACAD_XREC_ROUNDTRIP
360
B01
  0
DICTIONARY
  5
A5B
330
65
100
AcDbDictionary
280
     1
281
     1
  3
ACAD_ROUNDTRIP_2008_TABLESTYLE_CELLSTYLEMAP
360
AEB
  0
XRECORD
  5
B03
102
{ACAD_REACTORS
330
B02
102
}
330
B02
100
AcDbXrecord
280
     1
102
DISPLAYNAME
  1
Metric50
102
FLAGS
 90
        0
  0
XRECORD
  5
A82
102
{ACAD_REACTORS
330
1A
102
}
330
1A
100
AcDbXrecord
280
     1
102
MATERIAL
148
0.0
149
0.0
149
0.0
 93
        0
 94
      127
282
     0
 72
     0
 77
     0
171
     0
175
     0
179
     0
273
     0
  0
XRECORD
  5
1C
102
{ACAD_REACTORS
330
1A
102
}
330
1A
100
AcDbXrecord
280
     1
270
     1
271
     1
  0
XRECORD
  5
1B
102
{ACAD_REACTORS
330
1A
102
}
330
1A
100
AcDbXrecord
280
     1
270
     1
271
     1
  0
XRECORD
  5
1F
102
{ACAD_REACTORS
330
1A
102
}
330
1A
100
AcDbXrecord
280
     1
270
     1
271
     1
  0
XRECORD
  5
1E
102
{ACAD_REACTORS
330
1A
102
}
330
1A
100
AcDbXrecord
280
     1
270
     1
271
     1
  0
XRECORD
  5
20
102
{ACAD_REACTORS
330
1A
102
}
330
1A
100
AcDbXrecord
280
     1
270
     1
271
     1
  0
XRECORD
  5
1D
102
{ACAD_REACTORS
330
1A
102
}
330
1A
100
AcDbXrecord
280
     1
270
     1
271
     1
  0
XRECORD
  5
A81
102
{ACAD_REACTORS
330
12
102
}
330
12
100
AcDbXrecord
280
     1
102
MATERIAL
148
0.0
149
0.0
149
0.0
 93
        0
 94
      127
282
     0
 72
     0
 77
     0
171
     0
175
     0
179
     0
273
     0
  0
XRECORD
  5
14
102
{ACAD_REACTORS
330
12
102
}
330
12
100
AcDbXrecord
280
     1
270
     1
271
     1
  0
XRECORD
  5
13
102
{ACAD_REACTORS
330
12
102
}
330
12
100
AcDbXrecord
280
     1
270
     1
271
     1
  0
XRECORD
  5
17
102
{ACAD_REACTORS
330
12
102
}
330
12
100
AcDbXrecord
280
     1
270
     1
271
     1
  0
XRECORD
  5
16
102
{ACAD_REACTORS
330
12
102
}
330
12
100
AcDbXrecord
280
     1
270
     1
271
     1
  0
XRECORD
  5
18
102
{ACAD_REACTORS
330
12
102
}
330
12
100
AcDbXrecord
280
     1
270
     1
271
     1
  0
XRECORD
  5
15
102
{ACAD_REACTORS
330
12
102
}
330
12
100
AcDbXrecord
280
     1
270
     1
271
     1
  0
XRECORD
  5
A83
102
{ACAD_REACTORS
330
22
102
}
330
22
100
AcDbXrecord
280
     1
102
MATERIAL
148
0.0
149
0.0
149
0.0
 93
        0
 94
      127
282
     0
 72
     0
 77
     0
171
     0
175
     0
179
     0
273
     0
  0
XRECORD
  5
24
102
{ACAD_REACTORS
330
22
102
}
330
22
100
AcDbXrecord
280
     1
270
     1
271
     1
  0
XRECORD
  5
23
102
{ACAD_REACTORS
330
22
102
}
330
22
100
AcDbXrecord
280
     1
270
     1
271
     1
  0
XRECORD
  5
27
102
{ACAD_REACTORS
330
22
102
}
330
22
100
AcDbXrecord
280
     1
270
     1
271
     1
  0
XRECORD
  5
26
102
{ACAD_REACTORS
330
22
102
}
330
22
100
AcDbXrecord
280
     1
270
     1
271
     1
  0
XRECORD
  5
28
102
{ACAD_REACTORS
330
22
102
}
330
22
100
AcDbXrecord
280
     1
270
     1
271
     1
  0
XRECORD
  5
25
102
{ACAD_REACTORS
330
22
102
}
330
22
100
AcDbXrecord
280
     1
270
     1
271
     1
  0
XRECORD
  5
B01
102
{ACAD_REACTORS
330
B00
102
}
330
B00
100
AcDbXrecord
280
     1
102
DISPLAYNAME
  1
Metric50
102
FLAGS
 90
        0
  0
CELLSTYLEMAP
  5
AEB
102
{ACAD_REACTORS
330
A5B
102
}
330
A5B
100
AcDbCellStyleMap
 90
        3
300
CELLSTYLE
  1
TABLEFORMAT_BEGIN
 90
        5
170
     1
 91
        0
 92
    32768
 62
   257
 93
        1
300
CONTENTFORMAT
  1
CONTENTFORMAT_BEGIN
 90
        0
 91
        0
 92
      512
 93
        0
300

 40
0.0
140
1.0
 94
        5
 62
     0
340
55
144
0.25
309
CONTENTFORMAT_END
171
     1
301
MARGIN
  1
CELLMARGIN_BEGIN
 40
0.06
 40
0.06
 40
0.06
 40
0.06
 40
0.18
 40
0.18
309
CELLMARGIN_END
 94
        6
 95
        1
302
GRIDFORMAT
  1
GRIDFORMAT_BEGIN
 90
        0
 91
        1
 62
     0
 92
       -2
340
0
 93
        0
 40
0.045
309
GRIDFORMAT_END
 95
        2
302
GRIDFORMAT
  1
GRIDFORMAT_BEGIN
 90
        0
 91
        1
 62
     0
 92
       -2
340
0
 93
        0
 40
0.045
309
GRIDFORMAT_END
 95
        4
302
GRIDFORMAT
  1
GRIDFORMAT_BEGIN
 90
        0
 91
        1
 62
     0
 92
       -2
340
0
 93
        0
 40
0.045
309
GRIDFORMAT_END
 95
        8
302
GRIDFORMAT
  1
GRIDFORMAT_BEGIN
 90
        0
 91
        1
 62
     0
 92
       -2
340
0
 93
        0
 40
0.045
309
GRIDFORMAT_END
 95
       16
302
GRIDFORMAT
  1
GRIDFORMAT_BEGIN
 90
        0
 91
        1
 62
     0
 92
       -2
340
0
 93
        0
 40
0.045
309
GRIDFORMAT_END
 95
       32
302
GRIDFORMAT
  1
GRIDFORMAT_BEGIN
 90
        0
 91
        1
 62
     0
 92
       -2
340
0
 93
        0
 40
0.045
309
GRIDFORMAT_END
309
TABLEFORMAT_END
  1
CELLSTYLE_BEGIN
 90
        1
 91
        1
300
_TITLE
309
CELLSTYLE_END
300
CELLSTYLE
  1
TABLEFORMAT_BEGIN
 90
        5
170
     1
 91
        0
 92
        0
 62
   257
 93
        1
300
CONTENTFORMAT
  1
CONTENTFORMAT_BEGIN
 90
        0
 91
        0
 92
      512
 93
        0
300

 40
0.0
140
1.0
 94
        5
 62
     0
340
55
144
0.18
309
CONTENTFORMAT_END
171
     1
301
MARGIN
  1
CELLMARGIN_BEGIN
 40
0.06
 40
0.06
 40
0.06
 40
0.06
 40
0.18
 40
0.18
309
CELLMARGIN_END
 94
        6
 95
        1
302
GRIDFORMAT
  1
GRIDFORMAT_BEGIN
 90
        0
 91
        1
 62
     0
 92
       -2
340
0
 93
        0
 40
0.045
309
GRIDFORMAT_END
 95
        2
302
GRIDFORMAT
  1
GRIDFORMAT_BEGIN
 90
        0
 91
        1
 62
     0
 92
       -2
340
0
 93
        0
 40
0.045
309
GRIDFORMAT_END
 95
        4
302
GRIDFORMAT
  1
GRIDFORMAT_BEGIN
 90
        0
 91
        1
 62
     0
 92
       -2
340
0
 93
        0
 40
0.045
309
GRIDFORMAT_END
 95
        8
302
GRIDFORMAT
  1
GRIDFORMAT_BEGIN
 90
        0
 91
        1
 62
     0
 92
       -2
340
0
 93
        0
 40
0.045
309
GRIDFORMAT_END
 95
       16
302
GRIDFORMAT
  1
GRIDFORMAT_BEGIN
 90
        0
 91
        1
 62
     0
 92
       -2
340
0
 93
        0
 40
0.045
309
GRIDFORMAT_END
 95
       32
302
GRIDFORMAT
  1
GRIDFORMAT_BEGIN
 90
        0
 91
        1
 62
     0
 92
       -2
340
0
 93
        0
 40
0.045
309
GRIDFORMAT_END
309
TABLEFORMAT_END
  1
CELLSTYLE_BEGIN
 90
        2
 91
        1
300
_HEADER
309
CELLSTYLE_END
300
CELLSTYLE
  1
TABLEFORMAT_BEGIN
 90
        5
170
     1
 91
        0
 92
        0
 62
   257
 93
        1
300
CONTENTFORMAT
  1
CONTENTFORMAT_BEGIN
 90
        0
 91
        0
 92
      512
 93
        0
300

 40
0.0
140
1.0
 94
        2
 62
     0
340
55
144
0.18
309
CONTENTFORMAT_END
171
     1
301
MARGIN
  1
CELLMARGIN_BEGIN
 40
0.06
 40
0.06
 40
0.06
 40
0.06
 40
0.18
 40
0.18
309
CELLMARGIN_END
 94
        6
 95
        1
302
GRIDFORMAT
  1
GRIDFORMAT_BEGIN
 90
        0
 91
        1
 62
     0
 92
       -2
340
0
 93
        0
 40
0.045
309
GRIDFORMAT_END
 95
        2
302
GRIDFORMAT
  1
GRIDFORMAT_BEGIN
 90
        0
 91
        1
 62
     0
 92
       -2
340
0
 93
        0
 40
0.045
309
GRIDFORMAT_END
 95
        4
302
GRIDFORMAT
  1
GRIDFORMAT_BEGIN
 90
        0
 91
        1
 62
     0
 92
       -2
340
0
 93
        0
 40
0.045
309
GRIDFORMAT_END
 95
        8
302
GRIDFORMAT
  1
GRIDFORMAT_BEGIN
 90
        0
 91
        1
 62
     0
 92
       -2
340
0
 93
        0
 40
0.045
309
GRIDFORMAT_END
 95
       16
302
GRIDFORMAT
  1
GRIDFORMAT_BEGIN
 90
        0
 91
        1
 62
     0
 92
       -2
340
0
 93
        0
 40
0.045
309
GRIDFORMAT_END
 95
       32
302
GRIDFORMAT
  1
GRIDFORMAT_BEGIN
 90
        0
 91
        1
 62
     0
 92
       -2
340
0
 93
        0
 40
0.045
309
GRIDFORMAT_END
309
TABLEFORMAT_END
  1
CELLSTYLE_BEGIN
 90
        3
 91
        2
300
_DATA
309
CELLSTYLE_END
  0
ENDSEC
  0
EOF
