  0
SECTION
  2
HEADER
  9
$ACADVER
  1
AC1027
  9
$ACADMAINTVER
 70
   125
  9
$DWGCODEPAGE
  3
ANSI_1252
  9
$LASTSAVEDBY
  1
fleminab
  9
$REQUIREDVERSIONS
160
                 0
  9
$INSBASE
 10
0.0
 20
0.0
 30
0.0
  9
$EXTMIN
 10
929.930871683271
 20
723.2775198491381
 30
0.0
  9
$EXTMAX
 10
4191.107342271509
 20
3243.277519849139
 30
0.0
  9
$LIMMIN
 10
0.0
 20
0.0
  9
$LIMMAX
 10
420.0
 20
297.0
  9
$ORTHOMODE
 70
     1
  9
$REGENMODE
 70
     1
  9
$FILLMODE
 70
     1
  9
$QTEXTMODE
 70
     0
  9
$MIRRTEXT
 70
     0
  9
$LTSCALE
 40
1.0
  9
$ATTMODE
 70
     1
  9
$TEXTSIZE
 40
2.5
  9
$TRACEWID
 40
1.0
  9
$TEXTSTYLE
  7
Standard
  9
$CLAYER
  8
标注
  9
$CELTYPE
  6
ByLayer
  9
$CECOLOR
 62
   256
  9
$CELTSCALE
 40
1.0
  9
$DISPSILH
 70
     0
  9
$DIMSCALE
 40
1.0
  9
$DIMASZ
 40
2.5
  9
$DIMEXO
 40
0.625
  9
$DIMDLI
 40
3.75
  9
$DIMRND
 40
0.0
  9
$DIMDLE
 40
0.0
  9
$DIMEXE
 40
1.25
  9
$DIMTP
 40
0.0
  9
$DIMTM
 40
0.0
  9
$DIMTXT
 40
30.0
  9
$DIMCEN
 40
2.5
  9
$DIMTSZ
 40
0.0
  9
$DIMTOL
 70
     0
  9
$DIMLIM
 70
     0
  9
$DIMTIH
 70
     0
  9
$DIMTOH
 70
     0
  9
$DIMSE1
 70
     0
  9
$DIMSE2
 70
     0
  9
$DIMTAD
 70
     1
  9
$DIMZIN
 70
     8
  9
$DIMBLK
  1
ClosedBlank
  9
$DIMASO
 70
     1
  9
$DIMSHO
 70
     1
  9
$DIMPOST
  1

  9
$DIMAPOST
  1

  9
$DIMALT
 70
     0
  9
$DIMALTD
 70
     3
  9
$DIMALTF
 40
0.03937007874016
  9
$DIMLFAC
 40
1.0
  9
$DIMTOFL
 70
     1
  9
$DIMTVP
 40
0.0
  9
$DIMTIX
 70
     0
  9
$DIMSOXD
 70
     0
  9
$DIMSAH
 70
     0
  9
$DIMBLK1
  1

  9
$DIMBLK2
  1

  9
$DIMSTYLE
  2
线性标注
  9
$DIMCLRD
 70
     0
  9
$DIMCLRE
 70
     0
  9
$DIMCLRT
 70
     0
  9
$DIMTFAC
 40
1.0
  9
$DIMGAP
 40
0.625
  9
$DIMJUST
 70
     0
  9
$DIMSD1
 70
     0
  9
$DIMSD2
 70
     0
  9
$DIMTOLJ
 70
     0
  9
$DIMTZIN
 70
     8
  9
$DIMALTZ
 70
     0
  9
$DIMALTTZ
 70
     0
  9
$DIMUPT
 70
     0
  9
$DIMDEC
 70
     1
  9
$DIMTDEC
 70
     1
  9
$DIMALTU
 70
     2
  9
$DIMALTTD
 70
     3
  9
$DIMTXSTY
  7
Standard
  9
$DIMAUNIT
 70
     0
  9
$DIMADEC
 70
     0
  9
$DIMALTRND
 40
0.0
  9
$DIMAZIN
 70
     0
  9
$DIMDSEP
 70
    46
  9
$DIMATFIT
 70
     3
  9
$DIMFRAC
 70
     0
  9
$DIMLDRBLK
  1

  9
$DIMLUNIT
 70
     2
  9
$DIMLWD
 70
    -2
  9
$DIMLWE
 70
    -2
  9
$DIMTMOVE
 70
     0
  9
$DIMFXL
 40
1.0
  9
$DIMFXLON
 70
     0
  9
$DIMJOGANG
 40
0.7853981633974483
  9
$DIMTFILL
 70
     0
  9
$DIMTFILLCLR
 70
     0
  9
$DIMARCSYM
 70
     0
  9
$DIMLTYPE
  6

  9
$DIMLTEX1
  6

  9
$DIMLTEX2
  6

  9
$DIMTXTDIRECTION
 70
     0
  9
$LUNITS
 70
     2
  9
$LUPREC
 70
     4
  9
$SKETCHINC
 40
1.0
  9
$FILLETRAD
 40
0.0
  9
$AUNITS
 70
     0
  9
$AUPREC
 70
     0
  9
$MENU
  1
.
  9
$ELEVATION
 40
0.0
  9
$PELEVATION
 40
0.0
  9
$THICKNESS
 40
0.0
  9
$LIMCHECK
 70
     0
  9
$CHAMFERA
 40
0.0
  9
$CHAMFERB
 40
0.0
  9
$CHAMFERC
 40
0.0
  9
$CHAMFERD
 40
0.0
  9
$SKPOLY
 70
     0
  9
$TDCREATE
 40
2455185.805810185
  9
$TDUCREATE
 40
2455185.347484086
  9
$TDUPDATE
 40
2458015.650370371
  9
$TDUUPDATE
 40
2458015.233703704
  9
$TDINDWG
 40
0.1280566088
  9
$TDUSRTIMER
 40
0.1280564236
  9
$USRTIMER
 70
     1
  9
$ANGBASE
 50
0.0
  9
$ANGDIR
 70
     0
  9
$PDMODE
 70
     0
  9
$PDSIZE
 40
0.0
  9
$PLINEWID
 40
0.0
  9
$SPLFRAME
 70
     0
  9
$SPLINETYPE
 70
     6
  9
$SPLINESEGS
 70
     8
  9
$HANDSEED
  5
E5B
  9
$SURFTAB1
 70
     6
  9
$SURFTAB2
 70
     6
  9
$SURFTYPE
 70
     6
  9
$SURFU
 70
     6
  9
$SURFV
 70
     6
  9
$UCSBASE
  2

  9
$UCSNAME
  2

  9
$UCSORG
 10
0.0
 20
0.0
 30
0.0
  9
$UCSXDIR
 10
1.0
 20
0.0
 30
0.0
  9
$UCSYDIR
 10
0.0
 20
1.0
 30
0.0
  9
$UCSORTHOREF
  2

  9
$UCSORTHOVIEW
 70
     0
  9
$UCSORGTOP
 10
0.0
 20
0.0
 30
0.0
  9
$UCSORGBOTTOM
 10
0.0
 20
0.0
 30
0.0
  9
$UCSORGLEFT
 10
0.0
 20
0.0
 30
0.0
  9
$UCSORGRIGHT
 10
0.0
 20
0.0
 30
0.0
  9
$UCSORGFRONT
 10
0.0
 20
0.0
 30
0.0
  9
$UCSORGBACK
 10
0.0
 20
0.0
 30
0.0
  9
$PUCSBASE
  2

  9
$PUCSNAME
  2

  9
$PUCSORG
 10
0.0
 20
0.0
 30
0.0
  9
$PUCSXDIR
 10
1.0
 20
0.0
 30
0.0
  9
$PUCSYDIR
 10
0.0
 20
1.0
 30
0.0
  9
$PUCSORTHOREF
  2

  9
$PUCSORTHOVIEW
 70
     0
  9
$PUCSORGTOP
 10
0.0
 20
0.0
 30
0.0
  9
$PUCSORGBOTTOM
 10
0.0
 20
0.0
 30
0.0
  9
$PUCSORGLEFT
 10
0.0
 20
0.0
 30
0.0
  9
$PUCSORGRIGHT
 10
0.0
 20
0.0
 30
0.0
  9
$PUCSORGFRONT
 10
0.0
 20
0.0
 30
0.0
  9
$PUCSORGBACK
 10
0.0
 20
0.0
 30
0.0
  9
$USERI1
 70
     0
  9
$USERI2
 70
     0
  9
$USERI3
 70
     0
  9
$USERI4
 70
     0
  9
$USERI5
 70
     0
  9
$USERR1
 40
0.0
  9
$USERR2
 40
0.0
  9
$USERR3
 40
0.0
  9
$USERR4
 40
0.0
  9
$USERR5
 40
0.0
  9
$WORLDVIEW
 70
     1
  9
$SHADEDGE
 70
     3
  9
$SHADEDIF
 70
    70
  9
$TILEMODE
 70
     1
  9
$MAXACTVP
 70
    64
  9
$PINSBASE
 10
0.0
 20
0.0
 30
0.0
  9
$PLIMCHECK
 70
     0
  9
$PEXTMIN
 10
0.0
 20
0.0
 30
0.0
  9
$PEXTMAX
 10
0.0
 20
0.0
 30
0.0
  9
$PLIMMIN
 10
0.0
 20
0.0
  9
$PLIMMAX
 10
12.0
 20
9.0
  9
$UNITMODE
 70
     0
  9
$VISRETAIN
 70
     1
  9
$PLINEGEN
 70
     0
  9
$PSLTSCALE
 70
     1
  9
$TREEDEPTH
 70
  3020
  9
$CMLSTYLE
  2
Standard
  9
$CMLJUST
 70
     0
  9
$CMLSCALE
 40
20.0
  9
$PROXYGRAPHICS
 70
     1
  9
$MEASUREMENT
 70
     1
  9
$CELWEIGHT
370
    -1
  9
$ENDCAPS
280
     0
  9
$JOINSTYLE
280
     0
  9
$LWDISPLAY
290
     0
  9
$INSUNITS
 70
     4
  9
$HYPERLINKBASE
  1

  9
$STYLESHEET
  1
grayscaleDS.ctb
  9
$XEDIT
290
     1
  9
$CEPSNTYPE
380
     0
  9
$PSTYLEMODE
290
     1
  9
$FINGERPRINTGUID
  2
{9591E2A3-AC33-4850-860A-628CD428E8A6}
  9
$VERSIONGUID
  2
{71401BFB-9370-144A-A4E1-733AA03FD871}
  9
$EXTNAMES
290
     1
  9
$PSVPSCALE
 40
0.0
  9
$OLESTARTUP
290
     0
  9
$SORTENTS
280
   127
  9
$INDEXCTL
280
     0
  9
$HIDETEXT
280
     1
  9
$XCLIPFRAME
280
     2
  9
$HALOGAP
280
     0
  9
$OBSCOLOR
 70
   257
  9
$OBSLTYPE
280
     0
  9
$INTERSECTIONDISPLAY
280
     0
  9
$INTERSECTIONCOLOR
 70
   257
  9
$DIMASSOC
280
     2
  9
$PROJECTNAME
  1

  9
$CAMERADISPLAY
290
     0
  9
$LENSLENGTH
 40
50.0
  9
$CAMERAHEIGHT
 40
0.0
  9
$STEPSPERSEC
 40
2.0
  9
$STEPSIZE
 40
6.0
  9
$3DDWFPREC
 40
2.0
  9
$PSOLWIDTH
 40
5.0
  9
$PSOLHEIGHT
 40
80.0
  9
$LOFTANG1
 40
1.570796326794896
  9
$LOFTANG2
 40
1.570796326794896
  9
$LOFTMAG1
 40
0.0
  9
$LOFTMAG2
 40
0.0
  9
$LOFTPARAM
 70
     7
  9
$LOFTNORMALS
280
     1
  9
$LATITUDE
 40
37.795
  9
$LONGITUDE
 40
-122.394
  9
$NORTHDIRECTION
 40
0.0
  9
$TIMEZONE
 70
 -8000
  9
$LIGHTGLYPHDISPLAY
280
     1
  9
$TILEMODELIGHTSYNCH
280
     1
  9
$CMATERIAL
347
EC
  9
$SOLIDHIST
280
     0
  9
$SHOWHIST
280
     1
  9
$DWFFRAME
280
     2
  9
$DGNFRAME
280
     0
  9
$REALWORLDSCALE
290
     1
  9
$INTERFERECOLOR
 62
     1
  9
$INTERFEREOBJVS
345
F9
  9
$INTERFEREVPVS
346
915
  9
$CSHADOW
280
     0
  9
$SHADOWPLANELOCATION
 40
0.0
  0
ENDSEC
  0
SECTION
  2
CLASSES
  0
CLASS
  1
ACDBDICTIONARYWDFLT
  2
AcDbDictionaryWithDefault
  3
ObjectDBX Classes
 90
        0
 91
        1
280
     0
281
     0
  0
CLASS
  1
DICTIONARYVAR
  2
AcDbDictionaryVar
  3
ObjectDBX Classes
 90
        0
 91
       19
280
     0
281
     0
  0
CLASS
  1
TABLESTYLE
  2
AcDbTableStyle
  3
ObjectDBX Classes
 90
     4095
 91
        1
280
     0
281
     0
  0
CLASS
  1
MATERIAL
  2
AcDbMaterial
  3
ObjectDBX Classes
 90
     1153
 91
        3
280
     0
281
     0
  0
CLASS
  1
VISUALSTYLE
  2
AcDbVisualStyle
  3
ObjectDBX Classes
 90
     4095
 91
       26
280
     0
281
     0
  0
CLASS
  1
SCALE
  2
AcDbScale
  3
ObjectDBX Classes
 90
     1153
 91
       33
280
     0
281
     0
  0
CLASS
  1
MLEADERSTYLE
  2
AcDbMLeaderStyle
  3
ACDB_MLEADERSTYLE_CLASS
 90
     4095
 91
        2
280
     0
281
     0
  0
CLASS
  1
CELLSTYLEMAP
  2
AcDbCellStyleMap
  3
ObjectDBX Classes
 90
     1152
 91
        2
280
     0
281
     0
  0
CLASS
  1
SORTENTSTABLE
  2
AcDbSortentsTable
  3
ObjectDBX Classes
 90
        0
 91
        1
280
     0
281
     0
  0
CLASS
  1
SOLID_BACKGROUND
  2
AcDbSolidBackground
  3
SCENEOE
 90
     4095
 91
        0
280
     0
281
     0
  0
CLASS
  1
NPOCOLLECTION
  2
AcDbImpNonPersistentObjectsCollection
  3
ObjectDBX Classes
 90
     1153
 91
        0
280
     0
281
     0
  0
CLASS
  1
DIMASSOC
  2
AcDbDimAssoc
  3
"AcDbDimAssoc|Product Desc:     AcDim ARX App For Dimension|Company:          Autodesk, Inc.|WEB Address:      www.autodesk.com"
 90
        0
 91
        1
280
     0
281
     0
  0
CLASS
  1
ACDBSECTIONVIEWSTYLE
  2
AcDbSectionViewStyle
  3
ObjectDBX Classes
 90
     1025
 91
        1
280
     0
281
     0
  0
CLASS
  1
ACDBDETAILVIEWSTYLE
  2
AcDbDetailViewStyle
  3
ObjectDBX Classes
 90
     1025
 91
        1
280
     0
281
     0
  0
ENDSEC
  0
SECTION
  2
TABLES
  0
TABLE
  2
VPORT
  5
8
102
{ACAD_XDICTIONARY
360
720
102
}
330
0
100
AcDbSymbolTable
 70
     1
1001
ACAD
1000
DbSaveVer
1071
        5
  0
VPORT
  5
90B
330
8
100
AcDbSymbolTableRecord
100
AcDbViewportTableRecord
  2
*Active
 70
     0
 10
0.0
 20
0.0
 11
1.0
 21
1.0
 12
2628.419937060695
 22
2159.33421135925
 13
0.0
 23
0.0
 14
10.0
 24
10.0
 15
10.0
 25
10.0
 16
0.0
 26
0.0
 36
1.0
 17
0.0
 27
0.0
 37
0.0
 40
2455.59128724607
 41
2.292712066905615
 42
50.0
 43
0.0
 44
0.0
 50
0.0
 51
0.0
 71
     0
 72
  1000
 73
     1
 74
     3
 75
     0
 76
     0
 77
     0
 78
     0
281
     0
 65
     1
110
0.0
120
0.0
130
0.0
111
1.0
121
0.0
131
0.0
112
0.0
122
1.0
132
0.0
 79
     0
146
0.0
348
F5
 60
     2
 61
     5
292
     1
282
     1
141
0.0
142
0.0
 63
   250
421
  3355443
1001
ACAD_NAV_VCDISPLAY
1070
     3
  0
ENDTAB
  0
TABLE
  2
LTYPE
  5
5
330
0
100
AcDbSymbolTable
 70
     3
  0
LTYPE
  5
14
330
5
100
AcDbSymbolTableRecord
100
AcDbLinetypeTableRecord
  2
ByBlock
 70
     0
  3

 72
    65
 73
     0
 40
0.0
  0
LTYPE
  5
15
330
5
100
AcDbSymbolTableRecord
100
AcDbLinetypeTableRecord
  2
ByLayer
 70
     0
  3

 72
    65
 73
     0
 40
0.0
  0
LTYPE
  5
16
330
5
100
AcDbSymbolTableRecord
100
AcDbLinetypeTableRecord
  2
Continuous
 70
     0
  3
Solid line
 72
    65
 73
     0
 40
0.0
  0
LTYPE
  5
27C
330
5
100
AcDbSymbolTableRecord
100
AcDbLinetypeTableRecord
  2
CENTER
 70
     0
  3
Center ____ _ ____ _ ____ _ ____ _ ____ _ ____
 72
    65
 73
     4
 40
50.8
 49
31.75
 74
     0
 49
-6.349999999999998
 74
     0
 49
6.349999999999998
 74
     0
 49
-6.349999999999998
 74
     0
  0
LTYPE
  5
D43
330
5
100
AcDbSymbolTableRecord
100
AcDbLinetypeTableRecord
  2
ACAD_ISO02W100
 70
     0
  3
ISO dash __ __ __ __ __ __ __ __ __ __ __ __ __
 72
    65
 73
     2
 40
15.0
 49
12.0
 74
     0
 49
-3.0
 74
     0
  0
ENDTAB
  0
TABLE
  2
LAYER
  5
2
102
{ACAD_XDICTIONARY
360
28A
102
}
330
0
100
AcDbSymbolTable
 70
     7
  0
LAYER
  5
10
102
{ACAD_XDICTIONARY
360
13C
102
}
330
2
100
AcDbSymbolTableRecord
100
AcDbLayerTableRecord
  2
0
 70
     0
 62
     7
  6
Continuous
370
    35
390
F
347
EE
348
0
  0
LAYER
  5
27D
102
{ACAD_XDICTIONARY
360
27E
102
}
330
2
100
AcDbSymbolTableRecord
100
AcDbLayerTableRecord
  2
标注
 70
     0
 62
     3
  6
Continuous
370
     9
390
F
347
EE
348
0
1001
AcadStringInfo
1000
MIFCodePage
1070
     5
  0
LAYER
  5
27F
330
2
100
AcDbSymbolTableRecord
100
AcDbLayerTableRecord
  2
Defpoints
 70
     0
 62
     7
  6
Continuous
290
     0
370
    -3
390
F
347
EE
348
0
  0
LAYER
  5
280
102
{ACAD_XDICTIONARY
360
281
102
}
330
2
100
AcDbSymbolTableRecord
100
AcDbLayerTableRecord
  2
中心线
 70
     0
 62
     1
  6
CENTER
370
     9
390
F
347
EE
348
0
1001
AcadStringInfo
1000
MIFCodePage
1070
     5
  0
LAYER
  5
282
102
{ACAD_XDICTIONARY
360
283
102
}
330
2
100
AcDbSymbolTableRecord
100
AcDbLayerTableRecord
  2
03___PRT_ALL_CURVES
 70
     0
 62
     7
  6
Continuous
370
    -3
390
F
347
EE
348
0
  0
LAYER
  5
284
102
{ACAD_XDICTIONARY
360
285
102
}
330
2
100
AcDbSymbolTableRecord
100
AcDbLayerTableRecord
  2
图层1
 70
     0
 62
     7
  6
Continuous
370
    13
390
F
347
EE
348
0
1001
AcadStringInfo
1000
MIFCodePage
1070
     5
  0
LAYER
  5
D44
330
2
100
AcDbSymbolTableRecord
100
AcDbLayerTableRecord
  2
Hidden
 70
     0
 62
     2
  6
ACAD_ISO02W100
370
    30
390
F
347
EE
348
0
1001
AcAecLayerStandard
1000

1000

1001
AcCmTransparency
1071
        0
  0
ENDTAB
  0
TABLE
  2
STYLE
  5
3
330
0
100
AcDbSymbolTable
 70
     6
  0
STYLE
  5
11
330
3
100
AcDbSymbolTableRecord
100
AcDbTextStyleTableRecord
  2
Standard
 70
     0
 40
0.0
 41
1.0
 50
0.0
 71
     0
 42
2.5
  3
txt
  4
gbcbig.shx
  0
STYLE
  5
132
330
3
100
AcDbSymbolTableRecord
100
AcDbTextStyleTableRecord
  2
Annotative
 70
     0
 40
0.0
 41
1.0
 50
0.0
 71
     0
 42
2.5
  3
txt.shx
  4
gbcbig.shx
1001
AcadAnnotative
1000
AnnotativeData
1002
{
1070
     1
1070
     1
1002
}
  0
STYLE
  5
286
330
3
100
AcDbSymbolTableRecord
100
AcDbTextStyleTableRecord
  2
样式 1
 70
     0
 40
0.0
 41
1.0
 50
0.0
 71
     0
 42
4.5
  3

  4

1001
ACAD
1000
LiSu
1071
    34353
1001
AcadStringInfo
1000
MIFCodePage
1070
     5
  0
STYLE
  5
287
330
3
100
AcDbSymbolTableRecord
100
AcDbTextStyleTableRecord
  2
黑体
 70
     0
 40
0.0
 41
1.0
 50
0.0
 71
     0
 42
6.0
  3
simhei.ttf
  4

1001
ACAD
1000
SimHei
1071
    34306
1001
AcadStringInfo
1000
MIFCodePage
1070
     5
  0
STYLE
  5
823
330
3
100
AcDbSymbolTableRecord
100
AcDbTextStyleTableRecord
  2
GN3
 70
     0
 40
0.156
 41
1.0
 50
0.0
 71
     0
 42
0.2
  3
ROMANK
  4

  0
STYLE
  5
824
330
3
100
AcDbSymbolTableRecord
100
AcDbTextStyleTableRecord
  2
GN4
 70
     0
 40
0.188
 41
1.0
 50
0.0
 71
     0
 42
0.2
  3
ROMAND
  4

  0
ENDTAB
  0
TABLE
  2
VIEW
  5
6
330
0
100
AcDbSymbolTable
 70
     0
  0
ENDTAB
  0
TABLE
  2
UCS
  5
7
330
0
100
AcDbSymbolTable
 70
     0
  0
ENDTAB
  0
TABLE
  2
APPID
  5
9
330
0
100
AcDbSymbolTable
 70
    19
  0
APPID
  5
12
330
9
100
AcDbSymbolTableRecord
100
AcDbRegAppTableRecord
  2
ACAD
 70
     0
  0
APPID
  5
9E
330
9
100
AcDbSymbolTableRecord
100
AcDbRegAppTableRecord
  2
ACAD_PSEXT
 70
     0
  0
APPID
  5
133
330
9
100
AcDbSymbolTableRecord
100
AcDbRegAppTableRecord
  2
AcadAnnoPO
 70
     0
  0
APPID
  5
134
330
9
100
AcDbSymbolTableRecord
100
AcDbRegAppTableRecord
  2
AcadAnnotative
 70
     0
  0
APPID
  5
135
330
9
100
AcDbSymbolTableRecord
100
AcDbRegAppTableRecord
  2
ACAD_DSTYLE_DIMJAG
 70
     0
  0
APPID
  5
136
330
9
100
AcDbSymbolTableRecord
100
AcDbRegAppTableRecord
  2
ACAD_DSTYLE_DIMTALN
 70
     0
  0
APPID
  5
165
330
9
100
AcDbSymbolTableRecord
100
AcDbRegAppTableRecord
  2
ACAD_MLEADERVER
 70
     0
  0
APPID
  5
289
330
9
100
AcDbSymbolTableRecord
100
AcDbRegAppTableRecord
  2
ACAD_DSTYLE_DIMRADIAL_EXTENSION
 70
     0
  0
APPID
  5
5E8
330
9
100
AcDbSymbolTableRecord
100
AcDbRegAppTableRecord
  2
DCO15
 70
     0
  0
APPID
  5
750
330
9
100
AcDbSymbolTableRecord
100
AcDbRegAppTableRecord
  2
ACAD_EXEMPT_FROM_CAD_STANDARDS
 70
     0
  0
APPID
  5
825
330
9
100
AcDbSymbolTableRecord
100
AcDbRegAppTableRecord
  2
ACAD_DSTYLE_DIMEXT_LENGTH
 70
     0
  0
APPID
  5
826
330
9
100
AcDbSymbolTableRecord
100
AcDbRegAppTableRecord
  2
ACAD_DSTYLE_DIMEXT_ENABLED
 70
     0
  0
APPID
  5
827
330
9
100
AcDbSymbolTableRecord
100
AcDbRegAppTableRecord
  2
ACAD_DSTYLE_DIMJOGGED_JOGANGLE_SYMBOL
 70
     0
  0
APPID
  5
828
330
9
100
AcDbSymbolTableRecord
100
AcDbRegAppTableRecord
  2
ACAD_DSTYLE_DIMARC_LENGTH_SYMBOL
 70
     0
  0
APPID
  5
829
330
9
100
AcDbSymbolTableRecord
100
AcDbRegAppTableRecord
  2
PSP
 70
     0
  0
APPID
  5
91F
330
9
100
AcDbSymbolTableRecord
100
AcDbRegAppTableRecord
  2
AcadStringInfo
 70
     0
  0
APPID
  5
D45
330
9
100
AcDbSymbolTableRecord
100
AcDbRegAppTableRecord
  2
AcAecLayerStandard
 70
     0
  0
APPID
  5
D46
330
9
100
AcDbSymbolTableRecord
100
AcDbRegAppTableRecord
  2
AcCmTransparency
 70
     0
  0
APPID
  5
E4B
330
9
100
AcDbSymbolTableRecord
100
AcDbRegAppTableRecord
  2
ACAD_NAV_VCDISPLAY
 70
     0
  0
ENDTAB
  0
TABLE
  2
DIMSTYLE
  5
A
330
0
100
AcDbSymbolTable
 70
     4
100
AcDbDimStyleTable
 71
     3
340
288
340
27
340
137
  0
DIMSTYLE
105
27
102
{ACAD_REACTORS
330
670
330
68F
102
}
330
A
100
AcDbSymbolTableRecord
100
AcDbDimStyleTableRecord
  2
ISO-25
 70
     0
 41
2.5
 42
0.625
 43
3.75
 44
1.25
 73
     0
 74
     0
 77
     1
 78
     8
140
2.5
141
2.5
143
0.03937007874016
147
0.625
171
     3
172
     1
271
     2
272
     2
274
     3
278
    44
283
     0
284
     8
340
11
  0
DIMSTYLE
105
137
330
A
100
AcDbSymbolTableRecord
100
AcDbDimStyleTableRecord
  2
Annotative
 70
     0
 40
0.0
 41
2.5
 42
0.625
 43
3.75
 44
1.25
 73
     0
 74
     0
 77
     1
 78
     8
140
2.5
141
2.5
143
0.03937007874016
147
0.625
171
     3
172
     1
271
     2
272
     2
274
     3
278
    44
283
     0
284
     8
340
11
1001
AcadAnnotative
1000
AnnotativeData
1002
{
1070
     1
1070
     1
1002
}
1001
ACAD_DSTYLE_DIMJAG
1070
   388
1040
1.5
1001
ACAD_DSTYLE_DIMTALN
1070
   392
1070
     0
  0
DIMSTYLE
105
288
102
{ACAD_REACTORS
330
429
330
42A
330
42B
330
42C
330
42E
330
42F
330
430
330
431
330
432
330
433
330
799
330
98D
330
A00
330
B46
330
B47
330
B48
330
B56
330
B57
102
}
330
A
100
AcDbSymbolTableRecord
100
AcDbDimStyleTableRecord
  2
线性标注
 70
     0
 41
2.5
 42
0.625
 43
3.75
 44
1.25
 73
     0
 74
     0
 77
     1
 78
     8
140
30.0
141
2.5
143
0.03937007874016
147
0.625
171
     3
172
     1
271
     1
272
     1
274
     3
283
     0
284
     8
340
11
342
1B1
1001
ACAD_DSTYLE_DIMJAG
1070
   388
1040
1.5
1001
ACAD_DSTYLE_DIMTALN
1070
   392
1070
     0
1001
AcadStringInfo
1000
MIFCodePage
1070
     5
  0
DIMSTYLE
105
5E7
330
A
100
AcDbSymbolTableRecord
100
AcDbDimStyleTableRecord
  2
STANDARD
 70
     0
 41
0.1875
 47
0.01
 48
0.01
 78
     4
140
0.15625
271
     2
272
     2
284
     4
340
11
  0
ENDTAB
  0
TABLE
  2
BLOCK_RECORD
  5
1
330
0
100
AcDbSymbolTable
 70
    22
  0
BLOCK_RECORD
  5
1F
102
{ACAD_XDICTIONARY
360
965
102
}
330
1
100
AcDbSymbolTableRecord
100
AcDbBlockTableRecord
  2
*Model_Space
340
22
 70
     0
280
     1
281
     0
  0
BLOCK_RECORD
  5
D2
330
1
100
AcDbSymbolTableRecord
100
AcDbBlockTableRecord
  2
*Paper_Space
340
D3
 70
     0
280
     1
281
     0
  0
BLOCK_RECORD
  5
D6
330
1
100
AcDbSymbolTableRecord
100
AcDbBlockTableRecord
  2
*Paper_Space0
340
D7
 70
     0
280
     1
281
     0
  0
BLOCK_RECORD
  5
1B1
330
1
100
AcDbSymbolTableRecord
100
AcDbBlockTableRecord
  2
_ClosedBlank
340
0
102
{BLKREFS
331
A76
331
A7C
331
A82
331
A89
331
A8A
331
A99
331
A9A
331
AA3
331
AA4
331
A3E
331
A3F
331
A47
331
A48
331
A51
331
A52
331
A5A
331
A5B
331
A64
331
A65
331
A6D
331
A6E
331
7E1
331
7E2
331
B97
331
B98
331
BA1
331
BA2
331
BA9
331
BAA
331
BB0
331
BDA
331
BDB
102
}
 70
     0
280
     1
281
     0
  0
BLOCK_RECORD
  5
48F
330
1
100
AcDbSymbolTableRecord
100
AcDbBlockTableRecord
  2
*D2
340
0
 70
     0
280
     1
281
     0
  0
BLOCK_RECORD
  5
49B
330
1
100
AcDbSymbolTableRecord
100
AcDbBlockTableRecord
  2
*D3
340
0
 70
     0
280
     1
281
     0
  0
BLOCK_RECORD
  5
4A7
330
1
100
AcDbSymbolTableRecord
100
AcDbBlockTableRecord
  2
*D4
340
0
 70
     0
280
     1
281
     0
  0
BLOCK_RECORD
  5
4B4
330
1
100
AcDbSymbolTableRecord
100
AcDbBlockTableRecord
  2
*D5
340
0
 70
     0
280
     1
281
     0
  0
BLOCK_RECORD
  5
4CC
330
1
100
AcDbSymbolTableRecord
100
AcDbBlockTableRecord
  2
*D6
340
0
 70
     0
280
     1
281
     0
  0
BLOCK_RECORD
  5
4D9
330
1
100
AcDbSymbolTableRecord
100
AcDbBlockTableRecord
  2
*D7
340
0
 70
     0
280
     1
281
     0
  0
BLOCK_RECORD
  5
4E5
330
1
100
AcDbSymbolTableRecord
100
AcDbBlockTableRecord
  2
*D8
340
0
 70
     0
280
     1
281
     0
  0
BLOCK_RECORD
  5
4EE
330
1
100
AcDbSymbolTableRecord
100
AcDbBlockTableRecord
  2
*D9
340
0
 70
     0
280
     1
281
     0
  0
BLOCK_RECORD
  5
4F7
330
1
100
AcDbSymbolTableRecord
100
AcDbBlockTableRecord
  2
*D10
340
0
 70
     0
280
     1
281
     0
  0
BLOCK_RECORD
  5
500
330
1
100
AcDbSymbolTableRecord
100
AcDbBlockTableRecord
  2
*D11
340
0
 70
     0
280
     1
281
     0
  0
BLOCK_RECORD
  5
671
330
1
100
AcDbSymbolTableRecord
100
AcDbBlockTableRecord
  2
*D12
340
0
 70
     0
280
     1
281
     0
  0
BLOCK_RECORD
  5
690
330
1
100
AcDbSymbolTableRecord
100
AcDbBlockTableRecord
  2
*D13
340
0
 70
     0
280
     1
281
     0
  0
BLOCK_RECORD
  5
79A
330
1
100
AcDbSymbolTableRecord
100
AcDbBlockTableRecord
  2
*D14
340
0
 70
     0
280
     1
281
     0
  0
BLOCK_RECORD
  5
98E
330
1
100
AcDbSymbolTableRecord
100
AcDbBlockTableRecord
  2
*D15
340
0
 70
     0
280
     1
281
     0
  0
BLOCK_RECORD
  5
A01
330
1
100
AcDbSymbolTableRecord
100
AcDbBlockTableRecord
  2
*D16
340
0
 70
     0
280
     1
281
     0
  0
BLOCK_RECORD
  5
B5B
330
1
100
AcDbSymbolTableRecord
100
AcDbBlockTableRecord
  2
*D17
340
0
 70
     0
280
     1
281
     0
  0
BLOCK_RECORD
  5
B68
330
1
100
AcDbSymbolTableRecord
100
AcDbBlockTableRecord
  2
*D18
340
0
 70
     0
280
     1
281
     0
  0
BLOCK_RECORD
  5
B73
330
1
100
AcDbSymbolTableRecord
100
AcDbBlockTableRecord
  2
*D19
340
0
 70
     0
280
     1
281
     0
  0
BLOCK_RECORD
  5
B7E
330
1
100
AcDbSymbolTableRecord
100
AcDbBlockTableRecord
  2
*D20
340
0
 70
     0
280
     1
281
     0
  0
BLOCK_RECORD
  5
B87
330
1
100
AcDbSymbolTableRecord
100
AcDbBlockTableRecord
  2
*D21
340
0
 70
     0
280
     1
281
     0
  0
ENDTAB
  0
ENDSEC
  0
SECTION
  2
BLOCKS
  0
BLOCK
  5
20
330
1F
100
AcDbEntity
  8
0
100
AcDbBlockBegin
  2
*Model_Space
 70
     0
 10
0.0
 20
0.0
 30
0.0
  3
*Model_Space
  1

  0
ENDBLK
  5
21
330
1F
100
AcDbEntity
  8
0
100
AcDbBlockEnd
  0
BLOCK
  5
D4
330
D2
100
AcDbEntity
 67
     1
  8
0
100
AcDbBlockBegin
  2
*Paper_Space
 70
     0
 10
0.0
 20
0.0
 30
0.0
  3
*Paper_Space
  1

  0
ENDBLK
  5
D5
330
D2
100
AcDbEntity
 67
     1
  8
0
100
AcDbBlockEnd
  0
BLOCK
  5
D8
330
D6
100
AcDbEntity
 67
     1
  8
0
100
AcDbBlockBegin
  2
*Paper_Space0
 70
     0
 10
0.0
 20
0.0
 30
0.0
  3
*Paper_Space0
  1

  0
ENDBLK
  5
D9
330
D6
100
AcDbEntity
 67
     1
  8
0
100
AcDbBlockEnd
  0
BLOCK
  5
1B2
330
1B1
100
AcDbEntity
  8
0
 48
0.2
100
AcDbBlockBegin
  2
_ClosedBlank
 70
     0
 10
0.0
 20
0.0
 30
0.0
  3
_ClosedBlank
  1

  0
LINE
  5
1B3
330
1B1
100
AcDbEntity
  8
0
  6
ByBlock
 62
     0
370
    -2
100
AcDbLine
 10
-1.0
 20
0.1666666666666666
 30
0.0
 11
0.0
 21
0.0
 31
0.0
  0
LINE
  5
1B4
330
1B1
100
AcDbEntity
  8
0
  6
ByBlock
 62
     0
370
    -2
100
AcDbLine
 10
0.0
 20
0.0
 30
0.0
 11
-1.0
 21
-0.1666666666666666
 31
0.0
  0
LINE
  5
1B5
330
1B1
100
AcDbEntity
  8
0
  6
ByBlock
 62
     0
370
    -2
100
AcDbLine
 10
-1.0
 20
0.1666666666666666
 30
0.0
 11
-1.0
 21
-0.1666666666666666
 31
0.0
  0
ENDBLK
  5
1B6
330
1B1
100
AcDbEntity
  8
0
 48
0.2
100
AcDbBlockEnd
  0
BLOCK
  5
490
330
48F
100
AcDbEntity
  8
0
100
AcDbBlockBegin
  2
*D2
 70
     1
 10
0.0
 20
0.0
 30
0.0
  3
*D2
  1

  0
LINE
  5
A3B
330
48F
100
AcDbEntity
  8
标注
 62
     0
440
 16777216
370
    -2
100
AcDbLine
 10
2538.066817065219
 20
2570.114794766484
 30
0.0
 11
2654.295407214544
 21
2570.114794766484
 31
0.0
  0
LINE
  5
A3C
330
48F
100
AcDbEntity
  8
标注
 62
     0
440
 16777216
370
    -2
100
AcDbLine
 10
2441.340148872754
 20
1970.114794766484
 30
0.0
 11
2654.295407214544
 21
1970.114794766484
 31
0.0
  0
LINE
  5
A3D
330
48F
100
AcDbEntity
  8
标注
 62
     0
440
 16777216
370
    -2
100
AcDbLine
 10
2653.045407214544
 20
2567.614794766484
 30
0.0
 11
2653.045407214544
 21
1972.614794766484
 31
0.0
  0
INSERT
  5
A3E
330
48F
100
AcDbEntity
  8
标注
 62
     0
440
 16777216
370
    -2
100
AcDbBlockReference
  2
_ClosedBlank
 10
2653.045407214544
 20
2570.114794766484
 30
0.0
 41
2.5
 42
2.5
 43
2.5
 50
90.0
  0
INSERT
  5
A3F
330
48F
100
AcDbEntity
  8
标注
 62
     0
440
 16777216
370
    -2
100
AcDbBlockReference
  2
_ClosedBlank
 10
2653.045407214544
 20
1970.114794766484
 30
0.0
 41
2.5
 42
2.5
 43
2.5
 50
270.0
  0
MTEXT
  5
A40
330
48F
100
AcDbEntity
  8
标注
 62
     0
440
 16777216
100
AcDbMText
 10
2637.420407214543
 20
2270.114794766485
 30
0.0
 40
30.0
 41
0.0
 46
0.0
 71
     5
 72
     1
  1
600
 11
0.0000000000000001
 21
1.0
 31
0.0
 73
     1
 44
1.0
  0
POINT
  5
A41
330
48F
100
AcDbEntity
  8
Defpoints
 62
     0
440
 16777216
100
AcDbPoint
 10
2537.441817065219
 20
2570.114794766484
 30
0.0
  0
POINT
  5
A42
330
48F
100
AcDbEntity
  8
Defpoints
 62
     0
440
 16777216
100
AcDbPoint
 10
2440.715148872754
 20
1970.114794766484
 30
0.0
  0
POINT
  5
A43
330
48F
100
AcDbEntity
  8
Defpoints
 62
     0
440
 16777216
100
AcDbPoint
 10
2653.045407214544
 20
1970.114794766484
 30
0.0
  0
ENDBLK
  5
491
330
48F
100
AcDbEntity
  8
0
100
AcDbBlockEnd
  0
BLOCK
  5
49C
330
49B
100
AcDbEntity
  8
0
100
AcDbBlockBegin
  2
*D3
 70
     1
 10
0.0
 20
0.0
 30
0.0
  3
*D3
  1

  0
LINE
  5
A44
330
49B
100
AcDbEntity
  8
标注
 62
     0
440
 16777216
370
    -2
100
AcDbLine
 10
2508.941817065217
 20
2024.489794766484
 30
0.0
 11
2508.941817065217
 21
1721.485151314395
 31
0.0
  0
LINE
  5
A45
330
49B
100
AcDbEntity
  8
标注
 62
     0
440
 16777216
370
    -2
100
AcDbLine
 10
1568.941817065218
 20
1969.489794766484
 30
0.0
 11
1568.941817065218
 21
1721.485151314395
 31
0.0
  0
LINE
  5
A46
330
49B
100
AcDbEntity
  8
标注
 62
     0
440
 16777216
370
    -2
100
AcDbLine
 10
2506.441817065217
 20
1722.735151314395
 30
0.0
 11
1571.441817065218
 21
1722.735151314395
 31
0.0
  0
INSERT
  5
A47
330
49B
100
AcDbEntity
  8
标注
 62
     0
440
 16777216
370
    -2
100
AcDbBlockReference
  2
_ClosedBlank
 10
2508.941817065217
 20
1722.735151314395
 30
0.0
 41
2.5
 42
2.5
 43
2.5
  0
INSERT
  5
A48
330
49B
100
AcDbEntity
  8
标注
 62
     0
440
 16777216
370
    -2
100
AcDbBlockReference
  2
_ClosedBlank
 10
1568.941817065218
 20
1722.735151314395
 30
0.0
 41
2.5
 42
2.5
 43
2.5
 50
180.0
  0
MTEXT
  5
A49
330
49B
100
AcDbEntity
  8
标注
 62
     0
440
 16777216
100
AcDbMText
 10
2038.941817065218
 20
1738.360151314395
 30
0.0
 40
30.0
 41
0.0
 46
0.0
 71
     5
 72
     1
  1
940
 73
     1
 44
1.0
  0
POINT
  5
A4A
330
49B
100
AcDbEntity
  8
Defpoints
 62
     0
440
 16777216
100
AcDbPoint
 10
2508.941817065217
 20
2025.114794766484
 30
0.0
  0
POINT
  5
A4B
330
49B
100
AcDbEntity
  8
Defpoints
 62
     0
440
 16777216
100
AcDbPoint
 10
1568.941817065218
 20
1970.114794766484
 30
0.0
  0
POINT
  5
A4C
330
49B
100
AcDbEntity
  8
Defpoints
 62
     0
440
 16777216
100
AcDbPoint
 10
1568.941817065218
 20
1722.735151314395
 30
0.0
  0
ENDBLK
  5
49D
330
49B
100
AcDbEntity
  8
0
100
AcDbBlockEnd
  0
BLOCK
  5
4A8
330
4A7
100
AcDbEntity
  8
0
100
AcDbBlockBegin
  2
*D4
 70
     1
 10
0.0
 20
0.0
 30
0.0
  3
*D4
  1

  0
LINE
  5
A4D
330
4A7
100
AcDbEntity
  8
标注
 62
     0
440
 16777216
370
    -2
100
AcDbLine
 10
1596.816817065216
 20
2862.67834653552
 30
0.0
 11
1497.268361423996
 21
2862.67834653552
 31
0.0
  0
LINE
  5
A4E
330
4A7
100
AcDbEntity
  8
标注
 62
     0
440
 16777216
370
    -2
100
AcDbLine
 10
1596.816817065216
 20
2849.67834653552
 30
0.0
 11
1497.268361423996
 21
2849.67834653552
 31
0.0
  0
LINE
  5
A4F
330
4A7
100
AcDbEntity
  8
标注
 62
     0
440
 16777216
370
    -2
100
AcDbLine
 10
1498.518361423996
 20
2852.17834653552
 30
0.0
 11
1498.518361423996
 21
2860.17834653552
 31
0.0
  0
LINE
  5
A50
330
4A7
100
AcDbEntity
  8
标注
 62
     0
440
 16777216
370
    -2
100
AcDbLine
 10
1498.518361423996
 20
2862.67834653552
 30
0.0
 11
1498.518361423996
 21
2913.71902086011
 31
0.0
  0
INSERT
  5
A51
330
4A7
100
AcDbEntity
  8
标注
 62
     0
440
 16777216
370
    -2
100
AcDbBlockReference
  2
_ClosedBlank
 10
1498.518361423996
 20
2849.67834653552
 30
0.0
 41
2.5
 42
2.5
 43
2.5
 50
270.0
  0
INSERT
  5
A52
330
4A7
100
AcDbEntity
  8
标注
 62
     0
440
 16777216
370
    -2
100
AcDbBlockReference
  2
_ClosedBlank
 10
1498.518361423996
 20
2862.67834653552
 30
0.0
 41
2.5
 42
2.5
 43
2.5
 50
90.0
  0
MTEXT
  5
A53
330
4A7
100
AcDbEntity
  8
标注
 62
     0
440
 16777216
100
AcDbMText
 10
1482.893361423996
 20
2893.094020860111
 30
0.0
 40
30.0
 41
0.0
 46
0.0
 71
     5
 72
     1
  1
13
 11
0.0000000000000001
 21
1.0
 31
0.0
 73
     1
 44
1.0
  0
POINT
  5
A54
330
4A7
100
AcDbEntity
  8
Defpoints
 62
     0
440
 16777216
100
AcDbPoint
 10
1597.441817065216
 20
2862.67834653552
 30
0.0
  0
POINT
  5
A55
330
4A7
100
AcDbEntity
  8
Defpoints
 62
     0
440
 16777216
100
AcDbPoint
 10
1597.441817065216
 20
2849.67834653552
 30
0.0
  0
POINT
  5
A56
330
4A7
100
AcDbEntity
  8
Defpoints
 62
     0
440
 16777216
100
AcDbPoint
 10
1498.518361423996
 20
2849.67834653552
 30
0.0
  0
ENDBLK
  5
4A9
330
4A7
100
AcDbEntity
  8
0
100
AcDbBlockEnd
  0
BLOCK
  5
4B5
330
4B4
100
AcDbEntity
  8
0
100
AcDbBlockBegin
  2
*D5
 70
     1
 10
0.0
 20
0.0
 30
0.0
  3
*D5
  1

  0
LINE
  5
A57
330
4B4
100
AcDbEntity
  8
标注
 62
     0
440
 16777216
370
    -2
100
AcDbLine
 10
1623.316817065217
 20
2758.77834653552
 30
0.0
 11
1473.744276386534
 21
2758.77834653552
 31
0.0
  0
LINE
  5
A58
330
4B4
100
AcDbEntity
  8
标注
 62
     0
440
 16777216
370
    -2
100
AcDbLine
 10
1539.816817065218
 20
2862.67834653552
 30
0.0
 11
1473.744276386534
 21
2862.67834653552
 31
0.0
  0
LINE
  5
A59
330
4B4
100
AcDbEntity
  8
标注
 62
     0
440
 16777216
370
    -2
100
AcDbLine
 10
1474.994276386533
 20
2761.27834653552
 30
0.0
 11
1474.994276386533
 21
2860.17834653552
 31
0.0
  0
INSERT
  5
A5A
330
4B4
100
AcDbEntity
  8
标注
 62
     0
440
 16777216
370
    -2
100
AcDbBlockReference
  2
_ClosedBlank
 10
1474.994276386533
 20
2758.77834653552
 30
0.0
 41
2.5
 42
2.5
 43
2.5
 50
270.0
  0
INSERT
  5
A5B
330
4B4
100
AcDbEntity
  8
标注
 62
     0
440
 16777216
370
    -2
100
AcDbBlockReference
  2
_ClosedBlank
 10
1474.994276386533
 20
2862.67834653552
 30
0.0
 41
2.5
 42
2.5
 43
2.5
 50
90.0
  0
MTEXT
  5
A5C
330
4B4
100
AcDbEntity
  8
标注
 62
     0
440
 16777216
100
AcDbMText
 10
1459.369276386533
 20
2810.930552192619
 30
0.0
 40
30.0
 41
0.0
 46
0.0
 71
     5
 72
     1
  1
88
 11
0.0000000000000001
 21
1.0
 31
0.0
 73
     1
 44
1.0
  0
POINT
  5
A5D
330
4B4
100
AcDbEntity
  8
Defpoints
 62
     0
440
 16777216
100
AcDbPoint
 10
1623.941817065217
 20
2758.77834653552
 30
0.0
  0
POINT
  5
A5E
330
4B4
100
AcDbEntity
  8
Defpoints
 62
     0
440
 16777216
100
AcDbPoint
 10
1540.441817065218
 20
2862.67834653552
 30
0.0
  0
POINT
  5
A5F
330
4B4
100
AcDbEntity
  8
Defpoints
 62
     0
440
 16777216
100
AcDbPoint
 10
1474.994276386533
 20
2862.67834653552
 30
0.0
  0
ENDBLK
  5
4B6
330
4B4
100
AcDbEntity
  8
0
100
AcDbBlockEnd
  0
BLOCK
  5
4CD
330
4CC
100
AcDbEntity
  8
0
100
AcDbBlockBegin
  2
*D6
 70
     1
 10
0.0
 20
0.0
 30
0.0
  3
*D6
  1

  0
LINE
  5
A60
330
4CC
100
AcDbEntity
  8
标注
 62
     0
440
 16777216
370
    -2
100
AcDbLine
 10
1258.804422387556
 20
2540.989794766483
 30
0.0
 11
1258.804422387556
 21
2487.691177447816
 31
0.0
  0
LINE
  5
A61
330
4CC
100
AcDbEntity
  8
标注
 62
     0
440
 16777216
370
    -2
100
AcDbLine
 10
1245.804422387556
 20
2540.989794766483
 30
0.0
 11
1245.804422387556
 21
2487.691177447816
 31
0.0
  0
LINE
  5
A62
330
4CC
100
AcDbEntity
  8
标注
 62
     0
440
 16777216
370
    -2
100
AcDbLine
 10
1256.304422387556
 20
2488.941177447816
 30
0.0
 11
1248.304422387556
 21
2488.941177447816
 31
0.0
  0
LINE
  5
A63
330
4CC
100
AcDbEntity
  8
标注
 62
     0
440
 16777216
370
    -2
100
AcDbLine
 10
1245.804422387556
 20
2488.941177447816
 30
0.0
 11
1202.054422387556
 21
2488.941177447816
 31
0.0
  0
INSERT
  5
A64
330
4CC
100
AcDbEntity
  8
标注
 62
     0
440
 16777216
370
    -2
100
AcDbBlockReference
  2
_ClosedBlank
 10
1258.804422387556
 20
2488.941177447816
 30
0.0
 41
2.5
 42
2.5
 43
2.5
  0
INSERT
  5
A65
330
4CC
100
AcDbEntity
  8
标注
 62
     0
440
 16777216
370
    -2
100
AcDbBlockReference
  2
_ClosedBlank
 10
1245.804422387556
 20
2488.941177447816
 30
0.0
 41
2.5
 42
2.5
 43
2.5
 50
180.0
  0
MTEXT
  5
A66
330
4CC
100
AcDbEntity
  8
标注
 62
     0
440
 16777216
100
AcDbMText
 10
1222.679422387556
 20
2504.566177447816
 30
0.0
 40
30.0
 41
0.0
 46
0.0
 71
     5
 72
     1
  1
13
 73
     1
 44
1.0
  0
POINT
  5
A67
330
4CC
100
AcDbEntity
  8
Defpoints
 62
     0
440
 16777216
100
AcDbPoint
 10
1258.804422387556
 20
2541.614794766483
 30
0.0
  0
POINT
  5
A68
330
4CC
100
AcDbEntity
  8
Defpoints
 62
     0
440
 16777216
100
AcDbPoint
 10
1245.804422387556
 20
2541.614794766483
 30
0.0
  0
POINT
  5
A69
330
4CC
100
AcDbEntity
  8
Defpoints
 62
     0
440
 16777216
100
AcDbPoint
 10
1245.804422387556
 20
2488.941177447816
 30
0.0
  0
ENDBLK
  5
4CE
330
4CC
100
AcDbEntity
  8
0
100
AcDbBlockEnd
  0
BLOCK
  5
4DA
330
4D9
100
AcDbEntity
  8
0
100
AcDbBlockBegin
  2
*D7
 70
     1
 10
0.0
 20
0.0
 30
0.0
  3
*D7
  1

  0
LINE
  5
A6A
330
4D9
100
AcDbEntity
  8
标注
 62
     0
440
 16777216
370
    -2
100
AcDbLine
 10
1245.804422387556
 20
2599.239794766484
 30
0.0
 11
1245.804422387556
 21
2621.568350784764
 31
0.0
  0
LINE
  5
A6B
330
4D9
100
AcDbEntity
  8
标注
 62
     0
440
 16777216
370
    -2
100
AcDbLine
 10
1349.704422387555
 20
2515.739794766484
 30
0.0
 11
1349.704422387555
 21
2621.568350784764
 31
0.0
  0
LINE
  5
A6C
330
4D9
100
AcDbEntity
  8
标注
 62
     0
440
 16777216
370
    -2
100
AcDbLine
 10
1248.304422387556
 20
2620.318350784764
 30
0.0
 11
1347.204422387555
 21
2620.318350784764
 31
0.0
  0
INSERT
  5
A6D
330
4D9
100
AcDbEntity
  8
标注
 62
     0
440
 16777216
370
    -2
100
AcDbBlockReference
  2
_ClosedBlank
 10
1245.804422387556
 20
2620.318350784764
 30
0.0
 41
2.5
 42
2.5
 43
2.5
 50
180.0
  0
INSERT
  5
A6E
330
4D9
100
AcDbEntity
  8
标注
 62
     0
440
 16777216
370
    -2
100
AcDbBlockReference
  2
_ClosedBlank
 10
1349.704422387555
 20
2620.318350784764
 30
0.0
 41
2.5
 42
2.5
 43
2.5
  0
MTEXT
  5
A6F
330
4D9
100
AcDbEntity
  8
标注
 62
     0
440
 16777216
100
AcDbMText
 10
1297.754422387555
 20
2635.943350784764
 30
0.0
 40
30.0
 41
0.0
 46
0.0
 71
     5
 72
     1
  1
88
 73
     1
 44
1.0
  0
POINT
  5
A70
330
4D9
100
AcDbEntity
  8
Defpoints
 62
     0
440
 16777216
100
AcDbPoint
 10
1245.804422387556
 20
2598.614794766484
 30
0.0
  0
POINT
  5
A71
330
4D9
100
AcDbEntity
  8
Defpoints
 62
     0
440
 16777216
100
AcDbPoint
 10
1349.704422387555
 20
2515.114794766484
 30
0.0
  0
POINT
  5
A72
330
4D9
100
AcDbEntity
  8
Defpoints
 62
     0
440
 16777216
100
AcDbPoint
 10
1349.704422387555
 20
2620.318350784764
 30
0.0
  0
ENDBLK
  5
4DB
330
4D9
100
AcDbEntity
  8
0
100
AcDbBlockEnd
  0
BLOCK
  5
4E6
330
4E5
100
AcDbEntity
  8
0
100
AcDbBlockBegin
  2
*D8
 70
     1
 10
0.0
 20
0.0
 30
0.0
  3
*D8
  1

  0
LINE
  5
A73
330
4E5
100
AcDbEntity
  8
标注
 62
     0
440
 16777216
370
    -2
100
AcDbLine
 10
2596.645173529787
 20
1886.666137335256
 30
0.0
 11
2495.211022615417
 21
1985.076030134501
 31
0.0
  0
MTEXT
  5
A74
330
4E5
100
AcDbEntity
  8
标注
 62
     0
440
 16777216
100
AcDbMText
 10
2578.367681736704
 20
1926.168852985624
 30
0.0
 40
30.0
 41
0.0
 46
0.0
 71
     5
 72
     1
  1
R55
 11
0.7177253139165464
 21
-0.6963263414257678
 31
0.0
 73
     1
 44
1.0
  0
LINE
  5
A75
330
4E5
100
AcDbEntity
  8
标注
 62
     0
440
 16777216
370
    -2
100
AcDbLine
 10
2453.941817065219
 20
2025.11479476648
 30
0.0
 11
2493.416709330626
 21
1986.816845988066
 31
0.0
  0
INSERT
  5
A76
330
4E5
100
AcDbEntity
  8
标注
 62
     0
440
 16777216
370
    -2
100
AcDbBlockReference
  2
_ClosedBlank
 10
2493.416709330626
 20
1986.816845988066
 30
0.0
 41
2.5
 42
2.5
 43
2.5
 50
135.8669960701392
  0
POINT
  5
A77
330
4E5
100
AcDbEntity
  8
Defpoints
 62
     0
440
 16777216
100
AcDbPoint
 10
2493.416709330626
 20
1986.816845988066
 30
0.0
  0
POINT
  5
A78
330
4E5
100
AcDbEntity
  8
Defpoints
 62
     0
440
 16777216
100
AcDbPoint
 10
2453.941817065219
 20
2025.11479476648
 30
0.0
  0
ENDBLK
  5
4E7
330
4E5
100
AcDbEntity
  8
0
100
AcDbBlockEnd
  0
BLOCK
  5
4EF
330
4EE
100
AcDbEntity
  8
0
100
AcDbBlockBegin
  2
*D9
 70
     1
 10
0.0
 20
0.0
 30
0.0
  3
*D9
  1

  0
LINE
  5
A79
330
4EE
100
AcDbEntity
  8
标注
 62
     0
440
 16777216
370
    -2
100
AcDbLine
 10
1467.935539086164
 20
2642.212369802948
 30
0.0
 11
1587.161188882614
 21
2785.480661183305
 31
0.0
  0
MTEXT
  5
A7A
330
4EE
100
AcDbEntity
  8
标注
 62
     0
440
 16777216
100
AcDbMText
 10
1501.101504856035
 20
2706.493393165614
 30
0.0
 40
30.0
 41
0.0
 46
0.0
 71
     5
 72
     1
  1
2-R55
 11
0.6396630988277848
 21
0.7686553974298467
 31
0.0
 73
     1
 44
1.0
  0
LINE
  5
A7B
330
4EE
100
AcDbEntity
  8
标注
 62
     0
440
 16777216
370
    -2
100
AcDbLine
 10
1623.941817065218
 20
2829.678346535529
 30
0.0
 11
1588.760346629683
 21
2787.402299676879
 31
0.0
  0
INSERT
  5
A7C
330
4EE
100
AcDbEntity
  8
标注
 62
     0
440
 16777216
370
    -2
100
AcDbBlockReference
  2
_ClosedBlank
 10
1588.760346629683
 20
2787.402299676879
 30
0.0
 41
2.5
 42
2.5
 43
2.5
 50
50.23329778654629
  0
POINT
  5
A7D
330
4EE
100
AcDbEntity
  8
Defpoints
 62
     0
440
 16777216
100
AcDbPoint
 10
1588.760346629683
 20
2787.402299676879
 30
0.0
  0
POINT
  5
A7E
330
4EE
100
AcDbEntity
  8
Defpoints
 62
     0
440
 16777216
100
AcDbPoint
 10
1623.941817065218
 20
2829.678346535529
 30
0.0
  0
ENDBLK
  5
4F0
330
4EE
100
AcDbEntity
  8
0
100
AcDbBlockEnd
  0
BLOCK
  5
4F8
330
4F7
100
AcDbEntity
  8
0
100
AcDbBlockBegin
  2
*D10
 70
     1
 10
0.0
 20
0.0
 30
0.0
  3
*D10
  1

  0
LINE
  5
A7F
330
4F7
100
AcDbEntity
  8
标注
 62
     0
440
 16777216
370
    -2
100
AcDbLine
 10
1453.050945411195
 20
2567.08932509469
 30
0.0
 11
1333.90542564569
 21
2531.550409751843
 31
0.0
  0
MTEXT
  5
A80
330
4F7
100
AcDbEntity
  8
标注
 62
     0
440
 16777216
100
AcDbMText
 10
1409.654689037143
 20
2570.450304523003
 30
0.0
 40
30.0
 41
0.0
 46
0.0
 71
     5
 72
     1
  1
R55
 11
0.9582783175327683
 21
0.2858367823541373
 31
0.0
 73
     1
 44
1.0
  0
LINE
  5
A81
330
4F7
100
AcDbEntity
  8
标注
 62
     0
440
 16777216
370
    -2
100
AcDbLine
 10
1278.804422387561
 20
2515.114794766482
 30
0.0
 11
1331.509729851858
 21
2530.835817795958
 31
0.0
  0
INSERT
  5
A82
330
4F7
100
AcDbEntity
  8
标注
 62
     0
440
 16777216
370
    -2
100
AcDbBlockReference
  2
_ClosedBlank
 10
1331.509729851858
 20
2530.835817795958
 30
0.0
 41
2.5
 42
2.5
 43
2.5
 50
196.6088735742764
  0
POINT
  5
A83
330
4F7
100
AcDbEntity
  8
Defpoints
 62
     0
440
 16777216
100
AcDbPoint
 10
1331.509729851858
 20
2530.835817795958
 30
0.0
  0
POINT
  5
A84
330
4F7
100
AcDbEntity
  8
Defpoints
 62
     0
440
 16777216
100
AcDbPoint
 10
1278.804422387561
 20
2515.114794766482
 30
0.0
  0
ENDBLK
  5
4F9
330
4F7
100
AcDbEntity
  8
0
100
AcDbBlockEnd
  0
BLOCK
  5
501
330
500
100
AcDbEntity
  8
0
100
AcDbBlockBegin
  2
*D11
 70
     1
 10
0.0
 20
0.0
 30
0.0
  3
*D11
  1

  0
LINE
  5
A85
330
500
100
AcDbEntity
  8
标注
 62
     0
440
 16777216
370
    -2
100
AcDbLine
 10
1709.270599584824
 20
2052.905250059626
 30
0.0
 11
1595.641457688657
 21
1985.86691178545
 31
0.0
  0
LINE
  5
A86
330
500
100
AcDbEntity
  8
标注
 62
     0
440
 16777216
370
    -2
100
AcDbLine
 10
1542.242176441778
 20
1954.362677747519
 30
0.0
 11
1540.088979617308
 21
1953.09234572986
 31
0.0
  0
MTEXT
  5
A87
102
{ACAD_XDICTIONARY
360
E34
102
}
330
500
100
AcDbEntity
  8
标注
 62
     0
440
 16777216
100
AcDbMText
 10
1647.089539400503
 20
2034.825424397806
 30
0.0
 40
30.0
 41
0.0
 46
0.0
 71
     5
 72
     1
  1
{\fGulim|b0|i0|c129|p34;3-∅57}
 11
0.8612787297883683
 21
0.5081328070634043
 31
0.0
 73
     1
 44
1.0
  0
LINE
  5
A88
330
500
100
AcDbEntity
  8
标注
 62
     0
440
 16777216
370
    -2
100
AcDbLine
 10
1544.395373266249
 20
1955.633009765177
 30
0.0
 11
1593.488260864186
 21
1984.596579767791
 31
0.0
  0
INSERT
  5
A89
330
500
100
AcDbEntity
  8
标注
 62
     0
440
 16777216
370
    -2
100
AcDbBlockReference
  2
_ClosedBlank
 10
1544.395373266249
 20
1955.633009765177
 30
0.0
 41
2.5
 42
2.5
 43
2.5
 50
30.53953680528461
  0
INSERT
  5
A8A
330
500
100
AcDbEntity
  8
标注
 62
     0
440
 16777216
370
    -2
100
AcDbBlockReference
  2
_ClosedBlank
 10
1593.488260864186
 20
1984.596579767791
 30
0.0
 41
2.5
 42
2.5
 43
2.5
 50
210.5395368052846
  0
ARC
  5
A8B
330
500
100
AcDbEntity
  8
标注
 62
     0
440
 16777216
370
    -2
100
AcDbCircle
 10
1568.941817065218
 20
1970.114794766485
 30
0.0
 40
28.5
100
AcDbArc
 50
28.02656401962284
 51
32.65384304992174
  0
POINT
  5
A8C
330
500
100
AcDbEntity
  8
Defpoints
 62
     0
440
 16777216
100
AcDbPoint
 10
1593.488260864186
 20
1984.596579767791
 30
0.0
  0
POINT
  5
A8D
330
500
100
AcDbEntity
  8
Defpoints
 62
     0
440
 16777216
100
AcDbPoint
 10
1544.395373266249
 20
1955.633009765177
 30
0.0
  0
ENDBLK
  5
502
330
500
100
AcDbEntity
  8
0
100
AcDbBlockEnd
  0
BLOCK
  5
672
330
671
100
AcDbEntity
  8
0
100
AcDbBlockBegin
  2
*D12
 70
     1
 10
0.0
 20
0.0
 30
0.0
  3
*D12
  1

  0
LINE
  5
77E
330
671
100
AcDbEntity
  8
标注
 62
     0
440
 16777216
370
    -2
100
AcDbLine
 10
3600.700244120747
 20
2476.144541102637
 30
0.0
 11
3685.659579392548
 21
2454.730704720743
 31
0.0
  0
LINE
  5
77F
330
671
100
AcDbEntity
  8
标注
 62
     0
440
 16777216
370
    -2
100
AcDbLine
 10
3600.700244120744
 20
1711.67705887035
 30
0.0
 11
3685.659579392548
 21
1690.263222488455
 31
0.0
  0
LINE
  5
780
330
671
100
AcDbEntity
  8
标注
 62
     0
440
 16777216
370
    -2
100
AcDbLine
 10
3684.409579392548
 20
2452.545764806745
 30
0.0
 11
3684.409579392548
 21
1693.078282574456
 31
0.0
  0
SOLID
  5
781
330
671
100
AcDbEntity
  8
标注
 62
     0
440
 16777216
100
AcDbTrace
 10
3683.992912725881
 20
2452.545764806745
 30
0.0
 11
3684.826246059214
 21
2452.545764806745
 31
0.0
 12
3684.409579392548
 22
2455.045764806745
 32
0.0
 13
3684.409579392548
 23
2455.045764806745
 33
0.0
  0
SOLID
  5
782
330
671
100
AcDbEntity
  8
标注
 62
     0
440
 16777216
100
AcDbTrace
 10
3683.992912725881
 20
1693.078282574456
 30
0.0
 11
3684.826246059214
 21
1693.078282574456
 31
0.0
 12
3684.409579392548
 22
1690.578282574456
 32
0.0
 13
3684.409579392548
 23
1690.578282574456
 33
0.0
  0
MTEXT
  5
783
330
671
100
AcDbEntity
  8
标注
 62
     0
440
 16777216
100
AcDbMText
 10
3668.784579392547
 20
2039.351905431068
 30
0.0
 40
30.0
 41
0.0
 46
0.0
 71
     5
 72
     1
  1
600
 11
0.0000000000000001
 21
1.0
 31
0.0
 73
     1
 44
1.0
  0
POINT
  5
784
330
671
100
AcDbEntity
  8
Defpoints
 62
     0
440
 16777216
100
AcDbPoint
 10
3600.075244120747
 20
2476.302071145638
 30
0.0
  0
POINT
  5
785
330
671
100
AcDbEntity
  8
Defpoints
 62
     0
440
 16777216
100
AcDbPoint
 10
3600.075244120745
 20
1711.834588913351
 30
0.0
  0
POINT
  5
786
330
671
100
AcDbEntity
  8
Defpoints
 62
     0
440
 16777216
100
AcDbPoint
 10
3684.409579392548
 20
1690.578282574456
 30
0.0
  0
ENDBLK
  5
673
330
671
100
AcDbEntity
  8
0
100
AcDbBlockEnd
  0
BLOCK
  5
691
330
690
100
AcDbEntity
  8
0
100
AcDbBlockBegin
  2
*D13
 70
     1
 10
0.0
 20
0.0
 30
0.0
  3
*D13
  1

  0
LINE
  5
790
330
690
100
AcDbEntity
  8
标注
 62
     0
440
 16777216
370
    -2
100
AcDbLine
 10
2979.616718917606
 20
1851.604084497988
 30
0.0
 11
2833.725203911354
 21
1820.548267199687
 31
0.0
  0
LINE
  5
791
330
690
100
AcDbEntity
  8
标注
 62
     0
440
 16777216
370
    -2
100
AcDbLine
 10
3509.413977642963
 20
1723.787012437438
 30
0.0
 11
3363.522462636712
 21
1692.731195139138
 31
0.0
  0
LINE
  5
792
330
690
100
AcDbEntity
  8
标注
 62
     0
440
 16777216
370
    -2
100
AcDbLine
 10
2838.98699112983
 20
1820.564689920784
 30
0.0
 11
3363.923702775448
 21
1693.920256801099
 31
0.0
  0
SOLID
  5
793
330
690
100
AcDbEntity
  8
标注
 62
     0
440
 16777216
100
AcDbTrace
 10
2839.084711041569
 20
1820.969735510762
 30
0.0
 11
2838.889271218091
 21
1820.159644330806
 31
0.0
 12
2836.55671758996
 22
1821.151009391217
 32
0.0
 13
2836.55671758996
 23
1821.151009391217
 33
0.0
  0
SOLID
  5
794
330
690
100
AcDbEntity
  8
标注
 62
     0
440
 16777216
100
AcDbTrace
 10
3364.021422687187
 20
1694.325302391078
 30
0.0
 11
3363.825982863709
 21
1693.515211211121
 31
0.0
 12
3366.353976315318
 22
1693.333937330667
 32
0.0
 13
3366.353976315318
 23
1693.333937330667
 33
0.0
  0
MTEXT
  5
795
330
690
100
AcDbEntity
  8
标注
 62
     0
440
 16777216
100
AcDbMText
 10
3105.119843642841
 20
1772.431682985128
 30
0.0
 40
30.0
 41
0.0
 46
0.0
 71
     5
 72
     1
  1
940
 11
0.9721094159479658
 21
-0.2345277881729678
 31
0.0
 73
     1
 44
1.0
  0
POINT
  5
796
330
690
100
AcDbEntity
  8
Defpoints
 62
     0
440
 16777216
100
AcDbPoint
 10
2981.032475756909
 20
1851.905455593753
 30
0.0
  0
POINT
  5
797
330
690
100
AcDbEntity
  8
Defpoints
 62
     0
440
 16777216
100
AcDbPoint
 10
3510.829734482266
 20
1724.088383533203
 30
0.0
  0
POINT
  5
798
330
690
100
AcDbEntity
  8
Defpoints
 62
     0
440
 16777216
100
AcDbPoint
 10
3366.353976315318
 20
1693.333937330667
 30
0.0
  0
ENDBLK
  5
692
330
690
100
AcDbEntity
  8
0
100
AcDbBlockEnd
  0
BLOCK
  5
7A4
330
79A
100
AcDbEntity
  8
0
100
AcDbBlockBegin
  2
*D14
 70
     1
 10
0.0
 20
0.0
 30
0.0
  3
*D14
  1

  0
LINE
  5
7DE
330
79A
100
AcDbEntity
  8
标注
 62
     0
440
 16777216
370
    -2
100
AcDbLine
 10
3540.103406353765
 20
2483.620011174064
 30
0.0
 11
3540.802141750133
 21
2523.549982233254
 31
0.0
  0
LINE
  5
7DF
330
79A
100
AcDbEntity
  8
标注
 62
     0
440
 16777216
370
    -2
100
AcDbLine
 10
3619.575414379977
 20
2501.367380119656
 30
0.0
 11
3620.274149776345
 21
2541.297351178845
 31
0.0
  0
LINE
  5
7E0
330
79A
100
AcDbEntity
  8
标注
 62
     0
440
 16777216
370
    -2
100
AcDbLine
 10
3543.219542459072
 20
2522.809036862743
 30
0.0
 11
3617.811748085406
 21
2539.466667978334
 31
0.0
  0
INSERT
  5
7E1
330
79A
100
AcDbEntity
  8
标注
 62
     0
440
 16777216
370
    -2
100
AcDbBlockReference
  2
_ClosedBlank
 10
3540.779641259133
 20
2522.264167947743
 30
0.0
 41
2.5
 42
2.5
 43
2.5
 50
192.5885122136817
  0
INSERT
  5
7E2
330
79A
100
AcDbEntity
  8
标注
 62
     0
440
 16777216
370
    -2
100
AcDbBlockReference
  2
_ClosedBlank
 10
3620.251649285346
 20
2540.011536893334
 30
0.0
 41
2.5
 42
2.5
 43
2.5
 50
12.58851221368177
  0
MTEXT
  5
7E3
330
79A
100
AcDbEntity
  8
标注
 62
     0
440
 16777216
100
AcDbMText
 10
3580.150062434077
 20
2547.066081513008
 30
0.0
 40
30.0
 41
0.0
 46
0.0
 71
     5
 72
     1
  1
88
 11
0.9759604799758355
 21
0.2179475660000282
 31
0.0
 73
     1
 44
1.0
  0
POINT
  5
7E4
330
79A
100
AcDbEntity
  8
Defpoints
 62
     0
440
 16777216
100
AcDbPoint
 10
3540.092156108264
 20
2482.977104031309
 30
0.0
  0
POINT
  5
7E5
330
79A
100
AcDbEntity
  8
Defpoints
 62
     0
440
 16777216
100
AcDbPoint
 10
3619.564164134477
 20
2500.7244729769
 30
0.0
  0
POINT
  5
7E6
330
79A
100
AcDbEntity
  8
Defpoints
 62
     0
440
 16777216
100
AcDbPoint
 10
3620.251649285346
 20
2540.011536893334
 30
0.0
  0
ENDBLK
  5
7A5
330
79A
100
AcDbEntity
  8
0
100
AcDbBlockEnd
  0
BLOCK
  5
98F
330
98E
100
AcDbEntity
  8
0
100
AcDbBlockBegin
  2
*D15
 70
     1
 10
0.0
 20
0.0
 30
0.0
  3
*D15
  1

  0
LINE
  5
A9F
330
98E
100
AcDbEntity
  8
标注
 62
     0
440
 16777216
370
    -2
100
AcDbLine
 10
2297.254714063604
 20
1808.79840692887
 30
0.0
 11
2398.834734084491
 21
1882.71952826644
 31
0.0
  0
LINE
  5
AA0
330
98E
100
AcDbEntity
  8
标注
 62
     0
440
 16777216
370
    -2
100
AcDbLine
 10
2419.048900045951
 20
1897.429643646095
 30
0.0
 11
2421.070316642096
 21
1898.90065518406
 31
0.0
  0
MTEXT
  5
AA1
102
{ACAD_XDICTIONARY
360
E36
102
}
330
98E
100
AcDbEntity
  8
标注
 62
     0
440
 16777216
100
AcDbMText
 10
2318.887495042543
 20
1843.86518660875
 30
0.0
 40
30.0
 41
0.0
 46
0.0
 71
     5
 72
     1
  1
∅20
 11
0.8085666384582705
 21
0.5884046151860913
 31
0.0
 73
     1
 44
1.0
  0
LINE
  5
AA2
330
98E
100
AcDbEntity
  8
标注
 62
     0
440
 16777216
370
    -2
100
AcDbLine
 10
2417.027483449805
 20
1895.95863210813
 30
0.0
 11
2400.856150680636
 21
1884.190539804406
 31
0.0
  0
INSERT
  5
AA3
330
98E
100
AcDbEntity
  8
标注
 62
     0
440
 16777216
370
    -2
100
AcDbBlockReference
  2
_ClosedBlank
 10
2417.027483449805
 20
1895.95863210813
 30
0.0
 41
2.5
 42
2.5
 43
2.5
 50
216.0438764059389
  0
INSERT
  5
AA4
330
98E
100
AcDbEntity
  8
标注
 62
     0
440
 16777216
370
    -2
100
AcDbBlockReference
  2
_ClosedBlank
 10
2400.856150680636
 20
1884.190539804406
 30
0.0
 41
2.5
 42
2.5
 43
2.5
 50
36.04387640593885
  0
POINT
  5
AA5
330
98E
100
AcDbEntity
  8
Defpoints
 62
     0
440
 16777216
100
AcDbPoint
 10
2400.856150680636
 20
1884.190539804406
 30
0.0
  0
POINT
  5
AA6
330
98E
100
AcDbEntity
  8
Defpoints
 62
     0
440
 16777216
100
AcDbPoint
 10
2417.027483449805
 20
1895.95863210813
 30
0.0
  0
ENDBLK
  5
990
330
98E
100
AcDbEntity
  8
0
100
AcDbBlockEnd
  0
BLOCK
  5
A02
330
A01
100
AcDbEntity
  8
0
100
AcDbBlockBegin
  2
*D16
 70
     1
 10
0.0
 20
0.0
 30
0.0
  3
*D16
  1

  0
LINE
  5
A96
330
A01
100
AcDbEntity
  8
标注
 62
     0
440
 16777216
370
    -2
100
AcDbLine
 10
2408.941817065218
 20
1852.898764485543
 30
0.0
 11
2408.941817065218
 21
1759.982139859598
 31
0.0
  0
LINE
  5
A97
330
A01
100
AcDbEntity
  8
标注
 62
     0
440
 16777216
370
    -2
100
AcDbLine
 10
2508.941817065217
 20
2023.864794766484
 30
0.0
 11
2508.941817065217
 21
1759.982139859598
 31
0.0
  0
LINE
  5
A98
330
A01
100
AcDbEntity
  8
标注
 62
     0
440
 16777216
370
    -2
100
AcDbLine
 10
2411.441817065218
 20
1761.232139859598
 30
0.0
 11
2506.441817065217
 21
1761.232139859598
 31
0.0
  0
INSERT
  5
A99
330
A01
100
AcDbEntity
  8
标注
 62
     0
440
 16777216
370
    -2
100
AcDbBlockReference
  2
_ClosedBlank
 10
2408.941817065218
 20
1761.232139859598
 30
0.0
 41
2.5
 42
2.5
 43
2.5
 50
180.0
  0
INSERT
  5
A9A
330
A01
100
AcDbEntity
  8
标注
 62
     0
440
 16777216
370
    -2
100
AcDbBlockReference
  2
_ClosedBlank
 10
2508.941817065217
 20
1761.232139859598
 30
0.0
 41
2.5
 42
2.5
 43
2.5
  0
MTEXT
  5
A9B
330
A01
100
AcDbEntity
  8
标注
 62
     0
440
 16777216
100
AcDbMText
 10
2458.941817065218
 20
1776.857139859598
 30
0.0
 40
30.0
 41
0.0
 46
0.0
 71
     5
 72
     1
  1
100
 73
     1
 44
1.0
  0
POINT
  5
A9C
330
A01
100
AcDbEntity
  8
Defpoints
 62
     0
440
 16777216
100
AcDbPoint
 10
2408.941817065218
 20
1853.523764485543
 30
0.0
  0
POINT
  5
A9D
330
A01
100
AcDbEntity
  8
Defpoints
 62
     0
440
 16777216
100
AcDbPoint
 10
2508.941817065217
 20
2024.489794766484
 30
0.0
  0
POINT
  5
A9E
330
A01
100
AcDbEntity
  8
Defpoints
 62
     0
440
 16777216
100
AcDbPoint
 10
2508.941817065217
 20
1761.232139859598
 30
0.0
  0
ENDBLK
  5
A03
330
A01
100
AcDbEntity
  8
0
100
AcDbBlockEnd
  0
BLOCK
  5
B5C
330
B5B
100
AcDbEntity
  8
0
100
AcDbBlockBegin
  2
*D17
 70
     1
 10
0.0
 20
0.0
 30
0.0
  3
*D17
  1

  0
LINE
  5
B93
330
B5B
100
AcDbEntity
  8
标注
 62
     0
440
 16777216
370
    -2
100
AcDbLine
 10
1996.134142226341
 20
2387.577969870025
 30
0.0
 11
1996.134142226341
 21
2363.198912739193
 31
0.0
  0
LINE
  5
B94
330
B5B
100
AcDbEntity
  8
标注
 62
     0
440
 16777216
370
    -2
100
AcDbLine
 10
2009.13414222634
 20
2387.577969870025
 30
0.0
 11
2009.13414222634
 21
2363.198912739193
 31
0.0
  0
LINE
  5
B95
330
B5B
100
AcDbEntity
  8
标注
 62
     0
440
 16777216
370
    -2
100
AcDbLine
 10
1998.634142226341
 20
2364.448912739192
 30
0.0
 11
2006.63414222634
 21
2364.448912739192
 31
0.0
  0
LINE
  5
B96
330
B5B
100
AcDbEntity
  8
标注
 62
     0
440
 16777216
370
    -2
100
AcDbLine
 10
2009.13414222634
 20
2364.448912739192
 30
0.0
 11
2052.884142226341
 21
2364.448912739192
 31
0.0
  0
INSERT
  5
B97
330
B5B
100
AcDbEntity
  8
标注
 62
     0
440
 16777216
370
    -2
100
AcDbBlockReference
  2
_ClosedBlank
 10
1996.134142226341
 20
2364.448912739192
 30
0.0
 41
2.5
 42
2.5
 43
2.5
 50
180.0
  0
INSERT
  5
B98
330
B5B
100
AcDbEntity
  8
标注
 62
     0
440
 16777216
370
    -2
100
AcDbBlockReference
  2
_ClosedBlank
 10
2009.13414222634
 20
2364.448912739192
 30
0.0
 41
2.5
 42
2.5
 43
2.5
  0
MTEXT
  5
B99
330
B5B
100
AcDbEntity
  8
标注
 62
     0
440
 16777216
100
AcDbMText
 10
2032.25914222634
 20
2380.073912739192
 30
0.0
 40
30.0
 41
0.0
 46
0.0
 71
     5
 72
     1
  1
13
 73
     1
 44
1.0
  0
POINT
  5
B9A
330
B5B
100
AcDbEntity
  8
Defpoints
 62
     0
440
 16777216
100
AcDbPoint
 10
1996.134142226341
 20
2388.202969870025
 30
0.0
  0
POINT
  5
B9B
330
B5B
100
AcDbEntity
  8
Defpoints
 62
     0
440
 16777216
100
AcDbPoint
 10
2009.13414222634
 20
2388.202969870024
 30
0.0
  0
POINT
  5
B9C
330
B5B
100
AcDbEntity
  8
Defpoints
 62
     0
440
 16777216
100
AcDbPoint
 10
2009.13414222634
 20
2364.448912739192
 30
0.0
  0
ENDBLK
  5
B5D
330
B5B
100
AcDbEntity
  8
0
100
AcDbBlockEnd
  0
BLOCK
  5
B69
330
B68
100
AcDbEntity
  8
0
100
AcDbBlockBegin
  2
*D18
 70
     1
 10
0.0
 20
0.0
 30
0.0
  3
*D18
  1

  0
LINE
  5
B9D
330
B68
100
AcDbEntity
  8
标注
 62
     0
440
 16777216
370
    -2
100
AcDbLine
 10
1822.025165203889
 20
2573.15513196003
 30
0.0
 11
1921.020784850533
 21
2517.128979220643
 31
0.0
  0
LINE
  5
B9E
330
B68
100
AcDbEntity
  8
标注
 62
     0
440
 16777216
370
    -2
100
AcDbLine
 10
1953.047499602151
 20
2499.003595301438
 30
0.0
 11
1955.223227506472
 21
2497.772251285188
 31
0.0
  0
MTEXT
  5
B9F
102
{ACAD_XDICTIONARY
360
E38
102
}
330
B68
100
AcDbEntity
  8
标注
 62
     0
440
 16777216
100
AcDbMText
 10
1878.131011176614
 20
2559.356027000472
 30
0.0
 40
30.0
 41
0.0
 46
0.0
 71
     5
 72
     1
  1
∅31.8
 11
0.8702911617287332
 21
-0.4925376065001047
 31
0.0
 73
     1
 44
1.0
  0
LINE
  5
BA0
330
B68
100
AcDbEntity
  8
标注
 62
     0
440
 16777216
370
    -2
100
AcDbLine
 10
1950.871771697829
 20
2500.234939317688
 30
0.0
 11
1923.196512754855
 21
2515.897635204392
 31
0.0
  0
INSERT
  5
BA1
330
B68
100
AcDbEntity
  8
标注
 62
     0
440
 16777216
370
    -2
100
AcDbBlockReference
  2
_ClosedBlank
 10
1950.871771697829
 20
2500.234939317688
 30
0.0
 41
2.5
 42
2.5
 43
2.5
 50
150.4924920127734
  0
INSERT
  5
BA2
330
B68
100
AcDbEntity
  8
标注
 62
     0
440
 16777216
370
    -2
100
AcDbBlockReference
  2
_ClosedBlank
 10
1923.196512754855
 20
2515.897635204392
 30
0.0
 41
2.5
 42
2.5
 43
2.5
 50
330.4924920127734
  0
POINT
  5
BA3
330
B68
100
AcDbEntity
  8
Defpoints
 62
     0
440
 16777216
100
AcDbPoint
 10
1923.196512754855
 20
2515.897635204392
 30
0.0
  0
POINT
  5
BA4
330
B68
100
AcDbEntity
  8
Defpoints
 62
     0
440
 16777216
100
AcDbPoint
 10
1950.871771697829
 20
2500.234939317688
 30
0.0
  0
ENDBLK
  5
B6A
330
B68
100
AcDbEntity
  8
0
100
AcDbBlockEnd
  0
BLOCK
  5
B74
330
B73
100
AcDbEntity
  8
0
100
AcDbBlockBegin
  2
*D19
 70
     1
 10
0.0
 20
0.0
 30
0.0
  3
*D19
  1

  0
LINE
  5
BA5
330
B73
100
AcDbEntity
  8
标注
 62
     0
440
 16777216
370
    -2
100
AcDbLine
 10
1815.127600067018
 20
2437.116322646834
 30
0.0
 11
1922.082116849835
 21
2499.36416469581
 31
0.0
  0
LINE
  5
BA6
330
B73
100
AcDbEntity
  8
标注
 62
     0
440
 16777216
370
    -2
100
AcDbLine
 10
1951.986167602848
 20
2516.768409826271
 30
0.0
 11
1954.146864911592
 21
2518.025941988876
 31
0.0
  0
MTEXT
  5
BA7
102
{ACAD_XDICTIONARY
360
E3A
102
}
330
B73
100
AcDbEntity
  8
标注
 62
     0
440
 16777216
100
AcDbMText
 10
1859.66493378777
 20
2481.115835769668
 30
0.0
 40
30.0
 41
0.0
 46
0.0
 71
     5
 72
     1
  1
∅29.6
 11
0.8642789234975056
 21
0.5030128650422301
 31
0.0
 73
     1
 44
1.0
  0
LINE
  5
BA8
330
B73
100
AcDbEntity
  8
标注
 62
     0
440
 16777216
370
    -2
100
AcDbLine
 10
1949.825470294104
 20
2515.510877663665
 30
0.0
 11
1924.242814158579
 21
2500.621696858416
 31
0.0
  0
INSERT
  5
BA9
330
B73
100
AcDbEntity
  8
标注
 62
     0
440
 16777216
370
    -2
100
AcDbBlockReference
  2
_ClosedBlank
 10
1949.825470294104
 20
2515.510877663665
 30
0.0
 41
2.5
 42
2.5
 43
2.5
 50
210.1995305380458
  0
INSERT
  5
BAA
330
B73
100
AcDbEntity
  8
标注
 62
     0
440
 16777216
370
    -2
100
AcDbBlockReference
  2
_ClosedBlank
 10
1924.242814158579
 20
2500.621696858416
 30
0.0
 41
2.5
 42
2.5
 43
2.5
 50
30.19953053804581
  0
POINT
  5
BAB
330
B73
100
AcDbEntity
  8
Defpoints
 62
     0
440
 16777216
100
AcDbPoint
 10
1924.242814158579
 20
2500.621696858416
 30
0.0
  0
POINT
  5
BAC
330
B73
100
AcDbEntity
  8
Defpoints
 62
     0
440
 16777216
100
AcDbPoint
 10
1949.825470294104
 20
2515.510877663665
 30
0.0
  0
ENDBLK
  5
B75
330
B73
100
AcDbEntity
  8
0
100
AcDbBlockEnd
  0
BLOCK
  5
B7F
330
B7E
100
AcDbEntity
  8
0
100
AcDbBlockBegin
  2
*D20
 70
     1
 10
0.0
 20
0.0
 30
0.0
  3
*D20
  1

  0
LINE
  5
BAD
330
B7E
100
AcDbEntity
  8
标注
 62
     0
440
 16777216
370
    -2
100
AcDbLine
 10
1858.687926872644
 20
2429.032064416503
 30
0.0
 11
1937.432694629711
 21
2457.550901189511
 31
0.0
  0
MTEXT
  5
BAE
330
B7E
100
AcDbEntity
  8
标注
 62
     0
440
 16777216
100
AcDbMText
 10
1891.5643372076
 20
2457.557016537191
 30
0.0
 40
30.0
 41
0.0
 46
0.0
 71
     5
 72
     1
  1
R46
 11
0.94023603292021
 21
0.3405234241553228
 31
0.0
 73
     1
 44
1.0
  0
LINE
  5
BAF
330
B7E
100
AcDbEntity
  8
标注
 62
     0
440
 16777216
370
    -2
100
AcDbLine
 10
1983.034142226335
 20
2474.066287261042
 30
0.0
 11
1939.783284712012
 21
2458.402209749899
 31
0.0
  0
INSERT
  5
BB0
330
B7E
100
AcDbEntity
  8
标注
 62
     0
440
 16777216
370
    -2
100
AcDbBlockReference
  2
_ClosedBlank
 10
1939.783284712012
 20
2458.402209749899
 30
0.0
 41
2.5
 42
2.5
 43
2.5
 50
19.90876709784824
  0
POINT
  5
BB1
330
B7E
100
AcDbEntity
  8
Defpoints
 62
     0
440
 16777216
100
AcDbPoint
 10
1939.783284712012
 20
2458.402209749899
 30
0.0
  0
POINT
  5
BB2
330
B7E
100
AcDbEntity
  8
Defpoints
 62
     0
440
 16777216
100
AcDbPoint
 10
1983.034142226335
 20
2474.066287261042
 30
0.0
  0
ENDBLK
  5
B80
330
B7E
100
AcDbEntity
  8
0
100
AcDbBlockEnd
  0
BLOCK
  5
B88
330
B87
100
AcDbEntity
  8
0
100
AcDbBlockBegin
  2
*D21
 70
     1
 10
0.0
 20
0.0
 30
0.0
  3
*D21
  1

  0
LINE
  5
BD7
330
B87
100
AcDbEntity
  8
标注
 62
     0
440
 16777216
370
    -2
100
AcDbLine
 10
2055.686747368988
 20
2508.066287261041
 30
0.0
 11
2123.435904488545
 21
2508.066287261041
 31
0.0
  0
LINE
  5
BD8
330
B87
100
AcDbEntity
  8
标注
 62
     0
440
 16777216
370
    -2
100
AcDbLine
 10
2040.770270619406
 20
2428.066287261041
 30
0.0
 11
2123.435904488545
 21
2428.066287261041
 31
0.0
  0
LINE
  5
BD9
330
B87
100
AcDbEntity
  8
标注
 62
     0
440
 16777216
370
    -2
100
AcDbLine
 10
2122.185904488545
 20
2505.566287261042
 30
0.0
 11
2122.185904488545
 21
2430.566287261041
 31
0.0
  0
INSERT
  5
BDA
330
B87
100
AcDbEntity
  8
标注
 62
     0
440
 16777216
370
    -2
100
AcDbBlockReference
  2
_ClosedBlank
 10
2122.185904488545
 20
2508.066287261041
 30
0.0
 41
2.5
 42
2.5
 43
2.5
 50
90.0
  0
INSERT
  5
BDB
330
B87
100
AcDbEntity
  8
标注
 62
     0
440
 16777216
370
    -2
100
AcDbBlockReference
  2
_ClosedBlank
 10
2122.185904488545
 20
2428.066287261041
 30
0.0
 41
2.5
 42
2.5
 43
2.5
 50
270.0
  0
MTEXT
  5
BDC
330
B87
100
AcDbEntity
  8
标注
 62
     0
440
 16777216
100
AcDbMText
 10
2106.560904488544
 20
2468.066287261042
 30
0.0
 40
30.0
 41
0.0
 46
0.0
 71
     5
 72
     1
  1
80
 11
0.0000000000000001
 21
1.0
 31
0.0
 73
     1
 44
1.0
  0
POINT
  5
BDD
330
B87
100
AcDbEntity
  8
Defpoints
 62
     0
440
 16777216
100
AcDbPoint
 10
2055.061747368988
 20
2508.066287261041
 30
0.0
  0
POINT
  5
BDE
330
B87
100
AcDbEntity
  8
Defpoints
 62
     0
440
 16777216
100
AcDbPoint
 10
2040.145270619406
 20
2428.066287261041
 30
0.0
  0
POINT
  5
BDF
330
B87
100
AcDbEntity
  8
Defpoints
 62
     0
440
 16777216
100
AcDbPoint
 10
2122.185904488545
 20
2428.066287261041
 30
0.0
  0
ENDBLK
  5
B89
330
B87
100
AcDbEntity
  8
0
100
AcDbBlockEnd
  0
ENDSEC
  0
SECTION
  2
ENTITIES
  0
LINE
  5
3DA
330
1F
100
AcDbEntity
  8
中心线
100
AcDbLine
 10
1537.040150664657
 20
1970.114794766484
 30
0.0
 11
2453.941817065217
 21
1970.114794766484
 31
0.0
  0
LINE
  5
3DB
330
1F
100
AcDbEntity
  8
中心线
100
AcDbLine
 10
2508.941817065217
 20
2025.114794766484
 30
0.0
 11
2508.941817065219
 21
2606.209048179405
 31
0.0
  0
LINE
  5
3DC
330
1F
100
AcDbEntity
  8
0
100
AcDbLine
 10
2524.841817065217
 20
2025.114794766484
 30
0.0
 11
2524.841817065219
 21
2570.114794766484
 31
0.0
  0
LINE
  5
3DD
330
1F
100
AcDbEntity
  8
0
100
AcDbLine
 10
2493.041817065217
 20
2025.114794766484
 30
0.0
 11
2493.041817065219
 21
2570.114794766484
 31
0.0
  0
ARC
  5
3DE
330
1F
100
AcDbEntity
  8
中心线
100
AcDbCircle
 10
2453.941817065217
 20
2025.114794766484
 30
0.0
 40
55.0
100
AcDbArc
 50
270.0
 51
0.0
  0
ARC
  5
3DF
330
1F
100
AcDbEntity
  8
0
100
AcDbCircle
 10
2453.941817065217
 20
2025.114794766484
 30
0.0
 40
70.9
100
AcDbArc
 50
270.0
 51
0.0
  0
ARC
  5
3E0
330
1F
100
AcDbEntity
  8
0
100
AcDbCircle
 10
2453.941817065217
 20
2025.114794766484
 30
0.0
 40
39.1
100
AcDbArc
 50
270.0
 51
0.0
  0
LINE
  5
3E1
330
1F
100
AcDbEntity
  8
0
100
AcDbLine
 10
1568.941817065218
 20
1986.014794766484
 30
0.0
 11
2453.941817065217
 21
1986.014794766484
 31
0.0
  0
LINE
  5
3E2
330
1F
100
AcDbEntity
  8
0
100
AcDbLine
 10
1568.941817065218
 20
1954.214794766484
 30
0.0
 11
2399.070155326283
 21
1954.214794766484
 31
0.0
  0
ARC
  5
3E3
330
1F
100
AcDbEntity
  8
0
100
AcDbCircle
 10
2508.941817065219
 20
2570.114794766484
 30
0.0
 40
15.89999999999963
100
AcDbArc
 50
0.0
 51
180.0
  0
ARC
  5
3E4
330
1F
100
AcDbEntity
  8
0
100
AcDbCircle
 10
2508.941817065219
 20
2570.114794766484
 30
0.0
 40
28.5
100
AcDbArc
 50
303.9103294427579
 51
236.0896705572421
  0
ARC
  5
3E5
330
1F
100
AcDbEntity
  8
0
100
AcDbCircle
 10
1568.941817065218
 20
1970.114794766484
 30
0.0
 40
15.90000000000009
100
AcDbArc
 50
90.0
 51
270.0
  0
ARC
  5
3E6
330
1F
100
AcDbEntity
  8
0
100
AcDbCircle
 10
1568.941817065218
 20
1970.114794766484
 30
0.0
 40
28.5
100
AcDbArc
 50
33.91032944275791
 51
326.0896705572421
  0
LINE
  5
3E9
330
1F
100
AcDbEntity
  8
0
100
AcDbLine
 10
1553.041817065217
 20
2849.67834653552
 30
0.0
 11
1553.041817065217
 21
2829.67834653552
 31
0.0
  0
LINE
  5
3EA
330
1F
100
AcDbEntity
  8
0
100
AcDbLine
 10
1584.841817065217
 20
2849.678346535519
 30
0.0
 11
1584.841817065217
 21
2829.67834653552
 31
0.0
  0
LINE
  5
3EB
330
1F
100
AcDbEntity
  8
中心线
100
AcDbLine
 10
2508.941817065217
 20
2878.405449086611
 30
0.0
 11
2508.941817065217
 21
2751.892041729459
 31
0.0
  0
LINE
  5
3EC
330
1F
100
AcDbEntity
  8
中心线
100
AcDbLine
 10
1623.941817065217
 20
2774.67834653552
 30
0.0
 11
2534.091829391698
 21
2774.67834653552
 31
0.0
  0
LINE
  5
3ED
330
1F
100
AcDbEntity
  8
0
100
AcDbLine
 10
1623.941817065217
 20
2758.77834653552
 30
0.0
 11
2508.941817065216
 21
2758.778346535521
 31
0.0
  0
LINE
  5
3EE
330
1F
100
AcDbEntity
  8
0
100
AcDbLine
 10
1623.941817065217
 20
2790.57834653552
 30
0.0
 11
2399.042842937956
 21
2790.57834653552
 31
0.0
  0
ARC
  5
3EF
330
1F
100
AcDbEntity
  8
中心线
100
AcDbCircle
 10
1623.941817065217
 20
2829.67834653552
 30
0.0
 40
55.0
100
AcDbArc
 50
180.0
 51
270.0
  0
ARC
  5
3F0
330
1F
100
AcDbEntity
  8
0
100
AcDbCircle
 10
1623.941817065217
 20
2829.67834653552
 30
0.0
 40
70.9
100
AcDbArc
 50
180.0
 51
270.0
  0
ARC
  5
3F1
330
1F
100
AcDbEntity
  8
0
100
AcDbCircle
 10
1623.941817065217
 20
2829.67834653552
 30
0.0
 40
39.1
100
AcDbArc
 50
180.0
 51
270.0
  0
LINE
  5
3F2
330
1F
100
AcDbEntity
  8
0
100
AcDbLine
 10
1568.941817065218
 20
2862.67834653552
 30
0.0
 11
1540.441817065218
 21
2862.67834653552
 31
0.0
  0
LINE
  5
3F3
330
1F
100
AcDbEntity
  8
0
100
AcDbLine
 10
1540.441817065218
 20
2862.67834653552
 30
0.0
 11
1540.441817065218
 21
2849.67834653552
 31
0.0
  0
LINE
  5
3F4
330
1F
100
AcDbEntity
  8
0
100
AcDbLine
 10
1540.441817065218
 20
2849.67834653552
 30
0.0
 11
1568.941817065216
 21
2849.678346535519
 31
0.0
  0
LINE
  5
3F5
330
1F
100
AcDbEntity
  8
0
100
AcDbLine
 10
1568.941817065216
 20
2862.67834653552
 30
0.0
 11
1597.441817065216
 21
2862.67834653552
 31
0.0
  0
LINE
  5
3F6
330
1F
100
AcDbEntity
  8
0
100
AcDbLine
 10
1597.441817065216
 20
2862.67834653552
 30
0.0
 11
1597.441817065216
 21
2849.67834653552
 31
0.0
  0
LINE
  5
3F7
330
1F
100
AcDbEntity
  8
0
100
AcDbLine
 10
1597.441817065216
 20
2849.67834653552
 30
0.0
 11
1568.941817065218
 21
2849.678346535519
 31
0.0
  0
LINE
  5
3F8
330
1F
100
AcDbEntity
  8
中心线
100
AcDbLine
 10
1522.217468080295
 20
2862.67834653552
 30
0.0
 11
2563.990129951159
 21
2862.678346535519
 31
0.0
  0
LINE
  5
3F9
330
1F
100
AcDbEntity
  8
中心线
100
AcDbLine
 10
1568.941817065217
 20
2829.67834653552
 30
0.0
 11
1568.941817065217
 21
2874.174623584348
 31
0.0
  0
LINE
  5
3FA
330
1F
100
AcDbEntity
  8
中心线
100
AcDbLine
 10
1568.941817065218
 20
2006.478653331607
 30
0.0
 11
1568.941817065218
 21
1936.563058493086
 31
0.0
  0
LINE
  5
3FB
330
1F
100
AcDbEntity
  8
0
100
AcDbLine
 10
2480.441817065214
 20
2862.678346535521
 30
0.0
 11
2508.941817065212
 21
2862.67834653552
 31
0.0
  0
LINE
  5
3FC
330
1F
100
AcDbEntity
  8
0
100
AcDbLine
 10
2537.441817065212
 20
2862.678346535521
 30
0.0
 11
2508.941817065214
 21
2862.67834653552
 31
0.0
  0
LINE
  5
3FD
330
1F
100
AcDbEntity
  8
0
100
AcDbLine
 10
2480.441817065214
 20
2862.678346535521
 30
0.0
 11
2480.441817065214
 21
2849.678346535521
 31
0.0
  0
LINE
  5
3FE
330
1F
100
AcDbEntity
  8
0
100
AcDbLine
 10
2537.441817065212
 20
2849.353681093927
 30
0.0
 11
2537.517712826434
 21
2862.67834653552
 31
0.0
  0
LINE
  5
3FF
330
1F
100
AcDbEntity
  8
0
100
AcDbLine
 10
2480.441817065214
 20
2849.678346535521
 30
0.0
 11
2537.441817065212
 21
2849.353681093927
 31
0.0
  0
ARC
  5
400
330
1F
100
AcDbEntity
  8
0
100
AcDbCircle
 10
2508.941817065217
 20
2774.67834653552
 30
0.0
 40
15.90000000000009
100
AcDbArc
 50
179.3473067228543
 51
0.0
  0
LINE
  5
401
330
1F
100
AcDbEntity
  8
0
100
AcDbLine
 10
2493.041817065217
 20
2774.67834653552
 30
0.0
 11
2493.468585806906
 21
2849.604147559624
 31
0.0
  0
LINE
  5
402
330
1F
100
AcDbEntity
  8
0
100
AcDbLine
 10
2524.841817065217
 20
2774.67834653552
 30
0.0
 11
2525.267554149629
 21
2849.423024294726
 31
0.0
  0
LINE
  5
403
330
1F
100
AcDbEntity
  8
中心线
100
AcDbLine
 10
1225.418304498406
 20
2570.114794766483
 30
0.0
 11
1278.804422387556
 21
2570.114794766484
 31
0.0
  0
LINE
  5
404
330
1F
100
AcDbEntity
  8
0
100
AcDbLine
 10
1258.804422387556
 20
2586.014794766483
 30
0.0
 11
1278.804422387556
 21
2586.014794766484
 31
0.0
  0
LINE
  5
405
330
1F
100
AcDbEntity
  8
0
100
AcDbLine
 10
1258.804422387556
 20
2554.214794766484
 30
0.0
 11
1278.804422387556
 21
2554.214794766484
 31
0.0
  0
LINE
  5
406
330
1F
100
AcDbEntity
  8
中心线
100
AcDbLine
 10
1236.231308643358
 20
1970.114794766484
 30
0.0
 11
1362.992918756631
 21
1970.114794766484
 31
0.0
  0
LINE
  5
408
330
1F
100
AcDbEntity
  8
中心线
100
AcDbLine
 10
1333.804422387556
 20
2515.114794766484
 30
0.0
 11
1333.804422387556
 21
1920.637507856035
 31
0.0
  0
LINE
  5
409
330
1F
100
AcDbEntity
  8
0
100
AcDbLine
 10
1349.704422387555
 20
2515.114794766484
 30
0.0
 11
1349.704422387555
 21
1970.114794766483
 31
0.0
  0
LINE
  5
40A
330
1F
100
AcDbEntity
  8
0
100
AcDbLine
 10
1317.904422387556
 20
2515.114794766484
 30
0.0
 11
1317.904422387554
 21
1986.014794766484
 31
0.0
  0
ARC
  5
40C
330
1F
100
AcDbEntity
  8
中心线
100
AcDbCircle
 10
1278.804422387556
 20
2515.114794766484
 30
0.0
 40
55.0
100
AcDbArc
 50
0.0
 51
90.0
  0
ARC
  5
40D
330
1F
100
AcDbEntity
  8
0
100
AcDbCircle
 10
1278.804422387556
 20
2515.114794766484
 30
0.0
 40
70.9
100
AcDbArc
 50
0.0
 51
90.0
  0
ARC
  5
40E
330
1F
100
AcDbEntity
  8
0
100
AcDbCircle
 10
1278.804422387556
 20
2515.114794766484
 30
0.0
 40
39.1
100
AcDbArc
 50
0.0
 51
90.0
  0
LINE
  5
40F
330
1F
100
AcDbEntity
  8
0
100
AcDbLine
 10
1245.804422387556
 20
2570.114794766484
 30
0.0
 11
1245.804422387556
 21
2598.614794766484
 31
0.0
  0
LINE
  5
410
330
1F
100
AcDbEntity
  8
0
100
AcDbLine
 10
1258.804422387556
 20
2570.114794766484
 30
0.0
 11
1258.804422387556
 21
2598.614794766484
 31
0.0
  0
LINE
  5
411
330
1F
100
AcDbEntity
  8
0
100
AcDbLine
 10
1245.804422387554
 20
2598.614794766484
 30
0.0
 11
1258.804422387556
 21
2598.614794766484
 31
0.0
  0
LINE
  5
412
330
1F
100
AcDbEntity
  8
0
100
AcDbLine
 10
1245.804422387556
 20
2570.114794766484
 30
0.0
 11
1245.804422387556
 21
2541.614794766483
 31
0.0
  0
LINE
  5
413
330
1F
100
AcDbEntity
  8
0
100
AcDbLine
 10
1258.804422387556
 20
2570.114794766484
 30
0.0
 11
1258.804422387556
 21
2541.614794766483
 31
0.0
  0
LINE
  5
414
330
1F
100
AcDbEntity
  8
0
100
AcDbLine
 10
1245.804422387554
 20
2541.614794766483
 30
0.0
 11
1258.804422387556
 21
2541.614794766483
 31
0.0
  0
LINE
  5
415
330
1F
100
AcDbEntity
  8
中心线
100
AcDbLine
 10
1245.804422387554
 20
2541.614794766483
 30
0.0
 11
1245.804422387554
 21
1849.896555400428
 31
0.0
  0
LINE
  5
41A
330
1F
100
AcDbEntity
  8
0
100
AcDbLine
 10
1245.804422387554
 20
1970.114794766484
 30
0.0
 11
1245.804422387554
 21
1998.614794766484
 31
0.0
  0
LINE
  5
41B
330
1F
100
AcDbEntity
  8
0
100
AcDbLine
 10
1258.804422387554
 20
1970.114794766484
 30
0.0
 11
1258.804422387554
 21
1998.614794766484
 31
0.0
  0
LINE
  5
41C
330
1F
100
AcDbEntity
  8
0
100
AcDbLine
 10
1245.804422387554
 20
1970.114794766484
 30
0.0
 11
1245.804422387554
 21
1941.614794766483
 31
0.0
  0
LINE
  5
41D
330
1F
100
AcDbEntity
  8
0
100
AcDbLine
 10
1258.804422387554
 20
1970.114794766484
 30
0.0
 11
1258.804422387554
 21
1941.614794766483
 31
0.0
  0
ARC
  5
41E
330
1F
100
AcDbEntity
  8
0
100
AcDbCircle
 10
1333.804422387556
 20
1970.114794766484
 30
0.0
 40
15.89999999999963
100
AcDbArc
 50
270.0
 51
90.0
  0
LINE
  5
41F
330
1F
100
AcDbEntity
  8
0
100
AcDbLine
 10
1333.804422387556
 20
1986.014794766484
 30
0.0
 11
1258.804422387554
 21
1986.014794766484
 31
0.0
  0
LINE
  5
420
330
1F
100
AcDbEntity
  8
0
100
AcDbLine
 10
1333.804422387556
 20
1954.214794766484
 30
0.0
 11
1258.804422387554
 21
1954.214794766484
 31
0.0
  0
LINE
  5
425
330
1F
100
AcDbEntity
  8
0
100
AcDbLine
 10
1245.804422387554
 20
1941.614794766483
 30
0.0
 11
1258.804422387554
 21
1941.614794766483
 31
0.0
  0
LINE
  5
426
330
1F
100
AcDbEntity
  8
0
100
AcDbLine
 10
1245.804422387554
 20
1998.614794766484
 30
0.0
 11
1258.804422387554
 21
1998.614794766484
 31
0.0
  0
LINE
  5
428
330
1F
100
AcDbEntity
  8
中心线
100
AcDbLine
 10
2475.209581129075
 20
2570.114794766484
 30
0.0
 11
2544.641365917538
 21
2570.114794766484
 31
0.0
  0
DIMENSION
  5
429
330
1F
100
AcDbEntity
  8
标注
100
AcDbDimension
280
     0
  2
*D2
 10
2653.045407214544
 20
1970.114794766484
 30
0.0
 11
2637.420407214543
 21
2270.114794766485
 31
0.0
 70
    32
 71
     5
 42
600.0
 73
     0
 74
     0
 75
     0
  3
线性标注
100
AcDbAlignedDimension
 13
2537.441817065219
 23
2570.114794766484
 33
0.0
 14
2440.715148872754
 24
1970.114794766484
 34
0.0
 50
90.0
100
AcDbRotatedDimension
  0
DIMENSION
  5
42A
330
1F
100
AcDbEntity
  8
标注
100
AcDbDimension
280
     0
  2
*D3
 10
1568.941817065218
 20
1722.735151314395
 30
0.0
 11
2038.941817065218
 21
1738.360151314395
 31
0.0
 70
    32
 71
     5
 42
939.9999999999991
 73
     0
 74
     0
 75
     0
  3
线性标注
100
AcDbAlignedDimension
 13
2508.941817065217
 23
2025.114794766484
 33
0.0
 14
1568.941817065218
 24
1970.114794766484
 34
0.0
100
AcDbRotatedDimension
  0
DIMENSION
  5
42B
330
1F
100
AcDbEntity
  8
标注
100
AcDbDimension
280
     0
  2
*D4
 10
1498.518361423996
 20
2849.67834653552
 30
0.0
 11
1498.518361423996
 21
2893.094020860111
 31
0.0
 70
   160
 71
     5
 42
13.0
 73
     0
 74
     0
 75
     0
  3
线性标注
100
AcDbAlignedDimension
 13
1597.441817065216
 23
2862.67834653552
 33
0.0
 14
1597.441817065216
 24
2849.67834653552
 34
0.0
 50
90.0
100
AcDbRotatedDimension
  0
DIMENSION
  5
42C
330
1F
100
AcDbEntity
  8
标注
100
AcDbDimension
280
     0
  2
*D5
 10
1474.994276386533
 20
2862.67834653552
 30
0.0
 11
1474.994276386533
 21
2810.930552192619
 31
0.0
 70
   160
  1
88
 71
     5
 42
103.9000000000001
 73
     0
 74
     0
 75
     0
  3
线性标注
100
AcDbAlignedDimension
 13
1623.941817065217
 23
2758.77834653552
 33
0.0
 14
1540.441817065218
 24
2862.67834653552
 34
0.0
 50
90.0
100
AcDbRotatedDimension
  0
DIMENSION
  5
42E
330
1F
100
AcDbEntity
  8
标注
100
AcDbDimension
280
     0
  2
*D6
 10
1245.804422387556
 20
2488.941177447816
 30
0.0
 11
1222.679422387556
 21
2488.941177447816
 31
0.0
 70
   160
 71
     5
 42
13.0
 73
     0
 74
     0
 75
     0
  3
线性标注
100
AcDbAlignedDimension
 13
1258.804422387556
 23
2541.614794766483
 33
0.0
 14
1245.804422387556
 24
2541.614794766483
 34
0.0
100
AcDbRotatedDimension
  0
DIMENSION
  5
42F
330
1F
100
AcDbEntity
  8
标注
100
AcDbDimension
280
     0
  2
*D7
 10
1349.704422387555
 20
2620.318350784764
 30
0.0
 11
1297.754422387555
 21
2635.943350784764
 31
0.0
 70
    32
  1
88
 71
     5
 42
103.8999999999996
 73
     0
 74
     0
 75
     0
  3
线性标注
100
AcDbAlignedDimension
 13
1245.804422387556
 23
2598.614794766484
 33
0.0
 14
1349.704422387555
 24
2515.114794766484
 34
0.0
100
AcDbRotatedDimension
  0
DIMENSION
  5
430
330
1F
100
AcDbEntity
  8
标注
100
AcDbDimension
280
     0
  2
*D8
 10
2453.941817065219
 20
2025.11479476648
 30
0.0
 11
2567.487582651927
 21
1914.954394955678
 31
0.0
 70
   164
 71
     5
 42
54.99999999999568
 73
     0
 74
     0
 75
     0
  3
线性标注
100
AcDbRadialDimension
 15
2493.416709330626
 25
1986.816845988066
 35
0.0
 40
0.0
1001
ACAD
1000
DSTYLE
1002
{
1070
   288
1070
     1
1002
}
1001
ACAD_DSTYLE_DIMRADIAL_EXTENSION
1070
   387
1070
     1
1070
   388
1040
4.712388980384689
1070
   390
1040
0.0
  0
DIMENSION
  5
431
330
1F
100
AcDbEntity
  8
标注
100
AcDbDimension
280
     0
  2
*D9
 10
1623.941817065218
 20
2829.678346535529
 30
0.0
 11
1513.111745440877
 21
2696.49865724643
 31
0.0
 70
   164
  1
2-<>
 71
     5
 42
55.00000000001
 73
     0
 74
     0
 75
     0
  3
线性标注
100
AcDbRadialDimension
 15
1588.760346629683
 25
2787.402299676879
 35
0.0
 40
0.0
1001
ACAD
1000
DSTYLE
1002
{
1070
   288
1070
     1
1002
}
1001
ACAD_DSTYLE_DIMRADIAL_EXTENSION
1070
   387
1070
     1
1070
   388
1040
3.141592653589793
1070
   390
1040
4.712388980384689
  0
DIMENSION
  5
432
330
1F
100
AcDbEntity
  8
标注
100
AcDbDimension
280
     0
  2
*D10
 10
1278.804422387561
 20
2515.114794766482
 30
0.0
 11
1414.120888761426
 21
2555.477205811554
 31
0.0
 70
   164
 71
     5
 42
54.99999999999409
 73
     0
 74
     0
 75
     0
  3
线性标注
100
AcDbRadialDimension
 15
1331.509729851858
 25
2530.835817795958
 35
0.0
 40
0.0
1001
ACAD
1000
DSTYLE
1002
{
1070
   288
1070
     1
1002
}
1001
ACAD_DSTYLE_DIMRADIAL_EXTENSION
1070
   387
1070
     1
1070
   388
1040
0.0
1070
   390
1040
1.570796326794896
  0
DIMENSION
  5
433
330
1F
100
AcDbEntity
  8
标注
100
AcDbDimension
280
     0
  2
*D11
 10
1544.395373266249
 20
1955.633009765177
 30
0.0
 11
1655.232096990388
 21
2021.023891489954
 31
0.0
 70
   163
  1
{\fGulim|b0|i0|c129|p34;3-<>}
 71
     5
 42
57.0
 73
     0
 74
     0
 75
     0
  3
线性标注
100
AcDbDiametricDimension
 15
1593.488260864186
 25
1984.596579767791
 35
0.0
 40
0.0
1001
ACAD
1000
DSTYLE
1002
{
1070
   288
1070
     1
1002
}
1001
ACAD_DSTYLE_DIMRADIAL_EXTENSION
1070
   387
1070
     1
1070
   388
1040
0.5918468992120046
1070
   390
1040
5.691338407967581
  0
LINE
  5
62D
330
1F
100
AcDbEntity
  8
0
  6
Continuous
 62
     7
100
AcDbLine
 10
3495.662311952151
 20
1767.456102260615
 30
0.0
 11
3492.296690207407
 21
1767.478345029229
 31
0.0
  0
LINE
  5
62E
330
1F
100
AcDbEntity
  8
0
  6
Continuous
 62
     7
100
AcDbLine
 10
3019.000986282629
 20
1849.351492926449
 30
0.0
 11
3488.398850468536
 21
1737.086428969217
 31
0.0
  0
LINE
  5
631
330
1F
100
AcDbEntity
  8
0
  6
Continuous
 62
     7
100
AcDbLine
 10
3026.26444778787
 20
1879.721166218912
 30
0.0
 11
3495.662311952151
 21
1767.456102260615
 31
0.0
  0
LINE
  5
634
330
1F
100
AcDbEntity
  8
0
  6
Continuous
 62
     7
100
AcDbLine
 10
3050.064845814689
 20
1895.825175818444
 30
0.0
 11
3019.063521587673
 21
1889.225947198752
 31
0.0
  0
LINE
  5
635
330
1F
100
AcDbEntity
  8
0
  6
Continuous
 62
     7
100
AcDbLine
 10
3047.488808745806
 20
1907.926675084184
 30
0.0
 11
3056.444746860356
 21
1909.833118896377
 31
0.0
  0
LINE
  5
636
330
1F
100
AcDbEntity
  8
0
  6
Continuous
 62
     7
100
AcDbLine
 10
3511.506605764531
 20
1791.199396444428
 30
0.0
 11
3522.736986562116
 21
2432.971349836474
 31
0.0
  0
LINE
  5
637
330
1F
100
AcDbEntity
  8
0
  6
Continuous
 62
     7
100
AcDbLine
 10
3542.728015667066
 20
1790.653052346746
 30
0.0
 11
3544.462951257689
 21
1889.797775700027
 31
0.0
  0
LINE
  5
638
330
1F
100
AcDbEntity
  8
0
  6
Continuous
 62
     7
100
AcDbLine
 10
3544.462951257689
 20
1889.797775700027
 30
0.0
 11
3553.958396464418
 21
2432.42500573878
 31
0.0
  0
LINE
  5
639
330
1F
100
AcDbEntity
  8
0
  6
Continuous
 62
     7
100
AcDbLine
 10
3596.345408168324
 20
2445.017056028319
 30
0.0
 11
3605.301346260187
 21
2446.923499860957
 31
0.0
  0
LINE
  5
63A
330
1F
100
AcDbEntity
  8
0
  6
Continuous
 62
     7
100
AcDbLine
 10
3593.76937109921
 20
2457.118555294046
 30
0.0
 11
3562.768046872193
 21
2450.519326674354
 31
0.0
  0
LINE
  5
63B
330
1F
100
AcDbEntity
  8
0
  6
Continuous
 62
     7
100
AcDbLine
 10
3587.26794421369
 20
2487.660434381216
 30
0.0
 11
3556.266620007837
 21
2481.061205762566
 31
0.0
  0
LINE
  5
63C
330
1F
100
AcDbEntity
  8
0
  6
Continuous
 62
     7
100
AcDbLine
 10
3584.691907145869
 20
2499.761933625387
 30
0.0
 11
3593.647845259127
 21
2501.668377459079
 31
0.0
  0
LINE
  5
63D
330
1F
100
AcDbEntity
  8
0
  6
Continuous
 62
     7
100
AcDbLine
 10
3559.783442436547
 20
2480.997345643586
 30
0.0
 11
3556.266620007837
 21
2481.061205762566
 31
0.0
  0
SPLINE
  5
63E
330
1F
100
AcDbEntity
  8
0
  6
Continuous
 62
     7
100
AcDbSpline
210
0.0
220
0.0
230
1.0
 70
  1064
 71
     3
 72
    14
 73
    10
 74
     8
 42
0.000000001
 43
0.0000000001
 44
0.0000000001
 12
0.9725705727950508
 22
-0.2326079984289166
 32
0.0
 13
-0.3562273820678592
 23
-0.9343993002271993
 33
0.0
 40
0.0
 40
0.0
 40
0.0
 40
0.0
 40
6.109201386252638
 40
12.88668510354216
 40
20.29782438184668
 40
28.13618885346082
 40
36.09927525703533
 40
43.85889094718571
 40
51.11058577751815
 40
51.11058577751815
 40
51.11058577751815
 40
51.11058577751815
 10
3062.748485190137
 20
1909.718652660313
 30
0.0
 10
3064.729028353986
 20
1909.244969624827
 30
0.0
 10
3068.725760461314
 20
1907.419049029799
 30
0.0
 10
3073.812010567076
 20
1902.842851354692
 30
0.0
 10
3077.9581637422
 20
1896.706087627629
 30
0.0
 10
3080.866358900424
 20
1889.47951059829
 30
0.0
 10
3082.327559035261
 20
1881.710428756322
 30
0.0
 10
3082.231435654027
 20
1874.002975204089
 30
0.0
 10
3081.076232781728
 20
1869.076218599826
 30
0.0
 10
3080.215148693407
 20
1866.817559074851
 30
0.0
 11
3062.748485190137
 21
1909.718652660313
 31
0.0
 11
3068.345989716718
 21
1907.271146857929
 31
0.0
 11
3073.451375003454
 21
1902.813644573902
 31
0.0
 11
3077.651033101285
 21
1896.707266165733
 31
0.0
 11
3080.604732667446
 21
1889.446714088741
 31
0.0
 11
3082.073182539605
 21
1881.620195064056
 31
0.0
 11
3081.937417655211
 21
1873.861767159191
 31
0.0
 11
3080.215148693407
 21
1866.817559074851
 31
0.0
  0
SPLINE
  5
640
330
1F
100
AcDbEntity
  8
0
  6
Continuous
 62
     7
100
AcDbSpline
210
0.0
220
0.0
230
1.0
 70
  1064
 71
     3
 72
    17
 73
    13
 74
    11
 42
0.000000001
 43
0.0000000001
 44
0.0000000001
 12
0.9725705728535556
 22
-0.2326079981842983
 32
0.0
 13
-0.9778897806697681
 23
-0.209120962272157
 33
0.0
 40
0.0
 40
0.0
 40
0.0
 40
0.0
 40
6.109201405849438
 40
12.8866851229706
 40
20.29782438994828
 40
28.13618886150693
 40
36.09927526802305
 40
43.85889095965872
 40
51.12926404754939
 40
57.73876000482042
 40
63.70577752744089
 40
68.62915117393495
 40
68.62915117393495
 40
68.62915117393495
 40
68.62915117393495
 10
3599.951583589969
 20
2501.553911201504
 30
0.0
 10
3601.93212676029
 20
2501.080228164998
 30
0.0
 10
3605.928860400473
 20
2499.254311386782
 30
0.0
 10
3611.015102795966
 20
2494.678094406998
 30
0.0
 10
3615.161288077164
 20
2488.541411046106
 30
0.0
 10
3618.069353947949
 20
2481.314510609856
 30
0.0
 10
3619.531044917799
 20
2473.546656541856
 30
0.0
 10
3619.43308925601
 20
2465.828548747604
 30
0.0
 10
3617.771785407987
 20
2458.741443451032
 30
0.0
 10
3614.635067818935
 20
2452.815892728268
 30
0.0
 10
3610.337142502198
 20
2448.689862267211
 30
0.0
 10
3606.900068615408
 20
2447.265957235611
 30
0.0
 10
3605.295229690299
 20
2446.922763690751
 30
0.0
 11
3599.951583589969
 21
2501.553911201504
 31
0.0
 11
3605.549088138408
 21
2499.106405400196
 31
0.0
 11
3610.654473424911
 21
2494.648903116159
 31
0.0
 11
3614.854131501119
 21
2488.542524706866
 31
0.0
 11
3617.807831067278
 21
2481.281972629933
 31
0.0
 11
3619.276280961063
 21
2473.455453606313
 31
0.0
 11
3619.140516055277
 21
2465.697025700336
 31
0.0
 11
3617.411535274605
 21
2458.635230581728
 31
0.0
 11
3614.229410297681
 21
2452.842172888211
 31
0.0
 11
3609.851938021396
 21
2448.78717170626
 31
0.0
 11
3605.295229690299
 21
2446.922763690751
 31
0.0
  0
SPLINE
  5
641
330
1F
100
AcDbEntity
  8
0
  6
Continuous
 62
     7
100
AcDbSpline
210
0.0
220
0.0
230
1.0
 70
  1064
 71
     3
 72
     9
 73
     5
 74
     3
 42
0.000000001
 43
0.0000000001
 44
0.0000000001
 12
0.97788978093012
 22
0.2091209610547008
 32
0.0
 13
0.9725705729624534
 23
-0.2326079977289796
 33
0.0
 40
0.0
 40
0.0
 40
0.0
 40
0.0
 40
0.673001207629989
 40
6.314223181222365
 40
6.314223181222365
 40
6.314223181222365
 40
6.314223181222365
 10
3056.450863430245
 20
1909.833855066584
 30
0.0
 10
3056.670237098077
 20
1909.880767953027
 30
0.0
 10
3058.738116214293
 20
1910.269241007828
 30
0.0
 10
3060.919656361115
 20
1910.156050442986
 30
0.0
 10
3062.748485190137
 20
1909.718652660313
 30
0.0
 11
3056.450863430245
 21
1909.833855066584
 31
0.0
 11
3057.112337941783
 21
1909.95787964502
 31
0.0
 11
3062.748485190137
 21
1909.718652660313
 31
0.0
  0
SPLINE
  5
642
330
1F
100
AcDbEntity
  8
0
  6
Continuous
 62
     7
100
AcDbSpline
210
0.0
220
0.0
230
1.0
 70
  1064
 71
     3
 72
    10
 73
     6
 74
     4
 42
0.000000001
 43
0.0000000001
 44
0.0000000001
 12
-0.9725705728461482
 22
0.2326079982152697
 32
0.0
 13
-0.6056880269575921
 23
0.7957022143994696
 33
0.0
 40
0.0
 40
0.0
 40
0.0
 40
0.0
 40
6.109201405850272
 40
12.88668512293169
 40
15.01368985732797
 40
15.01368985732797
 40
15.01368985732797
 40
15.01368985732797
 10
3590.041669837481
 20
2445.131522285952
 30
0.0
 10
3588.061126667174
 20
2445.605205322522
 30
0.0
 10
3584.065369579473
 20
2447.429928263834
 30
0.0
 10
3580.299567021862
 20
2450.819295197826
 30
0.0
 10
3578.421117258013
 20
2453.118426101636
 30
0.0
 10
3577.991683491045
 20
2453.682580227369
 30
0.0
 11
3590.041669837481
 21
2445.131522285952
 31
0.0
 11
3584.444165289041
 21
2447.57902808726
 31
0.0
 11
3579.338780002539
 21
2452.03653037124
 31
0.0
 11
3577.991683491045
 21
2453.682580227369
 31
0.0
  0
SPLINE
  5
643
330
1F
100
AcDbEntity
  8
0
  6
Continuous
 62
     7
100
AcDbSpline
210
0.0
220
0.0
230
1.0
 70
  1064
 71
     3
 72
    11
 73
     7
 74
     5
 42
0.000000001
 43
0.0000000001
 44
0.0000000001
 12
0.2294927922338299
 22
0.9733103607342933
 32
0.0
 13
0.9778897807726375
 23
0.2091209617911199
 33
0.0
 40
0.0
 40
0.0
 40
0.0
 40
0.0
 40
3.826906949394524
 40
10.43640289531944
 40
16.40342043453068
 40
21.32679408100488
 40
21.32679408100488
 40
21.32679408100488
 40
21.32679408100488
 10
3571.462387015476
 20
2484.390651757808
 30
0.0
 10
3571.755136202621
 20
2485.632241152279
 30
0.0
 10
3572.764791763987
 20
2488.969435394143
 30
0.0
 10
3575.358451691199
 20
2493.870321955319
 30
0.0
 10
3579.656051815703
 20
2497.995397693899
 30
0.0
 10
3583.093184811882
 20
2499.419476252578
 30
0.0
 10
3584.698023737153
 20
2499.762669796647
 30
0.0
 11
3571.462387015476
 21
2484.390651757808
 31
0.0
 11
3572.581718152843
 21
2488.050202905728
 31
0.0
 11
3575.76384310814
 21
2493.84326059818
 31
0.0
 11
3580.141315406052
 21
2497.898261781197
 31
0.0
 11
3584.698023737153
 21
2499.762669796647
 31
0.0
  0
SPLINE
  5
646
330
1F
100
AcDbEntity
  8
0
  6
Continuous
 62
     7
100
AcDbSpline
210
0.0
220
0.0
230
1.0
 70
  1064
 71
     3
 72
    11
 73
     7
 74
     5
 42
0.000000001
 43
0.0000000001
 44
0.0000000001
 12
0.2294927922338299
 22
0.9733103607342933
 32
0.0
 13
0.9778897807726375
 23
0.2091209617911199
 33
0.0
 40
0.0
 40
0.0
 40
0.0
 40
0.0
 40
3.826906949394524
 40
10.43640289544127
 40
16.40342041788387
 40
21.32679406437784
 40
21.32679406437784
 40
21.32679406437784
 40
21.32679406437784
 10
3034.259288615646
 20
1892.555393216617
 30
0.0
 10
3034.552037802791
 20
1893.796982611087
 30
0.0
 10
3035.561693363515
 20
1897.134176853691
 30
0.0
 10
3038.155353292677
 20
1902.035063404978
 30
0.0
 10
3042.452953396122
 20
1906.160139157593
 30
0.0
 10
3045.890086390415
 20
1907.584217710378
 30
0.0
 10
3047.494925315692
 20
1907.927411254449
 30
0.0
 11
3034.259288615646
 21
1892.555393216617
 31
0.0
 11
3035.378619753013
 21
1896.214944364536
 31
0.0
 11
3038.560744708542
 21
1902.008002057
 31
0.0
 11
3042.938216984594
 21
1906.06300323894
 31
0.0
 11
3047.494925315692
 21
1907.927411254449
 31
0.0
  0
SPLINE
  5
649
330
1F
100
AcDbEntity
  8
0
  6
Continuous
 62
     7
100
AcDbSpline
210
0.0
220
0.0
230
1.0
 70
  1064
 71
     3
 72
     9
 73
     5
 74
     3
 42
0.000000001
 43
0.0000000001
 44
0.0000000001
 12
0.9725705727820743
 22
-0.2326079984831731
 32
0.0
 13
0.9781842131636265
 23
0.2077393682416908
 33
0.0
 40
0.0
 40
0.0
 40
0.0
 40
0.0
 40
10.02683115325542
 40
17.81714707468194
 40
17.81714707468194
 40
17.81714707468194
 40
17.81714707468194
 10
3488.398850468536
 20
1737.086428969217
 30
0.0
 10
3491.649450774506
 20
1736.308988593987
 30
0.0
 10
3497.619552325698
 20
1735.607620723537
 30
0.0
 10
3503.564367760858
 20
1736.261844366872
 30
0.0
 10
3506.104489110823
 20
1736.801296136179
 30
0.0
 11
3488.398850468536
 21
1737.086428969217
 31
0.0
 11
3498.360947133988
 21
1735.948899627141
 31
0.0
 11
3506.104489110823
 21
1736.801296136179
 31
0.0
  0
SPLINE
  5
64A
330
1F
100
AcDbEntity
  8
0
  6
Continuous
 62
     7
100
AcDbSpline
210
0.0
220
0.0
230
1.0
 70
  1064
 71
     3
 72
    13
 73
     9
 74
     7
 42
0.000000001
 43
0.0000000001
 44
0.0000000001
 12
0.976535051617655
 22
0.2153585219166022
 32
0.0
 13
0.0174963422894282
 23
0.999846927287618
 33
0.0
 40
0.0
 40
0.0
 40
0.0
 40
0.0
 40
2.387348038160573
 40
5.949293849538296
 40
10.32538715599198
 40
15.52430584115814
 40
21.5498060848196
 40
28.28018736163878
 40
28.28018736163878
 40
28.28018736163878
 40
28.28018736163878
 10
3499.638009671681
 20
1767.35297528052
 30
0.0
 10
3500.415119351572
 20
1767.524353862119
 30
0.0
 10
3502.295670191341
 20
1768.249385079165
 30
0.0
 10
3504.985660086302
 20
1770.487015825763
 30
0.0
 10
3507.551253926151
 20
1774.078184629298
 30
0.0
 10
3509.66043814668
 20
1778.865891535768
 30
0.0
 10
3511.097696397806
 20
1784.701631034581
 30
0.0
 10
3511.467353413012
 20
1788.956279431394
 30
0.0
 10
3511.506605764531
 20
1791.199396444428
 30
0.0
 11
3499.638009671681
 21
1767.35297528052
 31
0.0
 11
3501.871143495526
 21
1768.197098482491
 31
0.0
 11
3504.669305262252
 21
1770.40112858447
 31
0.0
 11
3507.270366033335
 21
1773.920315350176
 31
0.0
 11
3509.415879268355
 21
1778.655875343812
 31
0.0
 11
3510.895914548797
 21
1784.496778420821
 31
0.0
 11
3511.506605764531
 21
1791.199396444428
 31
0.0
  0
SPLINE
  5
64B
330
1F
100
AcDbEntity
  8
0
  6
Continuous
 62
     7
100
AcDbSpline
210
0.0
220
0.0
230
1.0
 70
  1064
 71
     3
 72
     9
 73
     5
 74
     3
 42
0.000000001
 43
0.0000000001
 44
0.0000000001
 12
0.97788978093012
 22
0.2091209610547008
 32
0.0
 13
0.9725705729624534
 23
-0.2326079977289796
 33
0.0
 40
0.0
 40
0.0
 40
0.0
 40
0.0
 40
0.6730012078529657
 40
6.314223181208935
 40
6.314223181208935
 40
6.314223181208935
 40
6.314223181208935
 10
3593.653961830075
 20
2501.669113607775
 30
0.0
 10
3593.873335497979
 20
2501.716026494234
 30
0.0
 10
3595.941214614277
 20
2502.104499548587
 30
0.0
 10
3598.122754761023
 20
2501.99130898416
 30
0.0
 10
3599.951583589969
 20
2501.553911201504
 30
0.0
 11
3593.653961830075
 21
2501.669113607775
 31
0.0
 11
3594.31543634185
 21
2501.793138186166
 31
0.0
 11
3599.951583589969
 21
2501.553911201504
 31
0.0
  0
SPLINE
  5
64C
330
1F
100
AcDbEntity
  8
0
  6
Continuous
 62
     7
100
AcDbSpline
210
0.0
220
0.0
230
1.0
 70
  1064
 71
     3
 72
     9
 73
     5
 74
     3
 42
0.000000001
 43
0.0000000001
 44
0.0000000001
 12
0.9725705730754139
 22
-0.2326079972566742
 32
0.0
 13
0.9765350520427755
 23
0.2153585199889104
 33
0.0
 40
0.0
 40
0.0
 40
0.0
 40
0.0
 40
3.347334652703498
 40
3.99250401311803
 40
3.99250401311803
 40
3.99250401311803
 40
3.99250401311803
 10
3495.662311952151
 20
1767.456102260615
 30
0.0
 10
3496.747485012635
 20
1767.196563324044
 30
0.0
 10
3498.116753678696
 20
1767.073472487325
 30
0.0
 10
3499.427999506699
 20
1767.306661040986
 30
0.0
 10
3499.638009671681
 20
1767.35297528052
 30
0.0
 11
3495.662311952151
 21
1767.456102260615
 31
0.0
 11
3499.002702374264
 21
1767.240600276776
 31
0.0
 11
3499.638009671681
 21
1767.35297528052
 31
0.0
  0
SPLINE
  5
64D
330
1F
100
AcDbEntity
  8
0
  6
Continuous
 62
     7
100
AcDbSpline
210
0.0
220
0.0
230
1.0
 70
  1064
 71
     3
 72
    14
 73
    10
 74
     8
 42
0.000000001
 43
0.0000000001
 44
0.0000000001
 12
0.9781842131045177
 22
0.2077393685200172
 32
0.0
 13
0.0174963602488715
 23
0.9998469269733451
 33
0.0
 40
0.0
 40
0.0
 40
0.0
 40
0.0
 40
1.934087968429147
 40
11.78231487048221
 40
22.10085030932998
 40
33.1276471931577
 40
44.92481512504995
 40
57.35054122193577
 40
70.19276996956573
 40
70.19276996956573
 40
70.19276996956573
 40
70.19276996956573
 10
3506.104489110823
 20
1736.801296136179
 30
0.0
 10
3506.735120549981
 20
1736.93522487392
 30
0.0
 10
3510.555997685662
 20
1737.846177877268
 30
0.0
 10
3517.463011265077
 20
1740.652825520464
 30
0.0
 10
3525.907029119379
 20
1746.892063458229
 30
0.0
 10
3533.0464338282
 20
1755.453156463174
 30
0.0
 10
3538.446735148836
 20
1765.986824234381
 30
0.0
 10
3541.825347683681
 20
1777.943616208801
 30
0.0
 10
3542.653118231774
 20
1786.372963247197
 30
0.0
 10
3542.728015651963
 20
1790.653050896799
 30
0.0
 11
3506.104489110823
 21
1736.801296136179
 31
0.0
 11
3507.985792400872
 21
1737.250065788091
 31
0.0
 11
3517.11488095934
 21
1740.944293069399
 31
0.0
 11
3525.439553194666
 21
1747.041177993451
 31
0.0
 11
3532.549050954111
 21
1755.470014872028
 31
0.0
 11
3537.993941218308
 21
1765.935498196945
 31
0.0
 11
3541.430569930484
 21
1777.876530486051
 31
0.0
 11
3542.728015651963
 21
1790.653050896799
 31
0.0
  0
SPLINE
  5
64E
330
1F
100
AcDbEntity
  8
0
  6
Continuous
 62
     7
100
AcDbSpline
210
0.0
220
0.0
230
1.0
 70
  1064
 71
     3
 72
     9
 73
     5
 74
     3
 42
0.000000001
 43
0.0000000001
 44
0.0000000001
 12
-0.97788978093012
 22
-0.2091209610547008
 32
0.0
 13
-0.9725705729624534
 23
0.2326079977289796
 33
0.0
 40
0.0
 40
0.0
 40
0.0
 40
0.0
 40
0.6730011866382389
 40
6.314223159998494
 40
6.314223159998494
 40
6.314223159998494
 40
6.314223159998494
 10
3596.339291575978
 20
2445.016319878627
 30
0.0
 10
3596.119917914989
 20
2444.969406993646
 30
0.0
 10
3594.052038808304
 20
2444.580933926223
 30
0.0
 10
3591.870498666427
 20
2444.694124503297
 30
0.0
 10
3590.041669837481
 20
2445.131522285952
 30
0.0
 11
3596.339291575978
 21
2445.016319878627
 31
0.0
 11
3595.677817085601
 21
2444.892295301233
 31
0.0
 11
3590.041669837481
 21
2445.131522285952
 31
0.0
  0
SPLINE
  5
64F
330
1F
100
AcDbEntity
  8
0
  6
Continuous
 62
     7
100
AcDbSpline
210
0.0
220
0.0
230
1.0
 70
  1064
 71
     3
 72
    13
 73
     9
 74
     7
 42
0.000000001
 43
0.0000000001
 44
0.0000000001
 12
-0.0171714702213629
 22
-0.9998525594358584
 32
0.0
 13
0.9725705727969501
 23
-0.2326079984209759
 33
0.0
 40
0.0
 40
0.0
 40
0.0
 40
0.0
 40
4.25384729751298
 40
9.41022411235625
 40
14.66153216182287
 40
19.83080984019721
 40
25.27213357818891
 40
31.62017830443173
 40
31.62017830443173
 40
31.62017830443173
 40
31.62017830443173
 10
2998.235487589637
 20
1869.722959394069
 30
0.0
 10
2998.211139318906
 20
1868.305219358113
 30
0.0
 10
2998.548952722841
 20
1865.149648933758
 30
0.0
 10
3000.395360468739
 20
1860.546749288288
 30
0.0
 10
3003.680134470072
 20
1856.434335516888
 30
0.0
 10
3007.982701882726
 20
1853.27799513459
 30
0.0
 10
3013.156220472261
 20
1850.933405362479
 30
0.0
 10
3016.943012450782
 20
1849.843694919001
 30
0.0
 10
3019.000986282629
 20
1849.351492926449
 30
0.0
 11
2998.235487589637
 21
1869.722959394069
 31
0.0
 11
2998.689688160167
 21
1865.493430026362
 31
0.0
 11
3000.600394811283
 21
1860.704127159553
 31
0.0
 11
3003.857211420359
 21
1856.584736208788
 31
0.0
 11
3007.994068139088
 21
1853.485083291953
 31
0.0
 11
3012.920137414039
 21
1851.173840007482
 31
0.0
 11
3019.000986282629
 21
1849.351492926449
 31
0.0
  0
SPLINE
  5
650
330
1F
100
AcDbEntity
  8
0
  6
Continuous
 62
     7
100
AcDbSpline
210
0.0
220
0.0
230
1.0
 70
  1064
 71
     3
 72
     8
 73
     4
 74
     2
 42
0.000000001
 43
0.0000000001
 44
0.0000000001
 12
0.3948712211847387
 22
0.9187364794542956
 32
0.0
 13
0.9725705724291653
 23
-0.2326079999587413
 33
0.0
 40
0.0
 40
0.0
 40
0.0
 40
0.0
 40
2.486880952131239
 40
2.486880952131239
 40
2.486880952131239
 40
2.486880952131239
 10
3023.869877621241
 20
1880.392441562689
 30
0.0
 10
3024.197210194078
 20
1881.154037646284
 30
0.0
 10
3025.458225377478
 20
1879.913989020382
 30
0.0
 10
3026.26444778787
 20
1879.721166218912
 30
0.0
 11
3023.869877621241
 21
1880.392441562689
 31
0.0
 11
3026.26444778787
 21
1879.721166218912
 31
0.0
  0
SPLINE
  5
651
330
1F
100
AcDbEntity
  8
0
  6
Continuous
 62
     7
100
AcDbSpline
210
0.0
220
0.0
230
1.0
 70
  1064
 71
     3
 72
    14
 73
    10
 74
     8
 42
0.000000001
 43
0.0000000001
 44
0.0000000001
 12
-0.9503224979718954
 22
-0.3112670073240285
 32
0.0
 13
-0.0174963426128545
 23
-0.9998469272819583
 33
0.0
 40
0.0
 40
0.0
 40
0.0
 40
0.0
 40
0.7195663564149094
 40
2.527453847382541
 40
5.218533201998354
 40
8.672073952701884
 40
12.66969707200147
 40
16.89834386932623
 40
20.98954868704809
 40
20.98954868704809
 40
20.98954868704809
 40
20.98954868704809
 10
3562.768046872193
 20
2450.519326674354
 30
0.0
 10
3562.540106839764
 20
2450.444667585576
 30
0.0
 10
3561.762330400928
 20
2450.107509532198
 30
0.0
 10
3560.383102366071
 20
2449.014139089755
 30
0.0
 10
3558.607154425067
 20
2447.035633269482
 30
0.0
 10
3556.811096601604
 20
2444.149867245215
 30
0.0
 10
3555.283349946757
 20
2440.553241375007
 30
0.0
 10
3554.261225311468
 20
2436.560980830162
 30
0.0
 10
3553.982256838148
 20
2433.788531927407
 30
0.0
 10
3553.958396464418
 20
2432.42500573878
 30
0.0
 11
3562.768046872193
 21
2450.519326674354
 31
0.0
 11
3562.10613931805
 21
2450.237096039849
 31
0.0
 11
3560.646292770889
 21
2449.17065089886
 31
0.0
 11
3558.831915163926
 21
2447.183204800927
 31
0.0
 11
3556.981533186061
 21
2444.267209215752
 31
0.0
 11
3555.406468545328
 21
2440.592952558756
 31
0.0
 11
3554.356103231111
 21
2436.496834098163
 31
0.0
 11
3553.958396464418
 21
2432.42500573878
 31
0.0
  0
SPLINE
  5
652
330
1F
100
AcDbEntity
  8
0
  6
Continuous
 62
     7
100
AcDbSpline
210
0.0
220
0.0
230
1.0
 70
  1064
 71
     3
 72
    14
 73
    10
 74
     8
 42
0.000000001
 43
0.0000000001
 44
0.0000000001
 12
-0.9780853597201909
 22
-0.2082042965479452
 32
0.0
 13
-0.0174963423560419
 23
-0.9998469272864522
 33
0.0
 40
0.0
 40
0.0
 40
0.0
 40
0.0
 40
7.740144446599712
 40
16.19890538168772
 40
25.20132057643751
 40
34.52265699127664
 40
43.97861686331828
 40
53.45726494742415
 40
62.87310159891427
 40
62.87310159891427
 40
62.87310159891427
 40
62.87310159891427
 10
3556.266620007837
 20
2481.061205762566
 30
0.0
 10
3553.743112686057
 20
2480.524028652672
 30
0.0
 10
3548.584090902652
 20
2478.741469279734
 30
0.0
 10
3541.429649348102
 20
2474.210198417398
 30
0.0
 10
3535.035148091927
 20
2467.889639440006
 30
0.0
 10
3529.791301633947
 20
2460.195546649103
 30
0.0
 10
3525.893731920473
 20
2451.572470422324
 30
0.0
 10
3523.434823811139
 20
2442.408265956617
 30
0.0
 10
3522.79190079599
 20
2436.109481617748
 30
0.0
 10
3522.736986562116
 20
2432.971349836474
 30
0.0
 11
3556.266620007837
 21
2481.061205762566
 31
0.0
 11
3548.940875919623
 21
2478.562544199204
 31
0.0
 11
3541.76893760201
 21
2474.077687754976
 31
0.0
 11
3535.33239720019
 21
2467.783688470388
 31
0.0
 11
3530.051904625844
 21
2460.102301178311
 31
0.0
 11
3526.138669654359
 21
2451.494062731357
 31
0.0
 11
3523.679995268813
 21
2442.339845683014
 31
0.0
 11
3522.736986562116
 21
2432.971349836474
 31
0.0
  0
SPLINE
  5
653
330
1F
100
AcDbEntity
  8
0
  6
Continuous
 62
     7
100
AcDbSpline
210
0.0
220
0.0
230
1.0
 70
  1064
 71
     3
 72
    14
 73
    10
 74
     8
 42
0.000000001
 43
0.0000000001
 44
0.0000000001
 12
-0.9780853597077246
 22
-0.2082042966065081
 32
0.0
 13
-0.0171714700035406
 23
-0.9998525594395994
 33
0.0
 40
0.0
 40
0.0
 40
0.0
 40
0.0
 40
5.957746220865515
 40
11.09517732883421
 40
15.90773049928192
 40
20.69189933889583
 40
25.41261021635805
 40
30.23968874819277
 40
30.98000720666128
 40
30.98000720666128
 40
30.98000720666128
 40
30.98000720666128
 10
3019.063521587673
 20
1889.225947198752
 30
0.0
 10
3017.121126802512
 20
1888.812471078326
 30
0.0
 10
3013.532746696595
 20
1887.878171112826
 30
0.0
 10
3008.617163775192
 20
1885.828497303557
 30
0.0
 10
3004.500882687751
 20
1883.079508513418
 30
0.0
 10
3001.238275418665
 20
1879.524322894105
 30
0.0
 10
2999.010601099034
 20
1875.235637116929
 30
0.0
 10
2998.31165305891
 20
1871.824073068892
 30
0.0
 10
2998.239725041705
 20
1869.969695829235
 30
0.0
 10
2998.235487589637
 20
1869.722959394069
 30
0.0
 11
3019.063521587673
 21
1889.225947198752
 31
0.0
 11
3013.313547918945
 21
1887.666286068514
 31
0.0
 11
3008.595386295525
 21
1885.633517197144
 31
0.0
 11
3004.617227031363
 21
1882.925212028344
 31
0.0
 11
3001.398260357709
 21
1879.385928903213
 31
0.0
 11
2999.231356498189
 21
1875.191928563182
 31
0.0
 11
2998.264270274024
 21
1870.462718122999
 31
0.0
 11
2998.235487589637
 21
1869.722959394069
 31
0.0
  0
SPLINE
  5
654
330
1F
100
AcDbEntity
  8
0
  6
Continuous
 62
     7
100
AcDbSpline
210
0.0
220
0.0
230
1.0
 70
  1064
 71
     3
 72
    16
 73
    12
 74
    10
 42
0.000000001
 43
0.0000000001
 44
0.0000000001
 12
0.9725705728200539
 22
-0.2326079983243745
 32
0.0
 13
-0.7193295531198567
 23
-0.694668981608066
 33
0.0
 40
0.0
 40
0.0
 40
0.0
 40
0.0
 40
6.109201396100775
 40
12.88668509832439
 40
20.29782437655637
 40
28.13618886854897
 40
36.09927525067133
 40
43.8588909409228
 40
51.12926405563197
 40
57.7387600015577
 40
60.45689022687717
 40
60.45689022687717
 40
60.45689022687717
 40
60.45689022687717
 10
3590.995645497045
 20
2499.647467390376
 30
0.0
 10
3592.976188664138
 20
2499.17378435434
 30
0.0
 10
3596.972923033603
 20
2497.347868480697
 30
0.0
 10
3602.059161608961
 20
2492.771646751677
 30
0.0
 10
3606.205362885869
 20
2486.6349833234
 30
0.0
 10
3609.113364474122
 20
2479.408002685441
 30
0.0
 10
3610.575299428358
 20
2471.640453059101
 30
0.0
 10
3610.476471676428
 20
2463.921257181989
 30
0.0
 10
3608.818117644692
 20
2456.837832120536
 30
0.0
 10
3606.18684798176
 20
2451.872267521995
 30
0.0
 10
3604.117671028701
 20
2449.535101456085
 30
0.0
 10
3603.465927228601
 20
2448.905701204251
 30
0.0
 11
3590.995645497045
 21
2499.647467390376
 31
0.0
 11
3596.593150024923
 21
2497.199961566376
 31
0.0
 11
3601.698535310593
 21
2492.742459304035
 31
0.0
 11
3605.898193408194
 21
2486.636080895796
 31
0.0
 11
3608.851892975417
 21
2479.375528797235
 31
0.0
 11
3610.320342846511
 21
2471.549009794177
 31
0.0
 11
3610.184577962355
 21
2463.790581889207
 31
0.0
 11
3608.455597161114
 21
2456.728786748025
 31
0.0
 11
3605.273472205817
 21
2450.935729055572
 31
0.0
 11
3603.465927228601
 21
2448.905701204251
 31
0.0
  0
SPLINE
  5
655
330
1F
100
AcDbEntity
  8
0
  6
Continuous
 62
     7
100
AcDbSpline
210
0.0
220
0.0
230
1.0
 70
  1064
 71
     3
 72
     9
 73
     5
 74
     3
 42
0.000000001
 43
0.0000000001
 44
0.0000000001
 12
-0.7193295538508446
 22
-0.694668980851128
 32
0.0
 13
-0.9778897806482843
 23
-0.2091209623726194
 33
0.0
 40
0.0
 40
0.0
 40
0.0
 40
0.0
 40
3.271856253847603
 40
8.195229900122038
 40
8.195229900122038
 40
8.195229900122038
 40
8.195229900122038
 10
3603.465927228601
 20
2448.905701204251
 30
0.0
 10
3602.68141292882
 20
2448.148082187801
 30
0.0
 10
3600.533527591831
 20
2446.43265883082
 30
0.0
 10
3597.944130500979
 20
2445.359513423637
 30
0.0
 10
3596.339291575978
 20
2445.016319878627
 30
0.0
 11
3603.465927228601
 21
2448.905701204251
 31
0.0
 11
3600.895999906843
 21
2446.880727894125
 31
0.0
 11
3596.339291575978
 21
2445.016319878627
 31
0.0
  0
SPLINE
  5
658
330
1F
100
AcDbEntity
  8
0
  6
Continuous
 62
     7
100
AcDbSpline
210
0.0
220
0.0
230
1.0
 70
  1064
 71
     3
 72
    14
 73
    10
 74
     8
 42
0.000000001
 43
0.0000000001
 44
0.0000000001
 12
0.9725705728196379
 22
-0.2326079983261134
 32
0.0
 13
-0.2251034307100384
 23
-0.9743348733790508
 33
0.0
 40
0.0
 40
0.0
 40
0.0
 40
0.0
 40
6.109201386252546
 40
12.88668510354207
 40
20.29782438189609
 40
28.13618885351024
 40
36.09927523857377
 40
43.85889095177255
 40
47.1770501443647
 40
47.1770501443647
 40
47.1770501443647
 40
47.1770501443647
 10
3053.792547076647
 20
1907.812208826609
 30
0.0
 10
3055.773090240546
 20
1907.338525791333
 30
0.0
 10
3059.769824874718
 20
1905.512615306612
 30
0.0
 10
3064.856062169295
 20
1900.936366371778
 30
0.0
 10
3069.002268694147
 20
1894.799816105769
 30
0.0
 10
3071.910249191953
 20
1887.572380200042
 30
0.0
 10
3073.37226423514
 20
1879.806558930223
 30
0.0
 10
3073.290186755567
 20
1873.409078173973
 30
0.0
 10
3072.652280002074
 20
1869.765590878925
 30
0.0
 10
3072.403303662775
 20
1868.68792480667
 30
0.0
 11
3053.792547076647
 21
1907.812208826609
 31
0.0
 11
3059.390051603227
 21
1905.364703024225
 31
0.0
 11
3064.495436889964
 21
1900.907200740198
 31
0.0
 11
3068.695094987797
 21
1894.800822331971
 31
0.0
 11
3071.648794553958
 21
1887.540270254979
 31
0.0
 11
3073.11724444668
 21
1879.713751252986
 31
0.0
 11
3072.981479541724
 21
1871.955323325428
 31
0.0
 11
3072.403303662775
 21
1868.68792480667
 31
0.0
  0
SPLINE
  5
659
330
1F
100
AcDbEntity
  8
0
  6
Continuous
 62
     7
100
AcDbSpline
210
0.0
220
0.0
230
1.0
 70
  1064
 71
     3
 72
    16
 73
    12
 74
    10
 42
0.000000001
 43
0.0000000001
 44
0.0000000001
 12
-0.9780853597859689
 22
-0.2082042962389394
 32
0.0
 13
0.9733084564744402
 23
-0.2295008683106511
 33
0.0
 40
0.0
 40
0.0
 40
0.0
 40
0.0
 40
4.134732798607774
 40
8.86014772493764
 40
14.07375949524707
 40
19.49429639858598
 40
24.77646822548419
 40
29.61713185737677
 40
33.86748695111459
 40
37.6507221762922
 40
38.02821863564293
 40
38.02821863564293
 40
38.02821863564293
 40
38.02821863564293
 10
3492.296690207407
 20
1767.478345029229
 30
0.0
 10
3490.948649668425
 20
1767.191388651738
 30
0.0
 10
3488.205116661025
 20
1765.854141646986
 30
0.0
 10
3484.91355940422
 20
1762.420447233394
 30
0.0
 10
3482.454291712093
 20
1757.867701858158
 30
0.0
 10
3481.088622018995
 20
1752.691839490428
 30
0.0
 10
3480.958946856566
 20
1747.460607332675
 30
0.0
 10
3482.099534738765
 20
1742.739319444428
 30
0.0
 10
3484.444206132211
 20
1739.024748246924
 30
0.0
 10
3486.935378304182
 20
1737.470131829746
 30
0.0
 10
3488.276572362694
 20
1737.116136274187
 30
0.0
 10
3488.399045861419
 20
1737.087257685785
 30
0.0
 11
3492.296690207407
 21
1767.478345029229
 31
0.0
 11
3488.534221206275
 21
1765.763748186994
 31
0.0
 11
3485.193464828103
 21
1762.421758802258
 31
0.0
 11
3482.67736558617
 21
1757.855470123665
 31
0.0
 11
3481.289402187678
 21
1752.615643988677
 31
0.0
 11
3481.196983505839
 21
1747.334280718069
 31
0.0
 11
3482.411256589752
 21
1742.648390698573
 31
0.0
 11
3484.785762192164
 21
1739.123161405749
 31
0.0
 11
3488.034099887659
 21
1737.183787541575
 31
0.0
 11
3488.399045861419
 21
1737.087257685785
 31
0.0
  0
SPLINE
  5
65B
330
1F
100
AcDbEntity
  8
0
  6
Continuous
 62
     7
100
AcDbSpline
210
0.0
220
0.0
230
1.0
 70
  1064
 71
     3
 72
     9
 73
     5
 74
     3
 42
0.000000001
 43
0.0000000001
 44
0.0000000001
 12
0.97788978093012
 22
0.2091209610547008
 32
0.0
 13
0.9725705729624534
 23
-0.2326079977289796
 33
0.0
 40
0.0
 40
0.0
 40
0.0
 40
0.0
 40
0.6730012046912405
 40
6.314223178278441
 40
6.314223178278441
 40
6.314223178278441
 40
6.314223178278441
 10
3047.494925315692
 20
1907.927411254449
 30
0.0
 10
3047.714298982566
 20
1907.974324140688
 30
0.0
 10
3049.782178118369
 20
1908.362797085745
 30
0.0
 10
3051.963718247627
 20
1908.249606609282
 30
0.0
 10
3053.792547076647
 20
1907.812208826609
 30
0.0
 11
3047.494925315692
 21
1907.927411254449
 31
0.0
 11
3048.156399828295
 21
1908.051435811259
 31
0.0
 11
3053.792547076647
 21
1907.812208826609
 31
0.0
  0
SPLINE
  5
65C
330
1F
100
AcDbEntity
  8
0
  6
Continuous
 62
     7
100
AcDbSpline
210
0.0
220
0.0
230
1.0
 70
  1064
 71
     3
 72
    10
 73
     6
 74
     4
 42
0.000000001
 43
0.0000000001
 44
0.0000000001
 12
0.9780853595136752
 22
0.2082042975180986
 32
0.0
 13
-0.1446234139857359
 23
0.9894867700616872
 33
0.0
 40
0.0
 40
0.0
 40
0.0
 40
0.0
 40
3.221369312790976
 40
5.013365506337831
 40
5.271899297403399
 40
5.271899297403399
 40
5.271899297403399
 40
5.271899297403399
 10
3538.239907389283
 20
1788.266052451421
 30
0.0
 10
3539.290165443425
 20
1788.48962009636
 30
0.0
 10
3540.728495879585
 20
1788.905542988914
 30
0.0
 10
3542.69173200902
 20
1789.85191774583
 30
0.0
 10
3542.690538582332
 20
1790.560481120642
 30
0.0
 10
3542.678075235834
 20
1790.645753042599
 30
0.0
 11
3538.239907389283
 21
1788.266052451421
 31
0.0
 11
3541.315553416338
 21
1789.223978213499
 31
0.0
 11
3542.678681799765
 21
1790.387219963086
 31
0.0
 11
3542.678075235834
 21
1790.645753042599
 31
0.0
  0
SPLINE
  5
65E
330
1F
100
AcDbEntity
  8
0
  6
Continuous
 62
     7
100
AcDbSpline
210
0.0
220
0.0
230
1.0
 70
  1064
 71
     3
 72
    14
 73
    10
 74
     8
 42
0.000000001
 43
0.0000000001
 44
0.0000000001
 12
0.1446234247200474
 22
-0.98948676849276
 32
0.0
 13
0.9780853598056483
 23
0.2082042961464915
 33
0.0
 40
0.0
 40
0.0
 40
0.0
 40
0.0
 40
1.097145493895097
 40
3.692223469198792
 40
7.664004454284608
 40
12.63031486186671
 40
18.03796330954323
 40
23.26940832712855
 40
27.73230787572161
 40
27.73230787572161
 40
27.73230787572161
 40
27.73230787572161
 10
3511.556546174369
 20
1791.206695747521
 30
0.0
 10
3511.60943715395
 20
1790.844825431081
 30
0.0
 10
3512.302414414126
 20
1789.709124016153
 30
0.0
 10
3514.880227896961
 20
1788.929066607459
 30
0.0
 10
3518.549531467248
 20
1788.010092890343
 30
0.0
 10
3523.343050315852
 20
1787.506291339079
 30
0.0
 10
3528.536198782841
 20
1787.319341875016
 30
0.0
 10
3533.572321721181
 20
1787.536098126455
 30
0.0
 10
3536.784875152362
 20
1787.956320831659
 30
0.0
 10
3538.239907389283
 20
1788.266052451421
 30
0.0
 11
3511.556546174369
 21
1791.206695747521
 31
0.0
 11
3512.069742251415
 21
1790.236975158238
 31
0.0
 11
3514.398503687696
 21
1789.091855133613
 31
0.0
 11
3518.261340996169
 21
1788.167987111784
 31
0.0
 11
3523.192338935417
 21
1787.576803225343
 31
0.0
 11
3528.596746399113
 21
1787.389608941251
 31
0.0
 11
3533.822712068789
 21
1787.628982689592
 31
0.0
 11
3538.239907389283
 21
1788.266052451421
 31
0.0
  0
SPLINE
  5
65F
330
1F
100
AcDbEntity
  8
0
  6
Continuous
 62
     7
100
AcDbSpline
210
0.0
220
0.0
230
1.0
 70
  1064
 71
     3
 72
    13
 73
     9
 74
     7
 42
0.000000001
 43
0.0000000001
 44
0.0000000001
 12
-0.3026047897761672
 22
0.9531161215741352
 32
0.0
 13
-0.9779829340984871
 23
-0.2086848835256505
 33
0.0
 40
0.0
 40
0.0
 40
0.0
 40
0.0
 40
2.588452809841618
 40
7.213741373515074
 40
11.432754840016
 40
15.19805361825991
 40
18.64902531219654
 40
18.71718247364318
 40
18.71718247364318
 40
18.71718247364318
 40
18.71718247364318
 10
3032.398334781146
 20
1878.325503425057
 30
0.0
 10
3032.13724204169
 20
1879.147868792722
 30
0.0
 10
3031.274197325258
 20
1881.397532624083
 30
0.0
 10
3029.30493322482
 20
1884.705070417392
 30
0.0
 10
3026.258567557405
 20
1887.683601635473
 30
0.0
 10
3022.754391187671
 20
1889.384455732821
 30
0.0
 10
3020.23399578446
 20
1889.470092097671
 30
0.0
 10
3019.085744511878
 20
1889.230669207682
 30
0.0
 10
3019.063525664968
 20
1889.225928084583
 30
0.0
 11
3032.398334781146
 21
1878.325503425057
 31
0.0
 11
3031.469019708957
 21
1880.74138037668
 31
0.0
 11
3029.067220029368
 21
1884.694183508177
 31
0.0
 11
3026.004391127774
 21
1887.595761311731
 31
0.0
 11
3022.580344037777
 21
1889.162087080826
 31
0.0
 11
3019.130248324722
 21
1889.239837985077
 31
0.0
 11
3019.063525664968
 21
1889.225928084583
 31
0.0
  0
SPLINE
  5
660
330
1F
100
AcDbEntity
  8
0
  6
Continuous
 62
     7
100
AcDbSpline
210
0.0
220
0.0
230
1.0
 70
  1064
 71
     3
 72
     9
 73
     5
 74
     3
 42
0.000000001
 43
0.0000000001
 44
0.0000000001
 12
0.97788978093012
 22
0.2091209610547008
 32
0.0
 13
0.9725705729624534
 23
-0.2326079977289796
 33
0.0
 40
0.0
 40
0.0
 40
0.0
 40
0.0
 40
0.6730011864082785
 40
6.314223181330789
 40
6.314223181330789
 40
6.314223181330789
 40
6.314223181330789
 10
3584.698023737153
 20
2499.762669796647
 30
0.0
 10
3584.917397398067
 20
2499.809582681611
 30
0.0
 10
3586.985276511724
 20
2500.198055750293
 30
0.0
 10
3589.166816661109
 20
2500.084865174704
 30
0.0
 10
3590.995645497045
 20
2499.647467390376
 30
0.0
 11
3584.698023737153
 21
2499.762669796647
 31
0.0
 11
3585.359498227298
 21
2499.88669437403
 31
0.0
 11
3590.995645497045
 21
2499.647467390376
 31
0.0
  0
SPLINE
  5
661
330
1F
100
AcDbEntity
  8
0
  6
Continuous
 62
     7
100
AcDbSpline
210
0.0
220
0.0
230
1.0
 70
  1064
 71
     3
 72
    10
 73
     6
 74
     4
 42
0.000000001
 43
0.0000000001
 44
0.0000000001
 12
-0.9725705731738639
 22
0.2326079968450393
 32
0.0
 13
-0.0079975945703729
 23
0.9999680187291431
 33
0.0
 40
0.0
 40
0.0
 40
0.0
 40
0.0
 40
3.04826722854491
 40
4.928984845578463
 40
5.539588543775352
 40
5.539588543775352
 40
5.539588543775352
 40
5.539588543775352
 10
3527.393890284674
 20
2430.366450332435
 30
0.0
 10
3526.405671949456
 20
2430.602800777061
 30
0.0
 10
3524.942193092354
 20
2431.102058429318
 30
0.0
 10
3522.995935973709
 20
2431.904980566351
 30
0.0
 10
3522.819877772585
 20
2432.768471719292
 30
0.0
 10
3522.818249985645
 20
2432.971999776063
 30
0.0
 11
3527.393890284674
 21
2430.366450332435
 31
0.0
 11
3524.492936082824
 21
2431.30261154472
 31
0.0
 11
3522.948181876282
 21
2432.375380483677
 31
0.0
 11
3522.818249985645
 21
2432.971999776063
 31
0.0
  0
SPLINE
  5
663
330
1F
100
AcDbEntity
  8
0
  6
Continuous
 62
     7
100
AcDbSpline
210
0.0
220
0.0
230
1.0
 70
  1064
 71
     3
 72
    11
 73
     7
 74
     5
 42
0.000000001
 43
0.0000000001
 44
0.0000000001
 12
-0.0174963425625497
 22
-0.9998469272828387
 32
0.0
 13
0.9723675588511801
 23
-0.2334552001858107
 33
0.0
 40
0.0
 40
0.0
 40
0.0
 40
0.0
 40
4.607533571286896
 40
8.787041668764864
 40
12.48896638849138
 40
15.86164741060173
 40
15.86164741060173
 40
15.86164741060173
 40
15.86164741060173
 10
3011.678915827455
 20
1862.204602140133
 30
0.0
 10
3011.652044165544
 20
1860.668992712265
 30
0.0
 10
3011.91591060452
 20
1857.719863033903
 30
0.0
 10
3013.345671858924
 20
1853.75196481362
 30
0.0
 10
3015.721422636696
 20
1850.741006753108
 30
0.0
 10
3017.901559733734
 20
1849.615450826211
 30
0.0
 10
3018.994721604485
 20
1849.35299418515
 30
0.0
 11
3011.678915827455
 21
1862.204602140133
 31
0.0
 11
3012.132800810533
 21
1857.619479019357
 31
0.0
 11
3013.61449075597
 21
1853.711425431895
 31
0.0
 11
3015.978947520846
 21
1850.862988871683
 31
0.0
 11
3018.994721604485
 21
1849.35299418515
 31
0.0
  0
SPLINE
  5
666
330
1F
100
AcDbEntity
  8
0
  6
Continuous
 62
     7
100
AcDbSpline
210
0.0
220
0.0
230
1.0
 70
  1064
 71
     3
 72
    17
 73
    13
 74
    11
 42
0.000000001
 43
0.0000000001
 44
0.0000000001
 12
0.9778897806484366
 22
0.2091209623719075
 32
0.0
 13
-0.9725705728650382
 23
0.2326079981362882
 33
0.0
 40
0.0
 40
0.0
 40
0.0
 40
0.0
 40
2.746724236880776
 40
6.075691904177717
 40
9.763094907348484
 40
13.81919778244856
 40
18.14824654655217
 40
22.59081053256911
 40
26.96379282940224
 40
31.09842842987696
 40
34.87955090976396
 40
38.28784221916246
 40
38.28784221916246
 40
38.28784221916246
 40
38.28784221916246
 10
3593.765958700938
 20
2457.11814459949
 30
0.0
 10
3594.661289888107
 20
2457.309610471419
 30
0.0
 10
3596.578815317178
 20
2458.103999589453
 30
0.0
 10
3598.976605228795
 20
2460.405890262963
 30
0.0
 10
3600.72656346066
 20
2463.711723820168
 30
0.0
 10
3601.653396131412
 20
2467.66558256528
 30
0.0
 10
3601.708045070875
 20
2471.971474281259
 30
0.0
 10
3600.89257537026
 20
2476.305119183488
 30
0.0
 10
3599.270180756781
 20
2480.336968919747
 30
0.0
 10
3596.957045782407
 20
2483.760592254359
 30
0.0
 10
3594.119457929456
 20
2486.313639624007
 30
0.0
 10
3591.889701274221
 20
2487.332308990384
 30
0.0
 10
3590.784766663797
 20
2487.596574263232
 30
0.0
 11
3593.765958700938
 21
2457.11814459949
 31
0.0
 11
3596.308122289818
 21
2458.158288013084
 31
0.0
 11
3598.750291032797
 21
2460.420551826331
 31
0.0
 11
3600.525581807262
 21
2463.652468219725
 31
0.0
 11
3601.490171080971
 21
2467.59220654434
 31
0.0
 11
3601.565913601111
 21
2471.920592649187
 31
0.0
 11
3600.74667313921
 21
2476.286966411869
 31
0.0
 11
3599.098819708936
 21
2480.33759022071
 31
0.0
 11
3596.755852554519
 21
2483.744306596054
 31
0.0
 11
3593.907584986794
 21
2486.231123652163
 31
0.0
 11
3590.784766663797
 21
2487.596574263232
 31
0.0
  0
SPLINE
  5
667
330
1F
100
AcDbEntity
  8
0
  6
Continuous
 62
     7
100
AcDbSpline
210
0.0
220
0.0
230
1.0
 70
  1064
 71
     3
 72
     9
 73
     5
 74
     3
 42
0.000000001
 43
0.0000000001
 44
0.0000000001
 12
-0.9725705728765824
 22
0.2326079980880209
 32
0.0
 13
-0.9778897812239531
 23
-0.209120959680681
 33
0.0
 40
0.0
 40
0.0
 40
0.0
 40
0.0
 40
3.147208060050559
 40
3.522671873605335
 40
3.522671873605335
 40
3.522671873605335
 40
3.522671873605335
 10
3590.784766663797
 20
2487.596574263232
 30
0.0
 10
3589.764472681821
 20
2487.840596185371
 30
0.0
 10
3588.547402922453
 20
2487.903744562945
 30
0.0
 10
3587.393744042419
 20
2487.687017527843
 30
0.0
 10
3587.271356633587
 20
2487.660845076838
 30
0.0
 11
3590.784766663797
 21
2487.596574263232
 31
0.0
 11
3587.640389765689
 21
2487.730037726013
 31
0.0
 11
3587.271356633587
 21
2487.660845076838
 31
0.0
  0
SPLINE
  5
668
330
1F
100
AcDbEntity
  8
0
  6
Continuous
 62
     7
100
AcDbSpline
210
0.0
220
0.0
230
1.0
 70
  1064
 71
     3
 72
    13
 73
     9
 74
     7
 42
0.000000001
 43
0.0000000001
 44
0.0000000001
 12
-0.9725858449634456
 22
0.2325441338256898
 32
0.0
 13
-0.0174963419667595
 23
-0.9998469272932643
 33
0.0
 40
0.0
 40
0.0
 40
0.0
 40
0.0
 40
3.365695194140696
 40
7.065923837733793
 40
11.24357501956836
 40
15.84974597959797
 40
20.70217631824745
 40
25.55510073673039
 40
25.55510073673039
 40
25.55510073673039
 40
25.55510073673039
 10
3026.264447735967
 20
1879.721165956844
 30
0.0
 10
3025.17330523454
 20
1879.982056848058
 30
0.0
 10
3022.723122263501
 20
1879.968254435047
 30
0.0
 10
3019.242996076925
 20
1878.364795019046
 30
0.0
 10
3016.169929308223
 20
1875.476069091083
 30
0.0
 10
3013.733617049799
 20
1871.588686126598
 30
0.0
 10
3012.131807247524
 20
1867.0591898958
 30
0.0
 10
3011.707218635843
 20
1863.821995996202
 30
0.0
 10
3011.678915827455
 20
1862.204602140133
 30
0.0
 11
3026.264447735967
 21
1879.721165956844
 31
0.0
 11
3022.898826042062
 21
1879.743409009153
 31
0.0
 11
3019.500890997174
 21
1878.278578150115
 31
0.0
 11
3016.409520929895
 21
1875.46856026686
 31
0.0
 11
3013.927320648658
 21
1871.588419460543
 31
0.0
 11
3012.297265202364
 21
1867.017970966855
 31
0.0
 11
3011.678915827455
 21
1862.204602140133
 31
0.0
  0
SPLINE
  5
669
330
1F
100
AcDbEntity
  8
0
  6
Continuous
 62
     7
100
AcDbSpline
210
0.0
220
0.0
230
1.0
 70
  1064
 71
     3
 72
    16
 73
    12
 74
    10
 42
0.000000001
 43
0.0000000001
 44
0.0000000001
 12
0.9780356673852931
 22
0.2084376005479918
 32
0.0
 13
-0.9725705727853565
 23
0.2326079984694499
 33
0.0
 40
0.0
 40
0.0
 40
0.0
 40
0.0
 40
3.377583361169923
 40
7.126319187134377
 40
11.32706200585595
 40
15.93887723194566
 40
20.79038311085267
 40
25.64678576044361
 40
30.27207434321338
 40
34.4910877939485
 40
38.25638660135299
 40
38.25638660135299
 40
38.25638660135299
 40
38.25638660135299
 10
3562.768046280861
 20
2450.519329457105
 30
0.0
 10
3563.869178613124
 20
2450.754001247589
 30
0.0
 10
3566.099472457619
 20
2451.801519812846
 30
0.0
 10
3568.628598576518
 20
2454.718266363704
 30
0.0
 10
3570.236819471635
 20
2458.64755962955
 30
0.0
 10
3570.820231797236
 20
2463.208917753476
 30
0.0
 10
3570.348070895991
 20
2467.996733725977
 30
0.0
 10
3568.867816986141
 20
2472.578843818212
 30
0.0
 10
3566.506428341865
 20
2476.539654080574
 30
0.0
 10
3563.467290639795
 20
2479.519518200543
 30
0.0
 10
3561.004115375822
 20
2480.705399437176
 30
0.0
 10
3559.783442436547
 20
2480.997345643586
 30
0.0
 11
3562.768046280861
 21
2450.519329457105
 31
0.0
 11
3565.839745039424
 21
2451.923870698325
 31
0.0
 11
3568.359288237724
 21
2454.699644890288
 31
0.0
 11
3570.013319299329
 21
2458.561046381495
 31
0.0
 11
3570.63993012496
 21
2463.130094264018
 31
0.0
 11
3570.17778371325
 21
2467.95953833008
 31
0.0
 11
3568.672118130415
 21
2472.576638918936
 31
0.0
 11
3566.270318449531
 21
2476.529442071991
 31
0.0
 11
3563.207489549231
 21
2479.431019853987
 31
0.0
 11
3559.783442436547
 21
2480.997345643586
 31
0.0
  0
SPLINE
  5
66A
330
1F
100
AcDbEntity
  8
0
  6
Continuous
 62
     7
100
AcDbSpline
210
0.0
220
0.0
230
1.0
 70
  1064
 71
     3
 72
    15
 73
    11
 74
     9
 42
0.000000001
 43
0.0000000001
 44
0.0000000001
 12
0.0079975957957253
 22
-0.999968018719343
 32
0.0
 13
-0.9725705728647621
 23
0.2326079981374429
 33
0.0
 40
0.0
 40
0.0
 40
0.0
 40
0.0
 40
0.5161202051257146
 40
2.312884053073378
 40
5.278079422579386
 40
9.251468720511432
 40
13.89287548590948
 40
18.77741596103621
 40
23.45196355271577
 40
27.48772518577638
 40
27.48772518577638
 40
27.48772518577638
 40
27.48772518577638
 10
3553.877133062513
 20
2432.424355800315
 30
0.0
 10
3553.878508969441
 20
2432.252321234001
 30
0.0
 10
3553.745579490783
 20
2431.447726538667
 30
0.0
 10
3551.854828941054
 20
2430.682971765259
 30
0.0
 10
3549.207845764239
 20
2429.887308404607
 30
0.0
 10
3545.305375819079
 20
2429.370479857049
 30
0.0
 10
3540.833431007582
 20
2429.116891298848
 30
0.0
 10
3536.089051106862
 20
2429.189464577738
 30
0.0
 10
3531.572540287586
 20
2429.572805298566
 30
0.0
 10
3528.702244619144
 20
2430.053533520959
 30
0.0
 10
3527.393890284674
 20
2430.366450332435
 30
0.0
 11
3553.877133062513
 21
2432.424355800315
 31
0.0
 11
3553.784544067315
 21
2431.916608477223
 31
0.0
 11
3552.31082029298
 21
2430.888747318188
 31
0.0
 11
3549.470288208262
 21
2430.03800584452
 31
0.0
 11
3545.540998845305
 21
2429.447660509077
 31
0.0
 11
3540.907578447095
 21
2429.175498470325
 31
0.0
 11
3536.023578463816
 21
2429.248160815963
 31
0.0
 11
3531.367078885642
 21
2429.658534871363
 31
0.0
 11
3527.393890284674
 21
2430.366450332435
 31
0.0
  0
SPLINE
  5
66B
330
1F
100
AcDbEntity
  8
0
  6
Continuous
 62
     7
100
AcDbSpline
210
0.0
220
0.0
230
1.0
 70
  1064
 71
     3
 72
    14
 73
    10
 74
     8
 42
0.000000001
 43
0.0000000001
 44
0.0000000001
 12
0.0174963423088435
 22
0.9998469272872782
 32
0.0
 13
-0.978285071906826
 23
-0.2072638851422413
 33
0.0
 40
0.0
 40
0.0
 40
0.0
 40
0.0
 40
4.408113547312701
 40
8.83876704873478
 40
13.11127892844613
 40
17.07857556545584
 40
20.66806200198682
 40
23.92316881536721
 40
25.8631331147218
 40
25.8631331147218
 40
25.8631331147218
 40
25.8631331147218
 10
3064.438155930517
 20
1877.894064341513
 30
0.0
 10
3064.463864551703
 20
1879.363210603318
 30
0.0
 10
3064.203523692749
 20
1882.321723923855
 30
0.0
 10
3062.972828198962
 20
1886.543164707961
 30
0.0
 10
3060.987910008228
 20
1890.307222936532
 30
0.0
 10
3058.388967363063
 20
1893.32504223237
 30
0.0
 10
3055.349902513134
 20
1895.359581033253
 30
0.0
 10
3052.441827464351
 20
1896.10470620438
 30
0.0
 10
3050.695518864916
 20
1895.956597640404
 30
0.0
 10
3050.062906160219
 20
1895.822569461164
 30
0.0
 11
3064.438155930517
 21
1877.894064341513
 31
0.0
 11
3064.062584183615
 21
1882.286149371306
 31
0.0
 11
3062.816352381108
 21
1886.537925087884
 31
0.0
 11
3060.800422842017
 21
1890.304937943675
 31
0.0
 11
3058.178114151488
 21
1893.28200692803
 31
0.0
 11
3055.161870185285
 21
1895.227947629691
 31
0.0
 11
3051.996049085103
 21
1895.985111501093
 31
0.0
 11
3050.062906160219
 21
1895.822569461164
 31
0.0
  0
SPLINE
  5
66C
330
1F
100
AcDbEntity
  8
0
  6
Continuous
 62
     7
100
AcDbSpline
210
0.0
220
0.0
230
1.0
 70
  1064
 71
     3
 72
     9
 73
     5
 74
     3
 42
0.000000001
 43
0.0000000001
 44
0.0000000001
 12
0.4191503145083341
 22
0.907916854038719
 32
0.0
 13
0.0174963422942146
 23
0.9998469272875343
 33
0.0
 40
0.0
 40
0.0
 40
0.0
 40
0.0
 40
2.951155841201752
 40
7.160661017603944
 40
7.160661017603944
 40
7.160661017603944
 40
7.160661017603944
 10
3062.948928737885
 20
1870.928121641073
 30
0.0
 10
3063.361254704219
 20
1871.821256350113
 30
0.0
 10
3064.130282103784
 20
1874.097627088907
 30
0.0
 10
3064.413605616032
 20
1876.491110736171
 30
0.0
 10
3064.438155930517
 20
1877.894064341513
 30
0.0
 11
3062.948928737885
 21
1870.928121641073
 31
0.0
 11
3063.912641053253
 21
1873.717490632846
 31
0.0
 11
3064.438155930517
 21
1877.894064341513
 31
0.0
  0
DIMENSION
  5
670
330
1F
100
AcDbEntity
  8
标注
100
AcDbDimension
280
     0
  2
*D12
 10
3684.409579392548
 20
1690.578282574456
 30
0.0
 11
3684.409579392547
 21
2039.351905431068
 31
0.0
 70
   161
  1
600
 71
     5
 42
764.4674822322872
 73
     0
 74
     0
 75
     0
  3
ISO-25
100
AcDbAlignedDimension
 13
3600.075244120747
 23
2476.302071145638
 33
0.0
 14
3600.075244120745
 24
1711.834588913351
 34
0.0
1001
ACAD
1000
DSTYLE
1002
{
1070
   140
1040
30.0
1002
}
  0
DIMENSION
  5
68F
330
1F
100
AcDbEntity
  8
标注
100
AcDbDimension
280
     0
  2
*D13
 10
3366.353976315318
 20
1693.333937330667
 30
0.0
 11
3101.455346952639
 21
1757.242473360942
 31
0.0
 70
   161
  1
940
 71
     5
 42
544.9975589514456
 73
     0
 74
     0
 75
     0
  3
ISO-25
100
AcDbAlignedDimension
 13
2981.032475756909
 23
1851.905455593753
 33
0.0
 14
3510.829734482266
 24
1724.088383533203
 34
0.0
1001
ACAD
1000
DSTYLE
1002
{
1070
   140
1040
30.0
1002
}
  0
DIMENSION
  5
799
330
1F
100
AcDbEntity
  8
标注
100
AcDbDimension
280
     0
  2
*D14
 10
3620.251649285346
 20
2540.011536893334
 30
0.0
 11
3583.555493152828
 21
2531.816699013385
 31
0.0
 70
   161
  1
88
 71
     5
 42
81.42953496250175
 73
     0
 74
     0
 75
     0
  3
线性标注
100
AcDbAlignedDimension
 13
3540.092156108265
 23
2482.977104031309
 33
0.0
 14
3619.564164134477
 24
2500.7244729769
 34
0.0
  0
LINE
  5
986
330
1F
100
AcDbEntity
  8
中心线
100
AcDbLine
 10
2345.470448907064
 20
1890.074585956267
 30
0.0
 11
2472.232059020337
 21
1890.074585956267
 31
0.0
  0
LINE
  5
987
102
{ACAD_REACTORS
330
A17
102
}
330
1F
100
AcDbEntity
  8
中心线
100
AcDbLine
 10
2408.941817065218
 20
2000.789731350282
 30
0.0
 11
2408.941817065218
 21
1853.523764485543
 31
0.0
  0
LINE
  5
988
330
1F
100
AcDbEntity
  8
0
100
AcDbLine
 10
2418.941817065218
 20
1954.174585956266
 30
0.0
 11
2418.941817065218
 21
1890.074585956267
 31
0.0
  0
LINE
  5
989
330
1F
100
AcDbEntity
  8
0
100
AcDbLine
 10
2398.941817065218
 20
1954.174585956267
 30
0.0
 11
2398.941817065218
 21
1890.074585956267
 31
0.0
  0
ARC
  5
98A
330
1F
100
AcDbEntity
  8
0
100
AcDbCircle
 10
2408.941817065218
 20
1890.074585956267
 30
0.0
 40
10.00000000000091
100
AcDbArc
 50
180.0
 51
0.0
  0
ARC
  5
98B
330
1F
100
AcDbEntity
  8
0
100
AcDbCircle
 10
2408.941817065218
 20
1890.074585956267
 30
0.0
 40
28.5
100
AcDbArc
 50
110.5409775375131
 51
69.45902246248689
  0
ARC
  5
98C
330
1F
100
AcDbEntity
  8
0
100
AcDbCircle
 10
2408.941817065218
 20
1922.481559603839
 30
0.0
 40
33.23323516264469
100
AcDbArc
 50
72.48811667166267
 51
107.5118833283373
  0
DIMENSION
  5
98D
330
1F
100
AcDbEntity
  8
标注
100
AcDbDimension
280
     0
  2
*D15
 10
2417.027483449805
 20
1895.95863210813
 30
0.0
 11
2328.081317154826
 21
1831.23133288284
 31
0.0
 70
   163
 71
     5
 42
20.00000000000364
 73
     0
 74
     0
 75
     0
  3
线性标注
100
AcDbDiametricDimension
 15
2400.856150680636
 25
1884.190539804406
 35
0.0
 40
0.0
1001
ACAD
1000
DSTYLE
1002
{
1070
   288
1070
     1
1002
}
1001
ACAD_DSTYLE_DIMRADIAL_EXTENSION
1070
   387
1070
     1
1070
   388
1040
3.141592653589793
1070
   390
1040
0.0
  0
LINE
  5
9EE
330
1F
100
AcDbEntity
  8
0
100
AcDbLine
 10
2418.813478804152
 20
1954.214794766484
 30
0.0
 11
2453.941817065217
 21
1954.214794766484
 31
0.0
  0
DIMENSION
  5
A00
102
{ACAD_XDICTIONARY
360
A0D
102
}
102
{ACAD_REACTORS
330
A17
102
}
330
1F
100
AcDbEntity
  8
标注
100
AcDbDimension
280
     0
  2
*D16
 10
2508.941817065217
 20
1761.232139859598
 30
0.0
 11
2458.941817065218
 21
1776.857139859598
 31
0.0
 70
    32
 71
     5
 42
99.99999999999909
 73
     0
 74
     0
 75
     0
  3
线性标注
100
AcDbAlignedDimension
 13
2408.941817065218
 23
1853.523764485543
 33
0.0
 14
2508.941817065217
 24
2024.489794766484
 34
0.0
100
AcDbRotatedDimension
  0
MTEXT
  5
A20
330
1F
100
AcDbEntity
  8
标注
100
AcDbMText
 10
2356.614537773033
 20
1796.874251535148
 30
0.0
 40
21.0
 41
81.096921757764
 46
0.0
 71
     1
 72
     5
  1
{\fSimHei|b0|i0|c134|p2; B}
  7
黑体
 73
     1
 44
1.0
1001
ACAD
1000
ACAD_MTEXT_COLUMN_INFO_BEGIN
1070
    75
1070
     2
1070
    79
1070
     0
1070
    76
1070
     1
1070
    78
1070
     0
1070
    48
1040
81.096921757764
1070
    49
1040
30.0
1070
    50
1070
     1
1040
0.0
1000
ACAD_MTEXT_COLUMN_INFO_END
  0
LWPOLYLINE
  5
A21
330
1F
100
AcDbEntity
  8
标注
100
AcDbPolyline
 90
        3
 70
     1
 43
0.0
 10
2401.694887055641
 20
1770.168573573975
 10
2378.196287045385
 20
1810.441170469219
 10
2355.068495062861
 20
1769.954487459347
  0
ARC
  5
AC1
330
1F
100
AcDbEntity
  8
中心线
100
AcDbCircle
 10
1287.804441984428
 20
1936.074585956268
 30
0.0
 40
46.0
100
AcDbArc
 50
270.0
 51
0.0
  0
ARC
  5
AC2
330
1F
100
AcDbEntity
  8
0
100
AcDbCircle
 10
1287.804441984428
 20
1936.074585956268
 30
0.0
 40
36.0
100
AcDbArc
 50
270.0
 51
0.0
  0
ARC
  5
AC3
330
1F
100
AcDbEntity
  8
0
100
AcDbCircle
 10
1287.804441984428
 20
1936.074585956268
 30
0.0
 40
56.0
100
AcDbArc
 50
270.0
 51
0.0
  0
LINE
  5
AC4
330
1F
100
AcDbEntity
  8
0
100
AcDbLine
 10
1245.804441984426
 20
1861.574585956267
 30
0.0
 11
1245.804441984426
 21
1918.574585956267
 31
0.0
  0
LINE
  5
AC5
330
1F
100
AcDbEntity
  8
0
100
AcDbLine
 10
1258.804441984426
 20
1861.574585956267
 30
0.0
 11
1258.804441984426
 21
1918.574585956267
 31
0.0
  0
LINE
  5
AC6
330
1F
100
AcDbEntity
  8
0
100
AcDbLine
 10
1258.804441984426
 20
1918.574585956267
 30
0.0
 11
1245.804441984426
 21
1918.574585956267
 31
0.0
  0
LINE
  5
AC7
330
1F
100
AcDbEntity
  8
0
100
AcDbLine
 10
1258.804441984426
 20
1861.574585956267
 30
0.0
 11
1245.804441984426
 21
1861.574585956267
 31
0.0
  0
LINE
  5
AC8
330
1F
100
AcDbEntity
  8
0
100
AcDbLine
 10
1323.804441984428
 20
1954.214794766485
 30
0.0
 11
1323.804441984428
 21
1936.074585956268
 31
0.0
  0
LINE
  5
AC9
330
1F
100
AcDbEntity
  8
0
100
AcDbLine
 10
1343.804441984428
 20
1957.712951760094
 30
0.0
 11
1343.804441984428
 21
1936.074585956268
 31
0.0
  0
LINE
  5
ACA
330
1F
100
AcDbEntity
  8
中心线
100
AcDbLine
 10
1287.804441984428
 20
1890.074585956267
 30
0.0
 11
1236.406995149736
 21
1890.074585956267
 31
0.0
  0
LINE
  5
ACB
330
1F
100
AcDbEntity
  8
0
100
AcDbLine
 10
1287.804441984428
 20
1900.074585956268
 30
0.0
 11
1258.804441984426
 21
1900.074585956268
 31
0.0
  0
LINE
  5
ACC
330
1F
100
AcDbEntity
  8
0
100
AcDbLine
 10
1287.804441984428
 20
1880.074585956268
 30
0.0
 11
1258.804441984426
 21
1880.074585956268
 31
0.0
  0
LINE
  5
ACE
330
1F
100
AcDbEntity
  8
中心线
100
AcDbLine
 10
2408.941817065217
 20
2878.405449086611
 30
0.0
 11
2408.941817065217
 21
2751.892041729459
 31
0.0
  0
LINE
  5
ADF
330
1F
100
AcDbEntity
  8
0
100
AcDbLine
 10
2398.941817065219
 20
2849.678346535519
 30
0.0
 11
2398.941817065217
 21
2790.607759283105
 31
0.0
  0
LINE
  5
AE0
330
1F
100
AcDbEntity
  8
0
100
AcDbLine
 10
2418.941817065217
 20
2849.678346535519
 30
0.0
 11
2418.941817065217
 21
2790.607759283105
 31
0.0
  0
LINE
  5
AE2
330
1F
100
AcDbEntity
  8
0
100
AcDbLine
 10
2380.441817065217
 20
2862.67834653552
 30
0.0
 11
2437.441817065217
 21
2862.678346535519
 31
0.0
  0
LINE
  5
AE3
330
1F
100
AcDbEntity
  8
0
100
AcDbLine
 10
2380.441817065217
 20
2862.67834653552
 30
0.0
 11
2437.441817065217
 21
2862.678346535519
 31
0.0
  0
LINE
  5
AE4
330
1F
100
AcDbEntity
  8
0
100
AcDbLine
 10
2380.441817065217
 20
2849.67834653552
 30
0.0
 11
2437.441817065217
 21
2849.678346535519
 31
0.0
  0
LINE
  5
AE5
330
1F
100
AcDbEntity
  8
0
100
AcDbLine
 10
2380.441817065217
 20
2862.67834653552
 30
0.0
 11
2380.441817065217
 21
2849.67834653552
 31
0.0
  0
LINE
  5
AE6
330
1F
100
AcDbEntity
  8
0
100
AcDbLine
 10
2437.441817065217
 20
2862.678346535519
 30
0.0
 11
2437.441817065217
 21
2849.678346535519
 31
0.0
  0
LINE
  5
AE7
330
1F
100
AcDbEntity
  8
0
100
AcDbLine
 10
2418.840791192478
 20
2790.57834653552
 30
0.0
 11
2493.132381635768
 21
2790.57834653552
 31
0.0
  0
MTEXT
  5
B41
330
1F
100
AcDbEntity
  8
标注
100
AcDbMText
 10
1965.352370865134
 20
2326.123177659818
 30
0.0
 40
21.0
 41
81.096921757764
 46
0.0
 71
     1
 72
     5
  1
{\fSimHei|b0|i0|c134|p2; B}
  7
黑体
 73
     1
 44
1.0
1001
ACAD
1000
ACAD_MTEXT_COLUMN_INFO_BEGIN
1070
    75
1070
     2
1070
    79
1070
     0
1070
    76
1070
     1
1070
    78
1070
     0
1070
    48
1040
81.096921757764
1070
    49
1040
30.0
1070
    50
1070
     1
1040
0.0
1000
ACAD_MTEXT_COLUMN_INFO_END
  0
LWPOLYLINE
  5
B42
330
1F
100
AcDbEntity
  8
标注
100
AcDbPolyline
 90
        3
 70
     1
 43
0.0
 10
2010.432720147743
 20
2299.417499698645
 10
1986.934120137487
 20
2339.690096593889
 10
1963.806328154963
 20
2299.203413584017
  0
LINE
  5
B43
330
1F
100
AcDbEntity
  8
中心线
100
AcDbLine
 10
2009.134142226342
 20
2508.066287261041
 30
0.0
 11
1921.134142226342
 21
2508.066287261041
 31
0.0
  0
ARC
  5
B44
330
1F
100
AcDbEntity
  8
0
100
AcDbCircle
 10
1937.034142226342
 20
2508.066287261041
 30
0.0
 40
14.8
100
AcDbArc
 50
90.0
 51
270.0
  0
ARC
  5
B45
330
1F
100
AcDbEntity
  8
0
100
AcDbCircle
 10
1937.034142226342
 20
2508.066287261041
 30
0.0
 40
15.9
100
AcDbArc
 50
90.0
 51
270.0
  0
DIMENSION
  5
B46
330
1F
100
AcDbEntity
  8
标注
100
AcDbDimension
280
     0
  2
*D17
 10
2009.13414222634
 20
2364.448912739192
 30
0.0
 11
2032.25914222634
 21
2380.073912739192
 31
0.0
 70
    32
 71
     5
 42
12.99999999999909
 73
     0
 74
     0
 75
     0
  3
线性标注
100
AcDbAlignedDimension
 13
1996.134142226341
 23
2388.202969870025
 33
0.0
 14
2009.13414222634
 24
2388.202969870024
 34
0.0
100
AcDbRotatedDimension
  0
DIMENSION
  5
B47
330
1F
100
AcDbEntity
  8
标注
100
AcDbDimension
280
     0
  2
*D18
 10
1950.871771697829
 20
2500.234939317688
 30
0.0
 11
1878.131011176614
 21
2559.356027000472
 31
0.0
 70
    35
 71
     5
 42
31.80000000000064
 73
     0
 74
     0
 75
     0
  3
线性标注
100
AcDbDiametricDimension
 15
1923.196512754855
 25
2515.897635204392
 35
0.0
 40
0.0
1001
ACAD
1000
DSTYLE
1002
{
1070
   288
1070
     1
1002
}
1001
ACAD_DSTYLE_DIMRADIAL_EXTENSION
1070
   387
1070
     1
1070
   388
1040
0.0
1070
   390
1040
0.0
  0
DIMENSION
  5
B48
330
1F
100
AcDbEntity
  8
标注
100
AcDbDimension
280
     0
  2
*D19
 10
1949.825470294104
 20
2515.510877663665
 30
0.0
 11
1859.66493378777
 21
2481.115835769668
 31
0.0
 70
    35
 71
     5
 42
29.59999999999946
 73
     0
 74
     0
 75
     0
  3
线性标注
100
AcDbDiametricDimension
 15
1924.242814158579
 25
2500.621696858416
 35
0.0
 40
0.0
1001
ACAD
1000
DSTYLE
1002
{
1070
   288
1070
     1
1002
}
1001
ACAD_DSTYLE_DIMRADIAL_EXTENSION
1070
   387
1070
     1
1070
   388
1040
0.0
1070
   390
1040
0.0
  0
ARC
  5
B49
330
1F
100
AcDbEntity
  8
中心线
100
AcDbCircle
 10
1983.034142226341
 20
2474.066287261042
 30
0.0
 40
46.0
100
AcDbArc
 50
180.0
 51
270.0
  0
ARC
  5
B4A
330
1F
100
AcDbEntity
  8
0
100
AcDbCircle
 10
1983.034142226341
 20
2474.066287261042
 30
0.0
 40
36.0
100
AcDbArc
 50
180.0
 51
270.0
  0
ARC
  5
B4B
330
1F
100
AcDbEntity
  8
0
100
AcDbCircle
 10
1983.034142226341
 20
2474.066287261042
 30
0.0
 40
56.0
100
AcDbArc
 50
180.0
 51
270.0
  0
LINE
  5
B4C
330
1F
100
AcDbEntity
  8
0
100
AcDbLine
 10
2009.134142226342
 20
2399.566287261041
 30
0.0
 11
2009.134142226342
 21
2456.566287261041
 31
0.0
  0
LINE
  5
B4D
330
1F
100
AcDbEntity
  8
0
100
AcDbLine
 10
1996.134142226342
 20
2399.566287261041
 30
0.0
 11
1996.134142226342
 21
2456.566287261042
 31
0.0
  0
LINE
  5
B4E
330
1F
100
AcDbEntity
  8
0
100
AcDbLine
 10
1996.134142226342
 20
2456.566287261042
 30
0.0
 11
2009.134142226342
 21
2456.566287261041
 31
0.0
  0
LINE
  5
B4F
330
1F
100
AcDbEntity
  8
0
100
AcDbLine
 10
1996.134142226342
 20
2399.566287261041
 30
0.0
 11
2009.134142226342
 21
2399.566287261041
 31
0.0
  0
LINE
  5
B50
330
1F
100
AcDbEntity
  8
中心线
100
AcDbLine
 10
1937.034142226341
 20
2528.716145326275
 30
0.0
 11
1937.034142226341
 21
2474.066287261042
 31
0.0
  0
LINE
  5
B51
330
1F
100
AcDbEntity
  8
0
100
AcDbLine
 10
1947.034142226341
 20
2495.704653064867
 30
0.0
 11
1947.034142226341
 21
2474.066287261042
 31
0.0
  0
LINE
  5
B52
330
1F
100
AcDbEntity
  8
0
100
AcDbLine
 10
1927.034142226341
 20
2495.704653064869
 30
0.0
 11
1927.034142226341
 21
2474.066287261042
 31
0.0
  0
LINE
  5
B53
330
1F
100
AcDbEntity
  8
中心线
100
AcDbLine
 10
1983.034142226341
 20
2428.066287261042
 30
0.0
 11
2018.531589061033
 21
2428.066287261041
 31
0.0
  0
LINE
  5
B54
330
1F
100
AcDbEntity
  8
0
100
AcDbLine
 10
1983.034142226341
 20
2438.066287261042
 30
0.0
 11
1996.134142226342
 21
2438.066287261042
 31
0.0
  0
LINE
  5
B55
330
1F
100
AcDbEntity
  8
0
100
AcDbLine
 10
1983.034142226341
 20
2418.066287261042
 30
0.0
 11
1996.134142226342
 21
2418.066287261042
 31
0.0
  0
DIMENSION
  5
B56
330
1F
100
AcDbEntity
  8
标注
100
AcDbDimension
280
     0
  2
*D20
 10
1983.034142226335
 20
2474.066287261042
 30
0.0
 11
1891.5643372076
 21
2457.557016537191
 31
0.0
 70
    36
 71
     5
 42
45.99999999999363
 73
     0
 74
     0
 75
     0
  3
线性标注
100
AcDbRadialDimension
 15
1939.783284712012
 25
2458.402209749899
 35
0.0
 40
0.0
1001
ACAD
1000
DSTYLE
1002
{
1070
   288
1070
     1
1002
}
1001
ACAD_DSTYLE_DIMRADIAL_EXTENSION
1070
   387
1070
     1
1070
   388
1040
3.141592653589793
1070
   390
1040
4.712388980384689
  0
DIMENSION
  5
B57
330
1F
100
AcDbEntity
  8
标注
100
AcDbDimension
280
     0
  2
*D21
 10
2122.185904488545
 20
2428.066287261041
 30
0.0
 11
2106.560904488544
 21
2468.066287261042
 31
0.0
 70
    32
 71
     5
 42
80.0
 73
     0
 74
     0
 75
     0
  3
线性标注
100
AcDbAlignedDimension
 13
2055.061747368988
 23
2508.066287261041
 33
0.0
 14
2040.145270619406
 24
2428.066287261041
 34
0.0
 50
90.0
100
AcDbRotatedDimension
  0
MTEXT
  5
B58
330
1F
100
AcDbEntity
  8
0
100
AcDbMText
 10
1915.570368005905
 20
2356.429791299464
 30
0.0
 40
25.0
 41
173.5631402998115
 46
0.0
 71
     1
 72
     5
  1
A-A
  7
黑体
 73
     1
 44
1.0
  0
ARC
  5
B59
330
1F
100
AcDbEntity
  8
0
100
AcDbCircle
 10
1937.03414222634
 20
2508.066287261041
 30
0.0
 40
14.8
100
AcDbArc
 50
270.0
 51
90.0
  0
ARC
  5
B5A
330
1F
100
AcDbEntity
  8
0
100
AcDbCircle
 10
1937.03414222634
 20
2508.066287261041
 30
0.0
 40
15.9
100
AcDbArc
 50
270.0
 51
90.0
  0
LINE
  5
BBC
330
1F
100
AcDbEntity
  8
中心线
100
AcDbLine
 10
2040.761244777431
 20
2508.066287261041
 30
0.0
 11
1914.247837420278
 21
2508.066287261041
 31
0.0
  0
LINE
  5
BBD
330
1F
100
AcDbEntity
  8
0
100
AcDbLine
 10
2025.03414222634
 20
2536.566287261045
 30
0.0
 11
2025.03414222634
 21
2508.066287261047
 31
0.0
  0
LINE
  5
BBE
330
1F
100
AcDbEntity
  8
0
100
AcDbLine
 10
2025.03414222634
 20
2479.566287261047
 30
0.0
 11
2025.03414222634
 21
2508.066287261045
 31
0.0
  0
LINE
  5
BBF
330
1F
100
AcDbEntity
  8
0
100
AcDbLine
 10
2025.03414222634
 20
2536.566287261045
 30
0.0
 11
2012.03414222634
 21
2536.566287261045
 31
0.0
  0
LINE
  5
BC0
330
1F
100
AcDbEntity
  8
0
100
AcDbLine
 10
2011.709476784746
 20
2479.566287261047
 30
0.0
 11
2025.03414222634
 21
2479.490391499826
 31
0.0
  0
LINE
  5
BC1
330
1F
100
AcDbEntity
  8
0
100
AcDbLine
 10
2012.03414222634
 20
2536.566287261045
 30
0.0
 11
2011.709476784746
 21
2479.566287261047
 31
0.0
  0
ARC
  5
BC2
330
1F
100
AcDbEntity
  8
0
100
AcDbCircle
 10
1937.03414222634
 20
2508.066287261041
 30
0.0
 40
15.90000000000009
100
AcDbArc
 50
89.34730672285434
 51
270.0
  0
LINE
  5
BC3
330
1F
100
AcDbEntity
  8
0
100
AcDbLine
 10
1937.03414222634
 20
2523.966287261041
 30
0.0
 11
2011.959943250444
 21
2523.539518519353
 31
0.0
  0
LINE
  5
BC4
330
1F
100
AcDbEntity
  8
0
100
AcDbLine
 10
1937.03414222634
 20
2492.166287261042
 30
0.0
 11
2011.778819985546
 21
2491.74055017663
 31
0.0
  0
LINE
  5
C9D
330
1F
100
AcDbEntity
  8
0
  6
Continuous
 62
     7
100
AcDbLine
 10
3420.716397957943
 20
1733.234789264583
 30
0.0
 11
3390.377754066609
 21
1725.853339377311
 31
0.0
  0
LINE
  5
C9E
330
1F
100
AcDbEntity
  8
0
  6
Continuous
 62
     7
100
AcDbLine
 10
3427.918545658284
 20
1709.858355219395
 30
0.0
 11
3404.615054869102
 21
1703.636930209495
 31
0.0
  0
LINE
  5
C9F
330
1F
100
AcDbEntity
  8
0
  6
Continuous
 62
     7
100
AcDbLine
 10
3390.467874943059
 20
1760.508408636357
 30
0.0
 11
3390.082911832088
 21
1726.997490881113
 31
0.0
  0
LINE
  5
CA0
330
1F
100
AcDbEntity
  8
0
  6
Continuous
 62
     7
100
AcDbLine
 10
3367.534849693218
 20
1765.993260065904
 30
0.0
 11
3366.957305479337
 21
1724.536293469245
 31
0.0
  0
ELLIPSE
  5
CA1
330
1F
100
AcDbEntity
  8
0
  6
Continuous
 62
     7
100
AcDbEllipse
 10
3400.099850334201
 20
1729.223719667323
 30
0.0
 11
32.25194324842517
 21
11.17832046301389
 31
0.0
210
0.0
220
0.0
230
1.0
 40
0.7570945933797778
 41
2.775040015392413
 42
4.591601047888881
  0
ELLIPSE
  5
CA2
330
1F
100
AcDbEntity
  8
0
  6
Continuous
 62
     7
100
AcDbEllipse
 10
3398.011721418605
 20
1730.827413056236
 30
0.0
 11
6.157016760134572
 21
6.895313133297099
 31
0.0
210
0.0
220
0.0
230
1.0
 40
0.7440484587964502
 41
2.206606313343419
 42
2.274776273589344
  0
LINE
  5
CA3
330
1F
100
AcDbEntity
  8
0
  6
Continuous
 62
     7
100
AcDbLine
 10
3434.299986938479
 20
1693.257777745272
 30
0.0
 11
3440.582659303309
 21
1695.800435104323
 31
0.0
  0
LINE
  5
CAF
330
1F
100
AcDbEntity
  8
0
  6
Continuous
 62
     7
100
AcDbLine
 10
3450.076155627139
 20
1744.222892249472
 30
0.0
 11
3450.763672194587
 21
1743.290200532152
 31
0.0
  0
LINE
  5
CB0
330
1F
100
AcDbEntity
  8
0
  6
Continuous
 62
     7
100
AcDbLine
 10
3450.763672194587
 20
1743.290200532152
 30
0.0
 11
3451.420147879856
 21
1742.335418980717
 31
0.0
  0
LINE
  5
CB1
330
1F
100
AcDbEntity
  8
0
  6
Continuous
 62
     7
100
AcDbLine
 10
3451.420147879856
 20
1742.335418980717
 30
0.0
 11
3452.045080782827
 21
1741.359682896828
 31
0.0
  0
LINE
  5
CB2
330
1F
100
AcDbEntity
  8
0
  6
Continuous
 62
     7
100
AcDbLine
 10
3452.045080782827
 20
1741.359682896828
 30
0.0
 11
3452.637969003379
 21
1740.364127582149
 31
0.0
  0
LINE
  5
CB3
330
1F
100
AcDbEntity
  8
0
  6
Continuous
 62
     7
100
AcDbLine
 10
3452.637969003379
 20
1740.364127582149
 30
0.0
 11
3453.198310641395
 21
1739.349888338342
 31
0.0
  0
LINE
  5
CB4
330
1F
100
AcDbEntity
  8
0
  6
Continuous
 62
     7
100
AcDbLine
 10
3453.198310641395
 20
1739.349888338342
 30
0.0
 11
3453.540871277235
 21
1738.689012140774
 31
0.0
  0
LINE
  5
CB5
330
1F
100
AcDbEntity
  8
0
  6
Continuous
 62
     7
100
AcDbLine
 10
3453.540871277235
 20
1738.689012140774
 30
0.0
 11
3454.21937112473
 21
1737.26988649436
 31
0.0
  0
LINE
  5
CB6
330
1F
100
AcDbEntity
  8
0
  6
Continuous
 62
     7
100
AcDbLine
 10
3454.21937112473
 20
1737.26988649436
 30
0.0
 11
3454.679165659262
 21
1736.206353140892
 31
0.0
  0
LINE
  5
CB7
330
1F
100
AcDbEntity
  8
0
  6
Continuous
 62
     7
100
AcDbLine
 10
3454.679165659262
 20
1736.206353140892
 30
0.0
 11
3455.104544831007
 21
1735.128604839823
 31
0.0
  0
LINE
  5
CB8
330
1F
100
AcDbEntity
  8
0
  6
Continuous
 62
     7
100
AcDbLine
 10
3455.104544831007
 20
1735.128604839823
 30
0.0
 11
3455.495065621857
 21
1734.037746257794
 31
0.0
  0
LINE
  5
CB9
330
1F
100
AcDbEntity
  8
0
  6
Continuous
 62
     7
100
AcDbLine
 10
3455.495065621857
 20
1734.037746257794
 30
0.0
 11
3455.850285013701
 21
1732.93488206145
 31
0.0
  0
LINE
  5
CBA
330
1F
100
AcDbEntity
  8
0
  6
Continuous
 62
     7
100
AcDbLine
 10
3455.850285013701
 20
1732.93488206145
 30
0.0
 11
3456.169759988429
 21
1731.821116917433
 31
0.0
  0
LINE
  5
CBB
330
1F
100
AcDbEntity
  8
0
  6
Continuous
 62
     7
100
AcDbLine
 10
3456.169759988429
 20
1731.821116917433
 30
0.0
 11
3456.41123590717
 21
1730.873510276708
 31
0.0
  0
LINE
  5
CBC
330
1F
100
AcDbEntity
  8
0
  6
Continuous
 62
     7
100
AcDbLine
 10
3456.41123590717
 20
1730.873510276708
 30
0.0
 11
3456.699712102743
 21
1729.565331642188
 31
0.0
  0
LINE
  5
CBD
330
1F
100
AcDbEntity
  8
0
  6
Continuous
 62
     7
100
AcDbLine
 10
3456.699712102743
 20
1729.565331642188
 30
0.0
 11
3456.909336806783
 21
1728.425651812951
 31
0.0
  0
LINE
  5
CBE
330
1F
100
AcDbEntity
  8
0
  6
Continuous
 62
     7
100
AcDbLine
 10
3456.909336806783
 20
1728.425651812951
 30
0.0
 11
3457.081507720867
 21
1727.279734093115
 31
0.0
  0
LINE
  5
CBF
330
1F
100
AcDbEntity
  8
0
  6
Continuous
 62
     7
100
AcDbLine
 10
3457.081507720867
 20
1727.279734093115
 30
0.0
 11
3457.215810907386
 21
1726.128796499303
 31
0.0
  0
LINE
  5
CC0
330
1F
100
AcDbEntity
  8
0
  6
Continuous
 62
     7
100
AcDbLine
 10
3457.215810907386
 20
1726.128796499303
 30
0.0
 11
3457.311832428736
 21
1724.974057048137
 31
0.0
  0
LINE
  5
CC1
330
1F
100
AcDbEntity
  8
0
  6
Continuous
 62
     7
100
AcDbLine
 10
3457.311832428736
 20
1724.974057048137
 30
0.0
 11
3457.369158347306
 21
1723.81673375624
 31
0.0
  0
LINE
  5
CC2
330
1F
100
AcDbEntity
  8
0
  6
Continuous
 62
     7
100
AcDbLine
 10
3457.369158347306
 20
1723.81673375624
 30
0.0
 11
3457.387397294677
 21
1722.68289110386
 31
0.0
  0
LINE
  5
CC3
330
1F
100
AcDbEntity
  8
0
  6
Continuous
 62
     7
100
AcDbLine
 10
3457.387397294677
 20
1722.68289110386
 30
0.0
 11
3457.366084522313
 21
1721.499255686526
 31
0.0
  0
LINE
  5
CC4
330
1F
100
AcDbEntity
  8
0
  6
Continuous
 62
     7
100
AcDbLine
 10
3457.366084522313
 20
1721.499255686526
 30
0.0
 11
3457.30495407224
 21
1720.341812805224
 31
0.0
  0
LINE
  5
CC5
330
1F
100
AcDbEntity
  8
0
  6
Continuous
 62
     7
100
AcDbLine
 10
3457.30495407224
 20
1720.341812805224
 30
0.0
 11
3457.203664567247
 21
1719.18720408713
 31
0.0
  0
LINE
  5
CC6
330
1F
100
AcDbEntity
  8
0
  6
Continuous
 62
     7
100
AcDbLine
 10
3457.203664567247
 20
1719.18720408713
 30
0.0
 11
3457.061897199154
 21
1718.036917622603
 31
0.0
  0
LINE
  5
CC7
330
1F
100
AcDbEntity
  8
0
  6
Continuous
 62
     7
100
AcDbLine
 10
3457.061897199154
 20
1718.036917622603
 30
0.0
 11
3456.879333159784
 21
1716.892441502
 31
0.0
  0
LINE
  5
CC8
330
1F
100
AcDbEntity
  8
0
  6
Continuous
 62
     7
100
AcDbLine
 10
3456.879333159784
 20
1716.892441502
 30
0.0
 11
3456.655653640957
 21
1715.755263815682
 31
0.0
  0
LINE
  5
CC9
330
1F
100
AcDbEntity
  8
0
  6
Continuous
 62
     7
100
AcDbLine
 10
3456.655653640957
 20
1715.755263815682
 30
0.0
 11
3456.402831698138
 21
1714.675331791364
 31
0.0
  0
LINE
  5
CCA
330
1F
100
AcDbEntity
  8
0
  6
Continuous
 62
     7
100
AcDbLine
 10
3456.402831698138
 20
1714.675331791364
 30
0.0
 11
3456.083740600158
 21
1713.508827456533
 31
0.0
  0
LINE
  5
CCB
330
1F
100
AcDbEntity
  8
0
  6
Continuous
 62
     7
100
AcDbLine
 10
3456.083740600158
 20
1713.508827456533
 30
0.0
 11
3455.735242589104
 21
1712.402938390495
 31
0.0
  0
LINE
  5
CCC
330
1F
100
AcDbEntity
  8
0
  6
Continuous
 62
     7
100
AcDbLine
 10
3455.735242589104
 20
1712.402938390495
 30
0.0
 11
3455.345084704347
 21
1711.311070717587
 31
0.0
  0
LINE
  5
CCD
330
1F
100
AcDbEntity
  8
0
  6
Continuous
 62
     7
100
AcDbLine
 10
3455.345084704347
 20
1711.311070717587
 30
0.0
 11
3454.913305844125
 21
1710.235089694464
 31
0.0
  0
LINE
  5
CCE
330
1F
100
AcDbEntity
  8
0
  6
Continuous
 62
     7
100
AcDbLine
 10
3454.913305844125
 20
1710.235089694464
 30
0.0
 11
3454.439944906672
 21
1709.17686057778
 31
0.0
  0
LINE
  5
CCF
330
1F
100
AcDbEntity
  8
0
  6
Continuous
 62
     7
100
AcDbLine
 10
3454.439944906672
 20
1709.17686057778
 30
0.0
 11
3453.925040790227
 21
1708.138248624188
 31
0.0
  0
LINE
  5
CD0
330
1F
100
AcDbEntity
  8
0
  6
Continuous
 62
     7
100
AcDbLine
 10
3453.925040790227
 20
1708.138248624188
 30
0.0
 11
3453.524635627966
 21
1707.396534302947
 31
0.0
  0
LINE
  5
CD1
330
1F
100
AcDbEntity
  8
0
  6
Continuous
 62
     7
100
AcDbLine
 10
3453.524635627966
 20
1707.396534302947
 30
0.0
 11
3452.770977072399
 21
1706.127404050221
 31
0.0
  0
LINE
  5
CD2
330
1F
100
AcDbEntity
  8
0
  6
Continuous
 62
     7
100
AcDbLine
 10
3452.770977072399
 20
1706.127404050221
 30
0.0
 11
3452.13270198551
 21
1705.159148683812
 31
0.0
  0
LINE
  5
CD3
330
1F
100
AcDbEntity
  8
0
  6
Continuous
 62
     7
100
AcDbLine
 10
3452.13270198551
 20
1705.159148683812
 30
0.0
 11
3451.454483602353
 21
1704.218413253795
 31
0.0
  0
LINE
  5
CD4
330
1F
100
AcDbEntity
  8
0
  6
Continuous
 62
     7
100
AcDbLine
 10
3451.454483602353
 20
1704.218413253795
 30
0.0
 11
3450.73699623871
 21
1703.307257363966
 31
0.0
  0
LINE
  5
CD5
330
1F
100
AcDbEntity
  8
0
  6
Continuous
 62
     7
100
AcDbLine
 10
3450.73699623871
 20
1703.307257363966
 30
0.0
 11
3449.980914210359
 21
1702.427740618124
 31
0.0
  0
LINE
  5
CD6
330
1F
100
AcDbEntity
  8
0
  6
Continuous
 62
     7
100
AcDbLine
 10
3449.980914210359
 20
1702.427740618124
 30
0.0
 11
3448.948953357416
 21
1701.342536626308
 31
0.0
  0
LINE
  5
CD7
330
1F
100
AcDbEntity
  8
0
  6
Continuous
 62
     7
100
AcDbLine
 10
3448.948953357416
 20
1701.342536626308
 30
0.0
 11
3448.35573993404
 21
1700.771852209132
 31
0.0
  0
LINE
  5
CD8
330
1F
100
AcDbEntity
  8
0
  6
Continuous
 62
     7
100
AcDbLine
 10
3448.35573993404
 20
1700.771852209132
 30
0.0
 11
3447.488914453112
 21
1699.999470580324
 31
0.0
  0
LINE
  5
CD9
330
1F
100
AcDbEntity
  8
0
  6
Continuous
 62
     7
100
AcDbLine
 10
3447.488914453112
 20
1699.999470580324
 30
0.0
 11
3446.588391684582
 21
1699.266656974796
 31
0.0
  0
LINE
  5
CDA
330
1F
100
AcDbEntity
  8
0
  6
Continuous
 62
     7
100
AcDbLine
 10
3446.588391684582
 20
1699.266656974796
 30
0.0
 11
3445.656133201434
 21
1698.575289891045
 31
0.0
  0
LINE
  5
CDB
330
1F
100
AcDbEntity
  8
0
  6
Continuous
 62
     7
100
AcDbLine
 10
3445.656133201434
 20
1698.575289891045
 30
0.0
 11
3444.694100576652
 21
1697.927247827564
 31
0.0
  0
LINE
  5
CDC
330
1F
100
AcDbEntity
  8
0
  6
Continuous
 62
     7
100
AcDbLine
 10
3444.694100576652
 20
1697.927247827564
 30
0.0
 11
3443.704255383223
 21
1697.324409282847
 31
0.0
  0
LINE
  5
CDD
330
1F
100
AcDbEntity
  8
0
  6
Continuous
 62
     7
100
AcDbLine
 10
3443.704255383223
 20
1697.324409282847
 30
0.0
 11
3442.987610106628
 21
1696.925908701036
 31
0.0
  0
LINE
  5
CDE
330
1F
100
AcDbEntity
  8
0
  6
Continuous
 62
     7
100
AcDbLine
 10
3442.987610106628
 20
1696.925908701036
 30
0.0
 11
3441.648993963303
 21
1696.26132861467
 31
0.0
  0
LINE
  5
CDF
330
1F
100
AcDbEntity
  8
0
  6
Continuous
 62
     7
100
AcDbLine
 10
3441.648993963303
 20
1696.26132861467
 30
0.0
 11
3440.587573914807
 21
1695.802951018121
 31
0.0
  0
ELLIPSE
  5
CE0
330
1F
100
AcDbEntity
  8
0
100
AcDbEllipse
 10
3424.859546304085
 20
1721.721831236575
 30
0.0
 11
-3.51922952823925
 21
11.75185982745386
 31
0.0
210
0.0
220
0.0
230
1.0
 40
0.6028874378768443
 41
3.077607508505387
 42
6.373388312485766
  0
ELLIPSE
  5
CE1
330
1F
100
AcDbEntity
  8
0
100
AcDbEllipse
 10
3423.957509689388
 20
1723.501748649686
 30
0.0
 11
-13.63131473872816
 21
28.71029266061988
 31
0.0
210
0.0
220
0.0
230
0.9999999999999998
 40
0.8212039420771185
 41
1.978386057838745
 42
5.382262508078437
  0
ELLIPSE
  5
CE2
330
1F
100
AcDbEntity
  8
0
100
AcDbEllipse
 10
3423.957509689388
 20
1723.501748649686
 30
0.0
 11
-13.63131473872816
 21
28.71029266061988
 31
0.0
210
0.0
220
0.0
230
0.9999999999999998
 40
0.8212039420771185
 41
6.015399036400009
 42
7.355388420758562
  0
ELLIPSE
  5
CE3
330
1F
100
AcDbEntity
  8
0
  6
Continuous
 62
     7
100
AcDbEllipse
 10
3398.011721418605
 20
1730.827413056236
 30
0.0
 11
6.157016760134572
 21
6.895313133297099
 31
0.0
210
0.0
220
0.0
230
1.0
 40
0.7440484587964502
 41
2.596189347944107
 42
3.575532831716598
  0
MTEXT
  5
D33
330
1F
100
AcDbEntity
  8
0
100
AcDbMText
 10
2431.223888193221
 20
1661.864350221261
 30
0.0
 40
30.0
 41
201.7942574699391
 46
0.0
 71
     1
 72
     5
  1
A
  7
黑体
210
0.0
220
0.0
230
-1.0
 11
-1.0
 21
0.0
 31
0.0
 73
     1
 44
1.0
  0
LINE
  5
D34
330
1F
100
AcDbEntity
  8
0
100
AcDbLine
 10
2408.671872735125
 20
2057.282901080599
 30
0.0
 11
2408.671872735125
 21
2085.663063088997
 31
0.0
  0
LWPOLYLINE
  5
D35
330
1F
100
AcDbEntity
  8
0
100
AcDbPolyline
 90
        2
 70
     0
 10
2408.671872735125
 20
2085.663063088997
 40
2.0
 41
0.0
 10
2339.757511361438
 20
2085.663063088997
 40
0.0
 41
0.0
  0
LINE
  5
D36
330
1F
100
AcDbEntity
  8
0
100
AcDbLine
 10
2407.110209061918
 20
1672.813266778819
 30
0.0
 11
2406.396833914703
 21
1644.442072029174
 31
0.0
  0
LWPOLYLINE
  5
D37
330
1F
100
AcDbEntity
  8
0
100
AcDbPolyline
 90
        2
 70
     0
 10
2406.396833914703
 20
1644.442072029174
 40
1.999999999999999
 41
0.0
 10
2337.504247360698
 20
1646.174331086597
 40
0.0
 41
0.0
  0
MTEXT
  5
D38
330
1F
100
AcDbEntity
  8
0
100
AcDbMText
 10
2435.712871856332
 20
2100.44501775347
 30
0.0
 40
30.0
 41
201.7942574699391
 46
0.0
 71
     1
 72
     5
  1
A
  7
黑体
210
0.0
220
0.0
230
-1.0
 11
-1.0
 21
0.0
 31
0.0
 73
     1
 44
1.0
  0
CIRCLE
  5
D50
330
1F
100
AcDbEntity
  8
Hidden
100
AcDbCircle
 10
2408.941817065217
 20
2774.67834653552
 30
0.0
 40
9.999999999998181
  0
LINE
  5
D51
330
1F
100
AcDbEntity
  8
Hidden
100
AcDbLine
 10
2418.941817065217
 20
2790.607759283106
 30
0.0
 11
2418.941817065216
 21
2774.67834653552
 31
0.0
  0
LINE
  5
D52
330
1F
100
AcDbEntity
  8
Hidden
100
AcDbLine
 10
2399.04284293796
 20
2790.578346535521
 30
0.0
 11
2398.941817065219
 21
2774.67834653552
 31
0.0
  0
ENDSEC
  0
SECTION
  2
OBJECTS
  0
DICTIONARY
  5
C
330
0
100
AcDbDictionary
281
     1
  3
ACAD_CIP_PREVIOUS_PRODUCT_INFO
350
E4A
  3
ACAD_COLOR
350
6B
  3
ACAD_DETAILVIEWSTYLE
350
E42
  3
ACAD_GROUP
350
D
  3
ACAD_LAYOUT
350
1A
  3
ACAD_MATERIAL
350
6A
  3
ACAD_MLEADERSTYLE
350
12D
  3
ACAD_MLINESTYLE
350
17
  3
ACAD_PLOTSETTINGS
350
19
  3
ACAD_PLOTSTYLENAME
350
E
  3
ACAD_SCALELIST
350
10C
  3
ACAD_SECTIONVIEWSTYLE
350
E40
  3
ACAD_TABLESTYLE
350
7E
  3
ACAD_VISUALSTYLE
350
EF
  3
ACDB_RECOMPOSE_DATA
350
E5A
  3
AcDbVariableDictionary
350
5E
  3
ASE_INDEX_DICTIONARY
350
6F3
  0
DICTIONARY
  5
720
330
8
100
AcDbDictionary
280
     1
281
     1
  0
DICTIONARY
  5
28A
330
2
100
AcDbDictionary
280
     1
281
     1
  3
ACAD_LAYERFILTERS
360
759
  3
ACAD_LAYERSTATES
360
28B
  3
ACLYDICTIONARY
360
758
  0
DICTIONARY
  5
13C
330
10
100
AcDbDictionary
280
     1
281
     1
  3
ADSK_XREC_LAYER_RECONCILED
360
6ED
  0
DICTIONARY
  5
27E
330
27D
100
AcDbDictionary
280
     1
281
     1
  3
ADSK_XREC_LAYER_RECONCILED
360
6EE
  0
DICTIONARY
  5
281
330
280
100
AcDbDictionary
280
     1
281
     1
  3
ADSK_XREC_LAYER_RECONCILED
360
6EF
  0
DICTIONARY
  5
283
330
282
100
AcDbDictionary
280
     1
281
     1
  3
ADSK_XREC_LAYER_RECONCILED
360
6F0
  0
DICTIONARY
  5
285
330
284
100
AcDbDictionary
280
     1
281
     1
  3
ADSK_XREC_LAYER_RECONCILED
360
6F1
  0
DICTIONARY
  5
965
330
1F
100
AcDbDictionary
280
     1
281
     1
  3
ACAD_SORTENTS
360
966
  0
DICTIONARY
  5
E34
330
A87
100
AcDbDictionary
280
     1
281
     1
  0
DICTIONARY
  5
E36
330
AA1
100
AcDbDictionary
280
     1
281
     1
  0
DICTIONARY
  5
E38
330
B9F
100
AcDbDictionary
280
     1
281
     1
  0
DICTIONARY
  5
E3A
330
BA7
100
AcDbDictionary
280
     1
281
     1
  0
DICTIONARY
  5
A0D
330
A00
100
AcDbDictionary
280
     1
281
     1
  3
ACAD_DIMASSOC
360
A17
  0
XRECORD
  5
E4A
102
{ACAD_REACTORS
330
C
102
}
330
C
100
AcDbXrecord
280
     1
300
ACD
300
2017
300
ACD_F_S
  0
DICTIONARY
  5
6B
102
{ACAD_REACTORS
330
C
102
}
330
C
100
AcDbDictionary
281
     1
  0
DICTIONARY
  5
E42
102
{ACAD_REACTORS
330
C
102
}
330
C
100
AcDbDictionary
281
     1
  3
Metric50
350
E43
  0
DICTIONARY
  5
D
102
{ACAD_REACTORS
330
C
102
}
330
C
100
AcDbDictionary
281
     1
  0
DICTIONARY
  5
1A
102
{ACAD_REACTORS
330
C
102
}
330
C
100
AcDbDictionary
281
     1
  3
Model
350
22
  3
布局1
350
D3
  3
布局2
350
D7
1001
AcadStringInfo
1000
MIFCodePage
1070
     5
  0
DICTIONARY
  5
6A
102
{ACAD_REACTORS
330
C
102
}
330
C
100
AcDbDictionary
281
     1
  3
ByBlock
350
ED
  3
ByLayer
350
EC
  3
Global
350
EE
  0
DICTIONARY
  5
12D
102
{ACAD_REACTORS
330
C
102
}
330
C
100
AcDbDictionary
281
     1
  3
Annotative
350
13B
  3
Standard
350
12E
  0
DICTIONARY
  5
17
102
{ACAD_REACTORS
330
C
102
}
330
C
100
AcDbDictionary
281
     1
  3
Standard
350
18
  0
DICTIONARY
  5
19
102
{ACAD_REACTORS
330
C
102
}
330
C
100
AcDbDictionary
281
     1
  0
ACDBDICTIONARYWDFLT
  5
E
102
{ACAD_REACTORS
330
C
102
}
330
C
100
AcDbDictionary
281
     1
  3
Normal
350
F
100
AcDbDictionaryWithDefault
340
F
  0
DICTIONARY
  5
10C
102
{ACAD_REACTORS
330
C
102
}
330
C
100
AcDbDictionary
281
     1
  3
A0
350
10D
  3
A1
350
188
  3
A2
350
189
  3
A3
350
18A
  3
A4
350
18B
  3
A5
350
18C
  3
A6
350
18D
  3
A7
350
18E
  3
A8
350
18F
  3
A9
350
190
  3
B0
350
191
  3
B1
350
192
  3
B2
350
193
  3
B3
350
194
  3
B4
350
195
  3
B5
350
196
  3
B6
350
197
  3
B7
350
198
  3
B8
350
199
  3
B9
350
19A
  3
C0
350
19B
  3
C1
350
19C
  3
C2
350
19D
  3
C3
350
19E
  3
C4
350
19F
  3
C5
350
1A0
  3
C6
350
1A1
  3
C7
350
1A2
  3
C8
350
1A3
  3
C9
350
1A4
  3
D0
350
1A5
  3
D1
350
1A6
  3
D2
350
1A7
  0
DICTIONARY
  5
E40
102
{ACAD_REACTORS
330
C
102
}
330
C
100
AcDbDictionary
281
     1
  3
Metric50
350
E41
  0
DICTIONARY
  5
7E
102
{ACAD_REACTORS
330
C
102
}
330
C
100
AcDbDictionary
281
     1
  3
Standard
350
7F
  0
DICTIONARY
  5
EF
102
{ACAD_REACTORS
330
C
102
}
330
C
100
AcDbDictionary
281
     1
  3
2dWireframe
350
F5
  3
3D Hidden
350
F7
  3
3dWireframe
350
F6
  3
Basic
350
F4
  3
Brighten
350
FB
  3
ColorChange
350
FF
  3
Conceptual
350
F8
  3
Dim
350
FA
  3
EdgeColorOff
350
91E
  3
Facepattern
350
FE
  3
Flat
350
F0
  3
FlatWithEdges
350
F1
  3
Gouraud
350
F2
  3
GouraudWithEdges
350
F3
  3
Hidden
350
916
  3
JitterOff
350
91C
  3
Linepattern
350
FD
  3
OverhangOff
350
91D
  3
Realistic
350
F9
  3
Shaded
350
91B
  3
Shaded with edges
350
91A
  3
Shades of Gray
350
917
  3
Sketchy
350
918
  3
Thicken
350
FC
  3
Wireframe
350
915
  3
X-Ray
350
919
  0
XRECORD
  5
E5A
102
{ACAD_REACTORS
330
C
102
}
330
C
100
AcDbXrecord
280
     1
 90
        1
330
7F
330
A20
330
B41
330
E41
330
E43
  0
DICTIONARY
  5
5E
102
{ACAD_REACTORS
330
C
102
}
330
C
100
AcDbDictionary
281
     1
  3
CANNOSCALE
350
146
  3
CMLEADERSTYLE
350
145
  3
CTABLESTYLE
350
84
  3
CVIEWDETAILSTYLE
350
E53
  3
CVIEWSECTIONSTYLE
350
E54
  3
DIMASSOC
350
5F
  3
HIDETEXT
350
63
  3
INDEXCTL
350
744
  3
LAYEREVAL
350
933
  3
LAYERNOTIFY
350
934
  3
LIGHTINGUNITS
350
742
  3
MSLTSCALE
350
741
  3
PROJECTNAME
350
7F0
  3
SORTENTS
350
743
  0
DICTIONARY
  5
6F3
102
{ACAD_REACTORS
330
C
102
}
330
C
100
AcDbDictionary
281
     1
  3
ASEBlockHierarchyIndexRecord
350
6F4
1001
DCO15
1040
1674705248.546
  0
DICTIONARY
  5
759
102
{ACAD_REACTORS
330
28A
102
}
330
28A
100
AcDbDictionary
281
     1
  0
DICTIONARY
  5
28B
102
{ACAD_REACTORS
330
28A
102
}
330
28A
100
AcDbDictionary
281
     1
  0
DICTIONARY
  5
758
102
{ACAD_REACTORS
330
28A
102
}
330
28A
100
AcDbDictionary
281
     1
1001
ACAD
1000
<All
  0
XRECORD
  5
6ED
102
{ACAD_REACTORS
330
13C
102
}
330
13C
100
AcDbXrecord
280
     1
290
     1
  0
XRECORD
  5
6EE
102
{ACAD_REACTORS
330
27E
102
}
330
27E
100
AcDbXrecord
280
     1
290
     1
  0
XRECORD
  5
6EF
102
{ACAD_REACTORS
330
281
102
}
330
281
100
AcDbXrecord
280
     1
290
     1
  0
XRECORD
  5
6F0
102
{ACAD_REACTORS
330
283
102
}
330
283
100
AcDbXrecord
280
     1
290
     1
  0
XRECORD
  5
6F1
102
{ACAD_REACTORS
330
285
102
}
330
285
100
AcDbXrecord
280
     1
290
     1
  0
SORTENTSTABLE
  5
966
102
{ACAD_REACTORS
330
965
102
}
330
965
100
AcDbSortentsTable
330
1F
331
41E
  5
426
331
3DF
  5
3E0
331
41A
  5
41E
331
3DB
  5
3DB
331
412
  5
41A
331
ACC
  5
ADF
331
AC8
  5
ACA
331
641
  5
645
331
63D
  5
641
331
639
  5
63D
331
98D
  5
A20
331
989
  5
98C
331
CA2
  5
CA2
331
CE1
  5
CE2
331
40F
  5
413
331
403
  5
408
331
AC5
  5
AC7
331
AC1
  5
AC3
331
B58
  5
B58
331
669
  5
670
331
A21
  5
AC2
331
CDE
  5
CDF
331
CDA
  5
CDB
331
CD6
  5
CD7
331
CD2
  5
CD3
331
634
  5
638
331
3FF
  5
403
331
3FB
  5
3FF
331
3F7
  5
3FB
331
3F3
  5
3F7
331
432
  5
436
331
B54
  5
B54
331
B50
  5
B50
331
B4C
  5
B4C
331
B48
  5
B48
331
661
  5
665
331
659
  5
65D
331
CCE
  5
CCF
331
CCA
  5
CCB
331
CC6
  5
CC7
331
CC2
  5
CC3
331
799
  5
89D
331
3EC
  5
3EF
331
42F
  5
433
331
3E4
  5
3E6
331
42B
  5
430
331
3E0
  5
3E1
331
BC1
  5
BC1
331
BBD
  5
BBD
331
B45
  5
B45
331
B41
  5
B41
331
AE5
  5
AE6
331
652
  5
656
331
64E
  5
652
331
64A
  5
64E
331
9EE
  5
3E4
331
CBF
  5
CC0
331
CBB
  5
CBC
331
CB7
  5
CB8
331
CB3
  5
CB4
331
3DC
  5
3DD
331
41F
  5
428
331
41B
  5
41F
331
413
  5
41B
331
AC9
  5
ACB
331
646
  5
64A
331
642
  5
646
331
63E
  5
642
331
63A
  5
63E
331
98A
  5
98D
331
CAF
  5
CB0
331
986
  5
989
331
CA3
  5
CAF
331
CE2
  5
CE3
331
40C
  5
410
331
408
  5
40D
331
404
  5
409
331
400
  5
404
331
C9D
  5
C9D
331
AC6
  5
AC8
331
AC2
  5
AC4
331
B59
  5
B59
331
66A
  5
68F
331
CDF
  5
CE0
331
CDB
  5
CDC
331
CD7
  5
CD8
331
CD3
  5
CD4
331
635
  5
639
331
631
  5
635
331
3FC
  5
400
331
3F8
  5
3FC
331
3F4
  5
3F8
331
3F0
  5
3F4
331
433
  5
437
331
B55
  5
B55
331
B51
  5
B51
331
B4D
  5
B4D
331
B49
  5
B49
331
666
  5
66A
331
65E
  5
662
331
CCF
  5
CD0
331
CCB
  5
CCC
331
CC7
  5
CC8
331
62D
  5
631
331
CC3
  5
CC4
331
42C
  5
431
331
3ED
  5
3F0
331
428
  5
42C
331
3E9
  5
3EB
331
3E5
  5
3E9
331
3E1
  5
3E2
331
420
  5
429
331
BC2
  5
BC2
331
BBE
  5
BBE
331
B46
  5
B46
331
B42
  5
B42
331
AE6
  5
AE7
331
AE2
  5
AE3
331
653
  5
657
331
64F
  5
653
331
64B
  5
64F
331
CBC
  5
CBD
331
CB8
  5
CB9
331
CB4
  5
CB5
331
CB0
  5
CB1
331
41C
  5
420
331
3DD
  5
3DE
331
414
  5
41C
331
410
  5
414
331
ACE
  5
3EE
331
ACA
  5
ACC
331
643
  5
647
331
63B
  5
63F
331
98B
  5
9EE
331
987
  5
98A
331
CA0
  5
CA0
331
CE3
  5
CA3
331
40D
  5
411
331
409
  5
40E
331
405
  5
40A
331
401
  5
405
331
C9E
  5
C9E
331
AC7
  5
AC9
331
AC3
  5
AC5
331
B5A
  5
B5A
331
66B
  5
799
331
CDC
  5
CDD
331
CD8
  5
CD9
331
CD4
  5
CD5
331
CD0
  5
CD1
331
636
  5
63A
331
3FD
  5
401
331
3F9
  5
3FD
331
3F5
  5
3F9
331
430
  5
434
331
3F1
  5
3F5
331
B56
  5
B56
331
B52
  5
B52
331
B4E
  5
B4E
331
B4A
  5
B4A
331
667
  5
66B
331
663
  5
667
331
65F
  5
663
331
65B
  5
65F
331
CCC
  5
CCD
331
CC8
  5
CC9
331
CC4
  5
CC5
331
62E
  5
632
331
CC0
  5
CC1
331
3EE
  5
3F1
331
429
  5
42E
331
3EA
  5
3EC
331
425
  5
42A
331
3E6
  5
3EA
331
3E2
  5
3E3
331
BC3
  5
BC3
331
BBF
  5
BBF
331
B47
  5
B47
331
B43
  5
B43
331
AE7
  5
3F2
331
654
  5
658
331
AE3
  5
AE4
331
650
  5
654
331
64C
  5
650
331
CBD
  5
CBE
331
CB9
  5
CBA
331
CB5
  5
CB6
331
CB1
  5
CB2
331
41D
  5
425
331
3DE
  5
3DF
331
3DA
  5
3DA
331
415
  5
41D
331
411
  5
415
331
ADF
  5
AE0
331
ACB
  5
ACE
331
640
  5
644
331
63C
  5
640
331
638
  5
63C
331
68F
  5
89C
331
98C
  5
A00
331
988
  5
98B
331
CA1
  5
CA1
331
CE0
  5
CE1
331
40E
  5
412
331
40A
  5
40F
331
406
  5
40C
331
402
  5
406
331
C9F
  5
C9F
331
AC4
  5
AC6
331
670
  5
89B
331
66C
  5
89A
331
668
  5
66C
331
A20
  5
AC1
331
CDD
  5
CDE
331
CD9
  5
CDA
331
CD5
  5
CD6
331
CD1
  5
CD2
331
637
  5
63B
331
3FE
  5
402
331
3FA
  5
3FE
331
3F6
  5
3FA
331
3F2
  5
3F6
331
431
  5
435
331
B57
  5
B57
331
B53
  5
B53
331
B4F
  5
B4F
331
B4B
  5
B4B
331
660
  5
664
331
65C
  5
660
331
658
  5
65C
331
CCD
  5
CCE
331
A00
  5
A21
331
CC9
  5
CCA
331
CC5
  5
CC6
331
CC1
  5
CC2
331
42E
  5
432
331
3EF
  5
3F3
331
42A
  5
42F
331
3EB
  5
3ED
331
426
  5
42B
331
3E3
  5
3E5
331
BC4
  5
BC4
331
BC0
  5
BC0
331
BBC
  5
BBC
331
B44
  5
B44
331
AE4
  5
AE5
331
AE0
  5
AE1
331
655
  5
659
331
651
  5
655
331
64D
  5
651
331
649
  5
64D
331
CBE
  5
CBF
331
CBA
  5
CBB
331
CB6
  5
CB7
331
CB2
  5
CB3
  0
DIMASSOC
  5
A17
102
{ACAD_REACTORS
330
A0D
102
}
330
A0D
100
AcDbDimAssoc
330
A00
 90
        1
 70
     0
 71
     0
  1
AcDbOsnapPointRef
 72
     1
331
987
 73
     2
 91
        0
 40
1.0
 10
0.0
 20
0.0
 30
2.000000000000000E+50
 75
     0
  0
ACDBDETAILVIEWSTYLE
  5
E43
102
{ACAD_XDICTIONARY
360
E58
102
}
102
{ACAD_REACTORS
330
E42
102
}
330
E42
100
AcDbModelDocViewStyle
 70
     0
  3
Metric50
290
     0
100
AcDbDetailViewStyle
 70
     0
 71
     0
 90
        3
 71
     1
340
11
 62
   256
 40
5.0
340
0
 62
   256
 40
5.0
300

 40
0.0
280
     1
 71
     2
340
16
 90
       25
 62
   256
 71
     3
340
11
 62
   256
 40
5.0
 90
        0
 40
15.0
 90
        1
300
%<\AcVar ViewDetailId>% (%<\AcVar ViewScale \f "%sn">%)
 71
     4
340
16
 90
       25
 62
   256
340
16
 90
       25
 62
   256
280
     0
  0
LAYOUT
  5
22
102
{ACAD_XDICTIONARY
360
931
102
}
102
{ACAD_REACTORS
330
1A
102
}
330
1A
100
AcDbPlotSettings
  1

  2
none_device
  4
ISO_A4_(210.00_x_297.00_MM)
  6

 40
7.5
 41
20.0
 42
7.5
 43
20.0
 44
210.0
 45
297.0
 46
11.54999923706054
 47
-13.65000009536743
 48
0.0
 49
0.0
140
0.0
141
0.0
142
1.0
143
8.704084754739808
 70
 11952
 72
     1
 73
     0
 74
     0
  7

 75
     0
147
0.1148885871608098
 76
     0
 77
     2
 78
   300
148
0.0
149
0.0
100
AcDbLayout
  1
Model
 70
     1
 71
     0
 10
0.0
 20
0.0
 11
12.0
 21
9.0
 12
0.0
 22
0.0
 32
0.0
 14
0.0
 24
0.0
 34
0.0
 15
0.0
 25
0.0
 35
0.0
146
0.0
 13
0.0
 23
0.0
 33
0.0
 16
1.0
 26
0.0
 36
0.0
 17
0.0
 27
1.0
 37
0.0
 76
     0
330
1F
331
90B
1001
ACAD_PSEXT
1000
None
1000
None
1000
Not applicable
1000
The layout will not be plotted unless a new plotter configuration name is selected.
1070
     0
  0
LAYOUT
  5
D3
102
{ACAD_REACTORS
330
1A
102
}
330
1A
100
AcDbPlotSettings
  1

  2
C:\Documents and Settings\basas\Application Data\Autodesk\AutoCAD 2005\R16.1\enu\plotters\Default Windows System Printer.pc3
  4

  6

 40
0.0
 41
0.0
 42
0.0
 43
0.0
 44
0.0
 45
0.0
 46
0.0
 47
0.0
 48
0.0
 49
0.0
140
0.0
141
0.0
142
1.0
143
1.0
 70
   688
 72
     0
 73
     0
 74
     5
  7

 75
    16
147
1.0
 76
     0
 77
     2
 78
   300
148
0.0
149
0.0
100
AcDbLayout
  1
布局1
 70
     1
 71
     1
 10
0.0
 20
0.0
 11
12.0
 21
9.0
 12
0.0
 22
0.0
 32
0.0
 14
0.0
 24
0.0
 34
0.0
 15
0.0
 25
0.0
 35
0.0
146
0.0
 13
0.0
 23
0.0
 33
0.0
 16
1.0
 26
0.0
 36
0.0
 17
0.0
 27
1.0
 37
0.0
 76
     0
330
D2
1001
AcadStringInfo
1000
MIFCodePage
1070
     5
  0
LAYOUT
  5
D7
102
{ACAD_REACTORS
330
1A
102
}
330
1A
100
AcDbPlotSettings
  1

  2
C:\Documents and Settings\basas\Application Data\Autodesk\AutoCAD 2005\R16.1\enu\plotters\Default Windows System Printer.pc3
  4

  6

 40
0.0
 41
0.0
 42
0.0
 43
0.0
 44
0.0
 45
0.0
 46
0.0
 47
0.0
 48
0.0
 49
0.0
140
0.0
141
0.0
142
1.0
143
1.0
 70
   688
 72
     0
 73
     0
 74
     5
  7

 75
    16
147
1.0
 76
     0
 77
     2
 78
   300
148
0.0
149
0.0
100
AcDbLayout
  1
布局2
 70
     1
 71
     2
 10
0.0
 20
0.0
 11
12.0
 21
9.0
 12
0.0
 22
0.0
 32
0.0
 14
0.0
 24
0.0
 34
0.0
 15
0.0
 25
0.0
 35
0.0
146
0.0
 13
0.0
 23
0.0
 33
0.0
 16
1.0
 26
0.0
 36
0.0
 17
0.0
 27
1.0
 37
0.0
 76
     0
330
D6
1001
AcadStringInfo
1000
MIFCodePage
1070
     5
  0
MATERIAL
  5
ED
102
{ACAD_REACTORS
330
6A
102
}
330
6A
100
AcDbMaterial
  1
ByBlock
 94
       63
  0
MATERIAL
  5
EC
102
{ACAD_REACTORS
330
6A
102
}
330
6A
100
AcDbMaterial
  1
ByLayer
 94
       63
  0
MATERIAL
  5
EE
102
{ACAD_XDICTIONARY
360
173
102
}
102
{ACAD_REACTORS
330
6A
102
}
330
6A
100
AcDbMaterial
  1
Global
 43
0.0007999999797903
 43
0.0
 43
0.0
 43
0.0
 43
0.0
 43
0.0007999999797903
 43
0.0
 43
0.0
 43
0.0
 43
0.0
 43
1.0
 43
0.0
 43
0.0
 43
0.0
 43
0.0
 43
1.0
 49
0.0007999999797903
 49
0.0
 49
0.0
 49
0.0
 49
0.0
 49
0.0007999999797903
 49
0.0
 49
0.0
 49
0.0
 49
0.0
 49
1.0
 49
0.0
 49
0.0
 49
0.0
 49
0.0
 49
1.0
142
0.0007999999797903
142
0.0
142
0.0
142
0.0
142
0.0
142
0.0007999999797903
142
0.0
142
0.0
142
0.0
142
0.0
142
1.0
142
0.0
142
0.0
142
0.0
142
0.0
142
1.0
144
0.0007999999797903
144
0.0
144
0.0
144
0.0
144
0.0
144
0.0007999999797903
144
0.0
144
0.0
144
0.0
144
0.0
144
1.0
144
0.0
144
0.0
144
0.0
144
0.0
144
1.0
 94
       63
1001
ACAD
1070
    -1
1070
     3
1070
     0
1000

1071
        0
1070
     0
  0
MLEADERSTYLE
  5
13B
102
{ACAD_REACTORS
330
12D
102
}
330
12D
100
AcDbMLeaderStyle
179
     2
170
     2
171
     1
172
     0
 90
        2
 40
0.0
 41
0.0
173
     1
 91
-1056964608
340
14
 92
       -2
290
     1
 42
2.0
291
     1
 43
8.0
  3
Standard
 44
4.0
300

342
11
174
     1
178
     1
175
     1
176
     0
 93
-1056964608
 45
4.0
292
     0
297
     0
 46
4.0
 94
-1056964608
 47
1.0
 49
1.0
140
1.0
293
     1
141
0.0
294
     1
177
     0
142
1.0
295
     0
296
     1
143
3.75
271
     0
272
     9
273
     9
298
     0
1001
ACAD
1000
AcRTDxfName
1000
MLEADERSTYLE
1000
AcRTDxfName
1000
MLEADERSTYLE
1000
AcRTDxfName
1000
MLEADERSTYLE
1000
AcRTDxfName
1000
MLEADERSTYLE
1000
AcRTDxfName
1000
MLEADERSTYLE
  0
MLEADERSTYLE
  5
12E
102
{ACAD_REACTORS
330
12D
102
}
330
12D
100
AcDbMLeaderStyle
179
     2
170
     2
171
     1
172
     0
 90
        2
 40
0.0
 41
0.0
173
     1
 91
-1056964608
340
14
 92
       -2
290
     1
 42
2.0
291
     1
 43
8.0
  3
Standard
 44
4.0
300

342
11
174
     1
178
     1
175
     1
176
     0
 93
-1056964608
 45
4.0
292
     0
297
     0
 46
4.0
 94
-1056964608
 47
1.0
 49
1.0
140
1.0
293
     1
141
0.0
294
     1
177
     0
142
1.0
295
     0
296
     0
143
3.75
271
     0
272
     9
273
     9
298
     0
1001
ACAD
1000
AcRTDxfName
1000
MLEADERSTYLE
1000
AcRTDxfName
1000
MLEADERSTYLE
1000
AcRTDxfName
1000
MLEADERSTYLE
1000
AcRTDxfName
1000
MLEADERSTYLE
1000
AcRTDxfName
1000
MLEADERSTYLE
  0
MLINESTYLE
  5
18
102
{ACAD_REACTORS
330
17
102
}
330
17
100
AcDbMlineStyle
  2
STANDARD
 70
     0
  3

 62
   256
 51
90.0
 52
90.0
 71
     2
 49
0.5
 62
   256
  6
BYLAYER
 49
-0.5
 62
   256
  6
BYLAYER
  0
ACDBPLACEHOLDER
  5
F
102
{ACAD_REACTORS
330
E
102
}
330
E
  0
SCALE
  5
10D
102
{ACAD_REACTORS
330
10C
102
}
330
10C
100
AcDbScale
 70
     0
300
1:1
140
1.0
141
1.0
290
     1
1001
ACAD
1000
AcRTDxfName
1000
SCALE
1000
AcRTDxfName
1000
SCALE
1000
AcRTDxfName
1000
SCALE
1000
AcRTDxfName
1000
SCALE
1000
AcRTDxfName
1000
SCALE
  0
SCALE
  5
188
102
{ACAD_REACTORS
330
10C
102
}
330
10C
100
AcDbScale
 70
     0
300
1:2
140
1.0
141
2.0
290
     0
1001
ACAD
1000
AcRTDxfName
1000
SCALE
1000
AcRTDxfName
1000
SCALE
1000
AcRTDxfName
1000
SCALE
1000
AcRTDxfName
1000
SCALE
1000
AcRTDxfName
1000
SCALE
  0
SCALE
  5
189
102
{ACAD_REACTORS
330
10C
102
}
330
10C
100
AcDbScale
 70
     0
300
1:4
140
1.0
141
4.0
290
     0
1001
ACAD
1000
AcRTDxfName
1000
SCALE
1000
AcRTDxfName
1000
SCALE
1000
AcRTDxfName
1000
SCALE
1000
AcRTDxfName
1000
SCALE
1000
AcRTDxfName
1000
SCALE
  0
SCALE
  5
18A
102
{ACAD_REACTORS
330
10C
102
}
330
10C
100
AcDbScale
 70
     0
300
1:5
140
1.0
141
5.0
290
     0
1001
ACAD
1000
AcRTDxfName
1000
SCALE
1000
AcRTDxfName
1000
SCALE
1000
AcRTDxfName
1000
SCALE
1000
AcRTDxfName
1000
SCALE
1000
AcRTDxfName
1000
SCALE
  0
SCALE
  5
18B
102
{ACAD_REACTORS
330
10C
102
}
330
10C
100
AcDbScale
 70
     0
300
1:8
140
1.0
141
8.0
290
     0
1001
ACAD
1000
AcRTDxfName
1000
SCALE
1000
AcRTDxfName
1000
SCALE
1000
AcRTDxfName
1000
SCALE
1000
AcRTDxfName
1000
SCALE
1000
AcRTDxfName
1000
SCALE
  0
SCALE
  5
18C
102
{ACAD_REACTORS
330
10C
102
}
330
10C
100
AcDbScale
 70
     0
300
1:10
140
1.0
141
10.0
290
     0
1001
ACAD
1000
AcRTDxfName
1000
SCALE
1000
AcRTDxfName
1000
SCALE
1000
AcRTDxfName
1000
SCALE
1000
AcRTDxfName
1000
SCALE
1000
AcRTDxfName
1000
SCALE
  0
SCALE
  5
18D
102
{ACAD_REACTORS
330
10C
102
}
330
10C
100
AcDbScale
 70
     0
300
1:16
140
1.0
141
16.0
290
     0
1001
ACAD
1000
AcRTDxfName
1000
SCALE
1000
AcRTDxfName
1000
SCALE
1000
AcRTDxfName
1000
SCALE
1000
AcRTDxfName
1000
SCALE
1000
AcRTDxfName
1000
SCALE
  0
SCALE
  5
18E
102
{ACAD_REACTORS
330
10C
102
}
330
10C
100
AcDbScale
 70
     0
300
1:20
140
1.0
141
20.0
290
     0
1001
ACAD
1000
AcRTDxfName
1000
SCALE
1000
AcRTDxfName
1000
SCALE
1000
AcRTDxfName
1000
SCALE
1000
AcRTDxfName
1000
SCALE
1000
AcRTDxfName
1000
SCALE
  0
SCALE
  5
18F
102
{ACAD_REACTORS
330
10C
102
}
330
10C
100
AcDbScale
 70
     0
300
1:30
140
1.0
141
30.0
290
     0
1001
ACAD
1000
AcRTDxfName
1000
SCALE
1000
AcRTDxfName
1000
SCALE
1000
AcRTDxfName
1000
SCALE
1000
AcRTDxfName
1000
SCALE
1000
AcRTDxfName
1000
SCALE
  0
SCALE
  5
190
102
{ACAD_REACTORS
330
10C
102
}
330
10C
100
AcDbScale
 70
     0
300
1:40
140
1.0
141
40.0
290
     0
1001
ACAD
1000
AcRTDxfName
1000
SCALE
1000
AcRTDxfName
1000
SCALE
1000
AcRTDxfName
1000
SCALE
1000
AcRTDxfName
1000
SCALE
1000
AcRTDxfName
1000
SCALE
  0
SCALE
  5
191
102
{ACAD_REACTORS
330
10C
102
}
330
10C
100
AcDbScale
 70
     0
300
1:50
140
1.0
141
50.0
290
     0
1001
ACAD
1000
AcRTDxfName
1000
SCALE
1000
AcRTDxfName
1000
SCALE
1000
AcRTDxfName
1000
SCALE
1000
AcRTDxfName
1000
SCALE
1000
AcRTDxfName
1000
SCALE
  0
SCALE
  5
192
102
{ACAD_REACTORS
330
10C
102
}
330
10C
100
AcDbScale
 70
     0
300
1:100
140
1.0
141
100.0
290
     0
1001
ACAD
1000
AcRTDxfName
1000
SCALE
1000
AcRTDxfName
1000
SCALE
1000
AcRTDxfName
1000
SCALE
1000
AcRTDxfName
1000
SCALE
1000
AcRTDxfName
1000
SCALE
  0
SCALE
  5
193
102
{ACAD_REACTORS
330
10C
102
}
330
10C
100
AcDbScale
 70
     0
300
2:1
140
2.0
141
1.0
290
     0
1001
ACAD
1000
AcRTDxfName
1000
SCALE
1000
AcRTDxfName
1000
SCALE
1000
AcRTDxfName
1000
SCALE
1000
AcRTDxfName
1000
SCALE
1000
AcRTDxfName
1000
SCALE
  0
SCALE
  5
194
102
{ACAD_REACTORS
330
10C
102
}
330
10C
100
AcDbScale
 70
     0
300
4:1
140
4.0
141
1.0
290
     0
1001
ACAD
1000
AcRTDxfName
1000
SCALE
1000
AcRTDxfName
1000
SCALE
1000
AcRTDxfName
1000
SCALE
1000
AcRTDxfName
1000
SCALE
1000
AcRTDxfName
1000
SCALE
  0
SCALE
  5
195
102
{ACAD_REACTORS
330
10C
102
}
330
10C
100
AcDbScale
 70
     0
300
8:1
140
8.0
141
1.0
290
     0
1001
ACAD
1000
AcRTDxfName
1000
SCALE
1000
AcRTDxfName
1000
SCALE
1000
AcRTDxfName
1000
SCALE
1000
AcRTDxfName
1000
SCALE
1000
AcRTDxfName
1000
SCALE
  0
SCALE
  5
196
102
{ACAD_REACTORS
330
10C
102
}
330
10C
100
AcDbScale
 70
     0
300
10:1
140
10.0
141
1.0
290
     0
1001
ACAD
1000
AcRTDxfName
1000
SCALE
1000
AcRTDxfName
1000
SCALE
1000
AcRTDxfName
1000
SCALE
1000
AcRTDxfName
1000
SCALE
1000
AcRTDxfName
1000
SCALE
  0
SCALE
  5
197
102
{ACAD_REACTORS
330
10C
102
}
330
10C
100
AcDbScale
 70
     0
300
100:1
140
100.0
141
1.0
290
     0
1001
ACAD
1000
AcRTDxfName
1000
SCALE
1000
AcRTDxfName
1000
SCALE
1000
AcRTDxfName
1000
SCALE
1000
AcRTDxfName
1000
SCALE
1000
AcRTDxfName
1000
SCALE
  0
SCALE
  5
198
102
{ACAD_REACTORS
330
10C
102
}
330
10C
100
AcDbScale
 70
     0
300
1/128" = 1'-0"
140
0.0078125
141
12.0
290
     0
1001
ACAD
1000
AcRTDxfName
1000
SCALE
1000
AcRTDxfName
1000
SCALE
1000
AcRTDxfName
1000
SCALE
1000
AcRTDxfName
1000
SCALE
1000
AcRTDxfName
1000
SCALE
  0
SCALE
  5
199
102
{ACAD_REACTORS
330
10C
102
}
330
10C
100
AcDbScale
 70
     0
300
1/64" = 1'-0"
140
0.015625
141
12.0
290
     0
1001
ACAD
1000
AcRTDxfName
1000
SCALE
1000
AcRTDxfName
1000
SCALE
1000
AcRTDxfName
1000
SCALE
1000
AcRTDxfName
1000
SCALE
1000
AcRTDxfName
1000
SCALE
  0
SCALE
  5
19A
102
{ACAD_REACTORS
330
10C
102
}
330
10C
100
AcDbScale
 70
     0
300
1/32" = 1'-0"
140
0.03125
141
12.0
290
     0
1001
ACAD
1000
AcRTDxfName
1000
SCALE
1000
AcRTDxfName
1000
SCALE
1000
AcRTDxfName
1000
SCALE
1000
AcRTDxfName
1000
SCALE
1000
AcRTDxfName
1000
SCALE
  0
SCALE
  5
19B
102
{ACAD_REACTORS
330
10C
102
}
330
10C
100
AcDbScale
 70
     0
300
1/16" = 1'-0"
140
0.0625
141
12.0
290
     0
1001
ACAD
1000
AcRTDxfName
1000
SCALE
1000
AcRTDxfName
1000
SCALE
1000
AcRTDxfName
1000
SCALE
1000
AcRTDxfName
1000
SCALE
1000
AcRTDxfName
1000
SCALE
  0
SCALE
  5
19C
102
{ACAD_REACTORS
330
10C
102
}
330
10C
100
AcDbScale
 70
     0
300
3/32" = 1'-0"
140
0.09375
141
12.0
290
     0
1001
ACAD
1000
AcRTDxfName
1000
SCALE
1000
AcRTDxfName
1000
SCALE
1000
AcRTDxfName
1000
SCALE
1000
AcRTDxfName
1000
SCALE
1000
AcRTDxfName
1000
SCALE
  0
SCALE
  5
19D
102
{ACAD_REACTORS
330
10C
102
}
330
10C
100
AcDbScale
 70
     0
300
1/8" = 1'-0"
140
0.125
141
12.0
290
     0
1001
ACAD
1000
AcRTDxfName
1000
SCALE
1000
AcRTDxfName
1000
SCALE
1000
AcRTDxfName
1000
SCALE
1000
AcRTDxfName
1000
SCALE
1000
AcRTDxfName
1000
SCALE
  0
SCALE
  5
19E
102
{ACAD_REACTORS
330
10C
102
}
330
10C
100
AcDbScale
 70
     0
300
3/16" = 1'-0"
140
0.1875
141
12.0
290
     0
1001
ACAD
1000
AcRTDxfName
1000
SCALE
1000
AcRTDxfName
1000
SCALE
1000
AcRTDxfName
1000
SCALE
1000
AcRTDxfName
1000
SCALE
1000
AcRTDxfName
1000
SCALE
  0
SCALE
  5
19F
102
{ACAD_REACTORS
330
10C
102
}
330
10C
100
AcDbScale
 70
     0
300
1/4" = 1'-0"
140
0.25
141
12.0
290
     0
1001
ACAD
1000
AcRTDxfName
1000
SCALE
1000
AcRTDxfName
1000
SCALE
1000
AcRTDxfName
1000
SCALE
1000
AcRTDxfName
1000
SCALE
1000
AcRTDxfName
1000
SCALE
  0
SCALE
  5
1A0
102
{ACAD_REACTORS
330
10C
102
}
330
10C
100
AcDbScale
 70
     0
300
3/8" = 1'-0"
140
0.375
141
12.0
290
     0
1001
ACAD
1000
AcRTDxfName
1000
SCALE
1000
AcRTDxfName
1000
SCALE
1000
AcRTDxfName
1000
SCALE
1000
AcRTDxfName
1000
SCALE
1000
AcRTDxfName
1000
SCALE
  0
SCALE
  5
1A1
102
{ACAD_REACTORS
330
10C
102
}
330
10C
100
AcDbScale
 70
     0
300
1/2" = 1'-0"
140
0.5
141
12.0
290
     0
1001
ACAD
1000
AcRTDxfName
1000
SCALE
1000
AcRTDxfName
1000
SCALE
1000
AcRTDxfName
1000
SCALE
1000
AcRTDxfName
1000
SCALE
1000
AcRTDxfName
1000
SCALE
  0
SCALE
  5
1A2
102
{ACAD_REACTORS
330
10C
102
}
330
10C
100
AcDbScale
 70
     0
300
3/4" = 1'-0"
140
0.75
141
12.0
290
     0
1001
ACAD
1000
AcRTDxfName
1000
SCALE
1000
AcRTDxfName
1000
SCALE
1000
AcRTDxfName
1000
SCALE
1000
AcRTDxfName
1000
SCALE
1000
AcRTDxfName
1000
SCALE
  0
SCALE
  5
1A3
102
{ACAD_REACTORS
330
10C
102
}
330
10C
100
AcDbScale
 70
     0
300
1" = 1'-0"
140
1.0
141
12.0
290
     0
1001
ACAD
1000
AcRTDxfName
1000
SCALE
1000
AcRTDxfName
1000
SCALE
1000
AcRTDxfName
1000
SCALE
1000
AcRTDxfName
1000
SCALE
1000
AcRTDxfName
1000
SCALE
  0
SCALE
  5
1A4
102
{ACAD_REACTORS
330
10C
102
}
330
10C
100
AcDbScale
 70
     0
300
1-1/2" = 1'-0"
140
1.5
141
12.0
290
     0
1001
ACAD
1000
AcRTDxfName
1000
SCALE
1000
AcRTDxfName
1000
SCALE
1000
AcRTDxfName
1000
SCALE
1000
AcRTDxfName
1000
SCALE
1000
AcRTDxfName
1000
SCALE
  0
SCALE
  5
1A5
102
{ACAD_REACTORS
330
10C
102
}
330
10C
100
AcDbScale
 70
     0
300
3" = 1'-0"
140
3.0
141
12.0
290
     0
1001
ACAD
1000
AcRTDxfName
1000
SCALE
1000
AcRTDxfName
1000
SCALE
1000
AcRTDxfName
1000
SCALE
1000
AcRTDxfName
1000
SCALE
1000
AcRTDxfName
1000
SCALE
  0
SCALE
  5
1A6
102
{ACAD_REACTORS
330
10C
102
}
330
10C
100
AcDbScale
 70
     0
300
6" = 1'-0"
140
6.0
141
12.0
290
     0
1001
ACAD
1000
AcRTDxfName
1000
SCALE
1000
AcRTDxfName
1000
SCALE
1000
AcRTDxfName
1000
SCALE
1000
AcRTDxfName
1000
SCALE
1000
AcRTDxfName
1000
SCALE
  0
SCALE
  5
1A7
102
{ACAD_REACTORS
330
10C
102
}
330
10C
100
AcDbScale
 70
     0
300
1'-0" = 1'-0"
140
12.0
141
12.0
290
     0
1001
ACAD
1000
AcRTDxfName
1000
SCALE
1000
AcRTDxfName
1000
SCALE
1000
AcRTDxfName
1000
SCALE
1000
AcRTDxfName
1000
SCALE
1000
AcRTDxfName
1000
SCALE
  0
ACDBSECTIONVIEWSTYLE
  5
E41
102
{ACAD_XDICTIONARY
360
E56
102
}
102
{ACAD_REACTORS
330
E40
102
}
330
E40
100
AcDbModelDocViewStyle
 70
     0
  3
Metric50
290
     0
100
AcDbSectionViewStyle
 70
     0
 71
     0
 90
      102
 71
     1
340
11
 62
   256
 40
5.0
340
0
340
0
 62
   256
 40
5.0
300
I, O, Q, S, X, Z
 40
10.0
 90
        0
 40
2.5
 90
        0
 71
     2
340
16
 90
       25
 62
   256
340
16
 90
       50
 62
   256
 40
5.0
 40
2.5
 40
5.0
 71
     3
340
11
 62
   256
 40
5.0
 90
        0
 40
15.0
 90
        1
300
%<\AcVar ViewSectionStartId>%-%<\AcVar ViewSectionEndId>% (%<\AcVar ViewScale \f "%sn">%)
 71
     4
 62
   256
 62
   257
300
ANSI31
 40
1.0
 90
        0
290
     0
290
     0
 90
        6
 40
0.0
 40
1.570796326794896
 40
0.2617993877991494
 40
1.308996938995747
 40
-0.2617993877991494
 40
1.832595714594046
  0
TABLESTYLE
  5
7F
102
{ACAD_XDICTIONARY
360
162
102
}
102
{ACAD_REACTORS
330
7E
102
}
330
7E
100
AcDbTableStyle
280
     0
  3
Standard
 70
     0
 71
     0
 40
1.5
 41
1.5
280
     0
281
     0
  7
Standard
140
4.5
170
     2
 62
     0
 63
     7
283
     0
 90
      512
 91
        0
  1

274
    -2
284
     1
 64
     0
275
    -2
285
     1
 65
     0
276
    -2
286
     1
 66
     0
277
    -2
287
     1
 67
     0
278
    -2
288
     1
 68
     0
279
    -2
289
     1
 69
     0
  7
Standard
140
6.0
170
     5
 62
     0
 63
     7
283
     0
 90
      512
 91
        0
  1

274
    -2
284
     1
 64
     0
275
    -2
285
     1
 65
     0
276
    -2
286
     1
 66
     0
277
    -2
287
     1
 67
     0
278
    -2
288
     1
 68
     0
279
    -2
289
     1
 69
     0
  7
Standard
140
4.5
170
     5
 62
     0
 63
     7
283
     0
 90
      512
 91
        0
  1

274
    -2
284
     1
 64
     0
275
    -2
285
     1
 65
     0
276
    -2
286
     1
 66
     0
277
    -2
287
     1
 67
     0
278
    -2
288
     1
 68
     0
279
    -2
289
     1
 69
     0
  0
VISUALSTYLE
  5
F5
102
{ACAD_REACTORS
330
EF
102
}
330
EF
100
AcDbVisualStyle
  2
2dWireframe
 70
     4
177
     3
291
     0
 70
    58
 90
        0
176
     1
 90
        2
176
     1
 90
        1
176
     1
 90
        0
176
     1
 40
0.6
176
     1
 40
30.0
176
     1
 62
     7
176
     1
 90
        1
176
     1
 90
        4
176
     1
 62
     7
176
     1
 62
   257
176
     1
 90
        1
176
     1
 90
        1
176
     1
 40
1.0
176
     1
 90
        0
176
     1
 62
   257
176
     1
 40
1.0
176
     1
 90
        1
176
     1
 90
        6
176
     1
 90
        2
176
     1
 62
     7
176
     1
 90
        5
176
     1
 90
        0
176
     1
 90
        0
176
     1
290
     0
176
     1
 90
        1
176
     1
 40
0.0
176
     1
 90
        0
176
     1
290
     1
176
     1
290
     1
176
     1
290
     0
176
     1
290
     0
176
     1
290
     0
176
     1
290
     0
176
     1
290
     0
176
     1
290
     0
176
     1
290
     0
176
     1
 90
       50
176
     1
 40
0.0
176
     1
 40
1.0
176
     1
 90
        0
176
     1
 62
    18
420
        0
176
     1
 90
       50
176
     1
 90
        3
176
     1
 62
     5
420
      255
176
     1
290
     0
176
     1
 90
       50
176
     1
 90
       50
176
     1
 90
       50
176
     1
290
     0
176
     1
 90
       50
176
     1
 62
   256
176
     0
 40
1.0
176
     0
 90
        2
176
     1
  1
strokes_ogs.tif
176
     1
290
     0
176
     1
 40
1.0
176
     1
 40
1.0
176
     1
1001
ACAD
1000
AcRTDxfName
1000
VISUALSTYLE
1000
AcRTDxfName
1000
VISUALSTYLE
1000
AcRTDxfName
1000
VISUALSTYLE
1000
AcRTDxfName
1000
VISUALSTYLE
1000
AcRTDxfName
1000
VISUALSTYLE
  0
VISUALSTYLE
  5
F7
102
{ACAD_REACTORS
330
EF
102
}
330
EF
100
AcDbVisualStyle
  2
3D Hidden
 70
     6
177
     3
291
     0
 70
    58
 90
        1
176
     1
 90
        2
176
     1
 90
        2
176
     1
 90
        0
176
     1
 40
0.6
176
     1
 40
30.0
176
     1
 62
     7
176
     1
 90
        2
176
     1
 90
        2
176
     1
 62
     7
176
     1
 62
   257
176
     1
 90
        2
176
     1
 90
        1
176
     1
 40
40.0
176
     1
 90
        0
176
     1
 62
   257
176
     1
 40
1.0
176
     1
 90
        1
176
     1
 90
        6
176
     1
 90
        2
176
     1
 62
     7
176
     1
 90
        3
176
     1
 90
        0
176
     1
 90
        0
176
     1
290
     0
176
     1
 90
        1
176
     1
 40
0.0
176
     1
 90
        0
176
     1
290
     0
176
     1
290
     1
176
     1
290
     1
176
     1
290
     0
176
     1
290
     0
176
     1
290
     0
176
     1
290
     0
176
     1
290
     0
176
     1
290
     0
176
     1
 90
       50
176
     1
 40
0.0
176
     1
 40
1.0
176
     1
 90
        0
176
     1
 62
    18
420
        0
176
     1
 90
       50
176
     1
 90
        3
176
     1
 62
     5
420
      255
176
     1
290
     0
176
     1
 90
       50
176
     1
 90
       50
176
     1
 90
       50
176
     1
290
     0
176
     1
 90
       50
176
     1
 62
   256
176
     0
 40
1.0
176
     0
 90
        2
176
     1
  1
strokes_ogs.tif
176
     1
290
     0
176
     1
 40
1.0
176
     1
 40
1.0
176
     1
1001
ACAD
1000
AcRTDxfName
1000
VISUALSTYLE
1000
AcRTDxfName
1000
VISUALSTYLE
1000
AcRTDxfName
1000
VISUALSTYLE
1000
AcRTDxfName
1000
VISUALSTYLE
1000
AcRTDxfName
1000
VISUALSTYLE
  0
VISUALSTYLE
  5
F6
102
{ACAD_REACTORS
330
EF
102
}
330
EF
100
AcDbVisualStyle
  2
3dWireframe
 70
     5
177
     3
291
     0
 70
    58
 90
        0
176
     1
 90
        2
176
     1
 90
        1
176
     1
 90
        0
176
     1
 40
0.6
176
     1
 40
30.0
176
     1
 62
     7
176
     1
 90
        1
176
     1
 90
        4
176
     1
 62
     7
176
     1
 62
   257
176
     1
 90
        1
176
     1
 90
        1
176
     1
 40
1.0
176
     1
 90
        0
176
     1
 62
   257
176
     1
 40
1.0
176
     1
 90
        1
176
     1
 90
        6
176
     1
 90
        2
176
     1
 62
     7
176
     1
 90
        5
176
     1
 90
        0
176
     1
 90
        0
176
     1
290
     0
176
     1
 90
        1
176
     1
 40
0.0
176
     1
 90
        0
176
     1
290
     0
176
     1
290
     1
176
     1
290
     1
176
     1
290
     0
176
     1
290
     0
176
     1
290
     0
176
     1
290
     0
176
     1
290
     0
176
     1
290
     0
176
     1
 90
       50
176
     1
 40
0.0
176
     1
 40
1.0
176
     1
 90
        0
176
     1
 62
    18
420
        0
176
     1
 90
       50
176
     1
 90
        3
176
     1
 62
     5
420
      255
176
     1
290
     0
176
     1
 90
       50
176
     1
 90
       50
176
     1
 90
       50
176
     1
290
     0
176
     1
 90
       50
176
     1
 62
   256
176
     0
 40
1.0
176
     0
 90
        2
176
     1
  1
strokes_ogs.tif
176
     1
290
     0
176
     1
 40
1.0
176
     1
 40
1.0
176
     1
1001
ACAD
1000
AcRTDxfName
1000
VISUALSTYLE
1000
AcRTDxfName
1000
VISUALSTYLE
1000
AcRTDxfName
1000
VISUALSTYLE
1000
AcRTDxfName
1000
VISUALSTYLE
1000
AcRTDxfName
1000
VISUALSTYLE
  0
VISUALSTYLE
  5
F4
102
{ACAD_REACTORS
330
EF
102
}
330
EF
100
AcDbVisualStyle
  2
Basic
 70
     7
177
     3
291
     1
 70
    58
 90
        1
176
     1
 90
        0
176
     1
 90
        1
176
     1
 90
        0
176
     1
 40
0.6
176
     1
 40
30.0
176
     1
 62
     7
176
     1
 90
        0
176
     1
 90
        4
176
     1
 62
     7
176
     1
 62
   257
176
     1
 90
        1
176
     1
 90
        1
176
     1
 40
1.0
176
     1
 90
        8
176
     1
 62
     7
176
     1
 40
1.0
176
     1
 90
        1
176
     1
 90
        6
176
     1
 90
        2
176
     1
 62
     7
176
     1
 90
        5
176
     1
 90
        0
176
     1
 90
        0
176
     1
290
     0
176
     1
 90
        1
176
     1
 40
0.0
176
     1
 90
        0
176
     1
290
     0
176
     1
290
     1
176
     1
290
     1
176
     1
290
     0
176
     1
290
     0
176
     1
290
     0
176
     1
290
     0
176
     1
290
     0
176
     1
290
     0
176
     1
 90
       50
176
     1
 40
0.0
176
     1
 40
1.0
176
     1
 90
        0
176
     1
 62
    18
420
        0
176
     1
 90
       50
176
     1
 90
        3
176
     1
 62
     5
420
      255
176
     1
290
     0
176
     1
 90
       50
176
     1
 90
       50
176
     1
 90
       50
176
     1
290
     0
176
     1
 90
       50
176
     1
 62
   256
176
     0
 40
1.0
176
     0
 90
        2
176
     1
  1
strokes_ogs.tif
176
     1
290
     0
176
     1
 40
1.0
176
     1
 40
1.0
176
     1
1001
ACAD
1000
AcRTDxfName
1000
VISUALSTYLE
1000
AcRTDxfName
1000
VISUALSTYLE
1000
AcRTDxfName
1000
VISUALSTYLE
1000
AcRTDxfName
1000
VISUALSTYLE
1000
AcRTDxfName
1000
VISUALSTYLE
  0
VISUALSTYLE
  5
FB
102
{ACAD_REACTORS
330
EF
102
}
330
EF
100
AcDbVisualStyle
  2
Brighten
 70
    12
177
     3
291
     1
 70
    58
 90
        2
176
     1
 90
        2
176
     1
 90
        1
176
     1
 90
        0
176
     1
 40
0.6
176
     1
 40
30.0
176
     1
 62
     7
176
     1
 90
        1
176
     1
 90
        4
176
     1
 62
     7
176
     1
 62
   257
176
     1
 90
        1
176
     1
 90
        1
176
     1
 40
1.0
176
     1
 90
        8
176
     1
 62
     7
176
     1
 40
1.0
176
     1
 90
        1
176
     1
 90
        6
176
     1
 90
        2
176
     1
 62
     7
176
     1
 90
        5
176
     1
 90
        0
176
     1
 90
        0
176
     1
290
     0
176
     1
 90
        1
176
     1
 40
50.0
176
     1
 90
        0
176
     1
290
     0
176
     1
290
     1
176
     1
290
     1
176
     1
290
     0
176
     1
290
     0
176
     1
290
     0
176
     1
290
     0
176
     1
290
     0
176
     1
290
     0
176
     1
 90
       50
176
     1
 40
0.0
176
     1
 40
1.0
176
     1
 90
        0
176
     1
 62
    18
420
        0
176
     1
 90
       50
176
     1
 90
        3
176
     1
 62
     5
420
      255
176
     1
290
     0
176
     1
 90
       50
176
     1
 90
       50
176
     1
 90
       50
176
     1
290
     0
176
     1
 90
       50
176
     1
 62
   256
176
     0
 40
1.0
176
     0
 90
        2
176
     1
  1
strokes_ogs.tif
176
     1
290
     0
176
     1
 40
1.0
176
     1
 40
1.0
176
     1
1001
ACAD
1000
AcRTDxfName
1000
VISUALSTYLE
1000
AcRTDxfName
1000
VISUALSTYLE
1000
AcRTDxfName
1000
VISUALSTYLE
1000
AcRTDxfName
1000
VISUALSTYLE
1000
AcRTDxfName
1000
VISUALSTYLE
  0
VISUALSTYLE
  5
FF
102
{ACAD_REACTORS
330
EF
102
}
330
EF
100
AcDbVisualStyle
  2
ColorChange
 70
    16
177
     3
291
     1
 70
    58
 90
        2
176
     1
 90
        2
176
     1
 90
        3
176
     1
 90
        0
176
     1
 40
0.6
176
     1
 40
30.0
176
     1
 62
     8
176
     1
 90
        1
176
     1
 90
        4
176
     1
 62
     7
176
     1
 62
   257
176
     1
 90
        1
176
     1
 90
        1
176
     1
 40
1.0
176
     1
 90
        8
176
     1
 62
     8
176
     1
 40
1.0
176
     1
 90
        1
176
     1
 90
        6
176
     1
 90
        2
176
     1
 62
     7
176
     1
 90
        5
176
     1
 90
        0
176
     1
 90
        0
176
     1
290
     0
176
     1
 90
        1
176
     1
 40
0.0
176
     1
 90
        0
176
     1
290
     0
176
     1
290
     1
176
     1
290
     1
176
     1
290
     0
176
     1
290
     0
176
     1
290
     0
176
     1
290
     0
176
     1
290
     0
176
     1
290
     0
176
     1
 90
       50
176
     1
 40
0.0
176
     1
 40
1.0
176
     1
 90
        0
176
     1
 62
    18
420
        0
176
     1
 90
       50
176
     1
 90
        3
176
     1
 62
     5
420
      255
176
     1
290
     0
176
     1
 90
       50
176
     1
 90
       50
176
     1
 90
       50
176
     1
290
     0
176
     1
 90
       50
176
     1
 62
   256
176
     0
 40
1.0
176
     0
 90
        2
176
     1
  1
strokes_ogs.tif
176
     1
290
     0
176
     1
 40
1.0
176
     1
 40
1.0
176
     1
1001
ACAD
1000
AcRTDxfName
1000
VISUALSTYLE
1000
AcRTDxfName
1000
VISUALSTYLE
1000
AcRTDxfName
1000
VISUALSTYLE
1000
AcRTDxfName
1000
VISUALSTYLE
1000
AcRTDxfName
1000
VISUALSTYLE
  0
VISUALSTYLE
  5
F8
102
{ACAD_REACTORS
330
EF
102
}
330
EF
100
AcDbVisualStyle
  2
Conceptual
 70
     9
177
     3
291
     0
 70
    58
 90
        3
176
     1
 90
        2
176
     1
 90
        1
176
     1
 90
        0
176
     1
 40
0.6
176
     1
 40
30.0
176
     1
 62
     7
176
     1
 90
        2
176
     1
 90
        2
176
     1
 62
     7
176
     1
 62
   257
176
     1
 90
        1
176
     1
 90
        1
176
     1
 40
40.0
176
     1
 90
        8
176
     1
 62
     7
176
     1
 40
1.0
176
     1
 90
        1
176
     1
 90
        6
176
     1
 90
        2
176
     1
 62
     7
176
     1
 90
        3
176
     1
 90
        0
176
     1
 90
        0
176
     1
290
     0
176
     1
 90
        1
176
     1
 40
0.0
176
     1
 90
        0
176
     1
290
     0
176
     1
290
     1
176
     1
290
     1
176
     1
290
     0
176
     1
290
     0
176
     1
290
     0
176
     1
290
     0
176
     1
290
     0
176
     1
290
     0
176
     1
 90
       50
176
     1
 40
0.0
176
     1
 40
1.0
176
     1
 90
        0
176
     1
 62
    18
420
        0
176
     1
 90
       50
176
     1
 90
        3
176
     1
 62
     5
420
      255
176
     1
290
     0
176
     1
 90
       50
176
     1
 90
       50
176
     1
 90
       50
176
     1
290
     0
176
     1
 90
       50
176
     1
 62
   256
176
     0
 40
1.0
176
     0
 90
        2
176
     1
  1
strokes_ogs.tif
176
     1
290
     0
176
     1
 40
1.0
176
     1
 40
1.0
176
     1
1001
ACAD
1000
AcRTDxfName
1000
VISUALSTYLE
1000
AcRTDxfName
1000
VISUALSTYLE
1000
AcRTDxfName
1000
VISUALSTYLE
1000
AcRTDxfName
1000
VISUALSTYLE
1000
AcRTDxfName
1000
VISUALSTYLE
  0
VISUALSTYLE
  5
FA
102
{ACAD_REACTORS
330
EF
102
}
330
EF
100
AcDbVisualStyle
  2
Dim
 70
    11
177
     3
291
     1
 70
    58
 90
        2
176
     1
 90
        2
176
     1
 90
        1
176
     1
 90
        0
176
     1
 40
0.6
176
     1
 40
30.0
176
     1
 62
     7
176
     1
 90
        1
176
     1
 90
        4
176
     1
 62
     7
176
     1
 62
   257
176
     1
 90
        1
176
     1
 90
        1
176
     1
 40
1.0
176
     1
 90
        8
176
     1
 62
     7
176
     1
 40
1.0
176
     1
 90
        1
176
     1
 90
        6
176
     1
 90
        2
176
     1
 62
     7
176
     1
 90
        5
176
     1
 90
        0
176
     1
 90
        0
176
     1
290
     0
176
     1
 90
        1
176
     1
 40
-50.0
176
     1
 90
        0
176
     1
290
     0
176
     1
290
     1
176
     1
290
     1
176
     1
290
     0
176
     1
290
     0
176
     1
290
     0
176
     1
290
     0
176
     1
290
     0
176
     1
290
     0
176
     1
 90
       50
176
     1
 40
0.0
176
     1
 40
1.0
176
     1
 90
        0
176
     1
 62
    18
420
        0
176
     1
 90
       50
176
     1
 90
        3
176
     1
 62
     5
420
      255
176
     1
290
     0
176
     1
 90
       50
176
     1
 90
       50
176
     1
 90
       50
176
     1
290
     0
176
     1
 90
       50
176
     1
 62
   256
176
     0
 40
1.0
176
     0
 90
        2
176
     1
  1
strokes_ogs.tif
176
     1
290
     0
176
     1
 40
1.0
176
     1
 40
1.0
176
     1
1001
ACAD
1000
AcRTDxfName
1000
VISUALSTYLE
1000
AcRTDxfName
1000
VISUALSTYLE
1000
AcRTDxfName
1000
VISUALSTYLE
1000
AcRTDxfName
1000
VISUALSTYLE
1000
AcRTDxfName
1000
VISUALSTYLE
  0
VISUALSTYLE
  5
91E
102
{ACAD_REACTORS
330
EF
102
}
330
EF
100
AcDbVisualStyle
  2
EdgeColorOff
 70
    22
177
     3
291
     1
 70
    58
 90
        2
176
     0
 90
        2
176
     0
 90
        0
176
     0
 90
        0
176
     0
 40
0.6
176
     0
 40
30.0
176
     0
 62
     7
420
 16777215
176
     0
 90
        1
176
     0
 90
        4
176
     0
 62
     7
176
     0
 62
   257
176
     0
 90
        1
176
     0
 90
        1
176
     0
 40
1.0
176
     0
 90
        8
176
     2
 62
     7
176
     0
 40
1.0
176
     0
 90
        1
176
     0
 90
        6
176
     0
 90
        2
176
     0
 62
     7
176
     0
 90
        5
176
     0
 90
        0
176
     0
 90
        0
176
     0
290
     0
176
     0
 90
        1
176
     0
 40
0.0
176
     0
 90
        0
176
     0
290
     0
176
     1
290
     1
176
     1
290
     1
176
     1
290
     0
176
     1
290
     0
176
     1
290
     0
176
     1
290
     0
176
     1
290
     0
176
     1
290
     0
176
     1
 90
       50
176
     1
 40
0.0
176
     1
 40
1.0
176
     1
 90
        0
176
     1
 62
    18
420
        0
176
     1
 90
       50
176
     1
 90
        3
176
     1
 62
     5
420
      255
176
     1
290
     0
176
     1
 90
       50
176
     1
 90
       50
176
     1
 90
       50
176
     1
290
     0
176
     1
 90
       50
176
     1
 62
   256
176
     0
 40
1.0
176
     0
 90
        2
176
     1
  1
strokes_ogs.tif
176
     1
290
     0
176
     1
 40
1.0
176
     1
 40
1.0
176
     1
  0
VISUALSTYLE
  5
FE
102
{ACAD_REACTORS
330
EF
102
}
330
EF
100
AcDbVisualStyle
  2
Facepattern
 70
    15
177
     3
291
     1
 70
    58
 90
        2
176
     1
 90
        2
176
     1
 90
        1
176
     1
 90
        0
176
     1
 40
0.6
176
     1
 40
30.0
176
     1
 62
     7
176
     1
 90
        1
176
     1
 90
        4
176
     1
 62
     7
176
     1
 62
   257
176
     1
 90
        1
176
     1
 90
        1
176
     1
 40
1.0
176
     1
 90
        8
176
     1
 62
     7
176
     1
 40
1.0
176
     1
 90
        1
176
     1
 90
        6
176
     1
 90
        2
176
     1
 62
     7
176
     1
 90
        5
176
     1
 90
        0
176
     1
 90
        0
176
     1
290
     0
176
     1
 90
        1
176
     1
 40
0.0
176
     1
 90
        0
176
     1
290
     0
176
     1
290
     1
176
     1
290
     1
176
     1
290
     0
176
     1
290
     0
176
     1
290
     0
176
     1
290
     0
176
     1
290
     0
176
     1
290
     0
176
     1
 90
       50
176
     1
 40
0.0
176
     1
 40
1.0
176
     1
 90
        0
176
     1
 62
    18
420
        0
176
     1
 90
       50
176
     1
 90
        3
176
     1
 62
     5
420
      255
176
     1
290
     0
176
     1
 90
       50
176
     1
 90
       50
176
     1
 90
       50
176
     1
290
     0
176
     1
 90
       50
176
     1
 62
   256
176
     0
 40
1.0
176
     0
 90
        2
176
     1
  1
strokes_ogs.tif
176
     1
290
     0
176
     1
 40
1.0
176
     1
 40
1.0
176
     1
1001
ACAD
1000
AcRTDxfName
1000
VISUALSTYLE
1000
AcRTDxfName
1000
VISUALSTYLE
1000
AcRTDxfName
1000
VISUALSTYLE
1000
AcRTDxfName
1000
VISUALSTYLE
1000
AcRTDxfName
1000
VISUALSTYLE
  0
VISUALSTYLE
  5
F0
102
{ACAD_REACTORS
330
EF
102
}
330
EF
100
AcDbVisualStyle
  2
Flat
 70
     0
177
     3
291
     1
 70
    58
 90
        2
176
     1
 90
        1
176
     1
 90
        1
176
     1
 90
        2
176
     1
 40
0.6
176
     1
 40
30.0
176
     1
 62
     7
176
     1
 90
        0
176
     1
 90
        4
176
     1
 62
     7
176
     1
 62
   257
176
     1
 90
        1
176
     1
 90
        1
176
     1
 40
1.0
176
     1
 90
        8
176
     1
 62
     7
176
     1
 40
1.0
176
     1
 90
        1
176
     1
 90
        6
176
     1
 90
        2
176
     1
 62
     7
176
     1
 90
        5
176
     1
 90
        0
176
     1
 90
        0
176
     1
290
     0
176
     1
 90
        1
176
     1
 40
0.0
176
     1
 90
        0
176
     1
290
     0
176
     1
290
     1
176
     1
290
     1
176
     1
290
     0
176
     1
290
     0
176
     1
290
     0
176
     1
290
     0
176
     1
290
     0
176
     1
290
     0
176
     1
 90
       50
176
     1
 40
0.0
176
     1
 40
1.0
176
     1
 90
        0
176
     1
 62
    18
420
        0
176
     1
 90
       50
176
     1
 90
        3
176
     1
 62
     5
420
      255
176
     1
290
     0
176
     1
 90
       50
176
     1
 90
       50
176
     1
 90
       50
176
     1
290
     0
176
     1
 90
       50
176
     1
 62
   256
176
     0
 40
1.0
176
     0
 90
        2
176
     1
  1
strokes_ogs.tif
176
     1
290
     0
176
     1
 40
1.0
176
     1
 40
1.0
176
     1
1001
ACAD
1000
AcRTDxfName
1000
VISUALSTYLE
1000
AcRTDxfName
1000
VISUALSTYLE
1000
AcRTDxfName
1000
VISUALSTYLE
1000
AcRTDxfName
1000
VISUALSTYLE
1000
AcRTDxfName
1000
VISUALSTYLE
  0
VISUALSTYLE
  5
F1
102
{ACAD_REACTORS
330
EF
102
}
330
EF
100
AcDbVisualStyle
  2
FlatWithEdges
 70
     1
177
     3
291
     1
 70
    58
 90
        2
176
     1
 90
        1
176
     1
 90
        1
176
     1
 90
        2
176
     1
 40
0.6
176
     1
 40
30.0
176
     1
 62
     7
176
     1
 90
        1
176
     1
 90
        4
176
     1
 62
     7
176
     1
 62
   257
176
     1
 90
        1
176
     1
 90
        1
176
     1
 40
1.0
176
     1
 90
        0
176
     1
 62
   257
176
     1
 40
1.0
176
     1
 90
        1
176
     1
 90
        6
176
     1
 90
        2
176
     1
 62
     7
176
     1
 90
        5
176
     1
 90
        0
176
     1
 90
        0
176
     1
290
     0
176
     1
 90
        1
176
     1
 40
0.0
176
     1
 90
        0
176
     1
290
     0
176
     1
290
     1
176
     1
290
     1
176
     1
290
     0
176
     1
290
     0
176
     1
290
     0
176
     1
290
     0
176
     1
290
     0
176
     1
290
     0
176
     1
 90
       50
176
     1
 40
0.0
176
     1
 40
1.0
176
     1
 90
        0
176
     1
 62
    18
420
        0
176
     1
 90
       50
176
     1
 90
        3
176
     1
 62
     5
420
      255
176
     1
290
     0
176
     1
 90
       50
176
     1
 90
       50
176
     1
 90
       50
176
     1
290
     0
176
     1
 90
       50
176
     1
 62
   256
176
     0
 40
1.0
176
     0
 90
        2
176
     1
  1
strokes_ogs.tif
176
     1
290
     0
176
     1
 40
1.0
176
     1
 40
1.0
176
     1
1001
ACAD
1000
AcRTDxfName
1000
VISUALSTYLE
1000
AcRTDxfName
1000
VISUALSTYLE
1000
AcRTDxfName
1000
VISUALSTYLE
1000
AcRTDxfName
1000
VISUALSTYLE
1000
AcRTDxfName
1000
VISUALSTYLE
  0
VISUALSTYLE
  5
F2
102
{ACAD_REACTORS
330
EF
102
}
330
EF
100
AcDbVisualStyle
  2
Gouraud
 70
     2
177
     3
291
     1
 70
    58
 90
        2
176
     1
 90
        2
176
     1
 90
        1
176
     1
 90
        2
176
     1
 40
0.6
176
     1
 40
30.0
176
     1
 62
     7
176
     1
 90
        0
176
     1
 90
        4
176
     1
 62
     7
176
     1
 62
   257
176
     1
 90
        1
176
     1
 90
        1
176
     1
 40
1.0
176
     1
 90
        0
176
     1
 62
     7
176
     1
 40
1.0
176
     1
 90
        1
176
     1
 90
        6
176
     1
 90
        2
176
     1
 62
     7
176
     1
 90
        5
176
     1
 90
        0
176
     1
 90
        0
176
     1
290
     0
176
     1
 90
        1
176
     1
 40
0.0
176
     1
 90
        0
176
     1
290
     0
176
     1
290
     1
176
     1
290
     1
176
     1
290
     0
176
     1
290
     0
176
     1
290
     0
176
     1
290
     0
176
     1
290
     0
176
     1
290
     0
176
     1
 90
       50
176
     1
 40
0.0
176
     1
 40
1.0
176
     1
 90
        0
176
     1
 62
    18
420
        0
176
     1
 90
       50
176
     1
 90
        3
176
     1
 62
     5
420
      255
176
     1
290
     0
176
     1
 90
       50
176
     1
 90
       50
176
     1
 90
       50
176
     1
290
     0
176
     1
 90
       50
176
     1
 62
   256
176
     0
 40
1.0
176
     0
 90
        2
176
     1
  1
strokes_ogs.tif
176
     1
290
     0
176
     1
 40
1.0
176
     1
 40
1.0
176
     1
1001
ACAD
1000
AcRTDxfName
1000
VISUALSTYLE
1000
AcRTDxfName
1000
VISUALSTYLE
1000
AcRTDxfName
1000
VISUALSTYLE
1000
AcRTDxfName
1000
VISUALSTYLE
1000
AcRTDxfName
1000
VISUALSTYLE
  0
VISUALSTYLE
  5
F3
102
{ACAD_REACTORS
330
EF
102
}
330
EF
100
AcDbVisualStyle
  2
GouraudWithEdges
 70
     3
177
     3
291
     1
 70
    58
 90
        2
176
     1
 90
        2
176
     1
 90
        1
176
     1
 90
        2
176
     1
 40
0.6
176
     1
 40
30.0
176
     1
 62
     7
176
     1
 90
        1
176
     1
 90
        4
176
     1
 62
     7
176
     1
 62
   257
176
     1
 90
        1
176
     1
 90
        1
176
     1
 40
1.0
176
     1
 90
        0
176
     1
 62
   257
176
     1
 40
1.0
176
     1
 90
        1
176
     1
 90
        6
176
     1
 90
        2
176
     1
 62
     7
176
     1
 90
        5
176
     1
 90
        0
176
     1
 90
        0
176
     1
290
     0
176
     1
 90
        1
176
     1
 40
0.0
176
     1
 90
        0
176
     1
290
     0
176
     1
290
     1
176
     1
290
     1
176
     1
290
     0
176
     1
290
     0
176
     1
290
     0
176
     1
290
     0
176
     1
290
     0
176
     1
290
     0
176
     1
 90
       50
176
     1
 40
0.0
176
     1
 40
1.0
176
     1
 90
        0
176
     1
 62
    18
420
        0
176
     1
 90
       50
176
     1
 90
        3
176
     1
 62
     5
420
      255
176
     1
290
     0
176
     1
 90
       50
176
     1
 90
       50
176
     1
 90
       50
176
     1
290
     0
176
     1
 90
       50
176
     1
 62
   256
176
     0
 40
1.0
176
     0
 90
        2
176
     1
  1
strokes_ogs.tif
176
     1
290
     0
176
     1
 40
1.0
176
     1
 40
1.0
176
     1
1001
ACAD
1000
AcRTDxfName
1000
VISUALSTYLE
1000
AcRTDxfName
1000
VISUALSTYLE
1000
AcRTDxfName
1000
VISUALSTYLE
1000
AcRTDxfName
1000
VISUALSTYLE
1000
AcRTDxfName
1000
VISUALSTYLE
  0
VISUALSTYLE
  5
916
102
{ACAD_REACTORS
330
EF
102
}
330
EF
100
AcDbVisualStyle
  2
Hidden
 70
     6
177
     3
291
     0
 70
    58
 90
        1
176
     1
 90
        2
176
     1
 90
        2
176
     1
 90
        0
176
     1
 40
0.6
176
     1
 40
30.0
176
     1
 62
     7
420
 16777215
176
     1
 90
        2
176
     1
 90
        2
176
     1
 62
     7
176
     1
 62
   257
176
     1
 90
        2
176
     1
 90
        1
176
     1
 40
40.0
176
     1
 90
        0
176
     1
 62
   257
176
     1
 40
1.0
176
     1
 90
        1
176
     1
 90
        6
176
     1
 90
        2
176
     1
 62
     7
176
     1
 90
        3
176
     1
 90
        0
176
     1
 90
        0
176
     1
290
     0
176
     1
 90
        1
176
     1
 40
0.0
176
     1
 90
        0
176
     1
290
     0
176
     1
290
     1
176
     1
290
     1
176
     1
290
     0
176
     1
290
     0
176
     1
290
     0
176
     1
290
     0
176
     1
290
     0
176
     1
290
     0
176
     1
 90
       50
176
     1
 40
0.0
176
     1
 40
1.0
176
     1
 90
        0
176
     1
 62
    18
420
        0
176
     1
 90
       50
176
     1
 90
        3
176
     1
 62
     5
420
      255
176
     1
290
     0
176
     1
 90
       50
176
     1
 90
       50
176
     1
 90
       50
176
     1
290
     0
176
     1
 90
       50
176
     1
 62
   256
176
     0
 40
1.0
176
     0
 90
        2
176
     1
  1
strokes_ogs.tif
176
     1
290
     0
176
     1
 40
1.0
176
     1
 40
1.0
176
     1
  0
VISUALSTYLE
  5
91C
102
{ACAD_REACTORS
330
EF
102
}
330
EF
100
AcDbVisualStyle
  2
JitterOff
 70
    20
177
     3
291
     1
 70
    58
 90
        2
176
     0
 90
        2
176
     0
 90
        0
176
     0
 90
        0
176
     0
 40
0.6
176
     0
 40
30.0
176
     0
 62
     7
420
 16777215
176
     0
 90
        1
176
     0
 90
        4
176
     0
 62
     7
176
     0
 62
   257
176
     0
 90
        1
176
     0
 90
        1
176
     0
 40
1.0
176
     0
 90
       10
176
     2
 62
     7
176
     0
 40
1.0
176
     0
 90
        1
176
     0
 90
        6
176
     0
 90
        2
176
     0
 62
     7
176
     0
 90
        5
176
     0
 90
        0
176
     0
 90
        0
176
     0
290
     0
176
     0
 90
        1
176
     0
 40
0.0
176
     0
 90
        0
176
     0
290
     0
176
     1
290
     1
176
     1
290
     1
176
     1
290
     0
176
     1
290
     0
176
     1
290
     0
176
     1
290
     0
176
     1
290
     0
176
     1
290
     0
176
     1
 90
       50
176
     1
 40
0.0
176
     1
 40
1.0
176
     1
 90
        0
176
     1
 62
    18
420
        0
176
     1
 90
       50
176
     1
 90
        3
176
     1
 62
     5
420
      255
176
     1
290
     0
176
     1
 90
       50
176
     1
 90
       50
176
     1
 90
       50
176
     1
290
     0
176
     1
 90
       50
176
     1
 62
   256
176
     0
 40
1.0
176
     0
 90
        2
176
     1
  1
strokes_ogs.tif
176
     1
290
     0
176
     1
 40
1.0
176
     1
 40
1.0
176
     1
  0
VISUALSTYLE
  5
FD
102
{ACAD_REACTORS
330
EF
102
}
330
EF
100
AcDbVisualStyle
  2
Linepattern
 70
    14
177
     3
291
     1
 70
    58
 90
        2
176
     1
 90
        2
176
     1
 90
        1
176
     1
 90
        0
176
     1
 40
0.6
176
     1
 40
30.0
176
     1
 62
     7
176
     1
 90
        1
176
     1
 90
        4
176
     1
 62
     7
176
     1
 62
   257
176
     1
 90
        7
176
     1
 90
        7
176
     1
 40
1.0
176
     1
 90
        8
176
     1
 62
     7
176
     1
 40
1.0
176
     1
 90
        1
176
     1
 90
        6
176
     1
 90
        2
176
     1
 62
     7
176
     1
 90
        5
176
     1
 90
        0
176
     1
 90
        0
176
     1
290
     0
176
     1
 90
        1
176
     1
 40
0.0
176
     1
 90
        0
176
     1
290
     0
176
     1
290
     1
176
     1
290
     1
176
     1
290
     0
176
     1
290
     0
176
     1
290
     0
176
     1
290
     0
176
     1
290
     0
176
     1
290
     0
176
     1
 90
       50
176
     1
 40
0.0
176
     1
 40
1.0
176
     1
 90
        0
176
     1
 62
    18
420
        0
176
     1
 90
       50
176
     1
 90
        3
176
     1
 62
     5
420
      255
176
     1
290
     0
176
     1
 90
       50
176
     1
 90
       50
176
     1
 90
       50
176
     1
290
     0
176
     1
 90
       50
176
     1
 62
   256
176
     0
 40
1.0
176
     0
 90
        2
176
     1
  1
strokes_ogs.tif
176
     1
290
     0
176
     1
 40
1.0
176
     1
 40
1.0
176
     1
1001
ACAD
1000
AcRTDxfName
1000
VISUALSTYLE
1000
AcRTDxfName
1000
VISUALSTYLE
1000
AcRTDxfName
1000
VISUALSTYLE
1000
AcRTDxfName
1000
VISUALSTYLE
1000
AcRTDxfName
1000
VISUALSTYLE
  0
VISUALSTYLE
  5
91D
102
{ACAD_REACTORS
330
EF
102
}
330
EF
100
AcDbVisualStyle
  2
OverhangOff
 70
    21
177
     3
291
     1
 70
    58
 90
        2
176
     0
 90
        2
176
     0
 90
        0
176
     0
 90
        0
176
     0
 40
0.6
176
     0
 40
30.0
176
     0
 62
     7
420
 16777215
176
     0
 90
        1
176
     0
 90
        4
176
     0
 62
     7
176
     0
 62
   257
176
     0
 90
        1
176
     0
 90
        1
176
     0
 40
1.0
176
     0
 90
        9
176
     2
 62
     7
176
     0
 40
1.0
176
     0
 90
        1
176
     0
 90
        6
176
     0
 90
        2
176
     0
 62
     7
176
     0
 90
        5
176
     0
 90
        0
176
     0
 90
        0
176
     0
290
     0
176
     0
 90
        1
176
     0
 40
0.0
176
     0
 90
        0
176
     0
290
     0
176
     1
290
     1
176
     1
290
     1
176
     1
290
     0
176
     1
290
     0
176
     1
290
     0
176
     1
290
     0
176
     1
290
     0
176
     1
290
     0
176
     1
 90
       50
176
     1
 40
0.0
176
     1
 40
1.0
176
     1
 90
        0
176
     1
 62
    18
420
        0
176
     1
 90
       50
176
     1
 90
        3
176
     1
 62
     5
420
      255
176
     1
290
     0
176
     1
 90
       50
176
     1
 90
       50
176
     1
 90
       50
176
     1
290
     0
176
     1
 90
       50
176
     1
 62
   256
176
     0
 40
1.0
176
     0
 90
        2
176
     1
  1
strokes_ogs.tif
176
     1
290
     0
176
     1
 40
1.0
176
     1
 40
1.0
176
     1
  0
VISUALSTYLE
  5
F9
102
{ACAD_REACTORS
330
EF
102
}
330
EF
100
AcDbVisualStyle
  2
Realistic
 70
     8
177
     3
291
     0
 70
    58
 90
        2
176
     1
 90
        2
176
     1
 90
        1
176
     1
 90
        0
176
     1
 40
0.6
176
     1
 40
30.0
176
     1
 62
     7
176
     1
 90
        1
176
     1
 90
        0
176
     1
 62
     7
176
     1
 62
   257
176
     1
 90
        1
176
     1
 90
        1
176
     1
 40
1.0
176
     1
 90
        8
176
     1
 62
     8
176
     1
 40
1.0
176
     1
 90
        1
176
     1
 90
        6
176
     1
 90
        2
176
     1
 62
     7
176
     1
 90
        5
176
     1
 90
        0
176
     1
 90
        0
176
     1
290
     0
176
     1
 90
       13
176
     1
 40
0.0
176
     1
 90
        0
176
     1
290
     0
176
     1
290
     1
176
     1
290
     1
176
     1
290
     0
176
     1
290
     0
176
     1
290
     0
176
     1
290
     0
176
     1
290
     0
176
     1
290
     0
176
     1
 90
       50
176
     1
 40
0.0
176
     1
 40
1.0
176
     1
 90
        0
176
     1
 62
    18
420
        0
176
     1
 90
       50
176
     1
 90
        3
176
     1
 62
     5
420
      255
176
     1
290
     0
176
     1
 90
       50
176
     1
 90
       50
176
     1
 90
       50
176
     1
290
     0
176
     1
 90
       50
176
     1
 62
   256
176
     0
 40
1.0
176
     0
 90
        2
176
     1
  1
strokes_ogs.tif
176
     1
290
     0
176
     1
 40
1.0
176
     1
 40
1.0
176
     1
1001
ACAD
1000
AcRTDxfName
1000
VISUALSTYLE
1000
AcRTDxfName
1000
VISUALSTYLE
1000
AcRTDxfName
1000
VISUALSTYLE
1000
AcRTDxfName
1000
VISUALSTYLE
1000
AcRTDxfName
1000
VISUALSTYLE
  0
VISUALSTYLE
  5
91B
102
{ACAD_REACTORS
330
EF
102
}
330
EF
100
AcDbVisualStyle
  2
Shaded
 70
    27
177
     3
291
     0
 70
    58
 90
        2
176
     1
 90
        2
176
     1
 90
        1
176
     1
 90
        2
176
     1
 40
0.6
176
     1
 40
30.0
176
     1
 62
     7
420
 16777215
176
     1
 90
        0
176
     1
 90
        4
176
     1
 62
     7
176
     1
 62
   257
176
     1
 90
        1
176
     1
 90
        1
176
     1
 40
1.0
176
     1
 90
        8
176
     1
 62
   257
176
     1
 40
1.0
176
     1
 90
        1
176
     1
 90
        6
176
     1
 90
        2
176
     1
 62
     8
420
  7895160
176
     1
 90
        3
176
     1
 90
        0
176
     1
 90
        0
176
     1
290
     0
176
     1
 90
        5
176
     1
 40
0.0
176
     1
 90
        0
176
     1
290
     0
176
     1
290
     1
176
     1
290
     1
176
     1
290
     0
176
     1
290
     0
176
     1
290
     0
176
     1
290
     0
176
     1
290
     0
176
     1
290
     0
176
     1
 90
       50
176
     1
 40
0.0
176
     1
 40
1.0
176
     1
 90
        0
176
     1
 62
    18
420
        0
176
     1
 90
       50
176
     1
 90
        3
176
     1
 62
     5
420
      255
176
     1
290
     0
176
     1
 90
       50
176
     1
 90
       50
176
     1
 90
       50
176
     1
290
     0
176
     1
 90
       50
176
     1
 62
   256
176
     0
 40
1.0
176
     0
 90
        2
176
     1
  1
strokes_ogs.tif
176
     1
290
     0
176
     1
 40
1.0
176
     1
 40
1.0
176
     1
  0
VISUALSTYLE
  5
91A
102
{ACAD_REACTORS
330
EF
102
}
330
EF
100
AcDbVisualStyle
  2
Shaded with edges
 70
    26
177
     3
291
     0
 70
    58
 90
        2
176
     1
 90
        2
176
     1
 90
        1
176
     1
 90
        2
176
     1
 40
0.6
176
     1
 40
30.0
176
     1
 62
     7
420
 16777215
176
     1
 90
        1
176
     1
 90
        2
176
     1
 62
     7
176
     1
 62
   257
176
     1
 90
        2
176
     1
 90
        1
176
     1
 40
1.0
176
     1
 90
        8
176
     1
 62
   257
176
     1
 40
1.0
176
     1
 90
        1
176
     1
 90
        6
176
     1
 90
        2
176
     1
 62
     7
176
     1
 90
        3
176
     1
 90
        0
176
     1
 90
        0
176
     1
290
     0
176
     1
 90
        5
176
     1
 40
0.0
176
     1
 90
        0
176
     1
290
     0
176
     1
290
     1
176
     1
290
     1
176
     1
290
     0
176
     1
290
     0
176
     1
290
     0
176
     1
290
     0
176
     1
290
     0
176
     1
290
     0
176
     1
 90
       50
176
     1
 40
0.0
176
     1
 40
1.0
176
     1
 90
        0
176
     1
 62
    18
420
        0
176
     1
 90
       50
176
     1
 90
        3
176
     1
 62
     5
420
      255
176
     1
290
     0
176
     1
 90
       50
176
     1
 90
       50
176
     1
 90
       50
176
     1
290
     0
176
     1
 90
       50
176
     1
 62
   256
176
     0
 40
1.0
176
     0
 90
        2
176
     1
  1
strokes_ogs.tif
176
     1
290
     0
176
     1
 40
1.0
176
     1
 40
1.0
176
     1
  0
VISUALSTYLE
  5
917
102
{ACAD_REACTORS
330
EF
102
}
330
EF
100
AcDbVisualStyle
  2
Shades of Gray
 70
    23
177
     3
291
     0
 70
    58
 90
        2
176
     1
 90
        2
176
     1
 90
        3
176
     1
 90
        0
176
     1
 40
0.6
176
     1
 40
30.0
176
     1
 62
     7
420
 16777215
176
     1
 90
        2
176
     1
 90
        2
176
     1
 62
     7
176
     1
 62
     7
176
     1
 90
        1
176
     1
 90
        1
176
     1
 40
40.0
176
     1
 90
        8
176
     1
 62
     7
176
     1
 40
1.0
176
     1
 90
        1
176
     1
 90
        6
176
     1
 90
        2
176
     1
 62
     7
176
     1
 90
        3
176
     1
 90
        0
176
     1
 90
        0
176
     1
290
     0
176
     1
 90
        1
176
     1
 40
0.0
176
     1
 90
        0
176
     1
290
     0
176
     1
290
     1
176
     1
290
     1
176
     1
290
     0
176
     1
290
     0
176
     1
290
     0
176
     1
290
     0
176
     1
290
     0
176
     1
290
     0
176
     1
 90
       50
176
     1
 40
0.0
176
     1
 40
1.0
176
     1
 90
        0
176
     1
 62
    18
420
        0
176
     1
 90
       50
176
     1
 90
        3
176
     1
 62
     5
420
      255
176
     1
290
     0
176
     1
 90
       50
176
     1
 90
       50
176
     1
 90
       50
176
     1
290
     0
176
     1
 90
       50
176
     1
 62
   256
176
     0
 40
1.0
176
     0
 90
        2
176
     1
  1
strokes_ogs.tif
176
     1
290
     0
176
     1
 40
1.0
176
     1
 40
1.0
176
     1
  0
VISUALSTYLE
  5
918
102
{ACAD_REACTORS
330
EF
102
}
330
EF
100
AcDbVisualStyle
  2
Sketchy
 70
    24
177
     3
291
     0
 70
    58
 90
        1
176
     1
 90
        2
176
     1
 90
        2
176
     1
 90
        0
176
     1
 40
0.6
176
     1
 40
30.0
176
     1
 62
     7
420
 16777215
176
     1
 90
        2
176
     1
 90
        2
176
     1
 62
     7
176
     1
 62
     7
176
     1
 90
        1
176
     1
 90
        1
176
     1
 40
40.0
176
     1
 90
       11
176
     1
 62
     7
176
     1
 40
1.0
176
     1
 90
        1
176
     1
 90
        6
176
     1
 90
        2
176
     1
 62
     7
176
     1
 90
        6
176
     1
 90
        0
176
     1
 90
        0
176
     1
290
     0
176
     1
 90
        1
176
     1
 40
0.0
176
     1
 90
        0
176
     1
290
     0
176
     1
290
     1
176
     1
290
     1
176
     1
290
     0
176
     1
290
     0
176
     1
290
     0
176
     1
290
     0
176
     1
290
     0
176
     1
290
     0
176
     1
 90
       50
176
     1
 40
0.0
176
     1
 40
1.0
176
     1
 90
        0
176
     1
 62
    18
420
        0
176
     1
 90
       50
176
     1
 90
        3
176
     1
 62
     5
420
      255
176
     1
290
     0
176
     1
 90
       50
176
     1
 90
       50
176
     1
 90
       50
176
     1
290
     0
176
     1
 90
       50
176
     1
 62
   256
176
     0
 40
1.0
176
     0
 90
        2
176
     1
  1
strokes_ogs.tif
176
     1
290
     0
176
     1
 40
1.0
176
     1
 40
1.0
176
     1
  0
VISUALSTYLE
  5
FC
102
{ACAD_REACTORS
330
EF
102
}
330
EF
100
AcDbVisualStyle
  2
Thicken
 70
    13
177
     3
291
     1
 70
    58
 90
        2
176
     1
 90
        2
176
     1
 90
        1
176
     1
 90
        0
176
     1
 40
0.6
176
     1
 40
30.0
176
     1
 62
     7
176
     1
 90
        1
176
     1
 90
        4
176
     1
 62
     7
176
     1
 62
   257
176
     1
 90
        1
176
     1
 90
        1
176
     1
 40
1.0
176
     1
 90
       12
176
     1
 62
     7
176
     1
 40
1.0
176
     1
 90
        1
176
     1
 90
        6
176
     1
 90
        2
176
     1
 62
     7
176
     1
 90
        5
176
     1
 90
        0
176
     1
 90
        0
176
     1
290
     0
176
     1
 90
        1
176
     1
 40
0.0
176
     1
 90
        0
176
     1
290
     0
176
     1
290
     1
176
     1
290
     1
176
     1
290
     0
176
     1
290
     0
176
     1
290
     0
176
     1
290
     0
176
     1
290
     0
176
     1
290
     0
176
     1
 90
       50
176
     1
 40
0.0
176
     1
 40
1.0
176
     1
 90
        0
176
     1
 62
    18
420
        0
176
     1
 90
       50
176
     1
 90
        3
176
     1
 62
     5
420
      255
176
     1
290
     0
176
     1
 90
       50
176
     1
 90
       50
176
     1
 90
       50
176
     1
290
     0
176
     1
 90
       50
176
     1
 62
   256
176
     0
 40
1.0
176
     0
 90
        2
176
     1
  1
strokes_ogs.tif
176
     1
290
     0
176
     1
 40
1.0
176
     1
 40
1.0
176
     1
1001
ACAD
1000
AcRTDxfName
1000
VISUALSTYLE
1000
AcRTDxfName
1000
VISUALSTYLE
1000
AcRTDxfName
1000
VISUALSTYLE
1000
AcRTDxfName
1000
VISUALSTYLE
1000
AcRTDxfName
1000
VISUALSTYLE
  0
VISUALSTYLE
  5
915
102
{ACAD_REACTORS
330
EF
102
}
330
EF
100
AcDbVisualStyle
  2
Wireframe
 70
     5
177
     3
291
     0
 70
    58
 90
        0
176
     1
 90
        2
176
     1
 90
        0
176
     1
 90
        0
176
     1
 40
0.6
176
     1
 40
30.0
176
     1
 62
     7
420
 16777215
176
     1
 90
        1
176
     1
 90
        4
176
     1
 62
     7
176
     1
 62
   257
176
     1
 90
        1
176
     1
 90
        1
176
     1
 40
1.0
176
     1
 90
        0
176
     1
 62
   257
176
     1
 40
1.0
176
     1
 90
        1
176
     1
 90
        6
176
     1
 90
        2
176
     1
 62
     7
176
     1
 90
        3
176
     1
 90
        0
176
     1
 90
        0
176
     1
290
     0
176
     1
 90
        1
176
     1
 40
0.0
176
     1
 90
        0
176
     1
290
     0
176
     1
290
     1
176
     1
290
     1
176
     1
290
     0
176
     1
290
     0
176
     1
290
     0
176
     1
290
     0
176
     1
290
     0
176
     1
290
     0
176
     1
 90
       50
176
     1
 40
0.0
176
     1
 40
1.0
176
     1
 90
        0
176
     1
 62
    18
420
        0
176
     1
 90
       50
176
     1
 90
        3
176
     1
 62
     5
420
      255
176
     1
290
     0
176
     1
 90
       50
176
     1
 90
       50
176
     1
 90
       50
176
     1
290
     0
176
     1
 90
       50
176
     1
 62
   256
176
     0
 40
1.0
176
     0
 90
        2
176
     1
  1
strokes_ogs.tif
176
     1
290
     0
176
     1
 40
1.0
176
     1
 40
1.0
176
     1
  0
VISUALSTYLE
  5
919
102
{ACAD_REACTORS
330
EF
102
}
330
EF
100
AcDbVisualStyle
  2
X-Ray
 70
    25
177
     3
291
     0
 70
    58
 90
        2
176
     1
 90
        2
176
     1
 90
        1
176
     1
 90
        1
176
     1
 40
0.5
176
     1
 40
30.0
176
     1
 62
     7
420
 16777215
176
     1
 90
        1
176
     1
 90
        0
176
     1
 62
     7
176
     1
 62
   257
176
     1
 90
        1
176
     1
 90
        1
176
     1
 40
1.0
176
     1
 90
        8
176
     1
 62
     7
176
     1
 40
1.0
176
     1
 90
        1
176
     1
 90
        6
176
     1
 90
        2
176
     1
 62
     7
176
     1
 90
        3
176
     1
 90
        0
176
     1
 90
        0
176
     1
290
     0
176
     1
 90
       13
176
     1
 40
0.0
176
     1
 90
        0
176
     1
290
     0
176
     1
290
     1
176
     1
290
     1
176
     1
290
     0
176
     1
290
     0
176
     1
290
     0
176
     1
290
     0
176
     1
290
     0
176
     1
290
     0
176
     1
 90
       50
176
     1
 40
0.0
176
     1
 40
1.0
176
     1
 90
        0
176
     1
 62
    18
420
        0
176
     1
 90
       50
176
     1
 90
        3
176
     1
 62
     5
420
      255
176
     1
290
     0
176
     1
 90
       50
176
     1
 90
       50
176
     1
 90
       50
176
     1
290
     0
176
     1
 90
       50
176
     1
 62
   256
176
     0
 40
1.0
176
     0
 90
        2
176
     1
  1
strokes_ogs.tif
176
     1
290
     0
176
     1
 40
1.0
176
     1
 40
1.0
176
     1
  0
DICTIONARYVAR
  5
146
102
{ACAD_REACTORS
330
5E
102
}
330
5E
100
DictionaryVariables
280
     0
  1
1:1
  0
DICTIONARYVAR
  5
145
102
{ACAD_REACTORS
330
5E
102
}
330
5E
100
DictionaryVariables
280
     0
  1
STANDARD
  0
DICTIONARYVAR
  5
84
102
{ACAD_REACTORS
330
5E
102
}
330
5E
100
DictionaryVariables
280
     0
  1
STANDARD
  0
DICTIONARYVAR
  5
E53
102
{ACAD_REACTORS
330
5E
102
}
330
5E
100
DictionaryVariables
280
     0
  1
Metric50
  0
DICTIONARYVAR
  5
E54
102
{ACAD_REACTORS
330
5E
102
}
330
5E
100
DictionaryVariables
280
     0
  1
Metric50
  0
DICTIONARYVAR
  5
5F
102
{ACAD_REACTORS
330
5E
102
}
330
5E
100
DictionaryVariables
280
     0
  1
2
  0
DICTIONARYVAR
  5
63
102
{ACAD_REACTORS
330
5E
102
}
330
5E
100
DictionaryVariables
280
     0
  1
1
  0
DICTIONARYVAR
  5
744
102
{ACAD_REACTORS
330
5E
102
}
330
5E
100
DictionaryVariables
280
     0
  1
0
  0
DICTIONARYVAR
  5
933
102
{ACAD_REACTORS
330
5E
102
}
330
5E
100
DictionaryVariables
280
     0
  1
1
  0
DICTIONARYVAR
  5
934
102
{ACAD_REACTORS
330
5E
102
}
330
5E
100
DictionaryVariables
280
     0
  1
15
  0
DICTIONARYVAR
  5
742
102
{ACAD_REACTORS
330
5E
102
}
330
5E
100
DictionaryVariables
280
     0
  1
2
  0
DICTIONARYVAR
  5
741
102
{ACAD_REACTORS
330
5E
102
}
330
5E
100
DictionaryVariables
280
     0
  1
1
  0
DICTIONARYVAR
  5
7F0
102
{ACAD_REACTORS
330
5E
102
}
330
5E
100
DictionaryVariables
280
     0
  1

  0
DICTIONARYVAR
  5
743
102
{ACAD_REACTORS
330
5E
102
}
330
5E
100
DictionaryVariables
280
     0
  1
127
  0
XRECORD
  5
6F4
102
{ACAD_REACTORS
330
6F3
102
}
330
6F3
100
AcDbXrecord
280
     1
330
0
330
0
330
0
330
0
330
0
330
0
330
0
330
0
330
0
330
0
330
0
330
0
330
0
330
0
330
0
330
0
330
0
330
0
330
0
330
0
330
0
330
0
330
0
330
0
330
0
330
0
330
0
330
0
330
0
330
0
330
0
330
0
330
0
330
0
330
0
330
0
330
0
330
0
330
0
330
0
330
0
330
0
330
0
330
0
330
0
330
0
330
0
330
0
330
0
330
0
330
0
330
0
330
0
330
0
330
0
330
0
330
0
330
0
330
0
330
0
330
0
330
0
330
7E1
330
7E2
  0
DICTIONARY
  5
E58
330
E43
100
AcDbDictionary
280
     1
281
     1
  3
ACAD_XREC_ROUNDTRIP
360
E59
  0
DICTIONARY
  5
931
330
22
100
AcDbDictionary
280
     1
281
     1
  0
DICTIONARY
  5
173
330
EE
100
AcDbDictionary
280
     1
281
     1
  3
BUMPTILE
360
175
  3
DIFFUSETILE
360
174
  3
OPACITYTILE
360
176
  3
REFLECTIONTILE
360
177
  0
DICTIONARY
  5
E56
330
E41
100
AcDbDictionary
280
     1
281
     1
  3
ACAD_XREC_ROUNDTRIP
360
E57
  0
DICTIONARY
  5
162
330
7F
100
AcDbDictionary
280
     1
281
     1
  3
ACAD_ROUNDTRIP_2008_TABLESTYLE_CELLSTYLEMAP
360
E55
  0
XRECORD
  5
E59
102
{ACAD_REACTORS
330
E58
102
}
330
E58
100
AcDbXrecord
280
     1
102
DISPLAYNAME
  1
Metric50
102
FLAGS
 90
        0
  0
XRECORD
  5
175
102
{ACAD_REACTORS
330
173
102
}
330
173
100
AcDbXrecord
280
     1
270
     1
271
     1
  0
XRECORD
  5
174
102
{ACAD_REACTORS
330
173
102
}
330
173
100
AcDbXrecord
280
     1
270
     1
271
     1
  0
XRECORD
  5
176
102
{ACAD_REACTORS
330
173
102
}
330
173
100
AcDbXrecord
280
     1
270
     1
271
     1
  0
XRECORD
  5
177
102
{ACAD_REACTORS
330
173
102
}
330
173
100
AcDbXrecord
280
     1
270
     1
271
     1
  0
XRECORD
  5
E57
102
{ACAD_REACTORS
330
E56
102
}
330
E56
100
AcDbXrecord
280
     1
102
DISPLAYNAME
  1
Metric50
102
FLAGS
 90
        0
  0
CELLSTYLEMAP
  5
E55
102
{ACAD_REACTORS
330
162
102
}
330
162
100
AcDbCellStyleMap
 90
        3
300
CELLSTYLE
  1
TABLEFORMAT_BEGIN
 90
        5
170
     1
 91
        0
 92
    32768
 62
   257
 93
        1
300
CONTENTFORMAT
  1
CONTENTFORMAT_BEGIN
 90
        0
 91
        0
 92
      512
 93
        0
300

 40
0.0
140
1.0
 94
        5
 62
     0
340
11
144
6.0
309
CONTENTFORMAT_END
171
     1
301
MARGIN
  1
CELLMARGIN_BEGIN
 40
1.5
 40
1.5
 40
1.5
 40
1.5
 40
0.18
 40
0.18
309
CELLMARGIN_END
 94
        6
 95
        1
302
GRIDFORMAT
  1
GRIDFORMAT_BEGIN
 90
        0
 91
        1
 62
     0
 92
       -2
340
14
 93
        0
 40
1.125
309
GRIDFORMAT_END
 95
        2
302
GRIDFORMAT
  1
GRIDFORMAT_BEGIN
 90
        0
 91
        1
 62
     0
 92
       -2
340
14
 93
        0
 40
1.125
309
GRIDFORMAT_END
 95
        4
302
GRIDFORMAT
  1
GRIDFORMAT_BEGIN
 90
        0
 91
        1
 62
     0
 92
       -2
340
14
 93
        0
 40
1.125
309
GRIDFORMAT_END
 95
        8
302
GRIDFORMAT
  1
GRIDFORMAT_BEGIN
 90
        0
 91
        1
 62
     0
 92
       -2
340
14
 93
        0
 40
1.125
309
GRIDFORMAT_END
 95
       16
302
GRIDFORMAT
  1
GRIDFORMAT_BEGIN
 90
        0
 91
        1
 62
     0
 92
       -2
340
14
 93
        0
 40
1.125
309
GRIDFORMAT_END
 95
       32
302
GRIDFORMAT
  1
GRIDFORMAT_BEGIN
 90
        0
 91
        1
 62
     0
 92
       -2
340
14
 93
        0
 40
1.125
309
GRIDFORMAT_END
309
TABLEFORMAT_END
  1
CELLSTYLE_BEGIN
 90
        1
 91
        1
300
_TITLE
309
CELLSTYLE_END
300
CELLSTYLE
  1
TABLEFORMAT_BEGIN
 90
        5
170
     1
 91
        0
 92
        0
 62
   257
 93
        1
300
CONTENTFORMAT
  1
CONTENTFORMAT_BEGIN
 90
        0
 91
        0
 92
      512
 93
        0
300

 40
0.0
140
1.0
 94
        5
 62
     0
340
11
144
4.5
309
CONTENTFORMAT_END
171
     1
301
MARGIN
  1
CELLMARGIN_BEGIN
 40
1.5
 40
1.5
 40
1.5
 40
1.5
 40
0.18
 40
0.18
309
CELLMARGIN_END
 94
        6
 95
        1
302
GRIDFORMAT
  1
GRIDFORMAT_BEGIN
 90
        0
 91
        1
 62
     0
 92
       -2
340
14
 93
        0
 40
1.125
309
GRIDFORMAT_END
 95
        2
302
GRIDFORMAT
  1
GRIDFORMAT_BEGIN
 90
        0
 91
        1
 62
     0
 92
       -2
340
14
 93
        0
 40
1.125
309
GRIDFORMAT_END
 95
        4
302
GRIDFORMAT
  1
GRIDFORMAT_BEGIN
 90
        0
 91
        1
 62
     0
 92
       -2
340
14
 93
        0
 40
1.125
309
GRIDFORMAT_END
 95
        8
302
GRIDFORMAT
  1
GRIDFORMAT_BEGIN
 90
        0
 91
        1
 62
     0
 92
       -2
340
14
 93
        0
 40
1.125
309
GRIDFORMAT_END
 95
       16
302
GRIDFORMAT
  1
GRIDFORMAT_BEGIN
 90
        0
 91
        1
 62
     0
 92
       -2
340
14
 93
        0
 40
1.125
309
GRIDFORMAT_END
 95
       32
302
GRIDFORMAT
  1
GRIDFORMAT_BEGIN
 90
        0
 91
        1
 62
     0
 92
       -2
340
14
 93
        0
 40
1.125
309
GRIDFORMAT_END
309
TABLEFORMAT_END
  1
CELLSTYLE_BEGIN
 90
        2
 91
        1
300
_HEADER
309
CELLSTYLE_END
300
CELLSTYLE
  1
TABLEFORMAT_BEGIN
 90
        5
170
     1
 91
        0
 92
        0
 62
   257
 93
        1
300
CONTENTFORMAT
  1
CONTENTFORMAT_BEGIN
 90
        0
 91
        0
 92
      512
 93
        0
300

 40
0.0
140
1.0
 94
        2
 62
     0
340
11
144
4.5
309
CONTENTFORMAT_END
171
     1
301
MARGIN
  1
CELLMARGIN_BEGIN
 40
1.5
 40
1.5
 40
1.5
 40
1.5
 40
0.18
 40
0.18
309
CELLMARGIN_END
 94
        6
 95
        1
302
GRIDFORMAT
  1
GRIDFORMAT_BEGIN
 90
        0
 91
        1
 62
     0
 92
       -2
340
14
 93
        0
 40
1.125
309
GRIDFORMAT_END
 95
        2
302
GRIDFORMAT
  1
GRIDFORMAT_BEGIN
 90
        0
 91
        1
 62
     0
 92
       -2
340
14
 93
        0
 40
1.125
309
GRIDFORMAT_END
 95
        4
302
GRIDFORMAT
  1
GRIDFORMAT_BEGIN
 90
        0
 91
        1
 62
     0
 92
       -2
340
14
 93
        0
 40
1.125
309
GRIDFORMAT_END
 95
        8
302
GRIDFORMAT
  1
GRIDFORMAT_BEGIN
 90
        0
 91
        1
 62
     0
 92
       -2
340
14
 93
        0
 40
1.125
309
GRIDFORMAT_END
 95
       16
302
GRIDFORMAT
  1
GRIDFORMAT_BEGIN
 90
        0
 91
        1
 62
     0
 92
       -2
340
14
 93
        0
 40
1.125
309
GRIDFORMAT_END
 95
       32
302
GRIDFORMAT
  1
GRIDFORMAT_BEGIN
 90
        0
 91
        1
 62
     0
 92
       -2
340
14
 93
        0
 40
1.125
309
GRIDFORMAT_END
309
TABLEFORMAT_END
  1
CELLSTYLE_BEGIN
 90
        3
 91
        2
300
_DATA
309
CELLSTYLE_END
  0
ENDSEC
  0
SECTION
  2
ACDSDATA
 70
     2
 71
     8
  0
ACDSSCHEMA
 90
        0
  1
AcDb_Thumbnail_Schema
  2
AcDbDs::ID
280
    10
 91
        8
  2
Thumbnail_Data
280
    15
 91
        0
101
ACDSRECORD
 95
        0
 90
        1
  2
AcDbDs::TreatedAsObjectData
280
     1
291
     1
101
ACDSRECORD
 95
        0
 90
        2
  2
AcDbDs::Legacy
280
     1
291
     1
101
ACDSRECORD
  1
AcDbDs::ID
 90
        3
  2
AcDs:Indexable
280
     1
291
     1
101
ACDSRECORD
  1
AcDbDs::ID
 90
        4
  2
AcDbDs::HandleAttribute
280
     7
282
     1
  0
ACDSSCHEMA
 90
        1
  1
AcDbDs::TreatedAsObjectDataSchema
  2
AcDbDs::TreatedAsObjectData
280
     1
 91
        0
  0
ACDSSCHEMA
 90
        2
  1
AcDbDs::LegacySchema
  2
AcDbDs::Legacy
280
     1
 91
        0
  0
ACDSSCHEMA
 90
        3
  1
AcDbDs::IndexedPropertySchema
  2
AcDs:Indexable
280
     1
 91
        0
  0
ACDSSCHEMA
 90
        4
  1
AcDbDs::HandleAttributeSchema
  2
AcDbDs::HandleAttribute
280
     7
 91
        1
284
     1
  0
ACDSRECORD
 90
        0
  2
AcDbDs::ID
280
    10
320
22
  2
Thumbnail_Data
280
    15
 94
     2646
310
89504E470D0A1A0A0000000D4948445200000100000000C10803000000176F9EF100000300504C5445212830000000FFFFFF0000000000000000000000000000000000000000000000000000330000660000990000CC0000FF0033000033330033660033990033CC0033FF0066000066330066660066990066CC0066FF0099
310
000099330099660099990099CC0099FF00CC0000CC3300CC6600CC9900CCCC00CCFF00FF0000FF3300FF6600FF9900FFCC00FFFF3300003300333300663300993300CC3300FF3333003333333333663333993333CC3333FF3366003366333366663366993366CC3366FF3399003399333399663399993399CC3399FF33CC00
310
33CC3333CC6633CC9933CCCC33CCFF33FF0033FF3333FF6633FF9933FFCC33FFFF6600006600336600666600996600CC6600FF6633006633336633666633996633CC6633FF6666006666336666666666996666CC6666FF6699006699336699666699996699CC6699FF66CC0066CC3366CC6666CC9966CCCC66CCFF66FF0066
310
FF3366FF6666FF9966FFCC66FFFF9900009900339900669900999900CC9900FF9933009933339933669933999933CC9933FF9966009966339966669966999966CC9966FF9999009999339999669999999999CC9999FF99CC0099CC3399CC6699CC9999CCCC99CCFF99FF0099FF3399FF6699FF9999FFCC99FFFFCC0000CC00
310
33CC0066CC0099CC00CCCC00FFCC3300CC3333CC3366CC3399CC33CCCC33FFCC6600CC6633CC6666CC6699CC66CCCC66FFCC9900CC9933CC9966CC9999CC99CCCC99FFCCCC00CCCC33CCCC66CCCC99CCCCCCCCCCFFCCFF00CCFF33CCFF66CCFF99CCFFCCCCFFFFFF0000FF0033FF0066FF0099FF00CCFF00FFFF3300FF3333
310
FF3366FF3399FF33CCFF33FFFF6600FF6633FF6666FF6699FF66CCFF66FFFF9900FF9933FF9966FF9999FF99CCFF99FFFFCC00FFCC33FFCC66FFCC99FFCCCCFFCCFFFFFF00FFFF33FFFF66FFFF99FFFFCCFFFFFF0000000D0D0D1A1A1A2828283535354343435050505D5D5D6B6B6B787878868686939393A1A1A1AEAEAEBB
310
BBBBC9C9C9D6D6D6E4E4E4F1F1F1FFFFFF0000000000000000000000000000000000000000000000000000000000007BFF0FCC000007114944415478DAED9D6B96AB200C80B31CF6BF0057E236F2BFF50104440D2F010DE79EDB994EABF099842404059006307FB45900EDD82336BCEE02A03D00C486043A91807E00B43144
310
D8CEFC1D007C68DA130002400008000120000480001000024000080001200004800010000280074029F512004B323605007C1D40190998BCD7E12460FA2E00D3A6F4B6AC06E1FEF27F1DCB081A041967C76D3D0CB1DDBA5822003D6E9C0021C31CE2B48E1B61421814C0BFE71932303C806504593AF002000A33DAB224BAEA
310
FF6800ACDE2BC89805A63F807536980604405BB604B4AB0DC80986D432158EEF08250350AF08887200BC221E4A07A0DE1110E749007C5C023E0C40A9F724445201BC63FC1100DCD0F72DE34F06F09AC605A00AA43FC606806E0C54BA61EF0074B8A21816305E4E060886B6D41DB01281D1AAD23427B845A5370096C4ED1AB7
310
6F57BF34813535A08A9A19F661625460495B28D6E818903C0B401222AACCF899A7E7CF020B843F00E6816D0F38B25D07802A06603F5A947C9234D1F300B67E9604B049F4BF9F3100F4EACF747B3D8A03E01F284602F8D9EB3554FA5F7B4554E05900B89FBD09003F557A6F958B03E04FAC5C2338011B809E28FF04D6613F0F
310
E03F74E44E43E501EC0A6FA406E179007AD99501A18E04EC02302D97E27900EB59B506B4006086BB10C009D4C3B380A3FE0D00F8FEE3E39E20D2E0B22D00A623F872000C6BFC6600AC05C47703F8AC044424395E0C407D1C0073FDE8B536809B40680A8057299A0E4045012891138C0550771688B5010D0054948078000D24
310
00BA02D04002A02B15505F07F07909785F2C200004800010008F0320BD140002400008804E019015DC370050A99DAD09E0B9C5D1E4206E9381E101E496B78D0DA0C426EA8101E40F7F2D225175004075005381327AB56EC0ED47029C1CA1355641005BE964466757B00A69F9DDD3D3E0323402E0A4BE2A5CF5B8D600E66C9E
310
5E6B48D0CD833D0CE0582C1D9280BD587AD9E6EC9C2AEB061A9357245DAA583AD6114276B1F4410214E65D7F7BD012FB90AB7A82DBC80FBAB100C8EAAB498717DC8856CF150E14FC64F699002847A09E04605500C5085402109E1DF27A8CC601504CBF855376520380AE7C2F096039A0DAAAEA4D81BB6204D0D84E02CA45C1
310
FB60FF3614907F9CB6008AA601F4260C7649AF6388B0D92C500E80F2B6B5A87B60CA8EFD1A421500851341C6E3630070DD4307020E0D0038008233A31D7A386E19028056049E04DC41C0D1005843B86B83624A8C734A32720A6118005B00C40240207851C311822B107D035031006802CE550AF48D424F00B62DA7F7238AC3
310
A64E6D82DEE6DE0F005ED250C50BCF49C2025DA7AD0309A801E008611FFB2162AD0EA054CBF42760BF3BEB41364A95CA76DCB621AF12A0501D278DD70330A33DBA85AC7581B600B035BAD6B7D7FF3200DF65F9A204B47CCEAAA84027005ACB803C63440008000120003A01E03D80FCFAA7373E7B7C761D83EB9F4A791F02A0
310
2300D8A4890408005101910001202AD08704D807AFEDD932BDDC452EDDE558B877711509383CEFE80A001EC057CAE3CCEEAEDF6E6CC0B6E406F6DF2E9D9554A043001B02A06A5925A1DDAB11F40098373F2401BB0D30B76B853AB7C31747E8F30911DC75CD163B39D33B72F48E754B77524B350000E80000293ED1553887CE
310
99B35A13E1FC01C9BB6197ED3915C0681520768F3A45A0ABB248751A295472AA968CFBA43DA9C3458A97BBB359AD785698B87FA616C9ECA3F24E8F407F04470248AFE128D01D03787016C8136DDCFFC75DD237477F7FBAE9206971B7D66F8EB5A281F090589CB96F09C80600E700602C009808209E7177007266863981717F
310
00D0291BC9B301C45F71C20DB425D51D02703CBE1A00FAB601B73D36B7DEC10B0070E21D0401E04836C0B1EE171200E14469E7004EFD9472000227B8AF15A6E930E7C88553633C0960DB0060E5CA7900ACE7BF87923A27A6ED55110A21CF3EC3087201DC1B411DFFD874B0C98F41650071C1CD9C2C7677006C84AF2500C9F3
310
9C4A0198DD9C41CE34087405E3CC30F00180D6773268932B2E971FF5A4B704001A0A5C25C47B99064D5A2517C0711638330E3D0643D4DA770480187C0CA7D9D17E0C9301D40D86323242BE46F9994FB009B1D4B5D3B9496303D0CB432427AC674427479A0120FF7A86BE8C5E175D8D895401BB3DD399B04892334B059CEDAF
310
5500A0BF0ED1DD2C603B1A7046C02496699239E421CF67FE95FF99CE00C03900705786C85D0352ED6187002E7E75139CDA19256FA400E84E05AE00209D7EC09FCF214905060260FCFADD31477F9DEAE25878B21C391800BB0CE96A0004178D07358255FC80818CE0E3ADC760E83E4DE2BE078778C75980BFAAA958FD8E0101
310
1C623CEF17F0CB4AAEF30F8300F072B1181AB37B1F957B00F3F2D1FE25A0E2F92E009429BF79CE98657C3108E03A7597F357BC4C09267F35A7C7BD00C05100304AF0D2BE8B19C2F3060900CC605710C0471B4803F801A7F386FF35088D250000000049454E44AE426082
  0
ENDSEC
  0
EOF
