  0
SECTION
  2
HEADER
  9
$ACADVER
  1
AC1027
  9
$ACADMAINTVER
 70
   125
  9
$DWGCODEPAGE
  3
ANSI_1252
  9
$LASTSAVEDBY
  1
fleminab
  9
$REQUIREDVERSIONS
160
                 0
  9
$INSBASE
 10
0.0
 20
0.0
 30
0.0
  9
$EXTMIN
 10
1050.149103387712
 20
351.670200019101
 30
-0.0015258207003583
  9
$EXTMAX
 10
1446.717083160456
 20
792.0737327246297
 30
0.0000000349246037
  9
$LIMMIN
 10
0.0
 20
0.0
  9
$LIMMAX
 10
420.0
 20
297.0
  9
$ORTHOMODE
 70
     0
  9
$REGENMODE
 70
     1
  9
$FILLMODE
 70
     1
  9
$QTEXTMODE
 70
     0
  9
$MIRRTEXT
 70
     0
  9
$LTSCALE
 40
1.0
  9
$ATTMODE
 70
     1
  9
$TEXTSIZE
 40
2.5
  9
$TRACEWID
 40
1.0
  9
$TEXTSTYLE
  7
Standard
  9
$CLAYER
  8
0
  9
$CELTYPE
  6
ByLayer
  9
$CECOLOR
 62
   256
  9
$CELTSCALE
 40
1.0
  9
$DISPSILH
 70
     0
  9
$DIMSCALE
 40
1.0
  9
$DIMASZ
 40
2.5
  9
$DIMEXO
 40
0.625
  9
$DIMDLI
 40
3.75
  9
$DIMRND
 40
0.0
  9
$DIMDLE
 40
0.0
  9
$DIMEXE
 40
1.25
  9
$DIMTP
 40
0.0
  9
$DIMTM
 40
0.0
  9
$DIMTXT
 40
2.5
  9
$DIMCEN
 40
2.5
  9
$DIMTSZ
 40
0.0
  9
$DIMTOL
 70
     0
  9
$DIMLIM
 70
     0
  9
$DIMTIH
 70
     0
  9
$DIMTOH
 70
     0
  9
$DIMSE1
 70
     0
  9
$DIMSE2
 70
     0
  9
$DIMTAD
 70
     1
  9
$DIMZIN
 70
     8
  9
$DIMBLK
  1

  9
$DIMASO
 70
     1
  9
$DIMSHO
 70
     1
  9
$DIMPOST
  1

  9
$DIMAPOST
  1

  9
$DIMALT
 70
     0
  9
$DIMALTD
 70
     3
  9
$DIMALTF
 40
0.03937007874016
  9
$DIMLFAC
 40
1.0
  9
$DIMTOFL
 70
     1
  9
$DIMTVP
 40
0.0
  9
$DIMTIX
 70
     0
  9
$DIMSOXD
 70
     0
  9
$DIMSAH
 70
     0
  9
$DIMBLK1
  1

  9
$DIMBLK2
  1

  9
$DIMSTYLE
  2
ISO-25
  9
$DIMCLRD
 70
     0
  9
$DIMCLRE
 70
     0
  9
$DIMCLRT
 70
     0
  9
$DIMTFAC
 40
1.0
  9
$DIMGAP
 40
0.625
  9
$DIMJUST
 70
     0
  9
$DIMSD1
 70
     0
  9
$DIMSD2
 70
     0
  9
$DIMTOLJ
 70
     0
  9
$DIMTZIN
 70
     8
  9
$DIMALTZ
 70
     0
  9
$DIMALTTZ
 70
     0
  9
$DIMUPT
 70
     0
  9
$DIMDEC
 70
     2
  9
$DIMTDEC
 70
     2
  9
$DIMALTU
 70
     2
  9
$DIMALTTD
 70
     3
  9
$DIMTXSTY
  7
Standard
  9
$DIMAUNIT
 70
     0
  9
$DIMADEC
 70
     0
  9
$DIMALTRND
 40
0.0
  9
$DIMAZIN
 70
     0
  9
$DIMDSEP
 70
    44
  9
$DIMATFIT
 70
     3
  9
$DIMFRAC
 70
     0
  9
$DIMLDRBLK
  1

  9
$DIMLUNIT
 70
     2
  9
$DIMLWD
 70
    -2
  9
$DIMLWE
 70
    -2
  9
$DIMTMOVE
 70
     0
  9
$DIMFXL
 40
1.0
  9
$DIMFXLON
 70
     0
  9
$DIMJOGANG
 40
0.7853981633974483
  9
$DIMTFILL
 70
     0
  9
$DIMTFILLCLR
 70
     0
  9
$DIMARCSYM
 70
     0
  9
$DIMLTYPE
  6

  9
$DIMLTEX1
  6

  9
$DIMLTEX2
  6

  9
$DIMTXTDIRECTION
 70
     0
  9
$LUNITS
 70
     2
  9
$LUPREC
 70
     4
  9
$SKETCHINC
 40
1.0
  9
$FILLETRAD
 40
0.0
  9
$AUNITS
 70
     0
  9
$AUPREC
 70
     0
  9
$MENU
  1
.
  9
$ELEVATION
 40
0.0
  9
$PELEVATION
 40
0.0
  9
$THICKNESS
 40
0.0
  9
$LIMCHECK
 70
     0
  9
$CHAMFERA
 40
0.0
  9
$CHAMFERB
 40
0.0
  9
$CHAMFERC
 40
0.0
  9
$CHAMFERD
 40
0.0
  9
$SKPOLY
 70
     0
  9
$TDCREATE
 40
2455849.653240741
  9
$TDUCREATE
 40
2455849.194915394
  9
$TDUPDATE
 40
2458015.488402778
  9
$TDUUPDATE
 40
2458015.071736112
  9
$TDINDWG
 40
0.0003477083
  9
$TDUSRTIMER
 40
0.0003477083
  9
$USRTIMER
 70
     1
  9
$ANGBASE
 50
0.0
  9
$ANGDIR
 70
     0
  9
$PDMODE
 70
     0
  9
$PDSIZE
 40
0.0
  9
$PLINEWID
 40
0.0
  9
$SPLFRAME
 70
     0
  9
$SPLINETYPE
 70
     6
  9
$SPLINESEGS
 70
     8
  9
$HANDSEED
  5
370
  9
$SURFTAB1
 70
     6
  9
$SURFTAB2
 70
     6
  9
$SURFTYPE
 70
     6
  9
$SURFU
 70
     6
  9
$SURFV
 70
     6
  9
$UCSBASE
  2

  9
$UCSNAME
  2

  9
$UCSORG
 10
0.0
 20
0.0
 30
0.0
  9
$UCSXDIR
 10
1.0
 20
0.0
 30
0.0
  9
$UCSYDIR
 10
0.0
 20
1.0
 30
0.0
  9
$UCSORTHOREF
  2

  9
$UCSORTHOVIEW
 70
     0
  9
$UCSORGTOP
 10
0.0
 20
0.0
 30
0.0
  9
$UCSORGBOTTOM
 10
0.0
 20
0.0
 30
0.0
  9
$UCSORGLEFT
 10
0.0
 20
0.0
 30
0.0
  9
$UCSORGRIGHT
 10
0.0
 20
0.0
 30
0.0
  9
$UCSORGFRONT
 10
0.0
 20
0.0
 30
0.0
  9
$UCSORGBACK
 10
0.0
 20
0.0
 30
0.0
  9
$PUCSBASE
  2

  9
$PUCSNAME
  2

  9
$PUCSORG
 10
0.0
 20
0.0
 30
0.0
  9
$PUCSXDIR
 10
1.0
 20
0.0
 30
0.0
  9
$PUCSYDIR
 10
0.0
 20
1.0
 30
0.0
  9
$PUCSORTHOREF
  2

  9
$PUCSORTHOVIEW
 70
     0
  9
$PUCSORGTOP
 10
0.0
 20
0.0
 30
0.0
  9
$PUCSORGBOTTOM
 10
0.0
 20
0.0
 30
0.0
  9
$PUCSORGLEFT
 10
0.0
 20
0.0
 30
0.0
  9
$PUCSORGRIGHT
 10
0.0
 20
0.0
 30
0.0
  9
$PUCSORGFRONT
 10
0.0
 20
0.0
 30
0.0
  9
$PUCSORGBACK
 10
0.0
 20
0.0
 30
0.0
  9
$USERI1
 70
     0
  9
$USERI2
 70
     0
  9
$USERI3
 70
     0
  9
$USERI4
 70
     0
  9
$USERI5
 70
     0
  9
$USERR1
 40
0.0
  9
$USERR2
 40
0.0
  9
$USERR3
 40
0.0
  9
$USERR4
 40
0.0
  9
$USERR5
 40
0.0
  9
$WORLDVIEW
 70
     1
  9
$SHADEDGE
 70
     3
  9
$SHADEDIF
 70
    70
  9
$TILEMODE
 70
     1
  9
$MAXACTVP
 70
    64
  9
$PINSBASE
 10
0.0
 20
0.0
 30
0.0
  9
$PLIMCHECK
 70
     0
  9
$PEXTMIN
 10
0.0
 20
0.0
 30
0.0
  9
$PEXTMAX
 10
0.0
 20
0.0
 30
0.0
  9
$PLIMMIN
 10
0.0
 20
0.0
  9
$PLIMMAX
 10
12.0
 20
9.0
  9
$UNITMODE
 70
     0
  9
$VISRETAIN
 70
     1
  9
$PLINEGEN
 70
     0
  9
$PSLTSCALE
 70
     1
  9
$TREEDEPTH
 70
  3020
  9
$CMLSTYLE
  2
Standard
  9
$CMLJUST
 70
     0
  9
$CMLSCALE
 40
20.0
  9
$PROXYGRAPHICS
 70
     1
  9
$MEASUREMENT
 70
     1
  9
$CELWEIGHT
370
    -1
  9
$ENDCAPS
280
     0
  9
$JOINSTYLE
280
     0
  9
$LWDISPLAY
290
     0
  9
$INSUNITS
 70
     4
  9
$HYPERLINKBASE
  1

  9
$STYLESHEET
  1

  9
$XEDIT
290
     1
  9
$CEPSNTYPE
380
     0
  9
$PSTYLEMODE
290
     1
  9
$FINGERPRINTGUID
  2
{FDEAD578-A652-11D2-9A35-0060089B3A3F}
  9
$VERSIONGUID
  2
{E757A6F2-D9E3-8449-8FC0-3E71F3F4253A}
  9
$EXTNAMES
290
     1
  9
$PSVPSCALE
 40
0.0
  9
$OLESTARTUP
290
     0
  9
$SORTENTS
280
   127
  9
$INDEXCTL
280
     0
  9
$HIDETEXT
280
     1
  9
$XCLIPFRAME
280
     0
  9
$HALOGAP
280
     0
  9
$OBSCOLOR
 70
   257
  9
$OBSLTYPE
280
     0
  9
$INTERSECTIONDISPLAY
280
     0
  9
$INTERSECTIONCOLOR
 70
   257
  9
$DIMASSOC
280
     2
  9
$PROJECTNAME
  1

  9
$CAMERADISPLAY
290
     0
  9
$LENSLENGTH
 40
50.0
  9
$CAMERAHEIGHT
 40
0.0
  9
$STEPSPERSEC
 40
2.0
  9
$STEPSIZE
 40
6.0
  9
$3DDWFPREC
 40
2.0
  9
$PSOLWIDTH
 40
0.25
  9
$PSOLHEIGHT
 40
4.0
  9
$LOFTANG1
 40
1.570796326794896
  9
$LOFTANG2
 40
1.570796326794896
  9
$LOFTMAG1
 40
0.0
  9
$LOFTMAG2
 40
0.0
  9
$LOFTPARAM
 70
     7
  9
$LOFTNORMALS
280
     1
  9
$LATITUDE
 40
37.795
  9
$LONGITUDE
 40
-122.394
  9
$NORTHDIRECTION
 40
0.0
  9
$TIMEZONE
 70
 -8000
  9
$LIGHTGLYPHDISPLAY
280
     1
  9
$TILEMODELIGHTSYNCH
280
     1
  9
$CMATERIAL
347
2F9
  9
$SOLIDHIST
280
     0
  9
$SHOWHIST
280
     1
  9
$DWFFRAME
280
     2
  9
$DGNFRAME
280
     0
  9
$REALWORLDSCALE
290
     1
  9
$INTERFERECOLOR
 62
     1
  9
$INTERFEREOBJVS
345
31B
  9
$INTERFEREVPVS
346
318
  9
$CSHADOW
280
     0
  9
$SHADOWPLANELOCATION
 40
0.0
  0
ENDSEC
  0
SECTION
  2
CLASSES
  0
CLASS
  1
ACDBDICTIONARYWDFLT
  2
AcDbDictionaryWithDefault
  3
ObjectDBX Classes
 90
        0
 91
        1
280
     0
281
     0
  0
CLASS
  1
DICTIONARYVAR
  2
AcDbDictionaryVar
  3
ObjectDBX Classes
 90
        0
 91
       20
280
     0
281
     0
  0
CLASS
  1
MATERIAL
  2
AcDbMaterial
  3
ObjectDBX Classes
 90
     1153
 91
        3
280
     0
281
     0
  0
CLASS
  1
VISUALSTYLE
  2
AcDbVisualStyle
  3
ObjectDBX Classes
 90
     4095
 91
       24
280
     0
281
     0
  0
CLASS
  1
TABLESTYLE
  2
AcDbTableStyle
  3
ObjectDBX Classes
 90
     4095
 91
        1
280
     0
281
     0
  0
CLASS
  1
SCALE
  2
AcDbScale
  3
ObjectDBX Classes
 90
     1153
 91
       17
280
     0
281
     0
  0
CLASS
  1
MLEADERSTYLE
  2
AcDbMLeaderStyle
  3
ACDB_MLEADERSTYLE_CLASS
 90
     4095
 91
        1
280
     0
281
     0
  0
CLASS
  1
ACDBSECTIONVIEWSTYLE
  2
AcDbSectionViewStyle
  3
ObjectDBX Classes
 90
     1025
 91
        1
280
     0
281
     0
  0
CLASS
  1
ACDBDETAILVIEWSTYLE
  2
AcDbDetailViewStyle
  3
ObjectDBX Classes
 90
     1025
 91
        1
280
     0
281
     0
  0
CLASS
  1
CELLSTYLEMAP
  2
AcDbCellStyleMap
  3
ObjectDBX Classes
 90
     1152
 91
        1
280
     0
281
     0
  0
ENDSEC
  0
SECTION
  2
TABLES
  0
TABLE
  2
VPORT
  5
8
330
0
100
AcDbSymbolTable
 70
     1
1001
ACAD
1000
DbSaveVer
1071
        5
  0
VPORT
  5
2F7
330
8
100
AcDbSymbolTableRecord
100
AcDbViewportTableRecord
  2
*Active
 70
     0
 10
0.0
 20
0.0
 11
1.0
 21
1.0
 12
1248.433093274084
 22
571.8719663718653
 13
0.0
 23
0.0
 14
10.0
 24
10.0
 15
10.0
 25
10.0
 16
0.0
 26
0.0
 36
1.0
 17
0.0
 27
0.0
 37
0.0
 40
443.5567799564037
 41
2.292712066905615
 42
50.0
 43
0.0
 44
0.0
 50
0.0
 51
0.0
 71
     0
 72
  1000
 73
     1
 74
     3
 75
     0
 76
     0
 77
     0
 78
     0
281
     0
 65
     1
110
0.0
120
0.0
130
0.0
111
1.0
121
0.0
131
0.0
112
0.0
122
1.0
132
0.0
 79
     0
146
0.0
348
317
 60
     3
 61
     5
292
     1
282
     1
141
0.0
142
0.0
 63
   250
421
  3355443
1001
ACAD_NAV_VCDISPLAY
1070
     3
  0
ENDTAB
  0
TABLE
  2
LTYPE
  5
5
330
0
100
AcDbSymbolTable
 70
     1
  0
LTYPE
  5
14
330
5
100
AcDbSymbolTableRecord
100
AcDbLinetypeTableRecord
  2
ByBlock
 70
     0
  3

 72
    65
 73
     0
 40
0.0
  0
LTYPE
  5
15
330
5
100
AcDbSymbolTableRecord
100
AcDbLinetypeTableRecord
  2
ByLayer
 70
     0
  3

 72
    65
 73
     0
 40
0.0
  0
LTYPE
  5
16
330
5
100
AcDbSymbolTableRecord
100
AcDbLinetypeTableRecord
  2
Continuous
 70
     0
  3
Solid line
 72
    65
 73
     0
 40
0.0
  0
ENDTAB
  0
TABLE
  2
LAYER
  5
2
102
{ACAD_XDICTIONARY
360
B3
102
}
330
0
100
AcDbSymbolTable
 70
     4
  0
LAYER
  5
10
102
{ACAD_XDICTIONARY
360
34B
102
}
330
2
100
AcDbSymbolTableRecord
100
AcDbLayerTableRecord
  2
0
 70
     0
 62
     7
  6
Continuous
370
    -3
390
F
347
309
348
0
  0
LAYER
  5
AD
330
2
100
AcDbSymbolTableRecord
100
AcDbLayerTableRecord
  2
Defpoints
 70
     0
 62
     7
  6
Continuous
290
     0
370
    -3
390
F
347
309
348
0
  0
LAYER
  5
AE
102
{ACAD_XDICTIONARY
360
34D
102
}
330
2
100
AcDbSymbolTableRecord
100
AcDbLayerTableRecord
  2
图层4
 70
     0
 62
     1
  6
Continuous
370
    -3
390
F
347
309
348
0
1001
AcadStringInfo
1000
MIFCodePage
1070
     5
  0
LAYER
  5
AF
102
{ACAD_XDICTIONARY
360
34F
102
}
330
2
100
AcDbSymbolTableRecord
100
AcDbLayerTableRecord
  2
PV-585
 70
     2
 62
     7
  6
Continuous
370
    -3
390
F
347
309
348
0
  0
ENDTAB
  0
TABLE
  2
STYLE
  5
3
330
0
100
AcDbSymbolTable
 70
     3
  0
STYLE
  5
11
330
3
100
AcDbSymbolTableRecord
100
AcDbTextStyleTableRecord
  2
Standard
 70
     0
 40
0.0
 41
1.0
 50
0.0
 71
     0
 42
2.5
  3
txt
  4

  0
STYLE
  5
B0
330
3
100
AcDbSymbolTableRecord
100
AcDbTextStyleTableRecord
  2
6
 70
     0
 40
0.0
 41
0.8
 50
0.0
 71
     0
 42
3.799999999999999
  3
technic_.ttf
  4

1001
ACAD
1000
Technic
1071
      514
  0
STYLE
  5
B1
330
3
100
AcDbSymbolTableRecord
100
AcDbTextStyleTableRecord
  2
7.5
 70
     0
 40
7.599999999999999
 41
0.7070000000000001
 50
0.0
 71
     0
 42
7.599999999999999
  3
technic_.ttf
  4

1001
ACAD
1000
Technic
1071
      514
  0
ENDTAB
  0
TABLE
  2
VIEW
  5
6
330
0
100
AcDbSymbolTable
 70
     0
  0
ENDTAB
  0
TABLE
  2
UCS
  5
7
330
0
100
AcDbSymbolTable
 70
     0
  0
ENDTAB
  0
TABLE
  2
APPID
  5
9
330
0
100
AcDbSymbolTable
 70
     3
  0
APPID
  5
12
330
9
100
AcDbSymbolTableRecord
100
AcDbRegAppTableRecord
  2
ACAD
 70
     0
  0
APPID
  5
344
330
9
100
AcDbSymbolTableRecord
100
AcDbRegAppTableRecord
  2
AcadStringInfo
 70
     0
  0
APPID
  5
351
330
9
100
AcDbSymbolTableRecord
100
AcDbRegAppTableRecord
  2
ACAD_NAV_VCDISPLAY
 70
     0
  0
ENDTAB
  0
TABLE
  2
DIMSTYLE
  5
A
330
0
100
AcDbSymbolTable
 70
     2
100
AcDbDimStyleTable
 71
     0
  0
DIMSTYLE
105
27
330
A
100
AcDbSymbolTableRecord
100
AcDbDimStyleTableRecord
  2
ISO-25
 70
     0
 41
2.5
 42
0.625
 43
3.75
 44
1.25
 73
     0
 74
     0
 77
     1
 78
     8
140
2.5
141
2.5
143
0.03937007874016
147
0.625
171
     3
172
     1
271
     2
272
     2
274
     3
278
    44
283
     0
284
     8
340
11
  0
DIMSTYLE
105
B2
102
{ACAD_REACTORS
330
1B8
330
2B2
330
2B3
102
}
330
A
100
AcDbSymbolTableRecord
100
AcDbDimStyleTableRecord
  2
6
 70
     0
 41
6.0
 42
1.0
 43
5.0
 44
3.0
 73
     0
 74
     0
 77
     3
 78
     8
140
6.0
141
7.5
143
0.03937007874016
147
1.0
171
     3
172
     1
176
    96
177
    96
178
   106
271
     1
272
     1
274
     3
283
     0
284
     8
340
B0
371
    18
372
    13
  0
ENDTAB
  0
TABLE
  2
BLOCK_RECORD
  5
1
330
0
100
AcDbSymbolTable
 70
     7
  0
BLOCK_RECORD
  5
1F
330
1
100
AcDbSymbolTableRecord
100
AcDbBlockTableRecord
  2
*Model_Space
340
22
 70
     0
280
     1
281
     0
  0
BLOCK_RECORD
  5
50
330
1
100
AcDbSymbolTableRecord
100
AcDbBlockTableRecord
  2
*Paper_Space
340
51
 70
     0
280
     1
281
     0
  0
BLOCK_RECORD
  5
55
330
1
100
AcDbSymbolTableRecord
100
AcDbBlockTableRecord
  2
*Paper_Space0
340
56
 70
     0
280
     1
281
     0
  0
BLOCK_RECORD
  5
2B4
330
1
100
AcDbSymbolTableRecord
100
AcDbBlockTableRecord
  2
*D4
340
0
 70
     0
280
     1
281
     0
  0
BLOCK_RECORD
  5
2C0
330
1
100
AcDbSymbolTableRecord
100
AcDbBlockTableRecord
  2
*D5
340
0
 70
     0
280
     1
281
     0
  0
BLOCK_RECORD
  5
2CE
330
1
100
AcDbSymbolTableRecord
100
AcDbBlockTableRecord
  2
*D6
340
0
 70
     0
280
     1
281
     0
  0
ENDTAB
  0
ENDSEC
  0
SECTION
  2
BLOCKS
  0
BLOCK
  5
20
330
1F
100
AcDbEntity
  8
0
100
AcDbBlockBegin
  2
*Model_Space
 70
     0
 10
0.0
 20
0.0
 30
0.0
  3
*Model_Space
  1

  0
ENDBLK
  5
21
330
1F
100
AcDbEntity
  8
0
100
AcDbBlockEnd
  0
BLOCK
  5
52
330
50
100
AcDbEntity
 67
     1
  8
0
100
AcDbBlockBegin
  2
*Paper_Space
 70
     0
 10
0.0
 20
0.0
 30
0.0
  3
*Paper_Space
  1

  0
ENDBLK
  5
53
330
50
100
AcDbEntity
 67
     1
  8
0
100
AcDbBlockEnd
  0
BLOCK
  5
57
330
55
100
AcDbEntity
 67
     1
  8
0
100
AcDbBlockBegin
  2
*Paper_Space0
 70
     0
 10
0.0
 20
0.0
 30
0.0
  3
*Paper_Space0
  1

  0
ENDBLK
  5
58
330
55
100
AcDbEntity
 67
     1
  8
0
100
AcDbBlockEnd
  0
BLOCK
  5
2BE
330
2B4
100
AcDbEntity
  8
0
100
AcDbBlockBegin
  2
*D4
 70
     1
 10
0.0
 20
0.0
 30
0.0
  3
*D4
  1

  0
LINE
  5
2DA
330
2B4
100
AcDbEntity
  8
0
 62
    96
440
 16777216
370
    13
100
AcDbLine
 10
1305.34194049676
 20
755.1891447210253
 30
0.0
 11
1316.569735373702
 21
755.1891447210253
 31
0.0
  0
LINE
  5
2DB
330
2B4
100
AcDbEntity
  8
0
 62
    96
440
 16777216
370
    13
100
AcDbLine
 10
1307.450272516989
 20
352.1887108794627
 30
0.0
 11
1316.569735373701
 21
352.1887108794627
 31
0.0
  0
LINE
  5
2DC
330
2B4
100
AcDbEntity
  8
0
 62
     7
440
 16777216
370
    18
100
AcDbLine
 10
1313.569735373701
 20
737.1891447210252
 30
0.0
 11
1313.569735373701
 21
370.1887108794628
 31
0.0
  0
SOLID
  5
2DD
330
2B4
100
AcDbEntity
  8
0
 62
     7
440
 16777216
100
AcDbTrace
 10
1310.569735373701
 20
737.1891447210252
 30
0.0
 11
1316.569735373702
 21
737.1891447210252
 31
0.0
 12
1313.569735373701
 22
755.1891447210253
 32
0.0
 13
1313.569735373701
 23
755.1891447210253
 33
0.0
  0
SOLID
  5
2DE
330
2B4
100
AcDbEntity
  8
0
 62
     7
440
 16777216
100
AcDbTrace
 10
1310.569735373701
 20
370.1887108794628
 30
0.0
 11
1316.569735373701
 21
370.1887108794628
 31
0.0
 12
1313.569735373701
 22
352.1887108794627
 32
0.0
 13
1313.569735373701
 23
352.1887108794627
 33
0.0
  0
MTEXT
  5
2DF
330
2B4
100
AcDbEntity
  8
0
 62
     7
440
 16777216
100
AcDbMText
 10
1301.569735373701
 20
553.6889278002441
 30
0.0
 40
20.0
 41
0.0
 46
0.0
 71
     5
 72
     1
  1
403
 11
0.0000000000000001
 21
1.0
 31
0.0
 73
     1
 44
1.0
  0
POINT
  5
2E0
330
2B4
100
AcDbEntity
  8
Defpoints
 62
     0
440
 16777216
100
AcDbPoint
 10
1304.341940496761
 20
755.1891447210253
 30
0.0
  0
POINT
  5
2E1
330
2B4
100
AcDbEntity
  8
Defpoints
 62
     0
440
 16777216
100
AcDbPoint
 10
1306.450272516989
 20
352.1887108794627
 30
0.0
  0
POINT
  5
2E2
330
2B4
100
AcDbEntity
  8
Defpoints
 62
     0
440
 16777216
100
AcDbPoint
 10
1313.569735373701
 20
352.1887108794627
 30
0.0
  0
ENDBLK
  5
2BF
330
2B4
100
AcDbEntity
  8
0
100
AcDbBlockEnd
  0
BLOCK
  5
2CC
330
2C0
100
AcDbEntity
  8
0
100
AcDbBlockBegin
  2
*D5
 70
     1
 10
0.0
 20
0.0
 30
0.0
  3
*D5
  1

  0
LINE
  5
2E3
330
2C0
100
AcDbEntity
  8
0
 62
    96
440
 16777216
370
    13
100
AcDbLine
 10
1377.672930837918
 20
764.6293121468957
 30
0.0
 11
1377.672930837918
 21
769.9996435138166
 31
0.0
  0
LINE
  5
2E4
330
2C0
100
AcDbEntity
  8
0
 62
    96
440
 16777216
370
    13
100
AcDbLine
 10
1410.672930837918
 20
762.8799624723873
 30
0.0
 11
1410.672930837918
 21
769.9996435138166
 31
0.0
  0
LINE
  5
2E5
330
2C0
100
AcDbEntity
  8
0
 62
     7
440
 16777216
370
    18
100
AcDbLine
 10
1359.672930837918
 20
766.9996435138166
 30
0.0
 11
1341.672930837918
 21
766.9996435138166
 31
0.0
  0
LINE
  5
2E6
330
2C0
100
AcDbEntity
  8
0
 62
     7
440
 16777216
370
    18
100
AcDbLine
 10
1428.672930837918
 20
766.9996435138166
 30
0.0
 11
1446.672930837918
 21
766.9996435138166
 31
0.0
  0
LINE
  5
2E7
330
2C0
100
AcDbEntity
  8
0
 62
     7
440
 16777216
370
    18
100
AcDbLine
 10
1377.672930837918
 20
766.9996435138166
 30
0.0
 11
1410.672930837918
 21
766.9996435138166
 31
0.0
  0
SOLID
  5
2E8
330
2C0
100
AcDbEntity
  8
0
 62
     7
440
 16777216
100
AcDbTrace
 10
1359.672930837918
 20
769.9996435138166
 30
0.0
 11
1359.672930837918
 21
763.9996435138166
 31
0.0
 12
1377.672930837918
 22
766.9996435138166
 32
0.0
 13
1377.672930837918
 23
766.9996435138166
 33
0.0
  0
SOLID
  5
2E9
330
2C0
100
AcDbEntity
  8
0
 62
     7
440
 16777216
100
AcDbTrace
 10
1428.672930837918
 20
769.9996435138166
 30
0.0
 11
1428.672930837918
 21
763.9996435138166
 31
0.0
 12
1410.672930837918
 22
766.9996435138166
 32
0.0
 13
1410.672930837918
 23
766.9996435138166
 33
0.0
  0
MTEXT
  5
2EA
330
2C0
100
AcDbEntity
  8
0
 62
     7
440
 16777216
100
AcDbMText
 10
1394.172930837918
 20
778.9996435138166
 30
0.0
 40
20.0
 41
0.0
 46
0.0
 71
     5
 72
     1
  1
33
 73
     1
 44
1.0
  0
POINT
  5
2EB
330
2C0
100
AcDbEntity
  8
Defpoints
 62
     0
440
 16777216
100
AcDbPoint
 10
1377.672930837918
 20
763.6293121468956
 30
0.0
  0
POINT
  5
2EC
330
2C0
100
AcDbEntity
  8
Defpoints
 62
     0
440
 16777216
100
AcDbPoint
 10
1410.672930837918
 20
761.8799624723873
 30
0.0
  0
POINT
  5
2ED
330
2C0
100
AcDbEntity
  8
Defpoints
 62
     0
440
 16777216
100
AcDbPoint
 10
1410.672930837918
 20
766.9996435138166
 30
0.0
  0
ENDBLK
  5
2CD
330
2C0
100
AcDbEntity
  8
0
100
AcDbBlockEnd
  0
BLOCK
  5
2D8
330
2CE
100
AcDbEntity
  8
0
100
AcDbBlockBegin
  2
*D6
 70
     1
 10
0.0
 20
0.0
 30
0.0
  3
*D6
  1

  0
LINE
  5
2EE
330
2CE
100
AcDbEntity
  8
0
 62
    96
440
 16777216
370
    13
100
AcDbLine
 10
1284.260474457843
 20
760.7583053034714
 30
0.0
 11
1284.260474457843
 21
773.0495594461581
 31
0.0
  0
LINE
  5
2EF
330
2CE
100
AcDbEntity
  8
0
 62
    96
440
 16777216
370
    13
100
AcDbLine
 10
1050.262894473454
 20
760.126044588856
 30
0.0
 11
1050.262894473454
 21
773.0495594461581
 31
0.0
  0
LINE
  5
2F0
330
2CE
100
AcDbEntity
  8
0
 62
     7
440
 16777216
370
    18
100
AcDbLine
 10
1266.260474457843
 20
770.0495594461581
 30
0.0
 11
1068.262894473454
 21
770.0495594461581
 31
0.0
  0
SOLID
  5
2F1
330
2CE
100
AcDbEntity
  8
0
 62
     7
440
 16777216
100
AcDbTrace
 10
1266.260474457843
 20
773.0495594461581
 30
0.0
 11
1266.260474457843
 21
767.0495594461581
 31
0.0
 12
1284.260474457843
 22
770.0495594461581
 32
0.0
 13
1284.260474457843
 23
770.0495594461581
 33
0.0
  0
SOLID
  5
2F2
330
2CE
100
AcDbEntity
  8
0
 62
     7
440
 16777216
100
AcDbTrace
 10
1068.262894473454
 20
773.0495594461581
 30
0.0
 11
1068.262894473454
 21
767.0495594461581
 31
0.0
 12
1050.262894473454
 22
770.0495594461581
 32
0.0
 13
1050.262894473454
 23
770.0495594461581
 33
0.0
  0
MTEXT
  5
2F3
330
2CE
100
AcDbEntity
  8
0
 62
     7
440
 16777216
100
AcDbMText
 10
1167.261684465648
 20
782.0495594461581
 30
0.0
 40
20.0
 41
0.0
 46
0.0
 71
     5
 72
     1
  1
234
 73
     1
 44
1.0
  0
POINT
  5
2F4
330
2CE
100
AcDbEntity
  8
Defpoints
 62
     0
440
 16777216
100
AcDbPoint
 10
1284.260474457843
 20
759.7583053034713
 30
0.0
  0
POINT
  5
2F5
330
2CE
100
AcDbEntity
  8
Defpoints
 62
     0
440
 16777216
100
AcDbPoint
 10
1050.262894473454
 20
759.126044588856
 30
0.0
  0
POINT
  5
2F6
330
2CE
100
AcDbEntity
  8
Defpoints
 62
     0
440
 16777216
100
AcDbPoint
 10
1050.262894473454
 20
770.0495594461581
 30
0.0
  0
ENDBLK
  5
2D9
330
2CE
100
AcDbEntity
  8
0
100
AcDbBlockEnd
  0
ENDSEC
  0
SECTION
  2
ENTITIES
  0
DIMENSION
  5
1B8
330
1F
100
AcDbEntity
  8
0
100
AcDbDimension
280
     0
  2
*D4
 10
1313.569735373701
 20
352.1887108794627
 30
0.0
 11
1301.569735373701
 21
553.6889278002441
 31
0.0
 70
    32
 71
     5
 42
403.0004338415626
 73
     0
 74
     0
 75
     0
  3
6
100
AcDbAlignedDimension
 13
1304.341940496761
 23
755.1891447210253
 33
0.0
 14
1306.450272516989
 24
352.1887108794627
 34
0.0
 50
90.0
100
AcDbRotatedDimension
1001
ACAD
1000
DSTYLE
1002
{
1070
    41
1040
18.0
1070
   140
1040
20.0
1070
   147
1040
2.0
1070
   176
1070
     7
1070
   178
1070
     7
1070
   340
1005
11
1002
}
  0
LINE
  5
1B9
330
1F
100
AcDbEntity
  8
0
370
    40
100
AcDbLine
 10
1278.550474457843
 20
661.1891447210257
 30
0.0
 11
1282.050474457843
 21
661.1891447210257
 31
0.0
  0
LINE
  5
1BA
330
1F
100
AcDbEntity
  8
0
370
    40
100
AcDbLine
 10
1275.550474457843
 20
661.4834499706296
 30
0.0
 11
1275.550474457843
 21
650.6891447210253
 31
0.0
  0
LINE
  5
1BB
330
1F
100
AcDbEntity
  8
0
370
    40
100
AcDbLine
 10
1285.050474457843
 20
655.6495004128759
 30
0.0
 11
1285.050474457843
 21
654.7036597878148
 31
0.0
  0
LINE
  5
1BC
330
1F
100
AcDbEntity
  8
0
370
    40
100
AcDbLine
 10
1278.550474457843
 20
649.1891447210252
 30
0.0
 11
1282.050474457843
 21
649.1891447210252
 31
0.0
  0
LINE
  5
1BD
330
1F
100
AcDbEntity
  8
0
370
    40
100
AcDbLine
 10
1282.050474457843
 20
660.3865013696143
 30
0.0
 11
1282.050474457843
 21
649.1891447210252
 31
0.0
  0
LINE
  5
1BE
330
1F
100
AcDbEntity
  8
0
370
    40
100
AcDbLine
 10
1283.050474457843
 20
659.6676903152017
 30
0.0
 11
1283.050474457843
 21
650.6854698854894
 31
0.0
  0
LINE
  5
1BF
330
1F
100
AcDbEntity
  8
0
370
    40
100
AcDbLine
 10
1282.033908823261
 20
661.1615911340865
 30
0.0
 11
1282.033908823261
 21
659.6719883462303
 31
0.0
  0
LINE
  5
1C0
330
1F
100
AcDbEntity
  8
0
370
    40
100
AcDbLine
 10
1282.033908823261
 20
661.2147908987209
 30
0.0
 11
1283.045627246106
 21
659.6719883462303
 31
0.0
  0
LINE
  5
1C1
330
1F
100
AcDbEntity
  8
0
370
    40
100
AcDbLine
 10
1282.033908823261
 20
649.1915690666045
 30
0.0
 11
1283.045627246106
 21
650.6811718544601
 31
0.0
  0
ARC
  5
1C2
330
1F
100
AcDbEntity
  8
0
370
    40
100
AcDbCircle
 10
1279.063870122847
 20
655.1765801003455
 30
0.0
 40
6.005254789415253
100
AcDbArc
 50
311.5943642973402
 51
48.40563570265983
  0
LINE
  5
1C3
330
1F
100
AcDbEntity
  8
0
370
    40
100
AcDbLine
 10
1278.550474457843
 20
661.1891447210254
 30
0.0
 11
1278.550474457843
 21
649.1891447210252
 31
0.0
  0
LINE
  5
1C4
330
1F
100
AcDbEntity
  8
0
370
    40
100
AcDbLine
 10
1277.550474457843
 20
659.6891447210253
 30
0.0
 11
1277.550474457843
 21
650.6891447210257
 31
0.0
  0
LINE
  5
1C5
330
1F
100
AcDbEntity
  8
0
370
    40
100
AcDbLine
 10
1278.559505604486
 20
661.1720685336242
 30
0.0
 11
1277.555255034388
 21
659.6843559499218
 31
0.0
  0
LINE
  5
1C6
330
1F
100
AcDbEntity
  8
0
370
    40
100
AcDbLine
 10
1278.559505604486
 20
649.2011743046888
 30
0.0
 11
1277.555255034388
 21
650.6888868883914
 31
0.0
  0
LINE
  5
1C7
330
1F
100
AcDbEntity
  8
0
370
    40
100
AcDbLine
 10
1275.58138052532
 20
661.4834499706296
 30
0.0
 11
1272.533998365976
 21
661.4834499706296
 31
0.0
  0
LINE
  5
1C8
330
1F
100
AcDbEntity
  8
0
370
    40
100
AcDbLine
 10
1272.603257355115
 20
661.4834499706296
 30
0.0
 11
1272.603257355115
 21
659.1653865409099
 31
0.0
  0
LINE
  5
1C9
330
1F
100
AcDbEntity
  8
0
370
    40
100
AcDbLine
 10
1275.962304011098
 20
650.6891447210257
 30
0.0
 11
1275.962304011098
 21
650.6888868883914
 31
0.0
  0
LINE
  5
1CA
330
1F
100
AcDbEntity
  8
0
370
    40
100
AcDbLine
 10
1276.068671279772
 20
659.6647307542086
 30
0.0
 11
1276.068671279772
 21
650.6944918542902
 31
0.0
  0
LINE
  5
1CB
330
1F
100
AcDbEntity
  8
0
370
    40
100
AcDbLine
 10
1275.550474457843
 20
650.6891447210253
 30
0.0
 11
1277.550474457843
 21
650.6891447210253
 31
0.0
  0
LINE
  5
1CC
330
1F
100
AcDbEntity
  8
0
370
    40
100
AcDbLine
 10
1275.550474457843
 20
659.6891447210256
 30
0.0
 11
1277.550474457843
 21
659.6891447210256
 31
0.0
  0
ARC
  5
1CD
330
1F
100
AcDbEntity
  8
0
370
    40
100
AcDbCircle
 10
1270.052663027783
 20
656.9166666374404
 30
0.0
 40
2.759342087950915
100
AcDbArc
 50
27.4615148610674
 51
152.5384851389326
  0
ARC
  5
1CE
330
1F
100
AcDbEntity
  8
0
370
    40
100
AcDbCircle
 10
1270.052663027783
 20
653.4504438137739
 30
0.0
 40
2.759342087950915
100
AcDbArc
 50
207.2002228211918
 51
332.7997771788081
  0
ARC
  5
1CF
330
1F
100
AcDbEntity
  8
0
370
    40
100
AcDbCircle
 10
1065.260705903514
 20
653.4504438137739
 30
0.0
 40
2.759342087950915
100
AcDbArc
 50
207.2002228211918
 51
332.7997771788081
  0
ARC
  5
1D0
330
1F
100
AcDbEntity
  8
0
370
    40
100
AcDbCircle
 10
1065.260705903514
 20
656.9166666374404
 30
0.0
 40
2.759342087950915
100
AcDbArc
 50
27.4615148610674
 51
152.5384851389326
  0
LINE
  5
1D1
330
1F
100
AcDbEntity
  8
0
370
    40
100
AcDbLine
 10
1059.762894473454
 20
659.6891447210256
 30
0.0
 11
1057.762894473454
 21
659.6891447210256
 31
0.0
  0
LINE
  5
1D2
330
1F
100
AcDbEntity
  8
0
370
    40
100
AcDbLine
 10
1059.762894473454
 20
650.6891447210253
 30
0.0
 11
1057.762894473454
 21
650.6891447210253
 31
0.0
  0
LINE
  5
1D3
330
1F
100
AcDbEntity
  8
0
370
    40
100
AcDbLine
 10
1059.244697651525
 20
659.6647307542086
 30
0.0
 11
1059.244697651525
 21
650.6944918542902
 31
0.0
  0
LINE
  5
1D4
330
1F
100
AcDbEntity
  8
0
370
    40
100
AcDbLine
 10
1059.351064920199
 20
650.6891447210257
 30
0.0
 11
1059.351064920199
 21
650.6888868883914
 31
0.0
  0
LINE
  5
1D5
330
1F
100
AcDbEntity
  8
0
370
    40
100
AcDbLine
 10
1062.710111576182
 20
661.4834499706296
 30
0.0
 11
1062.710111576182
 21
659.1653865409099
 31
0.0
  0
LINE
  5
1D6
330
1F
100
AcDbEntity
  8
0
370
    40
100
AcDbLine
 10
1059.731988405977
 20
661.4834499706296
 30
0.0
 11
1062.779370565321
 21
661.4834499706296
 31
0.0
  0
LINE
  5
1D7
330
1F
100
AcDbEntity
  8
0
370
    40
100
AcDbLine
 10
1056.753863326811
 20
649.2011743046888
 30
0.0
 11
1057.758113896909
 21
650.6888868883914
 31
0.0
  0
LINE
  5
1D8
330
1F
100
AcDbEntity
  8
0
370
    40
100
AcDbLine
 10
1056.753863326811
 20
661.1720685336242
 30
0.0
 11
1057.758113896909
 21
659.6843559499218
 31
0.0
  0
LINE
  5
1D9
330
1F
100
AcDbEntity
  8
0
370
    40
100
AcDbLine
 10
1057.762894473454
 20
659.6891447210253
 30
0.0
 11
1057.762894473454
 21
650.6891447210257
 31
0.0
  0
LINE
  5
1DA
330
1F
100
AcDbEntity
  8
0
370
    40
100
AcDbLine
 10
1056.762894473454
 20
661.1891447210254
 30
0.0
 11
1056.762894473454
 21
649.1891447210252
 31
0.0
  0
ARC
  5
1DB
330
1F
100
AcDbEntity
  8
0
370
    40
100
AcDbCircle
 10
1056.24949880845
 20
655.1765801003455
 30
0.0
 40
6.005254789415253
100
AcDbArc
 50
131.5943642973401
 51
228.4056357026598
  0
LINE
  5
1DC
330
1F
100
AcDbEntity
  8
0
370
    40
100
AcDbLine
 10
1053.279460108037
 20
649.1915690666045
 30
0.0
 11
1052.267741685191
 21
650.6811718544601
 31
0.0
  0
LINE
  5
1DD
330
1F
100
AcDbEntity
  8
0
370
    40
100
AcDbLine
 10
1053.279460108037
 20
661.2147908987209
 30
0.0
 11
1052.267741685191
 21
659.6719883462303
 31
0.0
  0
LINE
  5
1DE
330
1F
100
AcDbEntity
  8
0
370
    40
100
AcDbLine
 10
1053.279460108037
 20
661.1615911340865
 30
0.0
 11
1053.279460108037
 21
659.6719883462303
 31
0.0
  0
LINE
  5
1DF
330
1F
100
AcDbEntity
  8
0
370
    40
100
AcDbLine
 10
1052.262894473454
 20
659.6676903152017
 30
0.0
 11
1052.262894473454
 21
650.6854698854894
 31
0.0
  0
LINE
  5
1E0
330
1F
100
AcDbEntity
  8
0
370
    40
100
AcDbLine
 10
1053.262894473454
 20
660.3865013696143
 30
0.0
 11
1053.262894473454
 21
649.1891447210252
 31
0.0
  0
LINE
  5
1E1
330
1F
100
AcDbEntity
  8
0
370
    40
100
AcDbLine
 10
1056.762894473454
 20
649.1891447210252
 30
0.0
 11
1053.262894473454
 21
649.1891447210252
 31
0.0
  0
LINE
  5
1E2
330
1F
100
AcDbEntity
  8
0
370
    40
100
AcDbLine
 10
1050.262894473454
 20
655.6495004128759
 30
0.0
 11
1050.262894473454
 21
654.7036597878148
 31
0.0
  0
LINE
  5
1E3
330
1F
100
AcDbEntity
  8
0
370
    40
100
AcDbLine
 10
1059.762894473454
 20
661.4834499706296
 30
0.0
 11
1059.762894473454
 21
650.6891447210253
 31
0.0
  0
LINE
  5
1E4
330
1F
100
AcDbEntity
  8
0
370
    40
100
AcDbLine
 10
1056.762894473454
 20
661.1891447210257
 30
0.0
 11
1053.262894473454
 21
661.1891447210257
 31
0.0
  0
CIRCLE
  5
1E5
330
1F
100
AcDbEntity
  8
0
370
    40
100
AcDbCircle
 10
1167.656684465649
 20
655.1891447210253
 30
0.0
 40
100.0
  0
ARC
  5
1E6
330
1F
100
AcDbEntity
  8
0
370
    40
100
AcDbCircle
 10
1167.656684465649
 20
655.1891447210253
 30
0.0
 40
108.0
100
AcDbArc
 50
182.3880154632728
 51
270.0
  0
ARC
  5
1E7
330
1F
100
AcDbEntity
  8
0
370
    40
100
AcDbCircle
 10
1167.656684465649
 20
655.1891447210253
 30
0.0
 40
105.0
100
AcDbArc
 50
177.8167753538768
 51
2.183224646123203
  0
CIRCLE
  5
1E8
330
1F
100
AcDbEntity
  8
0
370
    40
100
AcDbCircle
 10
1167.656684465649
 20
655.1891447210253
 30
0.0
 40
95.0
  0
CIRCLE
  5
1E9
330
1F
100
AcDbEntity
  8
0
370
    40
100
AcDbCircle
 10
1167.656684465649
 20
655.1891447210253
 30
0.0
 40
100.0
  0
ARC
  5
1EA
330
1F
100
AcDbEntity
  8
0
370
    40
100
AcDbCircle
 10
1167.656684465649
 20
655.1891447210253
 30
0.0
 40
108.0
100
AcDbArc
 50
270.0
 51
2.122551362138703
  0
CIRCLE
  5
1EB
330
1F
100
AcDbEntity
  8
0
370
    40
100
AcDbCircle
 10
1167.656684465649
 20
655.1891447210253
 30
0.0
 40
90.0
  0
HATCH
  5
1EC
330
1F
100
AcDbEntity
  8
0
  6
Continuous
370
    15
100
AcDbHatch
 10
0.0
 20
0.0
 30
0.0
210
0.0
220
0.0
230
1.0
  2
ANGLE
 70
     0
 71
     0
 91
        2
 92
        7
 72
     0
 73
     1
 93
        4
 10
1167.65668446565
 20
532.1891447210254
 10
1162.656684465649
 20
532.189144721025
 10
1162.656684465649
 20
527.1891447210252
 10
1167.65668446565
 20
527.1891447210252
 97
        0
 92
        7
 72
     0
 73
     1
 93
        4
 10
1172.656684465649
 20
532.1891447210254
 10
1167.656684465649
 20
532.1891447210254
 10
1167.656684465649
 20
527.189144721025
 10
1172.656684465649
 20
527.1891447210252
 97
        0
 75
     0
 76
     1
 52
0.0
 41
0.25
 77
     0
 78
     2
 53
0.0
 43
-4727.846102565571
 44
-956.2264630766533
 45
0.0
 46
1.74625
 79
     2
 49
1.27
 49
-0.4762500000000001
 53
90.0
 43
-4727.846102565571
 44
-956.2264630766533
 45
-1.74625
 46
0.0000000000000001
 79
     2
 49
1.27
 49
-0.4762500000000001
 47
0.0420853315607675
 98
        2
 10
1166.376311867713
 20
530.1964372142967
 10
1169.366547530965
 20
530.028097225405
  0
HATCH
  5
1ED
330
1F
100
AcDbEntity
  8
0
  6
Continuous
370
    15
100
AcDbHatch
 10
0.0
 20
0.0
 30
0.0
210
0.0
220
0.0
230
1.0
  2
ANGLE
 70
     0
 71
     0
 91
        2
 92
        7
 72
     0
 73
     1
 93
        4
 10
1172.65668446565
 20
532.1891447210254
 10
1167.65668446565
 20
532.1891447210254
 10
1167.656684465649
 20
527.189144721025
 10
1172.656684465649
 20
527.1891447210252
 97
        0
 92
        7
 72
     0
 73
     1
 93
        4
 10
1167.656684465649
 20
532.1891447210254
 10
1162.65668446565
 20
532.1891447210254
 10
1162.65668446565
 20
527.1891447210255
 10
1167.656684465649
 20
527.1891447210255
 97
        0
 75
     0
 76
     1
 52
0.0
 41
0.5
 77
     0
 78
     2
 53
0.0
 43
-4727.846102565571
 44
-956.2264630766533
 45
0.0
 46
3.4925
 79
     2
 49
2.54
 49
-0.9525
 53
90.0
 43
-4727.846102565571
 44
-956.2264630766533
 45
-3.4925
 46
0.0000000000000002
 79
     2
 49
2.54
 49
-0.9525
 47
0.0420853315607675
 98
        2
 10
1169.829830017284
 20
528.5551157313685
 10
1166.544784255377
 20
528.933874115147
  0
HATCH
  5
1EE
330
1F
100
AcDbEntity
  8
0
  6
Continuous
370
    15
100
AcDbHatch
 10
0.0
 20
0.0
 30
0.0
210
0.0
220
0.0
230
1.0
  2
ANGLE
 70
     0
 71
     0
 91
        2
 92
        7
 72
     0
 73
     1
 93
        4
 10
1167.656684465649
 20
532.1891447210254
 10
1162.65668446565
 20
532.1891447210254
 10
1162.65668446565
 20
527.1891447210255
 10
1167.656684465649
 20
527.1891447210255
 97
        0
 92
        7
 72
     0
 73
     1
 93
        4
 10
1172.656684465648
 20
532.1891447210254
 10
1167.65668446565
 20
532.1891447210254
 10
1167.656684465649
 20
527.1891447210252
 10
1172.656684465649
 20
527.1891447210252
 97
        0
 75
     0
 76
     1
 52
0.0
 41
1.0
 77
     0
 78
     2
 53
0.0
 43
-4727.846102565571
 44
-956.2264630766533
 45
0.0
 46
6.985
 79
     2
 49
5.08
 49
-1.905
 53
90.0
 43
-4727.846102565571
 44
-956.2264630766533
 45
-6.985
 46
0.0000000000000004
 79
     2
 49
5.08
 49
-1.905
 47
0.1785731346227889
 98
        2
 10
1165.642182551103
 20
529.3774110976276
 10
1170.288470173019
 20
529.5559938563995
  0
ARC
  5
1EF
330
1F
100
AcDbEntity
  8
0
  6
Continuous
370
    15
100
AcDbCircle
 10
1179.302689195648
 20
543.6603983615403
 30
0.0
 40
6.0
100
AcDbArc
 50
197.5901020240368
 51
217.4390455561141
  0
ARC
  5
1F0
330
1F
100
AcDbEntity
  8
0
  6
Continuous
370
    15
100
AcDbCircle
 10
1192.745391007858
 20
547.9221187605278
 30
0.0
 40
20.1020740591998
100
AcDbArc
 50
182.0896167351211
 51
197.5901020240368
  0
ARC
  5
1F1
330
1F
100
AcDbEntity
  8
0
  6
Continuous
370
    15
100
AcDbCircle
 10
1156.010679735652
 20
543.6603983615403
 30
0.0
 40
6.0
100
AcDbArc
 50
322.5609544438859
 51
342.4098979759632
  0
ARC
  5
1F2
330
1F
100
AcDbEntity
  8
0
  6
Continuous
370
    15
100
AcDbCircle
 10
1142.567977923441
 20
547.9221187605278
 30
0.0
 40
20.1020740591998
100
AcDbArc
 50
342.4098979759632
 51
357.9103832648789
  0
ARC
  5
1F3
330
1F
100
AcDbEntity
  8
0
  6
Continuous
370
    15
100
AcDbCircle
 10
1172.15668446565
 20
538.1891447210253
 30
0.0
 40
3.0
100
AcDbArc
 50
270.0
 51
37.43904555611417
  0
ARC
  5
1F4
330
1F
100
AcDbEntity
  8
0
  6
Continuous
370
    15
100
AcDbCircle
 10
1163.15668446565
 20
538.1891447210253
 30
0.0
 40
3.0
100
AcDbArc
 50
142.5609544438858
 51
270.0
  0
LINE
  5
1F5
330
1F
100
AcDbEntity
  8
0
  6
Continuous
370
    15
100
AcDbLine
 10
1172.15668446565
 20
535.189144721026
 30
0.0
 11
1163.15668446565
 21
535.1891447210253
 31
0.0
  0
LINE
  5
1F6
330
1F
100
AcDbEntity
  8
0
  6
Continuous
370
    15
100
AcDbLine
 10
1172.656684465648
 20
547.1891447210256
 30
0.0
 11
1162.65668446565
 21
547.1891447210253
 31
0.0
  0
LINE
  5
1F7
330
1F
100
AcDbEntity
  8
0
  6
Continuous
370
    15
100
AcDbLine
 10
1172.656684465648
 20
535.2311048294751
 30
0.0
 11
1172.656684465649
 21
527.189144721025
 31
0.0
  0
LINE
  5
1F8
330
1F
100
AcDbEntity
  8
0
  6
Continuous
370
    15
100
AcDbLine
 10
1162.656684465649
 20
535.2311048294754
 30
0.0
 11
1162.656684465649
 21
527.189144721025
 31
0.0
  0
LINE
  5
1F9
330
1F
100
AcDbEntity
  8
0
  6
Continuous
370
    15
100
AcDbLine
 10
1172.656684465648
 20
532.1891447210254
 30
0.0
 11
1162.65668446565
 21
532.1891447210254
 31
0.0
  0
ARC
  5
1FA
330
1F
100
AcDbEntity
  8
0
  6
Continuous
370
    35
100
AcDbCircle
 10
1167.656684465649
 20
373.2033908772917
 30
0.0
 40
5.0
100
AcDbArc
 50
126.86989764587
 51
53.13010235412992
  0
LINE
  5
1FB
330
1F
100
AcDbEntity
  8
0
  6
Continuous
370
    15
100
AcDbLine
 10
1148.90668446565
 20
383.6821585162866
 30
0.0
 11
1148.90668446565
 21
385.2033908772899
 31
0.0
  0
ARC
  5
1FC
330
1F
100
AcDbEntity
  8
0
  6
Continuous
370
    15
100
AcDbCircle
 10
1155.40668446565
 20
385.2033908772899
 30
0.0
 40
6.5
100
AcDbArc
 50
90.0
 51
180.0
  0
ARC
  5
1FD
330
1F
100
AcDbEntity
  8
0
  6
Continuous
370
    15
100
AcDbCircle
 10
1154.823034382841
 20
384.6805590658405
 30
0.0
 40
6.0
100
AcDbArc
 50
189.5785782959033
 51
275.000000000026
  0
LINE
  5
1FE
330
1F
100
AcDbEntity
  8
0
  6
Continuous
370
    15
100
AcDbLine
 10
1162.906684465649
 20
377.2033908772905
 30
0.0
 11
1172.40668446565
 21
377.2033908772903
 31
0.0
  0
LINE
  5
1FF
330
1F
100
AcDbEntity
  8
0
  6
Continuous
370
    15
100
AcDbLine
 10
1155.345968839326
 20
378.7033908772901
 30
0.0
 11
1172.40668446565
 21
378.7033908772903
 31
0.0
  0
LINE
  5
200
330
1F
100
AcDbEntity
  8
0
  6
Continuous
370
    15
100
AcDbLine
 10
1172.40668446565
 20
377.2033908772903
 30
0.0
 11
1172.406684465651
 21
393.2033908772906
 31
0.0
  0
LINE
  5
201
330
1F
100
AcDbEntity
  8
0
  6
Continuous
370
    15
100
AcDbLine
 10
1162.90668446565
 20
377.2033908772905
 30
0.0
 11
1162.90668446565
 21
393.2033908772901
 31
0.0
  0
LINE
  5
202
330
1F
100
AcDbEntity
  8
0
  6
Continuous
370
    15
100
AcDbLine
 10
1172.40668446565
 20
393.2033908772901
 30
0.0
 11
1162.906684465651
 21
393.2033908772901
 31
0.0
  0
LINE
  5
203
330
1F
100
AcDbEntity
  8
0
  6
Continuous
370
    15
100
AcDbLine
 10
1172.40668446565
 20
391.7033908772901
 30
0.0
 11
1155.40668446565
 21
391.7033908772899
 31
0.0
  0
LINE
  5
204
330
1F
100
AcDbEntity
  8
0
  6
Continuous
370
    35
100
AcDbLine
 10
1164.656684465649
 20
511.1891447210252
 30
0.0
 11
1164.656684465649
 21
393.2033908772898
 31
0.0
  0
LINE
  5
205
330
1F
100
AcDbEntity
  8
0
  6
Continuous
370
    35
100
AcDbLine
 10
1170.656684465649
 20
511.1891447210252
 30
0.0
 11
1170.656684465651
 21
393.2033908772903
 31
0.0
  0
LINE
  5
206
330
1F
100
AcDbEntity
  8
0
  6
Continuous
370
    15
100
AcDbLine
 10
1154.781629476802
 20
525.6891447210253
 30
0.0
 11
1172.40668446565
 21
525.6891447210248
 31
0.0
  0
ARC
  5
207
330
1F
100
AcDbEntity
  8
0
  6
Continuous
370
    15
100
AcDbCircle
 10
1154.86878521955
 20
519.6897777647118
 30
0.0
 40
6.0
100
AcDbArc
 50
84.99999999997401
 51
175.0000000000005
  0
ARC
  5
208
330
1F
100
AcDbEntity
  8
0
  6
Continuous
370
    15
100
AcDbCircle
 10
1155.30454850206
 20
519.1891447210252
 30
0.0
 40
6.5
100
AcDbArc
 50
180.0
 51
270.0
  0
LINE
  5
209
330
1F
100
AcDbEntity
  8
0
  6
Continuous
370
    15
100
AcDbLine
 10
1172.40668446565
 20
512.6891447210253
 30
0.0
 11
1155.30454850206
 21
512.6891447210253
 31
0.0
  0
LINE
  5
20A
330
1F
100
AcDbEntity
  8
0
  6
Continuous
370
    15
100
AcDbLine
 10
1172.40668446565
 20
511.1891447210252
 30
0.0
 11
1162.906684465651
 21
511.1891447210252
 31
0.0
  0
LINE
  5
20B
330
1F
100
AcDbEntity
  8
0
  6
Continuous
370
    15
100
AcDbLine
 10
1162.906684465649
 20
527.1891447210252
 30
0.0
 11
1162.90668446565
 21
511.1891447210252
 31
0.0
  0
LINE
  5
20C
330
1F
100
AcDbEntity
  8
0
  6
Continuous
370
    15
100
AcDbLine
 10
1172.656684465649
 20
527.1891447210252
 30
0.0
 11
1162.656684465649
 21
527.1891447210252
 31
0.0
  0
LINE
  5
20D
330
1F
100
AcDbEntity
  8
0
  6
Continuous
370
    15
100
AcDbLine
 10
1172.40668446565
 20
527.1891447210255
 30
0.0
 11
1172.406684465649
 21
511.1891447210252
 31
0.0
  0
CIRCLE
  5
20E
330
1F
100
AcDbEntity
  8
0
  6
Continuous
370
    15
100
AcDbCircle
 10
1148.627583136902
 20
451.8740269721534
 30
0.0
 40
3.5
  0
CIRCLE
  5
20F
330
1F
100
AcDbEntity
  8
0
  6
Continuous
370
    15
100
AcDbCircle
 10
1136.627583136902
 20
451.8740269721534
 30
0.0
 40
3.5
  0
CIRCLE
  5
210
330
1F
100
AcDbEntity
  8
0
  6
Continuous
370
    15
100
AcDbCircle
 10
1124.669075256751
 20
451.9237011870331
 30
0.0
 40
3.5
  0
CIRCLE
  5
211
330
1F
100
AcDbEntity
  8
0
  6
Continuous
370
    15
100
AcDbCircle
 10
1112.623237206232
 20
451.9237011870331
 30
0.0
 40
3.5
  0
LINE
  5
212
330
1F
100
AcDbEntity
  8
0
  6
Continuous
370
    15
100
AcDbLine
 10
1148.804548502062
 20
518.6935830666201
 30
0.0
 11
1148.891704244809
 21
519.6897777647113
 31
0.0
  0
LINE
  5
213
330
1F
100
AcDbEntity
  8
0
  6
Continuous
370
    35
100
AcDbLine
 10
1101.371157530563
 20
391.7033908772903
 30
0.0
 11
1101.371157530562
 21
452.1886256582448
 31
0.0
  0
LINE
  5
214
330
1F
100
AcDbEntity
  8
0
  6
Continuous
370
    35
100
AcDbLine
 10
1101.371157530563
 20
512.6891447210253
 30
0.0
 11
1101.371157530562
 21
452.1892299368658
 31
0.0
  0
LINE
  5
215
330
1F
100
AcDbEntity
  8
0
  6
Continuous
370
    35
100
AcDbLine
 10
1096.906574487954
 20
511.1891447210252
 30
0.0
 11
1096.906574487956
 21
393.2033908772903
 31
0.0
  0
LINE
  5
216
330
1F
100
AcDbEntity
  8
0
  6
Continuous
370
    35
100
AcDbLine
 10
1090.906574487954
 20
511.1891447210252
 30
0.0
 11
1090.906574487953
 21
393.2033908772903
 31
0.0
  0
LINE
  5
217
330
1F
100
AcDbEntity
  8
0
  6
Continuous
370
    15
100
AcDbLine
 10
1089.156574487953
 20
511.1891447210252
 30
0.0
 11
1098.656574487952
 21
511.1891447210252
 31
0.0
  0
LINE
  5
218
330
1F
100
AcDbEntity
  8
0
  6
Continuous
370
    15
100
AcDbLine
 10
1089.156574487953
 20
393.2033908772901
 30
0.0
 11
1098.656574487952
 21
393.2033908772901
 31
0.0
  0
LINE
  5
219
330
1F
100
AcDbEntity
  8
0
  6
Continuous
370
    35
100
AcDbLine
 10
1096.906574487954
 20
377.2033908772905
 30
0.0
 11
1096.906574487955
 21
376.5625744165184
 31
0.0
  0
LINE
  5
21A
330
1F
100
AcDbEntity
  8
0
  6
Continuous
370
    35
100
AcDbLine
 10
1090.906574487956
 20
377.2033908772905
 30
0.0
 11
1090.906574487955
 21
376.5625744165195
 31
0.0
  0
LINE
  5
21B
330
1F
100
AcDbEntity
  8
0
  6
Continuous
370
    15
100
AcDbLine
 10
1098.656574487954
 20
377.2033908772905
 30
0.0
 11
1089.156574487953
 21
377.2033908772903
 31
0.0
  0
LINE
  5
21C
330
1F
100
AcDbEntity
  8
0
  6
Continuous
370
    15
100
AcDbLine
 10
1101.284030737623
 20
512.6891447210253
 30
0.0
 11
1112.236460392814
 21
387.5023009198694
 31
0.0
  0
LINE
  5
21D
330
1F
100
AcDbEntity
  8
0
  6
Continuous
370
    15
100
AcDbLine
 10
1118.983433461474
 20
379.226325333776
 30
0.0
 11
1118.983433461474
 21
379.226325333776
 31
0.0
  0
LINE
  5
21E
330
1F
100
AcDbEntity
  8
0
  6
Continuous
370
    15
100
AcDbLine
 10
1106.171539277569
 20
525.6669459532623
 30
0.0
 11
1106.171539277569
 21
525.6669459532624
 31
0.0
  0
ARC
  5
21F
330
1F
100
AcDbEntity
  8
0
  6
Continuous
370
    15
100
AcDbCircle
 10
1106.694473734053
 20
519.6897777647118
 30
0.0
 40
6.0
100
AcDbArc
 50
4.999999999999459
 51
95.00000000002598
  0
ARC
  5
220
330
1F
100
AcDbEntity
  8
0
  6
Continuous
370
    15
100
AcDbCircle
 10
1118.460499004987
 20
385.2034935223264
 30
0.0
 40
6.0
100
AcDbArc
 50
190.5814529338032
 51
275.000000000026
  0
ARC
  5
221
330
1F
100
AcDbEntity
  8
0
  6
Continuous
370
    15
100
AcDbCircle
 10
1118.460499004987
 20
385.2034935223264
 30
0.0
 40
6.0
100
AcDbArc
 50
275.000000000026
 51
4.999999999999459
  0
CIRCLE
  5
222
330
1F
100
AcDbEntity
  8
0
  6
Continuous
370
    15
100
AcDbCircle
 10
1106.781629476802
 20
518.6935830666201
 30
0.0
 40
3.5
  0
CIRCLE
  5
223
330
1F
100
AcDbEntity
  8
0
  6
Continuous
370
    15
100
AcDbCircle
 10
1118.37334326224
 20
386.1996882204185
 30
0.0
 40
3.5
  0
CIRCLE
  5
224
330
1F
100
AcDbEntity
  8
0
  6
Continuous
370
    15
100
AcDbCircle
 10
1130.37334326224
 20
386.1996882204185
 30
0.0
 40
3.5
  0
CIRCLE
  5
225
330
1F
100
AcDbEntity
  8
0
  6
Continuous
370
    15
100
AcDbCircle
 10
1118.781629476802
 20
518.6935830666201
 30
0.0
 40
3.5
  0
ARC
  5
226
330
1F
100
AcDbEntity
  8
0
  6
Continuous
370
    15
100
AcDbCircle
 10
1130.460499004987
 20
385.2034935223264
 30
0.0
 40
6.0
100
AcDbArc
 50
275.000000000026
 51
4.999999999999459
  0
ARC
  5
227
330
1F
100
AcDbEntity
  8
0
  6
Continuous
370
    15
100
AcDbCircle
 10
1130.460499004987
 20
385.2034935223264
 30
0.0
 40
6.0
100
AcDbArc
 50
184.9999999999994
 51
275.000000000026
  0
ARC
  5
228
330
1F
100
AcDbEntity
  8
0
  6
Continuous
370
    15
100
AcDbCircle
 10
1118.694473734054
 20
519.6897777647118
 30
0.0
 40
6.0
100
AcDbArc
 50
4.999999999999459
 51
95.00000000002598
  0
ARC
  5
229
330
1F
100
AcDbEntity
  8
0
  6
Continuous
370
    15
100
AcDbCircle
 10
1118.694473734054
 20
519.6897777647118
 30
0.0
 40
6.0
100
AcDbArc
 50
95.00000000002598
 51
184.9999999999994
  0
LINE
  5
22A
330
1F
100
AcDbEntity
  8
0
  6
Continuous
370
    15
100
AcDbLine
 10
1118.171539277568
 20
525.6669459532623
 30
0.0
 11
1118.171539277569
 21
525.6669459532624
 31
0.0
  0
LINE
  5
22B
330
1F
100
AcDbEntity
  8
0
  6
Continuous
370
    15
100
AcDbLine
 10
1130.983433461474
 20
379.226325333776
 30
0.0
 11
1130.983433461474
 21
379.226325333776
 31
0.0
  0
LINE
  5
22C
330
1F
100
AcDbEntity
  8
0
  6
Continuous
370
    15
100
AcDbLine
 10
1112.717305545505
 20
519.166843308226
 30
0.0
 11
1124.483330816438
 21
384.6805590658405
 31
0.0
  0
CIRCLE
  5
22D
330
1F
100
AcDbEntity
  8
0
  6
Continuous
370
    15
100
AcDbCircle
 10
1142.460499004987
 20
385.2034935223264
 30
0.0
 40
3.5
  0
CIRCLE
  5
22E
330
1F
100
AcDbEntity
  8
0
  6
Continuous
370
    15
100
AcDbCircle
 10
1130.781629476802
 20
518.6935830666201
 30
0.0
 40
3.5
  0
ARC
  5
22F
330
1F
100
AcDbEntity
  8
0
  6
Continuous
370
    15
100
AcDbCircle
 10
1142.460499004987
 20
385.2034935223264
 30
0.0
 40
6.0
100
AcDbArc
 50
275.000000000026
 51
4.999999999999459
  0
ARC
  5
230
330
1F
100
AcDbEntity
  8
0
  6
Continuous
370
    15
100
AcDbCircle
 10
1142.460499004987
 20
385.2034935223264
 30
0.0
 40
6.0
100
AcDbArc
 50
184.9999999999994
 51
275.000000000026
  0
ARC
  5
231
330
1F
100
AcDbEntity
  8
0
  6
Continuous
370
    15
100
AcDbCircle
 10
1130.694473734053
 20
519.6897777647118
 30
0.0
 40
6.0
100
AcDbArc
 50
4.999999999999459
 51
95.00000000002598
  0
ARC
  5
232
330
1F
100
AcDbEntity
  8
0
  6
Continuous
370
    15
100
AcDbCircle
 10
1130.694473734054
 20
519.6897777647118
 30
0.0
 40
6.0
100
AcDbArc
 50
95.00000000002598
 51
184.9999999999994
  0
LINE
  5
233
330
1F
100
AcDbEntity
  8
0
  6
Continuous
370
    15
100
AcDbLine
 10
1130.171539277569
 20
525.6669459532623
 30
0.0
 11
1130.171539277569
 21
525.6669459532624
 31
0.0
  0
LINE
  5
234
330
1F
100
AcDbEntity
  8
0
  6
Continuous
370
    15
100
AcDbLine
 10
1142.983433461474
 20
379.226325333776
 30
0.0
 11
1142.983433461474
 21
379.226325333776
 31
0.0
  0
LINE
  5
235
330
1F
100
AcDbEntity
  8
0
  6
Continuous
370
    15
100
AcDbLine
 10
1124.717305545505
 20
519.166843308226
 30
0.0
 11
1136.483330816438
 21
384.6805590658405
 31
0.0
  0
CIRCLE
  5
236
330
1F
100
AcDbEntity
  8
0
  6
Continuous
370
    15
100
AcDbCircle
 10
1154.823034382841
 20
385.6767537639328
 30
0.0
 40
3.5
  0
CIRCLE
  5
237
330
1F
100
AcDbEntity
  8
0
  6
Continuous
370
    15
100
AcDbCircle
 10
1142.781629476802
 20
518.6935830666201
 30
0.0
 40
3.5
  0
ARC
  5
238
330
1F
100
AcDbEntity
  8
0
  6
Continuous
370
    15
100
AcDbCircle
 10
1142.694473734053
 20
519.6897777647118
 30
0.0
 40
6.0
100
AcDbArc
 50
4.999999999999459
 51
95.00000000002598
  0
ARC
  5
239
330
1F
100
AcDbEntity
  8
0
  6
Continuous
370
    15
100
AcDbCircle
 10
1142.694473734054
 20
519.6897777647118
 30
0.0
 40
6.0
100
AcDbArc
 50
95.00000000002598
 51
184.9999999999994
  0
LINE
  5
23A
330
1F
100
AcDbEntity
  8
0
  6
Continuous
370
    15
100
AcDbLine
 10
1142.171539277568
 20
525.6669459532623
 30
0.0
 11
1142.171539277569
 21
525.6669459532624
 31
0.0
  0
LINE
  5
23B
330
1F
100
AcDbEntity
  8
0
  6
Continuous
370
    15
100
AcDbLine
 10
1154.983433461474
 20
379.226325333776
 30
0.0
 11
1154.983433461474
 21
379.226325333776
 31
0.0
  0
LINE
  5
23C
330
1F
100
AcDbEntity
  8
0
  6
Continuous
370
    15
100
AcDbLine
 10
1136.717305545505
 20
519.166843308226
 30
0.0
 11
1148.483330816438
 21
384.6805590658405
 31
0.0
  0
LINE
  5
23D
330
1F
100
AcDbEntity
  8
0
  6
Continuous
370
    15
100
AcDbLine
 10
1148.717305545505
 20
519.166843308226
 30
0.0
 11
1159.868912647089
 21
391.7033908772901
 31
0.0
  0
CIRCLE
  5
23E
330
1F
100
AcDbEntity
  8
0
  6
Continuous
370
    15
100
AcDbCircle
 10
1106.827380313512
 20
385.6767537639328
 30
0.0
 40
3.5
  0
ARC
  5
23F
330
1F
100
AcDbEntity
  8
0
  6
Continuous
370
    15
100
AcDbCircle
 10
1106.740224570762
 20
384.6805590658405
 30
0.0
 40
6.0
100
AcDbArc
 50
264.999999999974
 51
350.4214217040967
  0
LINE
  5
240
330
1F
100
AcDbEntity
  8
0
  6
Continuous
370
    15
100
AcDbLine
 10
1106.217290114277
 20
378.7033908772901
 30
0.0
 11
1106.217290114277
 21
378.7033908772901
 31
0.0
  0
LINE
  5
241
330
1F
100
AcDbEntity
  8
0
  6
Continuous
370
    15
100
AcDbLine
 10
1106.600318180971
 20
451.9237011870327
 30
0.0
 11
1101.331723714854
 21
391.7033908772896
 31
0.0
  0
LINE
  5
242
330
1F
100
AcDbEntity
  8
0
  6
Continuous
370
    15
100
AcDbLine
 10
1119.029184298184
 20
525.1440114967761
 30
0.0
 11
1119.029184298185
 21
525.1440114967761
 31
0.0
  0
LINE
  5
243
330
1F
100
AcDbEntity
  8
0
  6
Continuous
370
    15
100
AcDbLine
 10
1155.008778823154
 20
451.9237011870347
 30
0.0
 11
1160.325066266502
 21
512.689144721025
 31
0.0
  0
LINE
  5
244
330
1F
100
AcDbEntity
  8
0
  6
Continuous
370
    15
100
AcDbLine
 10
1155.391806889846
 20
525.1440114967761
 30
0.0
 11
1155.391806889847
 21
525.1440114967761
 31
0.0
  0
CIRCLE
  5
245
330
1F
100
AcDbEntity
  8
0
  6
Continuous
370
    15
100
AcDbCircle
 10
1154.781716690612
 20
518.1706486101342
 30
0.0
 40
3.5
  0
LINE
  5
246
330
1F
100
AcDbEntity
  8
0
  6
Continuous
370
    15
100
AcDbLine
 10
1106.781629476802
 20
525.6891447210253
 30
0.0
 11
1089.156574487953
 21
525.6891447210248
 31
0.0
  0
LINE
  5
247
330
1F
100
AcDbEntity
  8
0
  6
Continuous
370
    15
100
AcDbLine
 10
1089.156574487953
 20
525.6891447210255
 30
0.0
 11
1106.258710451543
 21
525.6891447210253
 31
0.0
  0
LINE
  5
248
330
1F
100
AcDbEntity
  8
0
  6
Continuous
370
    15
100
AcDbLine
 10
1106.217290114277
 20
378.7033908772901
 30
0.0
 11
1089.156574487953
 21
378.7033908772903
 31
0.0
  0
LINE
  5
249
330
1F
100
AcDbEntity
  8
0
  6
Continuous
370
    15
100
AcDbLine
 10
1089.156574487953
 20
378.7033908772898
 30
0.0
 11
1106.156574487953
 21
378.7033908772898
 31
0.0
  0
LINE
  5
24A
330
1F
100
AcDbEntity
  8
0
  6
Continuous
370
    15
100
AcDbLine
 10
1089.156574487953
 20
391.7033908772901
 30
0.0
 11
1106.156574487953
 21
391.7033908772899
 31
0.0
  0
LINE
  5
24B
330
1F
100
AcDbEntity
  8
0
  6
Continuous
370
    15
100
AcDbLine
 10
1089.156574487953
 20
512.6891447210253
 30
0.0
 11
1106.258710451543
 21
512.6891447210253
 31
0.0
  0
LINE
  5
24C
330
1F
100
AcDbEntity
  8
图层4
100
AcDbLine
 10
1112.758710451543
 20
519.1891447210252
 30
0.0
 11
1112.758710451543
 21
519.1891447210252
 31
0.0
  0
ARC
  5
24D
330
1F
100
AcDbEntity
  8
0
  6
Continuous
370
    15
100
AcDbCircle
 10
1106.258710451543
 20
519.1891447210252
 30
0.0
 40
6.5
100
AcDbArc
 50
0.0
 51
90.0
  0
ARC
  5
24E
330
1F
100
AcDbEntity
  8
0
  6
Continuous
370
    15
100
AcDbCircle
 10
1106.258710451543
 20
519.1891447210252
 30
0.0
 40
6.5
100
AcDbArc
 50
270.0
 51
0.0
  0
LINE
  5
24F
330
1F
100
AcDbEntity
  8
图层4
100
AcDbLine
 10
1112.656574487953
 20
385.2033908772899
 30
0.0
 11
1112.656574487953
 21
385.2033908772901
 31
0.0
  0
ARC
  5
250
330
1F
100
AcDbEntity
  8
0
  6
Continuous
370
    15
100
AcDbCircle
 10
1106.156574487953
 20
385.2033908772899
 30
0.0
 40
6.5
100
AcDbArc
 50
0.0
 51
90.0
  0
ARC
  5
251
330
1F
100
AcDbEntity
  8
0
  6
Continuous
370
    15
100
AcDbCircle
 10
1106.156574487953
 20
385.2033908772899
 30
0.0
 40
6.5
100
AcDbArc
 50
270.0
 51
0.0
  0
LINE
  5
252
330
1F
100
AcDbEntity
  8
0
  6
Continuous
370
    15
100
AcDbLine
 10
1089.156574487954
 20
377.2033908772905
 30
0.0
 11
1089.156574487953
 21
393.2033908772906
 31
0.0
  0
LINE
  5
253
330
1F
100
AcDbEntity
  8
0
  6
Continuous
370
    15
100
AcDbLine
 10
1098.656574487954
 20
377.2033908772901
 30
0.0
 11
1098.656574487953
 21
393.2033908772901
 31
0.0
  0
LINE
  5
254
330
1F
100
AcDbEntity
  8
0
  6
Continuous
370
    15
100
AcDbLine
 10
1089.156574487953
 20
527.1891447210255
 30
0.0
 11
1089.156574487954
 21
511.1891447210252
 31
0.0
  0
LINE
  5
255
330
1F
100
AcDbEntity
  8
0
  6
Continuous
370
    15
100
AcDbLine
 10
1098.656574487954
 20
527.1891447210252
 30
0.0
 11
1098.656574487953
 21
511.1891447210252
 31
0.0
  0
LINE
  5
256
330
1F
100
AcDbEntity
  8
0
  6
Continuous
370
    15
100
AcDbLine
 10
1094.156574487954
 20
525.6891447210257
 30
0.0
 11
1094.156574487954
 21
512.6891447210257
 31
0.0
  0
LINE
  5
257
330
1F
100
AcDbEntity
  8
0
  6
Continuous
370
    15
100
AcDbLine
 10
1089.156574487953
 20
527.1891447210255
 30
0.0
 11
1098.656574487954
 21
527.1891447210252
 31
0.0
  0
LINE
  5
258
330
1F
100
AcDbEntity
  8
0
  6
Continuous
370
    35
100
AcDbLine
 10
1074.906574487954
 20
366.6887108794633
 30
0.0
 11
1074.906574487956
 21
452.1889277975553
 31
0.0
  0
LINE
  5
259
330
1F
100
AcDbEntity
  8
0
  6
Continuous
370
    35
100
AcDbLine
 10
1077.406574487955
 20
366.993043805551
 30
0.0
 11
1077.406574487956
 21
452.1888992557007
 31
0.0
  0
LINE
  5
25A
330
1F
100
AcDbEntity
  8
0
  6
Continuous
370
    35
100
AcDbLine
 10
1086.441991445346
 20
366.6887108794613
 30
0.0
 11
1086.441991445346
 21
452.1887961006785
 31
0.0
  0
LINE
  5
25B
330
1F
100
AcDbEntity
  8
0
  6
Continuous
370
    35
100
AcDbLine
 10
1112.906574487954
 20
366.6887108794681
 30
0.0
 11
1112.906574487954
 21
382.9332683222406
 31
0.0
  0
LINE
  5
25C
330
1F
100
AcDbEntity
  8
0
  6
Continuous
370
    35
100
AcDbLine
 10
1110.406574487954
 20
366.993043805561
 30
0.0
 11
1110.406574487955
 21
379.9310455871039
 31
0.0
  0
ARC
  5
25D
330
1F
100
AcDbEntity
  8
0
  6
Continuous
370
    35
100
AcDbCircle
 10
1093.906574487953
 20
371.2220442127953
 30
0.0
 40
19.53333333333254
100
AcDbArc
 50
193.4196736155158
 51
346.5803263844903
  0
ARC
  5
25E
330
1F
100
AcDbEntity
  8
0
  6
Continuous
370
    35
100
AcDbCircle
 10
1093.906574487953
 20
371.2220442127953
 30
0.0
 40
17.03333333333254
100
AcDbArc
 50
193.4196736155158
 51
346.5803263844903
  0
ARC
  5
25F
330
1F
100
AcDbEntity
  8
0
  6
Continuous
370
    35
100
AcDbCircle
 10
1093.906574487953
 20
371.2220442127953
 30
0.0
 40
8.733333333332543
100
AcDbArc
 50
303.3488952059473
 51
328.7291739815997
  0
LINE
  5
260
330
1F
100
AcDbEntity
  8
0
  6
Continuous
370
    35
100
AcDbLine
 10
1101.371157530562
 20
366.6887108794613
 30
0.0
 11
1101.371157530561
 21
378.7033908772898
 31
0.0
  0
CIRCLE
  5
261
330
1F
100
AcDbEntity
  8
0
  6
Continuous
370
    35
100
AcDbCircle
 10
1093.906574487954
 20
369.6887108740853
 30
0.0
 40
7.5
  0
ARC
  5
262
330
1F
100
AcDbEntity
  8
0
  6
Continuous
370
    35
100
AcDbCircle
 10
1093.906574487953
 20
533.1558113823153
 30
0.0
 40
8.733333333332543
100
AcDbArc
 50
123.3488952058859
 51
148.7291739815997
  0
LINE
  5
263
330
1F
100
AcDbEntity
  8
0
  6
Continuous
370
    35
100
AcDbLine
 10
1096.906574487954
 20
527.8152811785917
 30
0.0
 11
1096.906574487954
 21
527.189144721025
 31
0.0
  0
LINE
  5
264
330
1F
100
AcDbEntity
  8
0
  6
Continuous
370
    35
100
AcDbLine
 10
1090.906574487954
 20
527.8152811785917
 30
0.0
 11
1090.906574487954
 21
527.1891447210252
 31
0.0
  0
CIRCLE
  5
265
330
1F
100
AcDbEntity
  8
0
  6
Continuous
370
    35
100
AcDbCircle
 10
1093.906574487954
 20
534.6891447210256
 30
0.0
 40
7.5
  0
LINE
  5
266
330
1F
100
AcDbEntity
  8
0
  6
Continuous
370
    35
100
AcDbLine
 10
1101.371157530562
 20
537.6891447156494
 30
0.0
 11
1101.371157530562
 21
525.6891447210253
 31
0.0
  0
LINE
  5
267
330
1F
100
AcDbEntity
  8
0
  6
Continuous
370
    35
100
AcDbLine
 10
1086.441991445346
 20
537.6891447156494
 30
0.0
 11
1086.441991445346
 21
452.189059494432
 31
0.0
  0
ARC
  5
268
330
1F
100
AcDbEntity
  8
0
  6
Continuous
370
    35
100
AcDbCircle
 10
1093.906574487953
 20
533.1558113823153
 30
0.0
 40
8.733333333332543
100
AcDbArc
 50
31.27082601840027
 51
56.6511047940527
  0
ARC
  5
269
330
1F
100
AcDbEntity
  8
0
  6
Continuous
370
    35
100
AcDbCircle
 10
1093.906574487953
 20
533.1558113823153
 30
0.0
 40
17.03333333333254
100
AcDbArc
 50
13.41967361550966
 51
166.5803263844841
  0
ARC
  5
26A
330
1F
100
AcDbEntity
  8
0
  6
Continuous
370
    35
100
AcDbCircle
 10
1093.906574487953
 20
533.1558113823153
 30
0.0
 40
19.53333333333254
100
AcDbArc
 50
13.41967361550966
 51
166.5803263844841
  0
LINE
  5
26B
330
1F
100
AcDbEntity
  8
0
  6
Continuous
370
    35
100
AcDbLine
 10
1110.406574487954
 20
537.3848117895496
 30
0.0
 11
1110.406574487955
 21
524.4036199335678
 31
0.0
  0
LINE
  5
26C
330
1F
100
AcDbEntity
  8
0
  6
Continuous
370
    35
100
AcDbLine
 10
1077.406574487955
 20
537.3848117895597
 30
0.0
 11
1077.406574487956
 21
452.18895633941
 31
0.0
  0
LINE
  5
26D
330
1F
100
AcDbEntity
  8
0
  6
Continuous
370
    35
100
AcDbLine
 10
1112.906574487954
 20
537.6891447156425
 30
0.0
 11
1112.906574487956
 21
517.0034893967325
 31
0.0
  0
LINE
  5
26E
330
1F
100
AcDbEntity
  8
0
  6
Continuous
370
    35
100
AcDbLine
 10
1074.906574487954
 20
537.6891447156473
 30
0.0
 11
1074.906574487956
 21
452.1889277975553
 31
0.0
  0
LINE
  5
26F
330
1F
100
AcDbEntity
  8
0
  6
Continuous
370
    35
100
AcDbLine
 10
1086.406574487956
 20
486.1891447156487
 30
0.0
 11
1086.406574487955
 21
452.1890590900857
 31
0.0
  0
LINE
  5
270
330
1F
100
AcDbEntity
  8
0
  6
Continuous
370
    35
100
AcDbLine
 10
1101.406574487956
 20
486.1891447156487
 30
0.0
 11
1101.406574487956
 21
458.189144715649
 31
0.0
  0
LINE
  5
271
330
1F
100
AcDbEntity
  8
0
  6
Continuous
370
    35
100
AcDbLine
 10
1086.406574487956
 20
486.1891447156487
 30
0.0
 11
1086.406575730932
 21
486.1891452027937
 31
0.0
  0
LINE
  5
272
330
1F
100
AcDbEntity
  8
0
  6
Continuous
370
    35
100
AcDbLine
 10
1086.406574487956
 20
418.1891447156488
 30
0.0
 11
1086.406575730932
 21
418.1891442285039
 31
0.0
  0
LINE
  5
273
330
1F
100
AcDbEntity
  8
0
  6
Continuous
370
    35
100
AcDbLine
 10
1086.406574487956
 20
452.1890590900859
 30
0.0
 11
1086.406574487955
 21
484.6891447156486
 31
0.0
  0
LINE
  5
274
330
1F
100
AcDbEntity
  8
0
  6
Continuous
370
    35
100
AcDbLine
 10
1101.406574487956
 20
458.189144715649
 30
0.0
 11
1101.406574487956
 21
484.6891447156488
 31
0.0
  0
CIRCLE
  5
275
330
1F
100
AcDbEntity
  8
0
100
AcDbCircle
 10
1400.922930837919
 20
655.1891447210253
 30
0.0
 40
5.539644308149945
  0
ARC
  5
276
330
1F
100
AcDbEntity
  8
0
100
AcDbCircle
 10
1400.922930837919
 20
655.1891447210253
 30
0.0
 40
5.83394955775384
100
AcDbArc
 50
0.0
 51
180.0
  0
LINE
  5
277
330
1F
100
AcDbEntity
  8
0
100
AcDbLine
 10
1406.756880395673
 20
655.1891447210253
 30
0.0
 11
1406.756880395673
 21
546.7287890291731
 31
0.0
  0
LINE
  5
278
330
1F
100
AcDbEntity
  8
0
100
AcDbLine
 10
1395.088981280166
 20
655.1891447210253
 30
0.0
 11
1395.088981280166
 21
546.7287890291731
 31
0.0
  0
LINE
  5
279
330
1F
100
AcDbEntity
  8
0
100
AcDbLine
 10
1395.088981280166
 20
546.7287890291731
 30
0.0
 11
1395.900846972032
 21
546.7287890291731
 31
0.0
  0
CIRCLE
  5
27A
330
1F
100
AcDbEntity
  8
0
100
AcDbCircle
 10
1400.922930837919
 20
655.1891447210253
 30
0.0
 40
3.788523100856309
  0
ARC
  5
27B
330
1F
100
AcDbEntity
  8
PV-585
100
AcDbCircle
 10
1408.422930837918
 20
752.4787890291747
 30
0.0
 40
2.25
100
AcDbArc
 50
359.9999999999968
 51
90.0
  0
LINE
  5
27C
330
1F
100
AcDbEntity
  8
PV-585
100
AcDbLine
 10
1396.172930837918
 20
754.7287890291747
 30
0.0
 11
1408.422930837918
 21
754.7287890291747
 31
0.0
  0
ARC
  5
27D
330
1F
100
AcDbEntity
  8
PV-585
100
AcDbCircle
 10
1396.172930837918
 20
752.7287890291746
 30
0.0
 40
2.0
100
AcDbArc
 50
90.0
 51
180.0
  0
LINE
  5
27E
330
1F
100
AcDbEntity
  8
PV-585
100
AcDbLine
 10
1393.422930837918
 20
749.7287890291747
 30
0.0
 11
1394.172930837918
 21
749.7287890291747
 31
0.0
  0
ARC
  5
27F
330
1F
100
AcDbEntity
  8
PV-585
100
AcDbCircle
 10
1393.422930837918
 20
747.4787890291747
 30
0.0
 40
2.25
100
AcDbArc
 50
90.0
 51
180.0
  0
ARC
  5
280
330
1F
100
AcDbEntity
  8
PV-585
100
AcDbCircle
 10
1393.422930837918
 20
562.8995004128759
 30
0.0
 40
2.25
100
AcDbArc
 50
180.0
 51
270.0
  0
LINE
  5
281
330
1F
100
AcDbEntity
  8
PV-585
100
AcDbLine
 10
1393.422930837918
 20
560.6495004128759
 30
0.0
 11
1394.172930837918
 21
560.6495004128759
 31
0.0
  0
ARC
  5
282
330
1F
100
AcDbEntity
  8
PV-585
100
AcDbCircle
 10
1396.172930837918
 20
557.6495004128759
 30
0.0
 40
2.0
100
AcDbArc
 50
180.0
 51
237.1818279519704
  0
LINE
  5
283
330
1F
100
AcDbEntity
  8
PV-585
100
AcDbLine
 10
1406.756880395673
 20
555.6495004128757
 30
0.0
 11
1408.422930837918
 21
555.6495004128757
 31
0.0
  0
ARC
  5
284
330
1F
100
AcDbEntity
  8
PV-585
100
AcDbCircle
 10
1408.422930837918
 20
557.8995004128757
 30
0.0
 40
2.25
100
AcDbArc
 50
270.0
 51
0.0000000000032569
  0
LINE
  5
285
330
1F
100
AcDbEntity
  8
0
100
AcDbLine
 10
1391.172930837919
 20
747.4787890291747
 30
0.0
 11
1391.172930837919
 21
562.8995004128759
 31
0.0
  0
LINE
  5
286
330
1F
100
AcDbEntity
  8
0
100
AcDbLine
 10
1394.172930837918
 20
557.6495004128759
 30
0.0
 11
1394.172930837918
 21
752.7287890291746
 31
0.0
  0
LINE
  5
287
330
1F
100
AcDbEntity
  8
0
100
AcDbLine
 10
1410.672930837918
 20
557.3995004128759
 30
0.0
 11
1410.672930837918
 21
752.4787890291746
 31
0.0
  0
LINE
  5
288
330
1F
100
AcDbEntity
  8
0
  6
Continuous
370
    35
100
AcDbLine
 10
1383.422930837918
 20
352.142781415324
 30
0.0
 11
1383.422930837918
 21
552.2350741797867
 31
0.0
  0
LINE
  5
289
330
1F
100
AcDbEntity
  8
0
  6
Continuous
370
    35
100
AcDbLine
 10
1378.422930837918
 20
351.6887108794626
 30
0.0
 11
1378.422930837918
 21
552.6891447156479
 31
0.0
  0
LINE
  5
28A
330
1F
100
AcDbEntity
  8
0
  6
Continuous
370
    35
100
AcDbLine
 10
1382.154032854664
 20
351.6887108794626
 30
0.0
 11
1378.422930837918
 21
351.6887108794626
 31
0.0
  0
LINE
  5
28B
330
1F
100
AcDbEntity
  8
0
  6
Continuous
370
    35
100
AcDbLine
 10
1388.422930837919
 20
357.8772128057286
 30
0.0
 11
1388.422930837919
 21
546.5006427893821
 31
0.0
  0
LINE
  5
28C
330
1F
100
AcDbEntity
  8
0
  6
Continuous
370
    35
100
AcDbLine
 10
1382.154032854663
 20
552.6891447156478
 30
0.0
 11
1378.422930837918
 21
552.6891447156478
 31
0.0
  0
ARC
  5
28D
330
1F
100
AcDbEntity
  8
0
  6
Continuous
370
    35
100
AcDbCircle
 10
1382.154032854663
 20
550.6891447156479
 30
0.0
 40
2.0
100
AcDbArc
 50
31.32091473663161
 51
90.0
  0
LINE
  5
28E
330
1F
100
AcDbEntity
  8
0
  6
Continuous
370
    15
100
AcDbLine
 10
1405.922930837918
 20
547.1891447210256
 30
0.0
 11
1395.92293083792
 21
547.1891447210253
 31
0.0
  0
ARC
  5
28F
330
1F
100
AcDbEntity
  8
0
  6
Continuous
370
    15
100
AcDbCircle
 10
1375.834224295711
 20
547.9221187605278
 30
0.0
 40
20.1020740591998
100
AcDbArc
 50
343.4296049217705
 51
357.9103832648789
  0
ARC
  5
290
330
1F
100
AcDbEntity
  8
0
  6
Continuous
370
    15
100
AcDbCircle
 10
1426.011637380128
 20
547.9221187605278
 30
0.0
 40
20.1020740591998
100
AcDbArc
 50
182.0896167351211
 51
196.5703950782295
  0
LINE
  5
291
330
1F
100
AcDbEntity
  8
0
100
AcDbLine
 10
1405.945014703808
 20
546.7287890291731
 30
0.0
 11
1406.756880395673
 21
546.7287890291731
 31
0.0
  0
LINE
  5
292
330
1F
100
AcDbEntity
  8
0
100
AcDbLine
 10
1388.422930837918
 20
542.1891447210255
 30
0.0
 11
1408.422930837918
 21
542.1891447210255
 31
0.0
  0
LINE
  5
293
330
1F
100
AcDbEntity
  8
0
100
AcDbLine
 10
1388.422930837918
 20
527.1891447210253
 30
0.0
 11
1397.422930837918
 21
527.1891447210253
 31
0.0
  0
ARC
  5
294
330
1F
100
AcDbEntity
  8
0
100
AcDbCircle
 10
1387.422930837918
 20
546.500642789382
 30
0.0
 40
1.0
100
AcDbArc
 50
0.0000000000065138
 51
65.30946965746533
  0
ARC
  5
295
330
1F
100
AcDbEntity
  8
0
100
AcDbCircle
 10
1389.760006770699
 20
553.1684096163671
 30
0.0
 40
6.070601607343226
100
AcDbArc
 50
193.7180010006102
 51
251.5683716956639
  0
LINE
  5
296
330
1F
100
AcDbEntity
  8
0
  6
Continuous
370
    35
100
AcDbLine
 10
1408.422930837918
 20
527.1891447210253
 30
0.0
 11
1408.422930837919
 21
542.1891447210255
 31
0.0
  0
LINE
  5
297
330
1F
100
AcDbEntity
  8
0
  6
Continuous
370
    35
100
AcDbLine
 10
1393.422930837918
 20
527.1891447210253
 30
0.0
 11
1393.422930837919
 21
542.1891447210255
 31
0.0
  0
ARC
  5
298
330
1F
100
AcDbEntity
  8
0
100
AcDbCircle
 10
1389.760006770699
 20
351.2094459787437
 30
0.0
 40
6.070601607343226
100
AcDbArc
 50
108.431628304336
 51
166.2819989993898
  0
ARC
  5
299
330
1F
100
AcDbEntity
  8
0
100
AcDbCircle
 10
1387.422930837918
 20
357.8772128057287
 30
0.0
 40
1.0
100
AcDbArc
 50
294.6905303425347
 51
359.9999999999935
  0
ARC
  5
29A
330
1F
100
AcDbEntity
  8
0
  6
Continuous
370
    35
100
AcDbCircle
 10
1382.154032854663
 20
353.6887108794628
 30
0.0
 40
2.0
100
AcDbArc
 50
270.0
 51
328.6790852633684
  0
LINE
  5
29B
330
1F
100
AcDbEntity
  8
0
  6
Continuous
370
    35
100
AcDbLine
 10
1382.154032854663
 20
351.6887108794628
 30
0.0
 11
1378.422930837918
 21
351.6887108794628
 31
0.0
  0
LINE
  5
29C
330
1F
100
AcDbEntity
  8
0
  6
Continuous
370
    35
100
AcDbLine
 10
1393.422930837918
 20
377.1887108740854
 30
0.0
 11
1393.422930837919
 21
362.1887108740851
 31
0.0
  0
LINE
  5
29D
330
1F
100
AcDbEntity
  8
0
  6
Continuous
370
    35
100
AcDbLine
 10
1408.422930837918
 20
377.1887108740854
 30
0.0
 11
1408.422930837919
 21
362.1887108740851
 31
0.0
  0
LINE
  5
29E
330
1F
100
AcDbEntity
  8
0
100
AcDbLine
 10
1388.422930837918
 20
362.1887108740851
 30
0.0
 11
1408.422930837918
 21
362.1887108740851
 31
0.0
  0
LINE
  5
29F
330
1F
100
AcDbEntity
  8
0
100
AcDbLine
 10
1388.422930837918
 20
377.1887108740854
 30
0.0
 11
1397.422930837918
 21
377.1887108740854
 31
0.0
  0
LINE
  5
2A0
330
1F
100
AcDbEntity
  8
0
  6
Continuous
370
    35
100
AcDbLine
 10
1404.422930837919
 20
377.188710874085
 30
0.0
 11
1404.422930837919
 21
378.1887108740855
 31
0.0
  0
LINE
  5
2A1
330
1F
100
AcDbEntity
  8
0
  6
Continuous
370
    35
100
AcDbLine
 10
1397.422930837919
 20
377.188710874085
 30
0.0
 11
1397.422930837919
 21
378.1887108740855
 31
0.0
  0
LINE
  5
2A2
330
1F
100
AcDbEntity
  8
0
100
AcDbLine
 10
1395.922930837919
 20
378.1887108740855
 30
0.0
 11
1405.922930837919
 21
378.1887108740855
 31
0.0
  0
LINE
  5
2A3
330
1F
100
AcDbEntity
  8
0
100
AcDbLine
 10
1395.922930837919
 20
388.1887108740855
 30
0.0
 11
1405.922930837919
 21
388.1887108740855
 31
0.0
  0
LINE
  5
2A4
330
1F
100
AcDbEntity
  8
0
  6
Continuous
370
    35
100
AcDbLine
 10
1405.922930837919
 20
378.1887108740855
 30
0.0
 11
1405.922930837919
 21
388.1887108740855
 31
0.0
  0
LINE
  5
2A5
330
1F
100
AcDbEntity
  8
0
  6
Continuous
370
    35
100
AcDbLine
 10
1395.922930837919
 20
378.1887108740855
 30
0.0
 11
1395.922930837919
 21
388.1887108740855
 31
0.0
  0
ARC
  5
2A6
330
1F
100
AcDbEntity
  8
0
100
AcDbCircle
 10
1400.922930837919
 20
383.5240043335464
 30
0.0
 40
7.237813427927848
100
AcDbArc
 50
241.0810793753747
 51
298.9189206246253
  0
LINE
  5
2A7
330
1F
100
AcDbEntity
  8
0
100
AcDbLine
 10
1404.422930837919
 20
377.1887108740854
 30
0.0
 11
1408.422930837918
 21
377.1887108740854
 31
0.0
  0
LINE
  5
2A8
330
1F
100
AcDbEntity
  8
0
  6
Continuous
370
    35
100
AcDbLine
 10
1397.422930837919
 20
388.1887108740855
 30
0.0
 11
1397.422930837919
 21
516.1891447210252
 31
0.0
  0
LINE
  5
2A9
330
1F
100
AcDbEntity
  8
0
  6
Continuous
370
    35
100
AcDbLine
 10
1404.422930837919
 20
388.1887108740855
 30
0.0
 11
1404.422930837919
 21
516.1891447210252
 31
0.0
  0
LINE
  5
2AA
330
1F
100
AcDbEntity
  8
0
  6
Continuous
370
    35
100
AcDbLine
 10
1405.922930837919
 20
526.1891447210253
 30
0.0
 11
1405.922930837919
 21
516.1891447210252
 31
0.0
  0
LINE
  5
2AB
330
1F
100
AcDbEntity
  8
0
100
AcDbLine
 10
1395.922930837919
 20
516.1891447210252
 30
0.0
 11
1405.922930837919
 21
516.1891447210252
 31
0.0
  0
LINE
  5
2AC
330
1F
100
AcDbEntity
  8
0
  6
Continuous
370
    35
100
AcDbLine
 10
1395.922930837919
 20
526.1891447210253
 30
0.0
 11
1395.922930837919
 21
516.1891447210252
 31
0.0
  0
LINE
  5
2AD
330
1F
100
AcDbEntity
  8
0
100
AcDbLine
 10
1395.922930837919
 20
526.1891447210253
 30
0.0
 11
1405.922930837919
 21
526.1891447210253
 31
0.0
  0
ARC
  5
2AE
330
1F
100
AcDbEntity
  8
0
100
AcDbCircle
 10
1400.922930837919
 20
520.8538512615644
 30
0.0
 40
7.237813427927848
100
AcDbArc
 50
61.0810793753747
 51
118.9189206246253
  0
LINE
  5
2AF
330
1F
100
AcDbEntity
  8
0
100
AcDbLine
 10
1404.422930837919
 20
527.1891447210253
 30
0.0
 11
1408.422930837918
 21
527.1891447210253
 31
0.0
  0
LINE
  5
2B0
330
1F
100
AcDbEntity
  8
0
  6
Continuous
370
    35
100
AcDbLine
 10
1404.422930837919
 20
526.1891447210253
 30
0.0
 11
1404.422930837919
 21
527.1891447210256
 31
0.0
  0
LINE
  5
2B1
330
1F
100
AcDbEntity
  8
0
  6
Continuous
370
    35
100
AcDbLine
 10
1397.422930837919
 20
526.1891447210253
 30
0.0
 11
1397.422930837919
 21
527.1891447210256
 31
0.0
  0
DIMENSION
  5
2B2
330
1F
100
AcDbEntity
  8
0
100
AcDbDimension
280
     0
  2
*D5
 10
1410.672930837918
 20
766.9996435138166
 30
0.0
 11
1394.172930837918
 21
766.9996435138166
 31
0.0
 70
   160
 71
     5
 42
33.00000000000046
 73
     0
 74
     0
 75
     0
  3
6
100
AcDbAlignedDimension
 13
1377.672930837918
 23
763.6293121468956
 33
0.0
 14
1410.672930837918
 24
761.8799624723873
 34
0.0
100
AcDbRotatedDimension
1001
ACAD
1000
DSTYLE
1002
{
1070
    41
1040
18.0
1070
   140
1040
20.0
1070
   147
1040
2.0
1070
   176
1070
     7
1070
   178
1070
     7
1070
   340
1005
11
1002
}
  0
DIMENSION
  5
2B3
330
1F
100
AcDbEntity
  8
0
100
AcDbDimension
280
     0
  2
*D6
 10
1050.262894473454
 20
770.0495594461581
 30
0.0
 11
1167.261684465648
 21
782.0495594461581
 31
0.0
 70
    32
 71
     5
 42
233.9975799843887
 73
     0
 74
     0
 75
     0
  3
6
100
AcDbAlignedDimension
 13
1284.260474457843
 23
759.7583053034713
 33
0.0
 14
1050.262894473454
 24
759.126044588856
 34
0.0
100
AcDbRotatedDimension
1001
ACAD
1000
DSTYLE
1002
{
1070
    41
1040
18.0
1070
   140
1040
20.0
1070
   147
1040
2.0
1070
   176
1070
     7
1070
   178
1070
     7
1070
   340
1005
11
1002
}
  0
ENDSEC
  0
SECTION
  2
OBJECTS
  0
DICTIONARY
  5
C
330
0
100
AcDbDictionary
281
     1
  3
ACAD_CIP_PREVIOUS_PRODUCT_INFO
350
34A
  3
ACAD_COLOR
350
6B
  3
ACAD_DETAILVIEWSTYLE
350
342
  3
ACAD_GROUP
350
D
  3
ACAD_LAYOUT
350
1A
  3
ACAD_MATERIAL
350
6A
  3
ACAD_MLEADERSTYLE
350
33E
  3
ACAD_MLINESTYLE
350
17
  3
ACAD_PLOTSETTINGS
350
19
  3
ACAD_PLOTSTYLENAME
350
E
  3
ACAD_SCALELIST
350
32C
  3
ACAD_SECTIONVIEWSTYLE
350
340
  3
ACAD_TABLESTYLE
350
32A
  3
ACAD_VISUALSTYLE
350
311
  3
ACDB_RECOMPOSE_DATA
350
36F
  3
AcDbVariableDictionary
350
5E
  0
DICTIONARY
  5
B3
330
2
100
AcDbDictionary
280
     1
281
     1
  3
ACAD_LAYERSTATES
360
B4
  0
DICTIONARY
  5
34B
330
10
100
AcDbDictionary
280
     1
281
     1
  3
ADSK_XREC_LAYER_RECONCILED
360
34C
  0
DICTIONARY
  5
34D
330
AE
100
AcDbDictionary
280
     1
281
     1
  3
ADSK_XREC_LAYER_RECONCILED
360
34E
  0
DICTIONARY
  5
34F
330
AF
100
AcDbDictionary
280
     1
281
     1
  3
ADSK_XREC_LAYER_RECONCILED
360
350
  0
XRECORD
  5
34A
102
{ACAD_REACTORS
330
C
102
}
330
C
100
AcDbXrecord
280
     1
300
ACD
300
2017
300
ACD_F_S
  0
DICTIONARY
  5
6B
102
{ACAD_REACTORS
330
C
102
}
330
C
100
AcDbDictionary
281
     1
  0
DICTIONARY
  5
342
102
{ACAD_REACTORS
330
C
102
}
330
C
100
AcDbDictionary
281
     1
  3
Metric50
350
343
  0
DICTIONARY
  5
D
102
{ACAD_REACTORS
330
C
102
}
330
C
100
AcDbDictionary
281
     1
  0
DICTIONARY
  5
1A
102
{ACAD_REACTORS
330
C
102
}
330
C
100
AcDbDictionary
281
     1
  3
Model
350
22
  3
布局1
350
51
  3
布局2
350
56
1001
AcadStringInfo
1000
MIFCodePage
1070
     5
  0
DICTIONARY
  5
6A
102
{ACAD_REACTORS
330
C
102
}
330
C
100
AcDbDictionary
281
     1
  3
ByBlock
350
301
  3
ByLayer
350
2F9
  3
Global
350
309
  0
DICTIONARY
  5
33E
102
{ACAD_REACTORS
330
C
102
}
330
C
100
AcDbDictionary
281
     1
  3
Standard
350
33F
  0
DICTIONARY
  5
17
102
{ACAD_REACTORS
330
C
102
}
330
C
100
AcDbDictionary
281
     1
  3
Standard
350
18
  0
DICTIONARY
  5
19
102
{ACAD_REACTORS
330
C
102
}
330
C
100
AcDbDictionary
281
     1
  0
ACDBDICTIONARYWDFLT
  5
E
102
{ACAD_REACTORS
330
C
102
}
330
C
100
AcDbDictionary
281
     1
  3
Normal
350
F
100
AcDbDictionaryWithDefault
340
F
  0
DICTIONARY
  5
32C
102
{ACAD_REACTORS
330
C
102
}
330
C
100
AcDbDictionary
281
     1
  3
A0
350
32D
  3
A1
350
32E
  3
A2
350
32F
  3
A3
350
330
  3
A4
350
331
  3
A5
350
332
  3
A6
350
333
  3
A7
350
334
  3
A8
350
335
  3
A9
350
336
  3
B0
350
337
  3
B1
350
338
  3
B2
350
339
  3
B3
350
33A
  3
B4
350
33B
  3
B5
350
33C
  3
B6
350
33D
  0
DICTIONARY
  5
340
102
{ACAD_REACTORS
330
C
102
}
330
C
100
AcDbDictionary
281
     1
  3
Metric50
350
341
  0
DICTIONARY
  5
32A
102
{ACAD_REACTORS
330
C
102
}
330
C
100
AcDbDictionary
281
     1
  3
Standard
350
32B
  0
DICTIONARY
  5
311
102
{ACAD_REACTORS
330
C
102
}
330
C
100
AcDbDictionary
281
     1
  3
2dWireframe
350
317
  3
Basic
350
316
  3
Brighten
350
31D
  3
ColorChange
350
321
  3
Conceptual
350
31A
  3
Dim
350
31C
  3
EdgeColorOff
350
329
  3
Facepattern
350
320
  3
Flat
350
312
  3
FlatWithEdges
350
313
  3
Gouraud
350
314
  3
GouraudWithEdges
350
315
  3
Hidden
350
319
  3
JitterOff
350
327
  3
Linepattern
350
31F
  3
OverhangOff
350
328
  3
Realistic
350
31B
  3
Shaded
350
326
  3
Shaded with edges
350
325
  3
Shades of Gray
350
322
  3
Sketchy
350
323
  3
Thicken
350
31E
  3
Wireframe
350
318
  3
X-Ray
350
324
  0
XRECORD
  5
36F
102
{ACAD_REACTORS
330
C
102
}
330
C
100
AcDbXrecord
280
     1
 90
        1
330
32B
330
341
330
343
  0
DICTIONARY
  5
5E
102
{ACAD_REACTORS
330
C
102
}
330
C
100
AcDbDictionary
281
     1
  3
CANNOSCALE
350
365
  3
CMLEADERSTYLE
350
361
  3
CTABLESTYLE
350
360
  3
CVIEWDETAILSTYLE
350
362
  3
CVIEWSECTIONSTYLE
350
363
  3
DIMASSOC
350
5F
  3
HIDETEXT
350
63
  3
LAYEREVAL
350
367
  3
LAYERNOTIFY
350
368
  3
LIGHTINGUNITS
350
366
  3
MSLTSCALE
350
364
  0
DICTIONARY
  5
B4
102
{ACAD_REACTORS
330
B3
102
}
330
B3
100
AcDbDictionary
281
     1
  0
XRECORD
  5
34C
102
{ACAD_REACTORS
330
34B
102
}
330
34B
100
AcDbXrecord
280
     1
290
     1
  0
XRECORD
  5
34E
102
{ACAD_REACTORS
330
34D
102
}
330
34D
100
AcDbXrecord
280
     1
290
     1
  0
XRECORD
  5
350
102
{ACAD_REACTORS
330
34F
102
}
330
34F
100
AcDbXrecord
280
     1
290
     1
  0
ACDBDETAILVIEWSTYLE
  5
343
102
{ACAD_XDICTIONARY
360
36D
102
}
102
{ACAD_REACTORS
330
342
102
}
330
342
100
AcDbModelDocViewStyle
 70
     0
  3
Metric50
290
     0
100
AcDbDetailViewStyle
 70
     0
 71
     0
 90
        3
 71
     1
340
11
 62
   256
 40
5.0
340
0
 62
   256
 40
5.0
300

 40
0.0
280
     1
 71
     2
340
16
 90
       25
 62
   256
 71
     3
340
11
 62
   256
 40
5.0
 90
        0
 40
15.0
 90
        1
300
%<\AcVar ViewDetailId>% (%<\AcVar ViewScale \f "%sn">%)
 71
     4
340
16
 90
       25
 62
   256
340
16
 90
       25
 62
   256
280
     0
  0
LAYOUT
  5
22
102
{ACAD_REACTORS
330
1A
102
}
330
1A
100
AcDbPlotSettings
  1

  2
none_device
  4
ANSI_A_(8.50_x_11.00_Inches)
  6

 40
6.349999904632568
 41
19.04999923706055
 42
6.350006103515625
 43
19.04998779296875
 44
215.8999938964844
 45
279.3999938964844
 46
0.0
 47
0.0
 48
0.0
 49
0.0
140
0.0
141
0.0
142
1.0
143
78.436453180766
 70
 11952
 72
     0
 73
     1
 74
     0
  7

 75
     0
147
0.0127491741332998
 76
     0
 77
     2
 78
   300
148
0.0
149
0.0
100
AcDbLayout
  1
Model
 70
     1
 71
     0
 10
0.0
 20
0.0
 11
12.0
 21
9.0
 12
0.0
 22
0.0
 32
0.0
 14
0.0
 24
0.0
 34
0.0
 15
0.0
 25
0.0
 35
0.0
146
0.0
 13
0.0
 23
0.0
 33
0.0
 16
1.0
 26
0.0
 36
0.0
 17
0.0
 27
1.0
 37
0.0
 76
     0
330
1F
331
2F7
  0
LAYOUT
  5
51
102
{ACAD_REACTORS
330
1A
102
}
330
1A
100
AcDbPlotSettings
  1

  2
None
  4

  6

 40
0.0
 41
0.0
 42
0.0
 43
0.0
 44
0.0
 45
0.0
 46
0.0
 47
0.0
 48
0.0
 49
0.0
140
0.0
141
0.0
142
1.0
143
1.0
 70
   688
 72
     0
 73
     0
 74
     5
  7

 75
    16
147
1.0
 76
     0
 77
     2
 78
   300
148
0.0
149
0.0
100
AcDbLayout
  1
布局1
 70
     1
 71
     1
 10
0.0
 20
0.0
 11
12.0
 21
9.0
 12
0.0
 22
0.0
 32
0.0
 14
0.0
 24
0.0
 34
0.0
 15
0.0
 25
0.0
 35
0.0
146
0.0
 13
0.0
 23
0.0
 33
0.0
 16
1.0
 26
0.0
 36
0.0
 17
0.0
 27
1.0
 37
0.0
 76
     0
330
50
1001
AcadStringInfo
1000
MIFCodePage
1070
     5
  0
LAYOUT
  5
56
102
{ACAD_REACTORS
330
1A
102
}
330
1A
100
AcDbPlotSettings
  1

  2
None
  4

  6

 40
0.0
 41
0.0
 42
0.0
 43
0.0
 44
0.0
 45
0.0
 46
0.0
 47
0.0
 48
0.0
 49
0.0
140
0.0
141
0.0
142
1.0
143
1.0
 70
   688
 72
     0
 73
     0
 74
     5
  7

 75
    16
147
1.0
 76
     0
 77
     2
 78
   300
148
0.0
149
0.0
100
AcDbLayout
  1
布局2
 70
     1
 71
     2
 10
0.0
 20
0.0
 11
12.0
 21
9.0
 12
0.0
 22
0.0
 32
0.0
 14
0.0
 24
0.0
 34
0.0
 15
0.0
 25
0.0
 35
0.0
146
0.0
 13
0.0
 23
0.0
 33
0.0
 16
1.0
 26
0.0
 36
0.0
 17
0.0
 27
1.0
 37
0.0
 76
     0
330
55
1001
AcadStringInfo
1000
MIFCodePage
1070
     5
  0
MATERIAL
  5
301
102
{ACAD_XDICTIONARY
360
302
102
}
102
{ACAD_REACTORS
330
6A
102
}
330
6A
100
AcDbMaterial
  1
ByBlock
 72
     0
 43
0.0008202099737533
 43
0.0
 43
0.0
 43
0.0
 43
0.0
 43
0.0008202099737533
 43
0.0
 43
0.0
 43
0.0
 43
0.0
 43
1.0
 43
0.0
 43
0.0
 43
0.0
 43
0.0
 43
1.0
 77
     0
 47
0.0008202099737533
 47
0.0
 47
0.0
 47
0.0
 47
0.0
 47
0.0008202099737533
 47
0.0
 47
0.0
 47
0.0
 47
0.0
 47
1.0
 47
0.0
 47
0.0
 47
0.0
 47
0.0
 47
1.0
171
     0
 49
0.0008202099737533
 49
0.0
 49
0.0
 49
0.0
 49
0.0
 49
0.0008202099737533
 49
0.0
 49
0.0
 49
0.0
 49
0.0
 49
1.0
 49
0.0
 49
0.0
 49
0.0
 49
0.0
 49
1.0
175
     0
142
0.0008202099737533
142
0.0
142
0.0
142
0.0
142
0.0
142
0.0008202099737533
142
0.0
142
0.0
142
0.0
142
0.0
142
1.0
142
0.0
142
0.0
142
0.0
142
0.0
142
1.0
179
     0
144
0.0008202099737533
144
0.0
144
0.0
144
0.0
144
0.0
144
0.0008202099737533
144
0.0
144
0.0
144
0.0
144
0.0
144
1.0
144
0.0
144
0.0
144
0.0
144
0.0
144
1.0
147
0.0008202099737533
147
0.0
147
0.0
147
0.0
147
0.0
147
0.0008202099737533
147
0.0
147
0.0
147
0.0
147
0.0
147
1.0
147
0.0
147
0.0
147
0.0
147
0.0
147
1.0
  0
MATERIAL
  5
2F9
102
{ACAD_XDICTIONARY
360
2FA
102
}
102
{ACAD_REACTORS
330
6A
102
}
330
6A
100
AcDbMaterial
  1
ByLayer
 72
     0
 43
0.0008202099737533
 43
0.0
 43
0.0
 43
0.0
 43
0.0
 43
0.0008202099737533
 43
0.0
 43
0.0
 43
0.0
 43
0.0
 43
1.0
 43
0.0
 43
0.0
 43
0.0
 43
0.0
 43
1.0
 77
     0
 47
0.0008202099737533
 47
0.0
 47
0.0
 47
0.0
 47
0.0
 47
0.0008202099737533
 47
0.0
 47
0.0
 47
0.0
 47
0.0
 47
1.0
 47
0.0
 47
0.0
 47
0.0
 47
0.0
 47
1.0
171
     0
 49
0.0008202099737533
 49
0.0
 49
0.0
 49
0.0
 49
0.0
 49
0.0008202099737533
 49
0.0
 49
0.0
 49
0.0
 49
0.0
 49
1.0
 49
0.0
 49
0.0
 49
0.0
 49
0.0
 49
1.0
175
     0
142
0.0008202099737533
142
0.0
142
0.0
142
0.0
142
0.0
142
0.0008202099737533
142
0.0
142
0.0
142
0.0
142
0.0
142
1.0
142
0.0
142
0.0
142
0.0
142
0.0
142
1.0
179
     0
144
0.0008202099737533
144
0.0
144
0.0
144
0.0
144
0.0
144
0.0008202099737533
144
0.0
144
0.0
144
0.0
144
0.0
144
1.0
144
0.0
144
0.0
144
0.0
144
0.0
144
1.0
147
0.0008202099737533
147
0.0
147
0.0
147
0.0
147
0.0
147
0.0008202099737533
147
0.0
147
0.0
147
0.0
147
0.0
147
1.0
147
0.0
147
0.0
147
0.0
147
0.0
147
1.0
  0
MATERIAL
  5
309
102
{ACAD_XDICTIONARY
360
30A
102
}
102
{ACAD_REACTORS
330
6A
102
}
330
6A
100
AcDbMaterial
  1
Global
 72
     0
 43
0.0008202099737533
 43
0.0
 43
0.0
 43
0.0
 43
0.0
 43
0.0008202099737533
 43
0.0
 43
0.0
 43
0.0
 43
0.0
 43
1.0
 43
0.0
 43
0.0
 43
0.0
 43
0.0
 43
1.0
 77
     0
 47
0.0008202099737533
 47
0.0
 47
0.0
 47
0.0
 47
0.0
 47
0.0008202099737533
 47
0.0
 47
0.0
 47
0.0
 47
0.0
 47
1.0
 47
0.0
 47
0.0
 47
0.0
 47
0.0
 47
1.0
171
     0
 49
0.0008202099737533
 49
0.0
 49
0.0
 49
0.0
 49
0.0
 49
0.0008202099737533
 49
0.0
 49
0.0
 49
0.0
 49
0.0
 49
1.0
 49
0.0
 49
0.0
 49
0.0
 49
0.0
 49
1.0
175
     0
142
0.0008202099737533
142
0.0
142
0.0
142
0.0
142
0.0
142
0.0008202099737533
142
0.0
142
0.0
142
0.0
142
0.0
142
1.0
142
0.0
142
0.0
142
0.0
142
0.0
142
1.0
179
     0
144
0.0008202099737533
144
0.0
144
0.0
144
0.0
144
0.0
144
0.0008202099737533
144
0.0
144
0.0
144
0.0
144
0.0
144
1.0
144
0.0
144
0.0
144
0.0
144
0.0
144
1.0
147
0.0008202099737533
147
0.0
147
0.0
147
0.0
147
0.0
147
0.0008202099737533
147
0.0
147
0.0
147
0.0
147
0.0
147
1.0
147
0.0
147
0.0
147
0.0
147
0.0
147
1.0
  0
MLEADERSTYLE
  5
33F
102
{ACAD_REACTORS
330
33E
102
}
330
33E
100
AcDbMLeaderStyle
179
     2
170
     2
171
     1
172
     0
 90
        2
 40
0.0
 41
0.0
173
     1
 91
-1056964608
340
14
 92
       -2
290
     1
 42
2.0
291
     1
 43
0.36
  3
Standard
 44
4.0
300

342
11
174
     1
178
     6
175
     1
176
     0
 93
-1056964608
 45
4.0
292
     0
297
     0
 46
4.0
 94
-1056964608
 47
1.0
 49
1.0
140
1.0
293
     1
141
0.0
294
     1
177
     0
142
1.0
295
     1
296
     0
143
0.125
271
     0
272
     9
273
     9
298
     1
  0
MLINESTYLE
  5
18
102
{ACAD_REACTORS
330
17
102
}
330
17
100
AcDbMlineStyle
  2
STANDARD
 70
     0
  3

 62
   256
 51
90.0
 52
90.0
 71
     2
 49
0.5
 62
   256
  6
BYLAYER
 49
-0.5
 62
   256
  6
BYLAYER
  0
ACDBPLACEHOLDER
  5
F
102
{ACAD_REACTORS
330
E
102
}
330
E
  0
SCALE
  5
32D
102
{ACAD_REACTORS
330
32C
102
}
330
32C
100
AcDbScale
 70
     0
300
1:1
140
1.0
141
1.0
290
     1
  0
SCALE
  5
32E
102
{ACAD_REACTORS
330
32C
102
}
330
32C
100
AcDbScale
 70
     0
300
1:2
140
1.0
141
2.0
290
     0
  0
SCALE
  5
32F
102
{ACAD_REACTORS
330
32C
102
}
330
32C
100
AcDbScale
 70
     0
300
1:4
140
1.0
141
4.0
290
     0
  0
SCALE
  5
330
102
{ACAD_REACTORS
330
32C
102
}
330
32C
100
AcDbScale
 70
     0
300
1:5
140
1.0
141
5.0
290
     0
  0
SCALE
  5
331
102
{ACAD_REACTORS
330
32C
102
}
330
32C
100
AcDbScale
 70
     0
300
1:8
140
1.0
141
8.0
290
     0
  0
SCALE
  5
332
102
{ACAD_REACTORS
330
32C
102
}
330
32C
100
AcDbScale
 70
     0
300
1:10
140
1.0
141
10.0
290
     0
  0
SCALE
  5
333
102
{ACAD_REACTORS
330
32C
102
}
330
32C
100
AcDbScale
 70
     0
300
1:16
140
1.0
141
16.0
290
     0
  0
SCALE
  5
334
102
{ACAD_REACTORS
330
32C
102
}
330
32C
100
AcDbScale
 70
     0
300
1:20
140
1.0
141
20.0
290
     0
  0
SCALE
  5
335
102
{ACAD_REACTORS
330
32C
102
}
330
32C
100
AcDbScale
 70
     0
300
1:30
140
1.0
141
30.0
290
     0
  0
SCALE
  5
336
102
{ACAD_REACTORS
330
32C
102
}
330
32C
100
AcDbScale
 70
     0
300
1:40
140
1.0
141
40.0
290
     0
  0
SCALE
  5
337
102
{ACAD_REACTORS
330
32C
102
}
330
32C
100
AcDbScale
 70
     0
300
1:50
140
1.0
141
50.0
290
     0
  0
SCALE
  5
338
102
{ACAD_REACTORS
330
32C
102
}
330
32C
100
AcDbScale
 70
     0
300
1:100
140
1.0
141
100.0
290
     0
  0
SCALE
  5
339
102
{ACAD_REACTORS
330
32C
102
}
330
32C
100
AcDbScale
 70
     0
300
2:1
140
2.0
141
1.0
290
     0
  0
SCALE
  5
33A
102
{ACAD_REACTORS
330
32C
102
}
330
32C
100
AcDbScale
 70
     0
300
4:1
140
4.0
141
1.0
290
     0
  0
SCALE
  5
33B
102
{ACAD_REACTORS
330
32C
102
}
330
32C
100
AcDbScale
 70
     0
300
8:1
140
8.0
141
1.0
290
     0
  0
SCALE
  5
33C
102
{ACAD_REACTORS
330
32C
102
}
330
32C
100
AcDbScale
 70
     0
300
10:1
140
10.0
141
1.0
290
     0
  0
SCALE
  5
33D
102
{ACAD_REACTORS
330
32C
102
}
330
32C
100
AcDbScale
 70
     0
300
100:1
140
100.0
141
1.0
290
     0
  0
ACDBSECTIONVIEWSTYLE
  5
341
102
{ACAD_XDICTIONARY
360
36B
102
}
102
{ACAD_REACTORS
330
340
102
}
330
340
100
AcDbModelDocViewStyle
 70
     0
  3
Metric50
290
     0
100
AcDbSectionViewStyle
 70
     0
 71
     0
 90
      102
 71
     1
340
11
 62
   256
 40
5.0
340
0
340
0
 62
   256
 40
5.0
300
I, O, Q, S, X, Z
 40
10.0
 90
        0
 40
2.5
 90
        0
 71
     2
340
16
 90
       25
 62
   256
340
16
 90
       50
 62
   256
 40
5.0
 40
2.5
 40
5.0
 71
     3
340
11
 62
   256
 40
5.0
 90
        0
 40
15.0
 90
        1
300
%<\AcVar ViewSectionStartId>%-%<\AcVar ViewSectionEndId>% (%<\AcVar ViewScale \f "%sn">%)
 71
     4
 62
   256
 62
   257
300
ANSI31
 40
1.0
 90
        0
290
     0
290
     0
 90
        6
 40
0.0
 40
1.570796326794896
 40
0.2617993877991494
 40
1.308996938995747
 40
-0.2617993877991494
 40
1.832595714594046
  0
TABLESTYLE
  5
32B
102
{ACAD_XDICTIONARY
360
369
102
}
102
{ACAD_REACTORS
330
32A
102
}
330
32A
100
AcDbTableStyle
280
     0
  3
Standard
 70
     0
 71
     0
 40
1.5
 41
1.5
280
     0
281
     0
  7
Standard
140
4.5
170
     2
 62
     0
 63
     7
283
     0
 90
      512
 91
        0
  1

274
    -2
284
     1
 64
     0
275
    -2
285
     1
 65
     0
276
    -2
286
     1
 66
     0
277
    -2
287
     1
 67
     0
278
    -2
288
     1
 68
     0
279
    -2
289
     1
 69
     0
  7
Standard
140
6.0
170
     5
 62
     0
 63
     7
283
     0
 90
      512
 91
        0
  1

274
    -2
284
     1
 64
     0
275
    -2
285
     1
 65
     0
276
    -2
286
     1
 66
     0
277
    -2
287
     1
 67
     0
278
    -2
288
     1
 68
     0
279
    -2
289
     1
 69
     0
  7
Standard
140
4.5
170
     5
 62
     0
 63
     7
283
     0
 90
      512
 91
        0
  1

274
    -2
284
     1
 64
     0
275
    -2
285
     1
 65
     0
276
    -2
286
     1
 66
     0
277
    -2
287
     1
 67
     0
278
    -2
288
     1
 68
     0
279
    -2
289
     1
 69
     0
  0
VISUALSTYLE
  5
317
102
{ACAD_REACTORS
330
311
102
}
330
311
100
AcDbVisualStyle
  2
2dWireframe
 70
     4
177
     3
291
     0
 70
    58
 90
        0
176
     1
 90
        2
176
     1
 90
        0
176
     1
 90
        0
176
     1
 40
0.6
176
     1
 40
30.0
176
     1
 62
     7
420
 16777215
176
     1
 90
        1
176
     1
 90
        4
176
     1
 62
     7
176
     1
 62
   257
176
     1
 90
        1
176
     1
 90
        1
176
     1
 40
1.0
176
     1
 90
        0
176
     1
 62
   257
176
     1
 40
1.0
176
     1
 90
        1
176
     1
 90
        6
176
     1
 90
        2
176
     1
 62
     7
176
     1
 90
        5
176
     1
 90
        0
176
     1
 90
        0
176
     1
290
     0
176
     1
 90
        1
176
     1
 40
0.0
176
     1
 90
        0
176
     1
290
     1
176
     1
290
     1
176
     1
290
     0
176
     1
290
     0
176
     1
290
     0
176
     1
290
     0
176
     1
290
     0
176
     1
290
     0
176
     1
290
     0
176
     1
 90
       50
176
     1
 40
0.0
176
     1
 40
1.0
176
     1
 90
        0
176
     1
 62
    18
420
        0
176
     1
 90
       50
176
     1
 90
        3
176
     1
 62
     5
420
      255
176
     1
290
     0
176
     1
 90
       50
176
     1
 90
       50
176
     1
 90
       50
176
     1
290
     0
176
     1
 90
       50
176
     1
 62
   256
176
     0
 40
1.0
176
     0
 90
        2
176
     1
  1
strokes_ogs.tif
176
     1
290
     0
176
     1
 40
1.0
176
     1
 40
1.0
176
     1
  0
VISUALSTYLE
  5
316
102
{ACAD_REACTORS
330
311
102
}
330
311
100
AcDbVisualStyle
  2
Basic
 70
     7
177
     3
291
     1
 70
    58
 90
        1
176
     1
 90
        0
176
     1
 90
        1
176
     1
 90
        0
176
     1
 40
0.6
176
     1
 40
30.0
176
     1
 62
     7
420
 16777215
176
     1
 90
        0
176
     1
 90
        4
176
     1
 62
     7
176
     1
 62
   257
176
     1
 90
        1
176
     1
 90
        1
176
     1
 40
1.0
176
     1
 90
        8
176
     1
 62
     7
176
     1
 40
1.0
176
     1
 90
        1
176
     1
 90
        6
176
     1
 90
        2
176
     1
 62
     7
176
     1
 90
        5
176
     1
 90
        0
176
     1
 90
        0
176
     1
290
     0
176
     1
 90
        1
176
     1
 40
0.0
176
     1
 90
        0
176
     1
290
     0
176
     1
290
     1
176
     1
290
     1
176
     1
290
     0
176
     1
290
     0
176
     1
290
     0
176
     1
290
     0
176
     1
290
     0
176
     1
290
     0
176
     1
 90
       50
176
     1
 40
0.0
176
     1
 40
1.0
176
     1
 90
        0
176
     1
 62
    18
420
        0
176
     1
 90
       50
176
     1
 90
        3
176
     1
 62
     5
420
      255
176
     1
290
     0
176
     1
 90
       50
176
     1
 90
       50
176
     1
 90
       50
176
     1
290
     0
176
     1
 90
       50
176
     1
 62
   256
176
     0
 40
1.0
176
     0
 90
        2
176
     1
  1
strokes_ogs.tif
176
     1
290
     0
176
     1
 40
1.0
176
     1
 40
1.0
176
     1
  0
VISUALSTYLE
  5
31D
102
{ACAD_REACTORS
330
311
102
}
330
311
100
AcDbVisualStyle
  2
Brighten
 70
    12
177
     3
291
     1
 70
    58
 90
        2
176
     1
 90
        2
176
     1
 90
        0
176
     1
 90
        0
176
     1
 40
0.6
176
     1
 40
30.0
176
     1
 62
     7
420
 16777215
176
     1
 90
        1
176
     1
 90
        4
176
     1
 62
     7
176
     1
 62
   257
176
     1
 90
        1
176
     1
 90
        1
176
     1
 40
1.0
176
     1
 90
        8
176
     1
 62
     7
176
     1
 40
1.0
176
     1
 90
        1
176
     1
 90
        6
176
     1
 90
        2
176
     1
 62
     7
176
     1
 90
        5
176
     1
 90
        0
176
     1
 90
        0
176
     1
290
     0
176
     1
 90
        1
176
     1
 40
50.0
176
     1
 90
        0
176
     1
290
     0
176
     1
290
     1
176
     1
290
     1
176
     1
290
     0
176
     1
290
     0
176
     1
290
     0
176
     1
290
     0
176
     1
290
     0
176
     1
290
     0
176
     1
 90
       50
176
     1
 40
0.0
176
     1
 40
1.0
176
     1
 90
        0
176
     1
 62
    18
420
        0
176
     1
 90
       50
176
     1
 90
        3
176
     1
 62
     5
420
      255
176
     1
290
     0
176
     1
 90
       50
176
     1
 90
       50
176
     1
 90
       50
176
     1
290
     0
176
     1
 90
       50
176
     1
 62
   256
176
     0
 40
1.0
176
     0
 90
        2
176
     1
  1
strokes_ogs.tif
176
     1
290
     0
176
     1
 40
1.0
176
     1
 40
1.0
176
     1
  0
VISUALSTYLE
  5
321
102
{ACAD_REACTORS
330
311
102
}
330
311
100
AcDbVisualStyle
  2
ColorChange
 70
    16
177
     3
291
     1
 70
    58
 90
        2
176
     1
 90
        2
176
     1
 90
        3
176
     1
 90
        0
176
     1
 40
0.6
176
     1
 40
30.0
176
     1
 62
     8
420
  8421504
176
     1
 90
        1
176
     1
 90
        4
176
     1
 62
     7
176
     1
 62
   257
176
     1
 90
        1
176
     1
 90
        1
176
     1
 40
1.0
176
     1
 90
        8
176
     1
 62
     8
420
  8421504
176
     1
 40
1.0
176
     1
 90
        1
176
     1
 90
        6
176
     1
 90
        2
176
     1
 62
     7
176
     1
 90
        5
176
     1
 90
        0
176
     1
 90
        0
176
     1
290
     0
176
     1
 90
        1
176
     1
 40
0.0
176
     1
 90
        0
176
     1
290
     0
176
     1
290
     1
176
     1
290
     1
176
     1
290
     0
176
     1
290
     0
176
     1
290
     0
176
     1
290
     0
176
     1
290
     0
176
     1
290
     0
176
     1
 90
       50
176
     1
 40
0.0
176
     1
 40
1.0
176
     1
 90
        0
176
     1
 62
    18
420
        0
176
     1
 90
       50
176
     1
 90
        3
176
     1
 62
     5
420
      255
176
     1
290
     0
176
     1
 90
       50
176
     1
 90
       50
176
     1
 90
       50
176
     1
290
     0
176
     1
 90
       50
176
     1
 62
   256
176
     0
 40
1.0
176
     0
 90
        2
176
     1
  1
strokes_ogs.tif
176
     1
290
     0
176
     1
 40
1.0
176
     1
 40
1.0
176
     1
  0
VISUALSTYLE
  5
31A
102
{ACAD_REACTORS
330
311
102
}
330
311
100
AcDbVisualStyle
  2
Conceptual
 70
     9
177
     3
291
     0
 70
    58
 90
        3
176
     1
 90
        2
176
     1
 90
        0
176
     1
 90
        0
176
     1
 40
0.6
176
     1
 40
30.0
176
     1
 62
     7
420
 16777215
176
     1
 90
        2
176
     1
 90
        2
176
     1
 62
     7
176
     1
 62
   257
176
     1
 90
        1
176
     1
 90
        1
176
     1
 40
179.0
176
     1
 90
        8
176
     1
 62
     7
176
     1
 40
1.0
176
     1
 90
        1
176
     1
 90
        6
176
     1
 90
        2
176
     1
 62
     7
176
     1
 90
        3
176
     1
 90
        0
176
     1
 90
        0
176
     1
290
     0
176
     1
 90
        1
176
     1
 40
0.0
176
     1
 90
        0
176
     1
290
     0
176
     1
290
     1
176
     1
290
     1
176
     1
290
     0
176
     1
290
     0
176
     1
290
     0
176
     1
290
     0
176
     1
290
     0
176
     1
290
     0
176
     1
 90
       50
176
     1
 40
0.0
176
     1
 40
1.0
176
     1
 90
        0
176
     1
 62
    18
420
        0
176
     1
 90
       50
176
     1
 90
        3
176
     1
 62
     5
420
      255
176
     1
290
     0
176
     1
 90
       50
176
     1
 90
       50
176
     1
 90
       50
176
     1
290
     0
176
     1
 90
       50
176
     1
 62
   256
176
     0
 40
1.0
176
     0
 90
        2
176
     1
  1
strokes_ogs.tif
176
     1
290
     0
176
     1
 40
1.0
176
     1
 40
1.0
176
     1
  0
VISUALSTYLE
  5
31C
102
{ACAD_REACTORS
330
311
102
}
330
311
100
AcDbVisualStyle
  2
Dim
 70
    11
177
     3
291
     1
 70
    58
 90
        2
176
     1
 90
        2
176
     1
 90
        0
176
     1
 90
        0
176
     1
 40
0.6
176
     1
 40
30.0
176
     1
 62
     7
420
 16777215
176
     1
 90
        1
176
     1
 90
        4
176
     1
 62
     7
176
     1
 62
   257
176
     1
 90
        1
176
     1
 90
        1
176
     1
 40
1.0
176
     1
 90
        8
176
     1
 62
     7
176
     1
 40
1.0
176
     1
 90
        1
176
     1
 90
        6
176
     1
 90
        2
176
     1
 62
     7
176
     1
 90
        5
176
     1
 90
        0
176
     1
 90
        0
176
     1
290
     0
176
     1
 90
        1
176
     1
 40
-50.0
176
     1
 90
        0
176
     1
290
     0
176
     1
290
     1
176
     1
290
     1
176
     1
290
     0
176
     1
290
     0
176
     1
290
     0
176
     1
290
     0
176
     1
290
     0
176
     1
290
     0
176
     1
 90
       50
176
     1
 40
0.0
176
     1
 40
1.0
176
     1
 90
        0
176
     1
 62
    18
420
        0
176
     1
 90
       50
176
     1
 90
        3
176
     1
 62
     5
420
      255
176
     1
290
     0
176
     1
 90
       50
176
     1
 90
       50
176
     1
 90
       50
176
     1
290
     0
176
     1
 90
       50
176
     1
 62
   256
176
     0
 40
1.0
176
     0
 90
        2
176
     1
  1
strokes_ogs.tif
176
     1
290
     0
176
     1
 40
1.0
176
     1
 40
1.0
176
     1
  0
VISUALSTYLE
  5
329
102
{ACAD_REACTORS
330
311
102
}
330
311
100
AcDbVisualStyle
  2
EdgeColorOff
 70
    22
177
     3
291
     1
 70
    58
 90
        2
176
     0
 90
        2
176
     0
 90
        0
176
     0
 90
        0
176
     0
 40
0.6
176
     0
 40
30.0
176
     0
 62
     7
420
 16777215
176
     0
 90
        1
176
     0
 90
        4
176
     0
 62
     7
176
     0
 62
   257
176
     0
 90
        1
176
     0
 90
        1
176
     0
 40
1.0
176
     0
 90
        8
176
     2
 62
     7
176
     0
 40
1.0
176
     0
 90
        1
176
     0
 90
        6
176
     0
 90
        2
176
     0
 62
     7
176
     0
 90
        5
176
     0
 90
        0
176
     0
 90
        0
176
     0
290
     0
176
     0
 90
        1
176
     0
 40
0.0
176
     0
 90
        0
176
     0
290
     0
176
     0
290
     1
176
     0
290
     1
176
     0
290
     0
176
     0
290
     0
176
     0
290
     0
176
     0
290
     0
176
     0
290
     0
176
     0
290
     0
176
     0
 90
       50
176
     0
 40
0.0
176
     0
 40
1.0
176
     0
 90
        0
176
     0
 62
    18
420
        0
176
     0
 90
       50
176
     0
 90
        3
176
     0
 62
     5
420
      255
176
     0
290
     0
176
     0
 90
       50
176
     0
 90
       50
176
     0
 90
       50
176
     0
290
     0
176
     0
 90
       50
176
     0
 62
   256
176
     0
 40
1.0
176
     0
 90
        2
176
     0
  1
strokes_ogs.tif
176
     0
290
     0
176
     0
 40
1.0
176
     0
 40
1.0
176
     0
  0
VISUALSTYLE
  5
320
102
{ACAD_REACTORS
330
311
102
}
330
311
100
AcDbVisualStyle
  2
Facepattern
 70
    15
177
     3
291
     1
 70
    58
 90
        2
176
     1
 90
        2
176
     1
 90
        0
176
     1
 90
        0
176
     1
 40
0.6
176
     1
 40
30.0
176
     1
 62
     7
420
 16777215
176
     1
 90
        1
176
     1
 90
        4
176
     1
 62
     7
176
     1
 62
   257
176
     1
 90
        1
176
     1
 90
        1
176
     1
 40
1.0
176
     1
 90
        8
176
     1
 62
     7
176
     1
 40
1.0
176
     1
 90
        1
176
     1
 90
        6
176
     1
 90
        2
176
     1
 62
     7
176
     1
 90
        5
176
     1
 90
        0
176
     1
 90
        0
176
     1
290
     0
176
     1
 90
        1
176
     1
 40
0.0
176
     1
 90
        0
176
     1
290
     0
176
     1
290
     1
176
     1
290
     1
176
     1
290
     0
176
     1
290
     0
176
     1
290
     0
176
     1
290
     0
176
     1
290
     0
176
     1
290
     0
176
     1
 90
       50
176
     1
 40
0.0
176
     1
 40
1.0
176
     1
 90
        0
176
     1
 62
    18
420
        0
176
     1
 90
       50
176
     1
 90
        3
176
     1
 62
     5
420
      255
176
     1
290
     0
176
     1
 90
       50
176
     1
 90
       50
176
     1
 90
       50
176
     1
290
     0
176
     1
 90
       50
176
     1
 62
   256
176
     0
 40
1.0
176
     0
 90
        2
176
     1
  1
strokes_ogs.tif
176
     1
290
     0
176
     1
 40
1.0
176
     1
 40
1.0
176
     1
  0
VISUALSTYLE
  5
312
102
{ACAD_REACTORS
330
311
102
}
330
311
100
AcDbVisualStyle
  2
Flat
 70
     0
177
     3
291
     1
 70
    58
 90
        2
176
     1
 90
        1
176
     1
 90
        1
176
     1
 90
        2
176
     1
 40
0.6
176
     1
 40
30.0
176
     1
 62
     7
420
 16777215
176
     1
 90
        0
176
     1
 90
        0
176
     1
 62
     7
176
     1
 62
   257
176
     1
 90
        1
176
     1
 90
        1
176
     1
 40
1.0
176
     1
 90
        8
176
     1
 62
     7
176
     1
 40
1.0
176
     1
 90
        1
176
     1
 90
        6
176
     1
 90
        2
176
     1
 62
     7
176
     1
 90
        5
176
     1
 90
        0
176
     1
 90
        0
176
     1
290
     0
176
     1
 90
       13
176
     1
 40
0.0
176
     1
 90
        0
176
     1
290
     0
176
     1
290
     1
176
     1
290
     1
176
     1
290
     0
176
     1
290
     0
176
     1
290
     0
176
     1
290
     0
176
     1
290
     0
176
     1
290
     0
176
     1
 90
       50
176
     1
 40
0.0
176
     1
 40
1.0
176
     1
 90
        0
176
     1
 62
    18
420
        0
176
     1
 90
       50
176
     1
 90
        3
176
     1
 62
     5
420
      255
176
     1
290
     0
176
     1
 90
       50
176
     1
 90
       50
176
     1
 90
       50
176
     1
290
     0
176
     1
 90
       50
176
     1
 62
   256
176
     0
 40
1.0
176
     0
 90
        2
176
     1
  1
strokes_ogs.tif
176
     1
290
     0
176
     1
 40
1.0
176
     1
 40
1.0
176
     1
  0
VISUALSTYLE
  5
313
102
{ACAD_REACTORS
330
311
102
}
330
311
100
AcDbVisualStyle
  2
FlatWithEdges
 70
     1
177
     3
291
     1
 70
    58
 90
        2
176
     1
 90
        1
176
     1
 90
        1
176
     1
 90
        2
176
     1
 40
0.6
176
     1
 40
30.0
176
     1
 62
     7
420
 16777215
176
     1
 90
        1
176
     1
 90
        0
176
     1
 62
     7
176
     1
 62
   257
176
     1
 90
        1
176
     1
 90
        1
176
     1
 40
1.0
176
     1
 90
        0
176
     1
 62
   257
176
     1
 40
1.0
176
     1
 90
        1
176
     1
 90
        6
176
     1
 90
        2
176
     1
 62
     7
176
     1
 90
        5
176
     1
 90
        0
176
     1
 90
        0
176
     1
290
     0
176
     1
 90
       13
176
     1
 40
0.0
176
     1
 90
        0
176
     1
290
     0
176
     1
290
     1
176
     1
290
     1
176
     1
290
     0
176
     1
290
     0
176
     1
290
     0
176
     1
290
     0
176
     1
290
     0
176
     1
290
     0
176
     1
 90
       50
176
     1
 40
0.0
176
     1
 40
1.0
176
     1
 90
        0
176
     1
 62
    18
420
        0
176
     1
 90
       50
176
     1
 90
        3
176
     1
 62
     5
420
      255
176
     1
290
     0
176
     1
 90
       50
176
     1
 90
       50
176
     1
 90
       50
176
     1
290
     0
176
     1
 90
       50
176
     1
 62
   256
176
     0
 40
1.0
176
     0
 90
        2
176
     1
  1
strokes_ogs.tif
176
     1
290
     0
176
     1
 40
1.0
176
     1
 40
1.0
176
     1
  0
VISUALSTYLE
  5
314
102
{ACAD_REACTORS
330
311
102
}
330
311
100
AcDbVisualStyle
  2
Gouraud
 70
     2
177
     3
291
     1
 70
    58
 90
        2
176
     1
 90
        2
176
     1
 90
        1
176
     1
 90
        2
176
     1
 40
0.6
176
     1
 40
30.0
176
     1
 62
     7
420
 16777215
176
     1
 90
        0
176
     1
 90
        0
176
     1
 62
     7
176
     1
 62
   257
176
     1
 90
        1
176
     1
 90
        1
176
     1
 40
1.0
176
     1
 90
        0
176
     1
 62
     7
176
     1
 40
1.0
176
     1
 90
        1
176
     1
 90
        6
176
     1
 90
        2
176
     1
 62
     7
176
     1
 90
        5
176
     1
 90
        0
176
     1
 90
        0
176
     1
290
     0
176
     1
 90
       13
176
     1
 40
0.0
176
     1
 90
        0
176
     1
290
     0
176
     1
290
     1
176
     1
290
     1
176
     1
290
     0
176
     1
290
     0
176
     1
290
     0
176
     1
290
     0
176
     1
290
     0
176
     1
290
     0
176
     1
 90
       50
176
     1
 40
0.0
176
     1
 40
1.0
176
     1
 90
        0
176
     1
 62
    18
420
        0
176
     1
 90
       50
176
     1
 90
        3
176
     1
 62
     5
420
      255
176
     1
290
     0
176
     1
 90
       50
176
     1
 90
       50
176
     1
 90
       50
176
     1
290
     0
176
     1
 90
       50
176
     1
 62
   256
176
     0
 40
1.0
176
     0
 90
        2
176
     1
  1
strokes_ogs.tif
176
     1
290
     0
176
     1
 40
1.0
176
     1
 40
1.0
176
     1
  0
VISUALSTYLE
  5
315
102
{ACAD_REACTORS
330
311
102
}
330
311
100
AcDbVisualStyle
  2
GouraudWithEdges
 70
     3
177
     3
291
     1
 70
    58
 90
        2
176
     1
 90
        2
176
     1
 90
        1
176
     1
 90
        2
176
     1
 40
0.6
176
     1
 40
30.0
176
     1
 62
     7
420
 16777215
176
     1
 90
        1
176
     1
 90
        0
176
     1
 62
     7
176
     1
 62
   257
176
     1
 90
        1
176
     1
 90
        1
176
     1
 40
1.0
176
     1
 90
        0
176
     1
 62
   257
176
     1
 40
1.0
176
     1
 90
        1
176
     1
 90
        6
176
     1
 90
        2
176
     1
 62
     7
176
     1
 90
        5
176
     1
 90
        0
176
     1
 90
        0
176
     1
290
     0
176
     1
 90
       13
176
     1
 40
0.0
176
     1
 90
        0
176
     1
290
     0
176
     1
290
     1
176
     1
290
     1
176
     1
290
     0
176
     1
290
     0
176
     1
290
     0
176
     1
290
     0
176
     1
290
     0
176
     1
290
     0
176
     1
 90
       50
176
     1
 40
0.0
176
     1
 40
1.0
176
     1
 90
        0
176
     1
 62
    18
420
        0
176
     1
 90
       50
176
     1
 90
        3
176
     1
 62
     5
420
      255
176
     1
290
     0
176
     1
 90
       50
176
     1
 90
       50
176
     1
 90
       50
176
     1
290
     0
176
     1
 90
       50
176
     1
 62
   256
176
     0
 40
1.0
176
     0
 90
        2
176
     1
  1
strokes_ogs.tif
176
     1
290
     0
176
     1
 40
1.0
176
     1
 40
1.0
176
     1
  0
VISUALSTYLE
  5
319
102
{ACAD_REACTORS
330
311
102
}
330
311
100
AcDbVisualStyle
  2
Hidden
 70
     6
177
     3
291
     0
 70
    58
 90
        1
176
     1
 90
        2
176
     1
 90
        2
176
     1
 90
        0
176
     1
 40
0.6
176
     1
 40
30.0
176
     1
 62
     7
420
 16777215
176
     1
 90
        2
176
     1
 90
        2
176
     1
 62
     7
176
     1
 62
   257
176
     1
 90
        2
176
     1
 90
        1
176
     1
 40
40.0
176
     1
 90
        0
176
     1
 62
   257
176
     1
 40
1.0
176
     1
 90
        1
176
     1
 90
        6
176
     1
 90
        2
176
     1
 62
     7
176
     1
 90
        3
176
     1
 90
        0
176
     1
 90
        0
176
     1
290
     0
176
     1
 90
        1
176
     1
 40
0.0
176
     1
 90
        0
176
     1
290
     0
176
     1
290
     1
176
     1
290
     1
176
     1
290
     0
176
     1
290
     0
176
     1
290
     0
176
     1
290
     0
176
     1
290
     0
176
     1
290
     0
176
     1
 90
       50
176
     1
 40
0.0
176
     1
 40
1.0
176
     1
 90
        0
176
     1
 62
    18
420
        0
176
     1
 90
       50
176
     1
 90
        3
176
     1
 62
     5
420
      255
176
     1
290
     0
176
     1
 90
       50
176
     1
 90
       50
176
     1
 90
       50
176
     1
290
     0
176
     1
 90
       50
176
     1
 62
   256
176
     0
 40
1.0
176
     0
 90
        2
176
     1
  1
strokes_ogs.tif
176
     1
290
     0
176
     1
 40
1.0
176
     1
 40
1.0
176
     1
  0
VISUALSTYLE
  5
327
102
{ACAD_REACTORS
330
311
102
}
330
311
100
AcDbVisualStyle
  2
JitterOff
 70
    20
177
     3
291
     1
 70
    58
 90
        2
176
     0
 90
        2
176
     0
 90
        0
176
     0
 90
        0
176
     0
 40
0.6
176
     0
 40
30.0
176
     0
 62
     7
420
 16777215
176
     0
 90
        1
176
     0
 90
        4
176
     0
 62
     7
176
     0
 62
   257
176
     0
 90
        1
176
     0
 90
        1
176
     0
 40
1.0
176
     0
 90
       10
176
     2
 62
     7
176
     0
 40
1.0
176
     0
 90
        1
176
     0
 90
        6
176
     0
 90
        2
176
     0
 62
     7
176
     0
 90
        5
176
     0
 90
        0
176
     0
 90
        0
176
     0
290
     0
176
     0
 90
        1
176
     0
 40
0.0
176
     0
 90
        0
176
     0
290
     0
176
     0
290
     1
176
     0
290
     1
176
     0
290
     0
176
     0
290
     0
176
     0
290
     0
176
     0
290
     0
176
     0
290
     0
176
     0
290
     0
176
     0
 90
       50
176
     0
 40
0.0
176
     0
 40
1.0
176
     0
 90
        0
176
     0
 62
    18
420
        0
176
     0
 90
       50
176
     0
 90
        3
176
     0
 62
     5
420
      255
176
     0
290
     0
176
     0
 90
       50
176
     0
 90
       50
176
     0
 90
       50
176
     0
290
     0
176
     0
 90
       50
176
     0
 62
   256
176
     0
 40
1.0
176
     0
 90
        2
176
     0
  1
strokes_ogs.tif
176
     0
290
     0
176
     0
 40
1.0
176
     0
 40
1.0
176
     0
  0
VISUALSTYLE
  5
31F
102
{ACAD_REACTORS
330
311
102
}
330
311
100
AcDbVisualStyle
  2
Linepattern
 70
    14
177
     3
291
     1
 70
    58
 90
        2
176
     1
 90
        2
176
     1
 90
        0
176
     1
 90
        0
176
     1
 40
0.6
176
     1
 40
30.0
176
     1
 62
     7
420
 16777215
176
     1
 90
        1
176
     1
 90
        4
176
     1
 62
     7
176
     1
 62
   257
176
     1
 90
        7
176
     1
 90
        7
176
     1
 40
1.0
176
     1
 90
        8
176
     1
 62
     7
176
     1
 40
1.0
176
     1
 90
        1
176
     1
 90
        6
176
     1
 90
        2
176
     1
 62
     7
176
     1
 90
        5
176
     1
 90
        0
176
     1
 90
        0
176
     1
290
     0
176
     1
 90
        1
176
     1
 40
0.0
176
     1
 90
        0
176
     1
290
     0
176
     1
290
     1
176
     1
290
     1
176
     1
290
     0
176
     1
290
     0
176
     1
290
     0
176
     1
290
     0
176
     1
290
     0
176
     1
290
     0
176
     1
 90
       50
176
     1
 40
0.0
176
     1
 40
1.0
176
     1
 90
        0
176
     1
 62
    18
420
        0
176
     1
 90
       50
176
     1
 90
        3
176
     1
 62
     5
420
      255
176
     1
290
     0
176
     1
 90
       50
176
     1
 90
       50
176
     1
 90
       50
176
     1
290
     0
176
     1
 90
       50
176
     1
 62
   256
176
     0
 40
1.0
176
     0
 90
        2
176
     1
  1
strokes_ogs.tif
176
     1
290
     0
176
     1
 40
1.0
176
     1
 40
1.0
176
     1
  0
VISUALSTYLE
  5
328
102
{ACAD_REACTORS
330
311
102
}
330
311
100
AcDbVisualStyle
  2
OverhangOff
 70
    21
177
     3
291
     1
 70
    58
 90
        2
176
     0
 90
        2
176
     0
 90
        0
176
     0
 90
        0
176
     0
 40
0.6
176
     0
 40
30.0
176
     0
 62
     7
420
 16777215
176
     0
 90
        1
176
     0
 90
        4
176
     0
 62
     7
176
     0
 62
   257
176
     0
 90
        1
176
     0
 90
        1
176
     0
 40
1.0
176
     0
 90
        9
176
     2
 62
     7
176
     0
 40
1.0
176
     0
 90
        1
176
     0
 90
        6
176
     0
 90
        2
176
     0
 62
     7
176
     0
 90
        5
176
     0
 90
        0
176
     0
 90
        0
176
     0
290
     0
176
     0
 90
        1
176
     0
 40
0.0
176
     0
 90
        0
176
     0
290
     0
176
     0
290
     1
176
     0
290
     1
176
     0
290
     0
176
     0
290
     0
176
     0
290
     0
176
     0
290
     0
176
     0
290
     0
176
     0
290
     0
176
     0
 90
       50
176
     0
 40
0.0
176
     0
 40
1.0
176
     0
 90
        0
176
     0
 62
    18
420
        0
176
     0
 90
       50
176
     0
 90
        3
176
     0
 62
     5
420
      255
176
     0
290
     0
176
     0
 90
       50
176
     0
 90
       50
176
     0
 90
       50
176
     0
290
     0
176
     0
 90
       50
176
     0
 62
   256
176
     0
 40
1.0
176
     0
 90
        2
176
     0
  1
strokes_ogs.tif
176
     0
290
     0
176
     0
 40
1.0
176
     0
 40
1.0
176
     0
  0
VISUALSTYLE
  5
31B
102
{ACAD_REACTORS
330
311
102
}
330
311
100
AcDbVisualStyle
  2
Realistic
 70
     8
177
     3
291
     0
 70
    58
 90
        2
176
     1
 90
        3
176
     1
 90
        0
176
     1
 90
        2
176
     1
 40
0.6
176
     1
 40
30.0
176
     1
 62
     7
420
 16777215
176
     1
 90
        0
176
     1
 90
        0
176
     1
 62
     7
176
     1
 62
   257
176
     1
 90
        1
176
     1
 90
        1
176
     1
 40
1.0
176
     1
 90
        8
176
     1
 62
   257
176
     1
 40
1.0
176
     1
 90
        1
176
     1
 90
        6
176
     1
 90
        2
176
     1
 62
     7
176
     1
 90
        3
176
     1
 90
        0
176
     1
 90
        0
176
     1
290
     0
176
     1
 90
       13
176
     1
 40
0.0
176
     1
 90
        0
176
     1
290
     0
176
     1
290
     1
176
     1
290
     1
176
     1
290
     0
176
     1
290
     0
176
     1
290
     0
176
     1
290
     0
176
     1
290
     0
176
     1
290
     0
176
     1
 90
       50
176
     1
 40
0.0
176
     1
 40
1.0
176
     1
 90
        0
176
     1
 62
    18
420
        0
176
     1
 90
       50
176
     1
 90
        3
176
     1
 62
     5
420
      255
176
     1
290
     0
176
     1
 90
       50
176
     1
 90
       50
176
     1
 90
       50
176
     1
290
     0
176
     1
 90
       50
176
     1
 62
   256
176
     0
 40
1.0
176
     0
 90
        2
176
     1
  1
strokes_ogs.tif
176
     1
290
     0
176
     1
 40
1.0
176
     1
 40
1.0
176
     1
  0
VISUALSTYLE
  5
326
102
{ACAD_REACTORS
330
311
102
}
330
311
100
AcDbVisualStyle
  2
Shaded
 70
    27
177
     3
291
     0
 70
    58
 90
        2
176
     1
 90
        2
176
     1
 90
        1
176
     1
 90
        2
176
     1
 40
0.6
176
     1
 40
30.0
176
     1
 62
     7
420
 16777215
176
     1
 90
        0
176
     1
 90
        4
176
     1
 62
     7
176
     1
 62
   257
176
     1
 90
        1
176
     1
 90
        1
176
     1
 40
1.0
176
     1
 90
        8
176
     1
 62
   257
176
     1
 40
1.0
176
     1
 90
        1
176
     1
 90
        6
176
     1
 90
        2
176
     1
 62
     8
420
  7895160
176
     1
 90
        3
176
     1
 90
        0
176
     1
 90
        0
176
     1
290
     0
176
     1
 90
        5
176
     1
 40
0.0
176
     1
 90
        0
176
     1
290
     0
176
     1
290
     1
176
     1
290
     1
176
     1
290
     0
176
     1
290
     0
176
     1
290
     0
176
     1
290
     0
176
     1
290
     0
176
     1
290
     0
176
     1
 90
       50
176
     1
 40
0.0
176
     1
 40
1.0
176
     1
 90
        0
176
     1
 62
    18
420
        0
176
     1
 90
       50
176
     1
 90
        3
176
     1
 62
     5
420
      255
176
     1
290
     0
176
     1
 90
       50
176
     1
 90
       50
176
     1
 90
       50
176
     1
290
     0
176
     1
 90
       50
176
     1
 62
   256
176
     0
 40
1.0
176
     0
 90
        2
176
     1
  1
strokes_ogs.tif
176
     1
290
     0
176
     1
 40
1.0
176
     1
 40
1.0
176
     1
  0
VISUALSTYLE
  5
325
102
{ACAD_REACTORS
330
311
102
}
330
311
100
AcDbVisualStyle
  2
Shaded with edges
 70
    26
177
     3
291
     0
 70
    58
 90
        2
176
     1
 90
        2
176
     1
 90
        1
176
     1
 90
        2
176
     1
 40
0.6
176
     1
 40
30.0
176
     1
 62
     7
420
 16777215
176
     1
 90
        1
176
     1
 90
        2
176
     1
 62
     7
176
     1
 62
   257
176
     1
 90
        2
176
     1
 90
        1
176
     1
 40
1.0
176
     1
 90
        8
176
     1
 62
   257
176
     1
 40
1.0
176
     1
 90
        1
176
     1
 90
        6
176
     1
 90
        2
176
     1
 62
     7
176
     1
 90
        3
176
     1
 90
        0
176
     1
 90
        0
176
     1
290
     0
176
     1
 90
        5
176
     1
 40
0.0
176
     1
 90
        0
176
     1
290
     0
176
     1
290
     1
176
     1
290
     1
176
     1
290
     0
176
     1
290
     0
176
     1
290
     0
176
     1
290
     0
176
     1
290
     0
176
     1
290
     0
176
     1
 90
       50
176
     1
 40
0.0
176
     1
 40
1.0
176
     1
 90
        0
176
     1
 62
    18
420
        0
176
     1
 90
       50
176
     1
 90
        3
176
     1
 62
     5
420
      255
176
     1
290
     0
176
     1
 90
       50
176
     1
 90
       50
176
     1
 90
       50
176
     1
290
     0
176
     1
 90
       50
176
     1
 62
   256
176
     0
 40
1.0
176
     0
 90
        2
176
     1
  1
strokes_ogs.tif
176
     1
290
     0
176
     1
 40
1.0
176
     1
 40
1.0
176
     1
  0
VISUALSTYLE
  5
322
102
{ACAD_REACTORS
330
311
102
}
330
311
100
AcDbVisualStyle
  2
Shades of Gray
 70
    23
177
     3
291
     0
 70
    58
 90
        2
176
     1
 90
        2
176
     1
 90
        3
176
     1
 90
        0
176
     1
 40
0.6
176
     1
 40
30.0
176
     1
 62
     7
420
 16777215
176
     1
 90
        2
176
     1
 90
        2
176
     1
 62
     7
176
     1
 62
     7
176
     1
 90
        1
176
     1
 90
        1
176
     1
 40
40.0
176
     1
 90
        8
176
     1
 62
     7
176
     1
 40
1.0
176
     1
 90
        1
176
     1
 90
        6
176
     1
 90
        2
176
     1
 62
     7
176
     1
 90
        3
176
     1
 90
        0
176
     1
 90
        0
176
     1
290
     0
176
     1
 90
        1
176
     1
 40
0.0
176
     1
 90
        0
176
     1
290
     0
176
     1
290
     1
176
     1
290
     1
176
     1
290
     0
176
     1
290
     0
176
     1
290
     0
176
     1
290
     0
176
     1
290
     0
176
     1
290
     0
176
     1
 90
       50
176
     1
 40
0.0
176
     1
 40
1.0
176
     1
 90
        0
176
     1
 62
    18
420
        0
176
     1
 90
       50
176
     1
 90
        3
176
     1
 62
     5
420
      255
176
     1
290
     0
176
     1
 90
       50
176
     1
 90
       50
176
     1
 90
       50
176
     1
290
     0
176
     1
 90
       50
176
     1
 62
   256
176
     0
 40
1.0
176
     0
 90
        2
176
     1
  1
strokes_ogs.tif
176
     1
290
     0
176
     1
 40
1.0
176
     1
 40
1.0
176
     1
  0
VISUALSTYLE
  5
323
102
{ACAD_REACTORS
330
311
102
}
330
311
100
AcDbVisualStyle
  2
Sketchy
 70
    24
177
     3
291
     0
 70
    58
 90
        1
176
     1
 90
        2
176
     1
 90
        2
176
     1
 90
        0
176
     1
 40
0.6
176
     1
 40
30.0
176
     1
 62
     7
420
 16777215
176
     1
 90
        2
176
     1
 90
        2
176
     1
 62
     7
176
     1
 62
     7
176
     1
 90
        1
176
     1
 90
        1
176
     1
 40
40.0
176
     1
 90
       11
176
     1
 62
     7
176
     1
 40
1.0
176
     1
 90
        1
176
     1
 90
        6
176
     1
 90
        2
176
     1
 62
     7
176
     1
 90
        6
176
     1
 90
        0
176
     1
 90
        0
176
     1
290
     0
176
     1
 90
        1
176
     1
 40
0.0
176
     1
 90
        0
176
     1
290
     0
176
     1
290
     1
176
     1
290
     1
176
     1
290
     0
176
     1
290
     0
176
     1
290
     0
176
     1
290
     0
176
     1
290
     0
176
     1
290
     0
176
     1
 90
       50
176
     1
 40
0.0
176
     1
 40
1.0
176
     1
 90
        0
176
     1
 62
    18
420
        0
176
     1
 90
       50
176
     1
 90
        3
176
     1
 62
     5
420
      255
176
     1
290
     0
176
     1
 90
       50
176
     1
 90
       50
176
     1
 90
       50
176
     1
290
     0
176
     1
 90
       50
176
     1
 62
   256
176
     0
 40
1.0
176
     0
 90
        2
176
     1
  1
strokes_ogs.tif
176
     1
290
     0
176
     1
 40
1.0
176
     1
 40
1.0
176
     1
  0
VISUALSTYLE
  5
31E
102
{ACAD_REACTORS
330
311
102
}
330
311
100
AcDbVisualStyle
  2
Thicken
 70
    13
177
     3
291
     1
 70
    58
 90
        2
176
     1
 90
        2
176
     1
 90
        0
176
     1
 90
        0
176
     1
 40
0.6
176
     1
 40
30.0
176
     1
 62
     7
420
 16777215
176
     1
 90
        1
176
     1
 90
        4
176
     1
 62
     7
176
     1
 62
   257
176
     1
 90
        1
176
     1
 90
        1
176
     1
 40
1.0
176
     1
 90
       12
176
     1
 62
     7
176
     1
 40
1.0
176
     1
 90
        1
176
     1
 90
        6
176
     1
 90
        2
176
     1
 62
     7
176
     1
 90
        5
176
     1
 90
        0
176
     1
 90
        0
176
     1
290
     0
176
     1
 90
        1
176
     1
 40
0.0
176
     1
 90
        0
176
     1
290
     0
176
     1
290
     1
176
     1
290
     1
176
     1
290
     0
176
     1
290
     0
176
     1
290
     0
176
     1
290
     0
176
     1
290
     0
176
     1
290
     0
176
     1
 90
       50
176
     1
 40
0.0
176
     1
 40
1.0
176
     1
 90
        0
176
     1
 62
    18
420
        0
176
     1
 90
       50
176
     1
 90
        3
176
     1
 62
     5
420
      255
176
     1
290
     0
176
     1
 90
       50
176
     1
 90
       50
176
     1
 90
       50
176
     1
290
     0
176
     1
 90
       50
176
     1
 62
   256
176
     0
 40
1.0
176
     0
 90
        2
176
     1
  1
strokes_ogs.tif
176
     1
290
     0
176
     1
 40
1.0
176
     1
 40
1.0
176
     1
  0
VISUALSTYLE
  5
318
102
{ACAD_REACTORS
330
311
102
}
330
311
100
AcDbVisualStyle
  2
Wireframe
 70
     5
177
     3
291
     0
 70
    58
 90
        0
176
     1
 90
        2
176
     1
 90
        0
176
     1
 90
        0
176
     1
 40
0.6
176
     1
 40
30.0
176
     1
 62
     7
420
 16777215
176
     1
 90
        1
176
     1
 90
        4
176
     1
 62
     7
176
     1
 62
   257
176
     1
 90
        1
176
     1
 90
        1
176
     1
 40
1.0
176
     1
 90
        0
176
     1
 62
   257
176
     1
 40
1.0
176
     1
 90
        1
176
     1
 90
        6
176
     1
 90
        2
176
     1
 62
     7
176
     1
 90
        3
176
     1
 90
        0
176
     1
 90
        0
176
     1
290
     0
176
     1
 90
        1
176
     1
 40
0.0
176
     1
 90
        0
176
     1
290
     0
176
     1
290
     1
176
     1
290
     1
176
     1
290
     0
176
     1
290
     0
176
     1
290
     0
176
     1
290
     0
176
     1
290
     0
176
     1
290
     0
176
     1
 90
       50
176
     1
 40
0.0
176
     1
 40
1.0
176
     1
 90
        0
176
     1
 62
    18
420
        0
176
     1
 90
       50
176
     1
 90
        3
176
     1
 62
     5
420
      255
176
     1
290
     0
176
     1
 90
       50
176
     1
 90
       50
176
     1
 90
       50
176
     1
290
     0
176
     1
 90
       50
176
     1
 62
   256
176
     0
 40
1.0
176
     0
 90
        2
176
     1
  1
strokes_ogs.tif
176
     1
290
     0
176
     1
 40
1.0
176
     1
 40
1.0
176
     1
  0
VISUALSTYLE
  5
324
102
{ACAD_REACTORS
330
311
102
}
330
311
100
AcDbVisualStyle
  2
X-Ray
 70
    25
177
     3
291
     0
 70
    58
 90
        2
176
     1
 90
        2
176
     1
 90
        1
176
     1
 90
        1
176
     1
 40
0.5
176
     1
 40
30.0
176
     1
 62
     7
420
 16777215
176
     1
 90
        1
176
     1
 90
        0
176
     1
 62
     7
176
     1
 62
   257
176
     1
 90
        1
176
     1
 90
        1
176
     1
 40
1.0
176
     1
 90
        8
176
     1
 62
     7
176
     1
 40
1.0
176
     1
 90
        1
176
     1
 90
        6
176
     1
 90
        2
176
     1
 62
     7
176
     1
 90
        3
176
     1
 90
        0
176
     1
 90
        0
176
     1
290
     0
176
     1
 90
       13
176
     1
 40
0.0
176
     1
 90
        0
176
     1
290
     0
176
     1
290
     1
176
     1
290
     1
176
     1
290
     0
176
     1
290
     0
176
     1
290
     0
176
     1
290
     0
176
     1
290
     0
176
     1
290
     0
176
     1
 90
       50
176
     1
 40
0.0
176
     1
 40
1.0
176
     1
 90
        0
176
     1
 62
    18
420
        0
176
     1
 90
       50
176
     1
 90
        3
176
     1
 62
     5
420
      255
176
     1
290
     0
176
     1
 90
       50
176
     1
 90
       50
176
     1
 90
       50
176
     1
290
     0
176
     1
 90
       50
176
     1
 62
   256
176
     0
 40
1.0
176
     0
 90
        2
176
     1
  1
strokes_ogs.tif
176
     1
290
     0
176
     1
 40
1.0
176
     1
 40
1.0
176
     1
  0
DICTIONARYVAR
  5
365
102
{ACAD_REACTORS
330
5E
102
}
330
5E
100
DictionaryVariables
280
     0
  1
1:1
  0
DICTIONARYVAR
  5
361
102
{ACAD_REACTORS
330
5E
102
}
330
5E
100
DictionaryVariables
280
     0
  1
STANDARD
  0
DICTIONARYVAR
  5
360
102
{ACAD_REACTORS
330
5E
102
}
330
5E
100
DictionaryVariables
280
     0
  1
STANDARD
  0
DICTIONARYVAR
  5
362
102
{ACAD_REACTORS
330
5E
102
}
330
5E
100
DictionaryVariables
280
     0
  1
Metric50
  0
DICTIONARYVAR
  5
363
102
{ACAD_REACTORS
330
5E
102
}
330
5E
100
DictionaryVariables
280
     0
  1
Metric50
  0
DICTIONARYVAR
  5
5F
102
{ACAD_REACTORS
330
5E
102
}
330
5E
100
DictionaryVariables
280
     0
  1
2
  0
DICTIONARYVAR
  5
63
102
{ACAD_REACTORS
330
5E
102
}
330
5E
100
DictionaryVariables
280
     0
  1
1
  0
DICTIONARYVAR
  5
367
102
{ACAD_REACTORS
330
5E
102
}
330
5E
100
DictionaryVariables
280
     0
  1
1
  0
DICTIONARYVAR
  5
368
102
{ACAD_REACTORS
330
5E
102
}
330
5E
100
DictionaryVariables
280
     0
  1
15
  0
DICTIONARYVAR
  5
366
102
{ACAD_REACTORS
330
5E
102
}
330
5E
100
DictionaryVariables
280
     0
  1
0
  0
DICTIONARYVAR
  5
364
102
{ACAD_REACTORS
330
5E
102
}
330
5E
100
DictionaryVariables
280
     0
  1
0
  0
DICTIONARY
  5
36D
330
343
100
AcDbDictionary
280
     1
281
     1
  3
ACAD_XREC_ROUNDTRIP
360
36E
  0
DICTIONARY
  5
302
330
301
100
AcDbDictionary
280
     1
281
     1
  3
BUMPTILE
360
304
  3
DIFFUSETILE
360
303
  3
OPACITYTILE
360
307
  3
REFLECTIONTILE
360
306
  3
REFRACTIONTILE
360
308
  3
SPECULARTILE
360
305
  0
DICTIONARY
  5
2FA
330
2F9
100
AcDbDictionary
280
     1
281
     1
  3
BUMPTILE
360
2FC
  3
DIFFUSETILE
360
2FB
  3
OPACITYTILE
360
2FF
  3
REFLECTIONTILE
360
2FE
  3
REFRACTIONTILE
360
300
  3
SPECULARTILE
360
2FD
  0
DICTIONARY
  5
30A
330
309
100
AcDbDictionary
280
     1
281
     1
  3
BUMPTILE
360
30C
  3
DIFFUSETILE
360
30B
  3
OPACITYTILE
360
30F
  3
REFLECTIONTILE
360
30E
  3
REFRACTIONTILE
360
310
  3
SPECULARTILE
360
30D
  0
DICTIONARY
  5
36B
330
341
100
AcDbDictionary
280
     1
281
     1
  3
ACAD_XREC_ROUNDTRIP
360
36C
  0
DICTIONARY
  5
369
330
32B
100
AcDbDictionary
280
     1
281
     1
  3
ACAD_ROUNDTRIP_2008_TABLESTYLE_CELLSTYLEMAP
360
36A
  0
XRECORD
  5
36E
102
{ACAD_REACTORS
330
36D
102
}
330
36D
100
AcDbXrecord
280
     1
102
DISPLAYNAME
  1
Metric50
102
FLAGS
 90
        0
  0
XRECORD
  5
304
102
{ACAD_REACTORS
330
302
102
}
330
302
100
AcDbXrecord
280
     1
270
     1
271
     1
  0
XRECORD
  5
303
102
{ACAD_REACTORS
330
302
102
}
330
302
100
AcDbXrecord
280
     1
270
     1
271
     1
  0
XRECORD
  5
307
102
{ACAD_REACTORS
330
302
102
}
330
302
100
AcDbXrecord
280
     1
270
     1
271
     1
  0
XRECORD
  5
306
102
{ACAD_REACTORS
330
302
102
}
330
302
100
AcDbXrecord
280
     1
270
     1
271
     1
  0
XRECORD
  5
308
102
{ACAD_REACTORS
330
302
102
}
330
302
100
AcDbXrecord
280
     1
270
     1
271
     1
  0
XRECORD
  5
305
102
{ACAD_REACTORS
330
302
102
}
330
302
100
AcDbXrecord
280
     1
270
     1
271
     1
  0
XRECORD
  5
2FC
102
{ACAD_REACTORS
330
2FA
102
}
330
2FA
100
AcDbXrecord
280
     1
270
     1
271
     1
  0
XRECORD
  5
2FB
102
{ACAD_REACTORS
330
2FA
102
}
330
2FA
100
AcDbXrecord
280
     1
270
     1
271
     1
  0
XRECORD
  5
2FF
102
{ACAD_REACTORS
330
2FA
102
}
330
2FA
100
AcDbXrecord
280
     1
270
     1
271
     1
  0
XRECORD
  5
2FE
102
{ACAD_REACTORS
330
2FA
102
}
330
2FA
100
AcDbXrecord
280
     1
270
     1
271
     1
  0
XRECORD
  5
300
102
{ACAD_REACTORS
330
2FA
102
}
330
2FA
100
AcDbXrecord
280
     1
270
     1
271
     1
  0
XRECORD
  5
2FD
102
{ACAD_REACTORS
330
2FA
102
}
330
2FA
100
AcDbXrecord
280
     1
270
     1
271
     1
  0
XRECORD
  5
30C
102
{ACAD_REACTORS
330
30A
102
}
330
30A
100
AcDbXrecord
280
     1
270
     1
271
     1
  0
XRECORD
  5
30B
102
{ACAD_REACTORS
330
30A
102
}
330
30A
100
AcDbXrecord
280
     1
270
     1
271
     1
  0
XRECORD
  5
30F
102
{ACAD_REACTORS
330
30A
102
}
330
30A
100
AcDbXrecord
280
     1
270
     1
271
     1
  0
XRECORD
  5
30E
102
{ACAD_REACTORS
330
30A
102
}
330
30A
100
AcDbXrecord
280
     1
270
     1
271
     1
  0
XRECORD
  5
310
102
{ACAD_REACTORS
330
30A
102
}
330
30A
100
AcDbXrecord
280
     1
270
     1
271
     1
  0
XRECORD
  5
30D
102
{ACAD_REACTORS
330
30A
102
}
330
30A
100
AcDbXrecord
280
     1
270
     1
271
     1
  0
XRECORD
  5
36C
102
{ACAD_REACTORS
330
36B
102
}
330
36B
100
AcDbXrecord
280
     1
102
DISPLAYNAME
  1
Metric50
102
FLAGS
 90
        0
  0
CELLSTYLEMAP
  5
36A
102
{ACAD_REACTORS
330
369
102
}
330
369
100
AcDbCellStyleMap
 90
        3
300
CELLSTYLE
  1
TABLEFORMAT_BEGIN
 90
        5
170
     1
 91
        0
 92
    32768
 62
   257
 93
        1
300
CONTENTFORMAT
  1
CONTENTFORMAT_BEGIN
 90
        0
 91
        0
 92
      512
 93
        0
300

 40
0.0
140
1.0
 94
        5
 62
     0
340
11
144
6.0
309
CONTENTFORMAT_END
171
     1
301
MARGIN
  1
CELLMARGIN_BEGIN
 40
1.5
 40
1.5
 40
1.5
 40
1.5
 40
4.5
 40
4.5
309
CELLMARGIN_END
 94
        6
 95
        1
302
GRIDFORMAT
  1
GRIDFORMAT_BEGIN
 90
        0
 91
        1
 62
     0
 92
       -2
340
0
 93
        0
 40
1.125
309
GRIDFORMAT_END
 95
        2
302
GRIDFORMAT
  1
GRIDFORMAT_BEGIN
 90
        0
 91
        1
 62
     0
 92
       -2
340
0
 93
        0
 40
1.125
309
GRIDFORMAT_END
 95
        4
302
GRIDFORMAT
  1
GRIDFORMAT_BEGIN
 90
        0
 91
        1
 62
     0
 92
       -2
340
0
 93
        0
 40
1.125
309
GRIDFORMAT_END
 95
        8
302
GRIDFORMAT
  1
GRIDFORMAT_BEGIN
 90
        0
 91
        1
 62
     0
 92
       -2
340
0
 93
        0
 40
1.125
309
GRIDFORMAT_END
 95
       16
302
GRIDFORMAT
  1
GRIDFORMAT_BEGIN
 90
        0
 91
        1
 62
     0
 92
       -2
340
0
 93
        0
 40
1.125
309
GRIDFORMAT_END
 95
       32
302
GRIDFORMAT
  1
GRIDFORMAT_BEGIN
 90
        0
 91
        1
 62
     0
 92
       -2
340
0
 93
        0
 40
1.125
309
GRIDFORMAT_END
309
TABLEFORMAT_END
  1
CELLSTYLE_BEGIN
 90
        1
 91
        1
300
_TITLE
309
CELLSTYLE_END
300
CELLSTYLE
  1
TABLEFORMAT_BEGIN
 90
        5
170
     1
 91
        0
 92
        0
 62
   257
 93
        1
300
CONTENTFORMAT
  1
CONTENTFORMAT_BEGIN
 90
        0
 91
        0
 92
      512
 93
        0
300

 40
0.0
140
1.0
 94
        5
 62
     0
340
11
144
4.5
309
CONTENTFORMAT_END
171
     1
301
MARGIN
  1
CELLMARGIN_BEGIN
 40
1.5
 40
1.5
 40
1.5
 40
1.5
 40
4.5
 40
4.5
309
CELLMARGIN_END
 94
        6
 95
        1
302
GRIDFORMAT
  1
GRIDFORMAT_BEGIN
 90
        0
 91
        1
 62
     0
 92
       -2
340
0
 93
        0
 40
1.125
309
GRIDFORMAT_END
 95
        2
302
GRIDFORMAT
  1
GRIDFORMAT_BEGIN
 90
        0
 91
        1
 62
     0
 92
       -2
340
0
 93
        0
 40
1.125
309
GRIDFORMAT_END
 95
        4
302
GRIDFORMAT
  1
GRIDFORMAT_BEGIN
 90
        0
 91
        1
 62
     0
 92
       -2
340
0
 93
        0
 40
1.125
309
GRIDFORMAT_END
 95
        8
302
GRIDFORMAT
  1
GRIDFORMAT_BEGIN
 90
        0
 91
        1
 62
     0
 92
       -2
340
0
 93
        0
 40
1.125
309
GRIDFORMAT_END
 95
       16
302
GRIDFORMAT
  1
GRIDFORMAT_BEGIN
 90
        0
 91
        1
 62
     0
 92
       -2
340
0
 93
        0
 40
1.125
309
GRIDFORMAT_END
 95
       32
302
GRIDFORMAT
  1
GRIDFORMAT_BEGIN
 90
        0
 91
        1
 62
     0
 92
       -2
340
0
 93
        0
 40
1.125
309
GRIDFORMAT_END
309
TABLEFORMAT_END
  1
CELLSTYLE_BEGIN
 90
        2
 91
        1
300
_HEADER
309
CELLSTYLE_END
300
CELLSTYLE
  1
TABLEFORMAT_BEGIN
 90
        5
170
     1
 91
        0
 92
        0
 62
   257
 93
        1
300
CONTENTFORMAT
  1
CONTENTFORMAT_BEGIN
 90
        0
 91
        0
 92
      512
 93
        0
300

 40
0.0
140
1.0
 94
        2
 62
     0
340
11
144
4.5
309
CONTENTFORMAT_END
171
     1
301
MARGIN
  1
CELLMARGIN_BEGIN
 40
1.5
 40
1.5
 40
1.5
 40
1.5
 40
4.5
 40
4.5
309
CELLMARGIN_END
 94
        6
 95
        1
302
GRIDFORMAT
  1
GRIDFORMAT_BEGIN
 90
        0
 91
        1
 62
     0
 92
       -2
340
0
 93
        0
 40
1.125
309
GRIDFORMAT_END
 95
        2
302
GRIDFORMAT
  1
GRIDFORMAT_BEGIN
 90
        0
 91
        1
 62
     0
 92
       -2
340
0
 93
        0
 40
1.125
309
GRIDFORMAT_END
 95
        4
302
GRIDFORMAT
  1
GRIDFORMAT_BEGIN
 90
        0
 91
        1
 62
     0
 92
       -2
340
0
 93
        0
 40
1.125
309
GRIDFORMAT_END
 95
        8
302
GRIDFORMAT
  1
GRIDFORMAT_BEGIN
 90
        0
 91
        1
 62
     0
 92
       -2
340
0
 93
        0
 40
1.125
309
GRIDFORMAT_END
 95
       16
302
GRIDFORMAT
  1
GRIDFORMAT_BEGIN
 90
        0
 91
        1
 62
     0
 92
       -2
340
0
 93
        0
 40
1.125
309
GRIDFORMAT_END
 95
       32
302
GRIDFORMAT
  1
GRIDFORMAT_BEGIN
 90
        0
 91
        1
 62
     0
 92
       -2
340
0
 93
        0
 40
1.125
309
GRIDFORMAT_END
309
TABLEFORMAT_END
  1
CELLSTYLE_BEGIN
 90
        3
 91
        2
300
_DATA
309
CELLSTYLE_END
  0
ENDSEC
  0
EOF
