  0
SECTION
  2
HEADER
  9
$ACADVER
  1
AC1027
  9
$ACADMAINTVER
 70
   125
  9
$DWGCODEPAGE
  3
ANSI_1252
  9
$LASTSAVEDBY
  1
fleminab
  9
$REQUIREDVERSIONS
160
                 0
  9
$INSBASE
 10
0.0
 20
0.0
 30
0.0
  9
$EXTMIN
 10
356.7551740749295
 20
-68.42931207586594
 30
-0.0015258207003583
  9
$EXTMAX
 10
1316.647168872428
 20
193.8165890394622
 30
0.0000000349246037
  9
$LIMMIN
 10
0.0
 20
0.0
  9
$LIMMAX
 10
297.0
 20
210.0
  9
$ORTHOMODE
 70
     0
  9
$REGENMODE
 70
     1
  9
$FILLMODE
 70
     1
  9
$QTEXTMODE
 70
     0
  9
$MIRRTEXT
 70
     1
  9
$LTSCALE
 40
1.0
  9
$ATTMODE
 70
     1
  9
$TEXTSIZE
 40
2.5
  9
$TRACEWID
 40
1.0
  9
$TEXTSTYLE
  7
Standard
  9
$CLAYER
  8
0
  9
$CELTYPE
  6
ByLayer
  9
$CECOLOR
 62
   256
  9
$CELTSCALE
 40
1.0
  9
$DISPSILH
 70
     0
  9
$DIMSCALE
 40
1.0
  9
$DIMASZ
 40
2.0
  9
$DIMEXO
 40
1.0
  9
$DIMDLI
 40
3.75
  9
$DIMRND
 40
0.0
  9
$DIMDLE
 40
0.0
  9
$DIMEXE
 40
1.5
  9
$DIMTP
 40
0.0
  9
$DIMTM
 40
0.0
  9
$DIMTXT
 40
2.5
  9
$DIMCEN
 40
2.5
  9
$DIMTSZ
 40
0.0
  9
$DIMTOL
 70
     0
  9
$DIMLIM
 70
     0
  9
$DIMTIH
 70
     1
  9
$DIMTOH
 70
     1
  9
$DIMSE1
 70
     0
  9
$DIMSE2
 70
     0
  9
$DIMTAD
 70
     1
  9
$DIMZIN
 70
     0
  9
$DIMBLK
  1

  9
$DIMASO
 70
     1
  9
$DIMSHO
 70
     1
  9
$DIMPOST
  1

  9
$DIMAPOST
  1

  9
$DIMALT
 70
     0
  9
$DIMALTD
 70
     3
  9
$DIMALTF
 40
0.0393700787401575
  9
$DIMLFAC
 40
5.0
  9
$DIMTOFL
 70
     1
  9
$DIMTVP
 40
0.0
  9
$DIMTIX
 70
     0
  9
$DIMSOXD
 70
     0
  9
$DIMSAH
 70
     0
  9
$DIMBLK1
  1

  9
$DIMBLK2
  1

  9
$DIMSTYLE
  2
ISO-25
  9
$DIMCLRD
 70
     0
  9
$DIMCLRE
 70
     0
  9
$DIMCLRT
 70
     0
  9
$DIMTFAC
 40
1.0
  9
$DIMGAP
 40
1.524
  9
$DIMJUST
 70
     0
  9
$DIMSD1
 70
     0
  9
$DIMSD2
 70
     0
  9
$DIMTOLJ
 70
     0
  9
$DIMTZIN
 70
     0
  9
$DIMALTZ
 70
     0
  9
$DIMALTTZ
 70
     0
  9
$DIMUPT
 70
     0
  9
$DIMDEC
 70
     6
  9
$DIMTDEC
 70
     2
  9
$DIMALTU
 70
     2
  9
$DIMALTTD
 70
     3
  9
$DIMTXSTY
  7
Standard
  9
$DIMAUNIT
 70
     0
  9
$DIMADEC
 70
     2
  9
$DIMALTRND
 40
0.0
  9
$DIMAZIN
 70
     0
  9
$DIMDSEP
 70
    44
  9
$DIMATFIT
 70
     3
  9
$DIMFRAC
 70
     0
  9
$DIMLDRBLK
  1

  9
$DIMLUNIT
 70
     2
  9
$DIMLWD
 70
    -2
  9
$DIMLWE
 70
    -2
  9
$DIMTMOVE
 70
     0
  9
$DIMFXL
 40
1.0
  9
$DIMFXLON
 70
     0
  9
$DIMJOGANG
 40
0.7853981633974483
  9
$DIMTFILL
 70
     0
  9
$DIMTFILLCLR
 70
     0
  9
$DIMARCSYM
 70
     0
  9
$DIMLTYPE
  6

  9
$DIMLTEX1
  6

  9
$DIMLTEX2
  6

  9
$DIMTXTDIRECTION
 70
     0
  9
$LUNITS
 70
     2
  9
$LUPREC
 70
     2
  9
$SKETCHINC
 40
1.0
  9
$FILLETRAD
 40
10.0
  9
$AUNITS
 70
     0
  9
$AUPREC
 70
     2
  9
$MENU
  1
.
  9
$ELEVATION
 40
0.0
  9
$PELEVATION
 40
0.0
  9
$THICKNESS
 40
0.0
  9
$LIMCHECK
 70
     0
  9
$CHAMFERA
 40
10.0
  9
$CHAMFERB
 40
10.0
  9
$CHAMFERC
 40
20.0
  9
$CHAMFERD
 40
0.0
  9
$SKPOLY
 70
     0
  9
$TDCREATE
 40
2456156.477592593
  9
$TDUCREATE
 40
2456156.060932616
  9
$TDUPDATE
 40
2458033.446481482
  9
$TDUUPDATE
 40
2458032.988148148
  9
$TDINDWG
 40
0.0094732176
  9
$TDUSRTIMER
 40
0.0094732176
  9
$USRTIMER
 70
     1
  9
$ANGBASE
 50
0.0
  9
$ANGDIR
 70
     0
  9
$PDMODE
 70
     0
  9
$PDSIZE
 40
-1.0
  9
$PLINEWID
 40
0.0
  9
$SPLFRAME
 70
     0
  9
$SPLINETYPE
 70
     6
  9
$SPLINESEGS
 70
     8
  9
$HANDSEED
  5
3E3
  9
$SURFTAB1
 70
     6
  9
$SURFTAB2
 70
     6
  9
$SURFTYPE
 70
     6
  9
$SURFU
 70
     6
  9
$SURFV
 70
     6
  9
$UCSBASE
  2

  9
$UCSNAME
  2

  9
$UCSORG
 10
0.0
 20
0.0
 30
0.0
  9
$UCSXDIR
 10
1.0
 20
0.0
 30
0.0
  9
$UCSYDIR
 10
0.0
 20
1.0
 30
0.0
  9
$UCSORTHOREF
  2

  9
$UCSORTHOVIEW
 70
     0
  9
$UCSORGTOP
 10
0.0
 20
0.0
 30
0.0
  9
$UCSORGBOTTOM
 10
0.0
 20
0.0
 30
0.0
  9
$UCSORGLEFT
 10
0.0
 20
0.0
 30
0.0
  9
$UCSORGRIGHT
 10
0.0
 20
0.0
 30
0.0
  9
$UCSORGFRONT
 10
0.0
 20
0.0
 30
0.0
  9
$UCSORGBACK
 10
0.0
 20
0.0
 30
0.0
  9
$PUCSBASE
  2

  9
$PUCSNAME
  2

  9
$PUCSORG
 10
0.0
 20
0.0
 30
0.0
  9
$PUCSXDIR
 10
1.0
 20
0.0
 30
0.0
  9
$PUCSYDIR
 10
0.0
 20
1.0
 30
0.0
  9
$PUCSORTHOREF
  2

  9
$PUCSORTHOVIEW
 70
     0
  9
$PUCSORGTOP
 10
0.0
 20
0.0
 30
0.0
  9
$PUCSORGBOTTOM
 10
0.0
 20
0.0
 30
0.0
  9
$PUCSORGLEFT
 10
0.0
 20
0.0
 30
0.0
  9
$PUCSORGRIGHT
 10
0.0
 20
0.0
 30
0.0
  9
$PUCSORGFRONT
 10
0.0
 20
0.0
 30
0.0
  9
$PUCSORGBACK
 10
0.0
 20
0.0
 30
0.0
  9
$USERI1
 70
     0
  9
$USERI2
 70
     0
  9
$USERI3
 70
     0
  9
$USERI4
 70
     0
  9
$USERI5
 70
     0
  9
$USERR1
 40
0.0
  9
$USERR2
 40
0.0
  9
$USERR3
 40
0.0
  9
$USERR4
 40
0.0
  9
$USERR5
 40
0.0
  9
$WORLDVIEW
 70
     1
  9
$SHADEDGE
 70
     3
  9
$SHADEDIF
 70
    70
  9
$TILEMODE
 70
     1
  9
$MAXACTVP
 70
    64
  9
$PINSBASE
 10
0.0
 20
0.0
 30
0.0
  9
$PLIMCHECK
 70
     0
  9
$PEXTMIN
 10
1.000000000000000E+20
 20
1.000000000000000E+20
 30
1.000000000000000E+20
  9
$PEXTMAX
 10
-1.000000000000000E+20
 20
-1.000000000000000E+20
 30
-1.000000000000000E+20
  9
$PLIMMIN
 10
0.0
 20
0.0
  9
$PLIMMAX
 10
420.0
 20
297.0
  9
$UNITMODE
 70
     0
  9
$VISRETAIN
 70
     1
  9
$PLINEGEN
 70
     0
  9
$PSLTSCALE
 70
     1
  9
$TREEDEPTH
 70
  3020
  9
$CMLSTYLE
  2
Standard
  9
$CMLJUST
 70
     0
  9
$CMLSCALE
 40
20.0
  9
$PROXYGRAPHICS
 70
     1
  9
$MEASUREMENT
 70
     1
  9
$CELWEIGHT
370
    -1
  9
$ENDCAPS
280
     0
  9
$JOINSTYLE
280
     0
  9
$LWDISPLAY
290
     1
  9
$INSUNITS
 70
     4
  9
$HYPERLINKBASE
  1

  9
$STYLESHEET
  1

  9
$XEDIT
290
     1
  9
$CEPSNTYPE
380
     0
  9
$PSTYLEMODE
290
     1
  9
$FINGERPRINTGUID
  2
{CCE31F09-69CF-492C-ACF6-85756028D6DE}
  9
$VERSIONGUID
  2
{C9B53371-C4F9-5249-8587-4BCF3EE155D4}
  9
$EXTNAMES
290
     1
  9
$PSVPSCALE
 40
0.0
  9
$OLESTARTUP
290
     0
  9
$SORTENTS
280
   127
  9
$INDEXCTL
280
     1
  9
$HIDETEXT
280
     0
  9
$XCLIPFRAME
280
     0
  9
$HALOGAP
280
     0
  9
$OBSCOLOR
 70
   257
  9
$OBSLTYPE
280
     0
  9
$INTERSECTIONDISPLAY
280
     0
  9
$INTERSECTIONCOLOR
 70
   257
  9
$DIMASSOC
280
     1
  9
$PROJECTNAME
  1

  9
$CAMERADISPLAY
290
     0
  9
$LENSLENGTH
 40
50.0
  9
$CAMERAHEIGHT
 40
0.0
  9
$STEPSPERSEC
 40
2.0
  9
$STEPSIZE
 40
6.0
  9
$3DDWFPREC
 40
2.0
  9
$PSOLWIDTH
 40
0.25
  9
$PSOLHEIGHT
 40
4.0
  9
$LOFTANG1
 40
1.570796326794896
  9
$LOFTANG2
 40
1.570796326794896
  9
$LOFTMAG1
 40
0.0
  9
$LOFTMAG2
 40
0.0
  9
$LOFTPARAM
 70
     7
  9
$LOFTNORMALS
280
     1
  9
$LATITUDE
 40
37.795
  9
$LONGITUDE
 40
-122.394
  9
$NORTHDIRECTION
 40
0.0
  9
$TIMEZONE
 70
 -8000
  9
$LIGHTGLYPHDISPLAY
280
     1
  9
$TILEMODELIGHTSYNCH
280
     1
  9
$CMATERIAL
347
360
  9
$SOLIDHIST
280
     0
  9
$SHOWHIST
280
     1
  9
$DWFFRAME
280
     2
  9
$DGNFRAME
280
     0
  9
$REALWORLDSCALE
290
     1
  9
$INTERFERECOLOR
 62
     1
  9
$INTERFEREOBJVS
345
382
  9
$INTERFEREVPVS
346
37F
  9
$CSHADOW
280
     0
  9
$SHADOWPLANELOCATION
 40
0.0
  0
ENDSEC
  0
SECTION
  2
CLASSES
  0
CLASS
  1
ACDBDICTIONARYWDFLT
  2
AcDbDictionaryWithDefault
  3
ObjectDBX Classes
 90
        0
 91
        1
280
     0
281
     0
  0
CLASS
  1
VISUALSTYLE
  2
AcDbVisualStyle
  3
ObjectDBX Classes
 90
     4095
 91
       24
280
     0
281
     0
  0
CLASS
  1
MATERIAL
  2
AcDbMaterial
  3
ObjectDBX Classes
 90
     1153
 91
        3
280
     0
281
     0
  0
CLASS
  1
ACDBPLACEHOLDER
  2
AcDbPlaceHolder
  3
ObjectDBX Classes
 90
        0
 91
        1
280
     0
281
     0
  0
CLASS
  1
LAYOUT
  2
AcDbLayout
  3
ObjectDBX Classes
 90
        0
 91
        3
280
     0
281
     0
  0
CLASS
  1
SCALE
  2
AcDbScale
  3
ObjectDBX Classes
 90
     1153
 91
       99
280
     0
281
     0
  0
CLASS
  1
ACME_DOCUMENT
  2
AcMeDbDoc
  3
AcMeServices
 90
        0
 91
        0
280
     0
281
     0
  0
CLASS
  1
AMGSETTINGSOBJ
  2
AmgSettingsObj
  3
"AcadM|Product Description: AutoCAD Mechanical 2000|Company: Autodesk"
 90
        0
 91
        2
280
     0
281
     0
  0
CLASS
  1
ACMESCOPE
  2
AcMeScope
  3
AcMeServices
 90
        0
 91
        1
280
     0
281
     0
  0
CLASS
  1
ACMECOMMANDHISTORY
  2
AcMeCommandHistory
  3
AcMeServices
 90
        0
 91
        1
280
     0
281
     0
  0
CLASS
  1
ACIMSYSVARMAN
  2
AcImSysVarManager
  3
AcMeServices
 90
        0
 91
        5
280
     0
281
     0
  0
CLASS
  1
ACIMINTSYSVAR
  2
AcImIntSysVar
  3
AcMeServices
 90
        0
 91
       26
280
     0
281
     0
  0
CLASS
  1
ACMEDRAWINGMAN
  2
AcMeDrawingMan
  3
AcMeServices
 90
        0
 91
        1
280
     0
281
     0
  0
CLASS
  1
ACMEVIEW
  2
AcMeView
  3
AcMeServices
 90
        0
 91
        1
280
     0
281
     0
  0
CLASS
  1
ACDBENTITYCACHE
  2
AcMeEntityCache
  3
AcMeServices
 90
        0
 91
        0
280
     0
281
     0
  0
CLASS
  1
GSMANAGER
  2
AcMeGSManager
  3
AcMeServices
 90
        0
 91
        0
280
     0
281
     0
  0
CLASS
  1
AMDTINTERNALREACTOR
  2
AmdtInternalReactor
  3
AcMeServices
 90
        0
 91
        0
280
     0
281
     0
  0
CLASS
  1
ACMESTATEMGR
  2
AcMeStateMgr
  3
AcMeServices
 90
        0
 91
        1
280
     0
281
     0
  0
CLASS
  1
ACGREFMASTER
  2
AcGrefMaster
  3
AcAttribServices
 90
        0
 91
        1
280
     0
281
     0
  0
CLASS
  1
AM_DRAWING_MGR
  2
AcDmDwgMgr
  3
AcMechDwgViewMgmt
 90
        0
 91
        1
280
     0
281
     0
  0
CLASS
  1
AM_DWG_DOCUMENT
  2
AcDmDwgDocument
  3
AcMechDwgViewMgmt
 90
        0
 91
        1
280
     0
281
     0
  0
CLASS
  1
AM_DWG_SHEET
  2
AcDmSheet
  3
AcMechDwgViewMgmt
 90
        0
 91
        2
280
     0
281
     0
  0
CLASS
  1
AM_VIEWDIMPARMAP
  2
AcDmViewDimParMap
  3
AcMechDwgViewMgmt
 90
        0
 91
        2
280
     0
281
     0
  0
CLASS
  1
ACIMREALSYSVAR
  2
AcImRealSysVar
  3
AcMeServices
 90
        0
 91
        1
280
     0
281
     0
  0
CLASS
  1
AM_DWGMGR_NAME
  2
AcDmDwgMgrName
  3
AcMechDwgViewMgmt
 90
        0
 91
        1
280
     0
281
     0
  0
CLASS
  1
ACME_DATABASE
  2
AcMeDbDatabase
  3
AcMeServices
 90
        0
 91
        0
280
     0
281
     0
  0
CLASS
  1
ACRFINSADJUSTERMGR
  2
AcRfInsAdjusterMgr
  3
AcMeServices
 90
        0
 91
        0
280
     0
281
     0
  0
CLASS
  1
ACGREFACADMASTER
  2
AcGrefacadMaster
  3
AcGrefServices
 90
        0
 91
        1
280
     0
281
     0
  0
CLASS
  1
AMDTMENUSTATEMGR
  2
AmdtMenuStateMgr
  3
McadcomServices
 90
        0
 91
        0
280
     0
281
     0
  0
CLASS
  1
AMDTMCOMMENUSTATE
  2
AmdtMcomMenuState
  3
McadcomServices
 90
        0
 91
        0
280
     0
281
     0
  0
CLASS
  1
AMIMASTER
  2
AmiMaster
  3
AmiServices
 90
        0
 91
        1
280
     0
281
     0
  0
CLASS
  1
MAPIAMMOUDLE
  2
MApiAmModule
  3
MApiAmServices
 90
        0
 91
        1
280
     0
281
     0
  0
CLASS
  1
AMDTADMENUSTATE
  2
AmdtAdMenuState
  3
DesignerServices
 90
        0
 91
        0
280
     0
281
     0
  0
CLASS
  1
ADAPPL
  2
AcAdAppl
  3
DesignerServices
 90
        0
 91
        1
280
     0
281
     0
  0
CLASS
  1
DEPMGR
  2
AcAdDepMgr
  3
DesignerServices
 90
        0
 91
        1
280
     0
281
     0
  0
CLASS
  1
PARAMMGR
  2
AcAdParamMgr
  3
DesignerServices
 90
        0
 91
        1
280
     0
281
     0
  0
CLASS
  1
PARAMSCOPE
  2
AcAdParamScope
  3
DesignerServices
 90
        0
 91
        1
280
     0
281
     0
  0
CLASS
  1
NAMEDAPPL
  2
AcAdNamedAppl
  3
DesignerServices
 90
        0
 91
        1
280
     0
281
     0
  0
CLASS
  1
AMDTDMMENUSTATE
  2
AmdtDmMenuState
  3
AcMechDwgViewMgmt
 90
        0
 91
        0
280
     0
281
     0
  0
CLASS
  1
AMDTAMMENUSTATE
  2
AmdtAmMenuState
  3
DesignerAssemblies
 90
        0
 91
        0
280
     0
281
     0
  0
CLASS
  1
ACIMSTRSYSVAR
  2
AcImStrSysVar
  3
AcMeServices
 90
        0
 91
        5
280
     0
281
     0
  0
CLASS
  1
ACAMPROJECT
  2
AcAmProject
  3
DesignerAssemblies
 90
        0
 91
        1
280
     0
281
     0
  0
CLASS
  1
ACAMGRCOMPDEF
  2
AcAmGrCompDef
  3
DesignerAssemblies
 90
        0
 91
        1
280
     0
281
     0
  0
CLASS
  1
ACCMCONTEXT
  2
AcCmContext
  3
DesignerAssemblies
 90
        0
 91
        1
280
     0
281
     0
  0
CLASS
  1
ACAMCOMPDEF
  2
AcAmCompDef
  3
DesignerAssemblies
 90
        0
 91
        1
280
     0
281
     0
  0
CLASS
  1
ACAMCOMPDEFMGR
  2
AcAmCompDefMgr
  3
DesignerAssemblies
 90
        0
 91
        1
280
     0
281
     0
  0
CLASS
  1
AMCONTEXTMGR
  2
AcAmContextMgr
  3
DesignerAssemblies
 90
        0
 91
        1
280
     0
281
     0
  0
CLASS
  1
ACAMCONTEXTMODELER
  2
AcAmContextModeler
  3
DesignerAssemblies
 90
        0
 91
        1
280
     0
281
     0
  0
CLASS
  1
ACMDATADICTIONARY
  2
AcmDataDictionary
  3
"AcmSymBB|Product Description: AutoCAD Mechanical 2004 DX|Company: Autodesk"
 90
        0
 91
        1
280
     0
281
     0
  0
CLASS
  1
CATALOGSTATE
  2
AcAmCatalogState
  3
DesignerAssemblies
 90
        0
 91
        1
280
     0
281
     0
  0
CLASS
  1
ACAMGRCOMPDEFSET
  2
AcAmGrCompDefSet
  3
DesignerAssemblies
 90
        0
 91
        0
280
     0
281
     0
  0
CLASS
  1
AMDTBROWSERDBTAB
  2
AmdtBrowserDbTab
  3
McadcomServices
 90
        0
 91
        0
280
     0
281
     0
  0
CLASS
  1
CBROWSERAPPOBJECT
  2
CBrowserAppObject
  3
McadcomServices
 90
        0
 91
        0
280
     0
281
     0
  0
CLASS
  1
DM_PLACEHOLDER
  2
AcDmSelsetPlaceholder
  3
AcMechDwgViewMgmt
 90
        0
 91
        0
280
     0
281
     0
  0
CLASS
  1
ACMSTANDARDISO
  2
AcmStandardISO
  3
"Amdt_StdImp|Product Description: AutoCAD Mechanical 2004 DX|Company: Autodesk"
 90
        0
 91
        1
280
     0
281
     0
  0
CLASS
  1
AMGOBJPROPCFG
  2
AmgObjPropCfg
  3
"AmgLay|Product Description: AutoCAD Mechanical 2000|Company: Autodesk"
 90
        1
 91
        1
280
     0
281
     0
  0
CLASS
  1
AMDTEDGESTANDARDISO
  2
AmdtEdgeStdISO
  3
"Amdt_StdImp|Product Description: AutoCAD Mechanical 2004 DX|Company: Autodesk"
 90
        0
 91
        1
280
     0
281
     0
  0
CLASS
  1
ACMSURFSTANDARDISO
  2
AcmSurfTextStdISO
  3
"Amdt_StdImp|Product Description: AutoCAD Mechanical 2004 DX|Company: Autodesk"
 90
        0
 91
        1
280
     0
281
     0
  0
CLASS
  1
ACMFCFSTANDARDISO
  2
AcmFCFStdISO
  3
"Amdt_StdImp|Product Description: AutoCAD Mechanical 2004 DX|Company: Autodesk"
 90
        0
 91
        1
280
     0
281
     0
  0
CLASS
  1
ACMWELDSTANDARDISO
  2
AcmWeldingStdISO
  3
"Amdt_StdImp|Product Description: AutoCAD Mechanical 2004 DX|Company: Autodesk"
 90
        0
 91
        1
280
     0
281
     0
  0
CLASS
  1
ACMIDSTANDARDISO
  2
AcmIdStdISO
  3
"Amdt_StdImp|Product Description: AutoCAD Mechanical 2004 DX|Company: Autodesk"
 90
        0
 91
        1
280
     0
281
     0
  0
CLASS
  1
ACMDATUMSTANDARDISO
  2
AcmDatumStdISO
  3
"Amdt_StdImp|Product Description: AutoCAD Mechanical 2004 DX|Company: Autodesk"
 90
        0
 91
        1
280
     0
281
     0
  0
CLASS
  1
ACMBOMSTANDARDISO
  2
AcmBOMStdISO
  3
"Amdt_StdImp|Product Description: AutoCAD Mechanical 2004 DX|Company: Autodesk"
 90
        0
 91
        1
280
     0
281
     0
  0
CLASS
  1
ACMDETAILSTANDARDISO
  2
AmdtDetailSymStdISO
  3
"Amdt_StdImp|Product Description: AutoCAD Mechanical 2004 DX|Company: Autodesk"
 90
        0
 91
        1
280
     0
281
     0
  0
CLASS
  1
ACMSECTIONSTANDARDISO
  2
AmdtSectionSymStdISO
  3
"Amdt_StdImp|Product Description: AutoCAD Mechanical 2004 DX|Company: Autodesk"
 90
        0
 91
        1
280
     0
281
     0
  0
CLASS
  1
ACMCENTERLINESTANDARDISO
  2
AmdtCenterLineStdISO
  3
"Amdt_StdImp|Product Description: AutoCAD Mechanical 2004 DX|Company: Autodesk"
 90
        0
 91
        1
280
     0
281
     0
  0
CLASS
  1
ACMTHREADLINESTANDARDISO
  2
AmdtThreadLineStdISO
  3
"Amdt_StdImp|Product Description: AutoCAD Mechanical 2004 DX|Company: Autodesk"
 90
        0
 91
        1
280
     0
281
     0
  0
CLASS
  1
ACMNOTESTANDARDISO
  2
AmdtNoteStdISO
  3
"Amdt_StdImp|Product Description: AutoCAD Mechanical 2004 DX|Company: Autodesk"
 90
        0
 91
        1
280
     0
281
     0
  0
CLASS
  1
AMDTNOTETEMPLATEDB
  2
AmdtNoteTemplateDB
  3
AMDT_STDIMP_MODULE_NAME
 90
        0
 91
        4
280
     0
281
     0
  0
CLASS
  1
ACAMGLAYSTD
  2
AcAmgLayStd
  3
"AcAmgLayStd|Product Description: AutoCAD Mechanical 2000|Company: Autodesk"
 90
        0
 91
        1
280
     0
281
     0
  0
CLASS
  1
ACAMGDIMSTD
  2
AcAmgDimStd
  3
"AcAmgDimStd|Product Description: AutoCAD Mechanical 2000|Company: Autodesk"
 90
        0
 91
        1
280
     0
281
     0
  0
CLASS
  1
ACAMGHOLECHARTSTDISO
  2
AcAmgHoleChartStdISO
  3
ACMSYMBB_MODULE_NAME
 90
        0
 91
        1
280
     0
281
     0
  0
CLASS
  1
ACAMGTITLESTD
  2
AcAmgTitleStd
  3
"TITLEAPP"
 90
        0
 91
        1
280
     0
281
     0
  0
CLASS
  1
ACAMGFILTERDAT
  2
AcAmgFilterDat
  3
"AcadM|Product Description: AutoCAD Mechanical 2000|Company: Autodesk"
 90
        0
 91
        6
280
     0
281
     0
  0
CLASS
  1
LAYER_INDEX
  2
AcDbLayerIndex
  3
ObjectDBX Classes
 90
        0
 91
        1
280
     0
281
     0
  0
CLASS
  1
IDBUFFER
  2
AcDbIdBuffer
  3
ObjectDBX Classes
 90
        0
 91
       16
280
     0
281
     0
  0
CLASS
  1
TABLESTYLE
  2
AcDbTableStyle
  3
ObjectDBX Classes
 90
     4095
 91
        1
280
     0
281
     0
  0
CLASS
  1
MLEADERSTYLE
  2
AcDbMLeaderStyle
  3
ACDB_MLEADERSTYLE_CLASS
 90
     4095
 91
        1
280
     0
281
     0
  0
CLASS
  1
ACDBSECTIONVIEWSTYLE
  2
AcDbSectionViewStyle
  3
ObjectDBX Classes
 90
     1025
 91
        1
280
     0
281
     0
  0
CLASS
  1
ACDBDETAILVIEWSTYLE
  2
AcDbDetailViewStyle
  3
ObjectDBX Classes
 90
     1025
 91
        1
280
     0
281
     0
  0
CLASS
  1
DICTIONARYVAR
  2
AcDbDictionaryVar
  3
ObjectDBX Classes
 90
        0
 91
       18
280
     0
281
     0
  0
CLASS
  1
CELLSTYLEMAP
  2
AcDbCellStyleMap
  3
ObjectDBX Classes
 90
     1152
 91
        1
280
     0
281
     0
  0
ENDSEC
  0
SECTION
  2
TABLES
  0
TABLE
  2
VPORT
  5
8
330
0
100
AcDbSymbolTable
 70
     1
1001
ACAD
1000
DbSaveVer
1071
        5
  0
VPORT
  5
35E
330
8
100
AcDbSymbolTableRecord
100
AcDbViewportTableRecord
  2
*Active
 70
     0
 10
0.0
 20
0.0
 11
1.0
 21
1.0
 12
836.701171473679
 22
62.69363848179813
 13
0.0
 23
0.0
 14
10.0
 24
10.0
 15
10.0
 25
10.0
 16
0.0
 26
0.0
 36
1.0
 17
0.0
 27
0.0
 37
0.0
 40
419.9784407748755
 41
2.292712066905615
 42
50.0
 43
0.0
 44
0.0
 50
0.0
 51
0.0
 71
     0
 72
  2000
 73
     1
 74
     3
 75
     0
 76
     0
 77
     0
 78
     0
281
     0
 65
     1
110
0.0
120
0.0
130
0.0
111
1.0
121
0.0
131
0.0
112
0.0
122
1.0
132
0.0
 79
     0
146
0.0
348
37E
 60
     3
 61
     5
292
     1
282
     1
141
0.0
142
0.0
 63
   250
421
  3355443
1001
ACAD_NAV_VCDISPLAY
1070
     3
  0
ENDTAB
  0
TABLE
  2
LTYPE
  5
5
330
0
100
AcDbSymbolTable
 70
    17
  0
LTYPE
  5
14
330
5
100
AcDbSymbolTableRecord
100
AcDbLinetypeTableRecord
  2
ByBlock
 70
     0
  3

 72
    65
 73
     0
 40
0.0
  0
LTYPE
  5
15
330
5
100
AcDbSymbolTableRecord
100
AcDbLinetypeTableRecord
  2
ByLayer
 70
     0
  3

 72
    65
 73
     0
 40
0.0
  0
LTYPE
  5
16
330
5
100
AcDbSymbolTableRecord
100
AcDbLinetypeTableRecord
  2
Continuous
 70
     0
  3
Solid line
 72
    65
 73
     0
 40
0.0
  0
LTYPE
  5
3F
330
5
100
AcDbSymbolTableRecord
100
AcDbLinetypeTableRecord
  2
HIDDEN
 70
     0
  3
Hidden __ __ __ __ __ __ __ __ __ __ __ __ __ __
 72
    65
 73
     2
 40
1.905
 49
1.27
 74
     0
 49
-0.635
 74
     0
  0
LTYPE
  5
40
330
5
100
AcDbSymbolTableRecord
100
AcDbLinetypeTableRecord
  2
PHANTOM
 70
     0
  3
Phantom ______  __  __  ______  __  __  ______
 72
    65
 73
     6
 40
12.7
 49
6.349999999999999
 74
     0
 49
-1.27
 74
     0
 49
1.27
 74
     0
 49
-1.27
 74
     0
 49
1.27
 74
     0
 49
-1.27
 74
     0
  0
LTYPE
  5
41
330
5
100
AcDbSymbolTableRecord
100
AcDbLinetypeTableRecord
  2
CENTER
 70
     0
  3
Center ____ _ ____ _ ____ _ ____ _ ____ _ ____
 72
    65
 73
     4
 40
10.16
 49
6.349999999999999
 74
     0
 49
-1.27
 74
     0
 49
1.27
 74
     0
 49
-1.27
 74
     0
  0
LTYPE
  5
42
330
5
100
AcDbSymbolTableRecord
100
AcDbLinetypeTableRecord
  2
CENTERX2
 70
     0
  3
Center (2x) ________  __  ________  __  _____
 72
    65
 73
     4
 40
20.32
 49
12.7
 74
     0
 49
-2.54
 74
     0
 49
2.54
 74
     0
 49
-2.54
 74
     0
  0
LTYPE
  5
43
330
5
100
AcDbSymbolTableRecord
100
AcDbLinetypeTableRecord
  2
DOT2
 70
     0
  3
Dot (.5x) ........................................
 72
    65
 73
     2
 40
0.635
 49
0.0
 74
     0
 49
-0.635
 74
     0
  0
LTYPE
  5
212
330
5
100
AcDbSymbolTableRecord
100
AcDbLinetypeTableRecord
  2
PHANTOM2
 70
     0
  3
Phantom (.5x) ___ _ _ ___ _ _ ___ _ _ ___ _ _
 72
    65
 73
     6
 40
31.75
 49
15.875
 74
     0
 49
-3.174999999999999
 74
     0
 49
3.174999999999999
 74
     0
 49
-3.174999999999999
 74
     0
 49
3.174999999999999
 74
     0
 49
-3.174999999999999
 74
     0
  0
LTYPE
  5
259
330
5
100
AcDbSymbolTableRecord
100
AcDbLinetypeTableRecord
  2
AM_ISO02W050
 70
     0
  3
__ __ __ __ __ __ __ __ __ __ __ __ __ __ __
 72
    65
 73
     2
 40
7.5
 49
6.0
 74
     0
 49
-1.5
 74
     0
  0
LTYPE
  5
25A
330
5
100
AcDbSymbolTableRecord
100
AcDbLinetypeTableRecord
  2
AM_ISO08W050
 70
     0
  3
____ . ____ . ____ . ____ . ____ . ____ . ____
 72
    65
 73
     4
 40
18.0
 49
12.0
 74
     0
 49
-1.5
 74
     0
 49
3.0
 74
     0
 49
-1.5
 74
     0
  0
LTYPE
  5
25B
330
5
100
AcDbSymbolTableRecord
100
AcDbLinetypeTableRecord
  2
AM_ISO09W050
 70
     0
  3
_____ . . _____ . . _____ . . ____ .. ____
 72
    65
 73
     6
 40
22.5
 49
12.0
 74
     0
 49
-1.5
 74
     0
 49
3.0
 74
     0
 49
-1.5
 74
     0
 49
3.0
 74
     0
 49
-1.5
 74
     0
  0
LTYPE
  5
25C
330
5
100
AcDbSymbolTableRecord
100
AcDbLinetypeTableRecord
  2
Amconstr
 70
     0
  3
_______________________
 72
    65
 73
     2
 40
9999.0
 49
9999.0
 74
     0
 49
0.0
 74
     0
  0
LTYPE
  5
25D
330
5
100
AcDbSymbolTableRecord
100
AcDbLinetypeTableRecord
  2
AM_ISO08W050x2
 70
     0
  3
__ . __ . __ . __ . __ . __
 72
    65
 73
     4
 40
9.0
 49
6.0
 74
     0
 49
-0.75
 74
     0
 49
1.5
 74
     0
 49
-0.75
 74
     0
  0
LTYPE
  5
25E
330
5
100
AcDbSymbolTableRecord
100
AcDbLinetypeTableRecord
  2
AM_ISO02W050x2
 70
     0
  3
 _ _ _ _ _ _ _ _ _ _ _ _
 72
    65
 73
     2
 40
3.75
 49
3.0
 74
     0
 49
-0.75
 74
     0
  0
LTYPE
  5
261
330
5
100
AcDbSymbolTableRecord
100
AcDbLinetypeTableRecord
  2
Amzigzag
 70
     0
  3
/\/-/\/-/\/-/\/-/\/-/\/
 72
    65
 73
     2
 40
11.0001
 49
0.0001
 74
     4
 75
   135
340
260
 46
0.04
 50
0.0
 44
0.0
 45
0.0
 49
-11.0
 74
     0
  0
LTYPE
  5
270
330
5
100
AcDbSymbolTableRecord
100
AcDbLinetypeTableRecord
  2
ACISOWELD
 70
     0
  3
_ _ _ _ _
 72
    65
 73
     2
 40
2.0
 49
2.0
 74
     0
 49
-1.0
 74
     0
  0
LTYPE
  5
271
330
5
100
AcDbSymbolTableRecord
100
AcDbLinetypeTableRecord
  2
ACISOTGB
 70
     0
  3
__ . . __ . .
 72
    65
 73
     6
 40
9.0
 49
4.0
 74
     0
 49
-1.0
 74
     0
 49
1.0
 74
     0
 49
-1.0
 74
     0
 49
1.0
 74
     0
 49
-1.0
 74
     0
  0
LTYPE
  5
272
330
5
100
AcDbSymbolTableRecord
100
AcDbLinetypeTableRecord
  2
ACISOTGL
 70
     0
  3
_ _ _ _ _
 72
    65
 73
     2
 40
3.0
 49
2.0
 74
     0
 49
-1.0
 74
     0
  0
ENDTAB
  0
TABLE
  2
LAYER
  5
2
330
0
100
AcDbSymbolTable
 70
    16
  0
LAYER
  5
10
102
{ACAD_XDICTIONARY
360
3A4
102
}
330
2
100
AcDbSymbolTableRecord
100
AcDbLayerTableRecord
  2
0
 70
     0
 62
     7
  6
Continuous
370
    -3
390
F
347
370
348
0
  0
LAYER
  5
44
102
{ACAD_XDICTIONARY
360
3A6
102
}
330
2
100
AcDbSymbolTableRecord
100
AcDbLayerTableRecord
  2
FORMAT
 70
     0
 62
     7
  6
Continuous
370
    -3
390
F
347
370
348
0
  0
LAYER
  5
45
102
{ACAD_XDICTIONARY
360
3A8
102
}
330
2
100
AcDbSymbolTableRecord
100
AcDbLayerTableRecord
  2
SLD-0
 70
     0
 62
   179
  6
Continuous
370
    -3
390
F
347
370
348
0
  0
LAYER
  5
46
102
{ACAD_XDICTIONARY
360
3AA
102
}
330
2
100
AcDbSymbolTableRecord
100
AcDbLayerTableRecord
  2
AM_5
 70
     0
 62
     3
  6
Continuous
370
    15
390
F
347
370
348
0
  0
LAYER
  5
47
102
{ACAD_XDICTIONARY
360
3AC
102
}
330
2
100
AcDbSymbolTableRecord
100
AcDbLayerTableRecord
  2
AM_PAREF
 70
     0
 62
     4
  6
Continuous
370
    15
390
F
347
370
348
0
  0
LAYER
  5
48
102
{ACAD_XDICTIONARY
360
3AE
102
}
330
2
100
AcDbSymbolTableRecord
100
AcDbLayerTableRecord
  2
双点划线
 70
     0
 62
     5
  6
PHANTOM
370
    -3
390
F
347
370
348
0
1001
AcadStringInfo
1000
MIFCodePage
1070
     5
  0
LAYER
  5
49
102
{ACAD_XDICTIONARY
360
3B0
102
}
330
2
100
AcDbSymbolTableRecord
100
AcDbLayerTableRecord
  2
虚线
 70
     0
 62
     6
  6
HIDDEN
370
    -3
390
F
347
370
348
0
1001
AcadStringInfo
1000
MIFCodePage
1070
     5
  0
LAYER
  5
4A
102
{ACAD_XDICTIONARY
360
3B2
102
}
330
2
100
AcDbSymbolTableRecord
100
AcDbLayerTableRecord
  2
AM_0
 70
     0
 62
   179
  6
Continuous
370
    40
390
F
347
370
348
0
  0
LAYER
  5
4B
102
{ACAD_XDICTIONARY
360
3B4
102
}
330
2
100
AcDbSymbolTableRecord
100
AcDbLayerTableRecord
  2
AM_0N
 70
     0
 62
   179
  6
Continuous
370
    40
390
F
347
370
348
0
  0
LAYER
  5
4C
102
{ACAD_XDICTIONARY
360
3B6
102
}
330
2
100
AcDbSymbolTableRecord
100
AcDbLayerTableRecord
  2
AM_3N
 70
     0
 62
     6
  6
Continuous
370
    15
390
F
347
370
348
0
  0
LAYER
  5
4D
102
{ACAD_XDICTIONARY
360
3B8
102
}
330
2
100
AcDbSymbolTableRecord
100
AcDbLayerTableRecord
  2
AM_4N
 70
     0
 62
     3
  6
Continuous
370
    15
390
F
347
370
348
0
  0
LAYER
  5
4E
102
{ACAD_XDICTIONARY
360
3BA
102
}
330
2
100
AcDbSymbolTableRecord
100
AcDbLayerTableRecord
  2
AM_12N
 70
     0
 62
   179
  6
Continuous
370
    40
390
F
347
370
348
0
  0
LAYER
  5
4F
102
{ACAD_XDICTIONARY
360
3BC
102
}
330
2
100
AcDbSymbolTableRecord
100
AcDbLayerTableRecord
  2
AM_7
 70
     0
 62
     4
  6
Continuous
370
    15
390
F
347
370
348
0
  0
LAYER
  5
50
102
{ACAD_XDICTIONARY
360
3BE
102
}
330
2
100
AcDbSymbolTableRecord
100
AcDbLayerTableRecord
  2
CONFIDENTIAL
 70
     0
 62
    -4
  6
Continuous
370
    -3
390
F
347
370
348
0
  0
LAYER
  5
51
102
{ACAD_XDICTIONARY
360
3C0
102
}
330
2
100
AcDbSymbolTableRecord
100
AcDbLayerTableRecord
  2
AM_12
 70
     0
 62
   179
  6
Continuous
370
    40
390
F
347
370
348
0
  0
LAYER
  5
2A0
330
2
100
AcDbSymbolTableRecord
100
AcDbLayerTableRecord
  2
Defpoints
 70
     0
 62
     7
  6
Continuous
290
     0
370
    -3
390
F
347
370
348
0
  0
ENDTAB
  0
TABLE
  2
STYLE
  5
3
330
0
100
AcDbSymbolTable
 70
     8
  0
STYLE
  5
11
330
3
100
AcDbSymbolTableRecord
100
AcDbTextStyleTableRecord
  2
Standard
 70
     0
 40
0.0
 41
1.0
 50
0.0
 71
     0
 42
2.5
  3
txt
  4

  0
STYLE
  5
88
330
3
100
AcDbSymbolTableRecord
100
AcDbTextStyleTableRecord
  2
SLDTEXTSTYLE0
 70
     0
 40
0.0
 41
0.75
 50
0.0
 71
     0
 42
0.2
  3
TXT
  4
bigfont
  0
STYLE
  5
8A
330
3
100
AcDbSymbolTableRecord
100
AcDbTextStyleTableRecord
  2
SLDTEXTSTYLE1
 70
     0
 40
0.0
 41
0.75
 50
0.0
 71
     0
 42
0.2
  3
TXT
  4

  0
STYLE
  5
9A
330
3
100
AcDbSymbolTableRecord
100
AcDbTextStyleTableRecord
  2
SLDTEXTSTYLE2
 70
     0
 40
0.0
 41
0.7
 50
0.0
 71
     0
 42
0.2
  3
TXT
  4
bigfont
  0
STYLE
  5
12D
330
3
100
AcDbSymbolTableRecord
100
AcDbTextStyleTableRecord
  2
SLDTEXTSTYLE3
 70
     0
 40
0.0
 41
0.65
 50
0.0
 71
     0
 42
0.2
  3
TXT
  4
bigfont
  0
STYLE
  5
260
330
3
100
AcDbSymbolTableRecord
100
AcDbTextStyleTableRecord
  2

 70
     1
 40
0.0
 41
1.0
 50
0.0
 71
     0
 42
2.5
  3
ltypeshp.shx
  4

  0
STYLE
  5
262
330
3
100
AcDbSymbolTableRecord
100
AcDbTextStyleTableRecord
  2
ACISOTS
 70
     0
 40
1.0
 41
1.0
 50
0.0
 71
     0
 42
2.5
  3
isocp.shx
  4
gbcbig.shx
  0
STYLE
  5
26F
330
3
100
AcDbSymbolTableRecord
100
AcDbTextStyleTableRecord
  2
ACISOGDT
 70
     0
 40
0.0
 41
1.0
 50
0.0
 71
     0
 42
2.5
  3
amgdt.shx
  4

  0
ENDTAB
  0
TABLE
  2
VIEW
  5
6
330
0
100
AcDbSymbolTable
 70
     0
  0
ENDTAB
  0
TABLE
  2
UCS
  5
7
330
0
100
AcDbSymbolTable
 70
     0
  0
ENDTAB
  0
TABLE
  2
APPID
  5
9
330
0
100
AcDbSymbolTable
 70
    10
  0
APPID
  5
12
330
9
100
AcDbSymbolTableRecord
100
AcDbRegAppTableRecord
  2
ACAD
 70
     0
  0
APPID
  5
1F6
330
9
100
AcDbSymbolTableRecord
100
AcDbRegAppTableRecord
  2
MCAD_NO_VIS
 70
     0
  0
APPID
  5
1F7
330
9
100
AcDbSymbolTableRecord
100
AcDbRegAppTableRecord
  2
ACAD_TEMP_GRAPHIC
 70
     0
  0
APPID
  5
227
330
9
100
AcDbSymbolTableRecord
100
AcDbRegAppTableRecord
  2
AD_DRAW
 70
     0
  0
APPID
  5
22A
330
9
100
AcDbSymbolTableRecord
100
AcDbRegAppTableRecord
  2
ACATTRIBSERVICES
 70
     0
  0
APPID
  5
248
330
9
100
AcDbSymbolTableRecord
100
AcDbRegAppTableRecord
  2
DESIGNERASSEMBLIES
 70
     0
  0
APPID
  5
24E
330
9
100
AcDbSymbolTableRecord
100
AcDbRegAppTableRecord
  2
ACADM_DIM_EDIT
 70
     0
  0
APPID
  5
24F
330
9
100
AcDbSymbolTableRecord
100
AcDbRegAppTableRecord
  2
AMDT_DM_ADJ
 70
     0
  0
APPID
  5
39A
330
9
100
AcDbSymbolTableRecord
100
AcDbRegAppTableRecord
  2
AcadStringInfo
 70
     0
  0
APPID
  5
3C2
330
9
100
AcDbSymbolTableRecord
100
AcDbRegAppTableRecord
  2
ACAD_NAV_VCDISPLAY
 70
     0
  0
ENDTAB
  0
TABLE
  2
DIMSTYLE
  5
A
330
0
100
AcDbSymbolTable
 70
     8
100
AcDbDimStyleTable
 71
     1
340
27
  0
DIMSTYLE
105
27
102
{ACAD_REACTORS
330
29F
330
2DF
330
307
102
}
330
A
100
AcDbSymbolTableRecord
100
AcDbDimStyleTableRecord
  2
ISO-25
 70
     0
 41
2.5
 42
0.625
 43
3.75
 44
1.25
 73
     0
 74
     0
 77
     1
 78
     8
140
2.5
141
2.5
143
0.03937007874016
147
0.625
171
     3
172
     1
271
     2
272
     2
274
     3
278
    44
283
     0
284
     8
340
11
  0
DIMSTYLE
105
27B
330
A
100
AcDbSymbolTableRecord
100
AcDbDimStyleTableRecord
  2
AM_ISO
 70
     0
  4
"
 41
2.5
 42
1.0
 43
10.0
 44
1.0
 47
0.1
 48
0.1
 73
     0
 74
     0
 77
     1
 78
     8
 79
     2
140
3.5
141
0.0
143
0.0393701
146
0.71
147
1.5
172
     1
176
   256
177
   256
178
     2
271
     2
272
     3
274
     4
283
     0
284
     8
340
11
371
    -1
372
    -1
  0
DIMSTYLE
105
27C
330
A
100
AcDbSymbolTableRecord
100
AcDbDimStyleTableRecord
  2
AM_ISO$3
 70
     0
  4
"
 41
2.5
 42
1.0
 43
10.0
 44
1.0
 47
0.1
 48
0.1
 73
     0
 77
     1
 78
     8
 79
     2
140
3.5
141
0.0
143
0.0393701
146
0.71
147
1.5
176
   256
177
   256
178
     2
271
     2
272
     3
274
     4
283
     0
284
     8
288
     1
289
     0
340
11
371
    -1
372
    -1
  0
DIMSTYLE
105
27D
330
A
100
AcDbSymbolTableRecord
100
AcDbDimStyleTableRecord
  2
AM_ISO$4
 70
     0
  4
"
 41
2.5
 42
1.0
 43
10.0
 44
1.0
 47
0.1
 48
0.1
 73
     0
 77
     1
 78
     8
 79
     2
140
3.5
141
0.0
143
0.0393701
146
0.71
147
1.5
176
   256
177
   256
178
     2
271
     2
272
     3
274
     4
283
     0
284
     8
288
     1
289
     0
340
11
371
    -1
372
    -1
  0
DIMSTYLE
105
27E
330
A
100
AcDbSymbolTableRecord
100
AcDbDimStyleTableRecord
  2
AM_ISO$6
 70
     0
  4
"
 41
2.5
 42
1.0
 43
10.0
 44
1.0
 47
0.1
 48
0.1
 73
     0
 74
     0
 78
     8
 79
     2
140
3.5
141
0.0
143
0.0393701
146
0.71
147
1.5
172
     1
176
   256
177
   256
178
     2
271
     2
272
     3
274
     4
283
     0
284
     8
340
11
371
    -1
372
    -1
  0
DIMSTYLE
105
27F
330
A
100
AcDbSymbolTableRecord
100
AcDbDimStyleTableRecord
  2
AM_ISO$7
 70
     0
  4
"
 41
2.5
 42
1.0
 43
10.0
 44
1.0
 47
0.1
 48
0.1
 73
     0
 74
     0
 77
     1
 78
     8
 79
     2
140
5.0
141
0.0
143
0.0393701
146
0.71
147
1.5
172
     1
176
   256
177
   256
178
     2
271
     2
272
     3
274
     4
283
     0
284
     8
340
11
371
    -1
372
    -1
  0
DIMSTYLE
105
280
330
A
100
AcDbSymbolTableRecord
100
AcDbDimStyleTableRecord
  2
AM_ISO$SF
 70
     0
  4
"
 41
2.5
 42
1.0
 43
10.0
 44
1.0
 47
0.1
 48
0.1
 73
     0
 74
     0
 75
     1
 76
     1
 77
     1
 78
     8
 79
     2
140
3.5
141
0.0
143
0.0393701
146
0.71
147
1.5
172
     1
176
   256
177
   256
178
     2
271
     2
272
     3
274
     4
283
     0
284
     8
340
11
371
    -1
372
    -1
  0
DIMSTYLE
105
285
330
A
100
AcDbSymbolTableRecord
100
AcDbDimStyleTableRecord
  2
AM_ISO$SH
 70
     0
  4
"
 41
2.5
 42
1.0
 43
10.0
 44
1.0
 47
0.1
 48
0.1
 73
     0
 74
     0
 75
     1
 76
     1
 77
     1
 78
     8
 79
     2
140
3.5
141
0.0
143
0.0393701
144
2.0
146
0.71
147
1.5
172
     1
173
     1
176
   256
177
   256
178
     2
271
     2
272
     3
274
     4
283
     0
284
     8
340
11
343
281
371
    -1
372
    -1
  0
ENDTAB
  0
TABLE
  2
BLOCK_RECORD
  5
1
330
0
100
AcDbSymbolTable
 70
    28
  0
BLOCK_RECORD
  5
1F
102
{ACAD_XDICTIONARY
360
34B
102
}
330
1
100
AcDbSymbolTableRecord
100
AcDbBlockTableRecord
  2
*Model_Space
340
22
 70
     0
280
     1
281
     0
  0
BLOCK_RECORD
  5
1B
330
1
100
AcDbSymbolTableRecord
100
AcDbBlockTableRecord
  2
*Paper_Space
340
1E
 70
     0
280
     1
281
     0
  0
BLOCK_RECORD
  5
23
330
1
100
AcDbSymbolTableRecord
100
AcDbBlockTableRecord
  2
*Paper_Space0
340
26
 70
     0
280
     1
281
     0
  0
BLOCK_RECORD
  5
8C
330
1
100
AcDbSymbolTableRecord
100
AcDbBlockTableRecord
  2
SW_NOTE_0
340
0
 70
     0
280
     1
281
     0
  0
BLOCK_RECORD
  5
A2
330
1
100
AcDbSymbolTableRecord
100
AcDbBlockTableRecord
  2
SW_NOTE_1
340
0
 70
     0
280
     1
281
     0
  0
BLOCK_RECORD
  5
AA
330
1
100
AcDbSymbolTableRecord
100
AcDbBlockTableRecord
  2
SW_NOTE_2
340
0
 70
     0
280
     1
281
     0
  0
BLOCK_RECORD
  5
B6
330
1
100
AcDbSymbolTableRecord
100
AcDbBlockTableRecord
  2
SW_NOTE_3
340
0
 70
     0
280
     1
281
     0
  0
BLOCK_RECORD
  5
BD
330
1
100
AcDbSymbolTableRecord
100
AcDbBlockTableRecord
  2
SW_NOTE_4
340
0
 70
     0
280
     1
281
     0
  0
BLOCK_RECORD
  5
C3
330
1
100
AcDbSymbolTableRecord
100
AcDbBlockTableRecord
  2
SW_NOTE_5
340
0
 70
     0
280
     1
281
     0
  0
BLOCK_RECORD
  5
CD
330
1
100
AcDbSymbolTableRecord
100
AcDbBlockTableRecord
  2
SW_NOTE_6
340
0
 70
     0
280
     1
281
     0
  0
BLOCK_RECORD
  5
D6
330
1
100
AcDbSymbolTableRecord
100
AcDbBlockTableRecord
  2
SW_NOTE_7
340
0
 70
     0
280
     1
281
     0
  0
BLOCK_RECORD
  5
DD
330
1
100
AcDbSymbolTableRecord
100
AcDbBlockTableRecord
  2
SW_NOTE_8
340
0
 70
     0
280
     1
281
     0
  0
BLOCK_RECORD
  5
E3
330
1
100
AcDbSymbolTableRecord
100
AcDbBlockTableRecord
  2
SW_NOTE_9
340
0
 70
     0
280
     1
281
     0
  0
BLOCK_RECORD
  5
E9
330
1
100
AcDbSymbolTableRecord
100
AcDbBlockTableRecord
  2
SW_NOTE_10
340
0
 70
     0
280
     1
281
     0
  0
BLOCK_RECORD
  5
F0
330
1
100
AcDbSymbolTableRecord
100
AcDbBlockTableRecord
  2
SW_NOTE_11
340
0
 70
     0
280
     1
281
     0
  0
BLOCK_RECORD
  5
F6
330
1
100
AcDbSymbolTableRecord
100
AcDbBlockTableRecord
  2
SW_NOTE_12
340
0
 70
     0
280
     1
281
     0
  0
BLOCK_RECORD
  5
FC
330
1
100
AcDbSymbolTableRecord
100
AcDbBlockTableRecord
  2
SW_NOTE_13
340
0
 70
     0
280
     1
281
     0
  0
BLOCK_RECORD
  5
102
330
1
100
AcDbSymbolTableRecord
100
AcDbBlockTableRecord
  2
SW_NOTE_14
340
0
 70
     0
280
     1
281
     0
  0
BLOCK_RECORD
  5
108
330
1
100
AcDbSymbolTableRecord
100
AcDbBlockTableRecord
  2
SW_NOTE_15
340
0
 70
     0
280
     1
281
     0
  0
BLOCK_RECORD
  5
10E
330
1
100
AcDbSymbolTableRecord
100
AcDbBlockTableRecord
  2
SW_NOTE_16
340
0
 70
     0
280
     1
281
     0
  0
BLOCK_RECORD
  5
115
330
1
100
AcDbSymbolTableRecord
100
AcDbBlockTableRecord
  2
SW_NOTE_17
340
0
 70
     0
280
     1
281
     0
  0
BLOCK_RECORD
  5
11B
330
1
100
AcDbSymbolTableRecord
100
AcDbBlockTableRecord
  2
SW_NOTE_18
340
0
 70
     0
280
     1
281
     0
  0
BLOCK_RECORD
  5
121
330
1
100
AcDbSymbolTableRecord
100
AcDbBlockTableRecord
  2
SW_NOTE_19
340
0
 70
     0
280
     1
281
     0
  0
BLOCK_RECORD
  5
127
330
1
100
AcDbSymbolTableRecord
100
AcDbBlockTableRecord
  2
SW_NOTE_20
340
0
 70
     0
280
     1
281
     0
  0
BLOCK_RECORD
  5
130
330
1
100
AcDbSymbolTableRecord
100
AcDbBlockTableRecord
  2
SW_SFSYMBOL_0
340
0
 70
     0
280
     1
281
     0
  0
BLOCK_RECORD
  5
23F
330
1
100
AcDbSymbolTableRecord
100
AcDbBlockTableRecord
  2
*U23
340
0
 70
     0
280
     1
281
     0
  0
BLOCK_RECORD
  5
281
330
1
100
AcDbSymbolTableRecord
100
AcDbBlockTableRecord
  2
GENAXEH
340
0
 70
     0
280
     1
281
     0
  0
BLOCK_RECORD
  5
2A1
330
1
100
AcDbSymbolTableRecord
100
AcDbBlockTableRecord
  2
*D25
340
0
 70
     0
280
     1
281
     0
  0
BLOCK_RECORD
  5
2E0
330
1
100
AcDbSymbolTableRecord
100
AcDbBlockTableRecord
  2
*D26
340
0
 70
     0
280
     1
281
     0
  0
BLOCK_RECORD
  5
308
330
1
100
AcDbSymbolTableRecord
100
AcDbBlockTableRecord
  2
*D27
340
0
 70
     0
280
     1
281
     0
  0
ENDTAB
  0
ENDSEC
  0
SECTION
  2
BLOCKS
  0
BLOCK
  5
20
330
1F
100
AcDbEntity
  8
0
100
AcDbBlockBegin
  2
*Model_Space
 70
     0
 10
0.0
 20
0.0
 30
0.0
  3
*Model_Space
  1

  0
ENDBLK
  5
21
330
1F
100
AcDbEntity
  8
0
100
AcDbBlockEnd
  0
BLOCK
  5
1C
330
1B
100
AcDbEntity
 67
     1
  8
0
100
AcDbBlockBegin
  2
*Paper_Space
 70
     0
 10
0.0
 20
0.0
 30
0.0
  3
*Paper_Space
  1

  0
ENDBLK
  5
1D
330
1B
100
AcDbEntity
 67
     1
  8
0
100
AcDbBlockEnd
  0
BLOCK
  5
24
330
23
100
AcDbEntity
 67
     1
  8
0
100
AcDbBlockBegin
  2
*Paper_Space0
 70
     0
 10
0.0
 20
0.0
 30
0.0
  3
*Paper_Space0
  1

  0
ENDBLK
  5
25
330
23
100
AcDbEntity
 67
     1
  8
0
100
AcDbBlockEnd
  0
BLOCK
  5
8D
330
8C
100
AcDbEntity
  8
0
100
AcDbBlockBegin
  2
SW_NOTE_0
 70
     0
 10
0.0
 20
0.0
 30
0.0
  3
SW_NOTE_0
  1

  0
MTEXT
  5
8F
330
8C
100
AcDbEntity
  8
SLD-0
 62
     0
100
AcDbMText
 10
0.0
 20
3.867203219315898
 30
0.0
 40
3.0
 41
0.0
 46
0.0
 71
     1
 72
     1
  1
技术要求：
  7
SLDTEXTSTYLE0
 73
     1
 44
1.0
  0
MTEXT
  5
90
330
8C
100
AcDbEntity
  8
SLD-0
 62
     0
100
AcDbMText
 10
0.0
 20
0.0547031764750565
 30
0.0
 40
3.0
 41
0.0
 46
0.0
 71
     1
 72
     1
  1
1.去除所有毛刺；
  7
SLDTEXTSTYLE0
 73
     1
 44
1.0
  0
MTEXT
  5
91
330
8C
100
AcDbEntity
  8
SLD-0
 62
     0
100
AcDbMText
 10
0.0
 20
-3.757796866365782
 30
0.0
 40
3.0
 41
0.0
 46
0.0
 71
     1
 72
     1
  1
2.产品表面处理依照BOM要求；
  7
SLDTEXTSTYLE0
 73
     1
 44
1.0
  0
ENDBLK
  5
8E
330
8C
100
AcDbEntity
  8
0
100
AcDbBlockEnd
  0
BLOCK
  5
A3
330
A2
100
AcDbEntity
  8
0
100
AcDbBlockBegin
  2
SW_NOTE_1
 70
     0
 10
0.0
 20
0.0
 30
0.0
  3
SW_NOTE_1
  1

  0
MTEXT
  5
A5
330
A2
100
AcDbEntity
  8
SLD-0
 62
     0
100
AcDbMText
 10
2.062499999999994
 20
3.867203219315898
 30
0.0
 40
3.0
 41
0.0
 46
0.0
 71
     2
 72
     1
  1
产
  7
SLDTEXTSTYLE2
 73
     1
 44
1.0
  0
MTEXT
  5
A6
330
A2
100
AcDbEntity
  8
SLD-0
 62
     0
100
AcDbMText
 10
2.062499999999994
 20
-0.1327969706739103
 30
0.0
 40
3.0
 41
0.0
 46
0.0
 71
     2
 72
     1
  1
品
  7
SLDTEXTSTYLE2
 73
     1
 44
1.0
  0
MTEXT
  5
A7
330
A2
100
AcDbEntity
  8
SLD-0
 62
     0
100
AcDbMText
 10
2.062499999999994
 20
-4.132797160663715
 30
0.0
 40
3.0
 41
0.0
 46
0.0
 71
     2
 72
     1
  1
特
  7
SLDTEXTSTYLE2
 73
     1
 44
1.0
  0
MTEXT
  5
A8
330
A2
100
AcDbEntity
  8
SLD-0
 62
     0
100
AcDbMText
 10
2.062499999999994
 20
-8.13279735065352
 30
0.0
 40
3.0
 41
0.0
 46
0.0
 71
     2
 72
     1
  1
征
  7
SLDTEXTSTYLE2
 73
     1
 44
1.0
  0
ENDBLK
  5
A4
330
A2
100
AcDbEntity
  8
0
100
AcDbBlockEnd
  0
BLOCK
  5
AB
330
AA
100
AcDbEntity
  8
0
100
AcDbBlockBegin
  2
SW_NOTE_2
 70
     0
 10
0.0
 20
0.0
 30
0.0
  3
SW_NOTE_2
  1

  0
MTEXT
  5
AD
330
AA
100
AcDbEntity
  8
SLD-0
 62
     0
100
AcDbMText
 10
2.062499999999994
 20
3.867203219315898
 30
0.0
 40
3.0
 41
0.0
 46
0.0
 71
     2
 72
     1
  1
材
  7
SLDTEXTSTYLE2
 73
     1
 44
1.0
  0
MTEXT
  5
AE
330
AA
100
AcDbEntity
  8
SLD-0
 62
     0
100
AcDbMText
 10
2.062499999999994
 20
-0.1327969706739068
 30
0.0
 40
3.0
 41
0.0
 46
0.0
 71
     2
 72
     1
  1
料
  7
SLDTEXTSTYLE2
 73
     1
 44
1.0
  0
MTEXT
  5
AF
330
AA
100
AcDbEntity
  8
SLD-0
 62
     0
100
AcDbMText
 10
2.062499999999994
 20
-4.132797160663711
 30
0.0
 40
3.0
 41
0.0
 46
0.0
 71
     2
 72
     1
  1
特
  7
SLDTEXTSTYLE2
 73
     1
 44
1.0
  0
MTEXT
  5
B0
330
AA
100
AcDbEntity
  8
SLD-0
 62
     0
100
AcDbMText
 10
2.062499999999994
 20
-8.132797350653516
 30
0.0
 40
3.0
 41
0.0
 46
0.0
 71
     2
 72
     1
  1
征
  7
SLDTEXTSTYLE2
 73
     1
 44
1.0
  0
ENDBLK
  5
AC
330
AA
100
AcDbEntity
  8
0
100
AcDbBlockEnd
  0
BLOCK
  5
B7
330
B6
100
AcDbEntity
  8
0
100
AcDbBlockBegin
  2
SW_NOTE_3
 70
     0
 10
0.0
 20
0.0
 30
0.0
  3
SW_NOTE_3
  1

  0
MTEXT
  5
B9
330
B6
100
AcDbEntity
  8
SLD-0
 62
     0
100
AcDbMText
 10
0.0
 20
3.867203219315898
 30
0.0
 40
3.0
 41
0.0
 46
0.0
 71
     1
 72
     1
  1
原
  7
SLDTEXTSTYLE2
 73
     1
 44
1.0
  0
MTEXT
  5
BA
330
B6
100
AcDbEntity
  8
SLD-0
 62
     0
100
AcDbMText
 10
0.0
 20
-0.1327969706739103
 30
0.0
 40
3.0
 41
0.0
 46
0.0
 71
     1
 72
     1
  1
代
  7
SLDTEXTSTYLE2
 73
     1
 44
1.0
  0
MTEXT
  5
BB
330
B6
100
AcDbEntity
  8
SLD-0
 62
     0
100
AcDbMText
 10
0.0
 20
-4.132797160663715
 30
0.0
 40
3.0
 41
0.0
 46
0.0
 71
     1
 72
     1
  1
号
  7
SLDTEXTSTYLE2
 73
     1
 44
1.0
  0
ENDBLK
  5
B8
330
B6
100
AcDbEntity
  8
0
100
AcDbBlockEnd
  0
BLOCK
  5
BE
330
BD
100
AcDbEntity
  8
0
100
AcDbBlockBegin
  2
SW_NOTE_4
 70
     0
 10
0.0
 20
0.0
 30
0.0
  3
SW_NOTE_4
  1

  0
MTEXT
  5
C0
330
BD
100
AcDbEntity
  8
SLD-0
 62
     0
100
AcDbMText
 10
0.0
 20
3.867203219315898
 30
0.0
 40
3.0
 41
0.0
 46
0.0
 71
     1
 72
     1
  1
名
  7
SLDTEXTSTYLE2
 73
     1
 44
1.0
  0
MTEXT
  5
C1
330
BD
100
AcDbEntity
  8
SLD-0
 62
     0
100
AcDbMText
 10
0.0
 20
-0.1327969706739068
 30
0.0
 40
3.0
 41
0.0
 46
0.0
 71
     1
 72
     1
  1
称
  7
SLDTEXTSTYLE2
 73
     1
 44
1.0
  0
ENDBLK
  5
BF
330
BD
100
AcDbEntity
  8
0
100
AcDbBlockEnd
  0
BLOCK
  5
C4
330
C3
100
AcDbEntity
  8
0
100
AcDbBlockBegin
  2
SW_NOTE_5
 70
     0
 10
0.0
 20
0.0
 30
0.0
  3
SW_NOTE_5
  1

  0
MTEXT
  5
C6
330
C3
100
AcDbEntity
  8
SLD-0
 62
     0
100
AcDbMText
 10
0.0
 20
3.867203219315898
 30
0.0
 40
3.0
 41
0.0
 46
0.0
 71
     1
 72
     1
  1
代
  7
SLDTEXTSTYLE2
 73
     1
 44
1.0
  0
MTEXT
  5
C7
330
C3
100
AcDbEntity
  8
SLD-0
 62
     0
100
AcDbMText
 10
0.0
 20
-0.1327969706739068
 30
0.0
 40
3.0
 41
0.0
 46
0.0
 71
     1
 72
     1
  1
号
  7
SLDTEXTSTYLE2
 73
     1
 44
1.0
  0
ENDBLK
  5
C5
330
C3
100
AcDbEntity
  8
0
100
AcDbBlockEnd
  0
BLOCK
  5
CE
330
CD
100
AcDbEntity
  8
0
100
AcDbBlockBegin
  2
SW_NOTE_6
 70
     0
 10
0.0
 20
0.0
 30
0.0
  3
SW_NOTE_6
  1

  0
MTEXT
  5
D0
330
CD
100
AcDbEntity
  8
SLD-0
 62
     0
100
AcDbMText
 10
0.0
 20
3.609389671361498
 30
0.0
 40
2.799999999999999
 41
0.0
 46
0.0
 71
     1
 72
     1
  1
未注
  7
SLDTEXTSTYLE2
 73
     1
 44
1.0
  0
MTEXT
  5
D1
330
CD
100
AcDbEntity
  8
SLD-0
 62
     0
100
AcDbMText
 10
0.0
 20
-0.1906103927134944
 30
0.0
 40
2.799999999999999
 41
0.0
 46
0.0
 71
     1
 72
     1
  1
公差
  7
SLDTEXTSTYLE2
 73
     1
 44
1.0
  0
ENDBLK
  5
CF
330
CD
100
AcDbEntity
  8
0
100
AcDbBlockEnd
  0
BLOCK
  5
D7
330
D6
100
AcDbEntity
  8
0
100
AcDbBlockBegin
  2
SW_NOTE_7
 70
     0
 10
0.0
 20
0.0
 30
0.0
  3
SW_NOTE_7
  1

  0
MTEXT
  5
D9
330
D6
100
AcDbEntity
  8
SLD-0
 62
     0
100
AcDbMText
 10
0.9374999999999939
 20
3.222669349429913
 30
0.0
 40
2.5
 41
0.0
 46
0.0
 71
     2
 72
     1
  1
%%p
  7
SLDTEXTSTYLE1
 73
     1
 44
1.0
  0
MTEXT
  5
DA
330
D6
100
AcDbEntity
  8
SLD-0
 62
     0
100
AcDbMText
 10
4.556250050663942
 20
3.222669349429913
 30
0.0
 40
2.5
 41
0.0
 46
0.0
 71
     2
 72
     1
  1
0.1
  7
SLDTEXTSTYLE1
 73
     1
 44
1.0
  0
ENDBLK
  5
D8
330
D6
100
AcDbEntity
  8
0
100
AcDbBlockEnd
  0
BLOCK
  5
DE
330
DD
100
AcDbEntity
  8
0
100
AcDbBlockBegin
  2
SW_NOTE_8
 70
     0
 10
0.0
 20
0.0
 30
0.0
  3
SW_NOTE_8
  1

  0
MTEXT
  5
E0
330
DD
100
AcDbEntity
  8
SLD-0
 62
     0
100
AcDbMText
 10
0.9374999999999939
 20
3.222669349429913
 30
0.0
 40
2.5
 41
0.0
 46
0.0
 71
     2
 72
     1
  1
%%p
  7
SLDTEXTSTYLE1
 73
     1
 44
1.0
  0
MTEXT
  5
E1
330
DD
100
AcDbEntity
  8
SLD-0
 62
     0
100
AcDbMText
 10
5.415625050663952
 20
3.222669349429913
 30
0.0
 40
2.5
 41
0.0
 46
0.0
 71
     2
 72
     1
  1
0.15
  7
SLDTEXTSTYLE1
 73
     1
 44
1.0
  0
ENDBLK
  5
DF
330
DD
100
AcDbEntity
  8
0
100
AcDbBlockEnd
  0
BLOCK
  5
E4
330
E3
100
AcDbEntity
  8
0
100
AcDbBlockBegin
  2
SW_NOTE_9
 70
     0
 10
0.0
 20
0.0
 30
0.0
  3
SW_NOTE_9
  1

  0
MTEXT
  5
E6
330
E3
100
AcDbEntity
  8
SLD-0
 62
     0
100
AcDbMText
 10
0.9375000000000078
 20
3.222669349429913
 30
0.0
 40
2.5
 41
0.0
 46
0.0
 71
     2
 72
     1
  1
%%p
  7
SLDTEXTSTYLE1
 73
     1
 44
1.0
  0
MTEXT
  5
E7
330
E3
100
AcDbEntity
  8
SLD-0
 62
     0
100
AcDbMText
 10
4.556250050663956
 20
3.222669349429913
 30
0.0
 40
2.5
 41
0.0
 46
0.0
 71
     2
 72
     1
  1
0.4
  7
SLDTEXTSTYLE1
 73
     1
 44
1.0
  0
ENDBLK
  5
E5
330
E3
100
AcDbEntity
  8
0
100
AcDbBlockEnd
  0
BLOCK
  5
EA
330
E9
100
AcDbEntity
  8
0
100
AcDbBlockBegin
  2
SW_NOTE_10
 70
     0
 10
0.0
 20
0.0
 30
0.0
  3
SW_NOTE_10
  1

  0
MTEXT
  5
EC
330
E9
100
AcDbEntity
  8
SLD-0
 62
     0
100
AcDbMText
 10
0.9375000000000078
 20
3.222669349429913
 30
0.0
 40
2.5
 41
0.0
 46
0.0
 71
     2
 72
     1
  1
%%p
  7
SLDTEXTSTYLE1
 73
     1
 44
1.0
  0
MTEXT
  5
ED
330
E9
100
AcDbEntity
  8
SLD-0
 62
     0
100
AcDbMText
 10
4.556250050663956
 20
3.222669349429913
 30
0.0
 40
2.5
 41
0.0
 46
0.0
 71
     2
 72
     1
  1
0.3
  7
SLDTEXTSTYLE1
 73
     1
 44
1.0
  0
ENDBLK
  5
EB
330
E9
100
AcDbEntity
  8
0
100
AcDbBlockEnd
  0
BLOCK
  5
F1
330
F0
100
AcDbEntity
  8
0
100
AcDbBlockBegin
  2
SW_NOTE_11
 70
     0
 10
0.0
 20
0.0
 30
0.0
  3
SW_NOTE_11
  1

  0
MTEXT
  5
F3
330
F0
100
AcDbEntity
  8
SLD-0
 62
     0
100
AcDbMText
 10
0.9375000000000078
 20
3.222669349429913
 30
0.0
 40
2.5
 41
0.0
 46
0.0
 71
     2
 72
     1
  1
%%p
  7
SLDTEXTSTYLE1
 73
     1
 44
1.0
  0
MTEXT
  5
F4
330
F0
100
AcDbEntity
  8
SLD-0
 62
     0
100
AcDbMText
 10
4.556250050663956
 20
3.222669349429913
 30
0.0
 40
2.5
 41
0.0
 46
0.0
 71
     2
 72
     1
  1
0.4
  7
SLDTEXTSTYLE1
 73
     1
 44
1.0
  0
ENDBLK
  5
F2
330
F0
100
AcDbEntity
  8
0
100
AcDbBlockEnd
  0
BLOCK
  5
F7
330
F6
100
AcDbEntity
  8
0
100
AcDbBlockBegin
  2
SW_NOTE_12
 70
     0
 10
0.0
 20
0.0
 30
0.0
  3
SW_NOTE_12
  1

  0
MTEXT
  5
F9
330
F6
100
AcDbEntity
  8
SLD-0
 62
     0
100
AcDbMText
 10
4.335937499999998
 20
3.222669349429913
 30
0.0
 40
2.5
 41
0.0
 46
0.0
 71
     2
 72
     1
  1
>0-10
  7
SLDTEXTSTYLE1
 73
     1
 44
1.0
  0
MTEXT
  5
FA
330
F6
100
AcDbEntity
  8
SLD-0
 62
     0
100
AcDbMText
 10
9.701388701796542
 20
3.222669349429913
 30
0.0
 40
2.5
 41
0.0
 46
0.0
 71
     2
 72
     1
  1
%%d
  7
SLDTEXTSTYLE1
 73
     1
 44
1.0
  0
ENDBLK
  5
F8
330
F6
100
AcDbEntity
  8
0
100
AcDbBlockEnd
  0
BLOCK
  5
FD
330
FC
100
AcDbEntity
  8
0
100
AcDbBlockBegin
  2
SW_NOTE_13
 70
     0
 10
0.0
 20
0.0
 30
0.0
  3
SW_NOTE_13
  1

  0
MTEXT
  5
FF
330
FC
100
AcDbEntity
  8
SLD-0
 62
     0
100
AcDbMText
 10
5.195312499999992
 20
3.222669349429913
 30
0.0
 40
2.5
 41
0.0
 46
0.0
 71
     2
 72
     1
  1
>10-50
  7
SLDTEXTSTYLE1
 73
     1
 44
1.0
  0
MTEXT
  5
100
330
FC
100
AcDbEntity
  8
SLD-0
 62
     0
100
AcDbMText
 10
11.48611102253199
 20
3.222669349429913
 30
0.0
 40
2.5
 41
0.0
 46
0.0
 71
     2
 72
     1
  1
%%d
  7
SLDTEXTSTYLE1
 73
     1
 44
1.0
  0
ENDBLK
  5
FE
330
FC
100
AcDbEntity
  8
0
100
AcDbBlockEnd
  0
BLOCK
  5
103
330
102
100
AcDbEntity
  8
0
100
AcDbBlockBegin
  2
SW_NOTE_14
 70
     0
 10
0.0
 20
0.0
 30
0.0
  3
SW_NOTE_14
  1

  0
MTEXT
  5
105
330
102
100
AcDbEntity
  8
SLD-0
 62
     0
100
AcDbMText
 10
6.054687499999989
 20
3.222669349429913
 30
0.0
 40
2.5
 41
0.0
 46
0.0
 71
     2
 72
     1
  1
>50-120
  7
SLDTEXTSTYLE1
 73
     1
 44
1.0
  0
MTEXT
  5
106
330
102
100
AcDbEntity
  8
SLD-0
 62
     0
100
AcDbMText
 10
13.27083334326745
 20
3.222669349429913
 30
0.0
 40
2.5
 41
0.0
 46
0.0
 71
     2
 72
     1
  1
%%d
  7
SLDTEXTSTYLE1
 73
     1
 44
1.0
  0
ENDBLK
  5
104
330
102
100
AcDbEntity
  8
0
100
AcDbBlockEnd
  0
BLOCK
  5
109
330
108
100
AcDbEntity
  8
0
100
AcDbBlockBegin
  2
SW_NOTE_15
 70
     0
 10
0.0
 20
0.0
 30
0.0
  3
SW_NOTE_15
  1

  0
MTEXT
  5
10B
330
108
100
AcDbEntity
  8
SLD-0
 62
     0
100
AcDbMText
 10
1.601562499999986
 20
3.222669349429913
 30
0.0
 40
2.5
 41
0.0
 46
0.0
 71
     2
 72
     1
  1
角
  7
SLDTEXTSTYLE0
 73
     1
 44
1.0
  0
MTEXT
  5
10C
330
108
100
AcDbEntity
  8
SLD-0
 62
     0
100
AcDbMText
 10
1.601562499999986
 20
-0.2773307586035056
 30
0.0
 40
2.5
 41
0.0
 46
0.0
 71
     2
 72
     1
  1
度
  7
SLDTEXTSTYLE0
 73
     1
 44
1.0
  0
ENDBLK
  5
10A
330
108
100
AcDbEntity
  8
0
100
AcDbBlockEnd
  0
BLOCK
  5
10F
330
10E
100
AcDbEntity
  8
0
100
AcDbBlockBegin
  2
SW_NOTE_16
 70
     0
 10
0.0
 20
0.0
 30
0.0
  3
SW_NOTE_16
  1

  0
MTEXT
  5
111
330
10E
100
AcDbEntity
  8
SLD-0
 62
     0
100
AcDbMText
 10
0.9375000000000078
 20
3.222669349429913
 30
0.0
 40
2.5
 41
0.0
 46
0.0
 71
     2
 72
     1
  1
%%p
  7
SLDTEXTSTYLE1
 73
     1
 44
1.0
  0
MTEXT
  5
112
330
10E
100
AcDbEntity
  8
SLD-0
 62
     0
100
AcDbMText
 10
3.228125050663943
 20
3.222669349429913
 30
0.0
 40
2.5
 41
0.0
 46
0.0
 71
     2
 72
     1
  1
1
  7
SLDTEXTSTYLE1
 73
     1
 44
1.0
  0
MTEXT
  5
113
330
10E
100
AcDbEntity
  8
SLD-0
 62
     0
100
AcDbMText
 10
4.934722371399413
 20
3.222669349429913
 30
0.0
 40
2.5
 41
0.0
 46
0.0
 71
     2
 72
     1
  1
%%d
  7
SLDTEXTSTYLE1
 73
     1
 44
1.0
  0
ENDBLK
  5
110
330
10E
100
AcDbEntity
  8
0
100
AcDbBlockEnd
  0
BLOCK
  5
116
330
115
100
AcDbEntity
  8
0
100
AcDbBlockBegin
  2
SW_NOTE_17
 70
     0
 10
0.0
 20
0.0
 30
0.0
  3
SW_NOTE_17
  1

  0
MTEXT
  5
118
330
115
100
AcDbEntity
  8
SLD-0
 62
     0
100
AcDbMText
 10
0.9375000000000078
 20
3.222669349429913
 30
0.0
 40
2.5
 41
0.0
 46
0.0
 71
     2
 72
     1
  1
%%p
  7
SLDTEXTSTYLE1
 73
     1
 44
1.0
  0
MTEXT
  5
119
330
115
100
AcDbEntity
  8
SLD-0
 62
     0
100
AcDbMText
 10
4.439062550663952
 20
3.222669349429913
 30
0.0
 40
2.5
 41
0.0
 46
0.0
 71
     2
 72
     1
  1
20'
  7
SLDTEXTSTYLE1
 73
     1
 44
1.0
  0
ENDBLK
  5
117
330
115
100
AcDbEntity
  8
0
100
AcDbBlockEnd
  0
BLOCK
  5
11C
330
11B
100
AcDbEntity
  8
0
100
AcDbBlockBegin
  2
SW_NOTE_18
 70
     0
 10
0.0
 20
0.0
 30
0.0
  3
SW_NOTE_18
  1

  0
MTEXT
  5
11E
330
11B
100
AcDbEntity
  8
SLD-0
 62
     0
100
AcDbMText
 10
0.9375000000000078
 20
3.222669349429913
 30
0.0
 40
2.5
 41
0.0
 46
0.0
 71
     2
 72
     1
  1
%%p
  7
SLDTEXTSTYLE1
 73
     1
 44
1.0
  0
MTEXT
  5
11F
330
11B
100
AcDbEntity
  8
SLD-0
 62
     0
100
AcDbMText
 10
4.439062550663952
 20
3.222669349429913
 30
0.0
 40
2.5
 41
0.0
 46
0.0
 71
     2
 72
     1
  1
30'
  7
SLDTEXTSTYLE1
 73
     1
 44
1.0
  0
ENDBLK
  5
11D
330
11B
100
AcDbEntity
  8
0
100
AcDbBlockEnd
  0
BLOCK
  5
122
330
121
100
AcDbEntity
  8
0
100
AcDbBlockBegin
  2
SW_NOTE_19
 70
     0
 10
0.0
 20
0.0
 30
0.0
  3
SW_NOTE_19
  1

  0
MTEXT
  5
124
330
121
100
AcDbEntity
  8
SLD-0
 62
     0
100
AcDbMText
 10
3.750000000000003
 20
3.222669349429913
 30
0.0
 40
2.5
 41
0.0
 46
0.0
 71
     2
 72
     1
  1
>120
  7
SLDTEXTSTYLE1
 73
     1
 44
1.0
  0
MTEXT
  5
125
330
121
100
AcDbEntity
  8
SLD-0
 62
     0
100
AcDbMText
 10
8.513888623565446
 20
3.222669349429913
 30
0.0
 40
2.5
 41
0.0
 46
0.0
 71
     2
 72
     1
  1
%%d
  7
SLDTEXTSTYLE1
 73
     1
 44
1.0
  0
ENDBLK
  5
123
330
121
100
AcDbEntity
  8
0
100
AcDbBlockEnd
  0
BLOCK
  5
128
330
127
100
AcDbEntity
  8
0
100
AcDbBlockBegin
  2
SW_NOTE_20
 70
     0
 10
0.0
 20
0.0
 30
0.0
  3
SW_NOTE_20
  1

  0
MTEXT
  5
12A
330
127
100
AcDbEntity
  8
SLD-0
 62
     0
100
AcDbMText
 10
0.9375000000000078
 20
3.222669349429913
 30
0.0
 40
2.5
 41
0.0
 46
0.0
 71
     2
 72
     1
  1
%%p
  7
SLDTEXTSTYLE1
 73
     1
 44
1.0
  0
MTEXT
  5
12B
330
127
100
AcDbEntity
  8
SLD-0
 62
     0
100
AcDbMText
 10
4.439062550663952
 20
3.222669349429913
 30
0.0
 40
2.5
 41
0.0
 46
0.0
 71
     2
 72
     1
  1
10'
  7
SLDTEXTSTYLE1
 73
     1
 44
1.0
  0
ENDBLK
  5
129
330
127
100
AcDbEntity
  8
0
100
AcDbBlockEnd
  0
BLOCK
  5
131
330
130
100
AcDbEntity
  8
0
100
AcDbBlockBegin
  2
SW_SFSYMBOL_0
 70
     0
 10
0.0
 20
0.0
 30
0.0
  3
SW_SFSYMBOL_0
  1

  0
LINE
  5
133
330
130
100
AcDbEntity
  8
SLD-0
 62
     0
100
AcDbLine
 10
2.450848445077424
 20
-3.571249825377015
 30
0.0
 11
0.3440984450774343
 21
0.0000001746229827
 31
0.0
  0
LINE
  5
134
330
130
100
AcDbEntity
  8
SLD-0
 62
     0
100
AcDbLine
 10
4.557598445077415
 20
0.0000001746229827
 30
0.0
 11
0.3440984450774343
 21
0.0000001746229827
 31
0.0
  0
LINE
  5
135
330
130
100
AcDbEntity
  8
SLD-0
 62
     0
100
AcDbLine
 10
2.450848445077424
 20
-3.571249825377015
 30
0.0
 11
6.664348445077406
 21
3.57125017462298
 31
0.0
  0
MTEXT
  5
136
330
130
100
AcDbEntity
  8
SLD-0
 62
     0
100
AcDbMText
 10
0.0
 20
3.222669349429913
 30
0.0
 40
2.5
 41
0.0
 46
0.0
 71
     1
 72
     1
  1
3.2
  7
SLDTEXTSTYLE1
 73
     1
 44
1.0
  0
ENDBLK
  5
132
330
130
100
AcDbEntity
  8
0
100
AcDbBlockEnd
  0
BLOCK
  5
240
330
23F
100
AcDbEntity
  8
0
100
AcDbBlockBegin
  2
*U23
 70
     1
 10
0.0
 20
0.0
 30
0.0
  3
*U23
  1

  0
ENDBLK
  5
241
330
23F
100
AcDbEntity
  8
0
100
AcDbBlockEnd
  0
BLOCK
  5
283
330
281
100
AcDbEntity
  8
0
100
AcDbBlockBegin
  2
GENAXEH
 70
     0
 10
0.0
 20
0.0
 30
0.0
  3
GENAXEH
  1

  0
LINE
  5
282
330
281
100
AcDbEntity
  8
0
100
AcDbLine
 10
-1.0
 20
0.0
 30
0.0
 11
1.0
 21
0.0
 31
0.0
  0
ENDBLK
  5
284
330
281
100
AcDbEntity
  8
0
100
AcDbBlockEnd
  0
BLOCK
  5
2AC
330
2A1
100
AcDbEntity
  8
0
100
AcDbBlockBegin
  2
*D25
 70
     1
 10
0.0
 20
0.0
 30
0.0
  3
*D25
  1

  0
LINE
  5
2C6
330
2A1
100
AcDbEntity
  8
AM_5
 62
     0
440
 16777216
370
    -2
100
AcDbLine
 10
957.298162186669
 20
193.806040893413
 30
0.0
 11
965.2920458978224
 21
193.806040893413
 31
0.0
  0
LINE
  5
2C7
330
2A1
100
AcDbEntity
  8
AM_5
 62
     0
440
 16777216
370
    -2
100
AcDbLine
 10
957.298162186669
 20
173.806040893413
 30
0.0
 11
965.2920458978224
 21
173.806040893413
 31
0.0
  0
LINE
  5
2C8
330
2A1
100
AcDbEntity
  8
AM_5
 62
     0
440
 16777216
370
    -2
100
AcDbLine
 10
963.7920458978223
 20
191.806040893413
 30
0.0
 11
963.7920458978223
 21
186.580040893413
 31
0.0
  0
LINE
  5
2C9
330
2A1
100
AcDbEntity
  8
AM_5
 62
     0
440
 16777216
370
    -2
100
AcDbLine
 10
963.7920458978223
 20
175.806040893413
 30
0.0
 11
963.7920458978223
 21
181.032040893413
 31
0.0
  0
SOLID
  5
2CA
330
2A1
100
AcDbEntity
  8
AM_5
 62
     0
440
 16777216
100
AcDbTrace
 10
963.4587125644889
 20
191.806040893413
 30
0.0
 11
964.1253792311557
 21
191.806040893413
 31
0.0
 12
963.7920458978223
 22
193.806040893413
 32
0.0
 13
963.7920458978223
 23
193.806040893413
 33
0.0
  0
SOLID
  5
2CB
330
2A1
100
AcDbEntity
  8
AM_5
 62
     0
440
 16777216
100
AcDbTrace
 10
963.4587125644889
 20
175.806040893413
 30
0.0
 11
964.1253792311557
 21
175.806040893413
 31
0.0
 12
963.7920458978223
 22
173.806040893413
 32
0.0
 13
963.7920458978223
 23
173.806040893413
 33
0.0
  0
MTEXT
  5
2CC
330
2A1
100
AcDbEntity
  8
AM_5
 62
     0
440
 16777216
100
AcDbMText
 10
963.7920458978223
 20
183.8060408934132
 30
0.0
 40
2.5
 41
0.0
 46
0.0
 71
     5
 72
     1
  1
20
 73
     1
 44
1.0
  0
POINT
  5
2CD
330
2A1
100
AcDbEntity
  8
Defpoints
 62
     0
440
 16777216
100
AcDbPoint
 10
956.298162186669
 20
193.806040893413
 30
0.0
  0
POINT
  5
2CE
330
2A1
100
AcDbEntity
  8
Defpoints
 62
     0
440
 16777216
100
AcDbPoint
 10
956.298162186669
 20
173.806040893413
 30
0.0
  0
POINT
  5
2CF
330
2A1
100
AcDbEntity
  8
Defpoints
 62
     0
440
 16777216
100
AcDbPoint
 10
963.7920458978223
 20
173.806040893413
 30
0.0
  0
ENDBLK
  5
2AD
330
2A1
100
AcDbEntity
  8
0
100
AcDbBlockEnd
  0
BLOCK
  5
2EA
330
2E0
100
AcDbEntity
  8
0
100
AcDbBlockBegin
  2
*D26
 70
     1
 10
0.0
 20
0.0
 30
0.0
  3
*D26
  1

  0
LINE
  5
342
330
2E0
100
AcDbEntity
  8
AM_5
 62
     0
440
 16777216
370
    -2
100
AcDbLine
 10
956.298162186669
 20
172.806040893413
 30
0.0
 11
956.298162186669
 21
128.7054615064575
 31
0.0
  0
LINE
  5
343
330
2E0
100
AcDbEntity
  8
AM_5
 62
     0
440
 16777216
370
    -2
100
AcDbLine
 10
357.298162186669
 20
172.806040893413
 30
0.0
 11
357.298162186669
 21
128.7054615064575
 31
0.0
  0
LINE
  5
344
330
2E0
100
AcDbEntity
  8
AM_5
 62
     0
440
 16777216
370
    -2
100
AcDbLine
 10
954.298162186669
 20
130.2054615064575
 30
0.0
 11
359.2981621866691
 21
130.2054615064575
 31
0.0
  0
SOLID
  5
345
330
2E0
100
AcDbEntity
  8
AM_5
 62
     0
440
 16777216
100
AcDbTrace
 10
954.298162186669
 20
130.5387948397909
 30
0.0
 11
954.298162186669
 21
129.8721281731242
 31
0.0
 12
956.298162186669
 22
130.2054615064575
 32
0.0
 13
956.298162186669
 23
130.2054615064575
 33
0.0
  0
SOLID
  5
346
330
2E0
100
AcDbEntity
  8
AM_5
 62
     0
440
 16777216
100
AcDbTrace
 10
359.2981621866691
 20
130.5387948397909
 30
0.0
 11
359.2981621866691
 21
129.8721281731242
 31
0.0
 12
357.298162186669
 22
130.2054615064575
 32
0.0
 13
357.298162186669
 23
130.2054615064575
 33
0.0
  0
MTEXT
  5
347
330
2E0
100
AcDbEntity
  8
AM_5
 62
     0
440
 16777216
100
AcDbMText
 10
656.7981621866691
 20
132.9794615064575
 30
0.0
 40
2.5
 41
0.0
 46
0.0
 71
     5
 72
     1
  1
599
 73
     1
 44
1.0
  0
POINT
  5
348
330
2E0
100
AcDbEntity
  8
Defpoints
 62
     0
440
 16777216
100
AcDbPoint
 10
956.298162186669
 20
173.806040893413
 30
0.0
  0
POINT
  5
349
330
2E0
100
AcDbEntity
  8
Defpoints
 62
     0
440
 16777216
100
AcDbPoint
 10
357.298162186669
 20
173.806040893413
 30
0.0
  0
POINT
  5
34A
330
2E0
100
AcDbEntity
  8
Defpoints
 62
     0
440
 16777216
100
AcDbPoint
 10
357.298162186669
 20
130.2054615064575
 30
0.0
  0
ENDBLK
  5
2EB
330
2E0
100
AcDbEntity
  8
0
100
AcDbBlockEnd
  0
BLOCK
  5
313
330
308
100
AcDbEntity
  8
0
100
AcDbBlockBegin
  2
*D27
 70
     1
 10
0.0
 20
0.0
 30
0.0
  3
*D27
  1

  0
LINE
  5
32E
330
308
100
AcDbEntity
  8
AM_5
 62
     0
440
 16777216
370
    -2
100
AcDbLine
 10
957.298162186669
 20
58.59086089123284
 30
0.0
 11
987.2098215052822
 21
58.59086089123283
 31
0.0
  0
LINE
  5
32F
330
308
100
AcDbEntity
  8
AM_5
 62
     0
440
 16777216
370
    -2
100
AcDbLine
 10
944.7981621866693
 20
-68.40913910876714
 30
0.0
 11
987.2098215052822
 21
-68.40913910876714
 31
0.0
  0
LINE
  5
330
330
308
100
AcDbEntity
  8
AM_5
 62
     0
440
 16777216
370
    -2
100
AcDbLine
 10
985.7098215052822
 20
56.59086089123283
 30
0.0
 11
985.7098215052822
 21
-2.135139108767155
 31
0.0
  0
LINE
  5
331
330
308
100
AcDbEntity
  8
AM_5
 62
     0
440
 16777216
370
    -2
100
AcDbLine
 10
985.7098215052822
 20
-66.40913910876713
 30
0.0
 11
985.7098215052822
 21
-7.683139108767155
 31
0.0
  0
SOLID
  5
332
330
308
100
AcDbEntity
  8
AM_5
 62
     0
440
 16777216
100
AcDbTrace
 10
985.3764881719488
 20
56.59086089123283
 30
0.0
 11
986.0431548386156
 21
56.59086089123283
 31
0.0
 12
985.7098215052822
 22
58.59086089123283
 32
0.0
 13
985.7098215052822
 23
58.59086089123283
 33
0.0
  0
SOLID
  5
333
330
308
100
AcDbEntity
  8
AM_5
 62
     0
440
 16777216
100
AcDbTrace
 10
985.3764881719488
 20
-66.40913910876713
 30
0.0
 11
986.0431548386156
 21
-66.40913910876713
 31
0.0
 12
985.7098215052822
 22
-68.40913910876714
 32
0.0
 13
985.7098215052822
 23
-68.40913910876714
 33
0.0
  0
MTEXT
  5
334
330
308
100
AcDbEntity
  8
AM_5
 62
     0
440
 16777216
100
AcDbMText
 10
985.7098215052822
 20
-4.909139108766996
 30
0.0
 40
2.5
 41
0.0
 46
0.0
 71
     5
 72
     1
  1
127
 73
     1
 44
1.0
  0
POINT
  5
335
330
308
100
AcDbEntity
  8
Defpoints
 62
     0
440
 16777216
100
AcDbPoint
 10
956.298162186669
 20
58.59086089123284
 30
0.0
  0
POINT
  5
336
330
308
100
AcDbEntity
  8
Defpoints
 62
     0
440
 16777216
100
AcDbPoint
 10
943.7981621866693
 20
-68.40913910876714
 30
0.0
  0
POINT
  5
337
330
308
100
AcDbEntity
  8
Defpoints
 62
     0
440
 16777216
100
AcDbPoint
 10
985.7098215052822
 20
-68.40913910876714
 30
0.0
  0
ENDBLK
  5
314
330
308
100
AcDbEntity
  8
0
100
AcDbBlockEnd
  0
ENDSEC
  0
SECTION
  2
ENTITIES
  0
LINE
  5
138
330
1F
100
AcDbEntity
  8
0
  6
Continuous
 62
     7
370
    15
100
AcDbLine
 10
886.4981621866689
 20
180.8060408934131
 30
0.0
 11
885.998162186669
 21
181.306040893413
 31
0.0
  0
LINE
  5
139
330
1F
100
AcDbEntity
  8
0
  6
Continuous
 62
     7
370
    15
100
AcDbLine
 10
877.5981621866691
 20
181.306040893413
 30
0.0
 11
877.098162186669
 21
180.8060408934131
 31
0.0
  0
LINE
  5
13A
330
1F
100
AcDbEntity
  8
0
  6
Continuous
 62
     7
370
    15
100
AcDbLine
 10
436.498162186669
 20
180.8060408934131
 30
0.0
 11
435.998162186669
 21
181.306040893413
 31
0.0
  0
LINE
  5
13B
330
1F
100
AcDbEntity
  8
0
  6
Continuous
 62
     7
370
    15
100
AcDbLine
 10
427.598162186669
 20
181.306040893413
 30
0.0
 11
427.098162186669
 21
180.8060408934131
 31
0.0
  0
LINE
  5
13C
330
1F
100
AcDbEntity
  8
0
  6
Continuous
 62
     7
370
    15
100
AcDbLine
 10
661.4981621866689
 20
180.8060408934131
 30
0.0
 11
660.998162186669
 21
181.306040893413
 31
0.0
  0
LINE
  5
13D
330
1F
100
AcDbEntity
  8
0
  6
Continuous
 62
     7
370
    15
100
AcDbLine
 10
652.598162186669
 20
181.306040893413
 30
0.0
 11
652.098162186669
 21
180.8060408934131
 31
0.0
  0
LINE
  5
13E
330
1F
100
AcDbEntity
  8
0
  6
Continuous
 62
     7
370
    15
100
AcDbLine
 10
956.7981621866691
 20
188.3060408934131
 30
0.0
 11
943.7981621866692
 21
188.3060408934131
 31
0.0
  0
LINE
  5
13F
330
1F
100
AcDbEntity
  8
0
  6
Continuous
 62
     7
370
    15
100
AcDbLine
 10
956.7981621866691
 20
188.3060408934131
 30
0.0
 11
956.7981621866691
 21
182.306040893413
 31
0.0
  0
LINE
  5
140
330
1F
100
AcDbEntity
  8
0
  6
Continuous
 62
     7
370
    15
100
AcDbLine
 10
943.7981621866692
 20
182.306040893413
 30
0.0
 11
956.7981621866691
 21
182.306040893413
 31
0.0
  0
LINE
  5
141
330
1F
100
AcDbEntity
  8
0
  6
Continuous
 62
     7
370
    15
100
AcDbLine
 10
943.7981621866692
 20
182.306040893413
 30
0.0
 11
943.7981621866692
 21
188.3060408934131
 31
0.0
  0
LINE
  5
142
330
1F
100
AcDbEntity
  8
0
  6
Continuous
 62
     7
370
    15
100
AcDbLine
 10
369.7981621866691
 20
181.306040893413
 30
0.0
 11
357.7981621866691
 21
181.306040893413
 31
0.0
  0
ARC
  5
143
330
1F
100
AcDbEntity
  8
0
  6
Continuous
 62
     7
370
    15
100
AcDbCircle
 10
357.7981621866691
 20
182.306040893413
 30
0.0
 40
1.0
100
AcDbArc
 50
180.0
 51
270.0000000000008
  0
LINE
  5
144
330
1F
100
AcDbEntity
  8
0
  6
Continuous
 62
     7
370
    15
100
AcDbLine
 10
356.7981621866691
 20
182.306040893413
 30
0.0
 11
369.7981621866691
 21
182.306040893413
 31
0.0
  0
LINE
  5
145
330
1F
100
AcDbEntity
  8
0
  6
Continuous
 62
     7
370
    15
100
AcDbLine
 10
369.7981621866691
 20
181.306040893413
 30
0.0
 11
369.7981621866691
 21
182.306040893413
 31
0.0
  0
LINE
  5
146
330
1F
100
AcDbEntity
  8
0
  6
Continuous
 62
     7
370
    15
100
AcDbLine
 10
369.7981621866691
 20
182.306040893413
 30
0.0
 11
943.7981621866692
 21
182.306040893413
 31
0.0
  0
LINE
  5
147
330
1F
100
AcDbEntity
  8
0
  6
Continuous
 62
     7
370
    15
100
AcDbLine
 10
943.7981621866692
 20
182.306040893413
 30
0.0
 11
943.7981621866692
 21
181.306040893413
 31
0.0
  0
LINE
  5
148
330
1F
100
AcDbEntity
  8
0
  6
Continuous
 62
     7
370
    15
100
AcDbLine
 10
943.7981621866692
 20
181.306040893413
 30
0.0
 11
369.7981621866691
 21
181.306040893413
 31
0.0
  0
ARC
  5
149
330
1F
100
AcDbEntity
  8
0
  6
Continuous
 62
     7
370
    15
100
AcDbCircle
 10
955.7981621866691
 20
182.306040893413
 30
0.0
 40
1.0
100
AcDbArc
 50
270.0000000000008
 51
0.0
  0
LINE
  5
14A
330
1F
100
AcDbEntity
  8
0
  6
Continuous
 62
     7
370
    15
100
AcDbLine
 10
955.7981621866691
 20
181.306040893413
 30
0.0
 11
943.7981621866692
 21
181.306040893413
 31
0.0
  0
LINE
  5
14B
330
1F
100
AcDbEntity
  8
0
  6
Continuous
 62
     7
370
    15
100
AcDbLine
 10
369.7981621866691
 20
188.3060408934131
 30
0.0
 11
356.7981621866691
 21
188.3060408934131
 31
0.0
  0
ARC
  5
14C
330
1F
100
AcDbEntity
  8
0
  6
Continuous
 62
     7
370
    15
100
AcDbCircle
 10
357.7981621866691
 20
188.3060408934131
 30
0.0
 40
1.0
100
AcDbArc
 50
90.0
 51
180.0
  0
LINE
  5
14D
330
1F
100
AcDbEntity
  8
0
  6
Continuous
 62
     7
370
    15
100
AcDbLine
 10
357.7981621866691
 20
189.3060408934131
 30
0.0
 11
369.7981621866691
 21
189.3060408934131
 31
0.0
  0
LINE
  5
14E
330
1F
100
AcDbEntity
  8
0
  6
Continuous
 62
     7
370
    15
100
AcDbLine
 10
369.7981621866691
 20
188.3060408934131
 30
0.0
 11
369.7981621866691
 21
189.3060408934131
 31
0.0
  0
LINE
  5
14F
330
1F
100
AcDbEntity
  8
0
  6
Continuous
 62
     7
370
    15
100
AcDbLine
 10
369.7981621866691
 20
189.3060408934131
 30
0.0
 11
943.7981621866692
 21
189.3060408934131
 31
0.0
  0
LINE
  5
150
330
1F
100
AcDbEntity
  8
0
  6
Continuous
 62
     7
370
    15
100
AcDbLine
 10
943.7981621866692
 20
189.3060408934131
 30
0.0
 11
943.7981621866692
 21
188.3060408934131
 31
0.0
  0
LINE
  5
151
330
1F
100
AcDbEntity
  8
0
  6
Continuous
 62
     7
370
    15
100
AcDbLine
 10
943.7981621866692
 20
188.3060408934131
 30
0.0
 11
369.7981621866691
 21
188.3060408934131
 31
0.0
  0
LINE
  5
152
330
1F
100
AcDbEntity
  8
0
  6
Continuous
 62
     7
370
    15
100
AcDbLine
 10
369.7981621866691
 20
188.3060408934131
 30
0.0
 11
369.7981621866691
 21
182.306040893413
 31
0.0
  0
LINE
  5
153
330
1F
100
AcDbEntity
  8
0
  6
Continuous
 62
     7
370
    15
100
AcDbLine
 10
356.7981621866691
 20
182.306040893413
 30
0.0
 11
356.7981621866691
 21
188.3060408934131
 31
0.0
  0
LINE
  5
154
330
1F
100
AcDbEntity
  8
0
  6
Continuous
 62
     7
370
    15
100
AcDbLine
 10
943.7981621866692
 20
189.3060408934131
 30
0.0
 11
955.7981621866691
 21
189.3060408934131
 31
0.0
  0
ARC
  5
155
330
1F
100
AcDbEntity
  8
0
  6
Continuous
 62
     7
370
    15
100
AcDbCircle
 10
955.7981621866691
 20
188.3060408934131
 30
0.0
 40
1.0
100
AcDbArc
 50
0.0
 51
90.0
  0
LINE
  5
156
330
1F
100
AcDbEntity
  8
0
  6
Continuous
 62
     7
370
    15
100
AcDbLine
 10
956.298162186669
 20
193.806040893413
 30
0.0
 11
956.298162186669
 21
189.3060408934131
 31
0.0
  0
LINE
  5
157
330
1F
100
AcDbEntity
  8
0
  6
Continuous
 62
     7
370
    15
100
AcDbLine
 10
956.298162186669
 20
189.3060408934131
 30
0.0
 11
955.7981621866691
 21
189.3060408934131
 31
0.0
  0
LINE
  5
158
330
1F
100
AcDbEntity
  8
0
  6
Continuous
 62
     7
370
    15
100
AcDbLine
 10
952.2981621866691
 20
189.3060408934131
 30
0.0
 11
952.2981621866691
 21
193.806040893413
 31
0.0
  0
LINE
  5
159
330
1F
100
AcDbEntity
  8
0
  6
Continuous
 62
     7
370
    15
100
AcDbLine
 10
952.2981621866691
 20
193.806040893413
 30
0.0
 11
956.298162186669
 21
193.806040893413
 31
0.0
  0
LINE
  5
15A
330
1F
100
AcDbEntity
  8
0
  6
Continuous
 62
     7
370
    15
100
AcDbLine
 10
956.298162186669
 20
180.8060408934131
 30
0.0
 11
956.298162186669
 21
173.806040893413
 31
0.0
  0
LINE
  5
15B
330
1F
100
AcDbEntity
  8
0
  6
Continuous
 62
     7
370
    15
100
AcDbLine
 10
952.2981621866691
 20
173.806040893413
 30
0.0
 11
952.2981621866691
 21
180.8060408934131
 31
0.0
  0
LINE
  5
15C
330
1F
100
AcDbEntity
  8
0
  6
Continuous
 62
     7
370
    15
100
AcDbLine
 10
952.2981621866691
 20
180.8060408934131
 30
0.0
 11
956.298162186669
 21
180.8060408934131
 31
0.0
  0
LINE
  5
15D
330
1F
100
AcDbEntity
  8
0
  6
Continuous
 62
     7
370
    15
100
AcDbLine
 10
956.298162186669
 20
173.806040893413
 30
0.0
 11
952.2981621866691
 21
173.806040893413
 31
0.0
  0
LINE
  5
15E
330
1F
100
AcDbEntity
  8
0
  6
Continuous
 62
     7
370
    15
100
AcDbLine
 10
361.2981621866691
 20
193.806040893413
 30
0.0
 11
361.2981621866691
 21
189.3060408934131
 31
0.0
  0
LINE
  5
15F
330
1F
100
AcDbEntity
  8
0
  6
Continuous
 62
     7
370
    15
100
AcDbLine
 10
357.298162186669
 20
189.3060408934131
 30
0.0
 11
357.298162186669
 21
193.806040893413
 31
0.0
  0
LINE
  5
160
330
1F
100
AcDbEntity
  8
0
  6
Continuous
 62
     7
370
    15
100
AcDbLine
 10
357.7981621866691
 20
189.3060408934131
 30
0.0
 11
357.298162186669
 21
189.3060408934131
 31
0.0
  0
LINE
  5
161
330
1F
100
AcDbEntity
  8
0
  6
Continuous
 62
     7
370
    15
100
AcDbLine
 10
357.298162186669
 20
193.806040893413
 30
0.0
 11
361.2981621866691
 21
193.806040893413
 31
0.0
  0
LINE
  5
162
330
1F
100
AcDbEntity
  8
0
  6
Continuous
 62
     7
370
    15
100
AcDbLine
 10
952.2981621866691
 20
193.806040893413
 30
0.0
 11
361.2981621866691
 21
193.806040893413
 31
0.0
  0
LINE
  5
163
330
1F
100
AcDbEntity
  8
0
  6
Continuous
 62
     7
370
    15
100
AcDbLine
 10
361.2981621866691
 20
180.8060408934131
 30
0.0
 11
361.2981621866691
 21
173.806040893413
 31
0.0
  0
LINE
  5
164
330
1F
100
AcDbEntity
  8
0
  6
Continuous
 62
     7
370
    15
100
AcDbLine
 10
357.298162186669
 20
173.806040893413
 30
0.0
 11
357.298162186669
 21
180.8060408934131
 31
0.0
  0
LINE
  5
165
330
1F
100
AcDbEntity
  8
0
  6
Continuous
 62
     7
370
    15
100
AcDbLine
 10
357.298162186669
 20
180.8060408934131
 30
0.0
 11
361.2981621866691
 21
180.8060408934131
 31
0.0
  0
LINE
  5
166
330
1F
100
AcDbEntity
  8
0
  6
Continuous
 62
     7
370
    15
100
AcDbLine
 10
361.2981621866691
 20
173.806040893413
 30
0.0
 11
357.298162186669
 21
173.806040893413
 31
0.0
  0
LINE
  5
167
330
1F
100
AcDbEntity
  8
0
  6
Continuous
 62
     7
370
    15
100
AcDbLine
 10
952.2981621866691
 20
180.8060408934131
 30
0.0
 11
361.2981621866691
 21
180.8060408934131
 31
0.0
  0
LINE
  5
168
330
1F
100
AcDbEntity
  8
0
  6
Continuous
 62
     7
370
    15
100
AcDbLine
 10
952.2981621866691
 20
173.806040893413
 30
0.0
 11
361.2981621866691
 21
173.806040893413
 31
0.0
  0
ARC
  5
169
330
1F
100
AcDbEntity
  8
0
  6
Continuous
 62
     7
370
    15
100
AcDbCircle
 10
856.7981621866691
 20
185.0560408934131
 30
0.0
 40
4.000000000000017
100
AcDbArc
 50
249.6358651936847
 51
290.364134806317
  0
ARC
  5
16A
330
1F
100
AcDbEntity
  8
0
  6
Continuous
 62
     7
370
    15
100
AcDbCircle
 10
456.798162186669
 20
185.056040893413
 30
0.0
 40
4.000000000000004
100
AcDbArc
 50
249.6358651936836
 51
290.3641348063188
  0
LINE
  5
16B
330
1F
100
AcDbEntity
  8
0
  6
Continuous
 62
     7
370
    15
100
AcDbLine
 10
357.298162186669
 20
180.8060408934131
 30
0.0
 11
357.298162186669
 21
181.4400154896286
 31
0.0
  0
LINE
  5
16C
330
1F
100
AcDbEntity
  8
0
  6
Continuous
 62
     7
370
    15
100
AcDbLine
 10
357.298162186669
 20
189.1720662971975
 30
0.0
 11
357.298162186669
 21
189.3060408934131
 31
0.0
  0
LINE
  5
16D
330
1F
100
AcDbEntity
  8
0
  6
Continuous
 62
     7
370
    15
100
AcDbLine
 10
956.298162186669
 20
180.8060408934131
 30
0.0
 11
956.298162186669
 21
181.4400154896286
 31
0.0
  0
LINE
  5
16E
330
1F
100
AcDbEntity
  8
0
  6
Continuous
 62
     7
370
    15
100
AcDbLine
 10
956.298162186669
 20
189.1720662971975
 30
0.0
 11
956.298162186669
 21
189.3060408934131
 31
0.0
  0
ARC
  5
16F
330
1F
100
AcDbEntity
  8
0
  6
Continuous
 62
     7
370
    15
100
AcDbCircle
 10
955.7981621866691
 20
50.59086089123283
 30
0.0
 40
0.999999999999976
100
AcDbArc
 50
0.0
 51
60.00000000000673
  0
ARC
  5
170
330
1F
100
AcDbEntity
  8
0
  6
Continuous
 62
     7
370
    15
100
AcDbCircle
 10
357.7981621866691
 20
50.59086089123283
 30
0.0
 40
1.000000000000005
100
AcDbArc
 50
120.0000000000036
 51
180.0
  0
ARC
  5
171
330
1F
100
AcDbEntity
  8
0
  6
Continuous
 62
     7
370
    15
100
AcDbCircle
 10
943.7981621866692
 20
-55.40913910876714
 30
0.0
 40
12.0
100
AcDbArc
 50
270.0000000000008
 51
0.0
  0
LINE
  5
172
330
1F
100
AcDbEntity
  8
0
  6
Continuous
 62
     7
370
    15
100
AcDbLine
 10
369.7981621866691
 20
-67.40913910876713
 30
0.0
 11
943.7981621866692
 21
-67.40913910876713
 31
0.0
  0
ARC
  5
173
330
1F
100
AcDbEntity
  8
0
  6
Continuous
 62
     7
370
    15
100
AcDbCircle
 10
369.7981621866691
 20
-55.40913910876715
 30
0.0
 40
12.0
100
AcDbArc
 50
179.9999999999999
 51
270.0000000000008
  0
LINE
  5
174
330
1F
100
AcDbEntity
  8
0
  6
Continuous
 62
     7
370
    15
100
AcDbLine
 10
356.7981621866691
 20
-55.40913910876714
 30
0.0
 11
356.7981621866691
 21
50.59086089123283
 31
0.0
  0
LINE
  5
175
330
1F
100
AcDbEntity
  8
0
  6
Continuous
 62
     7
370
    15
100
AcDbLine
 10
356.7981621866691
 20
-55.40913910876714
 30
0.0
 11
357.7981621866691
 21
-55.40913910876714
 31
0.0
  0
LINE
  5
176
330
1F
100
AcDbEntity
  8
0
  6
Continuous
 62
     7
370
    15
100
AcDbLine
 10
956.7981621866691
 20
50.59086089123283
 30
0.0
 11
956.7981621866691
 21
-55.40913910876714
 31
0.0
  0
LINE
  5
177
330
1F
100
AcDbEntity
  8
0
  6
Continuous
 62
     7
370
    15
100
AcDbLine
 10
955.7981621866691
 20
-55.40913910876714
 30
0.0
 11
956.7981621866691
 21
-55.40913910876714
 31
0.0
  0
ARC
  5
178
330
1F
100
AcDbEntity
  8
0
  6
Continuous
 62
     7
370
    15
100
AcDbCircle
 10
369.7981621866691
 20
-55.40913910876715
 30
0.0
 40
13.0
100
AcDbArc
 50
179.9999999999999
 51
270.0000000000008
  0
LINE
  5
179
330
1F
100
AcDbEntity
  8
0
  6
Continuous
 62
     7
370
    15
100
AcDbLine
 10
369.7981621866691
 20
-68.40913910876714
 30
0.0
 11
369.7981621866691
 21
-67.40913910876713
 31
0.0
  0
ARC
  5
17A
330
1F
100
AcDbEntity
  8
0
  6
Continuous
 62
     7
370
    15
100
AcDbCircle
 10
943.7981621866692
 20
-55.40913910876714
 30
0.0
 40
13.0
100
AcDbArc
 50
270.0000000000008
 51
0.0
  0
LINE
  5
17B
330
1F
100
AcDbEntity
  8
0
  6
Continuous
 62
     7
370
    15
100
AcDbLine
 10
943.7981621866692
 20
-67.40913910876713
 30
0.0
 11
943.7981621866692
 21
-68.40913910876714
 31
0.0
  0
LINE
  5
17C
330
1F
100
AcDbEntity
  8
0
  6
Continuous
 62
     7
370
    15
100
AcDbLine
 10
943.7981621866692
 20
-68.40913910876714
 30
0.0
 11
369.7981621866691
 21
-68.40913910876714
 31
0.0
  0
ARC
  5
17D
330
1F
100
AcDbEntity
  8
0
  6
Continuous
 62
     7
370
    15
100
AcDbCircle
 10
361.2981621866691
 20
37.59086089123284
 30
0.0
 40
4.0
100
AcDbArc
 50
180.0
 51
270.0000000000008
  0
LINE
  5
17E
330
1F
100
AcDbEntity
  8
0
  6
Continuous
 62
     7
370
    15
100
AcDbLine
 10
956.298162186669
 20
58.59086089123284
 30
0.0
 11
956.298162186669
 21
37.59086089123284
 31
0.0
  0
ARC
  5
17F
330
1F
100
AcDbEntity
  8
0
  6
Continuous
 62
     7
370
    15
100
AcDbCircle
 10
952.2981621866691
 20
37.59086089123284
 30
0.0
 40
4.0
100
AcDbArc
 50
270.0000000000008
 51
0.0000000000000254
  0
LINE
  5
180
330
1F
100
AcDbEntity
  8
0
  6
Continuous
 62
     7
370
    15
100
AcDbLine
 10
952.2981621866691
 20
33.59086089123284
 30
0.0
 11
361.2981621866691
 21
33.59086089123284
 31
0.0
  0
LINE
  5
181
330
1F
100
AcDbEntity
  8
0
  6
Continuous
 62
     7
370
    15
100
AcDbLine
 10
956.298162186669
 20
58.59086089123284
 30
0.0
 11
357.298162186669
 21
58.59086089123284
 31
0.0
  0
LINE
  5
182
330
1F
100
AcDbEntity
  8
0
  6
Continuous
 62
     7
370
    15
100
AcDbLine
 10
357.298162186669
 20
58.59086089123284
 30
0.0
 11
357.298162186669
 21
37.59086089123284
 31
0.0
  0
LINE
  5
183
330
1F
100
AcDbEntity
  8
0
  6
Continuous
 62
     8
370
    15
100
AcDbLine
 10
956.298162186669
 20
50.59086089123284
 30
0.0
 11
956.7981621866691
 21
50.59086089123283
 31
0.0
  0
LINE
  5
184
330
1F
100
AcDbEntity
  8
0
  6
Continuous
 62
     8
370
    15
100
AcDbLine
 10
356.7981621866691
 20
50.59086089123283
 30
0.0
 11
357.298162186669
 21
50.59086089123284
 31
0.0
  0
LINE
  5
185
330
1F
100
AcDbEntity
  8
0
  6
Continuous
 62
     8
370
    15
100
AcDbLine
 10
955.7981621866691
 20
-55.40913910876714
 30
0.0
 11
955.7981621866691
 21
35.65436921812921
 31
0.0
  0
LINE
  5
186
330
1F
100
AcDbEntity
  8
0
  6
Continuous
 62
     8
370
    15
100
AcDbLine
 10
357.7981621866691
 20
35.65436921812902
 30
0.0
 11
357.7981621866691
 21
-55.40913910876714
 31
0.0
  0
SPLINE
  5
187
330
1F
100
AcDbEntity
  8
0
  6
Continuous
 62
     7
370
    15
100
AcDbSpline
210
0.0
220
0.0
230
1.0
 70
     8
 71
     3
 72
    19
 73
    15
 74
     0
 42
0.000000001
 43
0.0000000001
 40
0.0
 40
0.0
 40
0.0
 40
0.0
 40
0.0479664087284837
 40
0.1382980084312427
 40
0.2284982853385004
 40
0.3185286132432526
 40
0.408412761020764
 40
0.4982115021110919
 40
0.5879998121290767
 40
0.6778454304539264
 40
0.7678178796201664
 40
0.8580008938135213
 40
0.9484700675303614
 40
1.0
 40
1.0
 40
1.0
 40
1.0
 10
1267.38986187003
 20
0.1176377350095847
 30
0.0
 10
1267.507252832012
 20
0.0528619931542546
 30
0.0
 10
1267.845717534297
 20
-0.1339011256766553
 30
0.0
 10
1268.465326697522
 20
-0.3969060397804452
 30
0.0
 10
1269.258337791923
 20
-0.6468629883995964
 30
0.0
 10
1270.100382267897
 20
-0.8277940883507362
 30
0.0
 10
1270.974334336209
 20
-0.9380885974814706
 30
0.0
 10
1271.864662159021
 20
-0.9759616897559443
 30
0.0
 10
1272.755198302891
 20
-0.940996866480498
 30
0.0
 10
1273.629804223835
 20
-0.83361869668358
 30
0.0
 10
1274.473172098131
 20
-0.6555918902548531
 30
0.0
 10
1275.268639323007
 20
-0.408264013024573
 30
0.0
 10
1275.900790746852
 20
-0.1432634510205033
 30
0.0
 10
1276.248810150925
 20
0.0481689845277939
 30
0.0
 10
1276.375102610586
 20
0.1176377350095847
 30
0.0
  0
LINE
  5
188
330
1F
100
AcDbEntity
  8
0
  6
Continuous
 62
     7
370
    15
100
AcDbLine
 10
1276.375102610586
 20
0.1176377350095847
 30
0.0
 11
1313.851762013473
 21
21.75245269831131
 31
0.0
  0
LINE
  5
189
330
1F
100
AcDbEntity
  8
0
  6
Continuous
 62
     7
370
    15
100
AcDbLine
 10
1064.450215669491
 20
117.2722017815685
 30
0.0
 11
1267.38986187003
 21
0.1176377350095847
 31
0.0
  0
ARC
  5
18A
330
1F
100
AcDbEntity
  8
0
  6
Continuous
 62
     7
370
    15
100
AcDbCircle
 10
1313.601782330315
 20
24.63509956515891
 30
0.0
 40
0.5000000000000511
100
AcDbArc
 50
359.9999999999941
 51
50.70740231600835
  0
LINE
  5
18B
330
1F
100
AcDbEntity
  8
0
  6
Continuous
 62
     7
370
    15
100
AcDbLine
 10
1314.101782330315
 20
22.18547712950166
 30
0.0
 11
1314.101782330315
 21
24.6350995651589
 31
0.0
  0
ARC
  5
18C
330
1F
100
AcDbEntity
  8
0
  6
Continuous
 62
     7
370
    15
100
AcDbCircle
 10
1313.601782330315
 20
22.18547712950166
 30
0.0
 40
0.5
100
AcDbArc
 50
299.9973117336415
 51
0.0000000000065138
  0
SPLINE
  5
18D
330
1F
100
AcDbEntity
  8
0
  6
Continuous
 62
     7
370
    15
100
AcDbSpline
210
0.0
220
0.0
230
1.0
 70
     8
 71
     3
 72
    14
 73
    10
 74
     0
 42
0.000000001
 43
0.0000000001
 40
0.0
 40
0.0
 40
0.0
 40
0.0
 40
0.0953289244513573
 40
0.2757247967315924
 40
0.4561178724364404
 40
0.6348039650688863
 40
0.8099974078550165
 40
0.9808088414048585
 40
1.0
 40
1.0
 40
1.0
 40
1.0
 10
1064.450215669491
 20
125.4863217505427
 30
0.0
 10
1064.337288402249
 20
125.4181196001921
 30
0.0
 10
1064.01066300513
 20
125.2208549803475
 30
0.0
 10
1063.538330732135
 20
124.8509688126929
 30
0.0
 10
1063.0780651853
 20
124.3652527310835
 30
0.0
 10
1062.730838998783
 20
123.837820524086
 30
0.0
 10
1062.522103764914
 20
123.2839566380052
 30
0.0
 10
1062.431860751664
 20
122.8818939045566
 30
0.0
 10
1062.447894865585
 20
122.6727619471409
 30
0.0
 10
1062.44951438677
 20
122.6516386323652
 30
0.0
  0
LINE
  5
18E
330
1F
100
AcDbEntity
  8
0
  6
Continuous
 62
     7
370
    15
100
AcDbLine
 10
1062.442836039769
 20
122.6040729838842
 30
0.0
 11
1062.442836039769
 21
120.1544505482269
 31
0.0
  0
SPLINE
  5
18F
330
1F
100
AcDbEntity
  8
0
  6
Continuous
 62
     7
370
    15
100
AcDbSpline
210
0.0
220
0.0
230
1.0
 70
     8
 71
     3
 72
    14
 73
    10
 74
     0
 42
0.000000001
 43
0.0000000001
 40
0.0
 40
0.0
 40
0.0
 40
0.0
 40
0.0948856496428028
 40
0.2661652463959149
 40
0.4388101468823934
 40
0.6149007166320516
 40
0.7947775386445422
 40
0.9698972950697456
 40
1.0
 40
1.0
 40
1.0
 40
1.0
 10
1062.461826013493
 20
120.0169603541077
 30
0.0
 10
1062.465152127488
 20
119.9150819898625
 30
0.0
 10
1062.47448226281
 20
119.6293013684112
 30
0.0
 10
1062.623429223777
 20
119.1697355596698
 30
0.0
 10
1062.891443120414
 20
118.6527443404545
 30
0.0
 10
1063.276299501693
 20
118.1655740135572
 30
0.0
 10
1063.760512997626
 20
117.7211120633811
 30
0.0
 10
1064.175270395274
 20
117.4332733144989
 30
0.0
 10
1064.415044775564
 20
117.2928059902258
 30
0.0
 10
1064.450215669491
 20
117.2722017815685
 30
0.0
  0
LINE
  5
190
330
1F
100
AcDbEntity
  8
0
  6
Continuous
 62
     7
370
    15
100
AcDbLine
 10
1096.818097544901
 20
144.1719022234531
 30
0.0
 11
1064.450215669491
 21
125.4863217505427
 31
0.0
  0
LINE
  5
191
330
1F
100
AcDbEntity
  8
0
  6
Continuous
 62
     7
370
    15
100
AcDbLine
 10
1096.818097544901
 20
145.5659160540712
 30
0.0
 11
1096.818097544901
 21
143.7286992273283
 31
0.0
  0
ARC
  5
192
330
1F
100
AcDbEntity
  8
0
  6
Continuous
 62
     7
370
    15
100
AcDbCircle
 10
1271.882482240308
 20
11.52088810385756
 30
0.0
 40
9.154777346358041
100
AcDbArc
 50
242.3910402157628
 51
297.6089597842388
  0
ARC
  5
193
330
1F
100
AcDbEntity
  8
0
  6
Continuous
 62
     7
370
    15
100
AcDbCircle
 10
1275.711068267336
 20
2.761252147770838
 30
0.0
 40
0.7684024037871807
100
AcDbArc
 50
2.6054784856772
 51
57.39452165990732
  0
ARC
  5
194
330
1F
100
AcDbEntity
  8
0
  6
Continuous
 62
     7
370
    15
100
AcDbCircle
 10
1271.882482240308
 20
11.58454342796376
 30
0.0
 40
9.917675458554644
100
AcDbArc
 50
242.3910402157635
 51
297.6089597842404
  0
ARC
  5
195
330
1F
100
AcDbEntity
  8
0
  6
Continuous
 62
     7
370
    15
100
AcDbCircle
 10
1268.05389621328
 20
2.761252147770561
 30
0.0
 40
0.768402403786967
100
AcDbArc
 50
122.6054783400381
 51
177.3945215143003
  0
LINE
  5
196
330
1F
100
AcDbEntity
  8
0
  6
Continuous
 62
     7
370
    15
100
AcDbLine
 10
1276.478676318021
 20
2.796182573901489
 30
0.0
 11
1276.478676318021
 21
0.3465601382442451
 31
0.0
  0
ARC
  5
197
330
1F
100
AcDbEntity
  8
0
  6
Continuous
 62
     7
370
    15
100
AcDbCircle
 10
1271.882482240308
 20
9.134920992306511
 30
0.0
 40
9.917675458554642
100
AcDbArc
 50
242.3910402157635
 51
297.6089597842404
  0
LINE
  5
198
330
1F
100
AcDbEntity
  8
0
  6
Continuous
 62
     7
370
    15
100
AcDbLine
 10
1267.286288162595
 20
0.346560138244259
 30
0.0
 11
1267.286288162595
 21
2.796182573901504
 31
0.0
  0
LINE
  5
199
330
1F
100
AcDbEntity
  8
0
  6
Continuous
 62
     7
370
    15
100
AcDbLine
 10
1064.70019535265
 20
120.563119054359
 30
0.0
 11
1267.639841553189
 21
3.408555007800059
 31
0.0
  0
LWPOLYLINE
  5
19A
330
1F
100
AcDbEntity
  8
0
  6
Continuous
 62
     7
370
    15
100
AcDbPolyline
 90
       11
 70
   128
 43
0.0
 10
1064.70019535265
 20
125.4615677252952
 10
1064.08873407352
 20
125.0482706107884
 10
1063.596796894639
 20
124.5848422112464
 10
1063.236496941998
 20
124.0826936718967
 10
1063.016705996199
 20
123.5541895563135
 10
1062.942836039769
 20
123.0123433898271
 10
1063.016705996199
 20
122.4704972233407
 10
1063.236496941998
 20
121.9419931077575
 10
1063.596796894639
 20
121.4398445684078
 10
1064.08873407352
 20
120.9764161688658
 10
1064.70019535265
 20
120.563119054359
  0
LINE
  5
19B
330
1F
100
AcDbEntity
  8
0
  6
Continuous
 62
     7
370
    15
100
AcDbLine
 10
1313.955335720908
 20
24.43099753720324
 30
0.0
 11
1276.478676318021
 21
2.796182573901489
 31
0.0
  0
LINE
  5
19C
330
1F
100
AcDbEntity
  8
0
  6
Continuous
 62
     7
370
    15
100
AcDbLine
 10
1267.286288162595
 20
2.796182573901504
 30
0.0
 11
1064.346641962057
 21
119.9507466204604
 31
0.0
  0
ARC
  5
19D
330
1F
100
AcDbEntity
  8
0
  6
Continuous
 62
     7
370
    15
100
AcDbCircle
 10
1065.114250012741
 20
119.91581619433
 30
0.0
 40
0.7684024037861246
100
AcDbArc
 50
122.6054783400158
 51
177.3945215143344
  0
LINE
  5
19E
330
1F
100
AcDbEntity
  8
0
  6
Continuous
 62
     7
370
    15
100
AcDbLine
 10
1313.955335720908
 20
21.98137510154598
 30
0.0
 11
1313.955335720908
 21
24.43099753720324
 31
0.0
  0
LINE
  5
19F
330
1F
100
AcDbEntity
  8
0
  6
Continuous
 62
     7
370
    15
100
AcDbLine
 10
1276.478676318021
 20
0.3465601382442451
 30
0.0
 11
1313.955335720908
 21
21.98137510154598
 31
0.0
  0
LINE
  5
1A0
330
1F
100
AcDbEntity
  8
0
  6
Continuous
 62
     7
370
    15
100
AcDbLine
 10
1064.346641962057
 20
117.5011241848032
 30
0.0
 11
1267.286288162595
 21
0.346560138244259
 31
0.0
  0
LINE
  5
1A1
330
1F
100
AcDbEntity
  8
0
  6
Continuous
 62
     7
370
    15
100
AcDbLine
 10
1064.346641962057
 20
119.9507466204604
 30
0.0
 11
1064.346641962057
 21
117.5011241848032
 31
0.0
  0
LINE
  5
1A2
330
1F
100
AcDbEntity
  8
0
  6
Continuous
 62
     7
370
    15
100
AcDbLine
 10
1062.442836039769
 20
122.6040729838842
 30
0.0
 11
1062.443236545998
 21
122.6457274849438
 31
0.0
  0
LINE
  5
1A3
330
1F
100
AcDbEntity
  8
0
  6
Continuous
 62
     7
370
    15
100
AcDbLine
 10
1062.442836039769
 20
120.1544505482269
 30
0.0
 11
1062.446132345421
 21
120.0349629972843
 31
0.0
  0
LINE
  5
1A4
330
1F
100
AcDbEntity
  8
0
  6
Continuous
 62
     7
370
    15
100
AcDbLine
 10
1309.182364947899
 20
24.12520942044309
 30
0.0
 11
1309.182364947899
 21
22.28799259370015
 31
0.0
  0
ARC
  5
1A5
330
1F
100
AcDbEntity
  8
0
  6
Continuous
 62
     7
370
    15
100
AcDbCircle
 10
1307.768151385525
 20
25.0174147636115
 30
0.0
 40
3.074043815823757
100
AcDbArc
 50
242.6096722366056
 51
297.3903277634036
  0
LINE
  5
1A6
330
1F
100
AcDbEntity
  8
0
  6
Continuous
 62
     7
370
    15
100
AcDbLine
 10
1306.353937823153
 20
22.28799259370015
 30
0.0
 11
1306.353937823153
 21
24.12520942044309
 31
0.0
  0
ARC
  5
1A7
330
1F
100
AcDbEntity
  8
0
  6
Continuous
 62
     7
370
    15
100
AcDbCircle
 10
1307.768151385525
 20
26.85463159035445
 30
0.0
 40
3.07404381582376
100
AcDbArc
 50
242.6096722366057
 51
297.3903277634036
  0
ARC
  5
1A8
330
1F
100
AcDbEntity
  8
0
  6
Continuous
 62
     7
370
    15
100
AcDbCircle
 10
1097.71373803612
 20
145.5659160540712
 30
0.0
 40
0.8732306336685711
100
AcDbArc
 50
110.7834207994744
 51
249.2165792005264
  0
LINE
  5
1A9
330
1F
100
AcDbEntity
  8
0
  6
Continuous
 62
     7
370
    15
100
AcDbLine
 10
1104.828505184987
 20
150.6684667529632
 30
0.0
 11
1097.403883982528
 21
146.382324165894
 31
0.0
  0
LINE
  5
1AA
330
1F
100
AcDbEntity
  8
0
  6
Continuous
 62
     7
370
    15
100
AcDbLine
 10
1316.606986150357
 20
28.41135200751231
 30
0.0
 11
1104.828505184987
 21
150.6684667529632
 31
0.0
  0
LINE
  5
1AB
330
1F
100
AcDbEntity
  8
0
  6
Continuous
 62
     7
370
    15
100
AcDbLine
 10
1316.606986150357
 20
28.41135200751231
 30
0.0
 11
1309.182364947899
 21
24.12520942044309
 31
0.0
  0
LINE
  5
1AC
330
1F
100
AcDbEntity
  8
0
  6
Continuous
 62
     7
370
    15
100
AcDbLine
 10
1306.353937823153
 20
24.12520942044309
 30
0.0
 11
1097.403883982528
 21
144.7495079422485
 31
0.0
  0
LINE
  5
1AD
330
1F
100
AcDbEntity
  8
0
  6
Continuous
 62
     7
370
    15
100
AcDbLine
 10
1097.403883982528
 20
144.7495079422485
 30
0.0
 11
1097.403883982528
 21
142.9122911155056
 31
0.0
  0
LINE
  5
1AE
330
1F
100
AcDbEntity
  8
0
  6
Continuous
 62
     7
370
    15
100
AcDbLine
 10
1097.403883982528
 20
142.9122911155056
 30
0.0
 11
1306.353937823153
 21
22.28799259370015
 31
0.0
  0
LINE
  5
1AF
330
1F
100
AcDbEntity
  8
0
  6
Continuous
 62
     7
370
    15
100
AcDbLine
 10
1314.132112416204
 20
21.6751225345652
 30
0.0
 11
1314.132112416204
 21
25.14542098507963
 31
0.0
  0
LINE
  5
1B0
330
1F
100
AcDbEntity
  8
0
  6
Continuous
 62
     7
370
    15
100
AcDbLine
 10
1314.132112416204
 20
25.14542098507963
 30
0.0
 11
1309.182364947899
 21
22.28799259370015
 31
0.0
  0
LINE
  5
1B1
330
1F
100
AcDbEntity
  8
0
  6
Continuous
 62
     7
370
    15
100
AcDbLine
 10
1316.606986150357
 20
20.24594388865482
 30
0.0
 11
1316.606986150357
 21
28.41135200751231
 31
0.0
  0
LINE
  5
1B2
330
1F
100
AcDbEntity
  8
0
  6
Continuous
 62
     7
370
    15
100
AcDbLine
 10
1309.182364947899
 20
15.9598013015856
 30
0.0
 11
1316.606986150357
 21
20.24594388865482
 31
0.0
  0
LINE
  5
1B3
330
1F
100
AcDbEntity
  8
0
  6
Continuous
 62
     7
370
    15
100
AcDbLine
 10
1309.182364947899
 20
18.81769414318572
 30
0.0
 11
1309.182364947899
 21
15.9598013015856
 31
0.0
  0
LINE
  5
1B4
330
1F
100
AcDbEntity
  8
0
  6
Continuous
 62
     7
370
    15
100
AcDbLine
 10
1309.182364947899
 20
18.81769414318572
 30
0.0
 11
1314.132112416204
 21
21.6751225345652
 31
0.0
  0
LINE
  5
1B5
330
1F
100
AcDbEntity
  8
0
  6
Continuous
 62
     7
370
    15
100
AcDbLine
 10
1313.918399003264
 20
21.79849666176378
 30
0.0
 11
1314.132112416204
 21
21.6751225345652
 31
0.0
  0
ARC
  5
1B6
330
1F
100
AcDbEntity
  8
0
  6
Continuous
 62
     7
370
    15
100
AcDbCircle
 10
1307.907421229089
 20
21.14342979016684
 30
0.0
 40
2.652268422647039
100
AcDbArc
 50
277.1670453509897
 51
298.7310879251733
  0
ARC
  5
1B7
330
1F
100
AcDbEntity
  8
0
  6
Continuous
 62
     7
370
    15
100
AcDbCircle
 10
1307.768151385525
 20
18.68922347149695
 30
0.0
 40
3.074043815823751
100
AcDbArc
 50
242.6096722366055
 51
297.3903277634036
  0
LINE
  5
1B8
330
1F
100
AcDbEntity
  8
0
  6
Continuous
 62
     7
370
    15
100
AcDbLine
 10
1306.353937823153
 20
15.9598013015856
 30
0.0
 11
1305.085723037335
 21
16.6919261137234
 31
0.0
  0
ARC
  5
1B9
330
1F
100
AcDbEntity
  8
0
  6
Continuous
 62
     7
370
    15
100
AcDbCircle
 10
1097.819011669882
 20
143.8285119811264
 30
0.0
 40
1.005878556987191
100
AcDbArc
 50
185.6947992511862
 51
245.6253417064308
  0
LINE
  5
1BA
330
1F
100
AcDbEntity
  8
0
  6
Continuous
 62
     8
370
    15
100
AcDbLine
 10
1276.125122927428
 20
3.408555007800045
 30
0.0
 11
1308.320935055721
 21
21.99480173007826
 31
0.0
  0
LINE
  5
1BB
330
1F
100
AcDbEntity
  8
0
  6
Continuous
 62
     8
370
    15
100
AcDbLine
 10
1096.818097544901
 20
144.0028379988469
 30
0.0
 11
1064.70019535265
 21
125.4615677252952
 31
0.0
  0
ARC
  5
1BC
330
1F
100
AcDbEntity
  8
0
  6
Continuous
 62
     8
370
    15
100
AcDbCircle
 10
1276.240852934544
 20
0.3162735310008785
 30
0.0
 40
0.239744114227126
100
AcDbArc
 50
304.0396768134913
 51
7.257503831493872
  0
ARC
  5
1BD
330
1F
100
AcDbEntity
  8
0
  6
Continuous
 62
     8
370
    15
100
AcDbCircle
 10
1267.52411160263
 20
0.3162735444054089
 30
0.0
 40
0.2397441686389336
100
AcDbArc
 50
172.7425010538988
 51
235.9602745884322
  0
ARC
  5
1BE
330
1F
100
AcDbEntity
  8
0
  6
Continuous
 62
     8
370
    15
100
AcDbCircle
 10
1313.18300942187
 20
24.39460972128183
 30
0.0
 40
0.773183021885881
100
AcDbArc
 50
2.697470849955541
 51
43.13409083059447
  0
ARC
  5
1BF
330
1F
100
AcDbEntity
  8
0
  6
Continuous
 62
     8
370
    15
100
AcDbCircle
 10
1313.717492943061
 20
21.95109308719879
 30
0.0
 40
0.2397627731049552
100
AcDbArc
 50
304.0563508165161
 51
7.255829576927779
  0
ARC
  5
1C0
330
1F
100
AcDbEntity
  8
0
  6
Continuous
 62
     8
370
    15
100
AcDbCircle
 10
1064.591642913667
 20
117.474080816323
 30
0.0
 40
0.246488965409335
100
AcDbArc
 50
173.7011525378002
 51
234.9866670688454
  0
ARC
  5
1C1
330
1F
100
AcDbEntity
  8
0
  6
Continuous
 62
     8
370
    15
100
AcDbCircle
 10
1313.851553799069
 20
24.66005275360896
 30
0.0
 40
0.2514696392476389
100
AcDbArc
 50
294.3746582936515
 51
354.3052007487119
  0
ARC
  5
1C2
330
1F
100
AcDbEntity
  8
0
  6
Continuous
 62
     8
370
    15
100
AcDbCircle
 10
1313.851553799069
 20
22.21043031795171
 30
0.0
 40
0.2514696392476382
100
AcDbArc
 50
294.3746582936504
 51
354.3052007487134
  0
ARC
  5
1C3
330
1F
100
AcDbEntity
  8
0
  6
Continuous
 62
     8
370
    15
100
AcDbCircle
 10
1065.668181244133
 20
122.9086425318833
 30
0.0
 40
3.239693549841335
100
AcDbArc
 50
185.3944478058
 51
245.9256931518209
  0
ARC
  5
1C4
330
1F
100
AcDbEntity
  8
0
  6
Continuous
 62
     8
370
    15
100
AcDbCircle
 10
1064.553727901398
 20
125.2571063901795
 30
0.0
 40
0.2515097450072499
100
AcDbArc
 50
54.38379004531952
 51
114.2914213256463
  0
ARC
  5
1C5
330
1F
100
AcDbEntity
  8
0
  6
Continuous
 62
     8
370
    15
100
AcDbCircle
 10
1065.77456764502
 20
120.551801449481
 30
0.0
 40
3.368323548783448
100
AcDbArc
 50
188.8263822624057
 51
244.9171902955767
  0
LINE
  5
1C6
330
1F
100
AcDbEntity
  8
0
  6
Continuous
 62
     8
370
    15
100
AcDbLine
 10
1306.353937823153
 20
15.9598013015856
 30
0.0
 11
1306.353937823153
 21
17.4240509258612
 31
0.0
  0
DIMENSION
  5
29F
330
1F
100
AcDbEntity
  8
AM_5
100
AcDbDimension
280
     0
  2
*D25
 10
963.7920458978223
 20
173.806040893413
 30
0.0
 11
963.7920458978223
 21
183.8060408934132
 31
0.0
 70
    32
 71
     5
 42
20.0
 73
     0
 74
     0
 75
     0
  3
ISO-25
100
AcDbAlignedDimension
 13
956.298162186669
 23
193.806040893413
 33
0.0
 14
956.298162186669
 24
173.806040893413
 34
0.0
 50
90.00000000000003
100
AcDbRotatedDimension
1001
ACAD
1000
DSTYLE
1002
{
1070
    41
1040
2.0
1070
    42
1040
1.0
1070
    44
1040
1.5
1070
    73
1070
     1
1070
    74
1070
     1
1070
    78
1070
     0
1070
   143
1040
0.0393700787401575
1070
   147
1040
1.524
1070
   179
1070
     2
1070
   271
1070
     0
1070
   284
1070
     0
1002
}
  0
DIMENSION
  5
2DF
330
1F
100
AcDbEntity
  8
AM_5
100
AcDbDimension
280
     0
  2
*D26
 10
357.298162186669
 20
130.2054615064575
 30
0.0
 11
656.7981621866691
 21
132.9794615064575
 31
0.0
 70
    32
 71
     5
 42
599.0
 73
     0
 74
     0
 75
     0
  3
ISO-25
100
AcDbAlignedDimension
 13
956.298162186669
 23
173.806040893413
 33
0.0
 14
357.298162186669
 24
173.806040893413
 34
0.0
 50
0.0000000000001132
100
AcDbRotatedDimension
1001
ACAD
1000
DSTYLE
1002
{
1070
    41
1040
2.0
1070
    42
1040
1.0
1070
    44
1040
1.5
1070
    73
1070
     1
1070
    74
1070
     1
1070
    78
1070
     0
1070
   143
1040
0.0393700787401575
1070
   147
1040
1.524
1070
   179
1070
     2
1070
   271
1070
     0
1070
   284
1070
     0
1002
}
  0
DIMENSION
  5
307
330
1F
100
AcDbEntity
  8
AM_5
100
AcDbDimension
280
     0
  2
*D27
 10
985.7098215052822
 20
-68.40913910876714
 30
0.0
 11
985.7098215052822
 21
-4.909139108766996
 31
0.0
 70
    32
 71
     5
 42
127.0
 73
     0
 74
     0
 75
     0
  3
ISO-25
100
AcDbAlignedDimension
 13
956.298162186669
 23
58.59086089123284
 33
0.0
 14
943.7981621866693
 24
-68.40913910876714
 34
0.0
 50
90.00000000000003
100
AcDbRotatedDimension
1001
ACAD
1000
DSTYLE
1002
{
1070
    41
1040
2.0
1070
    42
1040
1.0
1070
    44
1040
1.5
1070
    73
1070
     1
1070
    74
1070
     1
1070
    78
1070
     0
1070
   143
1040
0.0393700787401575
1070
   147
1040
1.524
1070
   179
1070
     2
1070
   271
1070
     0
1070
   284
1070
     0
1002
}
  0
ENDSEC
  0
SECTION
  2
OBJECTS
  0
DICTIONARY
  5
C
330
0
100
AcDbDictionary
281
     1
  3
ACAD_CIP_PREVIOUS_PRODUCT_INFO
350
3A2
  3
ACAD_COLOR
350
1EC
  3
ACAD_DETAILVIEWSTYLE
350
397
  3
ACAD_GROUP
350
D
  3
ACAD_LAYOUT
350
1A
  3
ACAD_MATERIAL
350
1EB
  3
ACAD_MLEADERSTYLE
350
393
  3
ACAD_MLINESTYLE
350
17
  3
ACAD_PLOTSETTINGS
350
19
  3
ACAD_PLOTSTYLENAME
350
E
  3
ACAD_SCALELIST
350
1C8
  3
ACAD_SECTIONVIEWSTYLE
350
395
  3
ACAD_TABLESTYLE
350
391
  3
ACAD_VISUALSTYLE
350
378
  3
AcAmCatalogState
350
24B
  3
ACDB_RECOMPOSE_DATA
350
3E2
  3
AcDbVariableDictionary
350
3D2
  3
ACDMSYSVARMGR
350
20A
  3
ACGREF_MASTER
350
202
  3
ACGREFACAD_MASTER
350
22B
  3
AcmDictionary
350
249
  3
ACME_BOM_MANAGER_NAME
350
1FC
  3
ACME_COMMAND_HISTORY
350
1F9
  3
ACME_SCOPE_NAME
350
1F8
  3
ACMESTATEMGR
350
201
  3
AcmeSysVarManager
350
1FA
  3
AcmSystemVariableManager
350
254
  3
AD_APPL
350
236
  3
ADSYSVARMGR
350
235
  3
AmdtNamedDwgMgr
350
226
  3
AMG
350
1F1
  3
AMGSNAPSETTINGS
350
289
  3
AMI_MASTER
350
22E
  3
AUTOCAD_ASSEMBLIES_PROJECT
350
23E
  3
Designer_Assemblies_SysVars
350
239
  3
GREFAM_MODULE
350
22F
  0
DICTIONARY
  5
3A4
330
10
100
AcDbDictionary
280
     1
281
     1
  3
ADSK_XREC_LAYER_RECONCILED
360
3A5
  0
DICTIONARY
  5
3A6
330
44
100
AcDbDictionary
280
     1
281
     1
  3
ADSK_XREC_LAYER_RECONCILED
360
3A7
  0
DICTIONARY
  5
3A8
330
45
100
AcDbDictionary
280
     1
281
     1
  3
ADSK_XREC_LAYER_RECONCILED
360
3A9
  0
DICTIONARY
  5
3AA
330
46
100
AcDbDictionary
280
     1
281
     1
  3
ADSK_XREC_LAYER_RECONCILED
360
3AB
  0
DICTIONARY
  5
3AC
330
47
100
AcDbDictionary
280
     1
281
     1
  3
ADSK_XREC_LAYER_RECONCILED
360
3AD
  0
DICTIONARY
  5
3AE
330
48
100
AcDbDictionary
280
     1
281
     1
  3
ADSK_XREC_LAYER_RECONCILED
360
3AF
  0
DICTIONARY
  5
3B0
330
49
100
AcDbDictionary
280
     1
281
     1
  3
ADSK_XREC_LAYER_RECONCILED
360
3B1
  0
DICTIONARY
  5
3B2
330
4A
100
AcDbDictionary
280
     1
281
     1
  3
ADSK_XREC_LAYER_RECONCILED
360
3B3
  0
DICTIONARY
  5
3B4
330
4B
100
AcDbDictionary
280
     1
281
     1
  3
ADSK_XREC_LAYER_RECONCILED
360
3B5
  0
DICTIONARY
  5
3B6
330
4C
100
AcDbDictionary
280
     1
281
     1
  3
ADSK_XREC_LAYER_RECONCILED
360
3B7
  0
DICTIONARY
  5
3B8
330
4D
100
AcDbDictionary
280
     1
281
     1
  3
ADSK_XREC_LAYER_RECONCILED
360
3B9
  0
DICTIONARY
  5
3BA
330
4E
100
AcDbDictionary
280
     1
281
     1
  3
ADSK_XREC_LAYER_RECONCILED
360
3BB
  0
DICTIONARY
  5
3BC
330
4F
100
AcDbDictionary
280
     1
281
     1
  3
ADSK_XREC_LAYER_RECONCILED
360
3BD
  0
DICTIONARY
  5
3BE
330
50
100
AcDbDictionary
280
     1
281
     1
  3
ADSK_XREC_LAYER_RECONCILED
360
3BF
  0
DICTIONARY
  5
3C0
330
51
100
AcDbDictionary
280
     1
281
     1
  3
ADSK_XREC_LAYER_RECONCILED
360
3C1
  0
DICTIONARY
  5
34B
330
1F
100
AcDbDictionary
280
     1
281
     1
  3
ACAD_INDEX
360
34C
  0
XRECORD
  5
3A2
102
{ACAD_REACTORS
330
C
102
}
330
C
100
AcDbXrecord
280
     1
300
ACD
300
2017
300
ACD_F_S
  0
DICTIONARY
  5
1EC
102
{ACAD_REACTORS
330
C
102
}
330
C
100
AcDbDictionary
281
     1
  0
DICTIONARY
  5
397
102
{ACAD_REACTORS
330
C
102
}
330
C
100
AcDbDictionary
281
     1
  3
Metric50
350
398
  0
DICTIONARY
  5
D
102
{ACAD_REACTORS
330
C
102
}
330
C
100
AcDbDictionary
281
     1
  0
DICTIONARY
  5
1A
102
{ACAD_REACTORS
330
C
102
}
330
C
100
AcDbDictionary
281
     1
  3
Layout1
350
1E
  3
Layout2
350
26
  3
Model
350
22
  0
DICTIONARY
  5
1EB
102
{ACAD_REACTORS
330
C
102
}
330
C
100
AcDbDictionary
281
     1
  3
ByBlock
350
368
  3
ByLayer
350
360
  3
Global
350
370
  0
DICTIONARY
  5
393
102
{ACAD_REACTORS
330
C
102
}
330
C
100
AcDbDictionary
281
     1
  3
Standard
350
394
  0
DICTIONARY
  5
17
102
{ACAD_REACTORS
330
C
102
}
330
C
100
AcDbDictionary
281
     1
  3
Standard
350
18
  0
DICTIONARY
  5
19
102
{ACAD_REACTORS
330
C
102
}
330
C
100
AcDbDictionary
281
     1
  0
ACDBDICTIONARYWDFLT
  5
E
102
{ACAD_REACTORS
330
C
102
}
330
C
100
AcDbDictionary
281
     1
  3
Normal
350
F
100
AcDbDictionaryWithDefault
340
F
  0
DICTIONARY
  5
1C8
102
{ACAD_REACTORS
330
C
102
}
330
C
100
AcDbDictionary
281
     1
  3
A0
350
1C9
  3
A1
350
1CA
  3
A2
350
1CB
  3
A3
350
1CC
  3
A4
350
1CD
  3
A5
350
1CE
  3
A6
350
1CF
  3
A7
350
1D0
  3
A8
350
1D1
  3
A9
350
1D2
  3
B0
350
1D3
  3
B1
350
1D4
  3
B2
350
1D5
  3
B3
350
1D6
  3
B4
350
1D7
  3
B5
350
1D8
  3
B6
350
1D9
  3
B7
350
1DA
  3
B8
350
1DB
  3
B9
350
1DC
  3
C0
350
1DD
  3
C1
350
1DE
  3
C2
350
1DF
  3
C3
350
1E0
  3
C4
350
1E1
  3
C5
350
1E2
  3
C6
350
1E3
  3
C7
350
1E4
  3
C8
350
1E5
  3
C9
350
1E6
  3
D0
350
1E7
  3
D1
350
1E8
  3
D2
350
1E9
  0
DICTIONARY
  5
395
102
{ACAD_REACTORS
330
C
102
}
330
C
100
AcDbDictionary
281
     1
  3
Metric50
350
396
  0
DICTIONARY
  5
391
102
{ACAD_REACTORS
330
C
102
}
330
C
100
AcDbDictionary
281
     1
  3
Standard
350
392
  0
DICTIONARY
  5
378
102
{ACAD_REACTORS
330
C
102
}
330
C
100
AcDbDictionary
281
     1
  3
2dWireframe
350
37E
  3
Basic
350
37D
  3
Brighten
350
384
  3
ColorChange
350
388
  3
Conceptual
350
381
  3
Dim
350
383
  3
EdgeColorOff
350
390
  3
Facepattern
350
387
  3
Flat
350
379
  3
FlatWithEdges
350
37A
  3
Gouraud
350
37B
  3
GouraudWithEdges
350
37C
  3
Hidden
350
380
  3
JitterOff
350
38E
  3
Linepattern
350
386
  3
OverhangOff
350
38F
  3
Realistic
350
382
  3
Shaded
350
38D
  3
Shaded with edges
350
38C
  3
Shades of Gray
350
389
  3
Sketchy
350
38A
  3
Thicken
350
385
  3
Wireframe
350
37F
  3
X-Ray
350
38B
  0
ACAD_PROXY_OBJECT
  5
24B
102
{ACAD_REACTORS
330
C
102
}
330
C
100
AcDbProxyObject
 90
      499
 91
      549
 95
  4980761
 70
     0
161
               384
310
3FFFFFFFE00A028440291AE2E189C9917189B1C171A17189819AE64F45E63595FAE222BA39427212614AE199918400AA00
 94
        0
  0
XRECORD
  5
3E2
102
{ACAD_REACTORS
330
C
102
}
330
C
100
AcDbXrecord
280
     1
 90
        1
330
392
330
396
330
398
  0
DICTIONARY
  5
3D2
102
{ACAD_REACTORS
330
C
102
}
330
C
100
AcDbDictionary
281
     1
  3
CANNOSCALE
350
3D8
  3
CMLEADERSTYLE
350
3D4
  3
CTABLESTYLE
350
3D3
  3
CVIEWDETAILSTYLE
350
3D5
  3
CVIEWSECTIONSTYLE
350
3D6
  3
LAYEREVAL
350
3DA
  3
LAYERNOTIFY
350
3DB
  3
LIGHTINGUNITS
350
3D9
  3
MSLTSCALE
350
3D7
  0
ACAD_PROXY_OBJECT
  5
20A
102
{ACAD_REACTORS
330
C
102
}
330
C
100
AcDbProxyObject
 90
      499
 91
      510
 95
  4980761
 70
     0
161
               240
310
4C51A482000000000000000000000000000000000000000000000000000000
330
20B
330
20C
330
20D
330
20E
330
20F
330
210
330
211
330
213
330
214
330
215
330
216
330
217
330
218
330
219
330
21A
330
21B
330
21C
330
21D
330
21E
330
21F
330
220
330
221
330
222
330
223
330
224
330
225
 94
        0
  0
ACAD_PROXY_OBJECT
  5
202
102
{ACAD_REACTORS
330
C
102
}
330
C
100
AcDbProxyObject
 90
      499
 91
      518
 95
  4980761
 70
     0
161
                34
310
040000428C
 94
        0
  0
ACAD_PROXY_OBJECT
  5
22B
102
{ACAD_REACTORS
330
C
102
}
330
C
100
AcDbProxyObject
 90
      499
 91
      527
 95
  4980761
 70
     0
161
               114
310
04000041C08000000000000000000C
 94
        0
  0
DICTIONARY
  5
249
102
{ACAD_REACTORS
330
C
102
}
330
C
100
AcDbDictionary
281
     1
  3
AcmBOMDATA
350
24A
  3
AcmStdDictionary
350
256
  0
ACAD_PROXY_OBJECT
  5
1FC
102
{ACAD_REACTORS
330
C
102
}
330
C
100
AcDbProxyObject
 90
      499
 91
      512
 95
  4980761
 70
     0
161
                50
310
0000004040000C
330
0
330
0
330
1FD
 94
        0
  0
ACAD_PROXY_OBJECT
  5
1F9
102
{ACAD_REACTORS
330
C
102
}
330
C
100
AcDbProxyObject
 90
      499
 91
      509
 95
  4980761
 70
     0
161
              1818
310
41C050E414D4454524553455444424D4F4440805084E202D20554E444F014213880B4815539113C0504554E444F80504554E444F8050545524153458050A414D504F57455244494D40405184D5347202D20436F6D6D616E642043414E43454C4C45442E014290535413D5D15491125350101461354D1C80B4810DBDB5B585B
310
990810D05390D1531311510B8050A414D504F57455244494D40805184D5347202D20436F6D6D616E642043414E43454C4C45442E014B9354D1C80B481414104E88080819195CDADD1BDC0B985C9E08119A5B1955995C9CDA5BDB8E880E0B8C0B8C8D0B8D8C
 94
        0
  0
ACAD_PROXY_OBJECT
  5
1F8
102
{ACAD_REACTORS
330
C
102
}
330
C
100
AcDbProxyObject
 90
      499
 91
      508
 95
  4980761
 70
     0
161
               554
310
080000454080000000000000000013150200000000000000000000000000000000000000000000000000000000000000000000000000000000000000000000000000AAAAAA8C
360
1FB
360
1FD
360
203
360
204
360
205
360
206
360
207
360
208
360
20B
360
20C
360
20D
360
20E
360
20F
360
210
360
211
360
213
360
214
360
215
360
216
360
217
360
218
360
219
360
21A
360
21B
360
21C
360
21D
360
21E
360
21F
360
220
360
221
360
222
360
223
360
224
360
225
360
231
360
232
360
233
360
234
360
23A
360
23B
360
23C
360
23D
360
242
360
243
360
244
360
245
360
246
360
247
360
255
 94
        0
  0
ACAD_PROXY_OBJECT
  5
201
102
{ACAD_REACTORS
330
C
102
}
330
C
100
AcDbProxyObject
 90
      499
 91
      517
 95
  4980761
 70
     0
161
                50
310
08000041E4128C
 94
        0
  0
ACAD_PROXY_OBJECT
  5
1FA
102
{ACAD_REACTORS
330
C
102
}
330
C
100
AcDbProxyObject
 90
      499
 91
      510
 95
  4980761
 70
     0
161
                32
310
9014220000
330
1FB
 94
        0
  0
ACAD_PROXY_OBJECT
  5
254
102
{ACAD_REACTORS
330
C
102
}
330
C
100
AcDbProxyObject
 90
      499
 91
      510
 95
  4980761
 70
     0
161
                32
310
9014220000
330
255
 94
        0
  0
ACAD_PROXY_OBJECT
  5
236
102
{ACAD_REACTORS
330
C
102
}
330
C
100
AcDbProxyObject
 90
      499
 91
      537
 95
  4980761
 70
     0
161
                34
310
000800008C
330
231
 94
        0
  0
ACAD_PROXY_OBJECT
  5
235
102
{ACAD_REACTORS
330
C
102
}
330
C
100
AcDbProxyObject
 90
      499
 91
      510
 95
  4980761
 70
     0
161
                 8
310
AA33
 94
        0
  0
ACAD_PROXY_OBJECT
  5
226
102
{ACAD_REACTORS
330
C
102
}
330
C
100
AcDbProxyObject
 90
      499
 91
      524
 95
  4980761
 70
     0
161
                42
310
000100005E8C
330
203
 94
        0
  0
DICTIONARY
  5
1F1
102
{ACAD_REACTORS
330
C
102
}
330
C
100
AcDbDictionary
281
     1
  3
AcMgSettings
350
1F2
  3
AMGLAYCFG
350
258
  0
DICTIONARY
  5
289
102
{ACAD_REACTORS
330
C
102
}
330
C
100
AcDbDictionary
281
     1
  3
DIMENSION
350
28E
  3
FEA
350
28D
  3
HATCH (1)
350
28A
  3
HATCH (2)
350
28B
  3
SIMPLE WELD
350
28F
  3
SYMBOLS
350
28C
  0
ACAD_PROXY_OBJECT
  5
22E
102
{ACAD_REACTORS
330
C
102
}
330
C
100
AcDbProxyObject
 90
      499
 91
      530
 95
  4980761
 70
     0
161
                34
310
050000428C
 94
        0
  0
ACAD_PROXY_OBJECT
  5
23E
102
{ACAD_REACTORS
330
C
102
}
330
C
100
AcDbProxyObject
 90
      499
 91
      541
 95
  4980761
 70
     0
161
                82
310
0800004BC000000000000C
330
245
330
0
330
246
330
0
330
0
330
0
 94
        0
  0
ACAD_PROXY_OBJECT
  5
239
102
{ACAD_REACTORS
330
C
102
}
330
C
100
AcDbProxyObject
 90
      499
 91
      510
 95
  4980761
 70
     0
161
                56
310
904422000000007A
330
23A
330
23B
330
23C
330
23D
 94
        0
  0
ACAD_PROXY_OBJECT
  5
22F
102
{ACAD_REACTORS
330
C
102
}
330
C
100
AcDbProxyObject
 90
      499
 91
      531
 95
  4980761
 70
     0
161
                 8
310
0533
 94
        0
  0
XRECORD
  5
3A5
102
{ACAD_REACTORS
330
3A4
102
}
330
3A4
100
AcDbXrecord
280
     1
290
     1
  0
XRECORD
  5
3A7
102
{ACAD_REACTORS
330
3A6
102
}
330
3A6
100
AcDbXrecord
280
     1
290
     1
  0
XRECORD
  5
3A9
102
{ACAD_REACTORS
330
3A8
102
}
330
3A8
100
AcDbXrecord
280
     1
290
     1
  0
XRECORD
  5
3AB
102
{ACAD_REACTORS
330
3AA
102
}
330
3AA
100
AcDbXrecord
280
     1
290
     1
  0
XRECORD
  5
3AD
102
{ACAD_REACTORS
330
3AC
102
}
330
3AC
100
AcDbXrecord
280
     1
290
     1
  0
XRECORD
  5
3AF
102
{ACAD_REACTORS
330
3AE
102
}
330
3AE
100
AcDbXrecord
280
     1
290
     1
  0
XRECORD
  5
3B1
102
{ACAD_REACTORS
330
3B0
102
}
330
3B0
100
AcDbXrecord
280
     1
290
     1
  0
XRECORD
  5
3B3
102
{ACAD_REACTORS
330
3B2
102
}
330
3B2
100
AcDbXrecord
280
     1
290
     1
  0
XRECORD
  5
3B5
102
{ACAD_REACTORS
330
3B4
102
}
330
3B4
100
AcDbXrecord
280
     1
290
     1
  0
XRECORD
  5
3B7
102
{ACAD_REACTORS
330
3B6
102
}
330
3B6
100
AcDbXrecord
280
     1
290
     1
  0
XRECORD
  5
3B9
102
{ACAD_REACTORS
330
3B8
102
}
330
3B8
100
AcDbXrecord
280
     1
290
     1
  0
XRECORD
  5
3BB
102
{ACAD_REACTORS
330
3BA
102
}
330
3BA
100
AcDbXrecord
280
     1
290
     1
  0
XRECORD
  5
3BD
102
{ACAD_REACTORS
330
3BC
102
}
330
3BC
100
AcDbXrecord
280
     1
290
     1
  0
XRECORD
  5
3BF
102
{ACAD_REACTORS
330
3BE
102
}
330
3BE
100
AcDbXrecord
280
     1
290
     1
  0
XRECORD
  5
3C1
102
{ACAD_REACTORS
330
3C0
102
}
330
3C0
100
AcDbXrecord
280
     1
290
     1
  0
DICTIONARY
  5
34C
102
{ACAD_REACTORS
330
34B
102
}
330
34B
100
AcDbDictionary
281
     1
  3
*A1
350
34D
  0
ACDBDETAILVIEWSTYLE
  5
398
102
{ACAD_XDICTIONARY
360
3E0
102
}
102
{ACAD_REACTORS
330
397
102
}
330
397
100
AcDbModelDocViewStyle
 70
     0
  3
Metric50
290
     0
100
AcDbDetailViewStyle
 70
     0
 71
     0
 90
        3
 71
     1
340
11
 62
   256
 40
5.0
340
0
 62
   256
 40
5.0
300

 40
0.0
280
     1
 71
     2
340
16
 90
       25
 62
   256
 71
     3
340
11
 62
   256
 40
5.0
 90
        0
 40
15.0
 90
        1
300
%<\AcVar ViewDetailId>% (%<\AcVar ViewScale \f "%sn">%)
 71
     4
340
16
 90
       25
 62
   256
340
16
 90
       25
 62
   256
280
     0
  0
LAYOUT
  5
1E
102
{ACAD_REACTORS
330
1A
102
}
330
1A
100
AcDbPlotSettings
  1

  2
none_device
  4

  6

 40
0.0
 41
0.0
 42
0.0
 43
0.0
 44
0.0
 45
0.0
 46
0.0
 47
0.0
 48
0.0
 49
0.0
140
0.0
141
0.0
142
1.0
143
1.0
 70
   688
 72
     0
 73
     0
 74
     5
  7

 75
    16
147
1.0
 76
     0
 77
     2
 78
   300
148
0.0
149
0.0
100
AcDbLayout
  1
Layout1
 70
     1
 71
     1
 10
0.0
 20
0.0
 11
420.0
 21
297.0
 12
0.0
 22
0.0
 32
0.0
 14
1.000000000000000E+20
 24
1.000000000000000E+20
 34
1.000000000000000E+20
 15
-1.000000000000000E+20
 25
-1.000000000000000E+20
 35
-1.000000000000000E+20
146
0.0
 13
0.0
 23
0.0
 33
0.0
 16
1.0
 26
0.0
 36
0.0
 17
0.0
 27
1.0
 37
0.0
 76
     0
330
1B
  0
LAYOUT
  5
26
102
{ACAD_REACTORS
330
1A
102
}
330
1A
100
AcDbPlotSettings
  1

  2
none_device
  4

  6

 40
0.0
 41
0.0
 42
0.0
 43
0.0
 44
0.0
 45
0.0
 46
0.0
 47
0.0
 48
0.0
 49
0.0
140
0.0
141
0.0
142
1.0
143
1.0
 70
   688
 72
     0
 73
     0
 74
     5
  7

 75
    16
147
1.0
 76
     0
 77
     2
 78
   300
148
0.0
149
0.0
100
AcDbLayout
  1
Layout2
 70
     1
 71
     2
 10
0.0
 20
0.0
 11
0.0
 21
0.0
 12
0.0
 22
0.0
 32
0.0
 14
0.0
 24
0.0
 34
0.0
 15
0.0
 25
0.0
 35
0.0
146
0.0
 13
0.0
 23
0.0
 33
0.0
 16
1.0
 26
0.0
 36
0.0
 17
0.0
 27
1.0
 37
0.0
 76
     0
330
23
  0
LAYOUT
  5
22
102
{ACAD_REACTORS
330
1A
102
}
330
1A
100
AcDbPlotSettings
  1

  2
none_device
  4

  6

 40
0.0
 41
0.0
 42
0.0
 43
0.0
 44
0.0
 45
0.0
 46
0.0
 47
0.0
 48
0.0
 49
0.0
140
0.0
141
0.0
142
1.0
143
1.0
 70
  1712
 72
     0
 73
     0
 74
     0
  7

 75
     0
147
1.0
 76
     0
 77
     2
 78
   300
148
0.0
149
0.0
100
AcDbLayout
  1
Model
 70
     1
 71
     0
 10
0.0
 20
0.0
 11
297.0
 21
210.0
 12
0.0
 22
0.0
 32
0.0
 14
0.0
 24
0.0
 34
0.0
 15
297.0
 25
210.0
 35
0.0
146
0.0
 13
0.0
 23
0.0
 33
0.0
 16
1.0
 26
0.0
 36
0.0
 17
0.0
 27
1.0
 37
0.0
 76
     0
330
1F
331
35E
  0
MATERIAL
  5
368
102
{ACAD_XDICTIONARY
360
369
102
}
102
{ACAD_REACTORS
330
1EB
102
}
330
1EB
100
AcDbMaterial
  1
ByBlock
 72
     0
 43
0.0008202099737533
 43
0.0
 43
0.0
 43
0.0
 43
0.0
 43
0.0008202099737533
 43
0.0
 43
0.0
 43
0.0
 43
0.0
 43
1.0
 43
0.0
 43
0.0
 43
0.0
 43
0.0
 43
1.0
 77
     0
 47
0.0008202099737533
 47
0.0
 47
0.0
 47
0.0
 47
0.0
 47
0.0008202099737533
 47
0.0
 47
0.0
 47
0.0
 47
0.0
 47
1.0
 47
0.0
 47
0.0
 47
0.0
 47
0.0
 47
1.0
171
     0
 49
0.0008202099737533
 49
0.0
 49
0.0
 49
0.0
 49
0.0
 49
0.0008202099737533
 49
0.0
 49
0.0
 49
0.0
 49
0.0
 49
1.0
 49
0.0
 49
0.0
 49
0.0
 49
0.0
 49
1.0
175
     0
142
0.0008202099737533
142
0.0
142
0.0
142
0.0
142
0.0
142
0.0008202099737533
142
0.0
142
0.0
142
0.0
142
0.0
142
1.0
142
0.0
142
0.0
142
0.0
142
0.0
142
1.0
179
     0
144
0.0008202099737533
144
0.0
144
0.0
144
0.0
144
0.0
144
0.0008202099737533
144
0.0
144
0.0
144
0.0
144
0.0
144
1.0
144
0.0
144
0.0
144
0.0
144
0.0
144
1.0
147
0.0008202099737533
147
0.0
147
0.0
147
0.0
147
0.0
147
0.0008202099737533
147
0.0
147
0.0
147
0.0
147
0.0
147
1.0
147
0.0
147
0.0
147
0.0
147
0.0
147
1.0
  0
MATERIAL
  5
360
102
{ACAD_XDICTIONARY
360
361
102
}
102
{ACAD_REACTORS
330
1EB
102
}
330
1EB
100
AcDbMaterial
  1
ByLayer
 72
     0
 43
0.0008202099737533
 43
0.0
 43
0.0
 43
0.0
 43
0.0
 43
0.0008202099737533
 43
0.0
 43
0.0
 43
0.0
 43
0.0
 43
1.0
 43
0.0
 43
0.0
 43
0.0
 43
0.0
 43
1.0
 77
     0
 47
0.0008202099737533
 47
0.0
 47
0.0
 47
0.0
 47
0.0
 47
0.0008202099737533
 47
0.0
 47
0.0
 47
0.0
 47
0.0
 47
1.0
 47
0.0
 47
0.0
 47
0.0
 47
0.0
 47
1.0
171
     0
 49
0.0008202099737533
 49
0.0
 49
0.0
 49
0.0
 49
0.0
 49
0.0008202099737533
 49
0.0
 49
0.0
 49
0.0
 49
0.0
 49
1.0
 49
0.0
 49
0.0
 49
0.0
 49
0.0
 49
1.0
175
     0
142
0.0008202099737533
142
0.0
142
0.0
142
0.0
142
0.0
142
0.0008202099737533
142
0.0
142
0.0
142
0.0
142
0.0
142
1.0
142
0.0
142
0.0
142
0.0
142
0.0
142
1.0
179
     0
144
0.0008202099737533
144
0.0
144
0.0
144
0.0
144
0.0
144
0.0008202099737533
144
0.0
144
0.0
144
0.0
144
0.0
144
1.0
144
0.0
144
0.0
144
0.0
144
0.0
144
1.0
147
0.0008202099737533
147
0.0
147
0.0
147
0.0
147
0.0
147
0.0008202099737533
147
0.0
147
0.0
147
0.0
147
0.0
147
1.0
147
0.0
147
0.0
147
0.0
147
0.0
147
1.0
  0
MATERIAL
  5
370
102
{ACAD_XDICTIONARY
360
371
102
}
102
{ACAD_REACTORS
330
1EB
102
}
330
1EB
100
AcDbMaterial
  1
Global
 72
     0
 43
0.0008202099737533
 43
0.0
 43
0.0
 43
0.0
 43
0.0
 43
0.0008202099737533
 43
0.0
 43
0.0
 43
0.0
 43
0.0
 43
1.0
 43
0.0
 43
0.0
 43
0.0
 43
0.0
 43
1.0
 77
     0
 47
0.0008202099737533
 47
0.0
 47
0.0
 47
0.0
 47
0.0
 47
0.0008202099737533
 47
0.0
 47
0.0
 47
0.0
 47
0.0
 47
1.0
 47
0.0
 47
0.0
 47
0.0
 47
0.0
 47
1.0
171
     0
 49
0.0008202099737533
 49
0.0
 49
0.0
 49
0.0
 49
0.0
 49
0.0008202099737533
 49
0.0
 49
0.0
 49
0.0
 49
0.0
 49
1.0
 49
0.0
 49
0.0
 49
0.0
 49
0.0
 49
1.0
175
     0
142
0.0008202099737533
142
0.0
142
0.0
142
0.0
142
0.0
142
0.0008202099737533
142
0.0
142
0.0
142
0.0
142
0.0
142
1.0
142
0.0
142
0.0
142
0.0
142
0.0
142
1.0
179
     0
144
0.0008202099737533
144
0.0
144
0.0
144
0.0
144
0.0
144
0.0008202099737533
144
0.0
144
0.0
144
0.0
144
0.0
144
1.0
144
0.0
144
0.0
144
0.0
144
0.0
144
1.0
147
0.0008202099737533
147
0.0
147
0.0
147
0.0
147
0.0
147
0.0008202099737533
147
0.0
147
0.0
147
0.0
147
0.0
147
1.0
147
0.0
147
0.0
147
0.0
147
0.0
147
1.0
  0
MLEADERSTYLE
  5
394
102
{ACAD_REACTORS
330
393
102
}
330
393
100
AcDbMLeaderStyle
179
     2
170
     2
171
     1
172
     0
 90
        2
 40
0.0
 41
0.0
173
     1
 91
-1056964608
340
14
 92
       -2
290
     1
 42
2.0
291
     1
 43
0.36
  3
Standard
 44
4.0
300

342
11
174
     1
178
     6
175
     1
176
     0
 93
-1056964608
 45
4.0
292
     0
297
     0
 46
4.0
 94
-1056964608
 47
1.0
 49
1.0
140
1.0
293
     1
141
0.0
294
     1
177
     0
142
1.0
295
     1
296
     0
143
0.125
271
     0
272
     9
273
     9
298
     1
  0
MLINESTYLE
  5
18
102
{ACAD_REACTORS
330
17
102
}
330
17
100
AcDbMlineStyle
  2
STANDARD
 70
     0
  3

 62
   256
 51
90.0
 52
90.0
 71
     2
 49
0.5
 62
   256
  6
BYLAYER
 49
-0.5
 62
   256
  6
BYLAYER
  0
ACDBPLACEHOLDER
  5
F
102
{ACAD_REACTORS
330
E
102
}
330
E
  0
SCALE
  5
1C9
102
{ACAD_REACTORS
330
1C8
102
}
330
1C8
100
AcDbScale
 70
     0
300
1:1
140
1.0
141
1.0
290
     1
  0
SCALE
  5
1CA
102
{ACAD_REACTORS
330
1C8
102
}
330
1C8
100
AcDbScale
 70
     0
300
1:2
140
1.0
141
2.0
290
     0
  0
SCALE
  5
1CB
102
{ACAD_REACTORS
330
1C8
102
}
330
1C8
100
AcDbScale
 70
     0
300
1:4
140
1.0
141
4.0
290
     0
  0
SCALE
  5
1CC
102
{ACAD_REACTORS
330
1C8
102
}
330
1C8
100
AcDbScale
 70
     0
300
1:5
140
1.0
141
5.0
290
     0
  0
SCALE
  5
1CD
102
{ACAD_REACTORS
330
1C8
102
}
330
1C8
100
AcDbScale
 70
     0
300
1:8
140
1.0
141
8.0
290
     0
  0
SCALE
  5
1CE
102
{ACAD_REACTORS
330
1C8
102
}
330
1C8
100
AcDbScale
 70
     0
300
1:10
140
1.0
141
10.0
290
     0
  0
SCALE
  5
1CF
102
{ACAD_REACTORS
330
1C8
102
}
330
1C8
100
AcDbScale
 70
     0
300
1:16
140
1.0
141
16.0
290
     0
  0
SCALE
  5
1D0
102
{ACAD_REACTORS
330
1C8
102
}
330
1C8
100
AcDbScale
 70
     0
300
1:20
140
1.0
141
20.0
290
     0
  0
SCALE
  5
1D1
102
{ACAD_REACTORS
330
1C8
102
}
330
1C8
100
AcDbScale
 70
     0
300
1:30
140
1.0
141
30.0
290
     0
  0
SCALE
  5
1D2
102
{ACAD_REACTORS
330
1C8
102
}
330
1C8
100
AcDbScale
 70
     0
300
1:40
140
1.0
141
40.0
290
     0
  0
SCALE
  5
1D3
102
{ACAD_REACTORS
330
1C8
102
}
330
1C8
100
AcDbScale
 70
     0
300
1:50
140
1.0
141
50.0
290
     0
  0
SCALE
  5
1D4
102
{ACAD_REACTORS
330
1C8
102
}
330
1C8
100
AcDbScale
 70
     0
300
1:100
140
1.0
141
100.0
290
     0
  0
SCALE
  5
1D5
102
{ACAD_REACTORS
330
1C8
102
}
330
1C8
100
AcDbScale
 70
     0
300
2:1
140
2.0
141
1.0
290
     0
  0
SCALE
  5
1D6
102
{ACAD_REACTORS
330
1C8
102
}
330
1C8
100
AcDbScale
 70
     0
300
4:1
140
4.0
141
1.0
290
     0
  0
SCALE
  5
1D7
102
{ACAD_REACTORS
330
1C8
102
}
330
1C8
100
AcDbScale
 70
     0
300
8:1
140
8.0
141
1.0
290
     0
  0
SCALE
  5
1D8
102
{ACAD_REACTORS
330
1C8
102
}
330
1C8
100
AcDbScale
 70
     0
300
10:1
140
10.0
141
1.0
290
     0
  0
SCALE
  5
1D9
102
{ACAD_REACTORS
330
1C8
102
}
330
1C8
100
AcDbScale
 70
     0
300
100:1
140
100.0
141
1.0
290
     0
  0
SCALE
  5
1DA
102
{ACAD_REACTORS
330
1C8
102
}
330
1C8
100
AcDbScale
 70
     0
300
1/128" = 1'-0"
140
0.0078125
141
12.0
290
     0
  0
SCALE
  5
1DB
102
{ACAD_REACTORS
330
1C8
102
}
330
1C8
100
AcDbScale
 70
     0
300
1/64" = 1'-0"
140
0.015625
141
12.0
290
     0
  0
SCALE
  5
1DC
102
{ACAD_REACTORS
330
1C8
102
}
330
1C8
100
AcDbScale
 70
     0
300
1/32" = 1'-0"
140
0.03125
141
12.0
290
     0
  0
SCALE
  5
1DD
102
{ACAD_REACTORS
330
1C8
102
}
330
1C8
100
AcDbScale
 70
     0
300
1/16" = 1'-0"
140
0.0625
141
12.0
290
     0
  0
SCALE
  5
1DE
102
{ACAD_REACTORS
330
1C8
102
}
330
1C8
100
AcDbScale
 70
     0
300
3/32" = 1'-0"
140
0.09375
141
12.0
290
     0
  0
SCALE
  5
1DF
102
{ACAD_REACTORS
330
1C8
102
}
330
1C8
100
AcDbScale
 70
     0
300
1/8" = 1'-0"
140
0.125
141
12.0
290
     0
  0
SCALE
  5
1E0
102
{ACAD_REACTORS
330
1C8
102
}
330
1C8
100
AcDbScale
 70
     0
300
3/16" = 1'-0"
140
0.1875
141
12.0
290
     0
  0
SCALE
  5
1E1
102
{ACAD_REACTORS
330
1C8
102
}
330
1C8
100
AcDbScale
 70
     0
300
1/4" = 1'-0"
140
0.25
141
12.0
290
     0
  0
SCALE
  5
1E2
102
{ACAD_REACTORS
330
1C8
102
}
330
1C8
100
AcDbScale
 70
     0
300
3/8" = 1'-0"
140
0.375
141
12.0
290
     0
  0
SCALE
  5
1E3
102
{ACAD_REACTORS
330
1C8
102
}
330
1C8
100
AcDbScale
 70
     0
300
1/2" = 1'-0"
140
0.5
141
12.0
290
     0
  0
SCALE
  5
1E4
102
{ACAD_REACTORS
330
1C8
102
}
330
1C8
100
AcDbScale
 70
     0
300
3/4" = 1'-0"
140
0.75
141
12.0
290
     0
  0
SCALE
  5
1E5
102
{ACAD_REACTORS
330
1C8
102
}
330
1C8
100
AcDbScale
 70
     0
300
1" = 1'-0"
140
1.0
141
12.0
290
     0
  0
SCALE
  5
1E6
102
{ACAD_REACTORS
330
1C8
102
}
330
1C8
100
AcDbScale
 70
     0
300
1-1/2" = 1'-0"
140
1.5
141
12.0
290
     0
  0
SCALE
  5
1E7
102
{ACAD_REACTORS
330
1C8
102
}
330
1C8
100
AcDbScale
 70
     0
300
3" = 1'-0"
140
3.0
141
12.0
290
     0
  0
SCALE
  5
1E8
102
{ACAD_REACTORS
330
1C8
102
}
330
1C8
100
AcDbScale
 70
     0
300
6" = 1'-0"
140
6.0
141
12.0
290
     0
  0
SCALE
  5
1E9
102
{ACAD_REACTORS
330
1C8
102
}
330
1C8
100
AcDbScale
 70
     0
300
1'-0" = 1'-0"
140
12.0
141
12.0
290
     0
  0
ACDBSECTIONVIEWSTYLE
  5
396
102
{ACAD_XDICTIONARY
360
3DE
102
}
102
{ACAD_REACTORS
330
395
102
}
330
395
100
AcDbModelDocViewStyle
 70
     0
  3
Metric50
290
     0
100
AcDbSectionViewStyle
 70
     0
 71
     0
 90
      102
 71
     1
340
11
 62
   256
 40
5.0
340
0
340
0
 62
   256
 40
5.0
300
I, O, Q, S, X, Z
 40
10.0
 90
        0
 40
2.5
 90
        0
 71
     2
340
16
 90
       25
 62
   256
340
16
 90
       50
 62
   256
 40
5.0
 40
2.5
 40
5.0
 71
     3
340
11
 62
   256
 40
5.0
 90
        0
 40
15.0
 90
        1
300
%<\AcVar ViewSectionStartId>%-%<\AcVar ViewSectionEndId>% (%<\AcVar ViewScale \f "%sn">%)
 71
     4
 62
   256
 62
   257
300
ANSI31
 40
1.0
 90
        0
290
     0
290
     0
 90
        6
 40
0.0
 40
1.570796326794896
 40
0.2617993877991494
 40
1.308996938995747
 40
-0.2617993877991494
 40
1.832595714594046
  0
TABLESTYLE
  5
392
102
{ACAD_XDICTIONARY
360
3DC
102
}
102
{ACAD_REACTORS
330
391
102
}
330
391
100
AcDbTableStyle
280
     0
  3
Standard
 70
     0
 71
     0
 40
1.5
 41
1.5
280
     0
281
     0
  7
Standard
140
4.5
170
     2
 62
     0
 63
     7
283
     0
 90
      512
 91
        0
  1

274
    -2
284
     1
 64
     0
275
    -2
285
     1
 65
     0
276
    -2
286
     1
 66
     0
277
    -2
287
     1
 67
     0
278
    -2
288
     1
 68
     0
279
    -2
289
     1
 69
     0
  7
Standard
140
6.0
170
     5
 62
     0
 63
     7
283
     0
 90
      512
 91
        0
  1

274
    -2
284
     1
 64
     0
275
    -2
285
     1
 65
     0
276
    -2
286
     1
 66
     0
277
    -2
287
     1
 67
     0
278
    -2
288
     1
 68
     0
279
    -2
289
     1
 69
     0
  7
Standard
140
4.5
170
     5
 62
     0
 63
     7
283
     0
 90
      512
 91
        0
  1

274
    -2
284
     1
 64
     0
275
    -2
285
     1
 65
     0
276
    -2
286
     1
 66
     0
277
    -2
287
     1
 67
     0
278
    -2
288
     1
 68
     0
279
    -2
289
     1
 69
     0
  0
VISUALSTYLE
  5
37E
102
{ACAD_REACTORS
330
378
102
}
330
378
100
AcDbVisualStyle
  2
2dWireframe
 70
     4
177
     3
291
     0
 70
    58
 90
        0
176
     1
 90
        2
176
     1
 90
        0
176
     1
 90
        0
176
     1
 40
0.6
176
     1
 40
30.0
176
     1
 62
     7
420
 16777215
176
     1
 90
        1
176
     1
 90
        4
176
     1
 62
     7
176
     1
 62
   257
176
     1
 90
        1
176
     1
 90
        1
176
     1
 40
1.0
176
     1
 90
        0
176
     1
 62
   257
176
     1
 40
1.0
176
     1
 90
        1
176
     1
 90
        6
176
     1
 90
        2
176
     1
 62
     7
176
     1
 90
        5
176
     1
 90
        0
176
     1
 90
        0
176
     1
290
     0
176
     1
 90
        1
176
     1
 40
0.0
176
     1
 90
        0
176
     1
290
     1
176
     1
290
     1
176
     1
290
     0
176
     1
290
     0
176
     1
290
     0
176
     1
290
     0
176
     1
290
     0
176
     1
290
     0
176
     1
290
     0
176
     1
 90
       50
176
     1
 40
0.0
176
     1
 40
1.0
176
     1
 90
        0
176
     1
 62
    18
420
        0
176
     1
 90
       50
176
     1
 90
        3
176
     1
 62
     5
420
      255
176
     1
290
     0
176
     1
 90
       50
176
     1
 90
       50
176
     1
 90
       50
176
     1
290
     0
176
     1
 90
       50
176
     1
 62
   256
176
     0
 40
1.0
176
     0
 90
        2
176
     1
  1
strokes_ogs.tif
176
     1
290
     0
176
     1
 40
1.0
176
     1
 40
1.0
176
     1
  0
VISUALSTYLE
  5
37D
102
{ACAD_REACTORS
330
378
102
}
330
378
100
AcDbVisualStyle
  2
Basic
 70
     7
177
     3
291
     1
 70
    58
 90
        1
176
     1
 90
        0
176
     1
 90
        1
176
     1
 90
        0
176
     1
 40
0.6
176
     1
 40
30.0
176
     1
 62
     7
420
 16777215
176
     1
 90
        0
176
     1
 90
        4
176
     1
 62
     7
176
     1
 62
   257
176
     1
 90
        1
176
     1
 90
        1
176
     1
 40
1.0
176
     1
 90
        8
176
     1
 62
     7
176
     1
 40
1.0
176
     1
 90
        1
176
     1
 90
        6
176
     1
 90
        2
176
     1
 62
     7
176
     1
 90
        5
176
     1
 90
        0
176
     1
 90
        0
176
     1
290
     0
176
     1
 90
        1
176
     1
 40
0.0
176
     1
 90
        0
176
     1
290
     0
176
     1
290
     1
176
     1
290
     1
176
     1
290
     0
176
     1
290
     0
176
     1
290
     0
176
     1
290
     0
176
     1
290
     0
176
     1
290
     0
176
     1
 90
       50
176
     1
 40
0.0
176
     1
 40
1.0
176
     1
 90
        0
176
     1
 62
    18
420
        0
176
     1
 90
       50
176
     1
 90
        3
176
     1
 62
     5
420
      255
176
     1
290
     0
176
     1
 90
       50
176
     1
 90
       50
176
     1
 90
       50
176
     1
290
     0
176
     1
 90
       50
176
     1
 62
   256
176
     0
 40
1.0
176
     0
 90
        2
176
     1
  1
strokes_ogs.tif
176
     1
290
     0
176
     1
 40
1.0
176
     1
 40
1.0
176
     1
  0
VISUALSTYLE
  5
384
102
{ACAD_REACTORS
330
378
102
}
330
378
100
AcDbVisualStyle
  2
Brighten
 70
    12
177
     3
291
     1
 70
    58
 90
        2
176
     1
 90
        2
176
     1
 90
        0
176
     1
 90
        0
176
     1
 40
0.6
176
     1
 40
30.0
176
     1
 62
     7
420
 16777215
176
     1
 90
        1
176
     1
 90
        4
176
     1
 62
     7
176
     1
 62
   257
176
     1
 90
        1
176
     1
 90
        1
176
     1
 40
1.0
176
     1
 90
        8
176
     1
 62
     7
176
     1
 40
1.0
176
     1
 90
        1
176
     1
 90
        6
176
     1
 90
        2
176
     1
 62
     7
176
     1
 90
        5
176
     1
 90
        0
176
     1
 90
        0
176
     1
290
     0
176
     1
 90
        1
176
     1
 40
50.0
176
     1
 90
        0
176
     1
290
     0
176
     1
290
     1
176
     1
290
     1
176
     1
290
     0
176
     1
290
     0
176
     1
290
     0
176
     1
290
     0
176
     1
290
     0
176
     1
290
     0
176
     1
 90
       50
176
     1
 40
0.0
176
     1
 40
1.0
176
     1
 90
        0
176
     1
 62
    18
420
        0
176
     1
 90
       50
176
     1
 90
        3
176
     1
 62
     5
420
      255
176
     1
290
     0
176
     1
 90
       50
176
     1
 90
       50
176
     1
 90
       50
176
     1
290
     0
176
     1
 90
       50
176
     1
 62
   256
176
     0
 40
1.0
176
     0
 90
        2
176
     1
  1
strokes_ogs.tif
176
     1
290
     0
176
     1
 40
1.0
176
     1
 40
1.0
176
     1
  0
VISUALSTYLE
  5
388
102
{ACAD_REACTORS
330
378
102
}
330
378
100
AcDbVisualStyle
  2
ColorChange
 70
    16
177
     3
291
     1
 70
    58
 90
        2
176
     1
 90
        2
176
     1
 90
        3
176
     1
 90
        0
176
     1
 40
0.6
176
     1
 40
30.0
176
     1
 62
     8
420
  8421504
176
     1
 90
        1
176
     1
 90
        4
176
     1
 62
     7
176
     1
 62
   257
176
     1
 90
        1
176
     1
 90
        1
176
     1
 40
1.0
176
     1
 90
        8
176
     1
 62
     8
420
  8421504
176
     1
 40
1.0
176
     1
 90
        1
176
     1
 90
        6
176
     1
 90
        2
176
     1
 62
     7
176
     1
 90
        5
176
     1
 90
        0
176
     1
 90
        0
176
     1
290
     0
176
     1
 90
        1
176
     1
 40
0.0
176
     1
 90
        0
176
     1
290
     0
176
     1
290
     1
176
     1
290
     1
176
     1
290
     0
176
     1
290
     0
176
     1
290
     0
176
     1
290
     0
176
     1
290
     0
176
     1
290
     0
176
     1
 90
       50
176
     1
 40
0.0
176
     1
 40
1.0
176
     1
 90
        0
176
     1
 62
    18
420
        0
176
     1
 90
       50
176
     1
 90
        3
176
     1
 62
     5
420
      255
176
     1
290
     0
176
     1
 90
       50
176
     1
 90
       50
176
     1
 90
       50
176
     1
290
     0
176
     1
 90
       50
176
     1
 62
   256
176
     0
 40
1.0
176
     0
 90
        2
176
     1
  1
strokes_ogs.tif
176
     1
290
     0
176
     1
 40
1.0
176
     1
 40
1.0
176
     1
  0
VISUALSTYLE
  5
381
102
{ACAD_REACTORS
330
378
102
}
330
378
100
AcDbVisualStyle
  2
Conceptual
 70
     9
177
     3
291
     0
 70
    58
 90
        3
176
     1
 90
        2
176
     1
 90
        0
176
     1
 90
        0
176
     1
 40
0.6
176
     1
 40
30.0
176
     1
 62
     7
420
 16777215
176
     1
 90
        2
176
     1
 90
        2
176
     1
 62
     7
176
     1
 62
   257
176
     1
 90
        1
176
     1
 90
        1
176
     1
 40
179.0
176
     1
 90
        8
176
     1
 62
     7
176
     1
 40
1.0
176
     1
 90
        1
176
     1
 90
        6
176
     1
 90
        2
176
     1
 62
     7
176
     1
 90
        3
176
     1
 90
        0
176
     1
 90
        0
176
     1
290
     0
176
     1
 90
        1
176
     1
 40
0.0
176
     1
 90
        0
176
     1
290
     0
176
     1
290
     1
176
     1
290
     1
176
     1
290
     0
176
     1
290
     0
176
     1
290
     0
176
     1
290
     0
176
     1
290
     0
176
     1
290
     0
176
     1
 90
       50
176
     1
 40
0.0
176
     1
 40
1.0
176
     1
 90
        0
176
     1
 62
    18
420
        0
176
     1
 90
       50
176
     1
 90
        3
176
     1
 62
     5
420
      255
176
     1
290
     0
176
     1
 90
       50
176
     1
 90
       50
176
     1
 90
       50
176
     1
290
     0
176
     1
 90
       50
176
     1
 62
   256
176
     0
 40
1.0
176
     0
 90
        2
176
     1
  1
strokes_ogs.tif
176
     1
290
     0
176
     1
 40
1.0
176
     1
 40
1.0
176
     1
  0
VISUALSTYLE
  5
383
102
{ACAD_REACTORS
330
378
102
}
330
378
100
AcDbVisualStyle
  2
Dim
 70
    11
177
     3
291
     1
 70
    58
 90
        2
176
     1
 90
        2
176
     1
 90
        0
176
     1
 90
        0
176
     1
 40
0.6
176
     1
 40
30.0
176
     1
 62
     7
420
 16777215
176
     1
 90
        1
176
     1
 90
        4
176
     1
 62
     7
176
     1
 62
   257
176
     1
 90
        1
176
     1
 90
        1
176
     1
 40
1.0
176
     1
 90
        8
176
     1
 62
     7
176
     1
 40
1.0
176
     1
 90
        1
176
     1
 90
        6
176
     1
 90
        2
176
     1
 62
     7
176
     1
 90
        5
176
     1
 90
        0
176
     1
 90
        0
176
     1
290
     0
176
     1
 90
        1
176
     1
 40
-50.0
176
     1
 90
        0
176
     1
290
     0
176
     1
290
     1
176
     1
290
     1
176
     1
290
     0
176
     1
290
     0
176
     1
290
     0
176
     1
290
     0
176
     1
290
     0
176
     1
290
     0
176
     1
 90
       50
176
     1
 40
0.0
176
     1
 40
1.0
176
     1
 90
        0
176
     1
 62
    18
420
        0
176
     1
 90
       50
176
     1
 90
        3
176
     1
 62
     5
420
      255
176
     1
290
     0
176
     1
 90
       50
176
     1
 90
       50
176
     1
 90
       50
176
     1
290
     0
176
     1
 90
       50
176
     1
 62
   256
176
     0
 40
1.0
176
     0
 90
        2
176
     1
  1
strokes_ogs.tif
176
     1
290
     0
176
     1
 40
1.0
176
     1
 40
1.0
176
     1
  0
VISUALSTYLE
  5
390
102
{ACAD_REACTORS
330
378
102
}
330
378
100
AcDbVisualStyle
  2
EdgeColorOff
 70
    22
177
     3
291
     1
 70
    58
 90
        2
176
     0
 90
        2
176
     0
 90
        0
176
     0
 90
        0
176
     0
 40
0.6
176
     0
 40
30.0
176
     0
 62
     7
420
 16777215
176
     0
 90
        1
176
     0
 90
        4
176
     0
 62
     7
176
     0
 62
   257
176
     0
 90
        1
176
     0
 90
        1
176
     0
 40
1.0
176
     0
 90
        8
176
     2
 62
     7
176
     0
 40
1.0
176
     0
 90
        1
176
     0
 90
        6
176
     0
 90
        2
176
     0
 62
     7
176
     0
 90
        5
176
     0
 90
        0
176
     0
 90
        0
176
     0
290
     0
176
     0
 90
        1
176
     0
 40
0.0
176
     0
 90
        0
176
     0
290
     0
176
     0
290
     1
176
     0
290
     1
176
     0
290
     0
176
     0
290
     0
176
     0
290
     0
176
     0
290
     0
176
     0
290
     0
176
     0
290
     0
176
     0
 90
       50
176
     0
 40
0.0
176
     0
 40
1.0
176
     0
 90
        0
176
     0
 62
    18
420
        0
176
     0
 90
       50
176
     0
 90
        3
176
     0
 62
     5
420
      255
176
     0
290
     0
176
     0
 90
       50
176
     0
 90
       50
176
     0
 90
       50
176
     0
290
     0
176
     0
 90
       50
176
     0
 62
   256
176
     0
 40
1.0
176
     0
 90
        2
176
     0
  1
strokes_ogs.tif
176
     0
290
     0
176
     0
 40
1.0
176
     0
 40
1.0
176
     0
  0
VISUALSTYLE
  5
387
102
{ACAD_REACTORS
330
378
102
}
330
378
100
AcDbVisualStyle
  2
Facepattern
 70
    15
177
     3
291
     1
 70
    58
 90
        2
176
     1
 90
        2
176
     1
 90
        0
176
     1
 90
        0
176
     1
 40
0.6
176
     1
 40
30.0
176
     1
 62
     7
420
 16777215
176
     1
 90
        1
176
     1
 90
        4
176
     1
 62
     7
176
     1
 62
   257
176
     1
 90
        1
176
     1
 90
        1
176
     1
 40
1.0
176
     1
 90
        8
176
     1
 62
     7
176
     1
 40
1.0
176
     1
 90
        1
176
     1
 90
        6
176
     1
 90
        2
176
     1
 62
     7
176
     1
 90
        5
176
     1
 90
        0
176
     1
 90
        0
176
     1
290
     0
176
     1
 90
        1
176
     1
 40
0.0
176
     1
 90
        0
176
     1
290
     0
176
     1
290
     1
176
     1
290
     1
176
     1
290
     0
176
     1
290
     0
176
     1
290
     0
176
     1
290
     0
176
     1
290
     0
176
     1
290
     0
176
     1
 90
       50
176
     1
 40
0.0
176
     1
 40
1.0
176
     1
 90
        0
176
     1
 62
    18
420
        0
176
     1
 90
       50
176
     1
 90
        3
176
     1
 62
     5
420
      255
176
     1
290
     0
176
     1
 90
       50
176
     1
 90
       50
176
     1
 90
       50
176
     1
290
     0
176
     1
 90
       50
176
     1
 62
   256
176
     0
 40
1.0
176
     0
 90
        2
176
     1
  1
strokes_ogs.tif
176
     1
290
     0
176
     1
 40
1.0
176
     1
 40
1.0
176
     1
  0
VISUALSTYLE
  5
379
102
{ACAD_REACTORS
330
378
102
}
330
378
100
AcDbVisualStyle
  2
Flat
 70
     0
177
     3
291
     1
 70
    58
 90
        2
176
     1
 90
        1
176
     1
 90
        1
176
     1
 90
        2
176
     1
 40
0.6
176
     1
 40
30.0
176
     1
 62
     7
420
 16777215
176
     1
 90
        0
176
     1
 90
        0
176
     1
 62
     7
176
     1
 62
   257
176
     1
 90
        1
176
     1
 90
        1
176
     1
 40
1.0
176
     1
 90
        8
176
     1
 62
     7
176
     1
 40
1.0
176
     1
 90
        1
176
     1
 90
        6
176
     1
 90
        2
176
     1
 62
     7
176
     1
 90
        5
176
     1
 90
        0
176
     1
 90
        0
176
     1
290
     0
176
     1
 90
       13
176
     1
 40
0.0
176
     1
 90
        0
176
     1
290
     0
176
     1
290
     1
176
     1
290
     1
176
     1
290
     0
176
     1
290
     0
176
     1
290
     0
176
     1
290
     0
176
     1
290
     0
176
     1
290
     0
176
     1
 90
       50
176
     1
 40
0.0
176
     1
 40
1.0
176
     1
 90
        0
176
     1
 62
    18
420
        0
176
     1
 90
       50
176
     1
 90
        3
176
     1
 62
     5
420
      255
176
     1
290
     0
176
     1
 90
       50
176
     1
 90
       50
176
     1
 90
       50
176
     1
290
     0
176
     1
 90
       50
176
     1
 62
   256
176
     0
 40
1.0
176
     0
 90
        2
176
     1
  1
strokes_ogs.tif
176
     1
290
     0
176
     1
 40
1.0
176
     1
 40
1.0
176
     1
  0
VISUALSTYLE
  5
37A
102
{ACAD_REACTORS
330
378
102
}
330
378
100
AcDbVisualStyle
  2
FlatWithEdges
 70
     1
177
     3
291
     1
 70
    58
 90
        2
176
     1
 90
        1
176
     1
 90
        1
176
     1
 90
        2
176
     1
 40
0.6
176
     1
 40
30.0
176
     1
 62
     7
420
 16777215
176
     1
 90
        1
176
     1
 90
        0
176
     1
 62
     7
176
     1
 62
   257
176
     1
 90
        1
176
     1
 90
        1
176
     1
 40
1.0
176
     1
 90
        0
176
     1
 62
   257
176
     1
 40
1.0
176
     1
 90
        1
176
     1
 90
        6
176
     1
 90
        2
176
     1
 62
     7
176
     1
 90
        5
176
     1
 90
        0
176
     1
 90
        0
176
     1
290
     0
176
     1
 90
       13
176
     1
 40
0.0
176
     1
 90
        0
176
     1
290
     0
176
     1
290
     1
176
     1
290
     1
176
     1
290
     0
176
     1
290
     0
176
     1
290
     0
176
     1
290
     0
176
     1
290
     0
176
     1
290
     0
176
     1
 90
       50
176
     1
 40
0.0
176
     1
 40
1.0
176
     1
 90
        0
176
     1
 62
    18
420
        0
176
     1
 90
       50
176
     1
 90
        3
176
     1
 62
     5
420
      255
176
     1
290
     0
176
     1
 90
       50
176
     1
 90
       50
176
     1
 90
       50
176
     1
290
     0
176
     1
 90
       50
176
     1
 62
   256
176
     0
 40
1.0
176
     0
 90
        2
176
     1
  1
strokes_ogs.tif
176
     1
290
     0
176
     1
 40
1.0
176
     1
 40
1.0
176
     1
  0
VISUALSTYLE
  5
37B
102
{ACAD_REACTORS
330
378
102
}
330
378
100
AcDbVisualStyle
  2
Gouraud
 70
     2
177
     3
291
     1
 70
    58
 90
        2
176
     1
 90
        2
176
     1
 90
        1
176
     1
 90
        2
176
     1
 40
0.6
176
     1
 40
30.0
176
     1
 62
     7
420
 16777215
176
     1
 90
        0
176
     1
 90
        0
176
     1
 62
     7
176
     1
 62
   257
176
     1
 90
        1
176
     1
 90
        1
176
     1
 40
1.0
176
     1
 90
        0
176
     1
 62
     7
176
     1
 40
1.0
176
     1
 90
        1
176
     1
 90
        6
176
     1
 90
        2
176
     1
 62
     7
176
     1
 90
        5
176
     1
 90
        0
176
     1
 90
        0
176
     1
290
     0
176
     1
 90
       13
176
     1
 40
0.0
176
     1
 90
        0
176
     1
290
     0
176
     1
290
     1
176
     1
290
     1
176
     1
290
     0
176
     1
290
     0
176
     1
290
     0
176
     1
290
     0
176
     1
290
     0
176
     1
290
     0
176
     1
 90
       50
176
     1
 40
0.0
176
     1
 40
1.0
176
     1
 90
        0
176
     1
 62
    18
420
        0
176
     1
 90
       50
176
     1
 90
        3
176
     1
 62
     5
420
      255
176
     1
290
     0
176
     1
 90
       50
176
     1
 90
       50
176
     1
 90
       50
176
     1
290
     0
176
     1
 90
       50
176
     1
 62
   256
176
     0
 40
1.0
176
     0
 90
        2
176
     1
  1
strokes_ogs.tif
176
     1
290
     0
176
     1
 40
1.0
176
     1
 40
1.0
176
     1
  0
VISUALSTYLE
  5
37C
102
{ACAD_REACTORS
330
378
102
}
330
378
100
AcDbVisualStyle
  2
GouraudWithEdges
 70
     3
177
     3
291
     1
 70
    58
 90
        2
176
     1
 90
        2
176
     1
 90
        1
176
     1
 90
        2
176
     1
 40
0.6
176
     1
 40
30.0
176
     1
 62
     7
420
 16777215
176
     1
 90
        1
176
     1
 90
        0
176
     1
 62
     7
176
     1
 62
   257
176
     1
 90
        1
176
     1
 90
        1
176
     1
 40
1.0
176
     1
 90
        0
176
     1
 62
   257
176
     1
 40
1.0
176
     1
 90
        1
176
     1
 90
        6
176
     1
 90
        2
176
     1
 62
     7
176
     1
 90
        5
176
     1
 90
        0
176
     1
 90
        0
176
     1
290
     0
176
     1
 90
       13
176
     1
 40
0.0
176
     1
 90
        0
176
     1
290
     0
176
     1
290
     1
176
     1
290
     1
176
     1
290
     0
176
     1
290
     0
176
     1
290
     0
176
     1
290
     0
176
     1
290
     0
176
     1
290
     0
176
     1
 90
       50
176
     1
 40
0.0
176
     1
 40
1.0
176
     1
 90
        0
176
     1
 62
    18
420
        0
176
     1
 90
       50
176
     1
 90
        3
176
     1
 62
     5
420
      255
176
     1
290
     0
176
     1
 90
       50
176
     1
 90
       50
176
     1
 90
       50
176
     1
290
     0
176
     1
 90
       50
176
     1
 62
   256
176
     0
 40
1.0
176
     0
 90
        2
176
     1
  1
strokes_ogs.tif
176
     1
290
     0
176
     1
 40
1.0
176
     1
 40
1.0
176
     1
  0
VISUALSTYLE
  5
380
102
{ACAD_REACTORS
330
378
102
}
330
378
100
AcDbVisualStyle
  2
Hidden
 70
     6
177
     3
291
     0
 70
    58
 90
        1
176
     1
 90
        2
176
     1
 90
        2
176
     1
 90
        0
176
     1
 40
0.6
176
     1
 40
30.0
176
     1
 62
     7
420
 16777215
176
     1
 90
        2
176
     1
 90
        2
176
     1
 62
     7
176
     1
 62
   257
176
     1
 90
        2
176
     1
 90
        1
176
     1
 40
40.0
176
     1
 90
        0
176
     1
 62
   257
176
     1
 40
1.0
176
     1
 90
        1
176
     1
 90
        6
176
     1
 90
        2
176
     1
 62
     7
176
     1
 90
        3
176
     1
 90
        0
176
     1
 90
        0
176
     1
290
     0
176
     1
 90
        1
176
     1
 40
0.0
176
     1
 90
        0
176
     1
290
     0
176
     1
290
     1
176
     1
290
     1
176
     1
290
     0
176
     1
290
     0
176
     1
290
     0
176
     1
290
     0
176
     1
290
     0
176
     1
290
     0
176
     1
 90
       50
176
     1
 40
0.0
176
     1
 40
1.0
176
     1
 90
        0
176
     1
 62
    18
420
        0
176
     1
 90
       50
176
     1
 90
        3
176
     1
 62
     5
420
      255
176
     1
290
     0
176
     1
 90
       50
176
     1
 90
       50
176
     1
 90
       50
176
     1
290
     0
176
     1
 90
       50
176
     1
 62
   256
176
     0
 40
1.0
176
     0
 90
        2
176
     1
  1
strokes_ogs.tif
176
     1
290
     0
176
     1
 40
1.0
176
     1
 40
1.0
176
     1
  0
VISUALSTYLE
  5
38E
102
{ACAD_REACTORS
330
378
102
}
330
378
100
AcDbVisualStyle
  2
JitterOff
 70
    20
177
     3
291
     1
 70
    58
 90
        2
176
     0
 90
        2
176
     0
 90
        0
176
     0
 90
        0
176
     0
 40
0.6
176
     0
 40
30.0
176
     0
 62
     7
420
 16777215
176
     0
 90
        1
176
     0
 90
        4
176
     0
 62
     7
176
     0
 62
   257
176
     0
 90
        1
176
     0
 90
        1
176
     0
 40
1.0
176
     0
 90
       10
176
     2
 62
     7
176
     0
 40
1.0
176
     0
 90
        1
176
     0
 90
        6
176
     0
 90
        2
176
     0
 62
     7
176
     0
 90
        5
176
     0
 90
        0
176
     0
 90
        0
176
     0
290
     0
176
     0
 90
        1
176
     0
 40
0.0
176
     0
 90
        0
176
     0
290
     0
176
     0
290
     1
176
     0
290
     1
176
     0
290
     0
176
     0
290
     0
176
     0
290
     0
176
     0
290
     0
176
     0
290
     0
176
     0
290
     0
176
     0
 90
       50
176
     0
 40
0.0
176
     0
 40
1.0
176
     0
 90
        0
176
     0
 62
    18
420
        0
176
     0
 90
       50
176
     0
 90
        3
176
     0
 62
     5
420
      255
176
     0
290
     0
176
     0
 90
       50
176
     0
 90
       50
176
     0
 90
       50
176
     0
290
     0
176
     0
 90
       50
176
     0
 62
   256
176
     0
 40
1.0
176
     0
 90
        2
176
     0
  1
strokes_ogs.tif
176
     0
290
     0
176
     0
 40
1.0
176
     0
 40
1.0
176
     0
  0
VISUALSTYLE
  5
386
102
{ACAD_REACTORS
330
378
102
}
330
378
100
AcDbVisualStyle
  2
Linepattern
 70
    14
177
     3
291
     1
 70
    58
 90
        2
176
     1
 90
        2
176
     1
 90
        0
176
     1
 90
        0
176
     1
 40
0.6
176
     1
 40
30.0
176
     1
 62
     7
420
 16777215
176
     1
 90
        1
176
     1
 90
        4
176
     1
 62
     7
176
     1
 62
   257
176
     1
 90
        7
176
     1
 90
        7
176
     1
 40
1.0
176
     1
 90
        8
176
     1
 62
     7
176
     1
 40
1.0
176
     1
 90
        1
176
     1
 90
        6
176
     1
 90
        2
176
     1
 62
     7
176
     1
 90
        5
176
     1
 90
        0
176
     1
 90
        0
176
     1
290
     0
176
     1
 90
        1
176
     1
 40
0.0
176
     1
 90
        0
176
     1
290
     0
176
     1
290
     1
176
     1
290
     1
176
     1
290
     0
176
     1
290
     0
176
     1
290
     0
176
     1
290
     0
176
     1
290
     0
176
     1
290
     0
176
     1
 90
       50
176
     1
 40
0.0
176
     1
 40
1.0
176
     1
 90
        0
176
     1
 62
    18
420
        0
176
     1
 90
       50
176
     1
 90
        3
176
     1
 62
     5
420
      255
176
     1
290
     0
176
     1
 90
       50
176
     1
 90
       50
176
     1
 90
       50
176
     1
290
     0
176
     1
 90
       50
176
     1
 62
   256
176
     0
 40
1.0
176
     0
 90
        2
176
     1
  1
strokes_ogs.tif
176
     1
290
     0
176
     1
 40
1.0
176
     1
 40
1.0
176
     1
  0
VISUALSTYLE
  5
38F
102
{ACAD_REACTORS
330
378
102
}
330
378
100
AcDbVisualStyle
  2
OverhangOff
 70
    21
177
     3
291
     1
 70
    58
 90
        2
176
     0
 90
        2
176
     0
 90
        0
176
     0
 90
        0
176
     0
 40
0.6
176
     0
 40
30.0
176
     0
 62
     7
420
 16777215
176
     0
 90
        1
176
     0
 90
        4
176
     0
 62
     7
176
     0
 62
   257
176
     0
 90
        1
176
     0
 90
        1
176
     0
 40
1.0
176
     0
 90
        9
176
     2
 62
     7
176
     0
 40
1.0
176
     0
 90
        1
176
     0
 90
        6
176
     0
 90
        2
176
     0
 62
     7
176
     0
 90
        5
176
     0
 90
        0
176
     0
 90
        0
176
     0
290
     0
176
     0
 90
        1
176
     0
 40
0.0
176
     0
 90
        0
176
     0
290
     0
176
     0
290
     1
176
     0
290
     1
176
     0
290
     0
176
     0
290
     0
176
     0
290
     0
176
     0
290
     0
176
     0
290
     0
176
     0
290
     0
176
     0
 90
       50
176
     0
 40
0.0
176
     0
 40
1.0
176
     0
 90
        0
176
     0
 62
    18
420
        0
176
     0
 90
       50
176
     0
 90
        3
176
     0
 62
     5
420
      255
176
     0
290
     0
176
     0
 90
       50
176
     0
 90
       50
176
     0
 90
       50
176
     0
290
     0
176
     0
 90
       50
176
     0
 62
   256
176
     0
 40
1.0
176
     0
 90
        2
176
     0
  1
strokes_ogs.tif
176
     0
290
     0
176
     0
 40
1.0
176
     0
 40
1.0
176
     0
  0
VISUALSTYLE
  5
382
102
{ACAD_REACTORS
330
378
102
}
330
378
100
AcDbVisualStyle
  2
Realistic
 70
     8
177
     3
291
     0
 70
    58
 90
        2
176
     1
 90
        3
176
     1
 90
        0
176
     1
 90
        2
176
     1
 40
0.6
176
     1
 40
30.0
176
     1
 62
     7
420
 16777215
176
     1
 90
        0
176
     1
 90
        0
176
     1
 62
     7
176
     1
 62
   257
176
     1
 90
        1
176
     1
 90
        1
176
     1
 40
1.0
176
     1
 90
        8
176
     1
 62
   257
176
     1
 40
1.0
176
     1
 90
        1
176
     1
 90
        6
176
     1
 90
        2
176
     1
 62
     7
176
     1
 90
        3
176
     1
 90
        0
176
     1
 90
        0
176
     1
290
     0
176
     1
 90
       13
176
     1
 40
0.0
176
     1
 90
        0
176
     1
290
     0
176
     1
290
     1
176
     1
290
     1
176
     1
290
     0
176
     1
290
     0
176
     1
290
     0
176
     1
290
     0
176
     1
290
     0
176
     1
290
     0
176
     1
 90
       50
176
     1
 40
0.0
176
     1
 40
1.0
176
     1
 90
        0
176
     1
 62
    18
420
        0
176
     1
 90
       50
176
     1
 90
        3
176
     1
 62
     5
420
      255
176
     1
290
     0
176
     1
 90
       50
176
     1
 90
       50
176
     1
 90
       50
176
     1
290
     0
176
     1
 90
       50
176
     1
 62
   256
176
     0
 40
1.0
176
     0
 90
        2
176
     1
  1
strokes_ogs.tif
176
     1
290
     0
176
     1
 40
1.0
176
     1
 40
1.0
176
     1
  0
VISUALSTYLE
  5
38D
102
{ACAD_REACTORS
330
378
102
}
330
378
100
AcDbVisualStyle
  2
Shaded
 70
    27
177
     3
291
     0
 70
    58
 90
        2
176
     1
 90
        2
176
     1
 90
        1
176
     1
 90
        2
176
     1
 40
0.6
176
     1
 40
30.0
176
     1
 62
     7
420
 16777215
176
     1
 90
        0
176
     1
 90
        4
176
     1
 62
     7
176
     1
 62
   257
176
     1
 90
        1
176
     1
 90
        1
176
     1
 40
1.0
176
     1
 90
        8
176
     1
 62
   257
176
     1
 40
1.0
176
     1
 90
        1
176
     1
 90
        6
176
     1
 90
        2
176
     1
 62
     8
420
  7895160
176
     1
 90
        3
176
     1
 90
        0
176
     1
 90
        0
176
     1
290
     0
176
     1
 90
        5
176
     1
 40
0.0
176
     1
 90
        0
176
     1
290
     0
176
     1
290
     1
176
     1
290
     1
176
     1
290
     0
176
     1
290
     0
176
     1
290
     0
176
     1
290
     0
176
     1
290
     0
176
     1
290
     0
176
     1
 90
       50
176
     1
 40
0.0
176
     1
 40
1.0
176
     1
 90
        0
176
     1
 62
    18
420
        0
176
     1
 90
       50
176
     1
 90
        3
176
     1
 62
     5
420
      255
176
     1
290
     0
176
     1
 90
       50
176
     1
 90
       50
176
     1
 90
       50
176
     1
290
     0
176
     1
 90
       50
176
     1
 62
   256
176
     0
 40
1.0
176
     0
 90
        2
176
     1
  1
strokes_ogs.tif
176
     1
290
     0
176
     1
 40
1.0
176
     1
 40
1.0
176
     1
  0
VISUALSTYLE
  5
38C
102
{ACAD_REACTORS
330
378
102
}
330
378
100
AcDbVisualStyle
  2
Shaded with edges
 70
    26
177
     3
291
     0
 70
    58
 90
        2
176
     1
 90
        2
176
     1
 90
        1
176
     1
 90
        2
176
     1
 40
0.6
176
     1
 40
30.0
176
     1
 62
     7
420
 16777215
176
     1
 90
        1
176
     1
 90
        2
176
     1
 62
     7
176
     1
 62
   257
176
     1
 90
        2
176
     1
 90
        1
176
     1
 40
1.0
176
     1
 90
        8
176
     1
 62
   257
176
     1
 40
1.0
176
     1
 90
        1
176
     1
 90
        6
176
     1
 90
        2
176
     1
 62
     7
176
     1
 90
        3
176
     1
 90
        0
176
     1
 90
        0
176
     1
290
     0
176
     1
 90
        5
176
     1
 40
0.0
176
     1
 90
        0
176
     1
290
     0
176
     1
290
     1
176
     1
290
     1
176
     1
290
     0
176
     1
290
     0
176
     1
290
     0
176
     1
290
     0
176
     1
290
     0
176
     1
290
     0
176
     1
 90
       50
176
     1
 40
0.0
176
     1
 40
1.0
176
     1
 90
        0
176
     1
 62
    18
420
        0
176
     1
 90
       50
176
     1
 90
        3
176
     1
 62
     5
420
      255
176
     1
290
     0
176
     1
 90
       50
176
     1
 90
       50
176
     1
 90
       50
176
     1
290
     0
176
     1
 90
       50
176
     1
 62
   256
176
     0
 40
1.0
176
     0
 90
        2
176
     1
  1
strokes_ogs.tif
176
     1
290
     0
176
     1
 40
1.0
176
     1
 40
1.0
176
     1
  0
VISUALSTYLE
  5
389
102
{ACAD_REACTORS
330
378
102
}
330
378
100
AcDbVisualStyle
  2
Shades of Gray
 70
    23
177
     3
291
     0
 70
    58
 90
        2
176
     1
 90
        2
176
     1
 90
        3
176
     1
 90
        0
176
     1
 40
0.6
176
     1
 40
30.0
176
     1
 62
     7
420
 16777215
176
     1
 90
        2
176
     1
 90
        2
176
     1
 62
     7
176
     1
 62
     7
176
     1
 90
        1
176
     1
 90
        1
176
     1
 40
40.0
176
     1
 90
        8
176
     1
 62
     7
176
     1
 40
1.0
176
     1
 90
        1
176
     1
 90
        6
176
     1
 90
        2
176
     1
 62
     7
176
     1
 90
        3
176
     1
 90
        0
176
     1
 90
        0
176
     1
290
     0
176
     1
 90
        1
176
     1
 40
0.0
176
     1
 90
        0
176
     1
290
     0
176
     1
290
     1
176
     1
290
     1
176
     1
290
     0
176
     1
290
     0
176
     1
290
     0
176
     1
290
     0
176
     1
290
     0
176
     1
290
     0
176
     1
 90
       50
176
     1
 40
0.0
176
     1
 40
1.0
176
     1
 90
        0
176
     1
 62
    18
420
        0
176
     1
 90
       50
176
     1
 90
        3
176
     1
 62
     5
420
      255
176
     1
290
     0
176
     1
 90
       50
176
     1
 90
       50
176
     1
 90
       50
176
     1
290
     0
176
     1
 90
       50
176
     1
 62
   256
176
     0
 40
1.0
176
     0
 90
        2
176
     1
  1
strokes_ogs.tif
176
     1
290
     0
176
     1
 40
1.0
176
     1
 40
1.0
176
     1
  0
VISUALSTYLE
  5
38A
102
{ACAD_REACTORS
330
378
102
}
330
378
100
AcDbVisualStyle
  2
Sketchy
 70
    24
177
     3
291
     0
 70
    58
 90
        1
176
     1
 90
        2
176
     1
 90
        2
176
     1
 90
        0
176
     1
 40
0.6
176
     1
 40
30.0
176
     1
 62
     7
420
 16777215
176
     1
 90
        2
176
     1
 90
        2
176
     1
 62
     7
176
     1
 62
     7
176
     1
 90
        1
176
     1
 90
        1
176
     1
 40
40.0
176
     1
 90
       11
176
     1
 62
     7
176
     1
 40
1.0
176
     1
 90
        1
176
     1
 90
        6
176
     1
 90
        2
176
     1
 62
     7
176
     1
 90
        6
176
     1
 90
        0
176
     1
 90
        0
176
     1
290
     0
176
     1
 90
        1
176
     1
 40
0.0
176
     1
 90
        0
176
     1
290
     0
176
     1
290
     1
176
     1
290
     1
176
     1
290
     0
176
     1
290
     0
176
     1
290
     0
176
     1
290
     0
176
     1
290
     0
176
     1
290
     0
176
     1
 90
       50
176
     1
 40
0.0
176
     1
 40
1.0
176
     1
 90
        0
176
     1
 62
    18
420
        0
176
     1
 90
       50
176
     1
 90
        3
176
     1
 62
     5
420
      255
176
     1
290
     0
176
     1
 90
       50
176
     1
 90
       50
176
     1
 90
       50
176
     1
290
     0
176
     1
 90
       50
176
     1
 62
   256
176
     0
 40
1.0
176
     0
 90
        2
176
     1
  1
strokes_ogs.tif
176
     1
290
     0
176
     1
 40
1.0
176
     1
 40
1.0
176
     1
  0
VISUALSTYLE
  5
385
102
{ACAD_REACTORS
330
378
102
}
330
378
100
AcDbVisualStyle
  2
Thicken
 70
    13
177
     3
291
     1
 70
    58
 90
        2
176
     1
 90
        2
176
     1
 90
        0
176
     1
 90
        0
176
     1
 40
0.6
176
     1
 40
30.0
176
     1
 62
     7
420
 16777215
176
     1
 90
        1
176
     1
 90
        4
176
     1
 62
     7
176
     1
 62
   257
176
     1
 90
        1
176
     1
 90
        1
176
     1
 40
1.0
176
     1
 90
       12
176
     1
 62
     7
176
     1
 40
1.0
176
     1
 90
        1
176
     1
 90
        6
176
     1
 90
        2
176
     1
 62
     7
176
     1
 90
        5
176
     1
 90
        0
176
     1
 90
        0
176
     1
290
     0
176
     1
 90
        1
176
     1
 40
0.0
176
     1
 90
        0
176
     1
290
     0
176
     1
290
     1
176
     1
290
     1
176
     1
290
     0
176
     1
290
     0
176
     1
290
     0
176
     1
290
     0
176
     1
290
     0
176
     1
290
     0
176
     1
 90
       50
176
     1
 40
0.0
176
     1
 40
1.0
176
     1
 90
        0
176
     1
 62
    18
420
        0
176
     1
 90
       50
176
     1
 90
        3
176
     1
 62
     5
420
      255
176
     1
290
     0
176
     1
 90
       50
176
     1
 90
       50
176
     1
 90
       50
176
     1
290
     0
176
     1
 90
       50
176
     1
 62
   256
176
     0
 40
1.0
176
     0
 90
        2
176
     1
  1
strokes_ogs.tif
176
     1
290
     0
176
     1
 40
1.0
176
     1
 40
1.0
176
     1
  0
VISUALSTYLE
  5
37F
102
{ACAD_REACTORS
330
378
102
}
330
378
100
AcDbVisualStyle
  2
Wireframe
 70
     5
177
     3
291
     0
 70
    58
 90
        0
176
     1
 90
        2
176
     1
 90
        0
176
     1
 90
        0
176
     1
 40
0.6
176
     1
 40
30.0
176
     1
 62
     7
420
 16777215
176
     1
 90
        1
176
     1
 90
        4
176
     1
 62
     7
176
     1
 62
   257
176
     1
 90
        1
176
     1
 90
        1
176
     1
 40
1.0
176
     1
 90
        0
176
     1
 62
   257
176
     1
 40
1.0
176
     1
 90
        1
176
     1
 90
        6
176
     1
 90
        2
176
     1
 62
     7
176
     1
 90
        3
176
     1
 90
        0
176
     1
 90
        0
176
     1
290
     0
176
     1
 90
        1
176
     1
 40
0.0
176
     1
 90
        0
176
     1
290
     0
176
     1
290
     1
176
     1
290
     1
176
     1
290
     0
176
     1
290
     0
176
     1
290
     0
176
     1
290
     0
176
     1
290
     0
176
     1
290
     0
176
     1
 90
       50
176
     1
 40
0.0
176
     1
 40
1.0
176
     1
 90
        0
176
     1
 62
    18
420
        0
176
     1
 90
       50
176
     1
 90
        3
176
     1
 62
     5
420
      255
176
     1
290
     0
176
     1
 90
       50
176
     1
 90
       50
176
     1
 90
       50
176
     1
290
     0
176
     1
 90
       50
176
     1
 62
   256
176
     0
 40
1.0
176
     0
 90
        2
176
     1
  1
strokes_ogs.tif
176
     1
290
     0
176
     1
 40
1.0
176
     1
 40
1.0
176
     1
  0
VISUALSTYLE
  5
38B
102
{ACAD_REACTORS
330
378
102
}
330
378
100
AcDbVisualStyle
  2
X-Ray
 70
    25
177
     3
291
     0
 70
    58
 90
        2
176
     1
 90
        2
176
     1
 90
        1
176
     1
 90
        1
176
     1
 40
0.5
176
     1
 40
30.0
176
     1
 62
     7
420
 16777215
176
     1
 90
        1
176
     1
 90
        0
176
     1
 62
     7
176
     1
 62
   257
176
     1
 90
        1
176
     1
 90
        1
176
     1
 40
1.0
176
     1
 90
        8
176
     1
 62
     7
176
     1
 40
1.0
176
     1
 90
        1
176
     1
 90
        6
176
     1
 90
        2
176
     1
 62
     7
176
     1
 90
        3
176
     1
 90
        0
176
     1
 90
        0
176
     1
290
     0
176
     1
 90
       13
176
     1
 40
0.0
176
     1
 90
        0
176
     1
290
     0
176
     1
290
     1
176
     1
290
     1
176
     1
290
     0
176
     1
290
     0
176
     1
290
     0
176
     1
290
     0
176
     1
290
     0
176
     1
290
     0
176
     1
 90
       50
176
     1
 40
0.0
176
     1
 40
1.0
176
     1
 90
        0
176
     1
 62
    18
420
        0
176
     1
 90
       50
176
     1
 90
        3
176
     1
 62
     5
420
      255
176
     1
290
     0
176
     1
 90
       50
176
     1
 90
       50
176
     1
 90
       50
176
     1
290
     0
176
     1
 90
       50
176
     1
 62
   256
176
     0
 40
1.0
176
     0
 90
        2
176
     1
  1
strokes_ogs.tif
176
     1
290
     0
176
     1
 40
1.0
176
     1
 40
1.0
176
     1
  0
DICTIONARYVAR
  5
3D8
102
{ACAD_REACTORS
330
3D2
102
}
330
3D2
100
DictionaryVariables
280
     0
  1
1:1
  0
DICTIONARYVAR
  5
3D4
102
{ACAD_REACTORS
330
3D2
102
}
330
3D2
100
DictionaryVariables
280
     0
  1
STANDARD
  0
DICTIONARYVAR
  5
3D3
102
{ACAD_REACTORS
330
3D2
102
}
330
3D2
100
DictionaryVariables
280
     0
  1
STANDARD
  0
DICTIONARYVAR
  5
3D5
102
{ACAD_REACTORS
330
3D2
102
}
330
3D2
100
DictionaryVariables
280
     0
  1
Metric50
  0
DICTIONARYVAR
  5
3D6
102
{ACAD_REACTORS
330
3D2
102
}
330
3D2
100
DictionaryVariables
280
     0
  1
Metric50
  0
DICTIONARYVAR
  5
3DA
102
{ACAD_REACTORS
330
3D2
102
}
330
3D2
100
DictionaryVariables
280
     0
  1
1
  0
DICTIONARYVAR
  5
3DB
102
{ACAD_REACTORS
330
3D2
102
}
330
3D2
100
DictionaryVariables
280
     0
  1
15
  0
DICTIONARYVAR
  5
3D9
102
{ACAD_REACTORS
330
3D2
102
}
330
3D2
100
DictionaryVariables
280
     0
  1
0
  0
DICTIONARYVAR
  5
3D7
102
{ACAD_REACTORS
330
3D2
102
}
330
3D2
100
DictionaryVariables
280
     0
  1
0
  0
ACAD_PROXY_OBJECT
  5
24A
102
{ACAD_REACTORS
330
249
102
}
330
249
100
AcDbProxyObject
 90
      499
 91
      548
 95
  4980761
 70
     0
161
                84
310
90100057356C1D714051BC
330
1F
330
281
330
130
330
127
330
121
330
11B
330
115
330
10E
330
108
330
102
330
FC
330
F6
330
F0
330
E9
330
E3
330
DD
330
D6
330
CD
330
C3
330
BD
330
B6
330
AA
330
A2
330
8C
330
2A1
330
2E0
330
308
 94
        0
  0
DICTIONARY
  5
256
102
{ACAD_REACTORS
330
249
102
}
330
249
100
AcDbDictionary
281
     1
  3
ISO
350
257
  0
ACAD_PROXY_OBJECT
  5
1FB
330
0
100
AcDbProxyObject
 90
      499
 91
      511
 95
  4980761
 70
     0
161
               156
310
000101439050D35154D6535093D314D25691508C
330
1F8
 94
        0
  0
ACAD_PROXY_OBJECT
  5
1FD
330
0
100
AcDbProxyObject
 90
      499
 91
      513
 95
  4980761
 70
     0
161
               112
310
00010141F0FDF3EE2C7B4C402B0000
330
1F8
330
0
330
0
 94
        0
  0
ACAD_PROXY_OBJECT
  5
203
330
0
100
AcDbProxyObject
 90
      499
 91
      519
 95
  4980761
 70
     0
161
               374
310
00010141323571B680508382E302E32342E300141323571B680508382E302E32342E3040501000041505391D311658
330
1F8
330
204
330
20A
 94
        0
  0
ACAD_PROXY_OBJECT
  5
204
330
0
100
AcDbProxyObject
 90
      499
 91
      520
 95
  4980761
 70
     0
161
                56
310
0001902422000068
330
1F8
330
205
330
207
 94
        0
  0
ACAD_PROXY_OBJECT
  5
205
330
0
100
AcDbProxyObject
 90
      499
 91
      521
 95
  4980761
 70
     0
161
                48
310
0001AA000000D2
330
1F8
330
1E
330
206
330
0
 94
        0
  0
ACAD_PROXY_OBJECT
  5
206
330
0
100
AcDbProxyObject
 90
      499
 91
      522
 95
  4980761
 70
     0
161
                28
310
0001AAAC
330
1F8
 94
        0
  0
ACAD_PROXY_OBJECT
  5
207
330
0
100
AcDbProxyObject
 90
      499
 91
      521
 95
  4980761
 70
     0
161
                48
310
0001AA000000D3
330
1F8
330
26
330
208
330
0
 94
        0
  0
ACAD_PROXY_OBJECT
  5
208
330
0
100
AcDbProxyObject
 90
      499
 91
      522
 95
  4980761
 70
     0
161
                28
310
0001AAAC
330
1F8
 94
        0
  0
ACAD_PROXY_OBJECT
  5
20B
330
0
100
AcDbProxyObject
 90
      499
 91
      511
 95
  4980761
 70
     0
161
               108
310
000101421053521310D05310D01C
330
1F8
 94
        0
  0
ACAD_PROXY_OBJECT
  5
20C
330
0
100
AcDbProxyObject
 90
      499
 91
      511
 95
  4980761
 70
     0
161
               124
310
00010142905354915554D1511253501C
330
1F8
 94
        0
  0
ACAD_PROXY_OBJECT
  5
20D
330
0
100
AcDbProxyObject
 90
      499
 91
      511
 95
  4980761
 70
     0
161
               132
310
00010143105354D150D51253D39112536C
330
1F8
 94
        0
  0
ACAD_PROXY_OBJECT
  5
20E
330
0
100
AcDbProxyObject
 90
      499
 91
      511
 95
  4980761
 70
     0
161
               124
310
00010142905355941093D4911154901C
330
1F8
 94
        0
  0
ACAD_PROXY_OBJECT
  5
20F
330
0
100
AcDbProxyObject
 90
      499
 91
      511
 95
  4980761
 70
     0
161
               116
310
0001014290535115D1D0D3D313D4AC
330
1F8
 94
        0
  0
ACAD_PROXY_OBJECT
  5
210
330
0
100
AcDbProxyObject
 90
      499
 91
      511
 95
  4980761
 70
     0
161
               148
310
00010143505355925155D49151949154D2101C
330
1F8
 94
        0
  0
ACAD_PROXY_OBJECT
  5
211
330
0
100
AcDbProxyObject
 90
      499
 91
      511
 95
  4980761
 70
     0
161
               172
310
00010144105350539393D51154149154D1549591501C
330
1F8
 94
        0
  0
ACAD_PROXY_OBJECT
  5
213
330
0
100
AcDbProxyObject
 90
      499
 91
      511
 95
  4980761
 70
     0
161
               172
310
00010144105350555513D11253505494905391D1501C
330
1F8
 94
        0
  0
ACAD_PROXY_OBJECT
  5
214
330
0
100
AcDbProxyObject
 90
      499
 91
      511
 95
  4980761
 70
     0
161
               124
310
00010142D0535156151491519112536C
330
1F8
 94
        0
  0
ACAD_PROXY_OBJECT
  5
215
330
0
100
AcDbProxyObject
 90
      499
 91
      511
 95
  4980761
 70
     0
161
               132
310
00010142D05355105410539393D511501C
330
1F8
 94
        0
  0
ACAD_PROXY_OBJECT
  5
216
330
0
100
AcDbProxyObject
 90
      499
 91
      511
 95
  4980761
 70
     0
161
               108
310
00010142105350555513D0D3101C
330
1F8
 94
        0
  0
ACAD_PROXY_OBJECT
  5
217
330
0
100
AcDbProxyObject
 90
      499
 91
      511
 95
  4980761
 70
     0
161
               108
310
00010142105350D311915055105C
330
1F8
 94
        0
  0
ACAD_PROXY_OBJECT
  5
218
330
0
100
AcDbProxyObject
 90
      499
 91
      511
 95
  4980761
 70
     0
161
               108
310
00010142105350D315925155D3FC
330
1F8
 94
        0
  0
ACAD_PROXY_OBJECT
  5
219
330
0
100
AcDbProxyObject
 90
      499
 91
      511
 95
  4980761
 70
     0
161
               148
310
0001014350535212511156915493D11253501C
330
1F8
 94
        0
  0
ACAD_PROXY_OBJECT
  5
21A
330
0
100
AcDbProxyObject
 90
      499
 91
      511
 95
  4980761
 70
     0
161
               124
310
00010142905352105510D21254D3D01C
330
1F8
 94
        0
  0
ACAD_PROXY_OBJECT
  5
21B
330
0
100
AcDbProxyObject
 90
      499
 91
      511
 95
  4980761
 70
     0
161
               148
310
00010143905354D25391D3115210551310566C
330
1F8
 94
        0
  0
ACAD_PROXY_OBJECT
  5
21C
330
0
100
AcDbProxyObject
 90
      499
 91
      511
 95
  4980761
 70
     0
161
               124
310
00010142D0535115D1D193111254D42C
330
1F8
 94
        0
  0
ACAD_PROXY_OBJECT
  5
21D
330
0
100
AcDbProxyObject
 90
      499
 91
      511
 95
  4980761
 70
     0
161
               100
310
00010142105350555513D213AC
330
1F8
 94
        0
  0
ACAD_PROXY_OBJECT
  5
21E
330
0
100
AcDbProxyObject
 90
      499
 91
      511
 95
  4980761
 70
     0
161
               116
310
000101425053521390D3D55395101C
330
1F8
 94
        0
  0
ACAD_PROXY_OBJECT
  5
21F
330
0
100
AcDbProxyObject
 90
      499
 91
      511
 95
  4980761
 70
     0
161
               108
310
0001014210535213941493D2901C
330
1F8
 94
        0
  0
ACAD_PROXY_OBJECT
  5
220
330
0
100
AcDbProxyObject
 90
      499
 91
      511
 95
  4980761
 70
     0
161
               108
310
000101421053521395165411507C
330
1F8
 94
        0
  0
ACAD_PROXY_OBJECT
  5
221
330
0
100
AcDbProxyObject
 90
      499
 91
      511
 95
  4980761
 70
     0
161
               108
310
000101421053521395925155D0FC
330
1F8
 94
        0
  0
ACAD_PROXY_OBJECT
  5
222
330
0
100
AcDbProxyObject
 90
      499
 91
      511
 95
  4980761
 70
     0
161
               140
310
00010143505354D150D51253D390D3D4166C
330
1F8
 94
        0
  0
ACAD_PROXY_OBJECT
  5
223
330
0
100
AcDbProxyObject
 90
      499
 91
      511
 95
  4980761
 70
     0
161
               108
310
00010142105350D3141493D2903C
330
1F8
 94
        0
  0
ACAD_PROXY_OBJECT
  5
224
330
0
100
AcDbProxyObject
 90
      499
 91
      523
 95
  4980761
 70
     0
161
               212
310
00010143905350555513D2105510D21493D500000000000002E40C
330
1F8
 94
        0
  0
ACAD_PROXY_OBJECT
  5
225
330
0
100
AcDbProxyObject
 90
      499
 91
      511
 95
  4980761
 70
     0
161
               156
310
00010143905350555513D2105510D2111155101C
330
1F8
 94
        0
  0
ACAD_PROXY_OBJECT
  5
231
330
0
100
AcDbProxyObject
 90
      499
 91
      533
 95
  4980761
 70
     0
161
               714
310
0001000000009AA6A9AA4051E546875204175672031362030333A34323A3337203230313220285554432901420E0B8C0B8C8D0B8C00518546875204175672031362031313A35363A3032203230313201420E0B8C0B8C8D0B8C0C
330
1F8
330
232
330
233
330
235
330
0
 94
        0
  0
ACAD_PROXY_OBJECT
  5
232
330
0
100
AcDbProxyObject
 90
      499
 91
      534
 95
  4980761
 70
     0
161
                70
310
0001AAA80820000000
330
1F8
330
232
330
232
 94
        0
  0
ACAD_PROXY_OBJECT
  5
233
330
0
100
AcDbProxyObject
 90
      499
 91
      535
 95
  4980761
 70
     0
161
                48
310
0001000000003B
330
1F8
330
0
330
234
330
0
330
0
 94
        0
  0
ACAD_PROXY_OBJECT
  5
234
330
0
100
AcDbProxyObject
 90
      499
 91
      536
 95
  4980761
 70
     0
161
                40
310
000100AAAA00
330
1F8
330
0
 94
        0
  0
ACAD_PROXY_OBJECT
  5
23A
330
0
100
AcDbProxyObject
 90
      499
 91
      540
 95
  4980761
 70
     0
161
               180
310
00010143105050D3D35411119390535140504434F4D50C
330
1F8
 94
        0
  0
ACAD_PROXY_OBJECT
  5
23B
330
0
100
AcDbProxyObject
 90
      499
 91
      540
 95
  4980761
 70
     0
161
               212
310
0001014390505193D311115491119390535140506CEC4BCFEBCD0C
330
1F8
 94
        0
  0
ACAD_PROXY_OBJECT
  5
23C
330
0
100
AcDbProxyObject
 90
      499
 91
      540
 95
  4980761
 70
     0
161
               180
310
00010143105050539393D111939053514050428415629C
330
1F8
 94
        0
  0
ACAD_PROXY_OBJECT
  5
23D
330
0
100
AcDbProxyObject
 90
      499
 91
      540
 95
  4980761
 70
     0
161
               508
310
00010143905050D3D35415925155D31254D50052BB8A9CAD3CDBC0AD6F7CAD3CDBC0AD3D2CAD3CDBC0AD7F3CAD3CDBC0AD1F6CAD3CDBC0AB8A8D6FACAD3CDBCC
330
1F8
 94
        0
  0
ACAD_PROXY_OBJECT
  5
242
330
0
100
AcDbProxyObject
 90
      499
 91
      542
 95
  4980761
 70
     0
161
                32
310
0001000077
330
1F8
340
23F
330
244
330
23F
 94
        0
  0
ACAD_PROXY_OBJECT
  5
243
330
0
100
AcDbProxyObject
 90
      499
 91
      543
 95
  4980761
 70
     0
161
                18
310
00018C
330
1F8
 94
        0
  0
ACAD_PROXY_OBJECT
  5
244
330
0
100
AcDbProxyObject
 90
      499
 91
      544
 95
  4980761
 70
     0
161
               178
310
000101430CCC8C0D4C504B4C0C0B4C0C1050055401550C
330
1F8
330
242
330
243
 94
        0
  0
ACAD_PROXY_OBJECT
  5
245
330
0
100
AcDbProxyObject
 90
      499
 91
      545
 95
  4980761
 70
     0
161
                50
310
000100AAAAAA8C
330
1F8
330
244
 94
        0
  0
ACAD_PROXY_OBJECT
  5
246
330
0
100
AcDbProxyObject
 90
      499
 91
      546
 95
  4980761
 70
     0
161
               108
310
0001901422000000000000AAAAAC
330
1F8
330
247
330
247
330
247
330
247
330
247
330
0
 94
        0
  0
ACAD_PROXY_OBJECT
  5
247
330
0
100
AcDbProxyObject
 90
      499
 91
      547
 95
  4980761
 70
     0
161
                51
310
00010000AAAA8C
330
1F8
330
246
330
244
 94
        0
  0
ACAD_PROXY_OBJECT
  5
255
330
0
100
AcDbProxyObject
 90
      499
 91
      540
 95
  4980761
 70
     0
161
               140
310
00010142105350D55494D5110050349534FC
330
1F8
 94
        0
  0
DICTIONARY
  5
1F2
102
{ACAD_REACTORS
330
1F1
102
}
330
1F1
100
AcDbDictionary
281
     1
  3
DWGSETTINGS
350
1F3
  3
TRANSSETTINGS
350
1F4
  0
ACAD_PROXY_OBJECT
  5
258
102
{ACAD_REACTORS
330
1F1
102
}
330
1F1
100
AcDbProxyObject
 90
      499
 91
      555
 95
  4980761
 70
     0
161
             17944
310
41502491013041105357CC201C00030C0132441013141105357CC603800030C0132441013241105357CCA01400030C0132441013341105357CCE01800030C01199013441105357CD200C00030C01199013541105357CD600C00030C01199013641105357CDA00800030C01239013741105357CDE01000030C0119901384110
310
5357CE200400030C01199013941105357CE63F400030C0241102324141505357CC4C201C00030C0132902344141505357CC4C600C00030C0119902495041505357CC4CA01C00030C013240902304E41505357CC13A01C00030C0132902314E41505357CC53A03800030C0132902324E41505357CC93A01400030C013290233
310
4E41505357CCD3A01800030C0119902344E41505357CD13A00C00030C0119902354E41505357CD53A00C00030C0119902364E41505357CD93A00800030C0123902374E41505357CDD3A01000030C0119902384E41505357CE13A00400030C0119902394E41505357CE53A3F400030C024110332414E41905357CC4C13A01C0
310
0030C013290334414E41905357CC4C53A00C00030C011990349504E41905357CC4C93A01C00030C0132409044B4C494E41505357D0D3200400030C011942504494E464F42105357D410549151A01000030C011942D055241484D3541905357D093D4A01C00030C0132425045649455742105357D5925155D4E00400030C011
310
942D06424548494E4441905357D25395A3F400030C0243505545241494C41505357D514A00C00030C01194250348494441905357D21251201C00030C01194250356495341905357D59254E01C00030C01324250650415244494D42505357D41054911253600C00030C01194250652454644494D42505357D49151911253601
310
000030C0119425534110921395901398000000C0003FFFFFFFE415092139594D06424548494E448000000C0003FFFFFFFE411093D48C9055241484D358010000C300466411093D48CD055241484D358020000C30048E411093D48D5055241484D358000000C0003FFFFFFFE4110D0530C901348000000C0003FFFFFFFE4110
310
D0530CD01348020000C30048E4110D0530D501348070000C3004CA4110D0530DD013481E0000C30051A4110D15393901378000000C0003FFFFFFFE4110D15395D01378000000C0003FFFFFFFE4110D312539044B4C494E8000000C0003FFFFFFFE4110D3D38C501308000000C0003FFFFFFFD034110D3D38C901318000000C
310
0003FFFFFFFD034110D3D38CD01328000000C0003FFFFFFFD034110D3D38D101328000000C0003FFFFFFFD034111115510501348000000C0003FFFFFFFE4111125051D01358000000C0003FFFFFFFE4111125312501358000000C0003FFFFFFFE411112535410650415244494D8000000C0003FFFFFFFE4111125354906524
310
54644494D8000000C0003FFFFFFFE4111915353901388000000C0003FFFFFFFE415191535413901388030000C3003FFFFFFFE4151915354D410234418000000C0003FFFFFFFE4151915354D510234418030000C300466415191535593901328000000C0003FFFFFFFE415191535595101328030000C3004664112105510D01
310
388000000C0003FFFFFFFD014112125113901338000000C0003FFFFFFFD034112125115D01338000000C0003FFFFFFFD034112131253901348000000C0003FFFFFFFD01411213D0D3901378000000C0003FFFFFFFE411213D0D5D01378000000C0003FFFFFFFE4112539193D04494E464F8000000C0003FFFFFFFE41131150
310
51101358000000C0003FFFFFFFE419397D0921395902394E8000000C0003FFFFFFFE419397D0D3D38C502304E8000000C0003FFFFFFFD03419397D0D3D38C902314E8000000C0003FFFFFFFD03419397D0D3D38CD02324E8000000C0003FFFFFFFD03419397D0D3D38D102324E8000000C0003FFFFFFFD03419397D0D15393
310
902374E8000000C0003FFFFFFFE419397D0D15395D02374E8000000C0003FFFFFFFE419397D1125312502354E8000000C0003FFFFFFFE419397D2105510D02384E8000000C0003FFFFFFFD01419397D2125113902334E8000000C0003FFFFFFFD03419397D2125115D02334E8000000C0003FFFFFFFD03419397D311505110
310
2354E8000000C0003FFFFFFFE419397D391D25410349504E8000000C0003FFFFFFFE419397D412105390334414E8000000C0003FFFFFFFE419397D510D3D3902304E8000000C0003FFFFFFFD03419397D5121312502344E8000000C0003FFFFFFFD01419397D5131153902304E8000000C0003FFFFFFFD03419397D5941312
310
50332414E8000000C0003FFFFFFFE411391D25410249508000000C0003FFFFFFFE411410530C9055241484D358010000C300466411410530CD055241484D358020000C30048E411410530D5055241484D358000000C0003FFFFFFFE411412105390234418000000C0003FFFFFFFE411413D4D3901358000000C0003FFFFFFF
310
E411490D1D3901378000000C0003FFFFFFFE411490D1D5D01378000000C0003FFFFFFFE4114D09492D01348000000C0003FFFFFFFD014114D150D5101348000000C0003FFFFFFFD014114D6508CD01358020000C30048E411354D653501358020000C30048E411510D3D3901308000000C0003FFFFFFFD0341151213125013
310
48000000C0003FFFFFFFD01411512550C9055241484D358010000C300466411512550CD055241484D358020000C30048E411512550D5055241484D358000000C0003FFFFFFFE4115131153901308000000C0003FFFFFFFD03415514905253105545241494C8000000C0003FFFFFFFE4115149312501348000000C0003FFFFF
310
FFD01411516150C501368030000C300466411516150C901368030000C300466411516150CD01368000000C0003FFFFFFFE411516150D501368070000C3004CA411516150DD013681E0000C30051A4115925155D04564945578000000C0003FFFFFFFE41159151121034849448000000C0003FFFFFFFD024115915115903564
310
9538000000C0003FFFFFFFD02411594131250232418000000C0003FFFFFFFE4116925690501348000000C0003FFFFFFFD01AAA3F400030C01013F90A4393241D3241919415324111940D194092340519479467F6CC
340
16
340
16
340
16
340
259
340
16
340
16
340
16
340
25A
340
16
340
16
340
25A
340
25B
340
16
340
16
340
16
340
16
340
259
340
16
340
16
340
16
340
25A
340
16
340
16
340
25A
340
25B
340
16
340
25C
340
16
340
16
340
16
340
16
340
16
340
259
340
16
340
16
340
16
340
15
340
15
340
15
340
15
340
15
340
15
340
15
340
15
340
15
340
25D
340
15
340
15
340
15
340
15
340
15
340
15
340
15
340
15
340
15
340
15
340
15
340
15
340
15
340
16
340
15
340
15
340
15
340
15
340
25E
340
15
340
15
340
25D
340
15
340
15
340
15
340
15
340
15
340
15
340
15
340
15
340
25D
340
15
340
15
340
15
340
25E
340
15
340
15
340
15
340
15
340
15
340
15
340
15
340
15
340
15
340
15
340
15
340
15
340
15
340
15
340
25D
340
15
340
15
340
15
340
15
340
15
340
15
340
15
340
15
340
15
340
15
340
15
340
15
340
15
340
15
340
15
340
15
340
15
340
15
340
15
340
15
340
15
340
15
340
261
 94
        0
  0
ACAD_PROXY_OBJECT
  5
28E
102
{ACAD_REACTORS
330
289
102
}
330
289
100
AcDbProxyObject
 90
      499
 91
      573
 95
  4980761
 70
     0
161
               253
310
43D1444494D454E53494F4E2C414D44545F2A5F44494D404A9012A404A9012AC
 94
        0
  0
ACAD_PROXY_OBJECT
  5
28D
102
{ACAD_REACTORS
330
289
102
}
330
289
100
AcDbProxyObject
 90
      499
 91
      573
 95
  4980761
 70
     0
161
               181
310
43D012A42D05357D191504B505357CA9012A404A9012AC
 94
        0
  0
ACAD_PROXY_OBJECT
  5
28A
102
{ACAD_REACTORS
330
289
102
}
330
289
100
AcDbProxyObject
 90
      499
 91
      573
 95
  4980761
 70
     0
161
               133
310
43D054841544348404A9012A404A9012AC
 94
        0
  0
ACAD_PROXY_OBJECT
  5
28B
102
{ACAD_REACTORS
330
289
102
}
330
289
100
AcDbProxyObject
 90
      499
 91
      573
 95
  4980761
 70
     0
161
               549
310
43D044C494E4549CE0B0E138B0A8B4E0B0A8B4E138B105357CE0B105357CE138B0A8B505357CE0B0A8B505357CE139012A404A910494E534552542C535444504152543244C
 94
        0
  0
ACAD_PROXY_OBJECT
  5
28F
102
{ACAD_REACTORS
330
289
102
}
330
289
100
AcDbProxyObject
 90
      499
 91
      573
 95
  4980761
 70
     0
161
               181
310
43D0341524341105357CD5012A404C906494E534552544
 94
        0
  0
ACAD_PROXY_OBJECT
  5
28C
102
{ACAD_REACTORS
330
289
102
}
330
289
100
AcDbProxyObject
 90
      499
 91
      573
 95
  4980761
 70
     0
161
              1053
310
43D7841434D46434652414D452C41434D444154554D5441524745542C41434D444154554D49442C41434D57454C4453594D2C41434D5355524653594D2C41434D4645415449442C41434D504152545245462C41434D42414C4C4F4F4E2C414D44544544474553594D2C414D47534352455743414C435441424C45404A9012A
310
404A9012AC
 94
        0
  0
LAYER_INDEX
  5
34D
102
{ACAD_REACTORS
330
34C
102
}
330
34C
100
AcDbIndex
 40
2458033.446481482
100
AcDbLayerIndex
  8
0
360
34E
 90
      143
  8
FORMAT
360
34F
 90
        0
  8
SLD-0
360
350
 90
        0
  8
AM_5
360
351
 90
        3
  8
AM_PAREF
360
352
 90
        0
  8
双点划线
360
353
 90
        0
  8
虚线
360
354
 90
        0
  8
AM_0
360
355
 90
        0
  8
AM_0N
360
356
 90
        0
  8
AM_3N
360
357
 90
        0
  8
AM_4N
360
358
 90
        0
  8
AM_12N
360
359
 90
        0
  8
AM_7
360
35A
 90
        0
  8
CONFIDENTIAL
360
35B
 90
        0
  8
AM_12
360
35C
 90
        0
  8
Defpoints
360
35D
 90
        0
1001
AcadStringInfo
1000
MIFCodePage
1070
     5
  0
DICTIONARY
  5
3E0
330
398
100
AcDbDictionary
280
     1
281
     1
  3
ACAD_XREC_ROUNDTRIP
360
3E1
  0
DICTIONARY
  5
369
330
368
100
AcDbDictionary
280
     1
281
     1
  3
BUMPTILE
360
36B
  3
DIFFUSETILE
360
36A
  3
OPACITYTILE
360
36E
  3
REFLECTIONTILE
360
36D
  3
REFRACTIONTILE
360
36F
  3
SPECULARTILE
360
36C
  0
DICTIONARY
  5
361
330
360
100
AcDbDictionary
280
     1
281
     1
  3
BUMPTILE
360
363
  3
DIFFUSETILE
360
362
  3
OPACITYTILE
360
366
  3
REFLECTIONTILE
360
365
  3
REFRACTIONTILE
360
367
  3
SPECULARTILE
360
364
  0
DICTIONARY
  5
371
330
370
100
AcDbDictionary
280
     1
281
     1
  3
BUMPTILE
360
373
  3
DIFFUSETILE
360
372
  3
OPACITYTILE
360
376
  3
REFLECTIONTILE
360
375
  3
REFRACTIONTILE
360
377
  3
SPECULARTILE
360
374
  0
DICTIONARY
  5
3DE
330
396
100
AcDbDictionary
280
     1
281
     1
  3
ACAD_XREC_ROUNDTRIP
360
3DF
  0
DICTIONARY
  5
3DC
330
392
100
AcDbDictionary
280
     1
281
     1
  3
ACAD_ROUNDTRIP_2008_TABLESTYLE_CELLSTYLEMAP
360
3DD
  0
ACAD_PROXY_OBJECT
  5
257
102
{ACAD_REACTORS
330
256
102
}
330
256
100
AcDbProxyObject
 90
      499
 91
      554
 95
  4980761
 70
     0
161
              2497
310
5C40000000000000C408030000C30040D254D3D01640600800030C0200800030C000000000000000C40C88A2085A0B6B23A22B233B2A9BA3220480A1C82C6DAA6EAE4CCA8CAF0E8A6E8C88120284A0B1B6A321A329BA3220480A1A82C6DAAECAD8C8D2DCCEA6E8C8812028420B1B6A4B229BA3220480A1682C6DA88C2E8EAD
310
AA6E8C88120284A0B1B6A127A6A9BA3220480A2082DAC8E888CAE8C2D2D8A6F2DAA6E8C88120288A0B6B23A29B2B1BA34B7B729BCB6A9BA3220480A2282DAC8E886CADCE8CAE498D2DCCAA6E8C88120288A0B6B23A2A343932B0B22634B732A9BA3220480A1682DAC8E89CDEE8CAA6E8C88120285A0B1A0B6B3A630BCA9BA3
310
220480A1682C682DACE88D2DAA6E8C88120288A0B1A0B6B3A437B632A1B430B93A29BA3220480A1A82C682DACEA8D2E8D8CAA6E8C88120320480CC
340
262
360
263
360
264
360
265
360
266
360
267
360
268
360
269
360
26A
360
26B
360
26C
360
26D
360
26E
360
279
360
27A
360
286
360
287
340
0
340
0
 94
        0
  0
ACAD_PROXY_OBJECT
  5
1F3
102
{ACAD_REACTORS
330
1F2
102
}
330
1F2
100
AcDbProxyObject
 90
      499
 91
      507
 95
  4980761
 70
     0
161
              2396
310
4050B44574753455454494E4753A1286829C8E82A4A482B282A106660F8686AF86C608321A2A720A723A0A849A1ABE1C983E18999AA0C868A9C889282940000000000000488083A1A2A72224A0A9A0A8418983E19183E199820E868A9C8892A6A894000000000000010808321A2A72622A7250000000000000122020C868A9
310
C9E8C8C940000000000000488084A1A624A720A92920ACA0A8418983E19183E19982108698929C8AA8B2A082A0AB098929C8A84A22BA3AAA9A1A0A622A50A0E9882A6A89E849482A02608426A0A5A2AB24A2ABA7E8120CA0A68682988A0C00800010652455649534941501304154D0D0531150540CC4E8C50954494D455354
310
414D504A0C0EAD3014F30734141D5915494D253D3905414C4D4B8C0C1107B44574753455454494E4753454E447DC
 94
        0
  0
ACAD_PROXY_OBJECT
  5
1F4
102
{ACAD_REACTORS
330
1F2
102
}
330
1F2
100
AcDbProxyObject
 90
      499
 91
      507
 95
  4980761
 70
     0
161
               852
310
4050D5452414E5353455454494E4753A2488A482AE929C8EA8A4829CA69882A8929E9C0C00800050D4F524947494E414C4C595F4F4E0600400008529A7AAA921A2A620A723A0A81A1A429A12AAA0A48AA68AA4AC8A0C0080001107B44574753455454494E4753454E447DC
 94
        0
  0
IDBUFFER
  5
34E
330
0
100
AcDbIdBuffer
330
138
330
139
330
13A
330
13B
330
13C
330
13D
330
13E
330
13F
330
140
330
141
330
142
330
143
330
144
330
145
330
146
330
147
330
148
330
149
330
14A
330
14B
330
14C
330
14D
330
14E
330
14F
330
150
330
151
330
152
330
153
330
154
330
155
330
156
330
157
330
158
330
159
330
15A
330
15B
330
15C
330
15D
330
15E
330
15F
330
160
330
161
330
162
330
163
330
164
330
165
330
166
330
167
330
168
330
169
330
16A
330
16B
330
16C
330
16D
330
16E
330
16F
330
170
330
171
330
172
330
173
330
174
330
175
330
176
330
177
330
178
330
179
330
17A
330
17B
330
17C
330
17D
330
17E
330
17F
330
180
330
181
330
182
330
183
330
184
330
185
330
186
330
187
330
188
330
189
330
18A
330
18B
330
18C
330
18D
330
18E
330
18F
330
190
330
191
330
192
330
193
330
194
330
195
330
196
330
197
330
198
330
199
330
19A
330
19B
330
19C
330
19D
330
19E
330
19F
330
1A0
330
1A1
330
1A2
330
1A3
330
1A4
330
1A5
330
1A6
330
1A7
330
1A8
330
1A9
330
1AA
330
1AB
330
1AC
330
1AD
330
1AE
330
1AF
330
1B0
330
1B1
330
1B2
330
1B3
330
1B4
330
1B5
330
1B6
330
1B7
330
1B8
330
1B9
330
1BA
330
1BB
330
1BC
330
1BD
330
1BE
330
1BF
330
1C0
330
1C1
330
1C2
330
1C3
330
1C4
330
1C5
330
1C6
  0
IDBUFFER
  5
34F
330
0
100
AcDbIdBuffer
  0
IDBUFFER
  5
350
330
0
100
AcDbIdBuffer
  0
IDBUFFER
  5
351
330
0
100
AcDbIdBuffer
330
29F
330
2DF
330
307
  0
IDBUFFER
  5
352
330
0
100
AcDbIdBuffer
  0
IDBUFFER
  5
353
330
0
100
AcDbIdBuffer
  0
IDBUFFER
  5
354
330
0
100
AcDbIdBuffer
  0
IDBUFFER
  5
355
330
0
100
AcDbIdBuffer
  0
IDBUFFER
  5
356
330
0
100
AcDbIdBuffer
  0
IDBUFFER
  5
357
330
0
100
AcDbIdBuffer
  0
IDBUFFER
  5
358
330
0
100
AcDbIdBuffer
  0
IDBUFFER
  5
359
330
0
100
AcDbIdBuffer
  0
IDBUFFER
  5
35A
330
0
100
AcDbIdBuffer
  0
IDBUFFER
  5
35B
330
0
100
AcDbIdBuffer
  0
IDBUFFER
  5
35C
330
0
100
AcDbIdBuffer
  0
IDBUFFER
  5
35D
330
0
100
AcDbIdBuffer
  0
XRECORD
  5
3E1
102
{ACAD_REACTORS
330
3E0
102
}
330
3E0
100
AcDbXrecord
280
     1
102
DISPLAYNAME
  1
Metric50
102
FLAGS
 90
        0
  0
XRECORD
  5
36B
102
{ACAD_REACTORS
330
369
102
}
330
369
100
AcDbXrecord
280
     1
270
     1
271
     1
  0
XRECORD
  5
36A
102
{ACAD_REACTORS
330
369
102
}
330
369
100
AcDbXrecord
280
     1
270
     1
271
     1
  0
XRECORD
  5
36E
102
{ACAD_REACTORS
330
369
102
}
330
369
100
AcDbXrecord
280
     1
270
     1
271
     1
  0
XRECORD
  5
36D
102
{ACAD_REACTORS
330
369
102
}
330
369
100
AcDbXrecord
280
     1
270
     1
271
     1
  0
XRECORD
  5
36F
102
{ACAD_REACTORS
330
369
102
}
330
369
100
AcDbXrecord
280
     1
270
     1
271
     1
  0
XRECORD
  5
36C
102
{ACAD_REACTORS
330
369
102
}
330
369
100
AcDbXrecord
280
     1
270
     1
271
     1
  0
XRECORD
  5
363
102
{ACAD_REACTORS
330
361
102
}
330
361
100
AcDbXrecord
280
     1
270
     1
271
     1
  0
XRECORD
  5
362
102
{ACAD_REACTORS
330
361
102
}
330
361
100
AcDbXrecord
280
     1
270
     1
271
     1
  0
XRECORD
  5
366
102
{ACAD_REACTORS
330
361
102
}
330
361
100
AcDbXrecord
280
     1
270
     1
271
     1
  0
XRECORD
  5
365
102
{ACAD_REACTORS
330
361
102
}
330
361
100
AcDbXrecord
280
     1
270
     1
271
     1
  0
XRECORD
  5
367
102
{ACAD_REACTORS
330
361
102
}
330
361
100
AcDbXrecord
280
     1
270
     1
271
     1
  0
XRECORD
  5
364
102
{ACAD_REACTORS
330
361
102
}
330
361
100
AcDbXrecord
280
     1
270
     1
271
     1
  0
XRECORD
  5
373
102
{ACAD_REACTORS
330
371
102
}
330
371
100
AcDbXrecord
280
     1
270
     1
271
     1
  0
XRECORD
  5
372
102
{ACAD_REACTORS
330
371
102
}
330
371
100
AcDbXrecord
280
     1
270
     1
271
     1
  0
XRECORD
  5
376
102
{ACAD_REACTORS
330
371
102
}
330
371
100
AcDbXrecord
280
     1
270
     1
271
     1
  0
XRECORD
  5
375
102
{ACAD_REACTORS
330
371
102
}
330
371
100
AcDbXrecord
280
     1
270
     1
271
     1
  0
XRECORD
  5
377
102
{ACAD_REACTORS
330
371
102
}
330
371
100
AcDbXrecord
280
     1
270
     1
271
     1
  0
XRECORD
  5
374
102
{ACAD_REACTORS
330
371
102
}
330
371
100
AcDbXrecord
280
     1
270
     1
271
     1
  0
XRECORD
  5
3DF
102
{ACAD_REACTORS
330
3DE
102
}
330
3DE
100
AcDbXrecord
280
     1
102
DISPLAYNAME
  1
Metric50
102
FLAGS
 90
        0
  0
CELLSTYLEMAP
  5
3DD
102
{ACAD_REACTORS
330
3DC
102
}
330
3DC
100
AcDbCellStyleMap
 90
        3
300
CELLSTYLE
  1
TABLEFORMAT_BEGIN
 90
        5
170
     1
 91
        0
 92
    32768
 62
   257
 93
        1
300
CONTENTFORMAT
  1
CONTENTFORMAT_BEGIN
 90
        0
 91
        0
 92
      512
 93
        0
300

 40
0.0
140
1.0
 94
        5
 62
     0
340
11
144
6.0
309
CONTENTFORMAT_END
171
     1
301
MARGIN
  1
CELLMARGIN_BEGIN
 40
1.5
 40
1.5
 40
1.5
 40
1.5
 40
4.5
 40
4.5
309
CELLMARGIN_END
 94
        6
 95
        1
302
GRIDFORMAT
  1
GRIDFORMAT_BEGIN
 90
        0
 91
        1
 62
     0
 92
       -2
340
0
 93
        0
 40
1.125
309
GRIDFORMAT_END
 95
        2
302
GRIDFORMAT
  1
GRIDFORMAT_BEGIN
 90
        0
 91
        1
 62
     0
 92
       -2
340
0
 93
        0
 40
1.125
309
GRIDFORMAT_END
 95
        4
302
GRIDFORMAT
  1
GRIDFORMAT_BEGIN
 90
        0
 91
        1
 62
     0
 92
       -2
340
0
 93
        0
 40
1.125
309
GRIDFORMAT_END
 95
        8
302
GRIDFORMAT
  1
GRIDFORMAT_BEGIN
 90
        0
 91
        1
 62
     0
 92
       -2
340
0
 93
        0
 40
1.125
309
GRIDFORMAT_END
 95
       16
302
GRIDFORMAT
  1
GRIDFORMAT_BEGIN
 90
        0
 91
        1
 62
     0
 92
       -2
340
0
 93
        0
 40
1.125
309
GRIDFORMAT_END
 95
       32
302
GRIDFORMAT
  1
GRIDFORMAT_BEGIN
 90
        0
 91
        1
 62
     0
 92
       -2
340
0
 93
        0
 40
1.125
309
GRIDFORMAT_END
309
TABLEFORMAT_END
  1
CELLSTYLE_BEGIN
 90
        1
 91
        1
300
_TITLE
309
CELLSTYLE_END
300
CELLSTYLE
  1
TABLEFORMAT_BEGIN
 90
        5
170
     1
 91
        0
 92
        0
 62
   257
 93
        1
300
CONTENTFORMAT
  1
CONTENTFORMAT_BEGIN
 90
        0
 91
        0
 92
      512
 93
        0
300

 40
0.0
140
1.0
 94
        5
 62
     0
340
11
144
4.5
309
CONTENTFORMAT_END
171
     1
301
MARGIN
  1
CELLMARGIN_BEGIN
 40
1.5
 40
1.5
 40
1.5
 40
1.5
 40
4.5
 40
4.5
309
CELLMARGIN_END
 94
        6
 95
        1
302
GRIDFORMAT
  1
GRIDFORMAT_BEGIN
 90
        0
 91
        1
 62
     0
 92
       -2
340
0
 93
        0
 40
1.125
309
GRIDFORMAT_END
 95
        2
302
GRIDFORMAT
  1
GRIDFORMAT_BEGIN
 90
        0
 91
        1
 62
     0
 92
       -2
340
0
 93
        0
 40
1.125
309
GRIDFORMAT_END
 95
        4
302
GRIDFORMAT
  1
GRIDFORMAT_BEGIN
 90
        0
 91
        1
 62
     0
 92
       -2
340
0
 93
        0
 40
1.125
309
GRIDFORMAT_END
 95
        8
302
GRIDFORMAT
  1
GRIDFORMAT_BEGIN
 90
        0
 91
        1
 62
     0
 92
       -2
340
0
 93
        0
 40
1.125
309
GRIDFORMAT_END
 95
       16
302
GRIDFORMAT
  1
GRIDFORMAT_BEGIN
 90
        0
 91
        1
 62
     0
 92
       -2
340
0
 93
        0
 40
1.125
309
GRIDFORMAT_END
 95
       32
302
GRIDFORMAT
  1
GRIDFORMAT_BEGIN
 90
        0
 91
        1
 62
     0
 92
       -2
340
0
 93
        0
 40
1.125
309
GRIDFORMAT_END
309
TABLEFORMAT_END
  1
CELLSTYLE_BEGIN
 90
        2
 91
        1
300
_HEADER
309
CELLSTYLE_END
300
CELLSTYLE
  1
TABLEFORMAT_BEGIN
 90
        5
170
     1
 91
        0
 92
        0
 62
   257
 93
        1
300
CONTENTFORMAT
  1
CONTENTFORMAT_BEGIN
 90
        0
 91
        0
 92
      512
 93
        0
300

 40
0.0
140
1.0
 94
        2
 62
     0
340
11
144
4.5
309
CONTENTFORMAT_END
171
     1
301
MARGIN
  1
CELLMARGIN_BEGIN
 40
1.5
 40
1.5
 40
1.5
 40
1.5
 40
4.5
 40
4.5
309
CELLMARGIN_END
 94
        6
 95
        1
302
GRIDFORMAT
  1
GRIDFORMAT_BEGIN
 90
        0
 91
        1
 62
     0
 92
       -2
340
0
 93
        0
 40
1.125
309
GRIDFORMAT_END
 95
        2
302
GRIDFORMAT
  1
GRIDFORMAT_BEGIN
 90
        0
 91
        1
 62
     0
 92
       -2
340
0
 93
        0
 40
1.125
309
GRIDFORMAT_END
 95
        4
302
GRIDFORMAT
  1
GRIDFORMAT_BEGIN
 90
        0
 91
        1
 62
     0
 92
       -2
340
0
 93
        0
 40
1.125
309
GRIDFORMAT_END
 95
        8
302
GRIDFORMAT
  1
GRIDFORMAT_BEGIN
 90
        0
 91
        1
 62
     0
 92
       -2
340
0
 93
        0
 40
1.125
309
GRIDFORMAT_END
 95
       16
302
GRIDFORMAT
  1
GRIDFORMAT_BEGIN
 90
        0
 91
        1
 62
     0
 92
       -2
340
0
 93
        0
 40
1.125
309
GRIDFORMAT_END
 95
       32
302
GRIDFORMAT
  1
GRIDFORMAT_BEGIN
 90
        0
 91
        1
 62
     0
 92
       -2
340
0
 93
        0
 40
1.125
309
GRIDFORMAT_END
309
TABLEFORMAT_END
  1
CELLSTYLE_BEGIN
 90
        3
 91
        2
300
_DATA
309
CELLSTYLE_END
  0
ACAD_PROXY_OBJECT
  5
263
330
257
100
AcDbProxyObject
 90
      499
 91
      556
 95
  4980761
 70
     0
161
                12
310
5C5C
 94
        0
  0
ACAD_PROXY_OBJECT
  5
264
330
257
100
AcDbProxyObject
 90
      499
 91
      557
 95
  4980761
 70
     0
161
                96
310
5C6A0E80A0280A0280A0280F00
 94
        0
  0
ACAD_PROXY_OBJECT
  5
265
330
257
100
AcDbProxyObject
 90
      499
 91
      558
 95
  4980761
 70
     0
161
               272
310
5C50E4050140501405014050140501405014050140D01405012C000000000000004000
340
26F
 94
        0
  0
ACAD_PROXY_OBJECT
  5
266
330
257
100
AcDbProxyObject
 90
      499
 91
      559
 95
  4980761
 70
     0
161
               496
310
5C68666666666667A67E199999999999E99FD22405014050140501405014050140501405014050140501405014050140501405014050140501405014050100
340
270
 94
        0
  0
ACAD_PROXY_OBJECT
  5
267
330
257
100
AcDbProxyObject
 90
      499
 91
      560
 95
  4980761
 70
     0
161
                10
310
5C4C
 94
        0
  0
ACAD_PROXY_OBJECT
  5
268
330
257
100
AcDbProxyObject
 90
      499
 91
      561
 95
  4980761
 70
     0
161
               257
310
5C6290EA22A7D90F49F8000000000000108140000000000000420401000061804C
340
271
340
272
 94
        0
  0
ACAD_PROXY_OBJECT
  5
269
330
257
100
AcDbProxyObject
 90
      499
 91
      562
 95
  4980761
 70
     0
161
             12823
310
5C50E411255115350141343CAEB150140501406901000000000000091013347454E545241434F2C4348532C302CD0F2BAC52C47454E54524154582C25732C2847454E4D53472067656E647767203232322940690120281A8AA2CA0282657EE0DFA028120280A0320200000000000012202668E8A9CA8A482869E588690A658
310
605995FB837E588E8A9CA8A482A8B0584AE658508E8A9C9AA68E40CECADCC8EECE406464665280D202405044E414D4540504C3FBB3C64051C40640A80000000000004E404CD1D15395149050D3CB10D214CB0C0B30FEECF18B11D15395149055160B095CCB0A11D1539354D1C819D95B991DD9C80C8C8D8A50192C3D494628
310
4953424C414E4B28504152543A4E414D45292C424C4F434B3A4E414D452C504152543A4E414D452940480A0A888AA686A480A09976B87EE80A3A80C81D0000000000100A28099A3A2A72A2920A1A79621A42996181665DAE1FB9623A2A72A2920AA2C1612B9961423A2A726A9A39033B2B7323BB39019189B94A0348090142
310
14D5105391105491101412C7AB5EF10147501904A000000000000125013347454E545241434F2C4348532C302CB1EAD7BC2C47454E54524154582C25732C2847454E4D53472067656E64776720323138294069012028426A0AA22A924A0A620282596260E7A028EA0320B40000000000001CA02668E8A9CA8A482869E58869
310
0A65860596589839E588E8A9CA8A482A8B0584AE658508E8A9C9AA68E40CECADCC8EECE406464625280D202405044E4F544540504B1B8D7A24051D40641A80000000000003E404CD1D15395149050D3CB10D214CB0C0B2C6E35E88B11D15395149055160B095CCB0A11D1539354D1C819D95B991DD9C80C8C8D4A501240480
310
A0CAC8A9C889EA480A0D7353A74D939880A3A80C83D00000000000007C809AA3A2A72A2920A1A79621A4299618165CD4E9D364E61623A2A72A2920AA2C1612B9961423A2A726A9A39033B2B7323BB39019191A14A0248090141911154D0D48C90142B078EF3FB0FA32BD880C90147501908A000000000020145013847454E5
310
45241434F2C4348532C302CC1E3BCFEC3E8CAF620322C47454E54524154582C25732C2847454E4D53472067656E6477672033362940490120284A9AA20A72220A922192028358F56BDE10192028EA03213400000000000024A026A8E8A9CA8A482869E588690A658605963D5AF784064588E8A9CA8A482A8B0584AE658508E
310
8A9C9AA68E40CECADCC8EECE4064646052809202405094D4154455249414C3240506B2C4C1CF20324051D40642A8713D0AD7A37045404D11D15395149050D3CB10D214CB0C0B2CB13073C80C8B11D15395149055160B095CCB0A11D1539354D1C819D95B991DD9C80D0C0A501240480A089A82A6A680A09AD95837E80A3A80
310
A0485A068100000000000007C809923A2A72A2920A1A79621A4299618166B6560DF9623A2A72A2920AA2C1612B9961423A2A726A9A39033B2B7323BB3901A1914A024809014154149250D1501412D696F36D01475014090C409020000000000000F9013247454E545241434F2C4348532C302CB5A5BCDB2C47454E54524154
310
582C25732C2847454E4D53472067656E6477672034332940490120281A224A6A028259EFDA73A028EA028121A81A040000000000001F202648E8A9CA8A482869E588690A658605967BF69CE588E8A9CA8A482A8B0584AE658508E8A9C9AA68E40CECADCC8EECE406868528092024050E445020000000000000510201C00030
310
C00010180000000000003E400000000000000F901073D3C4954454D3E4050180000000000003E400000000000000F901073D3C4954454D3E40501800000000000034400000000000000D101073D3C4954454D3E40501800000000000034400000000000000D101073D3C4954454D3E405029010000000000000F9000000000
310
000003E4041CF4F125511534F901418F4F1455164F9014060000000000000F9000000000000003E4041CF4F125511534F901901000000000000000F9000000000000003E40A2200000000000008204018000618048220681A048120280C882148448820348520348452028521485214814000000000000F0BF000000000000
310
3C2FD018020000C3008070000C3003373333333333B0FCCDCCCCCCCCCCEC3F000000000000031012034164050341105901A00000000000006204010000618040100006180400800061802026280A02
340
0
340
0
 94
        0
  0
ACAD_PROXY_OBJECT
  5
26A
330
257
100
AcDbProxyObject
 90
      499
 91
      563
 95
  4980761
 70
     0
161
               898
310
5C44000000000000144048CF4F11115510525317D3105091530F880A0F11115510525317D05094D4D0D053114F8A51141C9A9999999999B93F26A666666666724FC000000000000E03F400000000000000400000000000000510000000000000024408070000C30000000000000005100C
340
16
340
262
 94
        0
  0
ACAD_PROXY_OBJECT
  5
26B
330
257
100
AcDbProxyObject
 90
      499
 91
      564
 95
  4980761
 70
     0
161
               813
310
5C40B00000000000002880959E9E29A2A1AA24A7A72FA620A122A62FA324A929AA1F169E29A2A1AA24A7A72FA620A122A62FA620A9AA1F00000000000004880FF8070000C30022300E000186000000000000001220000000000000028800000000000000A204
340
41
340
262
 94
        0
  0
ACAD_PROXY_OBJECT
  5
26C
330
257
100
AcDbProxyObject
 90
      499
 91
      565
 95
  4980761
 70
     0
161
               151
310
5C680000000000000840A3D0A5723F0BD1F200
 94
        0
  0
ACAD_PROXY_OBJECT
  5
26D
330
257
100
AcDbProxyObject
 90
      499
 91
      566
 95
  4980761
 70
     0
161
                14
310
5C60
340
0
 94
        0
  0
ACAD_PROXY_OBJECT
  5
26E
330
257
100
AcDbProxyObject
 90
      499
 91
      567
 95
  4980761
 70
     0
161
              8013
310
5C5084050BA4050AA4050240506C4A3B0E520314043A013D2525633C486F6C653A63746469613E2078203C486F6C653A637464657074683E20555C503C696628657175616C28486F6C653A7461707065642C223022292C22252563222C486F6C653A6E6F6D696E616C202220782022293E3C696628657175616C28486F6C65
310
3A7461707065642C223022292C486F6C653A6469612C486F6C653A706974636864657363293E3C696628657175616C28486F6C653A7461707065642C223122292C22207820222C2222293E3C696628657175616C28486F6C653A7461707065642C223122292C486F6C653A74617064657074682C2222293E203C6966286571
310
75616C28486F6C653A7465726D696E6174696F6E2C223022292C22202F20222C2222293E3C696628657175616C28486F6C653A7465726D696E6174696F6E2C223022292C486F6C653A64657074682C2222293E4069014050340506C4A3B0E520314043B013D2525633C486F6C653A63746469613E2078203C486F6C653A637
310
4616E676C653E2525645C503C696628657175616C28486F6C653A7461707065642C223022292C22252563222C486F6C653A6E6F6D696E616C202220782022293E3C696628657175616C28486F6C653A7461707065642C223022292C486F6C653A6469612C486F6C653A706974636864657363293E3C696628657175616C284
310
86F6C653A7461707065642C223122292C22207820222C2222293E3C696628657175616C28486F6C653A7461707065642C223122292C486F6C653A74617064657074682C2222293E203C696628657175616C28486F6C653A7465726D696E6174696F6E2C223022292C22202F20222C2222293E3C696628657175616C28486F6
310
C653A7465726D696E6174696F6E2C223022292C486F6C653A64657074682C2222293E4069014050140506C4A3B0E5203140416013D3C696628657175616C28486F6C653A7461707065642C223022292C22252563222C486F6C653A6E6F6D696E616C202220782022293E3C696628657175616C28486F6C653A746170706564
310
2C223022292C486F6C653A6469612C486F6C653A706974636864657363293E3C696628657175616C28486F6C653A7461707065642C223122292C22207820222C2222293E3C696628657175616C28486F6C653A7461707065642C223122292C486F6C653A74617064657074682C2222293E203C696628657175616C28486F6C
310
653A7465726D696E6174696F6E2C223022292C22202F20222C2222293E3C696628657175616C28486F6C653A7465726D696E6174696F6E2C223022292C486F6C653A64657074682C2222293E4069014051E40506C4A3B0E520314050C3D3C535444503A444553433E40690140515AAAB8C
360
277
330
277
360
278
330
278
360
276
330
276
360
275
330
275
 94
        0
  0
ACAD_PROXY_OBJECT
  5
279
330
257
100
AcDbProxyObject
 90
      499
 91
      569
 95
  4980761
 70
     0
161
                26
310
5C502A8C
340
258
 94
        0
  0
ACAD_PROXY_OBJECT
  5
27A
330
257
100
AcDbProxyObject
 90
      499
 91
      570
 95
  4980761
 70
     0
161
               250
310
5C5020000000000000A1000000000000002440408F0F9023C3E409A0DCFFFF8C
340
27B
340
0
340
0
340
27C
340
27D
340
27E
340
27F
340
280
340
285
340
0
 94
        0
  0
ACAD_PROXY_OBJECT
  5
286
330
257
100
AcDbProxyObject
 90
      499
 91
      571
 95
  4980761
 70
     0
161
             13517
310
5C51C009030300030000000000000310200800030C01030300030000000000000310200800030C000508D7F8B1EAC1D0B1ED014DD1D15395149050D3CB10D214CB0C0B35FE2C7AB0742C7B4B11D15395149055160B095CCB0A11D1539354D1C819D95B991A5B5E880CCC0A78000C0000000000000000000000000000000100
310
00000000000310200800030C010000000000000310200800030C0201412FF5EC7B4053347454E545241434F2C4348532C302CBFD7B1ED2C47454E54524154582C25732C2847454E4D53472067656E64696D7A20333129E00030000000000000000000000000000000040000000000000C408020000C30040000000000000C4
310
08020000C30090D44111409034110541D0C4350F4050E44D03449074510F00014131BC2D78C053247454E545241434F2C4348532C302CC6F0B5E32C47454E54524154582C25732C2847454E4D53472067656E64696D7A203129000101040022140002815FEB80A608E8A9CA8A482869E588690A65860597FAE588E8A9CA8A4
310
82A8B0584AE658508E8A9C9AA68E40CECADCC8D2DAF4406452029E9E9E27B934B3B4B71F1E24A31427A91424A9A12620A7259427B934B3B4B7149624A9A12620A7259424BA32B6949496111116111711149F1E24BA32B69F00808200111A000140560052F47454E545241434F2C4348532C302C582C47454E54524154582C2
310
5732C2847454E4D53472067656E64696D7A20332900010100002054000280AC80A5E8E8A9CA8A482869E588690A6586058B2588E8A9CA8A482A8B0584AE658508E8A9C9AA68E40CECADCC8D2DAF4406852000202000040E800050152014BD1D15395149050D3CB10D214CB0C0B148B11D15395149055160B095CCB0A11D153
310
9354D1C819D95B991A5B5E880D8A400040400008250000A30F6B8CCA6F2DAC4DED8F8C460F8D260F8C664F8E06076D4FA02A323A2A72A2920A1A79621A4299618163DAE3329BCB6B137B63E31183E34983E31993E38181DB53E9623A2A72A2920AA2C1612B9961423A2A726A9A39033B2B73234B6BD101B948000808180105
310
A000140A9B54053047454E545241434F2C4348532C302CA6D52C47454E54524154582C25732C2847454E4D53472067656E64696D7A203829000101010020F400028265DAE1FB80A668E8A9CA8A482869E588690A6586059976B87EE588E8A9CA8A482A8B0584AE658508E8A9C9AA68E40CECADCC8D2DAF4406460520002000
310
8004328000504B1EAD7BC014CD1D15395149050D3CB10D214CB0C0B2C7AB5EF0B11D15395149055160B095CCB0A11D1539354D1C819D95B991A5B5E880C8C4A4000400100086D0000A098DE16BC6029923A2A72A2920A1A79621A42996181663785AF19623A2A72A2920AA2C1612B9961423A2A726A9A39033B2B73234B6BD
310
10189480A02620202080043E8000504D0F2BAC5014CD1D15395149050D3CB10D214CB0C0B343CAEB14B11D15395149055160B095CCB0A11D1539354D1C819D95B991A5B5E880C4D0A4000404140280D0000A0997EFA5FA0299A3A2A72A2920A1A79621A42996181665FBE97E9623A2A72A2920AA2C1612B9961423A2A726A9
310
A39033B2B73234B6BD10189A94800080828050EA000141AFF5F2FDF4BF4053547454E545241434F2C4348532C302CBFD7CBF7D2FD2C47454E54524154582C25732C2847454E4D53472067656E64696D7A20313729000101050022740002815FEB80A628E8A9CA8A482869E588690A65860597FAE588E8A9CA8A482A8B0584A
310
E658508E8A9C9AA68E40CECADCC8D2DAF440626C52000202080044A8000504CAFDC1BF014CD1D15395149050D3CB10D214CB0C0B32BF706FCB11D15395149055160B095CCB0A11D1539354D1C819D95B991A5B5E880C4E4A400040418008A521E000000000000001CA040C0000000000003440808000000000000688101000
310
0000000000D102040000000000001A204080000000000003440818000000000000728103000000000000125020600000000004028A040000000000000034408000000000000004881000000000000000D102000000000000001A204000000000000003440818000000000000508143C0000000000000039408180000000000
310
006881030000000000000D102060000000000001A2040C00000000000034408180000000000006881030000000000000E5020600000000000024A040C000000000080514080000000000000068810000000000000009102000000000000001A2040000000000000034408180000000000006881030000000000000A1028422
310
000000087800000202000000838000002040000008180000020800000082800000202890000004
340
0
340
0
340
0
340
0
340
262
340
262
 94
        0
  0
ACAD_PROXY_OBJECT
  5
287
330
257
100
AcDbProxyObject
 90
      499
 91
      572
 95
  4980761
 70
     0
161
              7474
310
5C59740D254D3D0649534F5F4133429254D3D7D5125513115051349534F5F42525F5265766973696F6E6C69737446114413378372028343230783230383020BAC1C3D729421254D3D7D04CDE0DD14413478392028323937783138393220BAC1C3D729421254D3D7D04D1E0E514413478362028323937783132363120BAC1C3
310
D729421254D3D7D04D1E0D9144134783420283239377838343120BAC1C3D72920421254D3D7D04D1E0D1134134783320283239377836333020BAC1C3D729421254D3D7D04D1E0CD14413278342028353934783136383220BAC1C3D729421254D3D7D04C9E0D114413278352028353934783231303220BAC1C3D729421254D3
310
D7D04C9E0D51541307833202831313839783235323320BAC1C3D729421254D3D7D04C1E0CD1341302028383430783131383820BAC1C3D72920419254D3D7D04C114413178342028383430783233373820BAC1C3D729421254D3D7D04C5E0D114413478382028323937783136383220BAC1C3D729421254D3D7D04D1E0E1144
310
13278332028353934783132363120BAC1C3D729421254D3D7D04C9E0CD11413320283239377834323020BAC1C3D729419254D3D7D04CD14413478352028323937783130353120BAC1C3D729421254D3D7D04D1E0D511413220283432307835393420BAC1C3D729419254D3D7D04C914413178332028383430783137383320B
310
AC1C3D729421254D3D7D04C5E0CD1541307832202831313839783136383220BAC1C3D729421254D3D7D04C1E0C911413420283239377832313020BAC1C3D729419254D3D7D04D114413378362028343230783137383320BAC1C3D729421254D3D7D04CDE0D9134133783320283432307838393120BAC1C3D729421254D3D7D
310
04CDE0CD14413478372028323937783134373120BAC1C3D729421254D3D7D04D1E0DD1241312028353934783231303220BAC1C3D729419254D3D7D04C514413378352028343230783134383620BAC1C3D729421254D3D7D04CDE0D514413378342028343230783131383920BAC1C3D729421254D3D7D04CDE0D102431254D3
310
C82C7AB338B02E081050A49534F5F5449544C4541431254D3C82C7AB338B02E081090A49534F5F5449544C45424110AB8FCB8C4C0B85F42525F44D254D3D7D09497D4995D9A5CDA5BDB9B1A5CDD10AB8FCB8C4C0B85F54525F44D254D3D7D51497D4995D9A5CDA5BDB9B1A5CDD10AB8FCB8C4C0B85F424C5F44D254D3D7D09
310
317D4995D9A5CDA5BDB9B1A5CDD10AB8FCB8C4C0B85F544C5F44D254D3D7D51317D4995D9A5CDA5BDB9B1A5CDD0C
 94
        0
  0
ACAD_PROXY_OBJECT
  5
277
330
0
100
AcDbProxyObject
 90
      499
 91
      568
 95
  4980761
 70
     0
161
              2616
310
5C60141B128EC39480C4043A013D2525633C486F6C653A63746469613E2078203C486F6C653A637464657074683E20555C503C696628657175616C28486F6C653A7461707065642C223022292C22252563222C486F6C653A6E6F6D696E616C202220782022293E3C696628657175616C28486F6C653A7461707065642C2230
310
22292C486F6C653A6469612C486F6C653A706974636864657363293E3C696628657175616C28486F6C653A7461707065642C223122292C22207820222C2222293E3C696628657175616C28486F6C653A7461707065642C223122292C486F6C653A74617064657074682C2222293E203C696628657175616C28486F6C653A74
310
65726D696E6174696F6E2C223022292C22202F20222C2222293E3C696628657175616C28486F6C653A7465726D696E6174696F6E2C223022292C486F6C653A64657074682C2222293E00
 94
        0
  0
ACAD_PROXY_OBJECT
  5
278
330
0
100
AcDbProxyObject
 90
      499
 91
      568
 95
  4980761
 70
     0
161
              2624
310
5C60141B128EC39480C4043B013D2525633C486F6C653A63746469613E2078203C486F6C653A6374616E676C653E2525645C503C696628657175616C28486F6C653A7461707065642C223022292C22252563222C486F6C653A6E6F6D696E616C202220782022293E3C696628657175616C28486F6C653A7461707065642C22
310
3022292C486F6C653A6469612C486F6C653A706974636864657363293E3C696628657175616C28486F6C653A7461707065642C223122292C22207820222C2222293E3C696628657175616C28486F6C653A7461707065642C223122292C486F6C653A74617064657074682C2222293E203C696628657175616C28486F6C653A
310
7465726D696E6174696F6E2C223022292C22202F20222C2222293E3C696628657175616C28486F6C653A7465726D696E6174696F6E2C223022292C486F6C653A64657074682C2222293E00
 94
        0
  0
ACAD_PROXY_OBJECT
  5
276
330
0
100
AcDbProxyObject
 90
      499
 91
      568
 95
  4980761
 70
     0
161
              2328
310
5C60141B128EC39480C40416013D3C696628657175616C28486F6C653A7461707065642C223022292C22252563222C486F6C653A6E6F6D696E616C202220782022293E3C696628657175616C28486F6C653A7461707065642C223022292C486F6C653A6469612C486F6C653A706974636864657363293E3C69662865717561
310
6C28486F6C653A7461707065642C223122292C22207820222C2222293E3C696628657175616C28486F6C653A7461707065642C223122292C486F6C653A74617064657074682C2222293E203C696628657175616C28486F6C653A7465726D696E6174696F6E2C223022292C22202F20222C2222293E3C696628657175616C28
310
486F6C653A7465726D696E6174696F6E2C223022292C486F6C653A64657074682C2222293E00
 94
        0
  0
ACAD_PROXY_OBJECT
  5
275
330
0
100
AcDbProxyObject
 90
      499
 91
      568
 95
  4980761
 70
     0
161
               192
310
5C60141B128EC39480C4050C3D3C535444503A444553433E00
 94
        0
  0
ENDSEC
  0
EOF
