  0
SECTION
  2
HEADER
  9
$ACADVER
  1
AC1014
  9
$ACADMAINTVER
 70
     9
  9
$DWGCODEPAGE
  3
ANSI_1252
  9
$INSBASE
 10
0.0
 20
0.0
 30
0.0
  9
$EXTMIN
 10
0.0
 20
0.0
 30
0.0
  9
$EXTMAX
 10
297.0
 20
210.0
 30
0.0
  9
$LIMMIN
 10
0.0
 20
0.0
  9
$LIMMAX
 10
297.0
 20
210.0
  9
$ORTHOMODE
 70
     0
  9
$REGENMODE
 70
     1
  9
$FILLMODE
 70
     1
  9
$QTEXTMODE
 70
     0
  9
$MIRRTEXT
 70
     1
  9
$DRAGMODE
 70
     2
  9
$LTSCALE
 40
1.0
  9
$OSMODE
 70
    37
  9
$ATTMODE
 70
     1
  9
$TEXTSIZE
 40
3.5
  9
$TRACEWID
 40
1.0
  9
$TEXTSTYLE
  7
STANDARD
  9
$CLAYER
  8
0
  9
$CELTYPE
  6
BYLAYER
  9
$CECOLOR
 62
   256
  9
$CELTSCALE
 40
1.0
  9
$DELOBJ
 70
     1
  9
$DISPSILH
 70
     0
  9
$DIMSCALE
 40
1.0
  9
$DIMASZ
 40
8.0
  9
$DIMEXO
 40
1.0
  9
$DIMDLI
 40
3.75
  9
$DIMRND
 40
0.0
  9
$DIMDLE
 40
0.0
  9
$DIMEXE
 40
1.0
  9
$DIMTP
 40
0.0
  9
$DIMTM
 40
0.0
  9
$DIMTXT
 40
9.8777777778
  9
$DIMCEN
 40
2.5
  9
$DIMTSZ
 40
0.0
  9
$DIMTOL
 70
     0
  9
$DIMLIM
 70
     0
  9
$DIMTIH
 70
     1
  9
$DIMTOH
 70
     1
  9
$DIMSE1
 70
     0
  9
$DIMSE2
 70
     0
  9
$DIMTAD
 70
     1
  9
$DIMZIN
 70
     1
  9
$DIMBLK
  1

  9
$DIMASO
 70
     1
  9
$DIMSHO
 70
     1
  9
$DIMPOST
  1

  9
$DIMAPOST
  1

  9
$DIMALT
 70
     0
  9
$DIMALTD
 70
     3
  9
$DIMALTF
 40
0.0393700787
  9
$DIMLFAC
 40
5.0
  9
$DIMTOFL
 70
     1
  9
$DIMTVP
 40
0.0
  9
$DIMTIX
 70
     0
  9
$DIMSOXD
 70
     0
  9
$DIMSAH
 70
     0
  9
$DIMBLK1
  1

  9
$DIMBLK2
  1

  9
$DIMSTYLE
  2
ISO-25
  9
$DIMCLRD
 70
     0
  9
$DIMCLRE
 70
     0
  9
$DIMCLRT
 70
     0
  9
$DIMTFAC
 40
1.0
  9
$DIMGAP
 40
1.524
  9
$DIMJUST
 70
     0
  9
$DIMSD1
 70
     0
  9
$DIMSD2
 70
     0
  9
$DIMTOLJ
 70
     0
  9
$DIMTZIN
 70
     1
  9
$DIMALTZ
 70
     0
  9
$DIMALTTZ
 70
     0
  9
$DIMFIT
 70
     3
  9
$DIMUPT
 70
     0
  9
$DIMUNIT
 70
     2
  9
$DIMDEC
 70
     0
  9
$DIMTDEC
 70
     0
  9
$DIMALTU
 70
     2
  9
$DIMALTTD
 70
     3
  9
$DIMTXSTY
  7
STANDARD
  9
$DIMAUNIT
 70
     0
  9
$LUNITS
 70
     2
  9
$LUPREC
 70
     2
  9
$SKETCHINC
 40
1.0
  9
$FILLETRAD
 40
10.0
  9
$AUNITS
 70
     0
  9
$AUPREC
 70
     2
  9
$MENU
  1
.
  9
$ELEVATION
 40
0.0
  9
$PELEVATION
 40
0.0
  9
$THICKNESS
 40
0.0
  9
$LIMCHECK
 70
     0
  9
$CHAMFERA
 40
0.0
  9
$CHAMFERB
 40
0.0
  9
$CHAMFERC
 40
0.0
  9
$CHAMFERD
 40
0.0
  9
$SKPOLY
 70
     0
  9
$TDCREATE
 40
2457721.473062454
  9
$TDUPDATE
 40
2457721.473062685
  9
$TDINDWG
 40
0.0000000116
  9
$TDUSRTIMER
 40
0.0000000116
  9
$USRTIMER
 70
     1
  9
$ANGBASE
 50
0.0
  9
$ANGDIR
 70
     0
  9
$PDMODE
 70
     0
  9
$PDSIZE
 40
-1.0
  9
$PLINEWID
 40
0.0
  9
$COORDS
 70
     1
  9
$SPLFRAME
 70
     0
  9
$SPLINETYPE
 70
     6
  9
$SPLINESEGS
 70
     8
  9
$ATTDIA
 70
     0
  9
$ATTREQ
 70
     1
  9
$HANDLING
 70
     1
  9
$HANDSEED
  5
12D
  9
$SURFTAB1
 70
     6
  9
$SURFTAB2
 70
     6
  9
$SURFTYPE
 70
     6
  9
$SURFU
 70
     6
  9
$SURFV
 70
     6
  9
$UCSNAME
  2

  9
$UCSORG
 10
0.0
 20
0.0
 30
0.0
  9
$UCSXDIR
 10
1.0
 20
0.0
 30
0.0
  9
$UCSYDIR
 10
0.0
 20
1.0
 30
0.0
  9
$PUCSNAME
  2

  9
$PUCSORG
 10
0.0
 20
0.0
 30
0.0
  9
$PUCSXDIR
 10
1.0
 20
0.0
 30
0.0
  9
$PUCSYDIR
 10
0.0
 20
1.0
 30
0.0
  9
$USERI1
 70
     0
  9
$USERI2
 70
     0
  9
$USERI3
 70
     0
  9
$USERI4
 70
     0
  9
$USERI5
 70
     0
  9
$USERR1
 40
0.0
  9
$USERR2
 40
0.0
  9
$USERR3
 40
0.0
  9
$USERR4
 40
0.0
  9
$USERR5
 40
0.0
  9
$WORLDVIEW
 70
     1
  9
$SHADEDGE
 70
     3
  9
$SHADEDIF
 70
    70
  9
$TILEMODE
 70
     1
  9
$MAXACTVP
 70
    64
  9
$PINSBASE
 10
0.0
 20
0.0
 30
0.0
  9
$PLIMCHECK
 70
     0
  9
$PEXTMIN
 10
1.0000000000E+20
 20
1.0000000000E+20
 30
1.0000000000E+20
  9
$PEXTMAX
 10
-1.0000000000E+20
 20
-1.0000000000E+20
 30
-1.0000000000E+20
  9
$PLIMMIN
 10
0.0
 20
0.0
  9
$PLIMMAX
 10
420.0
 20
297.0
  9
$UNITMODE
 70
     0
  9
$VISRETAIN
 70
     1
  9
$PLINEGEN
 70
     0
  9
$PSLTSCALE
 70
     1
  9
$TREEDEPTH
 70
  3020
  9
$PICKSTYLE
 70
     1
  9
$CMLSTYLE
  2
STANDARD
  9
$CMLJUST
 70
     0
  9
$CMLSCALE
 40
20.0
  9
$PROXYGRAPHICS
 70
     1
  9
$MEASUREMENT
 70
     1
  0
ENDSEC
  0
SECTION
  2
CLASSES
  0
CLASS
  1
ACDBDICTIONARYWDFLT
  2
AcDbDictionaryWithDefault
  3
ObjectDBX Classes
 90
        0
280
     0
281
     0
  0
CLASS
  1
VISUALSTYLE
  2
AcDbVisualStyle
  3
ObjectDBX Classes
 90
     4095
280
     0
281
     0
  0
CLASS
  1
MATERIAL
  2
AcDbMaterial
  3
ObjectDBX Classes
 90
     1153
280
     0
281
     0
  0
CLASS
  1
SCALE
  2
AcDbScale
  3
ObjectDBX Classes
 90
     1153
280
     0
281
     0
  0
CLASS
  1
TABLESTYLE
  2
AcDbTableStyle
  3
ObjectDBX Classes
 90
     4095
280
     0
281
     0
  0
CLASS
  1
MLEADERSTYLE
  2
AcDbMLeaderStyle
  3
ACDB_MLEADERSTYLE_CLASS
 90
     4095
280
     0
281
     0
  0
CLASS
  1
SUN
  2
AcDbSun
  3
SCENEOE
 90
     1153
280
     0
281
     0
  0
CLASS
  1
XRECORD
  2
AcDbXrecord
  3
ObjectDBX Classes
 90
        0
280
     0
281
     0
  0
CLASS
  1
LWPOLYLINE
  2
AcDbPolyline
  3
ObjectDBX Classes
 90
        0
280
     0
281
     1
  0
CLASS
  1
HATCH
  2
AcDbHatch
  3
ObjectDBX Classes
 90
        0
280
     0
281
     1
  0
ENDSEC
  0
SECTION
  2
TABLES
  0
TABLE
  2
VPORT
  5
8
330
0
100
AcDbSymbolTable
 70
     1
  0
VPORT
  5
29
330
8
100
AcDbSymbolTableRecord
100
AcDbViewportTableRecord
  2
*ACTIVE
 70
     0
 10
0.0
 20
0.0
 11
1.0
 21
1.0
 12
148.5
 22
105.0
 13
0.0
 23
0.0
 14
10.0
 24
10.0
 15
10.0
 25
10.0
 16
0.0
 26
0.0
 36
1.0
 17
0.0
 27
0.0
 37
0.0
 40
210.0
 41
1.4142857143
 42
50.0
 43
0.0
 44
0.0
 50
0.0
 51
0.0
 71
     0
 72
  2000
 73
     1
 74
     3
 75
     0
 76
     0
 77
     0
 78
     0
  0
ENDTAB
  0
TABLE
  2
LTYPE
  5
5
330
0
100
AcDbSymbolTable
 70
     6
  0
LTYPE
  5
14
330
5
100
AcDbSymbolTableRecord
100
AcDbLinetypeTableRecord
  2
BYBLOCK
 70
     0
  3

 72
    65
 73
     0
 40
0.0
  0
LTYPE
  5
15
330
5
100
AcDbSymbolTableRecord
100
AcDbLinetypeTableRecord
  2
BYLAYER
 70
     0
  3

 72
    65
 73
     0
 40
0.0
  0
LTYPE
  5
16
330
5
100
AcDbSymbolTableRecord
100
AcDbLinetypeTableRecord
  2
CONTINUOUS
 70
     0
  3
Solid line
 72
    65
 73
     0
 40
0.0
  0
LTYPE
  5
6E
330
5
100
AcDbSymbolTableRecord
100
AcDbLinetypeTableRecord
  2
HIDDEN
 70
     0
  3
Hidden __ __ __ __ __ __ __ __ __ __ __ __ __ __
 72
    65
 73
     2
 40
1.905
 49
1.27
 74
     0
 49
-0.635
 74
     0
  0
LTYPE
  5
6F
330
5
100
AcDbSymbolTableRecord
100
AcDbLinetypeTableRecord
  2
PHANTOM
 70
     0
  3
Phantom ______  __  __  ______  __  __  ______
 72
    65
 73
     6
 40
12.7
 49
6.35
 74
     0
 49
-1.27
 74
     0
 49
1.27
 74
     0
 49
-1.27
 74
     0
 49
1.27
 74
     0
 49
-1.27
 74
     0
  0
LTYPE
  5
70
330
5
100
AcDbSymbolTableRecord
100
AcDbLinetypeTableRecord
  2
CENTER
 70
     0
  3
Center ____ _ ____ _ ____ _ ____ _ ____ _ ____
 72
    65
 73
     4
 40
10.16
 49
6.35
 74
     0
 49
-1.27
 74
     0
 49
1.27
 74
     0
 49
-1.27
 74
     0
  0
LTYPE
  5
71
330
5
100
AcDbSymbolTableRecord
100
AcDbLinetypeTableRecord
  2
CENTERX2
 70
     0
  3
Center (2x) ________  __  ________  __  _____
 72
    65
 73
     4
 40
20.32
 49
12.7
 74
     0
 49
-2.54
 74
     0
 49
2.54
 74
     0
 49
-2.54
 74
     0
  0
LTYPE
  5
72
330
5
100
AcDbSymbolTableRecord
100
AcDbLinetypeTableRecord
  2
DOT2
 70
     0
  3
Dot (.5x) ........................................
 72
    65
 73
     2
 40
0.635
 49
0.0
 74
     0
 49
-0.635
 74
     0
  0
ENDTAB
  0
TABLE
  2
LAYER
  5
2
330
0
100
AcDbSymbolTable
 70
     2
  0
LAYER
  5
10
330
2
100
AcDbSymbolTableRecord
100
AcDbLayerTableRecord
  2
0
 70
     0
 62
     7
  6
CONTINUOUS
  0
LAYER
  5
73
330
2
100
AcDbSymbolTableRecord
100
AcDbLayerTableRecord
  2
SLD-DEFPOINTS
 70
     0
 62
     7
  6
CONTINUOUS
  0
ENDTAB
  0
TABLE
  2
STYLE
  5
3
330
0
100
AcDbSymbolTable
 70
     2
  0
STYLE
  5
11
330
3
100
AcDbSymbolTableRecord
100
AcDbTextStyleTableRecord
  2
STANDARD
 70
     0
 40
0.0
 41
1.0
 50
0.0
 71
     0
 42
3.5
  3
txt
  4

  0
STYLE
  5
80
330
3
100
AcDbSymbolTableRecord
100
AcDbTextStyleTableRecord
  2
SLDTEXTSTYLE0
 70
     0
 40
0.0
 41
0.75
 50
0.0
 71
     0
 42
3.5
  3
TXT
  4

  0
ENDTAB
  0
TABLE
  2
VIEW
  5
6
330
0
100
AcDbSymbolTable
 70
     0
  0
ENDTAB
  0
TABLE
  2
UCS
  5
7
330
0
100
AcDbSymbolTable
 70
     0
  0
ENDTAB
  0
TABLE
  2
APPID
  5
9
330
0
100
AcDbSymbolTable
 70
     1
  0
APPID
  5
12
330
9
100
AcDbSymbolTableRecord
100
AcDbRegAppTableRecord
  2
ACAD
 70
     0
  0
ENDTAB
  0
TABLE
  2
DIMSTYLE
  5
A
330
0
100
AcDbSymbolTable
 70
     3
  0
DIMSTYLE
105
27
330
A
100
AcDbSymbolTableRecord
100
AcDbDimStyleTableRecord
  2
ISO-25
 70
     0
  3

  4

  5

  6

  7

 40
1.0
 41
2.5
 42
0.625
 43
3.75
 44
1.25
 45
0.0
 46
0.0
 47
0.0
 48
0.0
140
2.5
141
2.5
142
0.0
143
0.0393700787
144
1.0
145
0.0
146
1.0
147
0.625
 71
     0
 72
     0
 73
     0
 74
     0
 75
     0
 76
     0
 77
     1
 78
     8
170
     0
171
     3
172
     1
173
     0
174
     0
175
     0
176
     0
177
     0
178
     0
270
     2
271
     2
272
     2
273
     2
274
     3
340
11
275
     0
280
     0
281
     0
282
     0
283
     0
284
     8
285
     0
286
     0
287
     3
288
     0
  0
DIMSTYLE
105
81
102
{ACAD_REACTORS
330
7F
330
C8
330
F9
330
111
330
11B
102
}
330
A
100
AcDbSymbolTableRecord
100
AcDbDimStyleTableRecord
  2
SLDDIMSTYLE0
 70
     0
  3

  4

  5

  6

  7

 40
1.0
 41
8.0
 42
0.0625
 43
0.38
 44
0.0
 45
0.000000001
 46
0.0
 47
0.0
 48
0.0
140
7.4083333333
141
0.09
142
0.0
143
25.4
144
1.0
145
0.0
146
1.0
147
1.8520833333
 71
     0
 72
     0
 73
     1
 74
     1
 75
     0
 76
     0
 77
     0
 78
    12
170
     0
171
     2
172
     0
173
     1
174
     0
175
     0
176
     0
177
     0
178
     0
270
     2
271
     0
272
     0
273
     2
274
     2
340
80
275
     0
280
     0
281
     0
282
     0
283
     1
284
    12
285
     0
286
     0
287
     3
288
     0
  0
DIMSTYLE
105
ED
102
{ACAD_REACTORS
330
EC
330
105
102
}
330
A
100
AcDbSymbolTableRecord
100
AcDbDimStyleTableRecord
  2
SLDDIMSTYLE1
 70
     0
  3

  4

  5

  6

  7

 40
1.0
 41
8.0
 42
0.0625
 43
0.38
 44
0.0
 45
0.000000001
 46
0.0
 47
0.0
 48
0.0
140
7.4083333333
141
0.09
142
0.0
143
25.4
144
1.0
145
0.0
146
1.0
147
1.8520833333
 71
     0
 72
     0
 73
     1
 74
     1
 75
     0
 76
     0
 77
     0
 78
    12
170
     0
171
     2
172
     1
173
     1
174
     0
175
     0
176
     0
177
     0
178
     0
270
     2
271
     0
272
     0
273
     2
274
     2
340
80
275
     0
280
     0
281
     0
282
     0
283
     1
284
    12
285
     0
286
     0
288
     0
  0
ENDTAB
  0
TABLE
  2
BLOCK_RECORD
  5
1
330
0
100
AcDbSymbolTable
 70
    11
  0
BLOCK_RECORD
  5
1F
330
1
100
AcDbSymbolTableRecord
100
AcDbBlockTableRecord
  2
*MODEL_SPACE
  0
BLOCK_RECORD
  5
1B
330
1
100
AcDbSymbolTableRecord
100
AcDbBlockTableRecord
  2
*PAPER_SPACE
  0
BLOCK_RECORD
  5
23
330
1
100
AcDbSymbolTableRecord
100
AcDbBlockTableRecord
  2
*PAPER_SPACE0
  0
BLOCK_RECORD
  5
82
330
1
100
AcDbSymbolTableRecord
100
AcDbBlockTableRecord
  2
_D
  0
BLOCK_RECORD
  5
8B
330
1
100
AcDbSymbolTableRecord
100
AcDbBlockTableRecord
  2
SW_CENTERMARKSYMBOL_0
  0
BLOCK_RECORD
  5
93
330
1
100
AcDbSymbolTableRecord
100
AcDbBlockTableRecord
  2
SW_CENTERMARKSYMBOL_1
  0
BLOCK_RECORD
  5
C9
330
1
100
AcDbSymbolTableRecord
100
AcDbBlockTableRecord
  2
_D_1
  0
BLOCK_RECORD
  5
EE
330
1
100
AcDbSymbolTableRecord
100
AcDbBlockTableRecord
  2
_D_2
  0
BLOCK_RECORD
  5
FA
330
1
100
AcDbSymbolTableRecord
100
AcDbBlockTableRecord
  2
_D_3
  0
BLOCK_RECORD
  5
106
330
1
100
AcDbSymbolTableRecord
100
AcDbBlockTableRecord
  2
_D_4
  0
BLOCK_RECORD
  5
112
330
1
100
AcDbSymbolTableRecord
100
AcDbBlockTableRecord
  2
_D_5
  0
BLOCK_RECORD
  5
11C
330
1
100
AcDbSymbolTableRecord
100
AcDbBlockTableRecord
  2
_D_6
  0
BLOCK_RECORD
  5
125
330
1
100
AcDbSymbolTableRecord
100
AcDbBlockTableRecord
  2
SW_CENTERMARKSYMBOL_2
  0
ENDTAB
  0
ENDSEC
  0
SECTION
  2
BLOCKS
  0
BLOCK
  5
20
330
1F
100
AcDbEntity
  8
0
100
AcDbBlockBegin
  2
*MODEL_SPACE
 70
     0
 10
0.0
 20
0.0
 30
0.0
  3
*MODEL_SPACE
  1

  0
ENDBLK
  5
21
330
1F
100
AcDbEntity
  8
0
100
AcDbBlockEnd
  0
BLOCK
  5
1C
330
1B
100
AcDbEntity
 67
     1
  8
0
100
AcDbBlockBegin
  2
*PAPER_SPACE
 70
     0
 10
0.0
 20
0.0
 30
0.0
  3
*PAPER_SPACE
  1

  0
ENDBLK
  5
1D
330
1B
100
AcDbEntity
 67
     1
  8
0
100
AcDbBlockEnd
  0
BLOCK
  5
24
330
23
100
AcDbEntity
  8
0
100
AcDbBlockBegin
  2
*PAPER_SPACE0
 70
     0
 10
0.0
 20
0.0
 30
0.0
  3
*PAPER_SPACE0
  1

  0
ENDBLK
  5
25
330
23
100
AcDbEntity
  8
0
100
AcDbBlockEnd
  0
BLOCK
  5
83
330
82
100
AcDbEntity
  8
0
100
AcDbBlockBegin
  2
_D
 70
     0
 10
0.0
 20
0.0
 30
0.0
  3
_D
  1

  0
SOLID
  5
85
330
82
100
AcDbEntity
  8
0
  6
CONTINUOUS
 62
     7
100
AcDbTrace
 10
461.7777301662
 20
437.0528317886
 30
0.0
 11
469.7777301662
 21
435.5528317886
 31
0.0
 12
469.7777301662
 22
438.5528317886
 32
0.0
 13
469.7777301662
 23
438.5528317886
 33
0.0
  0
SOLID
  5
86
330
82
100
AcDbEntity
  8
0
  6
CONTINUOUS
 62
     7
100
AcDbTrace
 10
561.7777301662
 20
437.0528317886
 30
0.0
 11
553.7777301662
 21
438.5528317886
 31
0.0
 12
553.7777301662
 22
435.5528317886
 32
0.0
 13
553.7777301662
 23
435.5528317886
 33
0.0
  0
LINE
  5
87
330
82
100
AcDbEntity
  8
0
  6
CONTINUOUS
 62
     7
100
AcDbLine
 10
461.7777301662
 20
368.9908676209
 30
0.0
 11
461.7777301662
 21
438.0528317886
 31
0.0
  0
LINE
  5
88
330
82
100
AcDbEntity
  8
0
  6
CONTINUOUS
 62
     7
100
AcDbLine
 10
561.7777301662
 20
368.9908676209
 30
0.0
 11
561.7777301662
 21
438.0528317886
 31
0.0
  0
LINE
  5
89
330
82
100
AcDbEntity
  8
0
  6
CONTINUOUS
 62
     7
100
AcDbLine
 10
461.7777301662
 20
437.0528317886
 30
0.0
 11
561.7777301662
 21
437.0528317886
 31
0.0
  0
MTEXT
  5
8A
330
82
100
AcDbEntity
  8
0
  6
CONTINUOUS
 62
     7
100
AcDbMText
 10
499.9031916306
 20
446.602675527
 30
0.0
 40
7.4083333333
 41
0.0
 71
     1
 72
     1
  1
100
  7
SLDTEXTSTYLE0
  0
ENDBLK
  5
84
330
82
100
AcDbEntity
  8
0
100
AcDbBlockEnd
  0
BLOCK
  5
8C
330
8B
100
AcDbEntity
  8
0
100
AcDbBlockBegin
  2
SW_CENTERMARKSYMBOL_0
 70
     0
 10
0.0
 20
0.0
 30
0.0
  3
SW_CENTERMARKSYMBOL_0
  1

  0
LINE
  5
8E
330
8B
100
AcDbEntity
  8
0
  6
CONTINUOUS
 62
     0
100
AcDbLine
 10
0.0
 20
0.0
 30
0.0
 11
0.0
 21
2.5
 31
0.0
  0
LINE
  5
8F
330
8B
100
AcDbEntity
  8
0
  6
CONTINUOUS
 62
     0
100
AcDbLine
 10
0.0
 20
0.0
 30
0.0
 11
-2.5
 21
0.0
 31
0.0
  0
LINE
  5
90
330
8B
100
AcDbEntity
  8
0
  6
CONTINUOUS
 62
     0
100
AcDbLine
 10
0.0
 20
0.0
 30
0.0
 11
0.0
 21
-2.5
 31
0.0
  0
LINE
  5
91
330
8B
100
AcDbEntity
  8
0
  6
CONTINUOUS
 62
     0
100
AcDbLine
 10
0.0
 20
0.0
 30
0.0
 11
2.5
 21
0.0
 31
0.0
  0
ENDBLK
  5
8D
330
8B
100
AcDbEntity
  8
0
100
AcDbBlockEnd
  0
BLOCK
  5
94
330
93
100
AcDbEntity
  8
0
100
AcDbBlockBegin
  2
SW_CENTERMARKSYMBOL_1
 70
     0
 10
0.0
 20
0.0
 30
0.0
  3
SW_CENTERMARKSYMBOL_1
  1

  0
LINE
  5
96
330
93
100
AcDbEntity
  8
0
  6
CONTINUOUS
 62
     0
100
AcDbLine
 10
0.0
 20
0.0
 30
0.0
 11
0.0
 21
2.5
 31
0.0
  0
LINE
  5
97
330
93
100
AcDbEntity
  8
0
  6
CONTINUOUS
 62
     0
100
AcDbLine
 10
0.0
 20
0.0
 30
0.0
 11
-2.5
 21
0.0
 31
0.0
  0
LINE
  5
98
330
93
100
AcDbEntity
  8
0
  6
CONTINUOUS
 62
     0
100
AcDbLine
 10
0.0
 20
0.0
 30
0.0
 11
0.0
 21
-2.5
 31
0.0
  0
LINE
  5
99
330
93
100
AcDbEntity
  8
0
  6
CONTINUOUS
 62
     0
100
AcDbLine
 10
0.0
 20
0.0
 30
0.0
 11
2.5
 21
0.0
 31
0.0
  0
ENDBLK
  5
95
330
93
100
AcDbEntity
  8
0
100
AcDbBlockEnd
  0
BLOCK
  5
CA
330
C9
100
AcDbEntity
  8
0
100
AcDbBlockBegin
  2
_D_1
 70
     0
 10
0.0
 20
0.0
 30
0.0
  3
_D_1
  1

  0
SOLID
  5
CC
330
C9
100
AcDbEntity
  8
0
  6
CONTINUOUS
 62
     7
100
AcDbTrace
 10
319.6233712767
 20
298.4908676209
 30
0.0
 11
321.1233712767
 21
306.4908676209
 31
0.0
 12
318.1233712767
 22
306.4908676209
 32
0.0
 13
318.1233712767
 23
306.4908676209
 33
0.0
  0
SOLID
  5
CD
330
C9
100
AcDbEntity
  8
0
  6
CONTINUOUS
 62
     7
100
AcDbTrace
 10
319.6233712767
 20
365.4908676209
 30
0.0
 11
318.1233712767
 21
357.4908676209
 31
0.0
 12
321.1233712767
 22
357.4908676209
 32
0.0
 13
321.1233712767
 23
357.4908676209
 33
0.0
  0
LINE
  5
CE
330
C9
100
AcDbEntity
  8
0
  6
CONTINUOUS
 62
     7
100
AcDbLine
 10
284.3531132033
 20
298.4908676209
 30
0.0
 11
320.6233712767
 21
298.4908676209
 31
0.0
  0
LINE
  5
CF
330
C9
100
AcDbEntity
  8
0
  6
CONTINUOUS
 62
     7
100
AcDbLine
 10
243.0540244035
 20
365.4908676209
 30
0.0
 11
320.6233712767
 21
365.4908676209
 31
0.0
  0
LINE
  5
D0
330
C9
100
AcDbEntity
  8
0
  6
CONTINUOUS
 62
     7
100
AcDbLine
 10
319.6233712767
 20
298.4908676209
 30
0.0
 11
319.6233712767
 21
327.9785205012
 31
0.0
  0
LINE
  5
D1
330
C9
100
AcDbEntity
  8
0
  6
CONTINUOUS
 62
     7
100
AcDbLine
 10
319.6233712767
 20
365.4908676209
 30
0.0
 11
319.6233712767
 21
339.7495391181
 31
0.0
  0
MTEXT
  5
D2
330
C9
100
AcDbEntity
  8
0
  6
CONTINUOUS
 62
     7
100
AcDbMText
 10
314.1494362314
 20
337.5283642395
 30
0.0
 40
7.4083333333
 41
0.0
 71
     1
 72
     1
  1
67
  7
SLDTEXTSTYLE0
  0
ENDBLK
  5
CB
330
C9
100
AcDbEntity
  8
0
100
AcDbBlockEnd
  0
BLOCK
  5
EF
330
EE
100
AcDbEntity
  8
0
100
AcDbBlockBegin
  2
_D_2
 70
     0
 10
0.0
 20
0.0
 30
0.0
  3
_D_2
  1

  0
SOLID
  5
F1
330
EE
100
AcDbEntity
  8
0
  6
CONTINUOUS
 62
     7
100
AcDbTrace
 10
136.2166395449
 20
671.4393636155
 30
0.0
 11
144.2166395449
 21
669.9393636155
 31
0.0
 12
144.2166395449
 22
672.9393636155
 32
0.0
 13
144.2166395449
 23
672.9393636155
 33
0.0
  0
SOLID
  5
F2
330
EE
100
AcDbEntity
  8
0
  6
CONTINUOUS
 62
     7
100
AcDbTrace
 10
107.8531132033
 20
671.4393636155
 30
0.0
 11
99.8531132033
 21
672.9393636155
 31
0.0
 12
99.8531132033
 22
669.9393636155
 32
0.0
 13
99.8531132033
 23
669.9393636155
 33
0.0
  0
LINE
  5
F3
330
EE
100
AcDbEntity
  8
0
  6
CONTINUOUS
 62
     7
100
AcDbLine
 10
136.2166395449
 20
645.7327577857
 30
0.0
 11
136.2166395449
 21
672.4393636155
 31
0.0
  0
LINE
  5
F4
330
EE
100
AcDbEntity
  8
0
  6
CONTINUOUS
 62
     7
100
AcDbLine
 10
107.8531132033
 20
642.9327577857
 30
0.0
 11
107.8531132033
 21
672.4393636155
 31
0.0
  0
LINE
  5
F5
330
EE
100
AcDbEntity
  8
0
  6
CONTINUOUS
 62
     7
100
AcDbLine
 10
136.2166395449
 20
671.4393636155
 30
0.0
 11
146.2166395449
 21
671.4393636155
 31
0.0
  0
LINE
  5
F6
330
EE
100
AcDbEntity
  8
0
  6
CONTINUOUS
 62
     7
100
AcDbLine
 10
136.2166395449
 20
671.4393636155
 30
0.0
 11
107.8531132033
 21
671.4393636155
 31
0.0
  0
LINE
  5
F7
330
EE
100
AcDbEntity
  8
0
  6
CONTINUOUS
 62
     7
100
AcDbLine
 10
107.8531132033
 20
671.4393636155
 30
0.0
 11
97.8531132033
 21
671.4393636155
 31
0.0
  0
MTEXT
  5
F8
330
EE
100
AcDbEntity
  8
0
  6
CONTINUOUS
 62
     7
100
AcDbMText
 10
117.6529864112
 20
680.9892073538
 30
0.0
 40
7.4083333333
 41
0.0
 71
     1
 72
     1
  1
28
  7
SLDTEXTSTYLE0
  0
ENDBLK
  5
F0
330
EE
100
AcDbEntity
  8
0
100
AcDbBlockEnd
  0
BLOCK
  5
FB
330
FA
100
AcDbEntity
  8
0
100
AcDbBlockBegin
  2
_D_3
 70
     0
 10
0.0
 20
0.0
 30
0.0
  3
_D_3
  1

  0
SOLID
  5
FD
330
FA
100
AcDbEntity
  8
0
  6
CONTINUOUS
 62
     7
100
AcDbTrace
 10
160.6472895178
 20
644.9327577857
 30
0.0
 11
159.1472895178
 21
636.9327577857
 31
0.0
 12
162.1472895178
 22
636.9327577857
 32
0.0
 13
162.1472895178
 23
636.9327577857
 33
0.0
  0
SOLID
  5
FE
330
FA
100
AcDbEntity
  8
0
  6
CONTINUOUS
 62
     7
100
AcDbTrace
 10
160.6472895178
 20
582.9327577857
 30
0.0
 11
162.1472895178
 21
590.9327577857
 31
0.0
 12
159.1472895178
 22
590.9327577857
 32
0.0
 13
159.1472895178
 23
590.9327577857
 33
0.0
  0
LINE
  5
FF
330
FA
100
AcDbEntity
  8
0
  6
CONTINUOUS
 62
     7
100
AcDbLine
 10
137.0166395449
 20
644.9327577857
 30
0.0
 11
161.6472895178
 21
644.9327577857
 31
0.0
  0
LINE
  5
100
330
FA
100
AcDbEntity
  8
0
  6
CONTINUOUS
 62
     7
100
AcDbLine
 10
137.0166395449
 20
582.9327577857
 30
0.0
 11
161.6472895178
 21
582.9327577857
 31
0.0
  0
LINE
  5
101
330
FA
100
AcDbEntity
  8
0
  6
CONTINUOUS
 62
     7
100
AcDbLine
 10
160.6472895178
 20
644.9327577857
 30
0.0
 11
160.6472895178
 21
619.6124237674
 31
0.0
  0
LINE
  5
102
330
FA
100
AcDbEntity
  8
0
  6
CONTINUOUS
 62
     7
100
AcDbLine
 10
160.6472895178
 20
582.9327577857
 30
0.0
 11
160.6472895178
 21
607.553303306
 31
0.0
  0
MTEXT
  5
103
330
FA
100
AcDbEntity
  8
0
  6
CONTINUOUS
 62
     7
100
AcDbMText
 10
149.5821212116
 20
617.1031470443
 30
0.0
 40
7.4083333333
 41
0.0
 71
     1
 72
     1
  1
%%c
  7
SLDTEXTSTYLE0
  0
MTEXT
  5
104
330
FA
100
AcDbEntity
  8
0
  6
CONTINUOUS
 62
     7
100
AcDbMText
 10
160.7645886647
 20
617.1031470443
 30
0.0
 40
7.4083333333
 41
0.0
 71
     1
 72
     1
  1
62
  7
SLDTEXTSTYLE0
  0
ENDBLK
  5
FC
330
FA
100
AcDbEntity
  8
0
100
AcDbBlockEnd
  0
BLOCK
  5
107
330
106
100
AcDbEntity
  8
0
100
AcDbBlockBegin
  2
_D_4
 70
     0
 10
0.0
 20
0.0
 30
0.0
  3
_D_4
  1

  0
SOLID
  5
109
330
106
100
AcDbEntity
  8
0
  6
CONTINUOUS
 62
     7
100
AcDbTrace
 10
107.6531132033
 20
466.4852843096
 30
0.0
 11
99.6531132033
 21
467.9852843096
 31
0.0
 12
99.6531132033
 22
464.9852843096
 32
0.0
 13
99.6531132033
 23
464.9852843096
 33
0.0
  0
SOLID
  5
10A
330
106
100
AcDbEntity
  8
0
  6
CONTINUOUS
 62
     7
100
AcDbTrace
 10
112.1531132033
 20
466.4852843096
 30
0.0
 11
120.1531132033
 21
464.9852843096
 31
0.0
 12
120.1531132033
 22
467.9852843096
 32
0.0
 13
120.1531132033
 23
467.9852843096
 33
0.0
  0
LINE
  5
10B
330
106
100
AcDbEntity
  8
0
  6
CONTINUOUS
 62
     7
100
AcDbLine
 10
107.6531132033
 20
482.9327577857
 30
0.0
 11
107.6531132033
 21
465.4852843096
 31
0.0
  0
LINE
  5
10C
330
106
100
AcDbEntity
  8
0
  6
CONTINUOUS
 62
     7
100
AcDbLine
 10
112.1531132033
 20
482.9327577857
 30
0.0
 11
112.1531132033
 21
465.4852843096
 31
0.0
  0
LINE
  5
10D
330
106
100
AcDbEntity
  8
0
  6
CONTINUOUS
 62
     7
100
AcDbLine
 10
107.6531132033
 20
466.4852843096
 30
0.0
 11
91.3367505166
 21
466.4852843096
 31
0.0
  0
LINE
  5
10E
330
106
100
AcDbEntity
  8
0
  6
CONTINUOUS
 62
     7
100
AcDbLine
 10
107.6531132033
 20
466.4852843096
 30
0.0
 11
112.1531132033
 21
466.4852843096
 31
0.0
  0
LINE
  5
10F
330
106
100
AcDbEntity
  8
0
  6
CONTINUOUS
 62
     7
100
AcDbLine
 10
112.1531132033
 20
466.4852843096
 30
0.0
 11
122.1531132033
 21
466.4852843096
 31
0.0
  0
MTEXT
  5
110
330
106
100
AcDbEntity
  8
0
  6
CONTINUOUS
 62
     7
100
AcDbMText
 10
91.3367505166
 20
476.0351280479
 30
0.0
 40
7.4083333333
 41
0.0
 71
     1
 72
     1
  1
5
  7
SLDTEXTSTYLE0
  0
ENDBLK
  5
108
330
106
100
AcDbEntity
  8
0
100
AcDbBlockEnd
  0
BLOCK
  5
113
330
112
100
AcDbEntity
  8
0
100
AcDbBlockBegin
  2
_D_5
 70
     0
 10
0.0
 20
0.0
 30
0.0
  3
_D_5
  1

  0
SOLID
  5
115
330
112
100
AcDbEntity
  8
0
  6
CONTINUOUS
 62
     7
100
AcDbTrace
 10
192.2679482967
 20
526.6327577857
 30
0.0
 11
190.7679482967
 21
518.6327577857
 31
0.0
 12
193.7679482967
 22
518.6327577857
 32
0.0
 13
193.7679482967
 23
518.6327577857
 33
0.0
  0
SOLID
  5
116
330
112
100
AcDbEntity
  8
0
  6
CONTINUOUS
 62
     7
100
AcDbTrace
 10
192.2679482967
 20
501.2327577857
 30
0.0
 11
193.7679482967
 21
509.2327577857
 31
0.0
 12
190.7679482967
 22
509.2327577857
 32
0.0
 13
190.7679482967
 23
509.2327577857
 33
0.0
  0
LINE
  5
117
330
112
100
AcDbEntity
  8
0
  6
CONTINUOUS
 62
     7
100
AcDbLine
 10
181.3200782061
 20
473.1133263955
 30
0.0
 11
192.2679482967
 21
473.1133263955
 31
0.0
  0
LINE
  5
118
330
112
100
AcDbEntity
  8
0
  6
CONTINUOUS
 62
     7
100
AcDbLine
 10
192.2679482967
 20
473.1133263955
 30
0.0
 11
192.2679482967
 21
501.2327577857
 31
0.0
  0
LINE
  5
119
330
112
100
AcDbEntity
  8
0
  6
CONTINUOUS
 62
     7
100
AcDbLine
 10
192.2679482967
 20
526.6327577857
 30
0.0
 11
192.2679482967
 21
501.2327577857
 31
0.0
  0
MTEXT
  5
11A
330
112
100
AcDbEntity
  8
0
  6
CONTINUOUS
 62
     7
100
AcDbMText
 10
181.3200782061
 20
482.6631701338
 30
0.0
 40
7.4083333333
 41
0.0
 71
     1
 72
     1
  1
25
  7
SLDTEXTSTYLE0
  0
ENDBLK
  5
114
330
112
100
AcDbEntity
  8
0
100
AcDbBlockEnd
  0
BLOCK
  5
11D
330
11C
100
AcDbEntity
  8
0
100
AcDbBlockBegin
  2
_D_6
 70
     0
 10
0.0
 20
0.0
 30
0.0
  3
_D_6
  1

  0
SOLID
  5
11F
330
11C
100
AcDbEntity
  8
0
  6
CONTINUOUS
 62
     7
100
AcDbTrace
 10
270.6531132033
 20
556.2479734187
 30
0.0
 11
262.6531132033
 21
557.7479734187
 31
0.0
 12
262.6531132033
 22
554.7479734187
 32
0.0
 13
262.6531132033
 23
554.7479734187
 33
0.0
  0
SOLID
  5
120
330
11C
100
AcDbEntity
  8
0
  6
CONTINUOUS
 62
     7
100
AcDbTrace
 10
107.6531132033
 20
556.2479734187
 30
0.0
 11
115.6531132033
 21
554.7479734187
 31
0.0
 12
115.6531132033
 22
557.7479734187
 32
0.0
 13
115.6531132033
 23
557.7479734187
 33
0.0
  0
LINE
  5
121
330
11C
100
AcDbEntity
  8
0
  6
CONTINUOUS
 62
     7
100
AcDbLine
 10
270.6531132033
 20
517.4327577857
 30
0.0
 11
270.6531132033
 21
557.2479734187
 31
0.0
  0
LINE
  5
122
330
11C
100
AcDbEntity
  8
0
  6
CONTINUOUS
 62
     7
100
AcDbLine
 10
107.6531132033
 20
544.9327577857
 30
0.0
 11
107.6531132033
 21
557.2479734187
 31
0.0
  0
LINE
  5
123
330
11C
100
AcDbEntity
  8
0
  6
CONTINUOUS
 62
     7
100
AcDbLine
 10
270.6531132033
 20
556.2479734187
 30
0.0
 11
107.6531132033
 21
556.2479734187
 31
0.0
  0
MTEXT
  5
124
330
11C
100
AcDbEntity
  8
0
  6
CONTINUOUS
 62
     7
100
AcDbMText
 10
184.0570452631
 20
565.797817157
 30
0.0
 40
7.4083333333
 41
0.0
 71
     1
 72
     1
  1
160
  7
SLDTEXTSTYLE0
  0
ENDBLK
  5
11E
330
11C
100
AcDbEntity
  8
0
100
AcDbBlockEnd
  0
BLOCK
  5
126
330
125
100
AcDbEntity
  8
0
100
AcDbBlockBegin
  2
SW_CENTERMARKSYMBOL_2
 70
     0
 10
0.0
 20
0.0
 30
0.0
  3
SW_CENTERMARKSYMBOL_2
  1

  0
LINE
  5
128
330
125
100
AcDbEntity
  8
0
  6
CONTINUOUS
 62
     0
100
AcDbLine
 10
0.0
 20
0.0
 30
0.0
 11
0.0
 21
2.5
 31
0.0
  0
LINE
  5
129
330
125
100
AcDbEntity
  8
0
  6
CONTINUOUS
 62
     0
100
AcDbLine
 10
0.0
 20
0.0
 30
0.0
 11
-2.5
 21
0.0
 31
0.0
  0
LINE
  5
12A
330
125
100
AcDbEntity
  8
0
  6
CONTINUOUS
 62
     0
100
AcDbLine
 10
0.0
 20
0.0
 30
0.0
 11
0.0
 21
-2.5
 31
0.0
  0
LINE
  5
12B
330
125
100
AcDbEntity
  8
0
  6
CONTINUOUS
 62
     0
100
AcDbLine
 10
0.0
 20
0.0
 30
0.0
 11
2.5
 21
0.0
 31
0.0
  0
ENDBLK
  5
127
330
125
100
AcDbEntity
  8
0
100
AcDbBlockEnd
  0
ENDSEC
  0
SECTION
  2
ENTITIES
  0
LINE
  5
74
330
1F
100
AcDbEntity
  8
0
  6
CONTINUOUS
 62
     7
100
AcDbLine
 10
449.0777318172
 20
365.4908676209
 30
0.0
 11
449.0777318172
 21
320.4908658328
 31
0.0
  0
LINE
  5
75
330
1F
100
AcDbEntity
  8
0
  6
CONTINUOUS
 62
     7
100
AcDbLine
 10
474.4777296476
 20
320.4908658328
 30
0.0
 11
474.4777296476
 21
365.4908676209
 31
0.0
  0
LINE
  5
76
330
1F
100
AcDbEntity
  8
0
  6
CONTINUOUS
 62
     7
100
AcDbLine
 10
474.4777296476
 20
298.490865952
 30
0.0
 11
474.4777296476
 21
320.4908658328
 31
0.0
  0
LINE
  5
77
330
1F
100
AcDbEntity
  8
0
  6
CONTINUOUS
 62
     7
100
AcDbLine
 10
449.0777318172
 20
320.4908658328
 30
0.0
 11
449.0777318172
 21
298.490865952
 31
0.0
  0
CIRCLE
  5
78
330
1F
100
AcDbEntity
  8
0
  6
CONTINUOUS
 62
     7
100
AcDbCircle
 10
561.7777301662
 20
365.4908676209
 30
0.0
 40
30.80000000000008
  0
CIRCLE
  5
79
330
1F
100
AcDbEntity
  8
0
  6
CONTINUOUS
 62
     7
100
AcDbCircle
 10
561.7777301662
 20
365.4908676209
 30
0.0
 40
31.00000000000008
  0
ARC
  5
7A
330
1F
100
AcDbEntity
  8
0
  6
CONTINUOUS
 62
     7
100
AcDbCircle
 10
461.7777301662
 20
365.4908676209
 30
0.0
 40
12.90000000000002
100
AcDbArc
 50
349.897694944
 51
190.102305056
  0
ARC
  5
7B
330
1F
100
AcDbEntity
  8
0
  6
CONTINUOUS
 62
     7
100
AcDbCircle
 10
461.7777301662
 20
365.4908676209
 30
0.0
 40
30.00000000000001
100
AcDbArc
 50
295.0452143618
 51
343.036856508
  0
ARC
  5
7C
330
1F
100
AcDbEntity
  8
0
  6
CONTINUOUS
 62
     7
100
AcDbCircle
 10
461.7777301662
 20
365.4908676209
 30
0.0
 40
30.00000000000005
100
AcDbArc
 50
343.036856508
 51
244.9547856382
  0
ARC
  5
7D
330
1F
100
AcDbEntity
  8
0
  6
CONTINUOUS
 62
     7
100
AcDbCircle
 10
461.7777301662
 20
365.4908676209
 30
0.0
 40
12.70000000000005
100
AcDbArc
 50
0.0
 51
180.0
  0
LINE
  5
7E
330
1F
100
AcDbEntity
  8
0
  6
CONTINUOUS
 62
     7
100
AcDbLine
 10
449.0777318172
 20
298.490865952
 30
0.0
 11
474.4777296476
 21
298.490865952
 31
0.0
  0
DIMENSION
  5
7F
330
1F
100
AcDbEntity
  8
0
  6
CONTINUOUS
 62
     7
100
AcDbDimension
  2
_D
 10
561.7777301662
 20
442.9383410971
 30
0.0
 11
508.1140946643
 21
442.9383410971
 31
0.0
 70
   160
  1
<>
  3
SLDDIMSTYLE0
100
AcDbAlignedDimension
 13
461.7777301662
 23
367.9908676209
 33
0.0
 14
561.7777301662
 24
367.9908676209
 34
0.0
100
AcDbRotatedDimension
  0
INSERT
  5
92
330
1F
100
AcDbEntity
  8
0
  6
CONTINUOUS
 62
     7
100
AcDbBlockReference
  2
SW_CENTERMARKSYMBOL_0
 10
461.7777301662
 20
365.4908676209
 30
0.0
  0
INSERT
  5
9A
330
1F
100
AcDbEntity
  8
0
  6
CONTINUOUS
 62
     7
100
AcDbBlockReference
  2
SW_CENTERMARKSYMBOL_1
 10
561.7777301662
 20
365.4908676209
 30
0.0
  0
SPLINE
  5
9B
330
1F
100
AcDbEntity
  8
0
  6
CONTINUOUS
 62
     7
100
AcDbSpline
210
0.0
220
0.0
230
1.0
 70
     8
 71
     3
 72
     9
 73
     5
 74
     0
 42
0.000000001
 43
0.00000001
 40
0.0
 40
0.0
 40
0.0
 40
0.0
 40
0.9685273477668349
 40
1.0
 40
1.0
 40
1.0
 40
1.0
 10
107.8467097216102
 20
374.3311038920976
 30
0.0
 10
107.7826264077351
 20
374.1432577060199
 30
0.0
 10
107.7164606830162
 20
373.9493073890662
 30
0.0
 10
107.6502782680546
 20
373.7553888222129
 30
0.0
 10
107.6481953319246
 20
373.7492856905967
 30
0.0
  0
SPLINE
  5
9C
330
1F
100
AcDbEntity
  8
0
  6
CONTINUOUS
 62
     7
100
AcDbSpline
210
0.0
220
0.0
230
1.0
 70
     8
 71
     3
 72
     9
 73
     5
 74
     0
 42
0.000000001
 43
0.00000001
 40
0.0
 40
0.0
 40
0.0
 40
0.0
 40
0.9685273477668349
 40
1.0
 40
1.0
 40
1.0
 40
1.0
 10
107.8467097216102
 20
374.3311038920976
 30
0.0
 10
107.7826264077351
 20
374.1432577060199
 30
0.0
 10
107.7164606830162
 20
373.9493073890662
 30
0.0
 10
107.6502782680546
 20
373.7553888222129
 30
0.0
 10
107.6481953319246
 20
373.7492856905967
 30
0.0
  0
SPLINE
  5
9D
330
1F
100
AcDbEntity
  8
0
  6
CONTINUOUS
 62
     7
100
AcDbSpline
210
0.0
220
0.0
230
1.0
 70
     8
 71
     3
 72
     9
 73
     5
 74
     0
 42
0.000000001
 43
0.00000001
 40
0.0
 40
0.0
 40
0.0
 40
0.0
 40
0.9685273477668349
 40
1.0
 40
1.0
 40
1.0
 40
1.0
 10
107.8467097216102
 20
374.3311038920976
 30
0.0
 10
107.7826264077351
 20
374.1432577060199
 30
0.0
 10
107.7164606830162
 20
373.9493073890662
 30
0.0
 10
107.6502782680546
 20
373.7553888222129
 30
0.0
 10
107.6481953319246
 20
373.7492856905967
 30
0.0
  0
SPLINE
  5
9E
330
1F
100
AcDbEntity
  8
0
  6
CONTINUOUS
 62
     7
100
AcDbSpline
210
0.0
220
0.0
230
1.0
 70
     8
 71
     3
 72
     9
 73
     5
 74
     0
 42
0.000000001
 43
0.00000001
 40
0.0
 40
0.0
 40
0.0
 40
0.0
 40
0.9685273477668349
 40
1.0
 40
1.0
 40
1.0
 40
1.0
 10
107.8467097216102
 20
374.3311038920976
 30
0.0
 10
107.7826264077351
 20
374.1432577060199
 30
0.0
 10
107.7164606830162
 20
373.9493073890662
 30
0.0
 10
107.6502782680546
 20
373.7553888222129
 30
0.0
 10
107.6481953319246
 20
373.7492856905967
 30
0.0
  0
SPLINE
  5
9F
330
1F
100
AcDbEntity
  8
0
  6
CONTINUOUS
 62
     7
100
AcDbSpline
210
0.0
220
0.0
230
1.0
 70
     8
 71
     3
 72
     9
 73
     5
 74
     0
 42
0.000000001
 43
0.00000001
 40
0.0
 40
0.0
 40
0.0
 40
0.0
 40
0.9685273477668349
 40
1.0
 40
1.0
 40
1.0
 40
1.0
 10
107.8467097216102
 20
374.3311038920976
 30
0.0
 10
107.7826264077351
 20
374.1432577060199
 30
0.0
 10
107.7164606830162
 20
373.9493073890662
 30
0.0
 10
107.6502782680546
 20
373.7553888222129
 30
0.0
 10
107.6481953319246
 20
373.7492856905967
 30
0.0
  0
SPLINE
  5
A0
330
1F
100
AcDbEntity
  8
0
  6
CONTINUOUS
 62
     7
100
AcDbSpline
210
0.0
220
0.0
230
1.0
 70
     8
 71
     3
 72
     9
 73
     5
 74
     0
 42
0.000000001
 43
0.00000001
 40
0.0
 40
0.0
 40
0.0
 40
0.0
 40
0.9685273477668349
 40
1.0
 40
1.0
 40
1.0
 40
1.0
 10
107.8467097216102
 20
374.3311038920976
 30
0.0
 10
107.7826264077351
 20
374.1432577060199
 30
0.0
 10
107.7164606830162
 20
373.9493073890662
 30
0.0
 10
107.6502782680546
 20
373.7553888222129
 30
0.0
 10
107.6481953319246
 20
373.7492856905967
 30
0.0
  0
SPLINE
  5
A1
330
1F
100
AcDbEntity
  8
0
  6
CONTINUOUS
 62
     7
100
AcDbSpline
210
0.0
220
0.0
230
1.0
 70
     8
 71
     3
 72
     9
 73
     5
 74
     0
 42
0.000000001
 43
0.00000001
 40
0.0
 40
0.0
 40
0.0
 40
0.0
 40
0.9685273477668349
 40
1.0
 40
1.0
 40
1.0
 40
1.0
 10
107.8467097216102
 20
374.3311038920976
 30
0.0
 10
107.7826264077351
 20
374.1432577060199
 30
0.0
 10
107.7164606830162
 20
373.9493073890662
 30
0.0
 10
107.6502782680546
 20
373.7553888222129
 30
0.0
 10
107.6481953319246
 20
373.7492856905967
 30
0.0
  0
SPLINE
  5
A2
330
1F
100
AcDbEntity
  8
0
  6
CONTINUOUS
 62
     7
100
AcDbSpline
210
0.0
220
0.0
230
1.0
 70
     8
 71
     3
 72
     9
 73
     5
 74
     0
 42
0.000000001
 43
0.00000001
 40
0.0
 40
0.0
 40
0.0
 40
0.0
 40
0.9685273477668349
 40
1.0
 40
1.0
 40
1.0
 40
1.0
 10
107.8467097216102
 20
374.3311038920976
 30
0.0
 10
107.7826264077351
 20
374.1432577060199
 30
0.0
 10
107.7164606830162
 20
373.9493073890662
 30
0.0
 10
107.6502782680546
 20
373.7553888222129
 30
0.0
 10
107.6481953319246
 20
373.7492856905967
 30
0.0
  0
SPLINE
  5
A3
330
1F
100
AcDbEntity
  8
0
  6
CONTINUOUS
 62
     7
100
AcDbSpline
210
0.0
220
0.0
230
1.0
 70
     8
 71
     3
 72
     9
 73
     5
 74
     0
 42
0.000000001
 43
0.00000001
 40
0.0
 40
0.0
 40
0.0
 40
0.0
 40
0.9685273477668349
 40
1.0
 40
1.0
 40
1.0
 40
1.0
 10
107.8467097216102
 20
374.3311038920976
 30
0.0
 10
107.7826264077351
 20
374.1432577060199
 30
0.0
 10
107.7164606830162
 20
373.9493073890662
 30
0.0
 10
107.6502782680546
 20
373.7553888222129
 30
0.0
 10
107.6481953319246
 20
373.7492856905967
 30
0.0
  0
SPLINE
  5
A4
330
1F
100
AcDbEntity
  8
0
  6
CONTINUOUS
 62
     7
100
AcDbSpline
210
0.0
220
0.0
230
1.0
 70
     8
 71
     3
 72
     9
 73
     5
 74
     0
 42
0.000000001
 43
0.00000001
 40
0.0
 40
0.0
 40
0.0
 40
0.0
 40
0.9685273477668349
 40
1.0
 40
1.0
 40
1.0
 40
1.0
 10
107.8467097216102
 20
374.3311038920976
 30
0.0
 10
107.7826264077351
 20
374.1432577060199
 30
0.0
 10
107.7164606830162
 20
373.9493073890662
 30
0.0
 10
107.6502782680546
 20
373.7553888222129
 30
0.0
 10
107.6481953319246
 20
373.7492856905967
 30
0.0
  0
SPLINE
  5
A5
330
1F
100
AcDbEntity
  8
0
  6
CONTINUOUS
 62
     7
100
AcDbSpline
210
0.0
220
0.0
230
1.0
 70
     8
 71
     3
 72
     9
 73
     5
 74
     0
 42
0.000000001
 43
0.00000001
 40
0.0
 40
0.0
 40
0.0
 40
0.0
 40
0.9685273477668349
 40
1.0
 40
1.0
 40
1.0
 40
1.0
 10
107.8467097216102
 20
374.3311038920976
 30
0.0
 10
107.7826264077351
 20
374.1432577060199
 30
0.0
 10
107.7164606830162
 20
373.9493073890662
 30
0.0
 10
107.6502782680546
 20
373.7553888222129
 30
0.0
 10
107.6481953319246
 20
373.7492856905967
 30
0.0
  0
SPLINE
  5
A6
330
1F
100
AcDbEntity
  8
0
  6
CONTINUOUS
 62
     7
100
AcDbSpline
210
0.0
220
0.0
230
1.0
 70
     8
 71
     3
 72
     9
 73
     5
 74
     0
 42
0.000000001
 43
0.00000001
 40
0.0
 40
0.0
 40
0.0
 40
0.0
 40
0.9685273477668349
 40
1.0
 40
1.0
 40
1.0
 40
1.0
 10
107.8467097216102
 20
374.3311038920976
 30
0.0
 10
107.7826264077351
 20
374.1432577060199
 30
0.0
 10
107.7164606830162
 20
373.9493073890662
 30
0.0
 10
107.6502782680546
 20
373.7553888222129
 30
0.0
 10
107.6481953319246
 20
373.7492856905967
 30
0.0
  0
SPLINE
  5
A7
330
1F
100
AcDbEntity
  8
0
  6
CONTINUOUS
 62
     7
100
AcDbSpline
210
0.0
220
0.0
230
1.0
 70
     8
 71
     3
 72
     9
 73
     5
 74
     0
 42
0.000000001
 43
0.00000001
 40
0.0
 40
0.0
 40
0.0
 40
0.0
 40
0.9685273477668349
 40
1.0
 40
1.0
 40
1.0
 40
1.0
 10
107.8467097216102
 20
374.3311038920976
 30
0.0
 10
107.7826264077351
 20
374.1432577060199
 30
0.0
 10
107.7164606830162
 20
373.9493073890662
 30
0.0
 10
107.6502782680546
 20
373.7553888222129
 30
0.0
 10
107.6481953319246
 20
373.7492856905967
 30
0.0
  0
SPLINE
  5
A8
330
1F
100
AcDbEntity
  8
0
  6
CONTINUOUS
 62
     7
100
AcDbSpline
210
0.0
220
0.0
230
1.0
 70
     8
 71
     3
 72
     9
 73
     5
 74
     0
 42
0.000000001
 43
0.00000001
 40
0.0
 40
0.0
 40
0.0
 40
0.0
 40
0.9685273477668349
 40
1.0
 40
1.0
 40
1.0
 40
1.0
 10
107.8467097216102
 20
374.3311038920976
 30
0.0
 10
107.7826264077351
 20
374.1432577060199
 30
0.0
 10
107.7164606830162
 20
373.9493073890662
 30
0.0
 10
107.6502782680546
 20
373.7553888222129
 30
0.0
 10
107.6481953319246
 20
373.7492856905967
 30
0.0
  0
SPLINE
  5
A9
330
1F
100
AcDbEntity
  8
0
  6
CONTINUOUS
 62
     7
100
AcDbSpline
210
0.0
220
0.0
230
1.0
 70
     8
 71
     3
 72
     9
 73
     5
 74
     0
 42
0.000000001
 43
0.00000001
 40
0.0
 40
0.0
 40
0.0
 40
0.0
 40
0.9685273477668349
 40
1.0
 40
1.0
 40
1.0
 40
1.0
 10
107.8467097216102
 20
374.3311038920976
 30
0.0
 10
107.7826264077351
 20
374.1432577060199
 30
0.0
 10
107.7164606830162
 20
373.9493073890662
 30
0.0
 10
107.6502782680546
 20
373.7553888222129
 30
0.0
 10
107.6481953319246
 20
373.7492856905967
 30
0.0
  0
SPLINE
  5
AA
330
1F
100
AcDbEntity
  8
0
  6
CONTINUOUS
 62
     7
100
AcDbSpline
210
0.0
220
0.0
230
1.0
 70
     8
 71
     3
 72
     9
 73
     5
 74
     0
 42
0.000000001
 43
0.00000001
 40
0.0
 40
0.0
 40
0.0
 40
0.0
 40
0.9685273477668349
 40
1.0
 40
1.0
 40
1.0
 40
1.0
 10
107.8467097216102
 20
374.3311038920976
 30
0.0
 10
107.7826264077351
 20
374.1432577060199
 30
0.0
 10
107.7164606830162
 20
373.9493073890662
 30
0.0
 10
107.6502782680546
 20
373.7553888222129
 30
0.0
 10
107.6481953319246
 20
373.7492856905967
 30
0.0
  0
SPLINE
  5
AB
330
1F
100
AcDbEntity
  8
0
  6
CONTINUOUS
 62
     7
100
AcDbSpline
210
0.0
220
0.0
230
1.0
 70
     8
 71
     3
 72
     9
 73
     5
 74
     0
 42
0.000000001
 43
0.00000001
 40
0.0
 40
0.0
 40
0.0
 40
0.0
 40
0.9685273477668349
 40
1.0
 40
1.0
 40
1.0
 40
1.0
 10
107.8467097216102
 20
374.3311038920976
 30
0.0
 10
107.7826264077351
 20
374.1432577060199
 30
0.0
 10
107.7164606830162
 20
373.9493073890662
 30
0.0
 10
107.6502782680546
 20
373.7553888222129
 30
0.0
 10
107.6481953319246
 20
373.7492856905967
 30
0.0
  0
SPLINE
  5
AC
330
1F
100
AcDbEntity
  8
0
  6
CONTINUOUS
 62
     7
100
AcDbSpline
210
0.0
220
0.0
230
1.0
 70
     8
 71
     3
 72
     9
 73
     5
 74
     0
 42
0.000000001
 43
0.00000001
 40
0.0
 40
0.0
 40
0.0
 40
0.0
 40
0.9685273477668349
 40
1.0
 40
1.0
 40
1.0
 40
1.0
 10
107.8467097216102
 20
374.3311038920976
 30
0.0
 10
107.7826264077351
 20
374.1432577060199
 30
0.0
 10
107.7164606830162
 20
373.9493073890662
 30
0.0
 10
107.6502782680546
 20
373.7553888222129
 30
0.0
 10
107.6481953319246
 20
373.7492856905967
 30
0.0
  0
SPLINE
  5
AD
330
1F
100
AcDbEntity
  8
0
  6
CONTINUOUS
 62
     7
100
AcDbSpline
210
0.0
220
0.0
230
1.0
 70
     8
 71
     3
 72
     9
 73
     5
 74
     0
 42
0.000000001
 43
0.00000001
 40
0.0
 40
0.0
 40
0.0
 40
0.0
 40
0.9685273477668349
 40
1.0
 40
1.0
 40
1.0
 40
1.0
 10
107.8467097216102
 20
374.3311038920976
 30
0.0
 10
107.7826264077351
 20
374.1432577060199
 30
0.0
 10
107.7164606830162
 20
373.9493073890662
 30
0.0
 10
107.6502782680546
 20
373.7553888222129
 30
0.0
 10
107.6481953319246
 20
373.7492856905967
 30
0.0
  0
SPLINE
  5
AE
330
1F
100
AcDbEntity
  8
0
  6
CONTINUOUS
 62
     7
100
AcDbSpline
210
0.0
220
0.0
230
1.0
 70
     8
 71
     3
 72
     9
 73
     5
 74
     0
 42
0.000000001
 43
0.00000001
 40
0.0
 40
0.0
 40
0.0
 40
0.0
 40
0.9685273477668349
 40
1.0
 40
1.0
 40
1.0
 40
1.0
 10
107.8467097216102
 20
374.3311038920976
 30
0.0
 10
107.7826264077351
 20
374.1432577060199
 30
0.0
 10
107.7164606830162
 20
373.9493073890662
 30
0.0
 10
107.6502782680546
 20
373.7553888222129
 30
0.0
 10
107.6481953319246
 20
373.7492856905967
 30
0.0
  0
LINE
  5
AF
330
1F
100
AcDbEntity
  8
0
  6
CONTINUOUS
 62
     7
100
AcDbLine
 10
107.7789176415
 20
386.4872299185
 30
0.0
 11
107.6351221597
 21
386.2382141974
 31
0.0
  0
LINE
  5
B0
330
1F
100
AcDbEntity
  8
0
  6
CONTINUOUS
 62
     7
100
AcDbLine
 10
125.7791945889
 20
334.4908676209
 30
0.0
 11
136.0166395449
 21
334.4908676209
 31
0.0
  0
LINE
  5
B1
330
1F
100
AcDbEntity
  8
0
  6
CONTINUOUS
 62
     7
100
AcDbLine
 10
109.2166395449
 20
334.4908676209
 30
0.0
 11
120.9306658162
 21
334.4908676209
 31
0.0
  0
LINE
  5
B2
330
1F
100
AcDbEntity
  8
0
  6
CONTINUOUS
 62
     7
100
AcDbLine
 10
136.0166395449
 20
396.4908676209
 30
0.0
 11
109.2166395449
 21
396.4908676209
 31
0.0
  0
LINE
  5
B3
330
1F
100
AcDbEntity
  8
0
  6
CONTINUOUS
 62
     7
100
AcDbLine
 10
136.0166395449
 20
334.4908676209
 30
0.0
 11
136.2166395449
 21
334.6908676209
 31
0.0
  0
LINE
  5
B4
330
1F
100
AcDbEntity
  8
0
  6
CONTINUOUS
 62
     7
100
AcDbLine
 10
136.2166395449
 20
396.2908676209
 30
0.0
 11
136.0166395449
 21
396.4908676209
 31
0.0
  0
LINE
  5
B5
330
1F
100
AcDbEntity
  8
0
  6
CONTINUOUS
 62
     7
100
AcDbLine
 10
107.6531132033
 20
335.4908676209
 30
0.0
 11
112.1531132033
 21
335.4908676209
 31
0.0
  0
LINE
  5
B6
330
1F
100
AcDbEntity
  8
0
  6
CONTINUOUS
 62
     7
100
AcDbLine
 10
112.1531132033
 20
395.4908676209
 30
0.0
 11
107.6531132033
 21
395.4908676209
 31
0.0
  0
LINE
  5
B7
330
1F
100
AcDbEntity
  8
0
  6
CONTINUOUS
 62
     7
100
AcDbLine
 10
112.1531132033
 20
352.7908676209
 30
0.0
 11
225.6531132033
 21
352.7908676209
 31
0.0
  0
LINE
  5
B8
330
1F
100
AcDbEntity
  8
0
  6
CONTINUOUS
 62
     7
100
AcDbLine
 10
225.6531132033
 20
378.1908676209
 30
0.0
 11
112.1531132033
 21
378.1908676209
 31
0.0
  0
ARC
  5
B9
330
1F
100
AcDbEntity
  8
0
  6
CONTINUOUS
 62
     7
100
AcDbCircle
 10
225.6531132033
 20
320.4908676209
 30
0.0
 40
32.30000000000001
100
AcDbArc
 50
0.0
 51
90.0
  0
ARC
  5
BA
330
1F
100
AcDbEntity
  8
0
  6
CONTINUOUS
 62
     7
100
AcDbCircle
 10
225.6531132033
 20
320.4908676209
 30
0.0
 40
57.69999999999999
100
AcDbArc
 50
0.0
 51
90.0
  0
LINE
  5
BB
330
1F
100
AcDbEntity
  8
0
  6
CONTINUOUS
 62
     7
100
AcDbLine
 10
283.3531132033
 20
298.4908676209
 30
0.0
 11
283.3531132033
 21
320.4908676209
 31
0.0
  0
LINE
  5
BC
330
1F
100
AcDbEntity
  8
0
  6
CONTINUOUS
 62
     7
100
AcDbLine
 10
257.9531132033
 20
320.4908676209
 30
0.0
 11
257.9531132033
 21
298.4908676209
 31
0.0
  0
SPLINE
  5
BD
330
1F
100
AcDbEntity
  8
0
  6
CONTINUOUS
 62
     7
100
AcDbSpline
210
0.0
220
0.0
230
1.0
 70
     8
 71
     3
 72
    16
 73
    12
 74
     0
 42
0.000000001
 43
0.00000001
 40
0.0
 40
0.0
 40
0.0
 40
0.0
 40
0.1093626642408897
 40
0.2195203818717905
 40
0.3355355961297539
 40
0.4559301804267365
 40
0.5776072933847475
 40
0.6991342348491602
 40
0.81192516003774
 40
0.9177391029473576
 40
1.0
 40
1.0
 40
1.0
 40
1.0
 10
125.8045606227024
 20
334.4910068133332
 30
0.0
 10
125.7522587273057
 20
334.4922456689418
 30
0.0
 10
125.6472747080357
 20
334.4947323864899
 30
0.0
 10
125.168264607764
 20
334.5195268402059
 30
0.0
 10
124.4993399952328
 20
334.547737325272
 30
0.0
 10
123.6633917196071
 20
334.567037702553
 30
0.0
 10
122.7697423685141
 20
334.5669455235707
 30
0.0
 10
121.94435933749
 20
334.5458895801791
 30
0.0
 10
121.3163402601737
 20
334.5171101462516
 30
0.0
 10
120.9452467504515
 20
334.4942320737916
 30
0.0
 10
120.9351026721775
 20
334.4928845699085
 30
0.0
 10
120.9306658161965
 20
334.492295193476
 30
0.0
  0
LINE
  5
BE
330
1F
100
AcDbEntity
  8
0
  6
CONTINUOUS
 62
     7
100
AcDbLine
 10
109.2166395449
 20
395.4908676209
 30
0.0
 11
109.2166395449
 21
396.4908676209
 31
0.0
  0
LINE
  5
BF
330
1F
100
AcDbEntity
  8
0
  6
CONTINUOUS
 62
     7
100
AcDbLine
 10
109.2166395449
 20
334.4908676209
 30
0.0
 11
109.2166395449
 21
335.4908676209
 31
0.0
  0
LINE
  5
C0
330
1F
100
AcDbEntity
  8
0
  6
CONTINUOUS
 62
     7
100
AcDbLine
 10
136.0166395449
 20
378.1908676209
 30
0.0
 11
136.0166395449
 21
396.4908676209
 31
0.0
  0
LINE
  5
C1
330
1F
100
AcDbEntity
  8
0
  6
CONTINUOUS
 62
     7
100
AcDbLine
 10
136.0166395449
 20
334.4908676209
 30
0.0
 11
136.0166395449
 21
352.7908676209
 31
0.0
  0
LINE
  5
C2
330
1F
100
AcDbEntity
  8
0
  6
CONTINUOUS
 62
     7
100
AcDbLine
 10
136.2166395449
 20
352.7908676209
 30
0.0
 11
136.2166395449
 21
334.6908676209
 31
0.0
  0
LINE
  5
C3
330
1F
100
AcDbEntity
  8
0
  6
CONTINUOUS
 62
     7
100
AcDbLine
 10
136.2166395449
 20
396.2908676209
 30
0.0
 11
136.2166395449
 21
378.1908676209
 31
0.0
  0
LINE
  5
C4
330
1F
100
AcDbEntity
  8
0
  6
CONTINUOUS
 62
     7
100
AcDbLine
 10
112.1531132033
 20
335.4908676209
 30
0.0
 11
112.1531132033
 21
395.4908676209
 31
0.0
  0
LINE
  5
C5
330
1F
100
AcDbEntity
  8
0
  6
CONTINUOUS
 62
     7
100
AcDbLine
 10
107.6531132033
 20
335.4908676209
 30
0.0
 11
107.6531132033
 21
395.4908676209
 31
0.0
  0
LINE
  5
C6
330
1F
100
AcDbEntity
  8
0
  6
CONTINUOUS
 62
     7
100
AcDbLine
 10
270.6531132033
 20
298.4908676209
 30
0.0
 11
283.3531132033
 21
298.4908676209
 31
0.0
  0
LINE
  5
C7
330
1F
100
AcDbEntity
  8
0
  6
CONTINUOUS
 62
     7
100
AcDbLine
 10
257.9531132033
 20
298.4908676209
 30
0.0
 11
270.6531132033
 21
298.4908676209
 31
0.0
  0
DIMENSION
  5
C8
330
1F
100
AcDbEntity
  8
0
  6
CONTINUOUS
 62
     7
100
AcDbDimension
  2
_D_1
 10
319.6233712767
 20
365.4908676209
 30
0.0
 11
319.6233712767
 21
333.8640298096
 31
0.0
 70
   160
  1
<>
  3
SLDDIMSTYLE0
100
AcDbAlignedDimension
 13
283.3531132033
 23
298.4908676209
 33
0.0
 14
225.1394247498
 24
365.4908676209
 34
0.0
 50
90.0
100
AcDbRotatedDimension
  0
LINE
  5
D3
330
1F
100
AcDbEntity
  8
0
  6
CENTERX2
 62
     7
100
AcDbLine
 10
108.6531132033
 20
365.4908676209
 30
0.0
 11
225.1394247498
 21
365.4908676209
 31
0.0
  0
ARC
  5
D4
330
1F
100
AcDbEntity
  8
0
  6
CENTERX2
 62
     7
100
AcDbCircle
 10
225.6531132033
 20
320.4908676209
 30
0.0
 40
45.0
100
AcDbArc
 50
0.0
 51
92.5464790895
  0
LINE
  5
D5
330
1F
100
AcDbEntity
  8
0
  6
CENTERX2
 62
     7
100
AcDbLine
 10
270.6531132033
 20
296.4908676209
 30
0.0
 11
270.6531132033
 21
320.4908676209
 31
0.0
  0
LINE
  5
D6
330
1F
100
AcDbEntity
  8
0
  6
CONTINUOUS
 62
     7
100
AcDbLine
 10
107.8531123015
 20
641.9327607063
 30
0.0
 11
107.6531126413
 21
641.7327573208
 31
0.0
  0
LINE
  5
D7
330
1F
100
AcDbEntity
  8
0
  6
CONTINUOUS
 62
     7
100
AcDbLine
 10
107.6531126413
 20
586.132758638
 30
0.0
 11
107.8531123015
 21
585.9327571151
 31
0.0
  0
LINE
  5
D8
330
1F
100
AcDbEntity
  8
0
  6
CONTINUOUS
 62
     7
100
AcDbLine
 10
107.8531123015
 20
585.9327571151
 30
0.0
 11
109.2166393313
 21
585.9327571151
 31
0.0
  0
LINE
  5
D9
330
1F
100
AcDbEntity
  8
0
  6
CONTINUOUS
 62
     7
100
AcDbLine
 10
109.2166393313
 20
641.9327607063
 30
0.0
 11
107.8531123015
 21
641.9327607063
 31
0.0
  0
LINE
  5
DA
330
1F
100
AcDbEntity
  8
0
  6
CONTINUOUS
 62
     7
100
AcDbLine
 10
109.2166393313
 20
582.932758486
 30
0.0
 11
136.0166385087
 21
582.932758486
 31
0.0
  0
LINE
  5
DB
330
1F
100
AcDbEntity
  8
0
  6
CONTINUOUS
 62
     7
100
AcDbLine
 10
136.0166385087
 20
644.9327593354
 30
0.0
 11
109.2166393313
 21
644.9327593354
 31
0.0
  0
LINE
  5
DC
330
1F
100
AcDbEntity
  8
0
  6
CONTINUOUS
 62
     7
100
AcDbLine
 10
136.0166385087
 20
582.932758486
 30
0.0
 11
136.2166418943
 21
583.1327581463
 31
0.0
  0
LINE
  5
DD
330
1F
100
AcDbEntity
  8
0
  6
CONTINUOUS
 62
     7
100
AcDbLine
 10
136.2166418943
 20
644.7327559499
 30
0.0
 11
136.0166385087
 21
644.9327593354
 31
0.0
  0
LINE
  5
DE
330
1F
100
AcDbEntity
  8
0
  6
CONTINUOUS
 62
     7
100
AcDbLine
 10
107.6531126413
 20
483.9327608851
 30
0.0
 11
112.1531143102
 21
483.9327608851
 31
0.0
  0
LINE
  5
DF
330
1F
100
AcDbEntity
  8
0
  6
CONTINUOUS
 62
     7
100
AcDbLine
 10
112.1531143102
 20
543.9327576814
 30
0.0
 11
107.6531126413
 21
543.9327576814
 31
0.0
  0
LINE
  5
E0
330
1F
100
AcDbEntity
  8
0
  6
CONTINUOUS
 62
     7
100
AcDbLine
 10
112.1531143102
 20
501.2327594367
 30
0.0
 11
225.6531133565
 21
501.2327594367
 31
0.0
  0
LINE
  5
E1
330
1F
100
AcDbEntity
  8
0
  6
CONTINUOUS
 62
     7
100
AcDbLine
 10
225.6531133565
 20
526.6327572671
 30
0.0
 11
112.1531143102
 21
526.6327572671
 31
0.0
  0
LINE
  5
E2
330
1F
100
AcDbEntity
  8
0
  6
CONTINUOUS
 62
     7
100
AcDbLine
 10
225.6531133565
 20
501.2327594367
 30
0.0
 11
270.6531151447
 21
501.2327594367
 31
0.0
  0
LINE
  5
E3
330
1F
100
AcDbEntity
  8
0
  6
CONTINUOUS
 62
     7
100
AcDbLine
 10
270.6531151447
 20
526.6327572671
 30
0.0
 11
225.6531133565
 21
526.6327572671
 31
0.0
  0
LINE
  5
E4
330
1F
100
AcDbEntity
  8
0
  6
CONTINUOUS
 62
     7
100
AcDbLine
 10
107.6531126413
 20
586.132758638
 30
0.0
 11
107.6531126413
 21
641.7327573208
 31
0.0
  0
LINE
  5
E5
330
1F
100
AcDbEntity
  8
0
  6
CONTINUOUS
 62
     7
100
AcDbLine
 10
107.8531123015
 20
641.9327607063
 30
0.0
 11
107.8531123015
 21
585.9327571151
 31
0.0
  0
LINE
  5
E6
330
1F
100
AcDbEntity
  8
0
  6
CONTINUOUS
 62
     7
100
AcDbLine
 10
109.2166393313
 20
582.932758486
 30
0.0
 11
109.2166393313
 21
644.9327593354
 31
0.0
  0
LINE
  5
E7
330
1F
100
AcDbEntity
  8
0
  6
CONTINUOUS
 62
     7
100
AcDbLine
 10
136.0166385087
 20
582.932758486
 30
0.0
 11
136.0166385087
 21
644.9327593354
 31
0.0
  0
LINE
  5
E8
330
1F
100
AcDbEntity
  8
0
  6
CONTINUOUS
 62
     7
100
AcDbLine
 10
136.2166418943
 20
644.7327559499
 30
0.0
 11
136.2166418943
 21
583.1327581463
 31
0.0
  0
LINE
  5
E9
330
1F
100
AcDbEntity
  8
0
  6
CONTINUOUS
 62
     7
100
AcDbLine
 10
112.1531143102
 20
483.9327608851
 30
0.0
 11
112.1531143102
 21
543.9327576814
 31
0.0
  0
LINE
  5
EA
330
1F
100
AcDbEntity
  8
0
  6
CONTINUOUS
 62
     7
100
AcDbLine
 10
107.6531126413
 20
483.9327608851
 30
0.0
 11
107.6531126413
 21
543.9327576814
 31
0.0
  0
ARC
  5
EB
330
1F
100
AcDbEntity
  8
0
  6
CONTINUOUS
 62
     7
100
AcDbCircle
 10
270.6531132033
 20
513.9327577857
 30
0.0
 40
12.70000000000005
100
AcDbArc
 50
270.0
 51
90.0
  0
DIMENSION
  5
EC
330
1F
100
AcDbEntity
  8
0
  6
CONTINUOUS
 62
     7
100
AcDbDimension
  2
_D_2
 10
107.8531132033
 20
677.324872924
 30
0.0
 11
123.1269214565
 21
677.324872924
 31
0.0
 70
   160
  1
<>
  3
SLDDIMSTYLE1
100
AcDbAlignedDimension
 13
136.2166395449
 23
644.7327577857
 33
0.0
 14
107.8531132033
 24
641.9327577857
 34
0.0
100
AcDbRotatedDimension
  0
DIMENSION
  5
F9
330
1F
100
AcDbEntity
  8
0
  6
CONTINUOUS
 62
     7
100
AcDbDimension
  2
_D_3
 10
160.6472895178
 20
582.9327577857
 30
0.0
 11
160.6472895178
 21
613.5828635367
 31
0.0
 70
   160
  1
%%c<>
  3
SLDDIMSTYLE0
100
AcDbAlignedDimension
 13
136.0166395449
 23
644.9327577857
 33
0.0
 14
136.0166395449
 24
582.9327577857
 34
0.0
 50
90.0
100
AcDbRotatedDimension
  0
DIMENSION
  5
105
330
1F
100
AcDbEntity
  8
0
  6
CONTINUOUS
 62
     7
100
AcDbDimension
  2
_D_4
 10
112.1531132033
 20
472.370793618
 30
0.0
 11
94.0737180392
 21
472.370793618
 31
0.0
 70
   160
  1
<>
  3
SLDDIMSTYLE1
100
AcDbAlignedDimension
 13
107.6531132033
 23
483.9327577857
 33
0.0
 14
112.1531132033
 24
483.9327577857
 34
0.0
100
AcDbRotatedDimension
  0
DIMENSION
  5
111
330
1F
100
AcDbEntity
  8
0
  6
CONTINUOUS
 62
     7
100
AcDbDimension
  2
_D_5
 10
192.2679482967
 20
501.2327577857
 30
0.0
 11
192.2679482967
 21
478.9988357039
 31
0.0
 70
   160
  1
<>
  3
SLDDIMSTYLE0
100
AcDbAlignedDimension
 13
270.6531132033
 23
526.6327577857
 33
0.0
 14
270.6531132033
 24
501.2327577857
 34
0.0
 50
90.0
100
AcDbRotatedDimension
  0
DIMENSION
  5
11B
330
1F
100
AcDbEntity
  8
0
  6
CONTINUOUS
 62
     7
100
AcDbDimension
  2
_D_6
 10
107.6531132033
 20
562.1334827272
 30
0.0
 11
192.2679482967
 21
562.1334827272
 31
0.0
 70
   160
  1
<>
  3
SLDDIMSTYLE0
100
AcDbAlignedDimension
 13
270.6531132033
 23
516.4327577857
 33
0.0
 14
107.6531132033
 24
543.9327577857
 34
0.0
 50
0.0
100
AcDbRotatedDimension
  0
INSERT
  5
12C
330
1F
100
AcDbEntity
  8
0
  6
CONTINUOUS
 62
     7
100
AcDbBlockReference
  2
SW_CENTERMARKSYMBOL_2
 10
270.6531132033
 20
513.9327577857
 30
0.0
  0
ENDSEC
  0
SECTION
  2
OBJECTS
  0
DICTIONARY
  5
C
330
0
100
AcDbDictionary
  3
ACAD_GROUP
350
D
  3
ACAD_MLINESTYLE
350
17
  3
ACAD_SCALELIST
350
47
  0
DICTIONARY
  5
D
102
{ACAD_REACTORS
330
C
102
}
330
C
100
AcDbDictionary
  0
DICTIONARY
  5
17
102
{ACAD_REACTORS
330
C
102
}
330
C
100
AcDbDictionary
  3
STANDARD
350
18
  0
DICTIONARY
  5
47
102
{ACAD_REACTORS
330
C
102
}
330
C
100
AcDbDictionary
  0
MLINESTYLE
  5
18
102
{ACAD_REACTORS
330
17
102
}
330
17
100
AcDbMlineStyle
  2
Standard
 70
     0
  3

 62
   256
 51
90.0
 52
90.0
 71
     2
 49
0.5
 62
   256
  6
BYLAYER
 49
-0.5
 62
   256
  6
BYLAYER
  0
ENDSEC
  0
EOF
