  0
SECTION
  2
HEADER
  9
$ACADVER
  1
AC1027
  9
$ACADMAINTVER
 70
   125
  9
$DWGCODEPAGE
  3
ANSI_1252
  9
$LASTSAVEDBY
  1
fleminab
  9
$REQUIREDVERSIONS
160
                 0
  9
$INSBASE
 10
0.0
 20
0.0
 30
0.0
  9
$EXTMIN
 10
329.9158512289639
 20
15.96725514620459
 30
-0.0015258207003583
  9
$EXTMAX
 10
504.5853375273408
 20
166.7637638663451
 30
0.0000000349246037
  9
$LIMMIN
 10
0.0
 20
0.0
  9
$LIMMAX
 10
297.0
 20
210.0
  9
$ORTHOMODE
 70
     0
  9
$REGENMODE
 70
     1
  9
$FILLMODE
 70
     1
  9
$QTEXTMODE
 70
     0
  9
$MIRRTEXT
 70
     1
  9
$LTSCALE
 40
1.0
  9
$ATTMODE
 70
     1
  9
$TEXTSIZE
 40
2.5
  9
$TRACEWID
 40
1.0
  9
$TEXTSTYLE
  7
Standard
  9
$CLAYER
  8
0
  9
$CELTYPE
  6
ByLayer
  9
$CECOLOR
 62
   256
  9
$CELTSCALE
 40
1.0
  9
$DISPSILH
 70
     0
  9
$DIMSCALE
 40
1.0
  9
$DIMASZ
 40
2.0
  9
$DIMEXO
 40
1.0
  9
$DIMDLI
 40
3.75
  9
$DIMRND
 40
0.0
  9
$DIMDLE
 40
0.0
  9
$DIMEXE
 40
1.5
  9
$DIMTP
 40
0.0
  9
$DIMTM
 40
0.0
  9
$DIMTXT
 40
2.5
  9
$DIMCEN
 40
2.5
  9
$DIMTSZ
 40
0.0
  9
$DIMTOL
 70
     0
  9
$DIMLIM
 70
     0
  9
$DIMTIH
 70
     1
  9
$DIMTOH
 70
     1
  9
$DIMSE1
 70
     0
  9
$DIMSE2
 70
     0
  9
$DIMTAD
 70
     1
  9
$DIMZIN
 70
     0
  9
$DIMBLK
  1

  9
$DIMASO
 70
     1
  9
$DIMSHO
 70
     1
  9
$DIMPOST
  1

  9
$DIMAPOST
  1

  9
$DIMALT
 70
     0
  9
$DIMALTD
 70
     3
  9
$DIMALTF
 40
0.0393700787401575
  9
$DIMLFAC
 40
1.0
  9
$DIMTOFL
 70
     1
  9
$DIMTVP
 40
0.0
  9
$DIMTIX
 70
     0
  9
$DIMSOXD
 70
     0
  9
$DIMSAH
 70
     0
  9
$DIMBLK1
  1

  9
$DIMBLK2
  1

  9
$DIMSTYLE
  2
ISO-25
  9
$DIMCLRD
 70
     0
  9
$DIMCLRE
 70
     0
  9
$DIMCLRT
 70
     0
  9
$DIMTFAC
 40
1.0
  9
$DIMGAP
 40
1.524
  9
$DIMJUST
 70
     0
  9
$DIMSD1
 70
     0
  9
$DIMSD2
 70
     0
  9
$DIMTOLJ
 70
     0
  9
$DIMTZIN
 70
     0
  9
$DIMALTZ
 70
     0
  9
$DIMALTTZ
 70
     0
  9
$DIMUPT
 70
     0
  9
$DIMDEC
 70
     0
  9
$DIMTDEC
 70
     2
  9
$DIMALTU
 70
     2
  9
$DIMALTTD
 70
     3
  9
$DIMTXSTY
  7
Standard
  9
$DIMAUNIT
 70
     0
  9
$DIMADEC
 70
     2
  9
$DIMALTRND
 40
0.0
  9
$DIMAZIN
 70
     0
  9
$DIMDSEP
 70
    44
  9
$DIMATFIT
 70
     3
  9
$DIMFRAC
 70
     0
  9
$DIMLDRBLK
  1

  9
$DIMLUNIT
 70
     2
  9
$DIMLWD
 70
    -2
  9
$DIMLWE
 70
    -2
  9
$DIMTMOVE
 70
     0
  9
$DIMFXL
 40
1.0
  9
$DIMFXLON
 70
     0
  9
$DIMJOGANG
 40
0.7853981633974483
  9
$DIMTFILL
 70
     0
  9
$DIMTFILLCLR
 70
     0
  9
$DIMARCSYM
 70
     0
  9
$DIMLTYPE
  6

  9
$DIMLTEX1
  6

  9
$DIMLTEX2
  6

  9
$DIMTXTDIRECTION
 70
     0
  9
$LUNITS
 70
     2
  9
$LUPREC
 70
     2
  9
$SKETCHINC
 40
1.0
  9
$FILLETRAD
 40
10.0
  9
$AUNITS
 70
     0
  9
$AUPREC
 70
     2
  9
$MENU
  1
.
  9
$ELEVATION
 40
0.0
  9
$PELEVATION
 40
0.0
  9
$THICKNESS
 40
0.0
  9
$LIMCHECK
 70
     0
  9
$CHAMFERA
 40
10.0
  9
$CHAMFERB
 40
10.0
  9
$CHAMFERC
 40
20.0
  9
$CHAMFERD
 40
0.0
  9
$SKPOLY
 70
     0
  9
$TDCREATE
 40
2456156.447303241
  9
$TDUCREATE
 40
2456156.030647604
  9
$TDUPDATE
 40
2458033.442488426
  9
$TDUUPDATE
 40
2458032.984155093
  9
$TDINDWG
 40
0.0058720486
  9
$TDUSRTIMER
 40
0.0058720486
  9
$USRTIMER
 70
     1
  9
$ANGBASE
 50
0.0
  9
$ANGDIR
 70
     0
  9
$PDMODE
 70
     0
  9
$PDSIZE
 40
-1.0
  9
$PLINEWID
 40
0.0
  9
$SPLFRAME
 70
     0
  9
$SPLINETYPE
 70
     6
  9
$SPLINESEGS
 70
     8
  9
$HANDSEED
  5
3D0
  9
$SURFTAB1
 70
     6
  9
$SURFTAB2
 70
     6
  9
$SURFTYPE
 70
     6
  9
$SURFU
 70
     6
  9
$SURFV
 70
     6
  9
$UCSBASE
  2

  9
$UCSNAME
  2

  9
$UCSORG
 10
0.0
 20
0.0
 30
0.0
  9
$UCSXDIR
 10
1.0
 20
0.0
 30
0.0
  9
$UCSYDIR
 10
0.0
 20
1.0
 30
0.0
  9
$UCSORTHOREF
  2

  9
$UCSORTHOVIEW
 70
     0
  9
$UCSORGTOP
 10
0.0
 20
0.0
 30
0.0
  9
$UCSORGBOTTOM
 10
0.0
 20
0.0
 30
0.0
  9
$UCSORGLEFT
 10
0.0
 20
0.0
 30
0.0
  9
$UCSORGRIGHT
 10
0.0
 20
0.0
 30
0.0
  9
$UCSORGFRONT
 10
0.0
 20
0.0
 30
0.0
  9
$UCSORGBACK
 10
0.0
 20
0.0
 30
0.0
  9
$PUCSBASE
  2

  9
$PUCSNAME
  2

  9
$PUCSORG
 10
0.0
 20
0.0
 30
0.0
  9
$PUCSXDIR
 10
1.0
 20
0.0
 30
0.0
  9
$PUCSYDIR
 10
0.0
 20
1.0
 30
0.0
  9
$PUCSORTHOREF
  2

  9
$PUCSORTHOVIEW
 70
     0
  9
$PUCSORGTOP
 10
0.0
 20
0.0
 30
0.0
  9
$PUCSORGBOTTOM
 10
0.0
 20
0.0
 30
0.0
  9
$PUCSORGLEFT
 10
0.0
 20
0.0
 30
0.0
  9
$PUCSORGRIGHT
 10
0.0
 20
0.0
 30
0.0
  9
$PUCSORGFRONT
 10
0.0
 20
0.0
 30
0.0
  9
$PUCSORGBACK
 10
0.0
 20
0.0
 30
0.0
  9
$USERI1
 70
     0
  9
$USERI2
 70
     0
  9
$USERI3
 70
     0
  9
$USERI4
 70
     0
  9
$USERI5
 70
     0
  9
$USERR1
 40
0.0
  9
$USERR2
 40
0.0
  9
$USERR3
 40
0.0
  9
$USERR4
 40
0.0
  9
$USERR5
 40
0.0
  9
$WORLDVIEW
 70
     1
  9
$SHADEDGE
 70
     3
  9
$SHADEDIF
 70
    70
  9
$TILEMODE
 70
     1
  9
$MAXACTVP
 70
    64
  9
$PINSBASE
 10
0.0
 20
0.0
 30
0.0
  9
$PLIMCHECK
 70
     0
  9
$PEXTMIN
 10
1.000000000000000E+20
 20
1.000000000000000E+20
 30
1.000000000000000E+20
  9
$PEXTMAX
 10
-1.000000000000000E+20
 20
-1.000000000000000E+20
 30
-1.000000000000000E+20
  9
$PLIMMIN
 10
0.0
 20
0.0
  9
$PLIMMAX
 10
420.0
 20
297.0
  9
$UNITMODE
 70
     0
  9
$VISRETAIN
 70
     1
  9
$PLINEGEN
 70
     0
  9
$PSLTSCALE
 70
     1
  9
$TREEDEPTH
 70
  3020
  9
$CMLSTYLE
  2
Standard
  9
$CMLJUST
 70
     0
  9
$CMLSCALE
 40
20.0
  9
$PROXYGRAPHICS
 70
     1
  9
$MEASUREMENT
 70
     1
  9
$CELWEIGHT
370
    -1
  9
$ENDCAPS
280
     0
  9
$JOINSTYLE
280
     0
  9
$LWDISPLAY
290
     1
  9
$INSUNITS
 70
     4
  9
$HYPERLINKBASE
  1

  9
$STYLESHEET
  1

  9
$XEDIT
290
     1
  9
$CEPSNTYPE
380
     0
  9
$PSTYLEMODE
290
     1
  9
$FINGERPRINTGUID
  2
{54E748F2-D831-4716-9FA1-6D44326BE136}
  9
$VERSIONGUID
  2
{F889BA36-DE2B-6743-98F8-4546315CB6F0}
  9
$EXTNAMES
290
     1
  9
$PSVPSCALE
 40
0.0
  9
$OLESTARTUP
290
     0
  9
$SORTENTS
280
   127
  9
$INDEXCTL
280
     1
  9
$HIDETEXT
280
     0
  9
$XCLIPFRAME
280
     0
  9
$HALOGAP
280
     0
  9
$OBSCOLOR
 70
   257
  9
$OBSLTYPE
280
     0
  9
$INTERSECTIONDISPLAY
280
     0
  9
$INTERSECTIONCOLOR
 70
   257
  9
$DIMASSOC
280
     1
  9
$PROJECTNAME
  1

  9
$CAMERADISPLAY
290
     0
  9
$LENSLENGTH
 40
50.0
  9
$CAMERAHEIGHT
 40
0.0
  9
$STEPSPERSEC
 40
2.0
  9
$STEPSIZE
 40
6.0
  9
$3DDWFPREC
 40
2.0
  9
$PSOLWIDTH
 40
0.25
  9
$PSOLHEIGHT
 40
4.0
  9
$LOFTANG1
 40
1.570796326794896
  9
$LOFTANG2
 40
1.570796326794896
  9
$LOFTMAG1
 40
0.0
  9
$LOFTMAG2
 40
0.0
  9
$LOFTPARAM
 70
     7
  9
$LOFTNORMALS
280
     1
  9
$LATITUDE
 40
37.795
  9
$LONGITUDE
 40
-122.394
  9
$NORTHDIRECTION
 40
0.0
  9
$TIMEZONE
 70
 -8000
  9
$LIGHTGLYPHDISPLAY
280
     1
  9
$TILEMODELIGHTSYNCH
280
     1
  9
$CMATERIAL
347
34D
  9
$SOLIDHIST
280
     0
  9
$SHOWHIST
280
     1
  9
$DWFFRAME
280
     2
  9
$DGNFRAME
280
     0
  9
$REALWORLDSCALE
290
     1
  9
$INTERFERECOLOR
 62
     1
  9
$INTERFEREOBJVS
345
36F
  9
$INTERFEREVPVS
346
36C
  9
$CSHADOW
280
     0
  9
$SHADOWPLANELOCATION
 40
0.0
  0
ENDSEC
  0
SECTION
  2
CLASSES
  0
CLASS
  1
ACDBDICTIONARYWDFLT
  2
AcDbDictionaryWithDefault
  3
ObjectDBX Classes
 90
        0
 91
        1
280
     0
281
     0
  0
CLASS
  1
VISUALSTYLE
  2
AcDbVisualStyle
  3
ObjectDBX Classes
 90
     4095
 91
       24
280
     0
281
     0
  0
CLASS
  1
MATERIAL
  2
AcDbMaterial
  3
ObjectDBX Classes
 90
     1153
 91
        3
280
     0
281
     0
  0
CLASS
  1
ACDBPLACEHOLDER
  2
AcDbPlaceHolder
  3
ObjectDBX Classes
 90
        0
 91
        1
280
     0
281
     0
  0
CLASS
  1
LAYOUT
  2
AcDbLayout
  3
ObjectDBX Classes
 90
        0
 91
        3
280
     0
281
     0
  0
CLASS
  1
SCALE
  2
AcDbScale
  3
ObjectDBX Classes
 90
     1153
 91
       99
280
     0
281
     0
  0
CLASS
  1
ACME_DOCUMENT
  2
AcMeDbDoc
  3
AcMeServices
 90
        0
 91
        0
280
     0
281
     0
  0
CLASS
  1
AMGSETTINGSOBJ
  2
AmgSettingsObj
  3
"AcadM|Product Description: AutoCAD Mechanical 2000|Company: Autodesk"
 90
        0
 91
        2
280
     0
281
     0
  0
CLASS
  1
ACMESCOPE
  2
AcMeScope
  3
AcMeServices
 90
        0
 91
        1
280
     0
281
     0
  0
CLASS
  1
ACMECOMMANDHISTORY
  2
AcMeCommandHistory
  3
AcMeServices
 90
        0
 91
        1
280
     0
281
     0
  0
CLASS
  1
ACIMSYSVARMAN
  2
AcImSysVarManager
  3
AcMeServices
 90
        0
 91
        5
280
     0
281
     0
  0
CLASS
  1
ACIMINTSYSVAR
  2
AcImIntSysVar
  3
AcMeServices
 90
        0
 91
       26
280
     0
281
     0
  0
CLASS
  1
ACMEDRAWINGMAN
  2
AcMeDrawingMan
  3
AcMeServices
 90
        0
 91
        1
280
     0
281
     0
  0
CLASS
  1
ACMEVIEW
  2
AcMeView
  3
AcMeServices
 90
        0
 91
        1
280
     0
281
     0
  0
CLASS
  1
ACDBENTITYCACHE
  2
AcMeEntityCache
  3
AcMeServices
 90
        0
 91
        0
280
     0
281
     0
  0
CLASS
  1
GSMANAGER
  2
AcMeGSManager
  3
AcMeServices
 90
        0
 91
        0
280
     0
281
     0
  0
CLASS
  1
AMDTINTERNALREACTOR
  2
AmdtInternalReactor
  3
AcMeServices
 90
        0
 91
        0
280
     0
281
     0
  0
CLASS
  1
ACMESTATEMGR
  2
AcMeStateMgr
  3
AcMeServices
 90
        0
 91
        1
280
     0
281
     0
  0
CLASS
  1
ACGREFMASTER
  2
AcGrefMaster
  3
AcAttribServices
 90
        0
 91
        1
280
     0
281
     0
  0
CLASS
  1
AM_DRAWING_MGR
  2
AcDmDwgMgr
  3
AcMechDwgViewMgmt
 90
        0
 91
        1
280
     0
281
     0
  0
CLASS
  1
AM_DWG_DOCUMENT
  2
AcDmDwgDocument
  3
AcMechDwgViewMgmt
 90
        0
 91
        1
280
     0
281
     0
  0
CLASS
  1
AM_DWG_SHEET
  2
AcDmSheet
  3
AcMechDwgViewMgmt
 90
        0
 91
        2
280
     0
281
     0
  0
CLASS
  1
AM_VIEWDIMPARMAP
  2
AcDmViewDimParMap
  3
AcMechDwgViewMgmt
 90
        0
 91
        2
280
     0
281
     0
  0
CLASS
  1
ACIMREALSYSVAR
  2
AcImRealSysVar
  3
AcMeServices
 90
        0
 91
        1
280
     0
281
     0
  0
CLASS
  1
AM_DWGMGR_NAME
  2
AcDmDwgMgrName
  3
AcMechDwgViewMgmt
 90
        0
 91
        1
280
     0
281
     0
  0
CLASS
  1
ACME_DATABASE
  2
AcMeDbDatabase
  3
AcMeServices
 90
        0
 91
        0
280
     0
281
     0
  0
CLASS
  1
ACRFINSADJUSTERMGR
  2
AcRfInsAdjusterMgr
  3
AcMeServices
 90
        0
 91
        0
280
     0
281
     0
  0
CLASS
  1
ACGREFACADMASTER
  2
AcGrefacadMaster
  3
AcGrefServices
 90
        0
 91
        1
280
     0
281
     0
  0
CLASS
  1
AMDTMENUSTATEMGR
  2
AmdtMenuStateMgr
  3
McadcomServices
 90
        0
 91
        0
280
     0
281
     0
  0
CLASS
  1
AMDTMCOMMENUSTATE
  2
AmdtMcomMenuState
  3
McadcomServices
 90
        0
 91
        0
280
     0
281
     0
  0
CLASS
  1
AMIMASTER
  2
AmiMaster
  3
AmiServices
 90
        0
 91
        1
280
     0
281
     0
  0
CLASS
  1
MAPIAMMOUDLE
  2
MApiAmModule
  3
MApiAmServices
 90
        0
 91
        1
280
     0
281
     0
  0
CLASS
  1
AMDTADMENUSTATE
  2
AmdtAdMenuState
  3
DesignerServices
 90
        0
 91
        0
280
     0
281
     0
  0
CLASS
  1
ADAPPL
  2
AcAdAppl
  3
DesignerServices
 90
        0
 91
        1
280
     0
281
     0
  0
CLASS
  1
DEPMGR
  2
AcAdDepMgr
  3
DesignerServices
 90
        0
 91
        1
280
     0
281
     0
  0
CLASS
  1
PARAMMGR
  2
AcAdParamMgr
  3
DesignerServices
 90
        0
 91
        1
280
     0
281
     0
  0
CLASS
  1
PARAMSCOPE
  2
AcAdParamScope
  3
DesignerServices
 90
        0
 91
        1
280
     0
281
     0
  0
CLASS
  1
NAMEDAPPL
  2
AcAdNamedAppl
  3
DesignerServices
 90
        0
 91
        1
280
     0
281
     0
  0
CLASS
  1
AMDTDMMENUSTATE
  2
AmdtDmMenuState
  3
AcMechDwgViewMgmt
 90
        0
 91
        0
280
     0
281
     0
  0
CLASS
  1
AMDTAMMENUSTATE
  2
AmdtAmMenuState
  3
DesignerAssemblies
 90
        0
 91
        0
280
     0
281
     0
  0
CLASS
  1
ACIMSTRSYSVAR
  2
AcImStrSysVar
  3
AcMeServices
 90
        0
 91
        5
280
     0
281
     0
  0
CLASS
  1
ACAMPROJECT
  2
AcAmProject
  3
DesignerAssemblies
 90
        0
 91
        1
280
     0
281
     0
  0
CLASS
  1
ACAMGRCOMPDEF
  2
AcAmGrCompDef
  3
DesignerAssemblies
 90
        0
 91
        1
280
     0
281
     0
  0
CLASS
  1
ACCMCONTEXT
  2
AcCmContext
  3
DesignerAssemblies
 90
        0
 91
        1
280
     0
281
     0
  0
CLASS
  1
ACAMCOMPDEF
  2
AcAmCompDef
  3
DesignerAssemblies
 90
        0
 91
        1
280
     0
281
     0
  0
CLASS
  1
ACAMCOMPDEFMGR
  2
AcAmCompDefMgr
  3
DesignerAssemblies
 90
        0
 91
        1
280
     0
281
     0
  0
CLASS
  1
AMCONTEXTMGR
  2
AcAmContextMgr
  3
DesignerAssemblies
 90
        0
 91
        1
280
     0
281
     0
  0
CLASS
  1
ACAMCONTEXTMODELER
  2
AcAmContextModeler
  3
DesignerAssemblies
 90
        0
 91
        1
280
     0
281
     0
  0
CLASS
  1
ACMDATADICTIONARY
  2
AcmDataDictionary
  3
"AcmSymBB|Product Description: AutoCAD Mechanical 2004 DX|Company: Autodesk"
 90
        0
 91
        1
280
     0
281
     0
  0
CLASS
  1
CATALOGSTATE
  2
AcAmCatalogState
  3
DesignerAssemblies
 90
        0
 91
        1
280
     0
281
     0
  0
CLASS
  1
ACAMGRCOMPDEFSET
  2
AcAmGrCompDefSet
  3
DesignerAssemblies
 90
        0
 91
        0
280
     0
281
     0
  0
CLASS
  1
AMDTBROWSERDBTAB
  2
AmdtBrowserDbTab
  3
McadcomServices
 90
        0
 91
        0
280
     0
281
     0
  0
CLASS
  1
CBROWSERAPPOBJECT
  2
CBrowserAppObject
  3
McadcomServices
 90
        0
 91
        0
280
     0
281
     0
  0
CLASS
  1
DM_PLACEHOLDER
  2
AcDmSelsetPlaceholder
  3
AcMechDwgViewMgmt
 90
        0
 91
        0
280
     0
281
     0
  0
CLASS
  1
ACMSTANDARDISO
  2
AcmStandardISO
  3
"Amdt_StdImp|Product Description: AutoCAD Mechanical 2004 DX|Company: Autodesk"
 90
        0
 91
        1
280
     0
281
     0
  0
CLASS
  1
AMGOBJPROPCFG
  2
AmgObjPropCfg
  3
"AmgLay|Product Description: AutoCAD Mechanical 2000|Company: Autodesk"
 90
        1
 91
        1
280
     0
281
     0
  0
CLASS
  1
AMDTEDGESTANDARDISO
  2
AmdtEdgeStdISO
  3
"Amdt_StdImp|Product Description: AutoCAD Mechanical 2004 DX|Company: Autodesk"
 90
        0
 91
        1
280
     0
281
     0
  0
CLASS
  1
ACMSURFSTANDARDISO
  2
AcmSurfTextStdISO
  3
"Amdt_StdImp|Product Description: AutoCAD Mechanical 2004 DX|Company: Autodesk"
 90
        0
 91
        1
280
     0
281
     0
  0
CLASS
  1
ACMFCFSTANDARDISO
  2
AcmFCFStdISO
  3
"Amdt_StdImp|Product Description: AutoCAD Mechanical 2004 DX|Company: Autodesk"
 90
        0
 91
        1
280
     0
281
     0
  0
CLASS
  1
ACMWELDSTANDARDISO
  2
AcmWeldingStdISO
  3
"Amdt_StdImp|Product Description: AutoCAD Mechanical 2004 DX|Company: Autodesk"
 90
        0
 91
        1
280
     0
281
     0
  0
CLASS
  1
ACMIDSTANDARDISO
  2
AcmIdStdISO
  3
"Amdt_StdImp|Product Description: AutoCAD Mechanical 2004 DX|Company: Autodesk"
 90
        0
 91
        1
280
     0
281
     0
  0
CLASS
  1
ACMDATUMSTANDARDISO
  2
AcmDatumStdISO
  3
"Amdt_StdImp|Product Description: AutoCAD Mechanical 2004 DX|Company: Autodesk"
 90
        0
 91
        1
280
     0
281
     0
  0
CLASS
  1
ACMBOMSTANDARDISO
  2
AcmBOMStdISO
  3
"Amdt_StdImp|Product Description: AutoCAD Mechanical 2004 DX|Company: Autodesk"
 90
        0
 91
        1
280
     0
281
     0
  0
CLASS
  1
ACMDETAILSTANDARDISO
  2
AmdtDetailSymStdISO
  3
"Amdt_StdImp|Product Description: AutoCAD Mechanical 2004 DX|Company: Autodesk"
 90
        0
 91
        1
280
     0
281
     0
  0
CLASS
  1
ACMSECTIONSTANDARDISO
  2
AmdtSectionSymStdISO
  3
"Amdt_StdImp|Product Description: AutoCAD Mechanical 2004 DX|Company: Autodesk"
 90
        0
 91
        1
280
     0
281
     0
  0
CLASS
  1
ACMCENTERLINESTANDARDISO
  2
AmdtCenterLineStdISO
  3
"Amdt_StdImp|Product Description: AutoCAD Mechanical 2004 DX|Company: Autodesk"
 90
        0
 91
        1
280
     0
281
     0
  0
CLASS
  1
ACMTHREADLINESTANDARDISO
  2
AmdtThreadLineStdISO
  3
"Amdt_StdImp|Product Description: AutoCAD Mechanical 2004 DX|Company: Autodesk"
 90
        0
 91
        1
280
     0
281
     0
  0
CLASS
  1
ACMNOTESTANDARDISO
  2
AmdtNoteStdISO
  3
"Amdt_StdImp|Product Description: AutoCAD Mechanical 2004 DX|Company: Autodesk"
 90
        0
 91
        1
280
     0
281
     0
  0
CLASS
  1
AMDTNOTETEMPLATEDB
  2
AmdtNoteTemplateDB
  3
AMDT_STDIMP_MODULE_NAME
 90
        0
 91
        4
280
     0
281
     0
  0
CLASS
  1
ACAMGLAYSTD
  2
AcAmgLayStd
  3
"AcAmgLayStd|Product Description: AutoCAD Mechanical 2000|Company: Autodesk"
 90
        0
 91
        1
280
     0
281
     0
  0
CLASS
  1
ACAMGDIMSTD
  2
AcAmgDimStd
  3
"AcAmgDimStd|Product Description: AutoCAD Mechanical 2000|Company: Autodesk"
 90
        0
 91
        1
280
     0
281
     0
  0
CLASS
  1
ACAMGHOLECHARTSTDISO
  2
AcAmgHoleChartStdISO
  3
ACMSYMBB_MODULE_NAME
 90
        0
 91
        1
280
     0
281
     0
  0
CLASS
  1
ACAMGTITLESTD
  2
AcAmgTitleStd
  3
"TITLEAPP"
 90
        0
 91
        1
280
     0
281
     0
  0
CLASS
  1
ACAMGFILTERDAT
  2
AcAmgFilterDat
  3
"AcadM|Product Description: AutoCAD Mechanical 2000|Company: Autodesk"
 90
        0
 91
        6
280
     0
281
     0
  0
CLASS
  1
LAYER_INDEX
  2
AcDbLayerIndex
  3
ObjectDBX Classes
 90
        0
 91
        1
280
     0
281
     0
  0
CLASS
  1
IDBUFFER
  2
AcDbIdBuffer
  3
ObjectDBX Classes
 90
        0
 91
       16
280
     0
281
     0
  0
CLASS
  1
TABLESTYLE
  2
AcDbTableStyle
  3
ObjectDBX Classes
 90
     4095
 91
        1
280
     0
281
     0
  0
CLASS
  1
MLEADERSTYLE
  2
AcDbMLeaderStyle
  3
ACDB_MLEADERSTYLE_CLASS
 90
     4095
 91
        1
280
     0
281
     0
  0
CLASS
  1
ACDBSECTIONVIEWSTYLE
  2
AcDbSectionViewStyle
  3
ObjectDBX Classes
 90
     1025
 91
        1
280
     0
281
     0
  0
CLASS
  1
ACDBDETAILVIEWSTYLE
  2
AcDbDetailViewStyle
  3
ObjectDBX Classes
 90
     1025
 91
        1
280
     0
281
     0
  0
CLASS
  1
DICTIONARYVAR
  2
AcDbDictionaryVar
  3
ObjectDBX Classes
 90
        0
 91
       18
280
     0
281
     0
  0
CLASS
  1
CELLSTYLEMAP
  2
AcDbCellStyleMap
  3
ObjectDBX Classes
 90
     1152
 91
        1
280
     0
281
     0
  0
ENDSEC
  0
SECTION
  2
TABLES
  0
TABLE
  2
VPORT
  5
8
330
0
100
AcDbSymbolTable
 70
     1
1001
ACAD
1000
DbSaveVer
1071
        5
  0
VPORT
  5
34B
330
8
100
AcDbSymbolTableRecord
100
AcDbViewportTableRecord
  2
*Active
 70
     0
 10
0.0
 20
0.0
 11
1.0
 21
1.0
 12
417.2505943781524
 22
91.36550950627485
 13
0.0
 23
0.0
 14
10.0
 24
10.0
 15
10.0
 25
10.0
 16
0.0
 26
0.0
 36
1.0
 17
0.0
 27
0.0
 37
0.0
 40
151.8761973267286
 41
2.292712066905615
 42
50.0
 43
0.0
 44
0.0
 50
0.0
 51
0.0
 71
     0
 72
  2000
 73
     1
 74
     3
 75
     0
 76
     0
 77
     0
 78
     0
281
     0
 65
     1
110
0.0
120
0.0
130
0.0
111
1.0
121
0.0
131
0.0
112
0.0
122
1.0
132
0.0
 79
     0
146
0.0
348
36B
 60
     3
 61
     5
292
     1
282
     1
141
0.0
142
0.0
 63
   250
421
  3355443
1001
ACAD_NAV_VCDISPLAY
1070
     3
  0
ENDTAB
  0
TABLE
  2
LTYPE
  5
5
330
0
100
AcDbSymbolTable
 70
    17
  0
LTYPE
  5
14
330
5
100
AcDbSymbolTableRecord
100
AcDbLinetypeTableRecord
  2
ByBlock
 70
     0
  3

 72
    65
 73
     0
 40
0.0
  0
LTYPE
  5
15
330
5
100
AcDbSymbolTableRecord
100
AcDbLinetypeTableRecord
  2
ByLayer
 70
     0
  3

 72
    65
 73
     0
 40
0.0
  0
LTYPE
  5
16
330
5
100
AcDbSymbolTableRecord
100
AcDbLinetypeTableRecord
  2
Continuous
 70
     0
  3
Solid line
 72
    65
 73
     0
 40
0.0
  0
LTYPE
  5
3F
330
5
100
AcDbSymbolTableRecord
100
AcDbLinetypeTableRecord
  2
HIDDEN
 70
     0
  3
Hidden __ __ __ __ __ __ __ __ __ __ __ __ __ __
 72
    65
 73
     2
 40
1.905
 49
1.27
 74
     0
 49
-0.635
 74
     0
  0
LTYPE
  5
40
330
5
100
AcDbSymbolTableRecord
100
AcDbLinetypeTableRecord
  2
PHANTOM
 70
     0
  3
Phantom ______  __  __  ______  __  __  ______
 72
    65
 73
     6
 40
12.7
 49
6.349999999999999
 74
     0
 49
-1.27
 74
     0
 49
1.27
 74
     0
 49
-1.27
 74
     0
 49
1.27
 74
     0
 49
-1.27
 74
     0
  0
LTYPE
  5
41
330
5
100
AcDbSymbolTableRecord
100
AcDbLinetypeTableRecord
  2
CENTER
 70
     0
  3
Center ____ _ ____ _ ____ _ ____ _ ____ _ ____
 72
    65
 73
     4
 40
10.16
 49
6.349999999999999
 74
     0
 49
-1.27
 74
     0
 49
1.27
 74
     0
 49
-1.27
 74
     0
  0
LTYPE
  5
42
330
5
100
AcDbSymbolTableRecord
100
AcDbLinetypeTableRecord
  2
CENTERX2
 70
     0
  3
Center (2x) ________  __  ________  __  _____
 72
    65
 73
     4
 40
20.32
 49
12.7
 74
     0
 49
-2.54
 74
     0
 49
2.54
 74
     0
 49
-2.54
 74
     0
  0
LTYPE
  5
43
330
5
100
AcDbSymbolTableRecord
100
AcDbLinetypeTableRecord
  2
DOT2
 70
     0
  3
Dot (.5x) ........................................
 72
    65
 73
     2
 40
0.635
 49
0.0
 74
     0
 49
-0.635
 74
     0
  0
LTYPE
  5
233
330
5
100
AcDbSymbolTableRecord
100
AcDbLinetypeTableRecord
  2
PHANTOM2
 70
     0
  3
Phantom (.5x) ___ _ _ ___ _ _ ___ _ _ ___ _ _
 72
    65
 73
     6
 40
31.75
 49
15.875
 74
     0
 49
-3.174999999999999
 74
     0
 49
3.174999999999999
 74
     0
 49
-3.174999999999999
 74
     0
 49
3.174999999999999
 74
     0
 49
-3.174999999999999
 74
     0
  0
LTYPE
  5
27A
330
5
100
AcDbSymbolTableRecord
100
AcDbLinetypeTableRecord
  2
AM_ISO02W050
 70
     0
  3
__ __ __ __ __ __ __ __ __ __ __ __ __ __ __
 72
    65
 73
     2
 40
7.5
 49
6.0
 74
     0
 49
-1.5
 74
     0
  0
LTYPE
  5
27B
330
5
100
AcDbSymbolTableRecord
100
AcDbLinetypeTableRecord
  2
AM_ISO08W050
 70
     0
  3
____ . ____ . ____ . ____ . ____ . ____ . ____
 72
    65
 73
     4
 40
18.0
 49
12.0
 74
     0
 49
-1.5
 74
     0
 49
3.0
 74
     0
 49
-1.5
 74
     0
  0
LTYPE
  5
27C
330
5
100
AcDbSymbolTableRecord
100
AcDbLinetypeTableRecord
  2
AM_ISO09W050
 70
     0
  3
_____ . . _____ . . _____ . . ____ .. ____
 72
    65
 73
     6
 40
22.5
 49
12.0
 74
     0
 49
-1.5
 74
     0
 49
3.0
 74
     0
 49
-1.5
 74
     0
 49
3.0
 74
     0
 49
-1.5
 74
     0
  0
LTYPE
  5
27D
330
5
100
AcDbSymbolTableRecord
100
AcDbLinetypeTableRecord
  2
Amconstr
 70
     0
  3
_______________________
 72
    65
 73
     2
 40
9999.0
 49
9999.0
 74
     0
 49
0.0
 74
     0
  0
LTYPE
  5
27E
330
5
100
AcDbSymbolTableRecord
100
AcDbLinetypeTableRecord
  2
AM_ISO08W050x2
 70
     0
  3
__ . __ . __ . __ . __ . __
 72
    65
 73
     4
 40
9.0
 49
6.0
 74
     0
 49
-0.75
 74
     0
 49
1.5
 74
     0
 49
-0.75
 74
     0
  0
LTYPE
  5
27F
330
5
100
AcDbSymbolTableRecord
100
AcDbLinetypeTableRecord
  2
AM_ISO02W050x2
 70
     0
  3
 _ _ _ _ _ _ _ _ _ _ _ _
 72
    65
 73
     2
 40
3.75
 49
3.0
 74
     0
 49
-0.75
 74
     0
  0
LTYPE
  5
282
330
5
100
AcDbSymbolTableRecord
100
AcDbLinetypeTableRecord
  2
Amzigzag
 70
     0
  3
/\/-/\/-/\/-/\/-/\/-/\/
 72
    65
 73
     2
 40
11.0001
 49
0.0001
 74
     4
 75
   135
340
281
 46
0.04
 50
0.0
 44
0.0
 45
0.0
 49
-11.0
 74
     0
  0
LTYPE
  5
291
330
5
100
AcDbSymbolTableRecord
100
AcDbLinetypeTableRecord
  2
ACISOWELD
 70
     0
  3
_ _ _ _ _
 72
    65
 73
     2
 40
2.0
 49
2.0
 74
     0
 49
-1.0
 74
     0
  0
LTYPE
  5
292
330
5
100
AcDbSymbolTableRecord
100
AcDbLinetypeTableRecord
  2
ACISOTGB
 70
     0
  3
__ . . __ . .
 72
    65
 73
     6
 40
9.0
 49
4.0
 74
     0
 49
-1.0
 74
     0
 49
1.0
 74
     0
 49
-1.0
 74
     0
 49
1.0
 74
     0
 49
-1.0
 74
     0
  0
LTYPE
  5
293
330
5
100
AcDbSymbolTableRecord
100
AcDbLinetypeTableRecord
  2
ACISOTGL
 70
     0
  3
_ _ _ _ _
 72
    65
 73
     2
 40
3.0
 49
2.0
 74
     0
 49
-1.0
 74
     0
  0
ENDTAB
  0
TABLE
  2
LAYER
  5
2
330
0
100
AcDbSymbolTable
 70
    16
  0
LAYER
  5
10
102
{ACAD_XDICTIONARY
360
391
102
}
330
2
100
AcDbSymbolTableRecord
100
AcDbLayerTableRecord
  2
0
 70
     0
 62
     7
  6
Continuous
370
    -3
390
F
347
35D
348
0
  0
LAYER
  5
44
102
{ACAD_XDICTIONARY
360
393
102
}
330
2
100
AcDbSymbolTableRecord
100
AcDbLayerTableRecord
  2
FORMAT
 70
     0
 62
     7
  6
Continuous
370
    -3
390
F
347
35D
348
0
  0
LAYER
  5
45
102
{ACAD_XDICTIONARY
360
395
102
}
330
2
100
AcDbSymbolTableRecord
100
AcDbLayerTableRecord
  2
SLD-0
 70
     0
 62
   179
  6
Continuous
370
    -3
390
F
347
35D
348
0
  0
LAYER
  5
46
102
{ACAD_XDICTIONARY
360
397
102
}
330
2
100
AcDbSymbolTableRecord
100
AcDbLayerTableRecord
  2
AM_5
 70
     0
 62
     3
  6
Continuous
370
    15
390
F
347
35D
348
0
  0
LAYER
  5
47
102
{ACAD_XDICTIONARY
360
399
102
}
330
2
100
AcDbSymbolTableRecord
100
AcDbLayerTableRecord
  2
AM_PAREF
 70
     0
 62
     4
  6
Continuous
370
    15
390
F
347
35D
348
0
  0
LAYER
  5
48
102
{ACAD_XDICTIONARY
360
39B
102
}
330
2
100
AcDbSymbolTableRecord
100
AcDbLayerTableRecord
  2
双点划线
 70
     0
 62
     5
  6
PHANTOM
370
    -3
390
F
347
35D
348
0
1001
AcadStringInfo
1000
MIFCodePage
1070
     5
  0
LAYER
  5
49
102
{ACAD_XDICTIONARY
360
39D
102
}
330
2
100
AcDbSymbolTableRecord
100
AcDbLayerTableRecord
  2
虚线
 70
     0
 62
     6
  6
HIDDEN
370
    -3
390
F
347
35D
348
0
1001
AcadStringInfo
1000
MIFCodePage
1070
     5
  0
LAYER
  5
4A
102
{ACAD_XDICTIONARY
360
39F
102
}
330
2
100
AcDbSymbolTableRecord
100
AcDbLayerTableRecord
  2
AM_0
 70
     0
 62
   179
  6
Continuous
370
    40
390
F
347
35D
348
0
  0
LAYER
  5
4B
102
{ACAD_XDICTIONARY
360
3A1
102
}
330
2
100
AcDbSymbolTableRecord
100
AcDbLayerTableRecord
  2
AM_0N
 70
     0
 62
   179
  6
Continuous
370
    40
390
F
347
35D
348
0
  0
LAYER
  5
4C
102
{ACAD_XDICTIONARY
360
3A3
102
}
330
2
100
AcDbSymbolTableRecord
100
AcDbLayerTableRecord
  2
AM_3N
 70
     0
 62
     6
  6
Continuous
370
    15
390
F
347
35D
348
0
  0
LAYER
  5
4D
102
{ACAD_XDICTIONARY
360
3A5
102
}
330
2
100
AcDbSymbolTableRecord
100
AcDbLayerTableRecord
  2
AM_4N
 70
     0
 62
     3
  6
Continuous
370
    15
390
F
347
35D
348
0
  0
LAYER
  5
4E
102
{ACAD_XDICTIONARY
360
3A7
102
}
330
2
100
AcDbSymbolTableRecord
100
AcDbLayerTableRecord
  2
AM_12N
 70
     0
 62
   179
  6
Continuous
370
    40
390
F
347
35D
348
0
  0
LAYER
  5
4F
102
{ACAD_XDICTIONARY
360
3A9
102
}
330
2
100
AcDbSymbolTableRecord
100
AcDbLayerTableRecord
  2
AM_7
 70
     0
 62
     4
  6
Continuous
370
    15
390
F
347
35D
348
0
  0
LAYER
  5
50
102
{ACAD_XDICTIONARY
360
3AB
102
}
330
2
100
AcDbSymbolTableRecord
100
AcDbLayerTableRecord
  2
CONFIDENTIAL
 70
     0
 62
    -4
  6
Continuous
370
    -3
390
F
347
35D
348
0
  0
LAYER
  5
51
102
{ACAD_XDICTIONARY
360
3AD
102
}
330
2
100
AcDbSymbolTableRecord
100
AcDbLayerTableRecord
  2
AM_12
 70
     0
 62
   179
  6
Continuous
370
    40
390
F
347
35D
348
0
  0
LAYER
  5
2C1
330
2
100
AcDbSymbolTableRecord
100
AcDbLayerTableRecord
  2
Defpoints
 70
     0
 62
     7
  6
Continuous
290
     0
370
    -3
390
F
347
35D
348
0
  0
ENDTAB
  0
TABLE
  2
STYLE
  5
3
330
0
100
AcDbSymbolTable
 70
     8
  0
STYLE
  5
11
330
3
100
AcDbSymbolTableRecord
100
AcDbTextStyleTableRecord
  2
Standard
 70
     0
 40
0.0
 41
1.0
 50
0.0
 71
     0
 42
2.5
  3
txt
  4

  0
STYLE
  5
88
330
3
100
AcDbSymbolTableRecord
100
AcDbTextStyleTableRecord
  2
SLDTEXTSTYLE0
 70
     0
 40
0.0
 41
0.75
 50
0.0
 71
     0
 42
0.2
  3
TXT
  4
bigfont
  0
STYLE
  5
8A
330
3
100
AcDbSymbolTableRecord
100
AcDbTextStyleTableRecord
  2
SLDTEXTSTYLE1
 70
     0
 40
0.0
 41
0.75
 50
0.0
 71
     0
 42
0.2
  3
TXT
  4

  0
STYLE
  5
9B
330
3
100
AcDbSymbolTableRecord
100
AcDbTextStyleTableRecord
  2
SLDTEXTSTYLE2
 70
     0
 40
0.0
 41
0.7
 50
0.0
 71
     0
 42
0.2
  3
TXT
  4
bigfont
  0
STYLE
  5
12E
330
3
100
AcDbSymbolTableRecord
100
AcDbTextStyleTableRecord
  2
SLDTEXTSTYLE3
 70
     0
 40
0.0
 41
0.65
 50
0.0
 71
     0
 42
0.2
  3
TXT
  4
bigfont
  0
STYLE
  5
281
330
3
100
AcDbSymbolTableRecord
100
AcDbTextStyleTableRecord
  2

 70
     1
 40
0.0
 41
1.0
 50
0.0
 71
     0
 42
2.5
  3
ltypeshp.shx
  4

  0
STYLE
  5
283
330
3
100
AcDbSymbolTableRecord
100
AcDbTextStyleTableRecord
  2
ACISOTS
 70
     0
 40
1.0
 41
1.0
 50
0.0
 71
     0
 42
2.5
  3
isocp.shx
  4
gbcbig.shx
  0
STYLE
  5
290
330
3
100
AcDbSymbolTableRecord
100
AcDbTextStyleTableRecord
  2
ACISOGDT
 70
     0
 40
0.0
 41
1.0
 50
0.0
 71
     0
 42
2.5
  3
amgdt.shx
  4

  0
ENDTAB
  0
TABLE
  2
VIEW
  5
6
330
0
100
AcDbSymbolTable
 70
     0
  0
ENDTAB
  0
TABLE
  2
UCS
  5
7
330
0
100
AcDbSymbolTable
 70
     0
  0
ENDTAB
  0
TABLE
  2
APPID
  5
9
330
0
100
AcDbSymbolTable
 70
    10
  0
APPID
  5
12
330
9
100
AcDbSymbolTableRecord
100
AcDbRegAppTableRecord
  2
ACAD
 70
     0
  0
APPID
  5
217
330
9
100
AcDbSymbolTableRecord
100
AcDbRegAppTableRecord
  2
MCAD_NO_VIS
 70
     0
  0
APPID
  5
218
330
9
100
AcDbSymbolTableRecord
100
AcDbRegAppTableRecord
  2
ACAD_TEMP_GRAPHIC
 70
     0
  0
APPID
  5
248
330
9
100
AcDbSymbolTableRecord
100
AcDbRegAppTableRecord
  2
AD_DRAW
 70
     0
  0
APPID
  5
24B
330
9
100
AcDbSymbolTableRecord
100
AcDbRegAppTableRecord
  2
ACATTRIBSERVICES
 70
     0
  0
APPID
  5
269
330
9
100
AcDbSymbolTableRecord
100
AcDbRegAppTableRecord
  2
DESIGNERASSEMBLIES
 70
     0
  0
APPID
  5
26F
330
9
100
AcDbSymbolTableRecord
100
AcDbRegAppTableRecord
  2
ACADM_DIM_EDIT
 70
     0
  0
APPID
  5
270
330
9
100
AcDbSymbolTableRecord
100
AcDbRegAppTableRecord
  2
AMDT_DM_ADJ
 70
     0
  0
APPID
  5
387
330
9
100
AcDbSymbolTableRecord
100
AcDbRegAppTableRecord
  2
AcadStringInfo
 70
     0
  0
APPID
  5
3AF
330
9
100
AcDbSymbolTableRecord
100
AcDbRegAppTableRecord
  2
ACAD_NAV_VCDISPLAY
 70
     0
  0
ENDTAB
  0
TABLE
  2
DIMSTYLE
  5
A
330
0
100
AcDbSymbolTable
 70
     8
100
AcDbDimStyleTable
 71
     1
340
27
  0
DIMSTYLE
105
27
102
{ACAD_REACTORS
330
2C0
330
2F5
330
31D
102
}
330
A
100
AcDbSymbolTableRecord
100
AcDbDimStyleTableRecord
  2
ISO-25
 70
     0
 41
2.5
 42
0.625
 43
3.75
 44
1.25
 73
     0
 74
     0
 77
     1
 78
     8
140
2.5
141
2.5
143
0.03937007874016
147
0.625
171
     3
172
     1
271
     2
272
     2
274
     3
278
    44
283
     0
284
     8
340
11
  0
DIMSTYLE
105
29C
330
A
100
AcDbSymbolTableRecord
100
AcDbDimStyleTableRecord
  2
AM_ISO
 70
     0
  4
"
 41
2.5
 42
1.0
 43
10.0
 44
1.0
 47
0.1
 48
0.1
 73
     0
 74
     0
 77
     1
 78
     8
 79
     2
140
3.5
141
0.0
143
0.0393701
146
0.71
147
1.5
172
     1
176
   256
177
   256
178
     2
271
     2
272
     3
274
     4
283
     0
284
     8
340
11
371
    -1
372
    -1
  0
DIMSTYLE
105
29D
330
A
100
AcDbSymbolTableRecord
100
AcDbDimStyleTableRecord
  2
AM_ISO$3
 70
     0
  4
"
 41
2.5
 42
1.0
 43
10.0
 44
1.0
 47
0.1
 48
0.1
 73
     0
 77
     1
 78
     8
 79
     2
140
3.5
141
0.0
143
0.0393701
146
0.71
147
1.5
176
   256
177
   256
178
     2
271
     2
272
     3
274
     4
283
     0
284
     8
288
     1
289
     0
340
11
371
    -1
372
    -1
  0
DIMSTYLE
105
29E
330
A
100
AcDbSymbolTableRecord
100
AcDbDimStyleTableRecord
  2
AM_ISO$4
 70
     0
  4
"
 41
2.5
 42
1.0
 43
10.0
 44
1.0
 47
0.1
 48
0.1
 73
     0
 77
     1
 78
     8
 79
     2
140
3.5
141
0.0
143
0.0393701
146
0.71
147
1.5
176
   256
177
   256
178
     2
271
     2
272
     3
274
     4
283
     0
284
     8
288
     1
289
     0
340
11
371
    -1
372
    -1
  0
DIMSTYLE
105
29F
330
A
100
AcDbSymbolTableRecord
100
AcDbDimStyleTableRecord
  2
AM_ISO$6
 70
     0
  4
"
 41
2.5
 42
1.0
 43
10.0
 44
1.0
 47
0.1
 48
0.1
 73
     0
 74
     0
 78
     8
 79
     2
140
3.5
141
0.0
143
0.0393701
146
0.71
147
1.5
172
     1
176
   256
177
   256
178
     2
271
     2
272
     3
274
     4
283
     0
284
     8
340
11
371
    -1
372
    -1
  0
DIMSTYLE
105
2A0
330
A
100
AcDbSymbolTableRecord
100
AcDbDimStyleTableRecord
  2
AM_ISO$7
 70
     0
  4
"
 41
2.5
 42
1.0
 43
10.0
 44
1.0
 47
0.1
 48
0.1
 73
     0
 74
     0
 77
     1
 78
     8
 79
     2
140
5.0
141
0.0
143
0.0393701
146
0.71
147
1.5
172
     1
176
   256
177
   256
178
     2
271
     2
272
     3
274
     4
283
     0
284
     8
340
11
371
    -1
372
    -1
  0
DIMSTYLE
105
2A1
330
A
100
AcDbSymbolTableRecord
100
AcDbDimStyleTableRecord
  2
AM_ISO$SF
 70
     0
  4
"
 41
2.5
 42
1.0
 43
10.0
 44
1.0
 47
0.1
 48
0.1
 73
     0
 74
     0
 75
     1
 76
     1
 77
     1
 78
     8
 79
     2
140
3.5
141
0.0
143
0.0393701
146
0.71
147
1.5
172
     1
176
   256
177
   256
178
     2
271
     2
272
     3
274
     4
283
     0
284
     8
340
11
371
    -1
372
    -1
  0
DIMSTYLE
105
2A6
330
A
100
AcDbSymbolTableRecord
100
AcDbDimStyleTableRecord
  2
AM_ISO$SH
 70
     0
  4
"
 41
2.5
 42
1.0
 43
10.0
 44
1.0
 47
0.1
 48
0.1
 73
     0
 74
     0
 75
     1
 76
     1
 77
     1
 78
     8
 79
     2
140
3.5
141
0.0
143
0.0393701
144
2.0
146
0.71
147
1.5
172
     1
173
     1
176
   256
177
   256
178
     2
271
     2
272
     3
274
     4
283
     0
284
     8
340
11
343
2A2
371
    -1
372
    -1
  0
ENDTAB
  0
TABLE
  2
BLOCK_RECORD
  5
1
330
0
100
AcDbSymbolTable
 70
    28
  0
BLOCK_RECORD
  5
1F
102
{ACAD_XDICTIONARY
360
338
102
}
330
1
100
AcDbSymbolTableRecord
100
AcDbBlockTableRecord
  2
*Model_Space
340
22
 70
     0
280
     1
281
     0
  0
BLOCK_RECORD
  5
1B
330
1
100
AcDbSymbolTableRecord
100
AcDbBlockTableRecord
  2
*Paper_Space
340
1E
 70
     0
280
     1
281
     0
  0
BLOCK_RECORD
  5
23
330
1
100
AcDbSymbolTableRecord
100
AcDbBlockTableRecord
  2
*Paper_Space0
340
26
 70
     0
280
     1
281
     0
  0
BLOCK_RECORD
  5
8C
330
1
100
AcDbSymbolTableRecord
100
AcDbBlockTableRecord
  2
SW_NOTE_0
340
0
 70
     0
280
     1
281
     0
  0
BLOCK_RECORD
  5
A3
330
1
100
AcDbSymbolTableRecord
100
AcDbBlockTableRecord
  2
SW_NOTE_1
340
0
 70
     0
280
     1
281
     0
  0
BLOCK_RECORD
  5
AB
330
1
100
AcDbSymbolTableRecord
100
AcDbBlockTableRecord
  2
SW_NOTE_2
340
0
 70
     0
280
     1
281
     0
  0
BLOCK_RECORD
  5
B7
330
1
100
AcDbSymbolTableRecord
100
AcDbBlockTableRecord
  2
SW_NOTE_3
340
0
 70
     0
280
     1
281
     0
  0
BLOCK_RECORD
  5
BE
330
1
100
AcDbSymbolTableRecord
100
AcDbBlockTableRecord
  2
SW_NOTE_4
340
0
 70
     0
280
     1
281
     0
  0
BLOCK_RECORD
  5
C4
330
1
100
AcDbSymbolTableRecord
100
AcDbBlockTableRecord
  2
SW_NOTE_5
340
0
 70
     0
280
     1
281
     0
  0
BLOCK_RECORD
  5
CE
330
1
100
AcDbSymbolTableRecord
100
AcDbBlockTableRecord
  2
SW_NOTE_6
340
0
 70
     0
280
     1
281
     0
  0
BLOCK_RECORD
  5
D7
330
1
100
AcDbSymbolTableRecord
100
AcDbBlockTableRecord
  2
SW_NOTE_7
340
0
 70
     0
280
     1
281
     0
  0
BLOCK_RECORD
  5
DE
330
1
100
AcDbSymbolTableRecord
100
AcDbBlockTableRecord
  2
SW_NOTE_8
340
0
 70
     0
280
     1
281
     0
  0
BLOCK_RECORD
  5
E4
330
1
100
AcDbSymbolTableRecord
100
AcDbBlockTableRecord
  2
SW_NOTE_9
340
0
 70
     0
280
     1
281
     0
  0
BLOCK_RECORD
  5
EA
330
1
100
AcDbSymbolTableRecord
100
AcDbBlockTableRecord
  2
SW_NOTE_10
340
0
 70
     0
280
     1
281
     0
  0
BLOCK_RECORD
  5
F1
330
1
100
AcDbSymbolTableRecord
100
AcDbBlockTableRecord
  2
SW_NOTE_11
340
0
 70
     0
280
     1
281
     0
  0
BLOCK_RECORD
  5
F7
330
1
100
AcDbSymbolTableRecord
100
AcDbBlockTableRecord
  2
SW_NOTE_12
340
0
 70
     0
280
     1
281
     0
  0
BLOCK_RECORD
  5
FD
330
1
100
AcDbSymbolTableRecord
100
AcDbBlockTableRecord
  2
SW_NOTE_13
340
0
 70
     0
280
     1
281
     0
  0
BLOCK_RECORD
  5
103
330
1
100
AcDbSymbolTableRecord
100
AcDbBlockTableRecord
  2
SW_NOTE_14
340
0
 70
     0
280
     1
281
     0
  0
BLOCK_RECORD
  5
109
330
1
100
AcDbSymbolTableRecord
100
AcDbBlockTableRecord
  2
SW_NOTE_15
340
0
 70
     0
280
     1
281
     0
  0
BLOCK_RECORD
  5
10F
330
1
100
AcDbSymbolTableRecord
100
AcDbBlockTableRecord
  2
SW_NOTE_16
340
0
 70
     0
280
     1
281
     0
  0
BLOCK_RECORD
  5
116
330
1
100
AcDbSymbolTableRecord
100
AcDbBlockTableRecord
  2
SW_NOTE_17
340
0
 70
     0
280
     1
281
     0
  0
BLOCK_RECORD
  5
11C
330
1
100
AcDbSymbolTableRecord
100
AcDbBlockTableRecord
  2
SW_NOTE_18
340
0
 70
     0
280
     1
281
     0
  0
BLOCK_RECORD
  5
122
330
1
100
AcDbSymbolTableRecord
100
AcDbBlockTableRecord
  2
SW_NOTE_19
340
0
 70
     0
280
     1
281
     0
  0
BLOCK_RECORD
  5
128
330
1
100
AcDbSymbolTableRecord
100
AcDbBlockTableRecord
  2
SW_NOTE_20
340
0
 70
     0
280
     1
281
     0
  0
BLOCK_RECORD
  5
131
330
1
100
AcDbSymbolTableRecord
100
AcDbBlockTableRecord
  2
SW_SFSYMBOL_0
340
0
 70
     0
280
     1
281
     0
  0
BLOCK_RECORD
  5
260
330
1
100
AcDbSymbolTableRecord
100
AcDbBlockTableRecord
  2
*U23
340
0
 70
     0
280
     1
281
     0
  0
BLOCK_RECORD
  5
2A2
330
1
100
AcDbSymbolTableRecord
100
AcDbBlockTableRecord
  2
GENAXEH
340
0
 70
     0
280
     1
281
     0
  0
BLOCK_RECORD
  5
2C2
330
1
100
AcDbSymbolTableRecord
100
AcDbBlockTableRecord
  2
*D25
340
0
 70
     0
280
     1
281
     0
  0
BLOCK_RECORD
  5
2F6
330
1
100
AcDbSymbolTableRecord
100
AcDbBlockTableRecord
  2
*D26
340
0
 70
     0
280
     1
281
     0
  0
BLOCK_RECORD
  5
31E
330
1
100
AcDbSymbolTableRecord
100
AcDbBlockTableRecord
  2
*D27
340
0
 70
     0
280
     1
281
     0
  0
ENDTAB
  0
ENDSEC
  0
SECTION
  2
BLOCKS
  0
BLOCK
  5
20
330
1F
100
AcDbEntity
  8
0
100
AcDbBlockBegin
  2
*Model_Space
 70
     0
 10
0.0
 20
0.0
 30
0.0
  3
*Model_Space
  1

  0
ENDBLK
  5
21
330
1F
100
AcDbEntity
  8
0
100
AcDbBlockEnd
  0
BLOCK
  5
1C
330
1B
100
AcDbEntity
 67
     1
  8
0
100
AcDbBlockBegin
  2
*Paper_Space
 70
     0
 10
0.0
 20
0.0
 30
0.0
  3
*Paper_Space
  1

  0
ENDBLK
  5
1D
330
1B
100
AcDbEntity
 67
     1
  8
0
100
AcDbBlockEnd
  0
BLOCK
  5
24
330
23
100
AcDbEntity
 67
     1
  8
0
100
AcDbBlockBegin
  2
*Paper_Space0
 70
     0
 10
0.0
 20
0.0
 30
0.0
  3
*Paper_Space0
  1

  0
ENDBLK
  5
25
330
23
100
AcDbEntity
 67
     1
  8
0
100
AcDbBlockEnd
  0
BLOCK
  5
8D
330
8C
100
AcDbEntity
  8
0
100
AcDbBlockBegin
  2
SW_NOTE_0
 70
     0
 10
0.0
 20
0.0
 30
0.0
  3
SW_NOTE_0
  1

  0
MTEXT
  5
8F
330
8C
100
AcDbEntity
  8
SLD-0
 62
     0
100
AcDbMText
 10
0.0
 20
3.867203219315898
 30
0.0
 40
3.0
 41
0.0
 46
0.0
 71
     1
 72
     1
  1
技术要求：
  7
SLDTEXTSTYLE0
 73
     1
 44
1.0
  0
MTEXT
  5
90
330
8C
100
AcDbEntity
  8
SLD-0
 62
     0
100
AcDbMText
 10
0.0
 20
0.0547031764750565
 30
0.0
 40
3.0
 41
0.0
 46
0.0
 71
     1
 72
     1
  1
1.去除所有毛刺；
  7
SLDTEXTSTYLE0
 73
     1
 44
1.0
  0
MTEXT
  5
91
330
8C
100
AcDbEntity
  8
SLD-0
 62
     0
100
AcDbMText
 10
0.0
 20
-3.757796866365782
 30
0.0
 40
3.0
 41
0.0
 46
0.0
 71
     1
 72
     1
  1
2.产品表面处理依照BOM要求；
  7
SLDTEXTSTYLE0
 73
     1
 44
1.0
  0
ENDBLK
  5
8E
330
8C
100
AcDbEntity
  8
0
100
AcDbBlockEnd
  0
BLOCK
  5
A4
330
A3
100
AcDbEntity
  8
0
100
AcDbBlockBegin
  2
SW_NOTE_1
 70
     0
 10
0.0
 20
0.0
 30
0.0
  3
SW_NOTE_1
  1

  0
MTEXT
  5
A6
330
A3
100
AcDbEntity
  8
SLD-0
 62
     0
100
AcDbMText
 10
2.062499999999994
 20
3.867203219315898
 30
0.0
 40
3.0
 41
0.0
 46
0.0
 71
     2
 72
     1
  1
产
  7
SLDTEXTSTYLE2
 73
     1
 44
1.0
  0
MTEXT
  5
A7
330
A3
100
AcDbEntity
  8
SLD-0
 62
     0
100
AcDbMText
 10
2.062499999999994
 20
-0.1327969706739103
 30
0.0
 40
3.0
 41
0.0
 46
0.0
 71
     2
 72
     1
  1
品
  7
SLDTEXTSTYLE2
 73
     1
 44
1.0
  0
MTEXT
  5
A8
330
A3
100
AcDbEntity
  8
SLD-0
 62
     0
100
AcDbMText
 10
2.062499999999994
 20
-4.132797160663715
 30
0.0
 40
3.0
 41
0.0
 46
0.0
 71
     2
 72
     1
  1
特
  7
SLDTEXTSTYLE2
 73
     1
 44
1.0
  0
MTEXT
  5
A9
330
A3
100
AcDbEntity
  8
SLD-0
 62
     0
100
AcDbMText
 10
2.062499999999994
 20
-8.13279735065352
 30
0.0
 40
3.0
 41
0.0
 46
0.0
 71
     2
 72
     1
  1
征
  7
SLDTEXTSTYLE2
 73
     1
 44
1.0
  0
ENDBLK
  5
A5
330
A3
100
AcDbEntity
  8
0
100
AcDbBlockEnd
  0
BLOCK
  5
AC
330
AB
100
AcDbEntity
  8
0
100
AcDbBlockBegin
  2
SW_NOTE_2
 70
     0
 10
0.0
 20
0.0
 30
0.0
  3
SW_NOTE_2
  1

  0
MTEXT
  5
AE
330
AB
100
AcDbEntity
  8
SLD-0
 62
     0
100
AcDbMText
 10
2.062499999999994
 20
3.867203219315898
 30
0.0
 40
3.0
 41
0.0
 46
0.0
 71
     2
 72
     1
  1
材
  7
SLDTEXTSTYLE2
 73
     1
 44
1.0
  0
MTEXT
  5
AF
330
AB
100
AcDbEntity
  8
SLD-0
 62
     0
100
AcDbMText
 10
2.062499999999994
 20
-0.1327969706739068
 30
0.0
 40
3.0
 41
0.0
 46
0.0
 71
     2
 72
     1
  1
料
  7
SLDTEXTSTYLE2
 73
     1
 44
1.0
  0
MTEXT
  5
B0
330
AB
100
AcDbEntity
  8
SLD-0
 62
     0
100
AcDbMText
 10
2.062499999999994
 20
-4.132797160663711
 30
0.0
 40
3.0
 41
0.0
 46
0.0
 71
     2
 72
     1
  1
特
  7
SLDTEXTSTYLE2
 73
     1
 44
1.0
  0
MTEXT
  5
B1
330
AB
100
AcDbEntity
  8
SLD-0
 62
     0
100
AcDbMText
 10
2.062499999999994
 20
-8.132797350653516
 30
0.0
 40
3.0
 41
0.0
 46
0.0
 71
     2
 72
     1
  1
征
  7
SLDTEXTSTYLE2
 73
     1
 44
1.0
  0
ENDBLK
  5
AD
330
AB
100
AcDbEntity
  8
0
100
AcDbBlockEnd
  0
BLOCK
  5
B8
330
B7
100
AcDbEntity
  8
0
100
AcDbBlockBegin
  2
SW_NOTE_3
 70
     0
 10
0.0
 20
0.0
 30
0.0
  3
SW_NOTE_3
  1

  0
MTEXT
  5
BA
330
B7
100
AcDbEntity
  8
SLD-0
 62
     0
100
AcDbMText
 10
0.0
 20
3.867203219315898
 30
0.0
 40
3.0
 41
0.0
 46
0.0
 71
     1
 72
     1
  1
原
  7
SLDTEXTSTYLE2
 73
     1
 44
1.0
  0
MTEXT
  5
BB
330
B7
100
AcDbEntity
  8
SLD-0
 62
     0
100
AcDbMText
 10
0.0
 20
-0.1327969706739103
 30
0.0
 40
3.0
 41
0.0
 46
0.0
 71
     1
 72
     1
  1
代
  7
SLDTEXTSTYLE2
 73
     1
 44
1.0
  0
MTEXT
  5
BC
330
B7
100
AcDbEntity
  8
SLD-0
 62
     0
100
AcDbMText
 10
0.0
 20
-4.132797160663715
 30
0.0
 40
3.0
 41
0.0
 46
0.0
 71
     1
 72
     1
  1
号
  7
SLDTEXTSTYLE2
 73
     1
 44
1.0
  0
ENDBLK
  5
B9
330
B7
100
AcDbEntity
  8
0
100
AcDbBlockEnd
  0
BLOCK
  5
BF
330
BE
100
AcDbEntity
  8
0
100
AcDbBlockBegin
  2
SW_NOTE_4
 70
     0
 10
0.0
 20
0.0
 30
0.0
  3
SW_NOTE_4
  1

  0
MTEXT
  5
C1
330
BE
100
AcDbEntity
  8
SLD-0
 62
     0
100
AcDbMText
 10
0.0
 20
3.867203219315898
 30
0.0
 40
3.0
 41
0.0
 46
0.0
 71
     1
 72
     1
  1
名
  7
SLDTEXTSTYLE2
 73
     1
 44
1.0
  0
MTEXT
  5
C2
330
BE
100
AcDbEntity
  8
SLD-0
 62
     0
100
AcDbMText
 10
0.0
 20
-0.1327969706739068
 30
0.0
 40
3.0
 41
0.0
 46
0.0
 71
     1
 72
     1
  1
称
  7
SLDTEXTSTYLE2
 73
     1
 44
1.0
  0
ENDBLK
  5
C0
330
BE
100
AcDbEntity
  8
0
100
AcDbBlockEnd
  0
BLOCK
  5
C5
330
C4
100
AcDbEntity
  8
0
100
AcDbBlockBegin
  2
SW_NOTE_5
 70
     0
 10
0.0
 20
0.0
 30
0.0
  3
SW_NOTE_5
  1

  0
MTEXT
  5
C7
330
C4
100
AcDbEntity
  8
SLD-0
 62
     0
100
AcDbMText
 10
0.0
 20
3.867203219315898
 30
0.0
 40
3.0
 41
0.0
 46
0.0
 71
     1
 72
     1
  1
代
  7
SLDTEXTSTYLE2
 73
     1
 44
1.0
  0
MTEXT
  5
C8
330
C4
100
AcDbEntity
  8
SLD-0
 62
     0
100
AcDbMText
 10
0.0
 20
-0.1327969706739068
 30
0.0
 40
3.0
 41
0.0
 46
0.0
 71
     1
 72
     1
  1
号
  7
SLDTEXTSTYLE2
 73
     1
 44
1.0
  0
ENDBLK
  5
C6
330
C4
100
AcDbEntity
  8
0
100
AcDbBlockEnd
  0
BLOCK
  5
CF
330
CE
100
AcDbEntity
  8
0
100
AcDbBlockBegin
  2
SW_NOTE_6
 70
     0
 10
0.0
 20
0.0
 30
0.0
  3
SW_NOTE_6
  1

  0
MTEXT
  5
D1
330
CE
100
AcDbEntity
  8
SLD-0
 62
     0
100
AcDbMText
 10
0.0
 20
3.609389671361498
 30
0.0
 40
2.799999999999999
 41
0.0
 46
0.0
 71
     1
 72
     1
  1
未注
  7
SLDTEXTSTYLE2
 73
     1
 44
1.0
  0
MTEXT
  5
D2
330
CE
100
AcDbEntity
  8
SLD-0
 62
     0
100
AcDbMText
 10
0.0
 20
-0.1906103927134944
 30
0.0
 40
2.799999999999999
 41
0.0
 46
0.0
 71
     1
 72
     1
  1
公差
  7
SLDTEXTSTYLE2
 73
     1
 44
1.0
  0
ENDBLK
  5
D0
330
CE
100
AcDbEntity
  8
0
100
AcDbBlockEnd
  0
BLOCK
  5
D8
330
D7
100
AcDbEntity
  8
0
100
AcDbBlockBegin
  2
SW_NOTE_7
 70
     0
 10
0.0
 20
0.0
 30
0.0
  3
SW_NOTE_7
  1

  0
MTEXT
  5
DA
330
D7
100
AcDbEntity
  8
SLD-0
 62
     0
100
AcDbMText
 10
0.9374999999999939
 20
3.222669349429913
 30
0.0
 40
2.5
 41
0.0
 46
0.0
 71
     2
 72
     1
  1
%%p
  7
SLDTEXTSTYLE1
 73
     1
 44
1.0
  0
MTEXT
  5
DB
330
D7
100
AcDbEntity
  8
SLD-0
 62
     0
100
AcDbMText
 10
4.556250050663942
 20
3.222669349429913
 30
0.0
 40
2.5
 41
0.0
 46
0.0
 71
     2
 72
     1
  1
0.1
  7
SLDTEXTSTYLE1
 73
     1
 44
1.0
  0
ENDBLK
  5
D9
330
D7
100
AcDbEntity
  8
0
100
AcDbBlockEnd
  0
BLOCK
  5
DF
330
DE
100
AcDbEntity
  8
0
100
AcDbBlockBegin
  2
SW_NOTE_8
 70
     0
 10
0.0
 20
0.0
 30
0.0
  3
SW_NOTE_8
  1

  0
MTEXT
  5
E1
330
DE
100
AcDbEntity
  8
SLD-0
 62
     0
100
AcDbMText
 10
0.9374999999999939
 20
3.222669349429913
 30
0.0
 40
2.5
 41
0.0
 46
0.0
 71
     2
 72
     1
  1
%%p
  7
SLDTEXTSTYLE1
 73
     1
 44
1.0
  0
MTEXT
  5
E2
330
DE
100
AcDbEntity
  8
SLD-0
 62
     0
100
AcDbMText
 10
5.415625050663952
 20
3.222669349429913
 30
0.0
 40
2.5
 41
0.0
 46
0.0
 71
     2
 72
     1
  1
0.15
  7
SLDTEXTSTYLE1
 73
     1
 44
1.0
  0
ENDBLK
  5
E0
330
DE
100
AcDbEntity
  8
0
100
AcDbBlockEnd
  0
BLOCK
  5
E5
330
E4
100
AcDbEntity
  8
0
100
AcDbBlockBegin
  2
SW_NOTE_9
 70
     0
 10
0.0
 20
0.0
 30
0.0
  3
SW_NOTE_9
  1

  0
MTEXT
  5
E7
330
E4
100
AcDbEntity
  8
SLD-0
 62
     0
100
AcDbMText
 10
0.9375000000000078
 20
3.222669349429913
 30
0.0
 40
2.5
 41
0.0
 46
0.0
 71
     2
 72
     1
  1
%%p
  7
SLDTEXTSTYLE1
 73
     1
 44
1.0
  0
MTEXT
  5
E8
330
E4
100
AcDbEntity
  8
SLD-0
 62
     0
100
AcDbMText
 10
4.556250050663956
 20
3.222669349429913
 30
0.0
 40
2.5
 41
0.0
 46
0.0
 71
     2
 72
     1
  1
0.4
  7
SLDTEXTSTYLE1
 73
     1
 44
1.0
  0
ENDBLK
  5
E6
330
E4
100
AcDbEntity
  8
0
100
AcDbBlockEnd
  0
BLOCK
  5
EB
330
EA
100
AcDbEntity
  8
0
100
AcDbBlockBegin
  2
SW_NOTE_10
 70
     0
 10
0.0
 20
0.0
 30
0.0
  3
SW_NOTE_10
  1

  0
MTEXT
  5
ED
330
EA
100
AcDbEntity
  8
SLD-0
 62
     0
100
AcDbMText
 10
0.9375000000000078
 20
3.222669349429913
 30
0.0
 40
2.5
 41
0.0
 46
0.0
 71
     2
 72
     1
  1
%%p
  7
SLDTEXTSTYLE1
 73
     1
 44
1.0
  0
MTEXT
  5
EE
330
EA
100
AcDbEntity
  8
SLD-0
 62
     0
100
AcDbMText
 10
4.556250050663956
 20
3.222669349429913
 30
0.0
 40
2.5
 41
0.0
 46
0.0
 71
     2
 72
     1
  1
0.3
  7
SLDTEXTSTYLE1
 73
     1
 44
1.0
  0
ENDBLK
  5
EC
330
EA
100
AcDbEntity
  8
0
100
AcDbBlockEnd
  0
BLOCK
  5
F2
330
F1
100
AcDbEntity
  8
0
100
AcDbBlockBegin
  2
SW_NOTE_11
 70
     0
 10
0.0
 20
0.0
 30
0.0
  3
SW_NOTE_11
  1

  0
MTEXT
  5
F4
330
F1
100
AcDbEntity
  8
SLD-0
 62
     0
100
AcDbMText
 10
0.9375000000000078
 20
3.222669349429913
 30
0.0
 40
2.5
 41
0.0
 46
0.0
 71
     2
 72
     1
  1
%%p
  7
SLDTEXTSTYLE1
 73
     1
 44
1.0
  0
MTEXT
  5
F5
330
F1
100
AcDbEntity
  8
SLD-0
 62
     0
100
AcDbMText
 10
4.556250050663956
 20
3.222669349429913
 30
0.0
 40
2.5
 41
0.0
 46
0.0
 71
     2
 72
     1
  1
0.4
  7
SLDTEXTSTYLE1
 73
     1
 44
1.0
  0
ENDBLK
  5
F3
330
F1
100
AcDbEntity
  8
0
100
AcDbBlockEnd
  0
BLOCK
  5
F8
330
F7
100
AcDbEntity
  8
0
100
AcDbBlockBegin
  2
SW_NOTE_12
 70
     0
 10
0.0
 20
0.0
 30
0.0
  3
SW_NOTE_12
  1

  0
MTEXT
  5
FA
330
F7
100
AcDbEntity
  8
SLD-0
 62
     0
100
AcDbMText
 10
4.335937499999998
 20
3.222669349429913
 30
0.0
 40
2.5
 41
0.0
 46
0.0
 71
     2
 72
     1
  1
>0-10
  7
SLDTEXTSTYLE1
 73
     1
 44
1.0
  0
MTEXT
  5
FB
330
F7
100
AcDbEntity
  8
SLD-0
 62
     0
100
AcDbMText
 10
9.701388701796542
 20
3.222669349429913
 30
0.0
 40
2.5
 41
0.0
 46
0.0
 71
     2
 72
     1
  1
%%d
  7
SLDTEXTSTYLE1
 73
     1
 44
1.0
  0
ENDBLK
  5
F9
330
F7
100
AcDbEntity
  8
0
100
AcDbBlockEnd
  0
BLOCK
  5
FE
330
FD
100
AcDbEntity
  8
0
100
AcDbBlockBegin
  2
SW_NOTE_13
 70
     0
 10
0.0
 20
0.0
 30
0.0
  3
SW_NOTE_13
  1

  0
MTEXT
  5
100
330
FD
100
AcDbEntity
  8
SLD-0
 62
     0
100
AcDbMText
 10
5.195312499999992
 20
3.222669349429913
 30
0.0
 40
2.5
 41
0.0
 46
0.0
 71
     2
 72
     1
  1
>10-50
  7
SLDTEXTSTYLE1
 73
     1
 44
1.0
  0
MTEXT
  5
101
330
FD
100
AcDbEntity
  8
SLD-0
 62
     0
100
AcDbMText
 10
11.48611102253199
 20
3.222669349429913
 30
0.0
 40
2.5
 41
0.0
 46
0.0
 71
     2
 72
     1
  1
%%d
  7
SLDTEXTSTYLE1
 73
     1
 44
1.0
  0
ENDBLK
  5
FF
330
FD
100
AcDbEntity
  8
0
100
AcDbBlockEnd
  0
BLOCK
  5
104
330
103
100
AcDbEntity
  8
0
100
AcDbBlockBegin
  2
SW_NOTE_14
 70
     0
 10
0.0
 20
0.0
 30
0.0
  3
SW_NOTE_14
  1

  0
MTEXT
  5
106
330
103
100
AcDbEntity
  8
SLD-0
 62
     0
100
AcDbMText
 10
6.054687499999989
 20
3.222669349429913
 30
0.0
 40
2.5
 41
0.0
 46
0.0
 71
     2
 72
     1
  1
>50-120
  7
SLDTEXTSTYLE1
 73
     1
 44
1.0
  0
MTEXT
  5
107
330
103
100
AcDbEntity
  8
SLD-0
 62
     0
100
AcDbMText
 10
13.27083334326745
 20
3.222669349429913
 30
0.0
 40
2.5
 41
0.0
 46
0.0
 71
     2
 72
     1
  1
%%d
  7
SLDTEXTSTYLE1
 73
     1
 44
1.0
  0
ENDBLK
  5
105
330
103
100
AcDbEntity
  8
0
100
AcDbBlockEnd
  0
BLOCK
  5
10A
330
109
100
AcDbEntity
  8
0
100
AcDbBlockBegin
  2
SW_NOTE_15
 70
     0
 10
0.0
 20
0.0
 30
0.0
  3
SW_NOTE_15
  1

  0
MTEXT
  5
10C
330
109
100
AcDbEntity
  8
SLD-0
 62
     0
100
AcDbMText
 10
1.601562499999986
 20
3.222669349429913
 30
0.0
 40
2.5
 41
0.0
 46
0.0
 71
     2
 72
     1
  1
角
  7
SLDTEXTSTYLE0
 73
     1
 44
1.0
  0
MTEXT
  5
10D
330
109
100
AcDbEntity
  8
SLD-0
 62
     0
100
AcDbMText
 10
1.601562499999986
 20
-0.2773307586035056
 30
0.0
 40
2.5
 41
0.0
 46
0.0
 71
     2
 72
     1
  1
度
  7
SLDTEXTSTYLE0
 73
     1
 44
1.0
  0
ENDBLK
  5
10B
330
109
100
AcDbEntity
  8
0
100
AcDbBlockEnd
  0
BLOCK
  5
110
330
10F
100
AcDbEntity
  8
0
100
AcDbBlockBegin
  2
SW_NOTE_16
 70
     0
 10
0.0
 20
0.0
 30
0.0
  3
SW_NOTE_16
  1

  0
MTEXT
  5
112
330
10F
100
AcDbEntity
  8
SLD-0
 62
     0
100
AcDbMText
 10
0.9375000000000078
 20
3.222669349429913
 30
0.0
 40
2.5
 41
0.0
 46
0.0
 71
     2
 72
     1
  1
%%p
  7
SLDTEXTSTYLE1
 73
     1
 44
1.0
  0
MTEXT
  5
113
330
10F
100
AcDbEntity
  8
SLD-0
 62
     0
100
AcDbMText
 10
3.228125050663943
 20
3.222669349429913
 30
0.0
 40
2.5
 41
0.0
 46
0.0
 71
     2
 72
     1
  1
1
  7
SLDTEXTSTYLE1
 73
     1
 44
1.0
  0
MTEXT
  5
114
330
10F
100
AcDbEntity
  8
SLD-0
 62
     0
100
AcDbMText
 10
4.934722371399413
 20
3.222669349429913
 30
0.0
 40
2.5
 41
0.0
 46
0.0
 71
     2
 72
     1
  1
%%d
  7
SLDTEXTSTYLE1
 73
     1
 44
1.0
  0
ENDBLK
  5
111
330
10F
100
AcDbEntity
  8
0
100
AcDbBlockEnd
  0
BLOCK
  5
117
330
116
100
AcDbEntity
  8
0
100
AcDbBlockBegin
  2
SW_NOTE_17
 70
     0
 10
0.0
 20
0.0
 30
0.0
  3
SW_NOTE_17
  1

  0
MTEXT
  5
119
330
116
100
AcDbEntity
  8
SLD-0
 62
     0
100
AcDbMText
 10
0.9375000000000078
 20
3.222669349429913
 30
0.0
 40
2.5
 41
0.0
 46
0.0
 71
     2
 72
     1
  1
%%p
  7
SLDTEXTSTYLE1
 73
     1
 44
1.0
  0
MTEXT
  5
11A
330
116
100
AcDbEntity
  8
SLD-0
 62
     0
100
AcDbMText
 10
4.439062550663952
 20
3.222669349429913
 30
0.0
 40
2.5
 41
0.0
 46
0.0
 71
     2
 72
     1
  1
20'
  7
SLDTEXTSTYLE1
 73
     1
 44
1.0
  0
ENDBLK
  5
118
330
116
100
AcDbEntity
  8
0
100
AcDbBlockEnd
  0
BLOCK
  5
11D
330
11C
100
AcDbEntity
  8
0
100
AcDbBlockBegin
  2
SW_NOTE_18
 70
     0
 10
0.0
 20
0.0
 30
0.0
  3
SW_NOTE_18
  1

  0
MTEXT
  5
11F
330
11C
100
AcDbEntity
  8
SLD-0
 62
     0
100
AcDbMText
 10
0.9375000000000078
 20
3.222669349429913
 30
0.0
 40
2.5
 41
0.0
 46
0.0
 71
     2
 72
     1
  1
%%p
  7
SLDTEXTSTYLE1
 73
     1
 44
1.0
  0
MTEXT
  5
120
330
11C
100
AcDbEntity
  8
SLD-0
 62
     0
100
AcDbMText
 10
4.439062550663952
 20
3.222669349429913
 30
0.0
 40
2.5
 41
0.0
 46
0.0
 71
     2
 72
     1
  1
30'
  7
SLDTEXTSTYLE1
 73
     1
 44
1.0
  0
ENDBLK
  5
11E
330
11C
100
AcDbEntity
  8
0
100
AcDbBlockEnd
  0
BLOCK
  5
123
330
122
100
AcDbEntity
  8
0
100
AcDbBlockBegin
  2
SW_NOTE_19
 70
     0
 10
0.0
 20
0.0
 30
0.0
  3
SW_NOTE_19
  1

  0
MTEXT
  5
125
330
122
100
AcDbEntity
  8
SLD-0
 62
     0
100
AcDbMText
 10
3.750000000000003
 20
3.222669349429913
 30
0.0
 40
2.5
 41
0.0
 46
0.0
 71
     2
 72
     1
  1
>120
  7
SLDTEXTSTYLE1
 73
     1
 44
1.0
  0
MTEXT
  5
126
330
122
100
AcDbEntity
  8
SLD-0
 62
     0
100
AcDbMText
 10
8.513888623565446
 20
3.222669349429913
 30
0.0
 40
2.5
 41
0.0
 46
0.0
 71
     2
 72
     1
  1
%%d
  7
SLDTEXTSTYLE1
 73
     1
 44
1.0
  0
ENDBLK
  5
124
330
122
100
AcDbEntity
  8
0
100
AcDbBlockEnd
  0
BLOCK
  5
129
330
128
100
AcDbEntity
  8
0
100
AcDbBlockBegin
  2
SW_NOTE_20
 70
     0
 10
0.0
 20
0.0
 30
0.0
  3
SW_NOTE_20
  1

  0
MTEXT
  5
12B
330
128
100
AcDbEntity
  8
SLD-0
 62
     0
100
AcDbMText
 10
0.9375000000000078
 20
3.222669349429913
 30
0.0
 40
2.5
 41
0.0
 46
0.0
 71
     2
 72
     1
  1
%%p
  7
SLDTEXTSTYLE1
 73
     1
 44
1.0
  0
MTEXT
  5
12C
330
128
100
AcDbEntity
  8
SLD-0
 62
     0
100
AcDbMText
 10
4.439062550663952
 20
3.222669349429913
 30
0.0
 40
2.5
 41
0.0
 46
0.0
 71
     2
 72
     1
  1
10'
  7
SLDTEXTSTYLE1
 73
     1
 44
1.0
  0
ENDBLK
  5
12A
330
128
100
AcDbEntity
  8
0
100
AcDbBlockEnd
  0
BLOCK
  5
132
330
131
100
AcDbEntity
  8
0
100
AcDbBlockBegin
  2
SW_SFSYMBOL_0
 70
     0
 10
0.0
 20
0.0
 30
0.0
  3
SW_SFSYMBOL_0
  1

  0
LINE
  5
134
330
131
100
AcDbEntity
  8
SLD-0
 62
     0
100
AcDbLine
 10
2.450173336399685
 20
-3.571249825377015
 30
0.0
 11
0.3434233363996952
 21
0.0000001746229827
 31
0.0
  0
LINE
  5
135
330
131
100
AcDbEntity
  8
SLD-0
 62
     0
100
AcDbLine
 10
4.556923336399676
 20
0.0000001746229827
 30
0.0
 11
0.3434233363996952
 21
0.0000001746229827
 31
0.0
  0
LINE
  5
136
330
131
100
AcDbEntity
  8
SLD-0
 62
     0
100
AcDbLine
 10
2.450173336399685
 20
-3.571249825377015
 30
0.0
 11
6.663673336399666
 21
3.57125017462298
 31
0.0
  0
MTEXT
  5
137
330
131
100
AcDbEntity
  8
SLD-0
 62
     0
100
AcDbMText
 10
0.0
 20
3.222669349429913
 30
0.0
 40
2.5
 41
0.0
 46
0.0
 71
     1
 72
     1
  1
3.2
  7
SLDTEXTSTYLE1
 73
     1
 44
1.0
  0
ENDBLK
  5
133
330
131
100
AcDbEntity
  8
0
100
AcDbBlockEnd
  0
BLOCK
  5
261
330
260
100
AcDbEntity
  8
0
100
AcDbBlockBegin
  2
*U23
 70
     1
 10
0.0
 20
0.0
 30
0.0
  3
*U23
  1

  0
ENDBLK
  5
262
330
260
100
AcDbEntity
  8
0
100
AcDbBlockEnd
  0
BLOCK
  5
2A4
330
2A2
100
AcDbEntity
  8
0
100
AcDbBlockBegin
  2
GENAXEH
 70
     0
 10
0.0
 20
0.0
 30
0.0
  3
GENAXEH
  1

  0
LINE
  5
2A3
330
2A2
100
AcDbEntity
  8
0
100
AcDbLine
 10
-1.0
 20
0.0
 30
0.0
 11
1.0
 21
0.0
 31
0.0
  0
ENDBLK
  5
2A5
330
2A2
100
AcDbEntity
  8
0
100
AcDbBlockEnd
  0
BLOCK
  5
2CD
330
2C2
100
AcDbEntity
  8
0
100
AcDbBlockBegin
  2
*D25
 70
     1
 10
0.0
 20
0.0
 30
0.0
  3
*D25
  1

  0
LINE
  5
2D9
330
2C2
100
AcDbEntity
  8
AM_5
 62
     0
440
 16777216
370
    -2
100
AcDbLine
 10
401.438369127391
 20
166.7544371386759
 30
0.0
 11
422.3902561503232
 21
166.7544371386759
 31
0.0
  0
LINE
  5
2DA
330
2C2
100
AcDbEntity
  8
AM_5
 62
     0
440
 16777216
370
    -2
100
AcDbLine
 10
389.9383691273912
 20
140.7544371386758
 30
0.0
 11
422.3902561503232
 21
140.7544371386758
 31
0.0
  0
LINE
  5
2DB
330
2C2
100
AcDbEntity
  8
AM_5
 62
     0
440
 16777216
370
    -2
100
AcDbLine
 10
420.8902561503232
 20
164.7544371386759
 30
0.0
 11
420.8902561503232
 21
156.5284371386758
 31
0.0
  0
LINE
  5
2DC
330
2C2
100
AcDbEntity
  8
AM_5
 62
     0
440
 16777216
370
    -2
100
AcDbLine
 10
420.8902561503232
 20
142.7544371386758
 30
0.0
 11
420.8902561503232
 21
150.9804371386758
 31
0.0
  0
SOLID
  5
2DD
330
2C2
100
AcDbEntity
  8
AM_5
 62
     0
440
 16777216
100
AcDbTrace
 10
420.5569228169899
 20
164.7544371386759
 30
0.0
 11
421.2235894836565
 21
164.7544371386759
 31
0.0
 12
420.8902561503232
 22
166.7544371386759
 32
0.0
 13
420.8902561503232
 23
166.7544371386759
 33
0.0
  0
SOLID
  5
2DE
330
2C2
100
AcDbEntity
  8
AM_5
 62
     0
440
 16777216
100
AcDbTrace
 10
420.5569228169899
 20
142.7544371386758
 30
0.0
 11
421.2235894836565
 21
142.7544371386758
 31
0.0
 12
420.8902561503232
 22
140.7544371386758
 32
0.0
 13
420.8902561503232
 23
140.7544371386758
 33
0.0
  0
MTEXT
  5
2DF
330
2C2
100
AcDbEntity
  8
AM_5
 62
     0
440
 16777216
100
AcDbMText
 10
420.8902561503231
 20
153.7544371386759
 30
0.0
 40
2.5
 41
0.0
 46
0.0
 71
     5
 72
     1
  1
26
 73
     1
 44
1.0
  0
POINT
  5
2E0
330
2C2
100
AcDbEntity
  8
Defpoints
 62
     0
440
 16777216
100
AcDbPoint
 10
400.438369127391
 20
166.7544371386759
 30
0.0
  0
POINT
  5
2E1
330
2C2
100
AcDbEntity
  8
Defpoints
 62
     0
440
 16777216
100
AcDbPoint
 10
388.9383691273912
 20
140.7544371386758
 30
0.0
  0
POINT
  5
2E2
330
2C2
100
AcDbEntity
  8
Defpoints
 62
     0
440
 16777216
100
AcDbPoint
 10
420.8902561503232
 20
140.7544371386758
 30
0.0
  0
ENDBLK
  5
2CE
330
2C2
100
AcDbEntity
  8
0
100
AcDbBlockEnd
  0
BLOCK
  5
300
330
2F6
100
AcDbEntity
  8
0
100
AcDbBlockBegin
  2
*D26
 70
     1
 10
0.0
 20
0.0
 30
0.0
  3
*D26
  1

  0
LINE
  5
302
330
2F6
100
AcDbEntity
  8
AM_5
 62
     0
440
 16777216
370
    -2
100
AcDbLine
 10
405.938369127391
 20
154.7544371386759
 30
0.0
 11
405.938369127391
 21
123.142568525991
 31
0.0
  0
LINE
  5
303
330
2F6
100
AcDbEntity
  8
AM_5
 62
     0
440
 16777216
370
    -2
100
AcDbLine
 10
329.9383691273911
 20
154.7544371386759
 30
0.0
 11
329.9383691273911
 21
123.142568525991
 31
0.0
  0
LINE
  5
304
330
2F6
100
AcDbEntity
  8
AM_5
 62
     0
440
 16777216
370
    -2
100
AcDbLine
 10
403.938369127391
 20
124.642568525991
 30
0.0
 11
331.9383691273911
 21
124.642568525991
 31
0.0
  0
SOLID
  5
305
330
2F6
100
AcDbEntity
  8
AM_5
 62
     0
440
 16777216
100
AcDbTrace
 10
403.938369127391
 20
124.9759018593244
 30
0.0
 11
403.938369127391
 21
124.3092351926577
 31
0.0
 12
405.938369127391
 22
124.642568525991
 32
0.0
 13
405.938369127391
 23
124.642568525991
 33
0.0
  0
SOLID
  5
306
330
2F6
100
AcDbEntity
  8
AM_5
 62
     0
440
 16777216
100
AcDbTrace
 10
331.9383691273911
 20
124.9759018593244
 30
0.0
 11
331.9383691273911
 21
124.3092351926577
 31
0.0
 12
329.9383691273911
 22
124.642568525991
 32
0.0
 13
329.9383691273911
 23
124.642568525991
 33
0.0
  0
MTEXT
  5
307
330
2F6
100
AcDbEntity
  8
AM_5
 62
     0
440
 16777216
100
AcDbMText
 10
367.9383691273911
 20
127.4165685259911
 30
0.0
 40
2.5
 41
0.0
 46
0.0
 71
     5
 72
     1
  1
76
 73
     1
 44
1.0
  0
POINT
  5
308
330
2F6
100
AcDbEntity
  8
Defpoints
 62
     0
440
 16777216
100
AcDbPoint
 10
405.938369127391
 20
155.7544371386759
 30
0.0
  0
POINT
  5
309
330
2F6
100
AcDbEntity
  8
Defpoints
 62
     0
440
 16777216
100
AcDbPoint
 10
329.9383691273911
 20
155.7544371386759
 30
0.0
  0
POINT
  5
30A
330
2F6
100
AcDbEntity
  8
Defpoints
 62
     0
440
 16777216
100
AcDbPoint
 10
329.9383691273911
 20
124.642568525991
 30
0.0
  0
ENDBLK
  5
301
330
2F6
100
AcDbEntity
  8
0
100
AcDbBlockEnd
  0
BLOCK
  5
329
330
31E
100
AcDbEntity
  8
0
100
AcDbBlockBegin
  2
*D27
 70
     1
 10
0.0
 20
0.0
 30
0.0
  3
*D27
  1

  0
LINE
  5
32B
330
31E
100
AcDbEntity
  8
AM_5
 62
     0
440
 16777216
370
    -2
100
AcDbLine
 10
400.9383691273911
 20
95.98013469334775
 30
0.0
 11
422.4751927047312
 21
95.98013469334773
 31
0.0
  0
LINE
  5
32C
330
31E
100
AcDbEntity
  8
AM_5
 62
     0
440
 16777216
370
    -2
100
AcDbLine
 10
393.9383691273913
 20
15.98013469334774
 30
0.0
 11
422.4751927047312
 21
15.98013469334774
 31
0.0
  0
LINE
  5
32D
330
31E
100
AcDbEntity
  8
AM_5
 62
     0
440
 16777216
370
    -2
100
AcDbLine
 10
420.9751927047311
 20
93.98013469334774
 30
0.0
 11
420.9751927047311
 21
58.75413469334774
 31
0.0
  0
LINE
  5
32E
330
31E
100
AcDbEntity
  8
AM_5
 62
     0
440
 16777216
370
    -2
100
AcDbLine
 10
420.9751927047311
 20
17.98013469334774
 30
0.0
 11
420.9751927047311
 21
53.20613469334774
 31
0.0
  0
SOLID
  5
32F
330
31E
100
AcDbEntity
  8
AM_5
 62
     0
440
 16777216
100
AcDbTrace
 10
420.6418593713978
 20
93.98013469334774
 30
0.0
 11
421.3085260380644
 21
93.98013469334774
 31
0.0
 12
420.9751927047311
 22
95.98013469334773
 32
0.0
 13
420.9751927047311
 23
95.98013469334773
 33
0.0
  0
SOLID
  5
330
330
31E
100
AcDbEntity
  8
AM_5
 62
     0
440
 16777216
100
AcDbTrace
 10
420.6418593713978
 20
17.98013469334774
 30
0.0
 11
421.3085260380644
 21
17.98013469334774
 31
0.0
 12
420.9751927047311
 22
15.98013469334774
 32
0.0
 13
420.9751927047311
 23
15.98013469334774
 33
0.0
  0
MTEXT
  5
331
330
31E
100
AcDbEntity
  8
AM_5
 62
     0
440
 16777216
100
AcDbMText
 10
420.9751927047311
 20
55.9801346933478
 30
0.0
 40
2.5
 41
0.0
 46
0.0
 71
     5
 72
     1
  1
80
 73
     1
 44
1.0
  0
POINT
  5
332
330
31E
100
AcDbEntity
  8
Defpoints
 62
     0
440
 16777216
100
AcDbPoint
 10
399.9383691273911
 20
95.98013469334775
 30
0.0
  0
POINT
  5
333
330
31E
100
AcDbEntity
  8
Defpoints
 62
     0
440
 16777216
100
AcDbPoint
 10
392.9383691273913
 20
15.98013469334774
 30
0.0
  0
POINT
  5
334
330
31E
100
AcDbEntity
  8
Defpoints
 62
     0
440
 16777216
100
AcDbPoint
 10
420.9751927047311
 20
15.98013469334774
 30
0.0
  0
ENDBLK
  5
32A
330
31E
100
AcDbEntity
  8
0
100
AcDbBlockEnd
  0
ENDSEC
  0
SECTION
  2
ENTITIES
  0
LINE
  5
139
330
1F
100
AcDbEntity
  8
0
  6
Continuous
 62
     7
370
    15
100
AcDbLine
 10
392.9383691273912
 20
154.7544371386759
 30
0.0
 11
392.9383691273912
 21
144.7544371386758
 31
0.0
  0
LINE
  5
13A
330
1F
100
AcDbEntity
  8
0
  6
Continuous
 62
     7
370
    15
100
AcDbLine
 10
388.9383691273911
 20
140.7544371386759
 30
0.0
 11
346.9383691273911
 21
140.7544371386759
 31
0.0
  0
LINE
  5
13B
330
1F
100
AcDbEntity
  8
0
  6
Continuous
 62
     7
370
    15
100
AcDbLine
 10
342.9383691273911
 20
154.7544371386759
 30
0.0
 11
342.9383691273911
 21
144.7544371386758
 31
0.0
  0
ARC
  5
13C
330
1F
100
AcDbEntity
  8
0
  6
Continuous
 62
     7
370
    15
100
AcDbCircle
 10
388.9383691273911
 20
144.7544371386758
 30
0.0
 40
4.0
100
AcDbArc
 50
270.0000000000008
 51
0.0
  0
ARC
  5
13D
330
1F
100
AcDbEntity
  8
0
  6
Continuous
 62
     7
370
    15
100
AcDbCircle
 10
346.9383691273911
 20
144.7544371386758
 30
0.0
 40
4.0
100
AcDbArc
 50
180.0
 51
270.0000000000008
  0
CIRCLE
  5
13E
330
1F
100
AcDbEntity
  8
0
  6
Continuous
 62
     7
370
    15
100
AcDbCircle
 10
385.4383691273911
 20
147.7544371386758
 30
0.0
 40
5.0
  0
CIRCLE
  5
13F
330
1F
100
AcDbEntity
  8
0
  6
Continuous
 62
     7
370
    15
100
AcDbCircle
 10
350.4383691273911
 20
147.7544371386758
 30
0.0
 40
5.0
  0
CIRCLE
  5
140
330
1F
100
AcDbEntity
  8
0
  6
Continuous
 62
     7
370
    15
100
AcDbCircle
 10
350.4383691273911
 20
147.7544371386758
 30
0.0
 40
2.5
  0
CIRCLE
  5
141
330
1F
100
AcDbEntity
  8
0
  6
Continuous
 62
     7
370
    15
100
AcDbCircle
 10
385.4383691273911
 20
147.7544371386758
 30
0.0
 40
2.5
  0
LINE
  5
142
330
1F
100
AcDbEntity
  8
0
  6
Continuous
 62
     7
370
    15
100
AcDbLine
 10
389.4383691273911
 20
166.7544371386759
 30
0.0
 11
400.438369127391
 21
166.7544371386759
 31
0.0
  0
LINE
  5
143
330
1F
100
AcDbEntity
  8
0
  6
Continuous
 62
     7
370
    15
100
AcDbLine
 10
400.438369127391
 20
166.7544371386759
 30
0.0
 11
400.438369127391
 21
165.7544371386759
 31
0.0
  0
LINE
  5
144
330
1F
100
AcDbEntity
  8
0
  6
Continuous
 62
     7
370
    15
100
AcDbLine
 10
389.4383691273911
 20
166.7544371386759
 30
0.0
 11
389.4383691273911
 21
165.7544371386759
 31
0.0
  0
LINE
  5
145
330
1F
100
AcDbEntity
  8
0
  6
Continuous
 62
     7
370
    15
100
AcDbLine
 10
389.4383691273911
 20
155.7544371386759
 30
0.0
 11
389.4383691273911
 21
154.7544371386759
 31
0.0
  0
LINE
  5
146
330
1F
100
AcDbEntity
  8
0
  6
Continuous
 62
     7
370
    15
100
AcDbLine
 10
346.4383691273911
 20
154.7544371386759
 30
0.0
 11
389.4383691273911
 21
154.7544371386759
 31
0.0
  0
LINE
  5
147
330
1F
100
AcDbEntity
  8
0
  6
Continuous
 62
     7
370
    15
100
AcDbLine
 10
346.4383691273911
 20
155.7544371386759
 30
0.0
 11
346.4383691273911
 21
154.7544371386759
 31
0.0
  0
LINE
  5
148
330
1F
100
AcDbEntity
  8
0
  6
Continuous
 62
     7
370
    15
100
AcDbLine
 10
346.4383691273911
 20
166.7544371386759
 30
0.0
 11
346.4383691273911
 21
165.7544371386759
 31
0.0
  0
LINE
  5
149
330
1F
100
AcDbEntity
  8
0
  6
Continuous
 62
     7
370
    15
100
AcDbLine
 10
346.4383691273911
 20
166.7544371386759
 30
0.0
 11
389.4383691273911
 21
166.7544371386759
 31
0.0
  0
LINE
  5
14A
330
1F
100
AcDbEntity
  8
0
  6
Continuous
 62
     7
370
    15
100
AcDbLine
 10
400.438369127391
 20
155.7544371386759
 30
0.0
 11
400.438369127391
 21
154.7544371386759
 31
0.0
  0
LINE
  5
14B
330
1F
100
AcDbEntity
  8
0
  6
Continuous
 62
     7
370
    15
100
AcDbLine
 10
389.4383691273911
 20
154.7544371386759
 30
0.0
 11
400.438369127391
 21
154.7544371386759
 31
0.0
  0
LINE
  5
14C
330
1F
100
AcDbEntity
  8
0
  6
Continuous
 62
     7
370
    15
100
AcDbLine
 10
335.4383691273911
 20
166.7544371386759
 30
0.0
 11
335.4383691273911
 21
165.7544371386759
 31
0.0
  0
LINE
  5
14D
330
1F
100
AcDbEntity
  8
0
  6
Continuous
 62
     7
370
    15
100
AcDbLine
 10
335.4383691273911
 20
166.7544371386759
 30
0.0
 11
346.4383691273911
 21
166.7544371386759
 31
0.0
  0
LINE
  5
14E
330
1F
100
AcDbEntity
  8
0
  6
Continuous
 62
     7
370
    15
100
AcDbLine
 10
335.4383691273911
 20
155.7544371386759
 30
0.0
 11
335.4383691273911
 21
154.7544371386759
 31
0.0
  0
LINE
  5
14F
330
1F
100
AcDbEntity
  8
0
  6
Continuous
 62
     7
370
    15
100
AcDbLine
 10
335.4383691273911
 20
154.7544371386759
 30
0.0
 11
346.4383691273911
 21
154.7544371386759
 31
0.0
  0
LINE
  5
150
330
1F
100
AcDbEntity
  8
0
  6
Continuous
 62
     7
370
    15
100
AcDbLine
 10
405.938369127391
 20
165.7544371386759
 30
0.0
 11
405.938369127391
 21
155.7544371386759
 31
0.0
  0
LINE
  5
151
330
1F
100
AcDbEntity
  8
0
  6
Continuous
 62
     7
370
    15
100
AcDbLine
 10
392.9383691273912
 20
155.7544371386759
 30
0.0
 11
392.9383691273912
 21
165.7544371386759
 31
0.0
  0
LINE
  5
152
330
1F
100
AcDbEntity
  8
0
  6
Continuous
 62
     7
370
    15
100
AcDbLine
 10
405.938369127391
 20
155.7544371386759
 30
0.0
 11
392.9383691273912
 21
155.7544371386759
 31
0.0
  0
LINE
  5
153
330
1F
100
AcDbEntity
  8
0
  6
Continuous
 62
     7
370
    15
100
AcDbLine
 10
392.9383691273912
 20
165.7544371386759
 30
0.0
 11
405.938369127391
 21
165.7544371386759
 31
0.0
  0
LINE
  5
154
330
1F
100
AcDbEntity
  8
0
  6
Continuous
 62
     7
370
    15
100
AcDbLine
 10
342.9383691273911
 20
165.7544371386759
 30
0.0
 11
342.9383691273911
 21
155.7544371386759
 31
0.0
  0
LINE
  5
155
330
1F
100
AcDbEntity
  8
0
  6
Continuous
 62
     7
370
    15
100
AcDbLine
 10
329.9383691273911
 20
155.7544371386759
 30
0.0
 11
329.9383691273911
 21
165.7544371386759
 31
0.0
  0
LINE
  5
156
330
1F
100
AcDbEntity
  8
0
  6
Continuous
 62
     7
370
    15
100
AcDbLine
 10
342.9383691273911
 20
155.7544371386759
 30
0.0
 11
329.9383691273911
 21
155.7544371386759
 31
0.0
  0
LINE
  5
157
330
1F
100
AcDbEntity
  8
0
  6
Continuous
 62
     7
370
    15
100
AcDbLine
 10
329.9383691273911
 20
165.7544371386759
 30
0.0
 11
342.9383691273911
 21
165.7544371386759
 31
0.0
  0
LINE
  5
158
330
1F
100
AcDbEntity
  8
0
  6
Continuous
 62
     7
370
    15
100
AcDbLine
 10
342.9383691273911
 20
155.7544371386759
 30
0.0
 11
392.9383691273912
 21
155.7544371386759
 31
0.0
  0
LINE
  5
159
330
1F
100
AcDbEntity
  8
0
  6
Continuous
 62
     7
370
    15
100
AcDbLine
 10
342.9383691273911
 20
165.7544371386759
 30
0.0
 11
392.9383691273912
 21
165.7544371386759
 31
0.0
  0
LINE
  5
15A
330
1F
100
AcDbEntity
  8
0
  6
Continuous
 62
     7
370
    15
100
AcDbLine
 10
389.4383691273911
 20
86.48013469334774
 30
0.0
 11
346.4383691273911
 21
86.48013469334774
 31
0.0
  0
ARC
  5
15B
330
1F
100
AcDbEntity
  8
0
  6
Continuous
 62
     7
370
    15
100
AcDbCircle
 10
389.4383691273911
 20
75.48013469334775
 30
0.0
 40
11.0
100
AcDbArc
 50
0.000000000000074
 51
90.0
  0
LINE
  5
15C
330
1F
100
AcDbEntity
  8
0
  6
Continuous
 62
     7
370
    15
100
AcDbLine
 10
400.438369127391
 20
32.48013469334778
 30
0.0
 11
400.438369127391
 21
75.48013469334776
 31
0.0
  0
ARC
  5
15D
330
1F
100
AcDbEntity
  8
0
  6
Continuous
 62
     7
370
    15
100
AcDbCircle
 10
389.4383691273911
 20
32.48013469334777
 30
0.0
 40
11.0
100
AcDbArc
 50
270.0000000000008
 51
0.000000000000037
  0
LINE
  5
15E
330
1F
100
AcDbEntity
  8
0
  6
Continuous
 62
     7
370
    15
100
AcDbLine
 10
346.4383691273911
 20
21.48013469334776
 30
0.0
 11
389.4383691273911
 21
21.48013469334778
 31
0.0
  0
ARC
  5
15F
330
1F
100
AcDbEntity
  8
0
  6
Continuous
 62
     7
370
    15
100
AcDbCircle
 10
346.4383691273911
 20
32.48013469334778
 30
0.0
 40
11.00000000000001
100
AcDbArc
 50
180.0000000000008
 51
270.0000000000008
  0
LINE
  5
160
330
1F
100
AcDbEntity
  8
0
  6
Continuous
 62
     7
370
    15
100
AcDbLine
 10
335.4383691273911
 20
75.48013469334775
 30
0.0
 11
335.4383691273911
 21
32.48013469334777
 31
0.0
  0
ARC
  5
161
330
1F
100
AcDbEntity
  8
0
  6
Continuous
 62
     7
370
    15
100
AcDbCircle
 10
346.4383691273911
 20
75.48013469334775
 30
0.0
 40
11.0
100
AcDbArc
 50
90.0
 51
180.0
  0
ARC
  5
162
330
1F
100
AcDbEntity
  8
0
  6
Continuous
 62
     7
370
    15
100
AcDbCircle
 10
346.4383691273911
 20
32.48013469334778
 30
0.0
 40
8.50000000000001
100
AcDbArc
 50
180.0000000000008
 51
270.0000000000008
  0
LINE
  5
163
330
1F
100
AcDbEntity
  8
0
  6
Continuous
 62
     7
370
    15
100
AcDbLine
 10
389.4383691273911
 20
23.98013469334778
 30
0.0
 11
346.4383691273911
 21
23.98013469334777
 31
0.0
  0
ARC
  5
164
330
1F
100
AcDbEntity
  8
0
  6
Continuous
 62
     7
370
    15
100
AcDbCircle
 10
389.4383691273911
 20
32.48013469334777
 30
0.0
 40
8.5
100
AcDbArc
 50
270.0000000000008
 51
0.0000000000000479
  0
LINE
  5
165
330
1F
100
AcDbEntity
  8
0
  6
Continuous
 62
     7
370
    15
100
AcDbLine
 10
397.9383691273911
 20
75.48013469334775
 30
0.0
 11
397.9383691273911
 21
32.48013469334778
 31
0.0
  0
ARC
  5
166
330
1F
100
AcDbEntity
  8
0
  6
Continuous
 62
     7
370
    15
100
AcDbCircle
 10
389.4383691273911
 20
75.48013469334775
 30
0.0
 40
8.5
100
AcDbArc
 50
0.0
 51
90.0
  0
LINE
  5
167
330
1F
100
AcDbEntity
  8
0
  6
Continuous
 62
     7
370
    15
100
AcDbLine
 10
346.4383691273911
 20
83.98013469334774
 30
0.0
 11
389.4383691273911
 21
83.98013469334776
 31
0.0
  0
ARC
  5
168
330
1F
100
AcDbEntity
  8
0
  6
Continuous
 62
     7
370
    15
100
AcDbCircle
 10
346.4383691273911
 20
75.48013469334775
 30
0.0
 40
8.5
100
AcDbArc
 50
90.0
 51
180.0
  0
LINE
  5
169
330
1F
100
AcDbEntity
  8
0
  6
Continuous
 62
     7
370
    15
100
AcDbLine
 10
337.9383691273911
 20
32.48013469334777
 30
0.0
 11
337.9383691273911
 21
75.48013469334775
 31
0.0
  0
ARC
  5
16A
330
1F
100
AcDbEntity
  8
0
  6
Continuous
 62
     7
370
    15
100
AcDbCircle
 10
389.4383691273911
 20
75.48013469334775
 30
0.0
 40
8.0
100
AcDbArc
 50
0.0
 51
90.0
  0
LINE
  5
16B
330
1F
100
AcDbEntity
  8
0
  6
Continuous
 62
     7
370
    15
100
AcDbLine
 10
389.4383691273911
 20
83.48013469334775
 30
0.0
 11
389.4383691273911
 21
83.98013469334776
 31
0.0
  0
LINE
  5
16C
330
1F
100
AcDbEntity
  8
0
  6
Continuous
 62
     7
370
    15
100
AcDbLine
 10
397.4383691273911
 20
75.48013469334775
 30
0.0
 11
397.9383691273911
 21
75.48013469334775
 31
0.0
  0
ARC
  5
16D
330
1F
100
AcDbEntity
  8
0
  6
Continuous
 62
     7
370
    15
100
AcDbCircle
 10
346.4383691273911
 20
75.48013469334775
 30
0.0
 40
8.0
100
AcDbArc
 50
90.0
 51
180.0
  0
LINE
  5
16E
330
1F
100
AcDbEntity
  8
0
  6
Continuous
 62
     7
370
    15
100
AcDbLine
 10
337.9383691273911
 20
75.48013469334775
 30
0.0
 11
338.4383691273911
 21
75.48013469334775
 31
0.0
  0
LINE
  5
16F
330
1F
100
AcDbEntity
  8
0
  6
Continuous
 62
     7
370
    15
100
AcDbLine
 10
346.4383691273911
 20
83.48013469334773
 30
0.0
 11
346.4383691273911
 21
83.98013469334774
 31
0.0
  0
LINE
  5
170
330
1F
100
AcDbEntity
  8
0
  6
Continuous
 62
     7
370
    15
100
AcDbLine
 10
389.4383691273911
 20
83.48013469334775
 30
0.0
 11
346.4383691273911
 21
83.48013469334773
 31
0.0
  0
LINE
  5
171
330
1F
100
AcDbEntity
  8
0
  6
Continuous
 62
     7
370
    15
100
AcDbLine
 10
397.4383691273911
 20
32.48013469334778
 30
0.0
 11
397.4383691273911
 21
75.48013469334775
 31
0.0
  0
LINE
  5
172
330
1F
100
AcDbEntity
  8
0
  6
Continuous
 62
     7
370
    15
100
AcDbLine
 10
397.4383691273911
 20
32.48013469334778
 30
0.0
 11
397.9383691273911
 21
32.48013469334778
 31
0.0
  0
LINE
  5
173
330
1F
100
AcDbEntity
  8
0
  6
Continuous
 62
     7
370
    15
100
AcDbLine
 10
338.4383691273911
 20
75.48013469334775
 30
0.0
 11
338.4383691273911
 21
32.48013469334777
 31
0.0
  0
LINE
  5
174
330
1F
100
AcDbEntity
  8
0
  6
Continuous
 62
     7
370
    15
100
AcDbLine
 10
337.9383691273911
 20
32.48013469334777
 30
0.0
 11
338.4383691273911
 21
32.48013469334777
 31
0.0
  0
ARC
  5
175
330
1F
100
AcDbEntity
  8
0
  6
Continuous
 62
     7
370
    15
100
AcDbCircle
 10
346.4383691273911
 20
32.48013469334778
 30
0.0
 40
8.00000000000001
100
AcDbArc
 50
180.0000000000008
 51
270.0000000000008
  0
LINE
  5
176
330
1F
100
AcDbEntity
  8
0
  6
Continuous
 62
     7
370
    15
100
AcDbLine
 10
346.4383691273911
 20
23.98013469334777
 30
0.0
 11
346.4383691273911
 21
24.48013469334777
 31
0.0
  0
ARC
  5
177
330
1F
100
AcDbEntity
  8
0
  6
Continuous
 62
     7
370
    15
100
AcDbCircle
 10
389.4383691273911
 20
32.48013469334777
 30
0.0
 40
8.0
100
AcDbArc
 50
270.0000000000008
 51
0.0000000000000509
  0
LINE
  5
178
330
1F
100
AcDbEntity
  8
0
  6
Continuous
 62
     7
370
    15
100
AcDbLine
 10
389.4383691273911
 20
23.98013469334778
 30
0.0
 11
389.4383691273911
 21
24.48013469334779
 31
0.0
  0
LINE
  5
179
330
1F
100
AcDbEntity
  8
0
  6
Continuous
 62
     7
370
    15
100
AcDbLine
 10
346.4383691273911
 20
24.48013469334777
 30
0.0
 11
389.4383691273911
 21
24.48013469334779
 31
0.0
  0
ARC
  5
17A
330
1F
100
AcDbEntity
  8
0
  6
Continuous
 62
     7
370
    15
100
AcDbCircle
 10
367.9383691273911
 20
99.7718013600144
 30
0.0
 40
17.04166666666665
100
AcDbArc
 50
252.9384687801045
 51
287.0615312198971
  0
ARC
  5
17B
330
1F
100
AcDbEntity
  8
0
  6
Continuous
 62
     7
370
    15
100
AcDbCircle
 10
367.9383691273907
 20
8.188468026681098
 30
0.0
 40
17.04166666666666
100
AcDbArc
 50
72.93846878010334
 51
107.0615312198959
  0
ARC
  5
17C
330
1F
100
AcDbEntity
  8
0
  6
Continuous
 62
     7
370
    15
100
AcDbCircle
 10
422.188369127391
 20
53.98013469334776
 30
0.0
 40
25.24999999999995
100
AcDbArc
 50
168.5788137250007
 51
191.4211862750001
  0
ARC
  5
17D
330
1F
100
AcDbEntity
  8
0
  6
Continuous
 62
     7
370
    15
100
AcDbCircle
 10
313.6883691273911
 20
53.98013469334775
 30
0.0
 40
25.24999999999995
100
AcDbArc
 50
348.5788137250015
 51
11.42118627499932
  0
ARC
  5
17E
330
1F
100
AcDbEntity
  8
0
  6
Continuous
 62
     7
370
    15
100
AcDbCircle
 10
392.9383691273912
 20
28.98013469334775
 30
0.0
 40
13.0
100
AcDbArc
 50
270.0000000000008
 51
0.0
  0
LINE
  5
17F
330
1F
100
AcDbEntity
  8
0
  6
Continuous
 62
     7
370
    15
100
AcDbLine
 10
342.9383691273911
 20
15.98013469334774
 30
0.0
 11
392.9383691273912
 21
15.98013469334774
 31
0.0
  0
ARC
  5
180
330
1F
100
AcDbEntity
  8
0
  6
Continuous
 62
     7
370
    15
100
AcDbCircle
 10
342.9383691273911
 20
28.98013469334775
 30
0.0
 40
13.0
100
AcDbArc
 50
180.0
 51
270.0000000000008
  0
LINE
  5
181
330
1F
100
AcDbEntity
  8
0
  6
Continuous
 62
     7
370
    15
100
AcDbLine
 10
329.9383691273911
 20
89.98013469334777
 30
0.0
 11
329.9383691273911
 21
28.98013469334775
 31
0.0
  0
ARC
  5
182
330
1F
100
AcDbEntity
  8
0
  6
Continuous
 62
     7
370
    15
100
AcDbCircle
 10
399.9383691273911
 20
89.98013469334777
 30
0.0
 40
5.999999999999985
100
AcDbArc
 50
0.0
 51
90.0
  0
LINE
  5
183
330
1F
100
AcDbEntity
  8
0
  6
Continuous
 62
     7
370
    15
100
AcDbLine
 10
405.938369127391
 20
28.98013469334775
 30
0.0
 11
405.938369127391
 21
89.98013469334777
 31
0.0
  0
ARC
  5
184
330
1F
100
AcDbEntity
  8
0
  6
Continuous
 62
     7
370
    15
100
AcDbCircle
 10
335.9383691273911
 20
89.98013469334777
 30
0.0
 40
5.999999999999985
100
AcDbArc
 50
90.0
 51
180.0
  0
LINE
  5
185
330
1F
100
AcDbEntity
  8
0
  6
Continuous
 62
     7
370
    15
100
AcDbLine
 10
399.9383691273911
 20
95.98013469334775
 30
0.0
 11
335.9383691273911
 21
95.98013469334775
 31
0.0
  0
SPLINE
  5
186
330
1F
100
AcDbEntity
  8
0
  6
Continuous
 62
     7
370
    15
100
AcDbSpline
210
0.0
220
0.0
230
1.0
 70
     8
 71
     3
 72
    27
 73
    23
 74
     0
 42
0.000000001
 43
0.0000000001
 40
0.0
 40
0.0
 40
0.0
 40
0.0
 40
0.0274002342271526
 40
0.0797679655257722
 40
0.1321992926708211
 40
0.1846925077470078
 40
0.2372512295079752
 40
0.2898716988242392
 40
0.3425458623369307
 40
0.3952632781105241
 40
0.4480122418193616
 40
0.5007804157693354
 40
0.5535551520677088
 40
0.6063214432128801
 40
0.6590643197359199
 40
0.7117708779585805
 40
0.7644283782124916
 40
0.8170246062263551
 40
0.8695485700836378
 40
0.9219917362640771
 40
0.9743501030570685
 40
0.9999999999999998
 40
0.9999999999999998
 40
0.9999999999999998
 40
0.9999999999999998
 10
480.3965838519722
 20
62.74844081101139
 30
0.0
 10
480.3553921984255
 20
62.72527367639852
 30
0.0
 10
480.2354744498095
 20
62.65782917282932
 30
0.0
 10
480.0214120734207
 20
62.55421691919266
 30
0.0
 10
479.7497710933988
 20
62.44244183105042
 30
0.0
 10
479.4614619591978
 20
62.34365772909558
 30
0.0
 10
479.1589244731625
 20
62.25856660029871
 30
0.0
 10
478.8442414676521
 20
62.18795830609257
 30
0.0
 10
478.5197331538874
 20
62.13243935019537
 30
0.0
 10
478.1877735308333
 20
62.09249972572487
 30
0.0
 10
477.8508098553798
 20
62.06848948388145
 30
0.0
 10
477.5113297067738
 20
62.06062188044454
 30
0.0
 10
477.1718483488029
 20
62.06897063433732
 30
0.0
 10
476.8348880830102
 20
62.09346855540164
 30
0.0
 10
476.5029532665372
 20
62.13390618389309
 30
0.0
 10
476.178508784735
 20
62.18993432764276
 30
0.0
 10
475.8639498115011
 20
62.26106042354279
 30
0.0
 10
475.561626580376
 20
62.34666769898516
 30
0.0
 10
475.2736694785071
 20
62.44594659647912
 30
0.0
 10
475.0025337654077
 20
62.55815874723325
 30
0.0
 10
474.7918569692116
 20
62.66073393070509
 30
0.0
 10
474.6746836528227
 20
62.72673800993612
 30
0.0
 10
474.6361558950456
 20
62.74844081101139
 30
0.0
  0
LINE
  5
187
330
1F
100
AcDbEntity
  8
0
  6
Continuous
 62
     7
370
    15
100
AcDbLine
 10
495.5993796474831
 20
71.52482801310549
 30
0.0
 11
480.3965838519722
 21
62.74844081101137
 31
0.0
  0
LINE
  5
188
330
1F
100
AcDbEntity
  8
0
  6
Continuous
 62
     7
370
    15
100
AcDbLine
 10
474.6361558950456
 20
62.74844081101139
 30
0.0
 11
459.4333600995348
 21
71.52482801310552
 31
0.0
  0
LINE
  5
189
330
1F
100
AcDbEntity
  8
0
  6
Continuous
 62
     7
370
    15
100
AcDbLine
 10
498.2191656690197
 20
72.83904783216214
 30
0.0
 11
498.2191656690197
 21
73.24731823810501
 31
0.0
  0
LINE
  5
18A
330
1F
100
AcDbEntity
  8
0
  6
Continuous
 62
     7
370
    15
100
AcDbLine
 10
456.8135740779982
 20
73.24731823810504
 30
0.0
 11
456.8135740779982
 21
72.83904783216216
 31
0.0
  0
SPLINE
  5
18B
330
1F
100
AcDbEntity
  8
0
  6
Continuous
 62
     7
370
    15
100
AcDbSpline
210
0.0
220
0.0
230
1.0
 70
     8
 71
     3
 72
    17
 73
    13
 74
     0
 42
0.000000001
 43
0.0000000001
 40
0.0
 40
0.0
 40
0.0
 40
0.0
 40
0.0280704114913395
 40
0.1423686534638254
 40
0.2562428877353018
 40
0.3683395340397892
 40
0.478375528377942
 40
0.5867092061709989
 40
0.6938775675372831
 40
0.8003533586589776
 40
0.9064810858404634
 40
1.0
 40
1.0
 40
1.0
 40
1.0
 10
496.7165495348004
 20
73.04599724921972
 30
0.0
 10
496.7173712341725
 20
73.03103053890993
 30
0.0
 10
496.7215387624324
 20
72.95512176948394
 30
0.0
 10
496.7008752472912
 20
72.81847898477448
 30
0.0
 10
496.6531620305657
 20
72.63677199431471
 30
0.0
 10
496.5749903204721
 20
72.45754875669621
 30
0.0
 10
496.4703288151371
 20
72.28257959277236
 30
0.0
 10
496.3394914062095
 20
72.1130336988389
 30
0.0
 10
496.1837370489191
 20
71.94973474438526
 30
0.0
 10
496.0034152075071
 20
71.79382558402533
 30
0.0
 10
495.8092269319059
 20
71.65124303304563
 30
0.0
 10
495.6663202883952
 20
71.56515401722309
 30
0.0
 10
495.5993796474831
 20
71.52482801310549
 30
0.0
  0
SPLINE
  5
18C
330
1F
100
AcDbEntity
  8
0
  6
Continuous
 62
     7
370
    15
100
AcDbSpline
210
0.0
220
0.0
230
1.0
 70
     8
 71
     3
 72
    17
 73
    13
 74
     0
 42
0.000000001
 43
0.0000000001
 40
0.0
 40
0.0
 40
0.0
 40
0.0
 40
0.0556002588038131
 40
0.1616444912439284
 40
0.2676318246917503
 40
0.3736537324298482
 40
0.4799070832996418
 40
0.5866965864337342
 40
0.694449493821892
 40
0.8036871408051535
 40
0.9148880385357477
 40
1.0
 40
1.0
 40
1.0
 40
1.0
 10
459.4333600995348
 20
71.52482801310552
 30
0.0
 10
459.3933476345774
 20
71.54853786307019
 30
0.0
 10
459.2770209360938
 20
71.61746859680171
 30
0.0
 10
459.1006796535526
 20
71.73895995859567
 30
0.0
 10
458.9131817733367
 20
71.89091131813753
 30
0.0
 10
458.7502009677523
 20
72.04967220458887
 30
0.0
 10
458.6121294510291
 20
72.21374682182804
 30
0.0
 10
458.4995925296862
 20
72.38204945555937
 30
0.0
 10
458.4125206946787
 20
72.55373478341754
 30
0.0
 10
458.3522467628791
 20
72.72836867960075
 30
0.0
 10
458.3181062265427
 20
72.89086394455336
 30
0.0
 10
458.3167696768753
 20
72.99515371437319
 30
0.0
 10
458.3161902122174
 20
73.04036882104745
 30
0.0
  0
LINE
  5
18D
330
1F
100
AcDbEntity
  8
0
  6
Continuous
 62
     7
370
    15
100
AcDbLine
 10
480.3965838519723
 20
78.84695079388414
 30
0.0
 11
494.3398132381603
 21
70.79769580244775
 31
0.0
  0
LINE
  5
18E
330
1F
100
AcDbEntity
  8
0
  6
Continuous
 62
     7
370
    15
100
AcDbLine
 10
460.6929265088576
 20
70.79769580244778
 30
0.0
 11
474.6361558950456
 21
78.84695079388416
 31
0.0
  0
SPLINE
  5
18F
330
1F
100
AcDbEntity
  8
0
  6
Continuous
 62
     7
370
    15
100
AcDbSpline
210
0.0
220
0.0
230
1.0
 70
     8
 71
     3
 72
    13
 73
     9
 74
     0
 42
0.000000001
 43
0.0000000001
 40
0.0
 40
0.0
 40
0.0
 40
0.0
 40
0.1531924754794201
 40
0.3518339915959303
 40
0.55126736023661
 40
0.7511445403437148
 40
0.9511766511114984
 40
1.0
 40
1.0
 40
1.0
 40
1.0
 10
486.7983328897578
 20
75.75370655479026
 30
0.0
 10
486.8751393723479
 20
75.68802813578793
 30
0.0
 10
487.0515392331477
 20
75.53718586858785
 30
0.0
 10
487.3540685149729
 20
75.31694155613698
 30
0.0
 10
487.7000214043873
 20
75.09014279186345
 30
0.0
 10
488.0687043605017
 20
74.8788917194241
 30
0.0
 10
488.3547294221324
 20
74.72822729061518
 30
0.0
 10
488.5228452634696
 20
74.65304439813941
 30
0.0
 10
488.5558281780764
 20
74.63829414674906
 30
0.0
  0
SPLINE
  5
190
330
1F
100
AcDbEntity
  8
0
  6
Continuous
 62
     7
370
    15
100
AcDbSpline
210
0.0
220
0.0
230
1.0
 70
     8
 71
     3
 72
    27
 73
    23
 74
     0
 42
0.000000001
 43
0.0000000001
 40
0.0
 40
0.0
 40
0.0
 40
0.0
 40
0.0274002342271529
 40
0.0797679655257838
 40
0.1321992926708312
 40
0.1846925077470197
 40
0.2372512295079758
 40
0.2898716988242413
 40
0.3425458623369379
 40
0.3952632781105243
 40
0.4480122418193627
 40
0.5007804157693413
 40
0.5535551520677159
 40
0.6063214432128831
 40
0.6590643197359237
 40
0.7117708779585886
 40
0.7644283782124952
 40
0.8170246062263533
 40
0.869548570083641
 40
0.9219917362640819
 40
0.9743501030570719
 40
1.0
 40
1.0
 40
1.0
 40
1.0
 10
474.6361558950456
 20
78.84695079388416
 30
0.0
 10
474.6773475485925
 20
78.87011792849704
 30
0.0
 10
474.7972652972086
 20
78.93756243206623
 30
0.0
 10
475.0113276735972
 20
79.0411746857029
 30
0.0
 10
475.2829686536192
 20
79.15294977384515
 30
0.0
 10
475.5712777878202
 20
79.25173387579999
 30
0.0
 10
475.8738152738555
 20
79.33682500459683
 30
0.0
 10
476.1884982793659
 20
79.40743329880297
 30
0.0
 10
476.5130065931305
 20
79.46295225470016
 30
0.0
 10
476.8449662161847
 20
79.50289187917068
 30
0.0
 10
477.1819298916382
 20
79.5269021210141
 30
0.0
 10
477.5214100402441
 20
79.53476972445101
 30
0.0
 10
477.860891398215
 20
79.52642097055823
 30
0.0
 10
478.1978516640077
 20
79.50192304949389
 30
0.0
 10
478.5297864804808
 20
79.46148542100243
 30
0.0
 10
478.854230962283
 20
79.40545727725278
 30
0.0
 10
479.1687899355168
 20
79.33433118135275
 30
0.0
 10
479.471113166642
 20
79.24872390591038
 30
0.0
 10
479.7590702685108
 20
79.14944500841642
 30
0.0
 10
480.0302059816103
 20
79.03723285766229
 30
0.0
 10
480.2408827778064
 20
78.93465767419044
 30
0.0
 10
480.3580560941951
 20
78.86865359495942
 30
0.0
 10
480.3965838519723
 20
78.84695079388416
 30
0.0
  0
LINE
  5
191
330
1F
100
AcDbEntity
  8
0
  6
Continuous
 62
     7
370
    15
100
AcDbLine
 10
453.3387003438453
 20
72.83904783216216
 30
0.0
 11
453.3387003438453
 21
68.75634377273342
 31
0.0
  0
LINE
  5
192
330
1F
100
AcDbEntity
  8
0
  6
Continuous
 62
     7
370
    15
100
AcDbLine
 10
504.5580004338517
 20
69.57275188455608
 30
0.0
 11
504.5580004338517
 21
73.65545594398483
 31
0.0
  0
LINE
  5
193
330
1F
100
AcDbEntity
  8
0
  6
Continuous
 62
     7
370
    15
100
AcDbLine
 10
490.523136292757
 20
68.59437510086623
 30
0.0
 11
481.7590105606283
 21
73.65379719319683
 31
0.0
  0
ARC
  5
194
330
1F
100
AcDbEntity
  8
0
  6
Continuous
 62
     7
370
    15
100
AcDbCircle
 10
483.4152292009903
 20
76.24300863331227
 30
0.0
 40
3.073609615144287
100
AcDbArc
 50
182.6054784856559
 51
237.3945216599736
  0
LINE
  5
195
330
1F
100
AcDbEntity
  8
0
  6
Continuous
 62
     7
370
    15
100
AcDbLine
 10
480.3447969982552
 20
78.87565993195119
 30
0.0
 11
480.3447969982552
 21
76.10328692879105
 31
0.0
  0
ARC
  5
196
330
1F
100
AcDbEntity
  8
0
  6
Continuous
 62
     7
370
    15
100
AcDbCircle
 10
494.5710300699356
 20
70.04600490289115
 30
0.0
 40
0.8935078286891091
100
AcDbArc
 50
113.1890928303924
 51
150.9082535718564
  0
ARC
  5
197
330
1F
100
AcDbEntity
  8
0
  6
Continuous
 62
     7
370
    15
100
AcDbCircle
 10
481.0591388567216
 20
74.63000721004833
 30
0.0
 40
3.707983205840204
100
AcDbArc
 50
2.269188536301129
 51
33.58686131367358
  0
LWPOLYLINE
  5
198
330
1F
100
AcDbEntity
  8
0
  6
Continuous
 62
     7
370
    15
100
AcDbPolyline
 90
       38
 70
   128
 43
0.0
 10
481.8448275642548
 20
78.01089749467831
 10
481.838806263441
 20
78.00837588364981
 10
481.6940607912759
 20
77.92949574366311
 10
481.5662939206606
 20
77.82281960076817
 10
481.4571712881473
 20
77.68973814162776
 10
481.3681154741327
 20
77.53198628658364
 10
481.3002874573456
 20
77.35162057231666
 10
481.2545714797145
 20
77.15099234174613
 10
481.2315635189214
 20
76.93271709067885
 10
481.2315635189214
 20
76.69964037082147
 10
481.2545714797145
 20
76.45480069366222
 10
481.3002874573456
 20
76.2013899188269
 10
481.3681154741327
 20
75.94271164330734
 10
481.4571712881473
 20
75.68213813402237
 10
481.5662939206606
 20
75.42306636516133
 10
481.6940607912759
 20
75.16887373343052
 10
481.838806263441
 20
74.92287402852212
 10
481.9986433585661
 20
74.68827423279762
 10
482.1714883556771
 20
74.46813271336847
 10
482.3550879559043
 20
74.26531935160352
 10
482.5470486576794
 20
74.08247812983638
 10
482.7448679596884
 20
73.92199266301243
 10
482.9459669848044
 20
73.7859551246226
 10
483.1477240996934
 20
73.67613897202241
 10
483.3475090918153
 20
73.59397582670315
 10
483.5427174582658
 20
73.54053681091641
 10
483.7308043594556
 20
73.5165185839574
 10
483.9093177949858
 20
73.52223426014569
 10
484.0759305692233
 20
73.55760932690114
 10
484.2284706298543
 20
73.62218261612944
 10
484.3649493839087
 20
73.71511231625333
 10
484.4835876221099
 20
73.83518694651406
 10
484.5828387135893
 20
73.98084115047573
 10
484.6614087685843
 20
74.15017610284024
 10
484.7182735062709
 20
74.34098426353914
 10
484.7526916078296
 20
74.55077815639423
 10
484.7642143806711
 20
74.7768227971737
 10
484.7642143806711
 20
74.7768227971737
  0
LWPOLYLINE
  5
199
330
1F
100
AcDbEntity
  8
0
  6
Continuous
 62
     7
370
    15
100
AcDbPolyline
 90
        3
 70
   128
 43
0.0
 10
494.2582609093597
 20
70.84477495975633
 10
494.1850933495051
 20
70.75026919113472
 10
494.1437985498545
 20
70.68453893150054
  0
LWPOLYLINE
  5
19A
330
1F
100
AcDbEntity
  8
0
  6
Continuous
 62
     7
370
    15
100
AcDbPolyline
 90
       26
 70
   128
 43
0.0
 10
481.8838922385951
 20
77.98834593820505
 10
481.8107246787405
 20
77.89384016958344
 10
481.7216688647259
 20
77.73608831453931
 10
481.6538408479389
 20
77.55572260027233
 10
481.6081248703078
 20
77.35509436970182
 10
481.5851169095147
 20
77.13681911863453
 10
481.5851169095147
 20
76.90374239877714
 10
481.6081248703078
 20
76.6589027216179
 10
481.6538408479389
 20
76.40549194678259
 10
481.7216688647259
 20
76.14681367126301
 10
481.8107246787406
 20
75.88624016197805
 10
481.9198473112538
 20
75.62716839311701
 10
482.0476141818693
 20
75.3729757613862
 10
482.1923596540343
 20
75.12697605647779
 10
482.3521967491593
 20
74.89237626075331
 10
482.5250417462704
 20
74.67223474132416
 10
482.7086413464976
 20
74.46942137955919
 10
482.9006020482727
 20
74.28658015779205
 10
483.0984213502818
 20
74.1260946909681
 10
483.2995203753977
 20
73.99005715257828
 10
483.5012774902867
 20
73.88024099997808
 10
483.7010624824086
 20
73.79807785465883
 10
483.896270848859
 20
73.74463883887208
 10
484.0843577500488
 20
73.72062061191309
 10
484.2628711855791
 20
73.72633628810136
 10
484.4105624785711
 20
73.75601881485302
  0
ARC
  5
19B
330
1F
100
AcDbEntity
  8
0
  6
Continuous
 62
     7
370
    15
100
AcDbCircle
 10
484.9543247288918
 20
76.96204212085588
 30
0.0
 40
1.607895600192024
100
AcDbArc
 50
173.701605123183
 51
260.7772039168126
  0
LINE
  5
19C
330
1F
100
AcDbEntity
  8
0
  6
Continuous
 62
     7
370
    15
100
AcDbLine
 10
496.6082529655458
 20
75.49244054561744
 30
0.0
 11
481.405457170035
 21
84.26882774771158
 31
0.0
  0
LWPOLYLINE
  5
19D
330
1F
100
AcDbEntity
  8
0
  6
Continuous
 62
     7
370
    15
100
AcDbPolyline
 90
       21
 70
   128
 43
0.0
 10
496.6082529655458
 20
71.00219593059255
 10
496.9013984798199
 20
71.18526715944077
 10
497.168759138082
 20
71.3810516188905
 10
497.4086865729672
 20
71.58834223264434
 10
497.6197015520558
 20
71.80586098513732
 10
497.8005030978318
 20
72.03226680092803
 10
497.9499765086431
 20
72.26616381287455
 10
498.0672002312069
 20
72.50610996811957
 10
498.1514515422929
 20
72.7506259188258
 10
498.2022110045519
 20
72.99820414284735
 10
498.2191656690197
 20
73.24731823810499
 10
498.2022110045519
 20
73.49643233336266
 10
498.1514515422929
 20
73.7440105573842
 10
498.0672002312069
 20
73.98852650809044
 10
497.9499765086431
 20
74.22847266333547
 10
497.8005030978318
 20
74.46236967528196
 10
497.6197015520558
 20
74.68877549107268
 10
497.4086865729672
 20
74.90629424356568
 10
497.168759138082
 20
75.11358485731951
 10
496.9013984798199
 20
75.30936931676925
 10
496.6082529655458
 20
75.49244054561744
  0
LINE
  5
19E
330
1F
100
AcDbEntity
  8
0
  6
Continuous
 62
     7
370
    15
100
AcDbLine
 10
481.4054571700349
 20
62.22580872849846
 30
0.0
 11
496.6082529655458
 21
71.00219593059255
 31
0.0
  0
ARC
  5
19F
330
1F
100
AcDbEntity
  8
0
  6
Continuous
 62
     7
370
    15
100
AcDbCircle
 10
477.516369873509
 20
69.73171969575424
 30
0.0
 40
8.453620493514646
100
AcDbArc
 50
242.6096722366008
 51
297.3903277634012
  0
LINE
  5
1A0
330
1F
100
AcDbEntity
  8
0
  6
Continuous
 62
     7
370
    15
100
AcDbLine
 10
458.4244867814722
 20
71.00219593059259
 30
0.0
 11
473.6272825769829
 21
62.22580872849846
 31
0.0
  0
LWPOLYLINE
  5
1A1
330
1F
100
AcDbEntity
  8
0
  6
Continuous
 62
     7
370
    15
100
AcDbPolyline
 90
       21
 70
   128
 43
0.0
 10
458.4244867814722
 20
75.49244054561748
 10
458.131341267198
 20
75.30936931676928
 10
457.863980608936
 20
75.11358485731955
 10
457.6240531740507
 20
74.90629424356573
 10
457.4130381949622
 20
74.68877549107272
 10
457.2322366491861
 20
74.462369675282
 10
457.0827632383748
 20
74.22847266333549
 10
456.965539515811
 20
73.98852650809049
 10
456.8812882047249
 20
73.74401055738424
 10
456.830528742466
 20
73.4964323333627
 10
456.8135740779982
 20
73.24731823810504
 10
456.830528742466
 20
72.99820414284738
 10
456.8812882047249
 20
72.75062591882583
 10
456.965539515811
 20
72.5061099681196
 10
457.0827632383748
 20
72.26616381287458
 10
457.2322366491861
 20
72.03226680092807
 10
457.4130381949622
 20
71.80586098513735
 10
457.6240531740507
 20
71.58834223264436
 10
457.863980608936
 20
71.38105161889054
 10
458.131341267198
 20
71.1852671594408
 10
458.4244867814722
 20
71.00219593059259
  0
LINE
  5
1A2
330
1F
100
AcDbEntity
  8
0
  6
Continuous
 62
     7
370
    15
100
AcDbLine
 10
473.6272825769829
 20
84.2688277477116
 30
0.0
 11
458.4244867814722
 21
75.49244054561748
 31
0.0
  0
ARC
  5
1A3
330
1F
100
AcDbEntity
  8
0
  6
Continuous
 62
     7
370
    15
100
AcDbCircle
 10
477.516369873509
 20
76.76291678045576
 30
0.0
 40
8.45362049351473
100
AcDbArc
 50
62.6096722365995
 51
117.3903277633994
  0
LWPOLYLINE
  5
1A4
330
1F
100
AcDbEntity
  8
0
  6
Continuous
 62
     7
370
    15
100
AcDbPolyline
 90
       19
 70
   128
 43
0.0
 10
459.3083702579554
 20
71.51245100048178
 10
459.0578851947425
 20
71.67025633675532
 10
458.83217788977
 20
71.84006406635413
 10
458.6329661119144
 20
72.02058184992328
 10
458.4617659830924
 20
72.21043583813015
 10
458.319880439658
 20
72.40818112748755
 10
458.2083893162697
 20
72.61231275694159
 10
458.1281411276963
 20
72.82127716153408
 10
458.0797466111083
 20
73.03348399596991
 10
458.0635740779982
 20
73.24731823810504
 10
458.0797466111083
 20
73.46115248024017
 10
458.1281411276963
 20
73.673359314676
 10
458.2083893162697
 20
73.8823237192685
 10
458.3198804396581
 20
74.08645534872253
 10
458.4617659830924
 20
74.28420063807994
 10
458.6329661119144
 20
74.47405462628683
 10
458.83217788977
 20
74.65457240985596
 10
459.0578851947426
 20
74.82438013945476
 10
459.3083702579554
 20
74.9821854757283
  0
LINE
  5
1A5
330
1F
100
AcDbEntity
  8
0
  6
Continuous
 62
     7
370
    15
100
AcDbLine
 10
474.5111660534662
 20
62.73606379838765
 30
0.0
 11
459.3083702579554
 21
71.51245100048178
 31
0.0
  0
ARC
  5
1A6
330
1F
100
AcDbEntity
  8
0
  6
Continuous
 62
     7
370
    15
100
AcDbCircle
 10
477.5163698735091
 20
68.50733536598692
 30
0.0
 40
6.506829143828797
100
AcDbArc
 50
242.4932047961882
 51
297.5067952038134
  0
LINE
  5
1A7
330
1F
100
AcDbEntity
  8
0
  6
Continuous
 62
     7
370
    15
100
AcDbLine
 10
495.7243694890625
 20
71.51245100048175
 30
0.0
 11
480.5215736935518
 21
62.73606379838764
 31
0.0
  0
LWPOLYLINE
  5
1A8
330
1F
100
AcDbEntity
  8
0
  6
Continuous
 62
     7
370
    15
100
AcDbPolyline
 90
       19
 70
   128
 43
0.0
 10
495.7243694890625
 20
74.98218547572825
 10
495.9748545522754
 20
74.82438013945473
 10
496.2005618572479
 20
74.65457240985592
 10
496.3997736351036
 20
74.47405462628679
 10
496.5709737639254
 20
74.2842006380799
 10
496.7128593073598
 20
74.08645534872249
 10
496.8243504307483
 20
73.88232371926846
 10
496.9045986193216
 20
73.67335931467597
 10
496.9529931359097
 20
73.46115248024013
 10
496.9691656690198
 20
73.24731823810499
 10
496.9529931359097
 20
73.03348399596988
 10
496.9045986193216
 20
72.82127716153405
 10
496.8243504307483
 20
72.61231275694156
 10
496.7128593073598
 20
72.40818112748751
 10
496.5709737639254
 20
72.21043583813011
 10
496.3997736351036
 20
72.02058184992323
 10
496.2005618572479
 20
71.84006406635409
 10
495.9748545522754
 20
71.67025633675527
 10
495.7243694890625
 20
71.51245100048175
  0
LINE
  5
1A9
330
1F
100
AcDbEntity
  8
0
  6
Continuous
 62
     7
370
    15
100
AcDbLine
 10
480.5215736935519
 20
83.75857267782238
 30
0.0
 11
495.7243694890625
 21
74.98218547572825
 31
0.0
  0
ARC
  5
1AA
330
1F
100
AcDbEntity
  8
0
  6
Continuous
 62
     7
370
    15
100
AcDbCircle
 10
477.5163698735091
 20
77.98730111022294
 30
0.0
 40
6.506829143828968
100
AcDbArc
 50
62.49320479618765
 51
117.5067952038114
  0
LINE
  5
1AB
330
1F
100
AcDbEntity
  8
0
  6
Continuous
 62
     7
370
    15
100
AcDbLine
 10
459.3083702579554
 20
74.9821854757283
 30
0.0
 11
474.5111660534662
 21
83.7585726778224
 31
0.0
  0
LINE
  5
1AC
330
1F
100
AcDbEntity
  8
0
  6
Continuous
 62
     7
370
    15
100
AcDbLine
 10
481.4054571700349
 20
62.22580872849846
 30
0.0
 11
481.4054571700349
 21
61.81753832255559
 31
0.0
  0
ARC
  5
1AD
330
1F
100
AcDbEntity
  8
0
  6
Continuous
 62
     7
370
    15
100
AcDbCircle
 10
477.516369873509
 20
69.32344928981135
 30
0.0
 40
8.453620493514634
100
AcDbArc
 50
242.6096722366008
 51
297.3903277634012
  0
LINE
  5
1AE
330
1F
100
AcDbEntity
  8
0
  6
Continuous
 62
     7
370
    15
100
AcDbLine
 10
473.6272825769829
 20
62.22580872849846
 30
0.0
 11
473.6272825769829
 21
61.81753832255559
 31
0.0
  0
LINE
  5
1AF
330
1F
100
AcDbEntity
  8
0
  6
Continuous
 62
     7
370
    15
100
AcDbLine
 10
496.6082529655458
 20
71.00219593059255
 30
0.0
 11
496.6082529655458
 21
70.59392552464969
 31
0.0
  0
LINE
  5
1B0
330
1F
100
AcDbEntity
  8
0
  6
Continuous
 62
     7
370
    15
100
AcDbLine
 10
481.4054571700349
 20
61.81753832255559
 30
0.0
 11
496.6082529655458
 21
70.59392552464969
 31
0.0
  0
LINE
  5
1B1
330
1F
100
AcDbEntity
  8
0
  6
Continuous
 62
     7
370
    15
100
AcDbLine
 10
458.4244867814722
 20
71.00219593059259
 30
0.0
 11
458.4244867814722
 21
70.59392552464972
 31
0.0
  0
LINE
  5
1B2
330
1F
100
AcDbEntity
  8
0
  6
Continuous
 62
     7
370
    15
100
AcDbLine
 10
458.4244867814722
 20
70.59392552464972
 30
0.0
 11
473.6272825769829
 21
61.81753832255559
 31
0.0
  0
ARC
  5
1B3
330
1F
100
AcDbEntity
  8
0
  6
Continuous
 62
     7
370
    15
100
AcDbCircle
 10
495.4599318098177
 20
73.11835462831928
 30
0.0
 40
2.773334414769827
100
AcDbArc
 50
294.4600049561979
 51
354.2198540861883
  0
ARC
  5
1B4
330
1F
100
AcDbEntity
  8
0
  6
Continuous
 62
     7
370
    15
100
AcDbCircle
 10
459.5728079372005
 20
73.11835462831954
 30
0.0
 40
2.773334414770128
100
AcDbArc
 50
185.7801459138174
 51
245.5399950438014
  0
ARC
  5
1B5
330
1F
100
AcDbEntity
  8
0
  6
Continuous
 62
     7
370
    15
100
AcDbCircle
 10
495.9313968191075
 20
74.65853404571406
 30
0.0
 40
0.3842012018926577
100
AcDbArc
 50
122.6054783400041
 51
177.3945215143761
  0
ARC
  5
1B6
330
1F
100
AcDbEntity
  8
0
  6
Continuous
 62
     7
370
    15
100
AcDbCircle
 10
459.1013429279102
 20
74.65853404571387
 30
0.0
 40
0.3842012018930713
100
AcDbArc
 50
2.605478485654635
 51
57.39452165997956
  0
LINE
  5
1B7
330
1F
100
AcDbEntity
  8
0
  6
Continuous
 62
     7
370
    15
100
AcDbLine
 10
495.5475927937659
 20
74.67599925877898
 30
0.0
 11
480.3447969982552
 21
83.4523864608731
 31
0.0
  0
ARC
  5
1B8
330
1F
100
AcDbEntity
  8
0
  6
Continuous
 62
     7
370
    15
100
AcDbCircle
 10
480.7286010235969
 20
83.434921247808
 30
0.0
 40
0.3842012018928984
100
AcDbArc
 50
122.6054783400035
 51
177.3945215143527
  0
ARC
  5
1B9
330
1F
100
AcDbEntity
  8
0
  6
Continuous
 62
     7
370
    15
100
AcDbCircle
 10
474.3041387234207
 20
83.43492124780784
 30
0.0
 40
0.3842012018933365
100
AcDbArc
 50
2.605478485672147
 51
57.39452165993986
  0
LINE
  5
1BA
330
1F
100
AcDbEntity
  8
0
  6
Continuous
 62
     7
370
    15
100
AcDbLine
 10
474.6879427487628
 20
83.45238646087311
 30
0.0
 11
459.485146953252
 21
74.67599925877902
 31
0.0
  0
LINE
  5
1BB
330
1F
100
AcDbEntity
  8
0
  6
Continuous
 62
     7
370
    15
100
AcDbLine
 10
480.3447969982552
 20
83.4523864608731
 30
0.0
 11
480.3447969982552
 21
78.96141199550149
 31
0.0
  0
SPLINE
  5
1BC
330
1F
100
AcDbEntity
  8
0
  6
Continuous
 62
     7
370
    15
100
AcDbSpline
210
0.0
220
0.0
230
1.0
 70
     8
 71
     3
 72
    14
 73
    10
 74
     0
 42
0.000000001
 43
0.0000000001
 40
0.0
 40
0.0
 40
0.0
 40
0.0
 40
0.0590166222373014
 40
0.1305277188173012
 40
0.2477105930810157
 40
0.3714278367093507
 40
0.4955113552689106
 40
0.8130675864892122
 40
1.0
 40
1.0
 40
1.0
 40
1.0
 10
489.7139618489769
 20
74.57338426953322
 30
0.0
 10
489.7108027514421
 20
74.54438695937195
 30
0.0
 10
489.7038157403406
 20
74.48025328645567
 30
0.0
 10
489.6402985223425
 20
74.40619176890407
 30
0.0
 10
489.5302419223981
 20
74.36629807348298
 30
0.0
 10
489.3834793282163
 20
74.36331286289379
 30
0.0
 10
489.1432163538564
 20
74.40399122442375
 30
0.0
 10
488.8659715859956
 20
74.4886935799882
 30
0.0
 10
488.6394584596201
 20
74.59751034214725
 30
0.0
 10
488.5555266489689
 20
74.63783113071854
 30
0.0
  0
SPLINE
  5
1BD
330
1F
100
AcDbEntity
  8
0
  6
Continuous
 62
     7
370
    15
100
AcDbSpline
210
0.0
220
0.0
230
1.0
 70
     8
 71
     3
 72
    13
 73
     9
 74
     0
 42
0.000000001
 43
0.0000000001
 40
0.0
 40
0.0
 40
0.0
 40
0.0
 40
0.3463131998572028
 40
0.5526341352369416
 40
0.7601233448527429
 40
0.8716162433500144
 40
0.9842306728734119
 40
0.9999999999999998
 40
0.9999999999999998
 40
0.9999999999999998
 40
0.9999999999999998
 10
486.7972126358837
 20
75.7526738975955
 30
0.0
 10
486.7075153107109
 20
75.83304070952334
 30
0.0
 10
486.5643795487755
 20
75.96128717437022
 30
0.0
 10
486.3810249403424
 20
76.17110606204637
 30
0.0
 10
486.2666375763435
 20
76.33607926549924
 30
0.0
 10
486.1982134741126
 20
76.48490140573293
 30
0.0
 10
486.1791685568002
 20
76.56938118205852
 30
0.0
 10
486.1785089609474
 20
76.60947931138811
 30
0.0
 10
486.1784279430442
 20
76.61440454909
 30
0.0
  0
LINE
  5
1BE
330
1F
100
AcDbEntity
  8
0
  6
Continuous
 62
     7
370
    15
100
AcDbLine
 10
489.7139618489769
 20
77.02300670519048
 30
0.0
 11
489.7139618489769
 21
74.57338426953322
 31
0.0
  0
SPLINE
  5
1BF
330
1F
100
AcDbEntity
  8
0
  6
Continuous
 62
     7
370
    15
100
AcDbSpline
210
0.0
220
0.0
230
1.0
 70
     8
 71
     3
 72
    28
 73
    24
 74
     0
 42
0.000000001
 43
0.0000000001
 40
0.0
 40
0.0
 40
0.0
 40
0.0
 40
0.0203246873080053
 40
0.0449523366369836
 40
0.0649343198414558
 40
0.0854196836749727
 40
0.1276251638163621
 40
0.1707504758023196
 40
0.2515483756858166
 40
0.3332730456618647
 40
0.4165141191744175
 40
0.4999874232912552
 40
0.5901370218626809
 40
0.6805555557965529
 40
0.772534461359075
 40
0.8192736157858661
 40
0.8659643484719431
 40
0.9082354299615714
 40
0.929350192545516
 40
0.9508540147972578
 40
0.973696705914466
 40
0.9967691765705817
 40
1.0
 40
1.0
 40
1.0
 40
1.0
 10
486.1784279430442
 20
79.06402698474725
 30
0.0
 10
486.181577534437
 20
79.09302586613069
 30
0.0
 10
486.1885435206985
 20
79.15716301413647
 30
0.0
 10
486.2370619008191
 20
79.21350794132833
 30
0.0
 10
486.297407215459
 20
79.24788803631287
 30
0.0
 10
486.384950144398
 20
79.27143610452137
 30
0.0
 10
486.508627777083
 20
79.27338423930695
 30
0.0
 10
486.7131991624638
 20
79.24081899624795
 30
0.0
 10
486.9760860103979
 20
79.15867939010619
 30
0.0
 10
487.2947663722363
 20
79.02454747086145
 30
0.0
 10
487.6190012198889
 20
78.86417033205102
 30
0.0
 10
487.9549215798544
 20
78.67893965890989
 30
0.0
 10
488.300257453897
 20
78.46994460258788
 30
0.0
 10
488.6557643450926
 20
78.23266967157056
 30
0.0
 10
488.9524626106642
 20
78.00908032926482
 30
0.0
 10
489.188176925553
 20
77.80634263961793
 30
0.0
 10
489.3563240618253
 20
77.64281459719637
 30
0.0
 10
489.4864671955343
 20
77.49492053195081
 30
0.0
 10
489.5783679559559
 20
77.36948567624209
 30
0.0
 10
489.6420495390189
 20
77.2659758064363
 30
0.0
 10
489.6941639988886
 20
77.1525103165098
 30
0.0
 10
489.7132215595881
 20
77.06803005990024
 30
0.0
 10
489.7138808665571
 20
77.02793194154445
 30
0.0
 10
489.7139618489769
 20
77.02300670519048
 30
0.0
  0
LINE
  5
1C0
330
1F
100
AcDbEntity
  8
0
  6
Continuous
 62
     7
370
    15
100
AcDbLine
 10
486.1784279430442
 20
79.06402698474725
 30
0.0
 11
486.1784279430442
 21
76.61440454909001
 31
0.0
  0
SPLINE
  5
1C1
330
1F
100
AcDbEntity
  8
0
  6
Continuous
 62
     7
370
    15
100
AcDbSpline
210
0.0
220
0.0
230
1.0
 70
     8
 71
     3
 72
    25
 73
    21
 74
     0
 42
0.000000001
 43
0.0000000001
 40
0.0
 40
0.0
 40
0.0
 40
0.0
 40
0.0101304879760754
 40
0.0231482680813551
 40
0.0456271980112768
 40
0.0786709521395592
 40
0.1118721437500687
 40
0.1959506923634226
 40
0.2804104807595089
 40
0.3648672998717756
 40
0.5060503733141993
 40
0.6472300776699174
 40
0.7266520686502539
 40
0.8060807785763087
 40
0.8851969203525399
 40
0.9209943162538648
 40
0.9600926548365276
 40
0.9754629937727003
 40
0.9909935019003336
 40
1.0
 40
1.0
 40
1.0
 40
1.0
 10
468.8543118039738
 20
76.41026934611858
 30
0.0
 10
468.8528813981881
 20
76.39470909605717
 30
0.0
 10
468.8496129064164
 20
76.35915376637462
 30
0.0
 10
468.8180777198097
 20
76.28340577459629
 30
0.0
 10
468.7520467263693
 20
76.18043181105261
 30
0.0
 10
468.6528234376488
 20
76.06280337310351
 30
0.0
 10
468.4748606074069
 20
75.88727422887801
 30
0.0
 10
468.2277856873716
 20
75.67678897107021
 30
0.0
 10
467.9125108845993
 20
75.44886010896355
 30
0.0
 10
467.5242006446855
 20
75.1945902362132
 30
0.0
 10
467.0638567322203
 20
74.91298489424453
 30
0.0
 10
466.6098973061904
 20
74.66888947421684
 30
0.0
 10
466.2343218267793
 20
74.48393322493159
 30
0.0
 10
465.9381218902174
 20
74.35802373584573
 30
0.0
 10
465.6996863161068
 20
74.28451909795903
 30
0.0
 10
465.5178437498746
 20
74.25443184436243
 30
0.0
 10
465.415897067522
 20
74.25718429324422
 30
0.0
 10
465.3513357195852
 20
74.28874732590095
 30
0.0
 10
465.3230283706059
 20
74.32293696946569
 30
0.0
 10
465.3199191584384
 20
74.35681417572803
 30
0.0
 10
465.318777898041
 20
74.3692490665618
 30
0.0
  0
LINE
  5
1C2
330
1F
100
AcDbEntity
  8
0
  6
Continuous
 62
     7
370
    15
100
AcDbLine
 10
468.8543118039738
 20
79.2681621877187
 30
0.0
 11
468.8543118039738
 21
76.41026934611858
 31
0.0
  0
SPLINE
  5
1C3
330
1F
100
AcDbEntity
  8
0
  6
Continuous
 62
     7
370
    15
100
AcDbSpline
210
0.0
220
0.0
230
1.0
 70
     8
 71
     3
 72
    25
 73
    21
 74
     0
 42
0.000000001
 43
0.0000000001
 40
0.0
 40
0.0
 40
0.0
 40
0.0
 40
0.0101304879760775
 40
0.02314826808136
 40
0.0456271980112844
 40
0.0786709521395724
 40
0.1118721437500873
 40
0.1959506923773886
 40
0.2804104807875673
 40
0.3648672999139341
 40
0.506050373356378
 40
0.6472300777120925
 40
0.7266520686527768
 40
0.8060807785392251
 40
0.8851969202766666
 40
0.9209943162001245
 40
0.9600926548025906
 40
0.9754629937467834
 40
0.9909935018824349
 40
1.0
 40
1.0
 40
1.0
 40
1.0
 10
465.318777898041
 20
77.22714190816194
 30
0.0
 10
465.3202083038268
 20
77.24270215822335
 30
0.0
 10
465.3234767955985
 20
77.2782574879059
 30
0.0
 10
465.3550119822052
 20
77.35400547968423
 30
0.0
 10
465.4210429756454
 20
77.45697944322791
 30
0.0
 10
465.520266264366
 20
77.57460788117703
 30
0.0
 10
465.6982290946244
 20
77.75013702541869
 30
0.0
 10
465.9453040146947
 20
77.96062228325357
 30
0.0
 10
466.2605788175203
 20
78.18855114539161
 30
0.0
 10
466.6488890574699
 20
78.44282101815585
 30
0.0
 10
467.1092329699528
 20
78.7244263601265
 30
0.0
 10
467.5631923959328
 20
78.96852178012109
 30
0.0
 10
467.9387678752438
 20
79.15347802934476
 30
0.0
 10
468.2349678116586
 20
79.27938751836861
 30
0.0
 10
468.4734033857036
 20
79.35289215626238
 30
0.0
 10
468.6552459519516
 20
79.3829794099061
 30
0.0
 10
468.7571926343732
 20
79.38022696106064
 30
0.0
 10
468.8217539823653
 20
79.3486639284308
 30
0.0
 10
468.8500613313946
 20
79.3144742848706
 30
0.0
 10
468.8531705435718
 20
79.28059707857592
 30
0.0
 10
468.8543118039738
 20
79.2681621877187
 30
0.0
  0
LINE
  5
1C4
330
1F
100
AcDbEntity
  8
0
  6
Continuous
 62
     7
370
    15
100
AcDbLine
 10
465.318777898041
 20
77.22714190816194
 30
0.0
 11
465.318777898041
 21
74.3692490665618
 31
0.0
  0
LINE
  5
1C5
330
1F
100
AcDbEntity
  8
0
  6
Continuous
 62
     7
370
    15
100
AcDbLine
 10
474.6879427487628
 20
83.45238646087311
 30
0.0
 11
474.6879427487628
 21
78.96141199550149
 31
0.0
  0
ARC
  5
1C6
330
1F
100
AcDbEntity
  8
0
  6
Continuous
 62
     7
370
    15
100
AcDbCircle
 10
491.7638209843821
 20
84.65655573086477
 30
0.0
 40
7.903985906008252
100
AcDbArc
 50
225.0365761829402
 51
254.9688003497606
  0
ARC
  5
1C7
330
1F
100
AcDbEntity
  8
0
  6
Continuous
 62
     7
370
    15
100
AcDbCircle
 10
461.2532299321275
 20
88.35234472848624
 30
0.0
 40
11.84478020296267
100
AcDbArc
 50
290.0741156750157
 51
309.9205077922868
  0
ARC
  5
1C8
330
1F
100
AcDbEntity
  8
0
  6
Continuous
 62
     7
370
    15
100
AcDbCircle
 10
461.2532299321274
 20
85.49445188688617
 30
0.0
 40
11.84478020296274
100
AcDbArc
 50
290.0741156750158
 51
309.9205077922869
  0
ARC
  5
1C9
330
1F
100
AcDbEntity
  8
0
  6
Continuous
 62
     7
370
    15
100
AcDbCircle
 10
491.8081180779489
 20
82.28366642608751
 30
0.0
 40
7.98961458676336
100
AcDbArc
 50
225.2006632595272
 51
254.8047132731739
  0
ARC
  5
1CA
330
1F
100
AcDbEntity
  8
0
  6
Continuous
 62
     7
370
    15
100
AcDbCircle
 10
477.516369873509
 20
78.00835502186588
 30
0.0
 40
6.134939144677732
100
AcDbArc
 50
62.54602822856412
 51
117.4539717714353
  0
ARC
  5
1CB
330
1F
100
AcDbEntity
  8
0
  6
Continuous
 62
     7
370
    15
100
AcDbCircle
 10
477.516369873509
 20
73.5173805564944
 30
0.0
 40
6.134939144677618
100
AcDbArc
 50
62.54602822856357
 51
117.4539717714359
  0
ARC
  5
1CC
330
1F
100
AcDbEntity
  8
0
  6
Continuous
 62
     7
370
    15
100
AcDbCircle
 10
477.516369873509
 20
68.8155891806155
 30
0.0
 40
9.958999908056259
100
AcDbArc
 50
242.5153080014507
 51
297.4846919985506
  0
LINE
  5
1CD
330
1F
100
AcDbEntity
  8
0
  6
Continuous
 62
     7
370
    15
100
AcDbLine
 10
455.2425062661327
 20
70.18572146873836
 30
0.0
 11
472.9201757957964
 21
59.98062007095448
 31
0.0
  0
LWPOLYLINE
  5
1CE
330
1F
100
AcDbEntity
  8
0
  6
Continuous
 62
     7
370
    15
100
AcDbPolyline
 90
       23
 70
   128
 43
0.0
 10
455.2425062661327
 20
75.49237419558597
 10
454.9263281105425
 20
75.29632768858274
 10
454.6351822778369
 20
75.0877594466901
 10
454.3705523804426
 20
74.86773228586065
 10
454.1337869116581
 20
74.63736741407124
 10
453.926092374041
 20
74.39783871790417
 10
453.7485271313469
 20
74.15036678069016
 10
453.601996015351
 20
73.89621266269566
 10
453.4872457150327
 20
73.63667147504862
 10
453.4048609716192
 20
73.37306578014914
 10
453.3552615988786
 20
73.10673885219455
 10
453.3387003438453
 20
72.83904783216216
 10
453.3552615988786
 20
72.57135681212978
 10
453.4048609716192
 20
72.30502988417521
 10
453.4872457150327
 20
72.04142418927571
 10
453.601996015351
 20
71.78188300162867
 10
453.7485271313469
 20
71.52772888363418
 10
453.926092374041
 20
71.28025694642018
 10
454.1337869116581
 20
71.04072825025308
 10
454.3705523804426
 20
70.81036337846366
 10
454.6351822778369
 20
70.59033621763423
 10
454.9263281105425
 20
70.38176797574161
 10
455.2425062661327
 20
70.18572146873836
  0
LINE
  5
1CF
330
1F
100
AcDbEntity
  8
0
  6
Continuous
 62
     7
370
    15
100
AcDbLine
 10
476.8092630923224
 20
87.94259790088226
 30
0.0
 11
455.2425062661327
 21
75.49237419558597
 31
0.0
  0
ARC
  5
1D0
330
1F
100
AcDbEntity
  8
0
  6
Continuous
 62
     7
370
    15
100
AcDbCircle
 10
478.930583435882
 20
83.86263738181913
 30
0.0
 40
4.598486472429149
100
AcDbArc
 50
62.52843287526118
 51
117.4715671247381
  0
LINE
  5
1D1
330
1F
100
AcDbEntity
  8
0
  6
Continuous
 62
     7
370
    15
100
AcDbLine
 10
503.6793207774112
 20
74.8800681117189
 30
0.0
 11
481.0519037794417
 21
87.94259790088224
 31
0.0
  0
ARC
  5
1D2
330
1F
100
AcDbEntity
  8
0
  6
Continuous
 62
     7
370
    15
100
AcDbCircle
 10
503.2063579507975
 20
73.65545594398483
 30
0.0
 40
1.312771418305859
100
AcDbArc
 50
291.1172776796142
 51
68.8827223203868
  0
LINE
  5
1D3
330
1F
100
AcDbEntity
  8
0
  6
Continuous
 62
     7
370
    15
100
AcDbLine
 10
482.1125639512215
 20
59.98062007095448
 30
0.0
 11
503.6793207774112
 21
72.43084377625077
 31
0.0
  0
LINE
  5
1D4
330
1F
100
AcDbEntity
  8
0
  6
Continuous
 62
     7
370
    15
100
AcDbLine
 10
482.1125639512215
 20
59.98062007095448
 30
0.0
 11
482.1125639512215
 21
55.89791601152573
 31
0.0
  0
ARC
  5
1D5
330
1F
100
AcDbEntity
  8
0
  6
Continuous
 62
     7
370
    15
100
AcDbCircle
 10
477.516369873509
 20
64.73288512118696
 30
0.0
 40
9.958999908056462
100
AcDbArc
 50
242.5153080014514
 51
297.48469199855
  0
LINE
  5
1D6
330
1F
100
AcDbEntity
  8
0
  6
Continuous
 62
     7
370
    15
100
AcDbLine
 10
472.9201757957964
 20
55.89791601152573
 30
0.0
 11
472.9201757957964
 21
59.98062007095448
 31
0.0
  0
LINE
  5
1D7
330
1F
100
AcDbEntity
  8
0
  6
Continuous
 62
     7
370
    15
100
AcDbLine
 10
503.6793207774112
 20
68.34813971682201
 30
0.0
 11
503.6793207774112
 21
72.43084377625077
 31
0.0
  0
LINE
  5
1D8
330
1F
100
AcDbEntity
  8
0
  6
Continuous
 62
     7
370
    15
100
AcDbLine
 10
482.1125639512215
 20
55.89791601152573
 30
0.0
 11
503.6793207774112
 21
68.34813971682201
 31
0.0
  0
LINE
  5
1D9
330
1F
100
AcDbEntity
  8
0
  6
Continuous
 62
     7
370
    15
100
AcDbLine
 10
455.2425062661327
 20
70.18572146873836
 30
0.0
 11
455.2425062661327
 21
66.10301740930961
 31
0.0
  0
LINE
  5
1DA
330
1F
100
AcDbEntity
  8
0
  6
Continuous
 62
     7
370
    15
100
AcDbLine
 10
455.2425062661327
 20
66.10301740930961
 30
0.0
 11
472.9201757957964
 21
55.89791601152573
 31
0.0
  0
ARC
  5
1DB
330
1F
100
AcDbEntity
  8
0
  6
Continuous
 62
     7
370
    15
100
AcDbCircle
 10
456.5462370132149
 20
69.04813539983369
 30
0.0
 40
3.220781557168367
100
AcDbArc
 50
185.197925838424
 51
246.1222151191916
  0
ARC
  5
1DC
330
1F
100
AcDbEntity
  8
0
  6
Continuous
 62
     7
370
    15
100
AcDbCircle
 10
503.072113341942
 20
69.71136091841879
 30
0.0
 40
1.492338069665217
100
AcDbArc
 50
294.0091982360272
 51
354.670660806357
  0
ARC
  5
1DD
330
1F
100
AcDbEntity
  8
0
  6
Continuous
 62
     8
370
    15
100
AcDbCircle
 10
480.448326054453
 20
62.63379438961357
 30
0.0
 40
0.1257944696898537
100
AcDbArc
 50
54.38891423470558
 51
114.2326296698637
  0
ARC
  5
1DE
330
1F
100
AcDbEntity
  8
0
  6
Continuous
 62
     8
370
    15
100
AcDbCircle
 10
474.5844025881869
 20
62.63382530922809
 30
0.0
 40
0.12576286687076
100
AcDbArc
 50
65.7204547349403
 51
125.6151751740151
  0
ARC
  5
1DF
330
1F
100
AcDbEntity
  8
0
  6
Continuous
 62
     8
370
    15
100
AcDbCircle
 10
495.6511394753499
 20
71.41023066820217
 30
0.0
 40
0.1257443089754125
100
AcDbArc
 50
54.38242252482094
 51
114.3071190461338
  0
ARC
  5
1E0
330
1F
100
AcDbEntity
  8
0
  6
Continuous
 62
     8
370
    15
100
AcDbCircle
 10
459.3816002716679
 20
71.41023066820233
 30
0.0
 40
0.1257443089752725
100
AcDbArc
 50
65.69288095386581
 51
125.6175774752303
  0
ARC
  5
1E1
330
1F
100
AcDbEntity
  8
0
  6
Continuous
 62
     8
370
    15
100
AcDbCircle
 10
494.7183644329014
 20
72.84390917710547
 30
0.0
 40
2.011013113291079
100
AcDbArc
 50
5.777594868359027
 51
65.64785945530033
  0
ARC
  5
1E2
330
1F
100
AcDbEntity
  8
0
  6
Continuous
 62
     8
370
    15
100
AcDbCircle
 10
460.2865366071304
 20
72.86461723659837
 30
0.0
 40
1.980739813206778
100
AcDbArc
 50
113.8655044495059
 51
174.919747061167
  0
LINE
  5
1E3
330
1F
100
AcDbEntity
  8
0
  6
Continuous
 62
     8
370
    15
100
AcDbLine
 10
495.5475927937659
 20
74.67599925877898
 30
0.0
 11
495.5475927937659
 21
71.49493209880701
 31
0.0
  0
LINE
  5
1E4
330
1F
100
AcDbEntity
  8
0
  6
Continuous
 62
     8
370
    15
100
AcDbLine
 10
459.485146953252
 20
74.67599925877902
 30
0.0
 11
459.485146953252
 21
71.49493209880704
 31
0.0
  0
LINE
  5
1E5
330
1F
100
AcDbEntity
  8
0
  6
Continuous
 62
     8
370
    15
100
AcDbLine
 10
480.3447969982552
 20
78.96141199550149
 30
0.0
 11
494.4130568613559
 21
70.8399784461072
 31
0.0
  0
LINE
  5
1E6
330
1F
100
AcDbEntity
  8
0
  6
Continuous
 62
     8
370
    15
100
AcDbLine
 10
460.6196828856621
 20
70.83997844610722
 30
0.0
 11
474.6879427487628
 21
78.96141199550149
 31
0.0
  0
ARC
  5
1E7
330
1F
100
AcDbEntity
  8
0
  6
Continuous
 62
     8
370
    15
100
AcDbCircle
 10
480.4672974739238
 20
78.94789031119971
 30
0.0
 40
0.1232444825758851
100
AcDbArc
 50
173.7011525023253
 51
234.9866671043075
  0
ARC
  5
1E8
330
1F
100
AcDbEntity
  8
0
  6
Continuous
 62
     8
370
    15
100
AcDbCircle
 10
474.569021359703
 20
78.94627098838959
 30
0.0
 40
0.1198813866798475
100
AcDbArc
 50
304.0563508539313
 51
7.255829539450465
  0
DIMENSION
  5
2C0
330
1F
100
AcDbEntity
  8
AM_5
100
AcDbDimension
280
     0
  2
*D25
 10
420.8902561503232
 20
140.7544371386758
 30
0.0
 11
420.8902561503231
 21
153.7544371386759
 31
0.0
 70
    32
 71
     5
 42
26.00000000000003
 73
     0
 74
     0
 75
     0
  3
ISO-25
100
AcDbAlignedDimension
 13
400.438369127391
 23
166.7544371386759
 33
0.0
 14
388.9383691273912
 24
140.7544371386758
 34
0.0
 50
90.0
100
AcDbRotatedDimension
1001
ACAD
1000
DSTYLE
1002
{
1070
    41
1040
2.0
1070
    42
1040
1.0
1070
    44
1040
1.5
1070
    73
1070
     1
1070
    74
1070
     1
1070
    78
1070
     0
1070
   143
1040
0.0393700787401575
1070
   147
1040
1.524
1070
   179
1070
     2
1070
   271
1070
     0
1070
   284
1070
     0
1002
}
  0
DIMENSION
  5
2F5
330
1F
100
AcDbEntity
  8
AM_5
100
AcDbDimension
280
     0
  2
*D26
 10
329.9383691273911
 20
124.642568525991
 30
0.0
 11
367.9383691273911
 21
127.4165685259911
 31
0.0
 70
    32
 71
     5
 42
75.99999999999994
 73
     0
 74
     0
 75
     0
  3
ISO-25
100
AcDbAlignedDimension
 13
405.938369127391
 23
155.7544371386759
 33
0.0
 14
329.9383691273911
 24
155.7544371386759
 34
0.0
 50
0.0000000000001132
100
AcDbRotatedDimension
1001
ACAD
1000
DSTYLE
1002
{
1070
    41
1040
2.0
1070
    42
1040
1.0
1070
    44
1040
1.5
1070
    73
1070
     1
1070
    74
1070
     1
1070
    78
1070
     0
1070
   143
1040
0.0393700787401575
1070
   147
1040
1.524
1070
   179
1070
     2
1070
   271
1070
     0
1070
   284
1070
     0
1002
}
  0
DIMENSION
  5
31D
330
1F
100
AcDbEntity
  8
AM_5
100
AcDbDimension
280
     0
  2
*D27
 10
420.9751927047311
 20
15.98013469334774
 30
0.0
 11
420.9751927047311
 21
55.9801346933478
 31
0.0
 70
    32
 71
     5
 42
80.0
 73
     0
 74
     0
 75
     0
  3
ISO-25
100
AcDbAlignedDimension
 13
399.9383691273911
 23
95.98013469334775
 33
0.0
 14
392.9383691273913
 24
15.98013469334774
 34
0.0
 50
90.00000000000003
100
AcDbRotatedDimension
1001
ACAD
1000
DSTYLE
1002
{
1070
    41
1040
2.0
1070
    42
1040
1.0
1070
    44
1040
1.5
1070
    73
1070
     1
1070
    74
1070
     1
1070
    78
1070
     0
1070
   143
1040
0.0393700787401575
1070
   147
1040
1.524
1070
   179
1070
     2
1070
   271
1070
     0
1070
   284
1070
     0
1002
}
  0
ENDSEC
  0
SECTION
  2
OBJECTS
  0
DICTIONARY
  5
C
330
0
100
AcDbDictionary
281
     1
  3
ACAD_CIP_PREVIOUS_PRODUCT_INFO
350
38F
  3
ACAD_COLOR
350
20D
  3
ACAD_DETAILVIEWSTYLE
350
384
  3
ACAD_GROUP
350
D
  3
ACAD_LAYOUT
350
1A
  3
ACAD_MATERIAL
350
20C
  3
ACAD_MLEADERSTYLE
350
380
  3
ACAD_MLINESTYLE
350
17
  3
ACAD_PLOTSETTINGS
350
19
  3
ACAD_PLOTSTYLENAME
350
E
  3
ACAD_SCALELIST
350
1E9
  3
ACAD_SECTIONVIEWSTYLE
350
382
  3
ACAD_TABLESTYLE
350
37E
  3
ACAD_VISUALSTYLE
350
365
  3
AcAmCatalogState
350
26C
  3
ACDB_RECOMPOSE_DATA
350
3CF
  3
AcDbVariableDictionary
350
3BF
  3
ACDMSYSVARMGR
350
22B
  3
ACGREF_MASTER
350
223
  3
ACGREFACAD_MASTER
350
24C
  3
AcmDictionary
350
26A
  3
ACME_BOM_MANAGER_NAME
350
21D
  3
ACME_COMMAND_HISTORY
350
21A
  3
ACME_SCOPE_NAME
350
219
  3
ACMESTATEMGR
350
222
  3
AcmeSysVarManager
350
21B
  3
AcmSystemVariableManager
350
275
  3
AD_APPL
350
257
  3
ADSYSVARMGR
350
256
  3
AmdtNamedDwgMgr
350
247
  3
AMG
350
212
  3
AMGSNAPSETTINGS
350
2AA
  3
AMI_MASTER
350
24F
  3
AUTOCAD_ASSEMBLIES_PROJECT
350
25F
  3
Designer_Assemblies_SysVars
350
25A
  3
GREFAM_MODULE
350
250
  0
DICTIONARY
  5
391
330
10
100
AcDbDictionary
280
     1
281
     1
  3
ADSK_XREC_LAYER_RECONCILED
360
392
  0
DICTIONARY
  5
393
330
44
100
AcDbDictionary
280
     1
281
     1
  3
ADSK_XREC_LAYER_RECONCILED
360
394
  0
DICTIONARY
  5
395
330
45
100
AcDbDictionary
280
     1
281
     1
  3
ADSK_XREC_LAYER_RECONCILED
360
396
  0
DICTIONARY
  5
397
330
46
100
AcDbDictionary
280
     1
281
     1
  3
ADSK_XREC_LAYER_RECONCILED
360
398
  0
DICTIONARY
  5
399
330
47
100
AcDbDictionary
280
     1
281
     1
  3
ADSK_XREC_LAYER_RECONCILED
360
39A
  0
DICTIONARY
  5
39B
330
48
100
AcDbDictionary
280
     1
281
     1
  3
ADSK_XREC_LAYER_RECONCILED
360
39C
  0
DICTIONARY
  5
39D
330
49
100
AcDbDictionary
280
     1
281
     1
  3
ADSK_XREC_LAYER_RECONCILED
360
39E
  0
DICTIONARY
  5
39F
330
4A
100
AcDbDictionary
280
     1
281
     1
  3
ADSK_XREC_LAYER_RECONCILED
360
3A0
  0
DICTIONARY
  5
3A1
330
4B
100
AcDbDictionary
280
     1
281
     1
  3
ADSK_XREC_LAYER_RECONCILED
360
3A2
  0
DICTIONARY
  5
3A3
330
4C
100
AcDbDictionary
280
     1
281
     1
  3
ADSK_XREC_LAYER_RECONCILED
360
3A4
  0
DICTIONARY
  5
3A5
330
4D
100
AcDbDictionary
280
     1
281
     1
  3
ADSK_XREC_LAYER_RECONCILED
360
3A6
  0
DICTIONARY
  5
3A7
330
4E
100
AcDbDictionary
280
     1
281
     1
  3
ADSK_XREC_LAYER_RECONCILED
360
3A8
  0
DICTIONARY
  5
3A9
330
4F
100
AcDbDictionary
280
     1
281
     1
  3
ADSK_XREC_LAYER_RECONCILED
360
3AA
  0
DICTIONARY
  5
3AB
330
50
100
AcDbDictionary
280
     1
281
     1
  3
ADSK_XREC_LAYER_RECONCILED
360
3AC
  0
DICTIONARY
  5
3AD
330
51
100
AcDbDictionary
280
     1
281
     1
  3
ADSK_XREC_LAYER_RECONCILED
360
3AE
  0
DICTIONARY
  5
338
330
1F
100
AcDbDictionary
280
     1
281
     1
  3
ACAD_INDEX
360
339
  0
XRECORD
  5
38F
102
{ACAD_REACTORS
330
C
102
}
330
C
100
AcDbXrecord
280
     1
300
ACD
300
2017
300
ACD_F_S
  0
DICTIONARY
  5
20D
102
{ACAD_REACTORS
330
C
102
}
330
C
100
AcDbDictionary
281
     1
  0
DICTIONARY
  5
384
102
{ACAD_REACTORS
330
C
102
}
330
C
100
AcDbDictionary
281
     1
  3
Metric50
350
385
  0
DICTIONARY
  5
D
102
{ACAD_REACTORS
330
C
102
}
330
C
100
AcDbDictionary
281
     1
  0
DICTIONARY
  5
1A
102
{ACAD_REACTORS
330
C
102
}
330
C
100
AcDbDictionary
281
     1
  3
Layout1
350
1E
  3
Layout2
350
26
  3
Model
350
22
  0
DICTIONARY
  5
20C
102
{ACAD_REACTORS
330
C
102
}
330
C
100
AcDbDictionary
281
     1
  3
ByBlock
350
355
  3
ByLayer
350
34D
  3
Global
350
35D
  0
DICTIONARY
  5
380
102
{ACAD_REACTORS
330
C
102
}
330
C
100
AcDbDictionary
281
     1
  3
Standard
350
381
  0
DICTIONARY
  5
17
102
{ACAD_REACTORS
330
C
102
}
330
C
100
AcDbDictionary
281
     1
  3
Standard
350
18
  0
DICTIONARY
  5
19
102
{ACAD_REACTORS
330
C
102
}
330
C
100
AcDbDictionary
281
     1
  0
ACDBDICTIONARYWDFLT
  5
E
102
{ACAD_REACTORS
330
C
102
}
330
C
100
AcDbDictionary
281
     1
  3
Normal
350
F
100
AcDbDictionaryWithDefault
340
F
  0
DICTIONARY
  5
1E9
102
{ACAD_REACTORS
330
C
102
}
330
C
100
AcDbDictionary
281
     1
  3
A0
350
1EA
  3
A1
350
1EB
  3
A2
350
1EC
  3
A3
350
1ED
  3
A4
350
1EE
  3
A5
350
1EF
  3
A6
350
1F0
  3
A7
350
1F1
  3
A8
350
1F2
  3
A9
350
1F3
  3
B0
350
1F4
  3
B1
350
1F5
  3
B2
350
1F6
  3
B3
350
1F7
  3
B4
350
1F8
  3
B5
350
1F9
  3
B6
350
1FA
  3
B7
350
1FB
  3
B8
350
1FC
  3
B9
350
1FD
  3
C0
350
1FE
  3
C1
350
1FF
  3
C2
350
200
  3
C3
350
201
  3
C4
350
202
  3
C5
350
203
  3
C6
350
204
  3
C7
350
205
  3
C8
350
206
  3
C9
350
207
  3
D0
350
208
  3
D1
350
209
  3
D2
350
20A
  0
DICTIONARY
  5
382
102
{ACAD_REACTORS
330
C
102
}
330
C
100
AcDbDictionary
281
     1
  3
Metric50
350
383
  0
DICTIONARY
  5
37E
102
{ACAD_REACTORS
330
C
102
}
330
C
100
AcDbDictionary
281
     1
  3
Standard
350
37F
  0
DICTIONARY
  5
365
102
{ACAD_REACTORS
330
C
102
}
330
C
100
AcDbDictionary
281
     1
  3
2dWireframe
350
36B
  3
Basic
350
36A
  3
Brighten
350
371
  3
ColorChange
350
375
  3
Conceptual
350
36E
  3
Dim
350
370
  3
EdgeColorOff
350
37D
  3
Facepattern
350
374
  3
Flat
350
366
  3
FlatWithEdges
350
367
  3
Gouraud
350
368
  3
GouraudWithEdges
350
369
  3
Hidden
350
36D
  3
JitterOff
350
37B
  3
Linepattern
350
373
  3
OverhangOff
350
37C
  3
Realistic
350
36F
  3
Shaded
350
37A
  3
Shaded with edges
350
379
  3
Shades of Gray
350
376
  3
Sketchy
350
377
  3
Thicken
350
372
  3
Wireframe
350
36C
  3
X-Ray
350
378
  0
ACAD_PROXY_OBJECT
  5
26C
102
{ACAD_REACTORS
330
C
102
}
330
C
100
AcDbProxyObject
 90
      499
 91
      549
 95
  4980761
 70
     0
161
               384
310
3FFFFFFFE00A028440291AE2E189C9917189B1C171A17189819AE64F45E63595FAE222BA39427212614AE199918400AA00
 94
        0
  0
XRECORD
  5
3CF
102
{ACAD_REACTORS
330
C
102
}
330
C
100
AcDbXrecord
280
     1
 90
        1
330
37F
330
383
330
385
  0
DICTIONARY
  5
3BF
102
{ACAD_REACTORS
330
C
102
}
330
C
100
AcDbDictionary
281
     1
  3
CANNOSCALE
350
3C5
  3
CMLEADERSTYLE
350
3C1
  3
CTABLESTYLE
350
3C0
  3
CVIEWDETAILSTYLE
350
3C2
  3
CVIEWSECTIONSTYLE
350
3C3
  3
LAYEREVAL
350
3C7
  3
LAYERNOTIFY
350
3C8
  3
LIGHTINGUNITS
350
3C6
  3
MSLTSCALE
350
3C4
  0
ACAD_PROXY_OBJECT
  5
22B
102
{ACAD_REACTORS
330
C
102
}
330
C
100
AcDbProxyObject
 90
      499
 91
      510
 95
  4980761
 70
     0
161
               240
310
4C51A482000000000000000000000000000000000000000000000000000000
330
22C
330
22D
330
22E
330
22F
330
230
330
231
330
232
330
234
330
235
330
236
330
237
330
238
330
239
330
23A
330
23B
330
23C
330
23D
330
23E
330
23F
330
240
330
241
330
242
330
243
330
244
330
245
330
246
 94
        0
  0
ACAD_PROXY_OBJECT
  5
223
102
{ACAD_REACTORS
330
C
102
}
330
C
100
AcDbProxyObject
 90
      499
 91
      518
 95
  4980761
 70
     0
161
                34
310
040000428C
 94
        0
  0
ACAD_PROXY_OBJECT
  5
24C
102
{ACAD_REACTORS
330
C
102
}
330
C
100
AcDbProxyObject
 90
      499
 91
      527
 95
  4980761
 70
     0
161
               114
310
04000041C08000000000000000000C
 94
        0
  0
DICTIONARY
  5
26A
102
{ACAD_REACTORS
330
C
102
}
330
C
100
AcDbDictionary
281
     1
  3
AcmBOMDATA
350
26B
  3
AcmStdDictionary
350
277
  0
ACAD_PROXY_OBJECT
  5
21D
102
{ACAD_REACTORS
330
C
102
}
330
C
100
AcDbProxyObject
 90
      499
 91
      512
 95
  4980761
 70
     0
161
                50
310
0000004040000C
330
0
330
0
330
21E
 94
        0
  0
ACAD_PROXY_OBJECT
  5
21A
102
{ACAD_REACTORS
330
C
102
}
330
C
100
AcDbProxyObject
 90
      499
 91
      509
 95
  4980761
 70
     0
161
              1886
310
420050E414D4454524553455444424D4F4440805084E202D20554E444F014213880B4815539113C0504554E444F80504554E444F8050545524153458050A414D504F57455244494D40405184D5347202D20436F6D6D616E642043414E43454C4C45442E014290535413D5D15491125350101461354D1C80B4810DBDB5B585B
310
990810D05390D1531311510B8050A414D504F57455244494D40405184D5347202D20436F6D6D616E642043414E43454C4C45442E014150D313D4D1501014B9354D1C80B481414104E88080819195CDADD1BDC0B985C9E08119A5B1955995C9CDA5BDB8E880E0B8C0B8C8D0B8D8
 94
        0
  0
ACAD_PROXY_OBJECT
  5
219
102
{ACAD_REACTORS
330
C
102
}
330
C
100
AcDbProxyObject
 90
      499
 91
      508
 95
  4980761
 70
     0
161
               554
310
080000454080000000000000000013150200000000000000000000000000000000000000000000000000000000000000000000000000000000000000000000000000AAAAAA8C
360
21C
360
21E
360
224
360
225
360
226
360
227
360
228
360
229
360
22C
360
22D
360
22E
360
22F
360
230
360
231
360
232
360
234
360
235
360
236
360
237
360
238
360
239
360
23A
360
23B
360
23C
360
23D
360
23E
360
23F
360
240
360
241
360
242
360
243
360
244
360
245
360
246
360
252
360
253
360
254
360
255
360
25B
360
25C
360
25D
360
25E
360
263
360
264
360
265
360
266
360
267
360
268
360
276
 94
        0
  0
ACAD_PROXY_OBJECT
  5
222
102
{ACAD_REACTORS
330
C
102
}
330
C
100
AcDbProxyObject
 90
      499
 91
      517
 95
  4980761
 70
     0
161
                50
310
08000041E4128C
 94
        0
  0
ACAD_PROXY_OBJECT
  5
21B
102
{ACAD_REACTORS
330
C
102
}
330
C
100
AcDbProxyObject
 90
      499
 91
      510
 95
  4980761
 70
     0
161
                32
310
9014220000
330
21C
 94
        0
  0
ACAD_PROXY_OBJECT
  5
275
102
{ACAD_REACTORS
330
C
102
}
330
C
100
AcDbProxyObject
 90
      499
 91
      510
 95
  4980761
 70
     0
161
                32
310
9014220000
330
276
 94
        0
  0
ACAD_PROXY_OBJECT
  5
257
102
{ACAD_REACTORS
330
C
102
}
330
C
100
AcDbProxyObject
 90
      499
 91
      537
 95
  4980761
 70
     0
161
                34
310
000800008C
330
252
 94
        0
  0
ACAD_PROXY_OBJECT
  5
256
102
{ACAD_REACTORS
330
C
102
}
330
C
100
AcDbProxyObject
 90
      499
 91
      510
 95
  4980761
 70
     0
161
                 8
310
AA00
 94
        0
  0
ACAD_PROXY_OBJECT
  5
247
102
{ACAD_REACTORS
330
C
102
}
330
C
100
AcDbProxyObject
 90
      499
 91
      524
 95
  4980761
 70
     0
161
                42
310
000100005E8C
330
224
 94
        0
  0
DICTIONARY
  5
212
102
{ACAD_REACTORS
330
C
102
}
330
C
100
AcDbDictionary
281
     1
  3
AcMgSettings
350
213
  3
AMGLAYCFG
350
279
  0
DICTIONARY
  5
2AA
102
{ACAD_REACTORS
330
C
102
}
330
C
100
AcDbDictionary
281
     1
  3
DIMENSION
350
2AF
  3
FEA
350
2AE
  3
HATCH (1)
350
2AB
  3
HATCH (2)
350
2AC
  3
SIMPLE WELD
350
2B0
  3
SYMBOLS
350
2AD
  0
ACAD_PROXY_OBJECT
  5
24F
102
{ACAD_REACTORS
330
C
102
}
330
C
100
AcDbProxyObject
 90
      499
 91
      530
 95
  4980761
 70
     0
161
                34
310
050000428C
 94
        0
  0
ACAD_PROXY_OBJECT
  5
25F
102
{ACAD_REACTORS
330
C
102
}
330
C
100
AcDbProxyObject
 90
      499
 91
      541
 95
  4980761
 70
     0
161
                82
310
0800004BC000000000000C
330
266
330
0
330
267
330
0
330
0
330
0
 94
        0
  0
ACAD_PROXY_OBJECT
  5
25A
102
{ACAD_REACTORS
330
C
102
}
330
C
100
AcDbProxyObject
 90
      499
 91
      510
 95
  4980761
 70
     0
161
                56
310
9044220000000000
330
25B
330
25C
330
25D
330
25E
 94
        0
  0
ACAD_PROXY_OBJECT
  5
250
102
{ACAD_REACTORS
330
C
102
}
330
C
100
AcDbProxyObject
 90
      499
 91
      531
 95
  4980761
 70
     0
161
                 8
310
053F
 94
        0
  0
XRECORD
  5
392
102
{ACAD_REACTORS
330
391
102
}
330
391
100
AcDbXrecord
280
     1
290
     1
  0
XRECORD
  5
394
102
{ACAD_REACTORS
330
393
102
}
330
393
100
AcDbXrecord
280
     1
290
     1
  0
XRECORD
  5
396
102
{ACAD_REACTORS
330
395
102
}
330
395
100
AcDbXrecord
280
     1
290
     1
  0
XRECORD
  5
398
102
{ACAD_REACTORS
330
397
102
}
330
397
100
AcDbXrecord
280
     1
290
     1
  0
XRECORD
  5
39A
102
{ACAD_REACTORS
330
399
102
}
330
399
100
AcDbXrecord
280
     1
290
     1
  0
XRECORD
  5
39C
102
{ACAD_REACTORS
330
39B
102
}
330
39B
100
AcDbXrecord
280
     1
290
     1
  0
XRECORD
  5
39E
102
{ACAD_REACTORS
330
39D
102
}
330
39D
100
AcDbXrecord
280
     1
290
     1
  0
XRECORD
  5
3A0
102
{ACAD_REACTORS
330
39F
102
}
330
39F
100
AcDbXrecord
280
     1
290
     1
  0
XRECORD
  5
3A2
102
{ACAD_REACTORS
330
3A1
102
}
330
3A1
100
AcDbXrecord
280
     1
290
     1
  0
XRECORD
  5
3A4
102
{ACAD_REACTORS
330
3A3
102
}
330
3A3
100
AcDbXrecord
280
     1
290
     1
  0
XRECORD
  5
3A6
102
{ACAD_REACTORS
330
3A5
102
}
330
3A5
100
AcDbXrecord
280
     1
290
     1
  0
XRECORD
  5
3A8
102
{ACAD_REACTORS
330
3A7
102
}
330
3A7
100
AcDbXrecord
280
     1
290
     1
  0
XRECORD
  5
3AA
102
{ACAD_REACTORS
330
3A9
102
}
330
3A9
100
AcDbXrecord
280
     1
290
     1
  0
XRECORD
  5
3AC
102
{ACAD_REACTORS
330
3AB
102
}
330
3AB
100
AcDbXrecord
280
     1
290
     1
  0
XRECORD
  5
3AE
102
{ACAD_REACTORS
330
3AD
102
}
330
3AD
100
AcDbXrecord
280
     1
290
     1
  0
DICTIONARY
  5
339
102
{ACAD_REACTORS
330
338
102
}
330
338
100
AcDbDictionary
281
     1
  3
*A1
350
33A
  0
ACDBDETAILVIEWSTYLE
  5
385
102
{ACAD_XDICTIONARY
360
3CD
102
}
102
{ACAD_REACTORS
330
384
102
}
330
384
100
AcDbModelDocViewStyle
 70
     0
  3
Metric50
290
     0
100
AcDbDetailViewStyle
 70
     0
 71
     0
 90
        3
 71
     1
340
11
 62
   256
 40
5.0
340
0
 62
   256
 40
5.0
300

 40
0.0
280
     1
 71
     2
340
16
 90
       25
 62
   256
 71
     3
340
11
 62
   256
 40
5.0
 90
        0
 40
15.0
 90
        1
300
%<\AcVar ViewDetailId>% (%<\AcVar ViewScale \f "%sn">%)
 71
     4
340
16
 90
       25
 62
   256
340
16
 90
       25
 62
   256
280
     0
  0
LAYOUT
  5
1E
102
{ACAD_REACTORS
330
1A
102
}
330
1A
100
AcDbPlotSettings
  1

  2
none_device
  4

  6

 40
0.0
 41
0.0
 42
0.0
 43
0.0
 44
0.0
 45
0.0
 46
0.0
 47
0.0
 48
0.0
 49
0.0
140
0.0
141
0.0
142
1.0
143
1.0
 70
   688
 72
     0
 73
     0
 74
     5
  7

 75
    16
147
1.0
 76
     0
 77
     2
 78
   300
148
0.0
149
0.0
100
AcDbLayout
  1
Layout1
 70
     1
 71
     1
 10
0.0
 20
0.0
 11
420.0
 21
297.0
 12
0.0
 22
0.0
 32
0.0
 14
1.000000000000000E+20
 24
1.000000000000000E+20
 34
1.000000000000000E+20
 15
-1.000000000000000E+20
 25
-1.000000000000000E+20
 35
-1.000000000000000E+20
146
0.0
 13
0.0
 23
0.0
 33
0.0
 16
1.0
 26
0.0
 36
0.0
 17
0.0
 27
1.0
 37
0.0
 76
     0
330
1B
  0
LAYOUT
  5
26
102
{ACAD_REACTORS
330
1A
102
}
330
1A
100
AcDbPlotSettings
  1

  2
none_device
  4

  6

 40
0.0
 41
0.0
 42
0.0
 43
0.0
 44
0.0
 45
0.0
 46
0.0
 47
0.0
 48
0.0
 49
0.0
140
0.0
141
0.0
142
1.0
143
1.0
 70
   688
 72
     0
 73
     0
 74
     5
  7

 75
    16
147
1.0
 76
     0
 77
     2
 78
   300
148
0.0
149
0.0
100
AcDbLayout
  1
Layout2
 70
     1
 71
     2
 10
0.0
 20
0.0
 11
0.0
 21
0.0
 12
0.0
 22
0.0
 32
0.0
 14
0.0
 24
0.0
 34
0.0
 15
0.0
 25
0.0
 35
0.0
146
0.0
 13
0.0
 23
0.0
 33
0.0
 16
1.0
 26
0.0
 36
0.0
 17
0.0
 27
1.0
 37
0.0
 76
     0
330
23
  0
LAYOUT
  5
22
102
{ACAD_REACTORS
330
1A
102
}
330
1A
100
AcDbPlotSettings
  1

  2
none_device
  4

  6

 40
0.0
 41
0.0
 42
0.0
 43
0.0
 44
0.0
 45
0.0
 46
0.0
 47
0.0
 48
0.0
 49
0.0
140
0.0
141
0.0
142
1.0
143
1.0
 70
  1712
 72
     0
 73
     0
 74
     0
  7

 75
     0
147
1.0
 76
     0
 77
     2
 78
   300
148
0.0
149
0.0
100
AcDbLayout
  1
Model
 70
     1
 71
     0
 10
0.0
 20
0.0
 11
297.0
 21
210.0
 12
0.0
 22
0.0
 32
0.0
 14
0.0
 24
0.0
 34
0.0
 15
297.0
 25
210.0
 35
0.0
146
0.0
 13
0.0
 23
0.0
 33
0.0
 16
1.0
 26
0.0
 36
0.0
 17
0.0
 27
1.0
 37
0.0
 76
     0
330
1F
331
34B
  0
MATERIAL
  5
355
102
{ACAD_XDICTIONARY
360
356
102
}
102
{ACAD_REACTORS
330
20C
102
}
330
20C
100
AcDbMaterial
  1
ByBlock
 72
     0
 43
0.0008202099737533
 43
0.0
 43
0.0
 43
0.0
 43
0.0
 43
0.0008202099737533
 43
0.0
 43
0.0
 43
0.0
 43
0.0
 43
1.0
 43
0.0
 43
0.0
 43
0.0
 43
0.0
 43
1.0
 77
     0
 47
0.0008202099737533
 47
0.0
 47
0.0
 47
0.0
 47
0.0
 47
0.0008202099737533
 47
0.0
 47
0.0
 47
0.0
 47
0.0
 47
1.0
 47
0.0
 47
0.0
 47
0.0
 47
0.0
 47
1.0
171
     0
 49
0.0008202099737533
 49
0.0
 49
0.0
 49
0.0
 49
0.0
 49
0.0008202099737533
 49
0.0
 49
0.0
 49
0.0
 49
0.0
 49
1.0
 49
0.0
 49
0.0
 49
0.0
 49
0.0
 49
1.0
175
     0
142
0.0008202099737533
142
0.0
142
0.0
142
0.0
142
0.0
142
0.0008202099737533
142
0.0
142
0.0
142
0.0
142
0.0
142
1.0
142
0.0
142
0.0
142
0.0
142
0.0
142
1.0
179
     0
144
0.0008202099737533
144
0.0
144
0.0
144
0.0
144
0.0
144
0.0008202099737533
144
0.0
144
0.0
144
0.0
144
0.0
144
1.0
144
0.0
144
0.0
144
0.0
144
0.0
144
1.0
147
0.0008202099737533
147
0.0
147
0.0
147
0.0
147
0.0
147
0.0008202099737533
147
0.0
147
0.0
147
0.0
147
0.0
147
1.0
147
0.0
147
0.0
147
0.0
147
0.0
147
1.0
  0
MATERIAL
  5
34D
102
{ACAD_XDICTIONARY
360
34E
102
}
102
{ACAD_REACTORS
330
20C
102
}
330
20C
100
AcDbMaterial
  1
ByLayer
 72
     0
 43
0.0008202099737533
 43
0.0
 43
0.0
 43
0.0
 43
0.0
 43
0.0008202099737533
 43
0.0
 43
0.0
 43
0.0
 43
0.0
 43
1.0
 43
0.0
 43
0.0
 43
0.0
 43
0.0
 43
1.0
 77
     0
 47
0.0008202099737533
 47
0.0
 47
0.0
 47
0.0
 47
0.0
 47
0.0008202099737533
 47
0.0
 47
0.0
 47
0.0
 47
0.0
 47
1.0
 47
0.0
 47
0.0
 47
0.0
 47
0.0
 47
1.0
171
     0
 49
0.0008202099737533
 49
0.0
 49
0.0
 49
0.0
 49
0.0
 49
0.0008202099737533
 49
0.0
 49
0.0
 49
0.0
 49
0.0
 49
1.0
 49
0.0
 49
0.0
 49
0.0
 49
0.0
 49
1.0
175
     0
142
0.0008202099737533
142
0.0
142
0.0
142
0.0
142
0.0
142
0.0008202099737533
142
0.0
142
0.0
142
0.0
142
0.0
142
1.0
142
0.0
142
0.0
142
0.0
142
0.0
142
1.0
179
     0
144
0.0008202099737533
144
0.0
144
0.0
144
0.0
144
0.0
144
0.0008202099737533
144
0.0
144
0.0
144
0.0
144
0.0
144
1.0
144
0.0
144
0.0
144
0.0
144
0.0
144
1.0
147
0.0008202099737533
147
0.0
147
0.0
147
0.0
147
0.0
147
0.0008202099737533
147
0.0
147
0.0
147
0.0
147
0.0
147
1.0
147
0.0
147
0.0
147
0.0
147
0.0
147
1.0
  0
MATERIAL
  5
35D
102
{ACAD_XDICTIONARY
360
35E
102
}
102
{ACAD_REACTORS
330
20C
102
}
330
20C
100
AcDbMaterial
  1
Global
 72
     0
 43
0.0008202099737533
 43
0.0
 43
0.0
 43
0.0
 43
0.0
 43
0.0008202099737533
 43
0.0
 43
0.0
 43
0.0
 43
0.0
 43
1.0
 43
0.0
 43
0.0
 43
0.0
 43
0.0
 43
1.0
 77
     0
 47
0.0008202099737533
 47
0.0
 47
0.0
 47
0.0
 47
0.0
 47
0.0008202099737533
 47
0.0
 47
0.0
 47
0.0
 47
0.0
 47
1.0
 47
0.0
 47
0.0
 47
0.0
 47
0.0
 47
1.0
171
     0
 49
0.0008202099737533
 49
0.0
 49
0.0
 49
0.0
 49
0.0
 49
0.0008202099737533
 49
0.0
 49
0.0
 49
0.0
 49
0.0
 49
1.0
 49
0.0
 49
0.0
 49
0.0
 49
0.0
 49
1.0
175
     0
142
0.0008202099737533
142
0.0
142
0.0
142
0.0
142
0.0
142
0.0008202099737533
142
0.0
142
0.0
142
0.0
142
0.0
142
1.0
142
0.0
142
0.0
142
0.0
142
0.0
142
1.0
179
     0
144
0.0008202099737533
144
0.0
144
0.0
144
0.0
144
0.0
144
0.0008202099737533
144
0.0
144
0.0
144
0.0
144
0.0
144
1.0
144
0.0
144
0.0
144
0.0
144
0.0
144
1.0
147
0.0008202099737533
147
0.0
147
0.0
147
0.0
147
0.0
147
0.0008202099737533
147
0.0
147
0.0
147
0.0
147
0.0
147
1.0
147
0.0
147
0.0
147
0.0
147
0.0
147
1.0
  0
MLEADERSTYLE
  5
381
102
{ACAD_REACTORS
330
380
102
}
330
380
100
AcDbMLeaderStyle
179
     2
170
     2
171
     1
172
     0
 90
        2
 40
0.0
 41
0.0
173
     1
 91
-1056964608
340
14
 92
       -2
290
     1
 42
2.0
291
     1
 43
0.36
  3
Standard
 44
4.0
300

342
11
174
     1
178
     6
175
     1
176
     0
 93
-1056964608
 45
4.0
292
     0
297
     0
 46
4.0
 94
-1056964608
 47
1.0
 49
1.0
140
1.0
293
     1
141
0.0
294
     1
177
     0
142
1.0
295
     1
296
     0
143
0.125
271
     0
272
     9
273
     9
298
     1
  0
MLINESTYLE
  5
18
102
{ACAD_REACTORS
330
17
102
}
330
17
100
AcDbMlineStyle
  2
STANDARD
 70
     0
  3

 62
   256
 51
90.0
 52
90.0
 71
     2
 49
0.5
 62
   256
  6
BYLAYER
 49
-0.5
 62
   256
  6
BYLAYER
  0
ACDBPLACEHOLDER
  5
F
102
{ACAD_REACTORS
330
E
102
}
330
E
  0
SCALE
  5
1EA
102
{ACAD_REACTORS
330
1E9
102
}
330
1E9
100
AcDbScale
 70
     0
300
1:1
140
1.0
141
1.0
290
     1
  0
SCALE
  5
1EB
102
{ACAD_REACTORS
330
1E9
102
}
330
1E9
100
AcDbScale
 70
     0
300
1:2
140
1.0
141
2.0
290
     0
  0
SCALE
  5
1EC
102
{ACAD_REACTORS
330
1E9
102
}
330
1E9
100
AcDbScale
 70
     0
300
1:4
140
1.0
141
4.0
290
     0
  0
SCALE
  5
1ED
102
{ACAD_REACTORS
330
1E9
102
}
330
1E9
100
AcDbScale
 70
     0
300
1:5
140
1.0
141
5.0
290
     0
  0
SCALE
  5
1EE
102
{ACAD_REACTORS
330
1E9
102
}
330
1E9
100
AcDbScale
 70
     0
300
1:8
140
1.0
141
8.0
290
     0
  0
SCALE
  5
1EF
102
{ACAD_REACTORS
330
1E9
102
}
330
1E9
100
AcDbScale
 70
     0
300
1:10
140
1.0
141
10.0
290
     0
  0
SCALE
  5
1F0
102
{ACAD_REACTORS
330
1E9
102
}
330
1E9
100
AcDbScale
 70
     0
300
1:16
140
1.0
141
16.0
290
     0
  0
SCALE
  5
1F1
102
{ACAD_REACTORS
330
1E9
102
}
330
1E9
100
AcDbScale
 70
     0
300
1:20
140
1.0
141
20.0
290
     0
  0
SCALE
  5
1F2
102
{ACAD_REACTORS
330
1E9
102
}
330
1E9
100
AcDbScale
 70
     0
300
1:30
140
1.0
141
30.0
290
     0
  0
SCALE
  5
1F3
102
{ACAD_REACTORS
330
1E9
102
}
330
1E9
100
AcDbScale
 70
     0
300
1:40
140
1.0
141
40.0
290
     0
  0
SCALE
  5
1F4
102
{ACAD_REACTORS
330
1E9
102
}
330
1E9
100
AcDbScale
 70
     0
300
1:50
140
1.0
141
50.0
290
     0
  0
SCALE
  5
1F5
102
{ACAD_REACTORS
330
1E9
102
}
330
1E9
100
AcDbScale
 70
     0
300
1:100
140
1.0
141
100.0
290
     0
  0
SCALE
  5
1F6
102
{ACAD_REACTORS
330
1E9
102
}
330
1E9
100
AcDbScale
 70
     0
300
2:1
140
2.0
141
1.0
290
     0
  0
SCALE
  5
1F7
102
{ACAD_REACTORS
330
1E9
102
}
330
1E9
100
AcDbScale
 70
     0
300
4:1
140
4.0
141
1.0
290
     0
  0
SCALE
  5
1F8
102
{ACAD_REACTORS
330
1E9
102
}
330
1E9
100
AcDbScale
 70
     0
300
8:1
140
8.0
141
1.0
290
     0
  0
SCALE
  5
1F9
102
{ACAD_REACTORS
330
1E9
102
}
330
1E9
100
AcDbScale
 70
     0
300
10:1
140
10.0
141
1.0
290
     0
  0
SCALE
  5
1FA
102
{ACAD_REACTORS
330
1E9
102
}
330
1E9
100
AcDbScale
 70
     0
300
100:1
140
100.0
141
1.0
290
     0
  0
SCALE
  5
1FB
102
{ACAD_REACTORS
330
1E9
102
}
330
1E9
100
AcDbScale
 70
     0
300
1/128" = 1'-0"
140
0.0078125
141
12.0
290
     0
  0
SCALE
  5
1FC
102
{ACAD_REACTORS
330
1E9
102
}
330
1E9
100
AcDbScale
 70
     0
300
1/64" = 1'-0"
140
0.015625
141
12.0
290
     0
  0
SCALE
  5
1FD
102
{ACAD_REACTORS
330
1E9
102
}
330
1E9
100
AcDbScale
 70
     0
300
1/32" = 1'-0"
140
0.03125
141
12.0
290
     0
  0
SCALE
  5
1FE
102
{ACAD_REACTORS
330
1E9
102
}
330
1E9
100
AcDbScale
 70
     0
300
1/16" = 1'-0"
140
0.0625
141
12.0
290
     0
  0
SCALE
  5
1FF
102
{ACAD_REACTORS
330
1E9
102
}
330
1E9
100
AcDbScale
 70
     0
300
3/32" = 1'-0"
140
0.09375
141
12.0
290
     0
  0
SCALE
  5
200
102
{ACAD_REACTORS
330
1E9
102
}
330
1E9
100
AcDbScale
 70
     0
300
1/8" = 1'-0"
140
0.125
141
12.0
290
     0
  0
SCALE
  5
201
102
{ACAD_REACTORS
330
1E9
102
}
330
1E9
100
AcDbScale
 70
     0
300
3/16" = 1'-0"
140
0.1875
141
12.0
290
     0
  0
SCALE
  5
202
102
{ACAD_REACTORS
330
1E9
102
}
330
1E9
100
AcDbScale
 70
     0
300
1/4" = 1'-0"
140
0.25
141
12.0
290
     0
  0
SCALE
  5
203
102
{ACAD_REACTORS
330
1E9
102
}
330
1E9
100
AcDbScale
 70
     0
300
3/8" = 1'-0"
140
0.375
141
12.0
290
     0
  0
SCALE
  5
204
102
{ACAD_REACTORS
330
1E9
102
}
330
1E9
100
AcDbScale
 70
     0
300
1/2" = 1'-0"
140
0.5
141
12.0
290
     0
  0
SCALE
  5
205
102
{ACAD_REACTORS
330
1E9
102
}
330
1E9
100
AcDbScale
 70
     0
300
3/4" = 1'-0"
140
0.75
141
12.0
290
     0
  0
SCALE
  5
206
102
{ACAD_REACTORS
330
1E9
102
}
330
1E9
100
AcDbScale
 70
     0
300
1" = 1'-0"
140
1.0
141
12.0
290
     0
  0
SCALE
  5
207
102
{ACAD_REACTORS
330
1E9
102
}
330
1E9
100
AcDbScale
 70
     0
300
1-1/2" = 1'-0"
140
1.5
141
12.0
290
     0
  0
SCALE
  5
208
102
{ACAD_REACTORS
330
1E9
102
}
330
1E9
100
AcDbScale
 70
     0
300
3" = 1'-0"
140
3.0
141
12.0
290
     0
  0
SCALE
  5
209
102
{ACAD_REACTORS
330
1E9
102
}
330
1E9
100
AcDbScale
 70
     0
300
6" = 1'-0"
140
6.0
141
12.0
290
     0
  0
SCALE
  5
20A
102
{ACAD_REACTORS
330
1E9
102
}
330
1E9
100
AcDbScale
 70
     0
300
1'-0" = 1'-0"
140
12.0
141
12.0
290
     0
  0
ACDBSECTIONVIEWSTYLE
  5
383
102
{ACAD_XDICTIONARY
360
3CB
102
}
102
{ACAD_REACTORS
330
382
102
}
330
382
100
AcDbModelDocViewStyle
 70
     0
  3
Metric50
290
     0
100
AcDbSectionViewStyle
 70
     0
 71
     0
 90
      102
 71
     1
340
11
 62
   256
 40
5.0
340
0
340
0
 62
   256
 40
5.0
300
I, O, Q, S, X, Z
 40
10.0
 90
        0
 40
2.5
 90
        0
 71
     2
340
16
 90
       25
 62
   256
340
16
 90
       50
 62
   256
 40
5.0
 40
2.5
 40
5.0
 71
     3
340
11
 62
   256
 40
5.0
 90
        0
 40
15.0
 90
        1
300
%<\AcVar ViewSectionStartId>%-%<\AcVar ViewSectionEndId>% (%<\AcVar ViewScale \f "%sn">%)
 71
     4
 62
   256
 62
   257
300
ANSI31
 40
1.0
 90
        0
290
     0
290
     0
 90
        6
 40
0.0
 40
1.570796326794896
 40
0.2617993877991494
 40
1.308996938995747
 40
-0.2617993877991494
 40
1.832595714594046
  0
TABLESTYLE
  5
37F
102
{ACAD_XDICTIONARY
360
3C9
102
}
102
{ACAD_REACTORS
330
37E
102
}
330
37E
100
AcDbTableStyle
280
     0
  3
Standard
 70
     0
 71
     0
 40
1.5
 41
1.5
280
     0
281
     0
  7
Standard
140
4.5
170
     2
 62
     0
 63
     7
283
     0
 90
      512
 91
        0
  1

274
    -2
284
     1
 64
     0
275
    -2
285
     1
 65
     0
276
    -2
286
     1
 66
     0
277
    -2
287
     1
 67
     0
278
    -2
288
     1
 68
     0
279
    -2
289
     1
 69
     0
  7
Standard
140
6.0
170
     5
 62
     0
 63
     7
283
     0
 90
      512
 91
        0
  1

274
    -2
284
     1
 64
     0
275
    -2
285
     1
 65
     0
276
    -2
286
     1
 66
     0
277
    -2
287
     1
 67
     0
278
    -2
288
     1
 68
     0
279
    -2
289
     1
 69
     0
  7
Standard
140
4.5
170
     5
 62
     0
 63
     7
283
     0
 90
      512
 91
        0
  1

274
    -2
284
     1
 64
     0
275
    -2
285
     1
 65
     0
276
    -2
286
     1
 66
     0
277
    -2
287
     1
 67
     0
278
    -2
288
     1
 68
     0
279
    -2
289
     1
 69
     0
  0
VISUALSTYLE
  5
36B
102
{ACAD_REACTORS
330
365
102
}
330
365
100
AcDbVisualStyle
  2
2dWireframe
 70
     4
177
     3
291
     0
 70
    58
 90
        0
176
     1
 90
        2
176
     1
 90
        0
176
     1
 90
        0
176
     1
 40
0.6
176
     1
 40
30.0
176
     1
 62
     7
420
 16777215
176
     1
 90
        1
176
     1
 90
        4
176
     1
 62
     7
176
     1
 62
   257
176
     1
 90
        1
176
     1
 90
        1
176
     1
 40
1.0
176
     1
 90
        0
176
     1
 62
   257
176
     1
 40
1.0
176
     1
 90
        1
176
     1
 90
        6
176
     1
 90
        2
176
     1
 62
     7
176
     1
 90
        5
176
     1
 90
        0
176
     1
 90
        0
176
     1
290
     0
176
     1
 90
        1
176
     1
 40
0.0
176
     1
 90
        0
176
     1
290
     1
176
     1
290
     1
176
     1
290
     0
176
     1
290
     0
176
     1
290
     0
176
     1
290
     0
176
     1
290
     0
176
     1
290
     0
176
     1
290
     0
176
     1
 90
       50
176
     1
 40
0.0
176
     1
 40
1.0
176
     1
 90
        0
176
     1
 62
    18
420
        0
176
     1
 90
       50
176
     1
 90
        3
176
     1
 62
     5
420
      255
176
     1
290
     0
176
     1
 90
       50
176
     1
 90
       50
176
     1
 90
       50
176
     1
290
     0
176
     1
 90
       50
176
     1
 62
   256
176
     0
 40
1.0
176
     0
 90
        2
176
     1
  1
strokes_ogs.tif
176
     1
290
     0
176
     1
 40
1.0
176
     1
 40
1.0
176
     1
  0
VISUALSTYLE
  5
36A
102
{ACAD_REACTORS
330
365
102
}
330
365
100
AcDbVisualStyle
  2
Basic
 70
     7
177
     3
291
     1
 70
    58
 90
        1
176
     1
 90
        0
176
     1
 90
        1
176
     1
 90
        0
176
     1
 40
0.6
176
     1
 40
30.0
176
     1
 62
     7
420
 16777215
176
     1
 90
        0
176
     1
 90
        4
176
     1
 62
     7
176
     1
 62
   257
176
     1
 90
        1
176
     1
 90
        1
176
     1
 40
1.0
176
     1
 90
        8
176
     1
 62
     7
176
     1
 40
1.0
176
     1
 90
        1
176
     1
 90
        6
176
     1
 90
        2
176
     1
 62
     7
176
     1
 90
        5
176
     1
 90
        0
176
     1
 90
        0
176
     1
290
     0
176
     1
 90
        1
176
     1
 40
0.0
176
     1
 90
        0
176
     1
290
     0
176
     1
290
     1
176
     1
290
     1
176
     1
290
     0
176
     1
290
     0
176
     1
290
     0
176
     1
290
     0
176
     1
290
     0
176
     1
290
     0
176
     1
 90
       50
176
     1
 40
0.0
176
     1
 40
1.0
176
     1
 90
        0
176
     1
 62
    18
420
        0
176
     1
 90
       50
176
     1
 90
        3
176
     1
 62
     5
420
      255
176
     1
290
     0
176
     1
 90
       50
176
     1
 90
       50
176
     1
 90
       50
176
     1
290
     0
176
     1
 90
       50
176
     1
 62
   256
176
     0
 40
1.0
176
     0
 90
        2
176
     1
  1
strokes_ogs.tif
176
     1
290
     0
176
     1
 40
1.0
176
     1
 40
1.0
176
     1
  0
VISUALSTYLE
  5
371
102
{ACAD_REACTORS
330
365
102
}
330
365
100
AcDbVisualStyle
  2
Brighten
 70
    12
177
     3
291
     1
 70
    58
 90
        2
176
     1
 90
        2
176
     1
 90
        0
176
     1
 90
        0
176
     1
 40
0.6
176
     1
 40
30.0
176
     1
 62
     7
420
 16777215
176
     1
 90
        1
176
     1
 90
        4
176
     1
 62
     7
176
     1
 62
   257
176
     1
 90
        1
176
     1
 90
        1
176
     1
 40
1.0
176
     1
 90
        8
176
     1
 62
     7
176
     1
 40
1.0
176
     1
 90
        1
176
     1
 90
        6
176
     1
 90
        2
176
     1
 62
     7
176
     1
 90
        5
176
     1
 90
        0
176
     1
 90
        0
176
     1
290
     0
176
     1
 90
        1
176
     1
 40
50.0
176
     1
 90
        0
176
     1
290
     0
176
     1
290
     1
176
     1
290
     1
176
     1
290
     0
176
     1
290
     0
176
     1
290
     0
176
     1
290
     0
176
     1
290
     0
176
     1
290
     0
176
     1
 90
       50
176
     1
 40
0.0
176
     1
 40
1.0
176
     1
 90
        0
176
     1
 62
    18
420
        0
176
     1
 90
       50
176
     1
 90
        3
176
     1
 62
     5
420
      255
176
     1
290
     0
176
     1
 90
       50
176
     1
 90
       50
176
     1
 90
       50
176
     1
290
     0
176
     1
 90
       50
176
     1
 62
   256
176
     0
 40
1.0
176
     0
 90
        2
176
     1
  1
strokes_ogs.tif
176
     1
290
     0
176
     1
 40
1.0
176
     1
 40
1.0
176
     1
  0
VISUALSTYLE
  5
375
102
{ACAD_REACTORS
330
365
102
}
330
365
100
AcDbVisualStyle
  2
ColorChange
 70
    16
177
     3
291
     1
 70
    58
 90
        2
176
     1
 90
        2
176
     1
 90
        3
176
     1
 90
        0
176
     1
 40
0.6
176
     1
 40
30.0
176
     1
 62
     8
420
  8421504
176
     1
 90
        1
176
     1
 90
        4
176
     1
 62
     7
176
     1
 62
   257
176
     1
 90
        1
176
     1
 90
        1
176
     1
 40
1.0
176
     1
 90
        8
176
     1
 62
     8
420
  8421504
176
     1
 40
1.0
176
     1
 90
        1
176
     1
 90
        6
176
     1
 90
        2
176
     1
 62
     7
176
     1
 90
        5
176
     1
 90
        0
176
     1
 90
        0
176
     1
290
     0
176
     1
 90
        1
176
     1
 40
0.0
176
     1
 90
        0
176
     1
290
     0
176
     1
290
     1
176
     1
290
     1
176
     1
290
     0
176
     1
290
     0
176
     1
290
     0
176
     1
290
     0
176
     1
290
     0
176
     1
290
     0
176
     1
 90
       50
176
     1
 40
0.0
176
     1
 40
1.0
176
     1
 90
        0
176
     1
 62
    18
420
        0
176
     1
 90
       50
176
     1
 90
        3
176
     1
 62
     5
420
      255
176
     1
290
     0
176
     1
 90
       50
176
     1
 90
       50
176
     1
 90
       50
176
     1
290
     0
176
     1
 90
       50
176
     1
 62
   256
176
     0
 40
1.0
176
     0
 90
        2
176
     1
  1
strokes_ogs.tif
176
     1
290
     0
176
     1
 40
1.0
176
     1
 40
1.0
176
     1
  0
VISUALSTYLE
  5
36E
102
{ACAD_REACTORS
330
365
102
}
330
365
100
AcDbVisualStyle
  2
Conceptual
 70
     9
177
     3
291
     0
 70
    58
 90
        3
176
     1
 90
        2
176
     1
 90
        0
176
     1
 90
        0
176
     1
 40
0.6
176
     1
 40
30.0
176
     1
 62
     7
420
 16777215
176
     1
 90
        2
176
     1
 90
        2
176
     1
 62
     7
176
     1
 62
   257
176
     1
 90
        1
176
     1
 90
        1
176
     1
 40
179.0
176
     1
 90
        8
176
     1
 62
     7
176
     1
 40
1.0
176
     1
 90
        1
176
     1
 90
        6
176
     1
 90
        2
176
     1
 62
     7
176
     1
 90
        3
176
     1
 90
        0
176
     1
 90
        0
176
     1
290
     0
176
     1
 90
        1
176
     1
 40
0.0
176
     1
 90
        0
176
     1
290
     0
176
     1
290
     1
176
     1
290
     1
176
     1
290
     0
176
     1
290
     0
176
     1
290
     0
176
     1
290
     0
176
     1
290
     0
176
     1
290
     0
176
     1
 90
       50
176
     1
 40
0.0
176
     1
 40
1.0
176
     1
 90
        0
176
     1
 62
    18
420
        0
176
     1
 90
       50
176
     1
 90
        3
176
     1
 62
     5
420
      255
176
     1
290
     0
176
     1
 90
       50
176
     1
 90
       50
176
     1
 90
       50
176
     1
290
     0
176
     1
 90
       50
176
     1
 62
   256
176
     0
 40
1.0
176
     0
 90
        2
176
     1
  1
strokes_ogs.tif
176
     1
290
     0
176
     1
 40
1.0
176
     1
 40
1.0
176
     1
  0
VISUALSTYLE
  5
370
102
{ACAD_REACTORS
330
365
102
}
330
365
100
AcDbVisualStyle
  2
Dim
 70
    11
177
     3
291
     1
 70
    58
 90
        2
176
     1
 90
        2
176
     1
 90
        0
176
     1
 90
        0
176
     1
 40
0.6
176
     1
 40
30.0
176
     1
 62
     7
420
 16777215
176
     1
 90
        1
176
     1
 90
        4
176
     1
 62
     7
176
     1
 62
   257
176
     1
 90
        1
176
     1
 90
        1
176
     1
 40
1.0
176
     1
 90
        8
176
     1
 62
     7
176
     1
 40
1.0
176
     1
 90
        1
176
     1
 90
        6
176
     1
 90
        2
176
     1
 62
     7
176
     1
 90
        5
176
     1
 90
        0
176
     1
 90
        0
176
     1
290
     0
176
     1
 90
        1
176
     1
 40
-50.0
176
     1
 90
        0
176
     1
290
     0
176
     1
290
     1
176
     1
290
     1
176
     1
290
     0
176
     1
290
     0
176
     1
290
     0
176
     1
290
     0
176
     1
290
     0
176
     1
290
     0
176
     1
 90
       50
176
     1
 40
0.0
176
     1
 40
1.0
176
     1
 90
        0
176
     1
 62
    18
420
        0
176
     1
 90
       50
176
     1
 90
        3
176
     1
 62
     5
420
      255
176
     1
290
     0
176
     1
 90
       50
176
     1
 90
       50
176
     1
 90
       50
176
     1
290
     0
176
     1
 90
       50
176
     1
 62
   256
176
     0
 40
1.0
176
     0
 90
        2
176
     1
  1
strokes_ogs.tif
176
     1
290
     0
176
     1
 40
1.0
176
     1
 40
1.0
176
     1
  0
VISUALSTYLE
  5
37D
102
{ACAD_REACTORS
330
365
102
}
330
365
100
AcDbVisualStyle
  2
EdgeColorOff
 70
    22
177
     3
291
     1
 70
    58
 90
        2
176
     0
 90
        2
176
     0
 90
        0
176
     0
 90
        0
176
     0
 40
0.6
176
     0
 40
30.0
176
     0
 62
     7
420
 16777215
176
     0
 90
        1
176
     0
 90
        4
176
     0
 62
     7
176
     0
 62
   257
176
     0
 90
        1
176
     0
 90
        1
176
     0
 40
1.0
176
     0
 90
        8
176
     2
 62
     7
176
     0
 40
1.0
176
     0
 90
        1
176
     0
 90
        6
176
     0
 90
        2
176
     0
 62
     7
176
     0
 90
        5
176
     0
 90
        0
176
     0
 90
        0
176
     0
290
     0
176
     0
 90
        1
176
     0
 40
0.0
176
     0
 90
        0
176
     0
290
     0
176
     0
290
     1
176
     0
290
     1
176
     0
290
     0
176
     0
290
     0
176
     0
290
     0
176
     0
290
     0
176
     0
290
     0
176
     0
290
     0
176
     0
 90
       50
176
     0
 40
0.0
176
     0
 40
1.0
176
     0
 90
        0
176
     0
 62
    18
420
        0
176
     0
 90
       50
176
     0
 90
        3
176
     0
 62
     5
420
      255
176
     0
290
     0
176
     0
 90
       50
176
     0
 90
       50
176
     0
 90
       50
176
     0
290
     0
176
     0
 90
       50
176
     0
 62
   256
176
     0
 40
1.0
176
     0
 90
        2
176
     0
  1
strokes_ogs.tif
176
     0
290
     0
176
     0
 40
1.0
176
     0
 40
1.0
176
     0
  0
VISUALSTYLE
  5
374
102
{ACAD_REACTORS
330
365
102
}
330
365
100
AcDbVisualStyle
  2
Facepattern
 70
    15
177
     3
291
     1
 70
    58
 90
        2
176
     1
 90
        2
176
     1
 90
        0
176
     1
 90
        0
176
     1
 40
0.6
176
     1
 40
30.0
176
     1
 62
     7
420
 16777215
176
     1
 90
        1
176
     1
 90
        4
176
     1
 62
     7
176
     1
 62
   257
176
     1
 90
        1
176
     1
 90
        1
176
     1
 40
1.0
176
     1
 90
        8
176
     1
 62
     7
176
     1
 40
1.0
176
     1
 90
        1
176
     1
 90
        6
176
     1
 90
        2
176
     1
 62
     7
176
     1
 90
        5
176
     1
 90
        0
176
     1
 90
        0
176
     1
290
     0
176
     1
 90
        1
176
     1
 40
0.0
176
     1
 90
        0
176
     1
290
     0
176
     1
290
     1
176
     1
290
     1
176
     1
290
     0
176
     1
290
     0
176
     1
290
     0
176
     1
290
     0
176
     1
290
     0
176
     1
290
     0
176
     1
 90
       50
176
     1
 40
0.0
176
     1
 40
1.0
176
     1
 90
        0
176
     1
 62
    18
420
        0
176
     1
 90
       50
176
     1
 90
        3
176
     1
 62
     5
420
      255
176
     1
290
     0
176
     1
 90
       50
176
     1
 90
       50
176
     1
 90
       50
176
     1
290
     0
176
     1
 90
       50
176
     1
 62
   256
176
     0
 40
1.0
176
     0
 90
        2
176
     1
  1
strokes_ogs.tif
176
     1
290
     0
176
     1
 40
1.0
176
     1
 40
1.0
176
     1
  0
VISUALSTYLE
  5
366
102
{ACAD_REACTORS
330
365
102
}
330
365
100
AcDbVisualStyle
  2
Flat
 70
     0
177
     3
291
     1
 70
    58
 90
        2
176
     1
 90
        1
176
     1
 90
        1
176
     1
 90
        2
176
     1
 40
0.6
176
     1
 40
30.0
176
     1
 62
     7
420
 16777215
176
     1
 90
        0
176
     1
 90
        0
176
     1
 62
     7
176
     1
 62
   257
176
     1
 90
        1
176
     1
 90
        1
176
     1
 40
1.0
176
     1
 90
        8
176
     1
 62
     7
176
     1
 40
1.0
176
     1
 90
        1
176
     1
 90
        6
176
     1
 90
        2
176
     1
 62
     7
176
     1
 90
        5
176
     1
 90
        0
176
     1
 90
        0
176
     1
290
     0
176
     1
 90
       13
176
     1
 40
0.0
176
     1
 90
        0
176
     1
290
     0
176
     1
290
     1
176
     1
290
     1
176
     1
290
     0
176
     1
290
     0
176
     1
290
     0
176
     1
290
     0
176
     1
290
     0
176
     1
290
     0
176
     1
 90
       50
176
     1
 40
0.0
176
     1
 40
1.0
176
     1
 90
        0
176
     1
 62
    18
420
        0
176
     1
 90
       50
176
     1
 90
        3
176
     1
 62
     5
420
      255
176
     1
290
     0
176
     1
 90
       50
176
     1
 90
       50
176
     1
 90
       50
176
     1
290
     0
176
     1
 90
       50
176
     1
 62
   256
176
     0
 40
1.0
176
     0
 90
        2
176
     1
  1
strokes_ogs.tif
176
     1
290
     0
176
     1
 40
1.0
176
     1
 40
1.0
176
     1
  0
VISUALSTYLE
  5
367
102
{ACAD_REACTORS
330
365
102
}
330
365
100
AcDbVisualStyle
  2
FlatWithEdges
 70
     1
177
     3
291
     1
 70
    58
 90
        2
176
     1
 90
        1
176
     1
 90
        1
176
     1
 90
        2
176
     1
 40
0.6
176
     1
 40
30.0
176
     1
 62
     7
420
 16777215
176
     1
 90
        1
176
     1
 90
        0
176
     1
 62
     7
176
     1
 62
   257
176
     1
 90
        1
176
     1
 90
        1
176
     1
 40
1.0
176
     1
 90
        0
176
     1
 62
   257
176
     1
 40
1.0
176
     1
 90
        1
176
     1
 90
        6
176
     1
 90
        2
176
     1
 62
     7
176
     1
 90
        5
176
     1
 90
        0
176
     1
 90
        0
176
     1
290
     0
176
     1
 90
       13
176
     1
 40
0.0
176
     1
 90
        0
176
     1
290
     0
176
     1
290
     1
176
     1
290
     1
176
     1
290
     0
176
     1
290
     0
176
     1
290
     0
176
     1
290
     0
176
     1
290
     0
176
     1
290
     0
176
     1
 90
       50
176
     1
 40
0.0
176
     1
 40
1.0
176
     1
 90
        0
176
     1
 62
    18
420
        0
176
     1
 90
       50
176
     1
 90
        3
176
     1
 62
     5
420
      255
176
     1
290
     0
176
     1
 90
       50
176
     1
 90
       50
176
     1
 90
       50
176
     1
290
     0
176
     1
 90
       50
176
     1
 62
   256
176
     0
 40
1.0
176
     0
 90
        2
176
     1
  1
strokes_ogs.tif
176
     1
290
     0
176
     1
 40
1.0
176
     1
 40
1.0
176
     1
  0
VISUALSTYLE
  5
368
102
{ACAD_REACTORS
330
365
102
}
330
365
100
AcDbVisualStyle
  2
Gouraud
 70
     2
177
     3
291
     1
 70
    58
 90
        2
176
     1
 90
        2
176
     1
 90
        1
176
     1
 90
        2
176
     1
 40
0.6
176
     1
 40
30.0
176
     1
 62
     7
420
 16777215
176
     1
 90
        0
176
     1
 90
        0
176
     1
 62
     7
176
     1
 62
   257
176
     1
 90
        1
176
     1
 90
        1
176
     1
 40
1.0
176
     1
 90
        0
176
     1
 62
     7
176
     1
 40
1.0
176
     1
 90
        1
176
     1
 90
        6
176
     1
 90
        2
176
     1
 62
     7
176
     1
 90
        5
176
     1
 90
        0
176
     1
 90
        0
176
     1
290
     0
176
     1
 90
       13
176
     1
 40
0.0
176
     1
 90
        0
176
     1
290
     0
176
     1
290
     1
176
     1
290
     1
176
     1
290
     0
176
     1
290
     0
176
     1
290
     0
176
     1
290
     0
176
     1
290
     0
176
     1
290
     0
176
     1
 90
       50
176
     1
 40
0.0
176
     1
 40
1.0
176
     1
 90
        0
176
     1
 62
    18
420
        0
176
     1
 90
       50
176
     1
 90
        3
176
     1
 62
     5
420
      255
176
     1
290
     0
176
     1
 90
       50
176
     1
 90
       50
176
     1
 90
       50
176
     1
290
     0
176
     1
 90
       50
176
     1
 62
   256
176
     0
 40
1.0
176
     0
 90
        2
176
     1
  1
strokes_ogs.tif
176
     1
290
     0
176
     1
 40
1.0
176
     1
 40
1.0
176
     1
  0
VISUALSTYLE
  5
369
102
{ACAD_REACTORS
330
365
102
}
330
365
100
AcDbVisualStyle
  2
GouraudWithEdges
 70
     3
177
     3
291
     1
 70
    58
 90
        2
176
     1
 90
        2
176
     1
 90
        1
176
     1
 90
        2
176
     1
 40
0.6
176
     1
 40
30.0
176
     1
 62
     7
420
 16777215
176
     1
 90
        1
176
     1
 90
        0
176
     1
 62
     7
176
     1
 62
   257
176
     1
 90
        1
176
     1
 90
        1
176
     1
 40
1.0
176
     1
 90
        0
176
     1
 62
   257
176
     1
 40
1.0
176
     1
 90
        1
176
     1
 90
        6
176
     1
 90
        2
176
     1
 62
     7
176
     1
 90
        5
176
     1
 90
        0
176
     1
 90
        0
176
     1
290
     0
176
     1
 90
       13
176
     1
 40
0.0
176
     1
 90
        0
176
     1
290
     0
176
     1
290
     1
176
     1
290
     1
176
     1
290
     0
176
     1
290
     0
176
     1
290
     0
176
     1
290
     0
176
     1
290
     0
176
     1
290
     0
176
     1
 90
       50
176
     1
 40
0.0
176
     1
 40
1.0
176
     1
 90
        0
176
     1
 62
    18
420
        0
176
     1
 90
       50
176
     1
 90
        3
176
     1
 62
     5
420
      255
176
     1
290
     0
176
     1
 90
       50
176
     1
 90
       50
176
     1
 90
       50
176
     1
290
     0
176
     1
 90
       50
176
     1
 62
   256
176
     0
 40
1.0
176
     0
 90
        2
176
     1
  1
strokes_ogs.tif
176
     1
290
     0
176
     1
 40
1.0
176
     1
 40
1.0
176
     1
  0
VISUALSTYLE
  5
36D
102
{ACAD_REACTORS
330
365
102
}
330
365
100
AcDbVisualStyle
  2
Hidden
 70
     6
177
     3
291
     0
 70
    58
 90
        1
176
     1
 90
        2
176
     1
 90
        2
176
     1
 90
        0
176
     1
 40
0.6
176
     1
 40
30.0
176
     1
 62
     7
420
 16777215
176
     1
 90
        2
176
     1
 90
        2
176
     1
 62
     7
176
     1
 62
   257
176
     1
 90
        2
176
     1
 90
        1
176
     1
 40
40.0
176
     1
 90
        0
176
     1
 62
   257
176
     1
 40
1.0
176
     1
 90
        1
176
     1
 90
        6
176
     1
 90
        2
176
     1
 62
     7
176
     1
 90
        3
176
     1
 90
        0
176
     1
 90
        0
176
     1
290
     0
176
     1
 90
        1
176
     1
 40
0.0
176
     1
 90
        0
176
     1
290
     0
176
     1
290
     1
176
     1
290
     1
176
     1
290
     0
176
     1
290
     0
176
     1
290
     0
176
     1
290
     0
176
     1
290
     0
176
     1
290
     0
176
     1
 90
       50
176
     1
 40
0.0
176
     1
 40
1.0
176
     1
 90
        0
176
     1
 62
    18
420
        0
176
     1
 90
       50
176
     1
 90
        3
176
     1
 62
     5
420
      255
176
     1
290
     0
176
     1
 90
       50
176
     1
 90
       50
176
     1
 90
       50
176
     1
290
     0
176
     1
 90
       50
176
     1
 62
   256
176
     0
 40
1.0
176
     0
 90
        2
176
     1
  1
strokes_ogs.tif
176
     1
290
     0
176
     1
 40
1.0
176
     1
 40
1.0
176
     1
  0
VISUALSTYLE
  5
37B
102
{ACAD_REACTORS
330
365
102
}
330
365
100
AcDbVisualStyle
  2
JitterOff
 70
    20
177
     3
291
     1
 70
    58
 90
        2
176
     0
 90
        2
176
     0
 90
        0
176
     0
 90
        0
176
     0
 40
0.6
176
     0
 40
30.0
176
     0
 62
     7
420
 16777215
176
     0
 90
        1
176
     0
 90
        4
176
     0
 62
     7
176
     0
 62
   257
176
     0
 90
        1
176
     0
 90
        1
176
     0
 40
1.0
176
     0
 90
       10
176
     2
 62
     7
176
     0
 40
1.0
176
     0
 90
        1
176
     0
 90
        6
176
     0
 90
        2
176
     0
 62
     7
176
     0
 90
        5
176
     0
 90
        0
176
     0
 90
        0
176
     0
290
     0
176
     0
 90
        1
176
     0
 40
0.0
176
     0
 90
        0
176
     0
290
     0
176
     0
290
     1
176
     0
290
     1
176
     0
290
     0
176
     0
290
     0
176
     0
290
     0
176
     0
290
     0
176
     0
290
     0
176
     0
290
     0
176
     0
 90
       50
176
     0
 40
0.0
176
     0
 40
1.0
176
     0
 90
        0
176
     0
 62
    18
420
        0
176
     0
 90
       50
176
     0
 90
        3
176
     0
 62
     5
420
      255
176
     0
290
     0
176
     0
 90
       50
176
     0
 90
       50
176
     0
 90
       50
176
     0
290
     0
176
     0
 90
       50
176
     0
 62
   256
176
     0
 40
1.0
176
     0
 90
        2
176
     0
  1
strokes_ogs.tif
176
     0
290
     0
176
     0
 40
1.0
176
     0
 40
1.0
176
     0
  0
VISUALSTYLE
  5
373
102
{ACAD_REACTORS
330
365
102
}
330
365
100
AcDbVisualStyle
  2
Linepattern
 70
    14
177
     3
291
     1
 70
    58
 90
        2
176
     1
 90
        2
176
     1
 90
        0
176
     1
 90
        0
176
     1
 40
0.6
176
     1
 40
30.0
176
     1
 62
     7
420
 16777215
176
     1
 90
        1
176
     1
 90
        4
176
     1
 62
     7
176
     1
 62
   257
176
     1
 90
        7
176
     1
 90
        7
176
     1
 40
1.0
176
     1
 90
        8
176
     1
 62
     7
176
     1
 40
1.0
176
     1
 90
        1
176
     1
 90
        6
176
     1
 90
        2
176
     1
 62
     7
176
     1
 90
        5
176
     1
 90
        0
176
     1
 90
        0
176
     1
290
     0
176
     1
 90
        1
176
     1
 40
0.0
176
     1
 90
        0
176
     1
290
     0
176
     1
290
     1
176
     1
290
     1
176
     1
290
     0
176
     1
290
     0
176
     1
290
     0
176
     1
290
     0
176
     1
290
     0
176
     1
290
     0
176
     1
 90
       50
176
     1
 40
0.0
176
     1
 40
1.0
176
     1
 90
        0
176
     1
 62
    18
420
        0
176
     1
 90
       50
176
     1
 90
        3
176
     1
 62
     5
420
      255
176
     1
290
     0
176
     1
 90
       50
176
     1
 90
       50
176
     1
 90
       50
176
     1
290
     0
176
     1
 90
       50
176
     1
 62
   256
176
     0
 40
1.0
176
     0
 90
        2
176
     1
  1
strokes_ogs.tif
176
     1
290
     0
176
     1
 40
1.0
176
     1
 40
1.0
176
     1
  0
VISUALSTYLE
  5
37C
102
{ACAD_REACTORS
330
365
102
}
330
365
100
AcDbVisualStyle
  2
OverhangOff
 70
    21
177
     3
291
     1
 70
    58
 90
        2
176
     0
 90
        2
176
     0
 90
        0
176
     0
 90
        0
176
     0
 40
0.6
176
     0
 40
30.0
176
     0
 62
     7
420
 16777215
176
     0
 90
        1
176
     0
 90
        4
176
     0
 62
     7
176
     0
 62
   257
176
     0
 90
        1
176
     0
 90
        1
176
     0
 40
1.0
176
     0
 90
        9
176
     2
 62
     7
176
     0
 40
1.0
176
     0
 90
        1
176
     0
 90
        6
176
     0
 90
        2
176
     0
 62
     7
176
     0
 90
        5
176
     0
 90
        0
176
     0
 90
        0
176
     0
290
     0
176
     0
 90
        1
176
     0
 40
0.0
176
     0
 90
        0
176
     0
290
     0
176
     0
290
     1
176
     0
290
     1
176
     0
290
     0
176
     0
290
     0
176
     0
290
     0
176
     0
290
     0
176
     0
290
     0
176
     0
290
     0
176
     0
 90
       50
176
     0
 40
0.0
176
     0
 40
1.0
176
     0
 90
        0
176
     0
 62
    18
420
        0
176
     0
 90
       50
176
     0
 90
        3
176
     0
 62
     5
420
      255
176
     0
290
     0
176
     0
 90
       50
176
     0
 90
       50
176
     0
 90
       50
176
     0
290
     0
176
     0
 90
       50
176
     0
 62
   256
176
     0
 40
1.0
176
     0
 90
        2
176
     0
  1
strokes_ogs.tif
176
     0
290
     0
176
     0
 40
1.0
176
     0
 40
1.0
176
     0
  0
VISUALSTYLE
  5
36F
102
{ACAD_REACTORS
330
365
102
}
330
365
100
AcDbVisualStyle
  2
Realistic
 70
     8
177
     3
291
     0
 70
    58
 90
        2
176
     1
 90
        3
176
     1
 90
        0
176
     1
 90
        2
176
     1
 40
0.6
176
     1
 40
30.0
176
     1
 62
     7
420
 16777215
176
     1
 90
        0
176
     1
 90
        0
176
     1
 62
     7
176
     1
 62
   257
176
     1
 90
        1
176
     1
 90
        1
176
     1
 40
1.0
176
     1
 90
        8
176
     1
 62
   257
176
     1
 40
1.0
176
     1
 90
        1
176
     1
 90
        6
176
     1
 90
        2
176
     1
 62
     7
176
     1
 90
        3
176
     1
 90
        0
176
     1
 90
        0
176
     1
290
     0
176
     1
 90
       13
176
     1
 40
0.0
176
     1
 90
        0
176
     1
290
     0
176
     1
290
     1
176
     1
290
     1
176
     1
290
     0
176
     1
290
     0
176
     1
290
     0
176
     1
290
     0
176
     1
290
     0
176
     1
290
     0
176
     1
 90
       50
176
     1
 40
0.0
176
     1
 40
1.0
176
     1
 90
        0
176
     1
 62
    18
420
        0
176
     1
 90
       50
176
     1
 90
        3
176
     1
 62
     5
420
      255
176
     1
290
     0
176
     1
 90
       50
176
     1
 90
       50
176
     1
 90
       50
176
     1
290
     0
176
     1
 90
       50
176
     1
 62
   256
176
     0
 40
1.0
176
     0
 90
        2
176
     1
  1
strokes_ogs.tif
176
     1
290
     0
176
     1
 40
1.0
176
     1
 40
1.0
176
     1
  0
VISUALSTYLE
  5
37A
102
{ACAD_REACTORS
330
365
102
}
330
365
100
AcDbVisualStyle
  2
Shaded
 70
    27
177
     3
291
     0
 70
    58
 90
        2
176
     1
 90
        2
176
     1
 90
        1
176
     1
 90
        2
176
     1
 40
0.6
176
     1
 40
30.0
176
     1
 62
     7
420
 16777215
176
     1
 90
        0
176
     1
 90
        4
176
     1
 62
     7
176
     1
 62
   257
176
     1
 90
        1
176
     1
 90
        1
176
     1
 40
1.0
176
     1
 90
        8
176
     1
 62
   257
176
     1
 40
1.0
176
     1
 90
        1
176
     1
 90
        6
176
     1
 90
        2
176
     1
 62
     8
420
  7895160
176
     1
 90
        3
176
     1
 90
        0
176
     1
 90
        0
176
     1
290
     0
176
     1
 90
        5
176
     1
 40
0.0
176
     1
 90
        0
176
     1
290
     0
176
     1
290
     1
176
     1
290
     1
176
     1
290
     0
176
     1
290
     0
176
     1
290
     0
176
     1
290
     0
176
     1
290
     0
176
     1
290
     0
176
     1
 90
       50
176
     1
 40
0.0
176
     1
 40
1.0
176
     1
 90
        0
176
     1
 62
    18
420
        0
176
     1
 90
       50
176
     1
 90
        3
176
     1
 62
     5
420
      255
176
     1
290
     0
176
     1
 90
       50
176
     1
 90
       50
176
     1
 90
       50
176
     1
290
     0
176
     1
 90
       50
176
     1
 62
   256
176
     0
 40
1.0
176
     0
 90
        2
176
     1
  1
strokes_ogs.tif
176
     1
290
     0
176
     1
 40
1.0
176
     1
 40
1.0
176
     1
  0
VISUALSTYLE
  5
379
102
{ACAD_REACTORS
330
365
102
}
330
365
100
AcDbVisualStyle
  2
Shaded with edges
 70
    26
177
     3
291
     0
 70
    58
 90
        2
176
     1
 90
        2
176
     1
 90
        1
176
     1
 90
        2
176
     1
 40
0.6
176
     1
 40
30.0
176
     1
 62
     7
420
 16777215
176
     1
 90
        1
176
     1
 90
        2
176
     1
 62
     7
176
     1
 62
   257
176
     1
 90
        2
176
     1
 90
        1
176
     1
 40
1.0
176
     1
 90
        8
176
     1
 62
   257
176
     1
 40
1.0
176
     1
 90
        1
176
     1
 90
        6
176
     1
 90
        2
176
     1
 62
     7
176
     1
 90
        3
176
     1
 90
        0
176
     1
 90
        0
176
     1
290
     0
176
     1
 90
        5
176
     1
 40
0.0
176
     1
 90
        0
176
     1
290
     0
176
     1
290
     1
176
     1
290
     1
176
     1
290
     0
176
     1
290
     0
176
     1
290
     0
176
     1
290
     0
176
     1
290
     0
176
     1
290
     0
176
     1
 90
       50
176
     1
 40
0.0
176
     1
 40
1.0
176
     1
 90
        0
176
     1
 62
    18
420
        0
176
     1
 90
       50
176
     1
 90
        3
176
     1
 62
     5
420
      255
176
     1
290
     0
176
     1
 90
       50
176
     1
 90
       50
176
     1
 90
       50
176
     1
290
     0
176
     1
 90
       50
176
     1
 62
   256
176
     0
 40
1.0
176
     0
 90
        2
176
     1
  1
strokes_ogs.tif
176
     1
290
     0
176
     1
 40
1.0
176
     1
 40
1.0
176
     1
  0
VISUALSTYLE
  5
376
102
{ACAD_REACTORS
330
365
102
}
330
365
100
AcDbVisualStyle
  2
Shades of Gray
 70
    23
177
     3
291
     0
 70
    58
 90
        2
176
     1
 90
        2
176
     1
 90
        3
176
     1
 90
        0
176
     1
 40
0.6
176
     1
 40
30.0
176
     1
 62
     7
420
 16777215
176
     1
 90
        2
176
     1
 90
        2
176
     1
 62
     7
176
     1
 62
     7
176
     1
 90
        1
176
     1
 90
        1
176
     1
 40
40.0
176
     1
 90
        8
176
     1
 62
     7
176
     1
 40
1.0
176
     1
 90
        1
176
     1
 90
        6
176
     1
 90
        2
176
     1
 62
     7
176
     1
 90
        3
176
     1
 90
        0
176
     1
 90
        0
176
     1
290
     0
176
     1
 90
        1
176
     1
 40
0.0
176
     1
 90
        0
176
     1
290
     0
176
     1
290
     1
176
     1
290
     1
176
     1
290
     0
176
     1
290
     0
176
     1
290
     0
176
     1
290
     0
176
     1
290
     0
176
     1
290
     0
176
     1
 90
       50
176
     1
 40
0.0
176
     1
 40
1.0
176
     1
 90
        0
176
     1
 62
    18
420
        0
176
     1
 90
       50
176
     1
 90
        3
176
     1
 62
     5
420
      255
176
     1
290
     0
176
     1
 90
       50
176
     1
 90
       50
176
     1
 90
       50
176
     1
290
     0
176
     1
 90
       50
176
     1
 62
   256
176
     0
 40
1.0
176
     0
 90
        2
176
     1
  1
strokes_ogs.tif
176
     1
290
     0
176
     1
 40
1.0
176
     1
 40
1.0
176
     1
  0
VISUALSTYLE
  5
377
102
{ACAD_REACTORS
330
365
102
}
330
365
100
AcDbVisualStyle
  2
Sketchy
 70
    24
177
     3
291
     0
 70
    58
 90
        1
176
     1
 90
        2
176
     1
 90
        2
176
     1
 90
        0
176
     1
 40
0.6
176
     1
 40
30.0
176
     1
 62
     7
420
 16777215
176
     1
 90
        2
176
     1
 90
        2
176
     1
 62
     7
176
     1
 62
     7
176
     1
 90
        1
176
     1
 90
        1
176
     1
 40
40.0
176
     1
 90
       11
176
     1
 62
     7
176
     1
 40
1.0
176
     1
 90
        1
176
     1
 90
        6
176
     1
 90
        2
176
     1
 62
     7
176
     1
 90
        6
176
     1
 90
        0
176
     1
 90
        0
176
     1
290
     0
176
     1
 90
        1
176
     1
 40
0.0
176
     1
 90
        0
176
     1
290
     0
176
     1
290
     1
176
     1
290
     1
176
     1
290
     0
176
     1
290
     0
176
     1
290
     0
176
     1
290
     0
176
     1
290
     0
176
     1
290
     0
176
     1
 90
       50
176
     1
 40
0.0
176
     1
 40
1.0
176
     1
 90
        0
176
     1
 62
    18
420
        0
176
     1
 90
       50
176
     1
 90
        3
176
     1
 62
     5
420
      255
176
     1
290
     0
176
     1
 90
       50
176
     1
 90
       50
176
     1
 90
       50
176
     1
290
     0
176
     1
 90
       50
176
     1
 62
   256
176
     0
 40
1.0
176
     0
 90
        2
176
     1
  1
strokes_ogs.tif
176
     1
290
     0
176
     1
 40
1.0
176
     1
 40
1.0
176
     1
  0
VISUALSTYLE
  5
372
102
{ACAD_REACTORS
330
365
102
}
330
365
100
AcDbVisualStyle
  2
Thicken
 70
    13
177
     3
291
     1
 70
    58
 90
        2
176
     1
 90
        2
176
     1
 90
        0
176
     1
 90
        0
176
     1
 40
0.6
176
     1
 40
30.0
176
     1
 62
     7
420
 16777215
176
     1
 90
        1
176
     1
 90
        4
176
     1
 62
     7
176
     1
 62
   257
176
     1
 90
        1
176
     1
 90
        1
176
     1
 40
1.0
176
     1
 90
       12
176
     1
 62
     7
176
     1
 40
1.0
176
     1
 90
        1
176
     1
 90
        6
176
     1
 90
        2
176
     1
 62
     7
176
     1
 90
        5
176
     1
 90
        0
176
     1
 90
        0
176
     1
290
     0
176
     1
 90
        1
176
     1
 40
0.0
176
     1
 90
        0
176
     1
290
     0
176
     1
290
     1
176
     1
290
     1
176
     1
290
     0
176
     1
290
     0
176
     1
290
     0
176
     1
290
     0
176
     1
290
     0
176
     1
290
     0
176
     1
 90
       50
176
     1
 40
0.0
176
     1
 40
1.0
176
     1
 90
        0
176
     1
 62
    18
420
        0
176
     1
 90
       50
176
     1
 90
        3
176
     1
 62
     5
420
      255
176
     1
290
     0
176
     1
 90
       50
176
     1
 90
       50
176
     1
 90
       50
176
     1
290
     0
176
     1
 90
       50
176
     1
 62
   256
176
     0
 40
1.0
176
     0
 90
        2
176
     1
  1
strokes_ogs.tif
176
     1
290
     0
176
     1
 40
1.0
176
     1
 40
1.0
176
     1
  0
VISUALSTYLE
  5
36C
102
{ACAD_REACTORS
330
365
102
}
330
365
100
AcDbVisualStyle
  2
Wireframe
 70
     5
177
     3
291
     0
 70
    58
 90
        0
176
     1
 90
        2
176
     1
 90
        0
176
     1
 90
        0
176
     1
 40
0.6
176
     1
 40
30.0
176
     1
 62
     7
420
 16777215
176
     1
 90
        1
176
     1
 90
        4
176
     1
 62
     7
176
     1
 62
   257
176
     1
 90
        1
176
     1
 90
        1
176
     1
 40
1.0
176
     1
 90
        0
176
     1
 62
   257
176
     1
 40
1.0
176
     1
 90
        1
176
     1
 90
        6
176
     1
 90
        2
176
     1
 62
     7
176
     1
 90
        3
176
     1
 90
        0
176
     1
 90
        0
176
     1
290
     0
176
     1
 90
        1
176
     1
 40
0.0
176
     1
 90
        0
176
     1
290
     0
176
     1
290
     1
176
     1
290
     1
176
     1
290
     0
176
     1
290
     0
176
     1
290
     0
176
     1
290
     0
176
     1
290
     0
176
     1
290
     0
176
     1
 90
       50
176
     1
 40
0.0
176
     1
 40
1.0
176
     1
 90
        0
176
     1
 62
    18
420
        0
176
     1
 90
       50
176
     1
 90
        3
176
     1
 62
     5
420
      255
176
     1
290
     0
176
     1
 90
       50
176
     1
 90
       50
176
     1
 90
       50
176
     1
290
     0
176
     1
 90
       50
176
     1
 62
   256
176
     0
 40
1.0
176
     0
 90
        2
176
     1
  1
strokes_ogs.tif
176
     1
290
     0
176
     1
 40
1.0
176
     1
 40
1.0
176
     1
  0
VISUALSTYLE
  5
378
102
{ACAD_REACTORS
330
365
102
}
330
365
100
AcDbVisualStyle
  2
X-Ray
 70
    25
177
     3
291
     0
 70
    58
 90
        2
176
     1
 90
        2
176
     1
 90
        1
176
     1
 90
        1
176
     1
 40
0.5
176
     1
 40
30.0
176
     1
 62
     7
420
 16777215
176
     1
 90
        1
176
     1
 90
        0
176
     1
 62
     7
176
     1
 62
   257
176
     1
 90
        1
176
     1
 90
        1
176
     1
 40
1.0
176
     1
 90
        8
176
     1
 62
     7
176
     1
 40
1.0
176
     1
 90
        1
176
     1
 90
        6
176
     1
 90
        2
176
     1
 62
     7
176
     1
 90
        3
176
     1
 90
        0
176
     1
 90
        0
176
     1
290
     0
176
     1
 90
       13
176
     1
 40
0.0
176
     1
 90
        0
176
     1
290
     0
176
     1
290
     1
176
     1
290
     1
176
     1
290
     0
176
     1
290
     0
176
     1
290
     0
176
     1
290
     0
176
     1
290
     0
176
     1
290
     0
176
     1
 90
       50
176
     1
 40
0.0
176
     1
 40
1.0
176
     1
 90
        0
176
     1
 62
    18
420
        0
176
     1
 90
       50
176
     1
 90
        3
176
     1
 62
     5
420
      255
176
     1
290
     0
176
     1
 90
       50
176
     1
 90
       50
176
     1
 90
       50
176
     1
290
     0
176
     1
 90
       50
176
     1
 62
   256
176
     0
 40
1.0
176
     0
 90
        2
176
     1
  1
strokes_ogs.tif
176
     1
290
     0
176
     1
 40
1.0
176
     1
 40
1.0
176
     1
  0
DICTIONARYVAR
  5
3C5
102
{ACAD_REACTORS
330
3BF
102
}
330
3BF
100
DictionaryVariables
280
     0
  1
1:1
  0
DICTIONARYVAR
  5
3C1
102
{ACAD_REACTORS
330
3BF
102
}
330
3BF
100
DictionaryVariables
280
     0
  1
STANDARD
  0
DICTIONARYVAR
  5
3C0
102
{ACAD_REACTORS
330
3BF
102
}
330
3BF
100
DictionaryVariables
280
     0
  1
STANDARD
  0
DICTIONARYVAR
  5
3C2
102
{ACAD_REACTORS
330
3BF
102
}
330
3BF
100
DictionaryVariables
280
     0
  1
Metric50
  0
DICTIONARYVAR
  5
3C3
102
{ACAD_REACTORS
330
3BF
102
}
330
3BF
100
DictionaryVariables
280
     0
  1
Metric50
  0
DICTIONARYVAR
  5
3C7
102
{ACAD_REACTORS
330
3BF
102
}
330
3BF
100
DictionaryVariables
280
     0
  1
1
  0
DICTIONARYVAR
  5
3C8
102
{ACAD_REACTORS
330
3BF
102
}
330
3BF
100
DictionaryVariables
280
     0
  1
15
  0
DICTIONARYVAR
  5
3C6
102
{ACAD_REACTORS
330
3BF
102
}
330
3BF
100
DictionaryVariables
280
     0
  1
0
  0
DICTIONARYVAR
  5
3C4
102
{ACAD_REACTORS
330
3BF
102
}
330
3BF
100
DictionaryVariables
280
     0
  1
0
  0
ACAD_PROXY_OBJECT
  5
26B
102
{ACAD_REACTORS
330
26A
102
}
330
26A
100
AcDbProxyObject
 90
      499
 91
      548
 95
  4980761
 70
     0
161
                84
310
90100057356C1D714051BC
330
1F
330
2A2
330
131
330
128
330
122
330
11C
330
116
330
10F
330
109
330
103
330
FD
330
F7
330
F1
330
EA
330
E4
330
DE
330
D7
330
CE
330
C4
330
BE
330
B7
330
AB
330
A3
330
8C
330
2C2
330
2F6
330
31E
 94
        0
  0
DICTIONARY
  5
277
102
{ACAD_REACTORS
330
26A
102
}
330
26A
100
AcDbDictionary
281
     1
  3
ISO
350
278
  0
ACAD_PROXY_OBJECT
  5
21C
330
0
100
AcDbProxyObject
 90
      499
 91
      511
 95
  4980761
 70
     0
161
               156
310
000101439050D35154D6535093D314D25691508C
330
219
 94
        0
  0
ACAD_PROXY_OBJECT
  5
21E
330
0
100
AcDbProxyObject
 90
      499
 91
      513
 95
  4980761
 70
     0
161
               112
310
00010141F0FDF3EE2C7B4C402B00B0
330
219
330
0
330
0
 94
        0
  0
ACAD_PROXY_OBJECT
  5
224
330
0
100
AcDbProxyObject
 90
      499
 91
      519
 95
  4980761
 70
     0
161
               374
310
00010141323571B680508382E302E32342E300141323571B680508382E302E32342E3040501000041505391D311658
330
219
330
225
330
22B
 94
        0
  0
ACAD_PROXY_OBJECT
  5
225
330
0
100
AcDbProxyObject
 90
      499
 91
      520
 95
  4980761
 70
     0
161
                56
310
0001902422000071
330
219
330
226
330
228
 94
        0
  0
ACAD_PROXY_OBJECT
  5
226
330
0
100
AcDbProxyObject
 90
      499
 91
      521
 95
  4980761
 70
     0
161
                48
310
0001AA0000003A
330
219
330
1E
330
227
330
0
 94
        0
  0
ACAD_PROXY_OBJECT
  5
227
330
0
100
AcDbProxyObject
 90
      499
 91
      522
 95
  4980761
 70
     0
161
                28
310
0001AAAC
330
219
 94
        0
  0
ACAD_PROXY_OBJECT
  5
228
330
0
100
AcDbProxyObject
 90
      499
 91
      521
 95
  4980761
 70
     0
161
                48
310
0001AA00000017
330
219
330
26
330
229
330
0
 94
        0
  0
ACAD_PROXY_OBJECT
  5
229
330
0
100
AcDbProxyObject
 90
      499
 91
      522
 95
  4980761
 70
     0
161
                28
310
0001AAAC
330
219
 94
        0
  0
ACAD_PROXY_OBJECT
  5
22C
330
0
100
AcDbProxyObject
 90
      499
 91
      511
 95
  4980761
 70
     0
161
               108
310
000101421053521310D05310D01C
330
219
 94
        0
  0
ACAD_PROXY_OBJECT
  5
22D
330
0
100
AcDbProxyObject
 90
      499
 91
      511
 95
  4980761
 70
     0
161
               124
310
00010142905354915554D1511253501C
330
219
 94
        0
  0
ACAD_PROXY_OBJECT
  5
22E
330
0
100
AcDbProxyObject
 90
      499
 91
      511
 95
  4980761
 70
     0
161
               132
310
00010143105354D150D51253D39112536C
330
219
 94
        0
  0
ACAD_PROXY_OBJECT
  5
22F
330
0
100
AcDbProxyObject
 90
      499
 91
      511
 95
  4980761
 70
     0
161
               124
310
00010142905355941093D4911154901C
330
219
 94
        0
  0
ACAD_PROXY_OBJECT
  5
230
330
0
100
AcDbProxyObject
 90
      499
 91
      511
 95
  4980761
 70
     0
161
               116
310
0001014290535115D1D0D3D313D4AC
330
219
 94
        0
  0
ACAD_PROXY_OBJECT
  5
231
330
0
100
AcDbProxyObject
 90
      499
 91
      511
 95
  4980761
 70
     0
161
               148
310
00010143505355925155D49151949154D2101C
330
219
 94
        0
  0
ACAD_PROXY_OBJECT
  5
232
330
0
100
AcDbProxyObject
 90
      499
 91
      511
 95
  4980761
 70
     0
161
               172
310
00010144105350539393D51154149154D1549591501C
330
219
 94
        0
  0
ACAD_PROXY_OBJECT
  5
234
330
0
100
AcDbProxyObject
 90
      499
 91
      511
 95
  4980761
 70
     0
161
               172
310
00010144105350555513D11253505494905391D1501C
330
219
 94
        0
  0
ACAD_PROXY_OBJECT
  5
235
330
0
100
AcDbProxyObject
 90
      499
 91
      511
 95
  4980761
 70
     0
161
               124
310
00010142D0535156151491519112536C
330
219
 94
        0
  0
ACAD_PROXY_OBJECT
  5
236
330
0
100
AcDbProxyObject
 90
      499
 91
      511
 95
  4980761
 70
     0
161
               132
310
00010142D05355105410539393D511501C
330
219
 94
        0
  0
ACAD_PROXY_OBJECT
  5
237
330
0
100
AcDbProxyObject
 90
      499
 91
      511
 95
  4980761
 70
     0
161
               108
310
00010142105350555513D0D3101C
330
219
 94
        0
  0
ACAD_PROXY_OBJECT
  5
238
330
0
100
AcDbProxyObject
 90
      499
 91
      511
 95
  4980761
 70
     0
161
               108
310
00010142105350D311915055105C
330
219
 94
        0
  0
ACAD_PROXY_OBJECT
  5
239
330
0
100
AcDbProxyObject
 90
      499
 91
      511
 95
  4980761
 70
     0
161
               108
310
00010142105350D315925155D3FC
330
219
 94
        0
  0
ACAD_PROXY_OBJECT
  5
23A
330
0
100
AcDbProxyObject
 90
      499
 91
      511
 95
  4980761
 70
     0
161
               148
310
0001014350535212511156915493D11253501C
330
219
 94
        0
  0
ACAD_PROXY_OBJECT
  5
23B
330
0
100
AcDbProxyObject
 90
      499
 91
      511
 95
  4980761
 70
     0
161
               124
310
00010142905352105510D21254D3D01C
330
219
 94
        0
  0
ACAD_PROXY_OBJECT
  5
23C
330
0
100
AcDbProxyObject
 90
      499
 91
      511
 95
  4980761
 70
     0
161
               148
310
00010143905354D25391D3115210551310566C
330
219
 94
        0
  0
ACAD_PROXY_OBJECT
  5
23D
330
0
100
AcDbProxyObject
 90
      499
 91
      511
 95
  4980761
 70
     0
161
               124
310
00010142D0535115D1D193111254D42C
330
219
 94
        0
  0
ACAD_PROXY_OBJECT
  5
23E
330
0
100
AcDbProxyObject
 90
      499
 91
      511
 95
  4980761
 70
     0
161
               100
310
00010142105350555513D213AC
330
219
 94
        0
  0
ACAD_PROXY_OBJECT
  5
23F
330
0
100
AcDbProxyObject
 90
      499
 91
      511
 95
  4980761
 70
     0
161
               116
310
000101425053521390D3D55395101C
330
219
 94
        0
  0
ACAD_PROXY_OBJECT
  5
240
330
0
100
AcDbProxyObject
 90
      499
 91
      511
 95
  4980761
 70
     0
161
               108
310
0001014210535213941493D2901C
330
219
 94
        0
  0
ACAD_PROXY_OBJECT
  5
241
330
0
100
AcDbProxyObject
 90
      499
 91
      511
 95
  4980761
 70
     0
161
               108
310
000101421053521395165411507C
330
219
 94
        0
  0
ACAD_PROXY_OBJECT
  5
242
330
0
100
AcDbProxyObject
 90
      499
 91
      511
 95
  4980761
 70
     0
161
               108
310
000101421053521395925155D0FC
330
219
 94
        0
  0
ACAD_PROXY_OBJECT
  5
243
330
0
100
AcDbProxyObject
 90
      499
 91
      511
 95
  4980761
 70
     0
161
               140
310
00010143505354D150D51253D390D3D4166C
330
219
 94
        0
  0
ACAD_PROXY_OBJECT
  5
244
330
0
100
AcDbProxyObject
 90
      499
 91
      511
 95
  4980761
 70
     0
161
               108
310
00010142105350D3141493D2903C
330
219
 94
        0
  0
ACAD_PROXY_OBJECT
  5
245
330
0
100
AcDbProxyObject
 90
      499
 91
      523
 95
  4980761
 70
     0
161
               212
310
00010143905350555513D2105510D21493D500000000000002E40C
330
219
 94
        0
  0
ACAD_PROXY_OBJECT
  5
246
330
0
100
AcDbProxyObject
 90
      499
 91
      511
 95
  4980761
 70
     0
161
               156
310
00010143905350555513D2105510D2111155101C
330
219
 94
        0
  0
ACAD_PROXY_OBJECT
  5
252
330
0
100
AcDbProxyObject
 90
      499
 91
      533
 95
  4980761
 70
     0
161
               714
310
0001000000009AA6A9AA4051E546875204175672031362030333A34323A3432203230313220285554432901420E0B8C0B8C8D0B8C00518546875204175672031362031313A35303A3534203230313201420E0B8C0B8C8D0B8C0C
330
219
330
253
330
254
330
256
330
0
 94
        0
  0
ACAD_PROXY_OBJECT
  5
253
330
0
100
AcDbProxyObject
 90
      499
 91
      534
 95
  4980761
 70
     0
161
                70
310
0001AAA80820000000
330
219
330
253
330
253
 94
        0
  0
ACAD_PROXY_OBJECT
  5
254
330
0
100
AcDbProxyObject
 90
      499
 91
      535
 95
  4980761
 70
     0
161
                48
310
0001000000002E
330
219
330
0
330
255
330
0
330
0
 94
        0
  0
ACAD_PROXY_OBJECT
  5
255
330
0
100
AcDbProxyObject
 90
      499
 91
      536
 95
  4980761
 70
     0
161
                40
310
000100AAAA00
330
219
330
0
 94
        0
  0
ACAD_PROXY_OBJECT
  5
25B
330
0
100
AcDbProxyObject
 90
      499
 91
      540
 95
  4980761
 70
     0
161
               180
310
00010143105050D3D35411119390535140504434F4D50C
330
219
 94
        0
  0
ACAD_PROXY_OBJECT
  5
25C
330
0
100
AcDbProxyObject
 90
      499
 91
      540
 95
  4980761
 70
     0
161
               212
310
0001014390505193D311115491119390535140506CEC4BCFEBCD0C
330
219
 94
        0
  0
ACAD_PROXY_OBJECT
  5
25D
330
0
100
AcDbProxyObject
 90
      499
 91
      540
 95
  4980761
 70
     0
161
               180
310
00010143105050539393D111939053514050428415629C
330
219
 94
        0
  0
ACAD_PROXY_OBJECT
  5
25E
330
0
100
AcDbProxyObject
 90
      499
 91
      540
 95
  4980761
 70
     0
161
               508
310
00010143905050D3D35415925155D31254D50052BB8A9CAD3CDBC0AD6F7CAD3CDBC0AD3D2CAD3CDBC0AD7F3CAD3CDBC0AD1F6CAD3CDBC0AB8A8D6FACAD3CDBCC
330
219
 94
        0
  0
ACAD_PROXY_OBJECT
  5
263
330
0
100
AcDbProxyObject
 90
      499
 91
      542
 95
  4980761
 70
     0
161
                32
310
0001000000
330
219
340
260
330
265
330
260
 94
        0
  0
ACAD_PROXY_OBJECT
  5
264
330
0
100
AcDbProxyObject
 90
      499
 91
      543
 95
  4980761
 70
     0
161
                18
310
00018C
330
219
 94
        0
  0
ACAD_PROXY_OBJECT
  5
265
330
0
100
AcDbProxyObject
 90
      499
 91
      544
 95
  4980761
 70
     0
161
               178
310
000101430CCC8C0C4C504B4C0C4B4C0C1050055401550C
330
219
330
263
330
264
 94
        0
  0
ACAD_PROXY_OBJECT
  5
266
330
0
100
AcDbProxyObject
 90
      499
 91
      545
 95
  4980761
 70
     0
161
                50
310
000100AAAAAA8C
330
219
330
265
 94
        0
  0
ACAD_PROXY_OBJECT
  5
267
330
0
100
AcDbProxyObject
 90
      499
 91
      546
 95
  4980761
 70
     0
161
               108
310
0001901422000000000000AAAAAC
330
219
330
268
330
268
330
268
330
268
330
268
330
0
 94
        0
  0
ACAD_PROXY_OBJECT
  5
268
330
0
100
AcDbProxyObject
 90
      499
 91
      547
 95
  4980761
 70
     0
161
                51
310
00010000AAAA8C
330
219
330
267
330
265
 94
        0
  0
ACAD_PROXY_OBJECT
  5
276
330
0
100
AcDbProxyObject
 90
      499
 91
      540
 95
  4980761
 70
     0
161
               140
310
00010142105350D55494D5110050349534FC
330
219
 94
        0
  0
DICTIONARY
  5
213
102
{ACAD_REACTORS
330
212
102
}
330
212
100
AcDbDictionary
281
     1
  3
DWGSETTINGS
350
214
  3
TRANSSETTINGS
350
215
  0
ACAD_PROXY_OBJECT
  5
279
102
{ACAD_REACTORS
330
212
102
}
330
212
100
AcDbProxyObject
 90
      499
 91
      555
 95
  4980761
 70
     0
161
             17944
310
41502491013041105357CC201C00030C0132441013141105357CC603800030C0132441013241105357CCA01400030C0132441013341105357CCE01800030C01199013441105357CD200C00030C01199013541105357CD600C00030C01199013641105357CDA00800030C01239013741105357CDE01000030C0119901384110
310
5357CE200400030C01199013941105357CE63F400030C0241102324141505357CC4C201C00030C0132902344141505357CC4C600C00030C0119902495041505357CC4CA01C00030C013240902304E41505357CC13A01C00030C0132902314E41505357CC53A03800030C0132902324E41505357CC93A01400030C013290233
310
4E41505357CCD3A01800030C0119902344E41505357CD13A00C00030C0119902354E41505357CD53A00C00030C0119902364E41505357CD93A00800030C0123902374E41505357CDD3A01000030C0119902384E41505357CE13A00400030C0119902394E41505357CE53A3F400030C024110332414E41905357CC4C13A01C0
310
0030C013290334414E41905357CC4C53A00C00030C011990349504E41905357CC4C93A01C00030C0132409044B4C494E41505357D0D3200400030C011942504494E464F42105357D410549151A01000030C011942D055241484D3541905357D093D4A01C00030C0132425045649455742105357D5925155D4E00400030C011
310
942D06424548494E4441905357D25395A3F400030C0243505545241494C41505357D514A00C00030C01194250348494441905357D21251201C00030C01194250356495341905357D59254E01C00030C01324250650415244494D42505357D41054911253600C00030C01194250652454644494D42505357D49151911253601
310
000030C0119425534110921395901398000000C0003FFFFFFFE415092139594D06424548494E448000000C0003FFFFFFFE411093D48C9055241484D358010000C300466411093D48CD055241484D358020000C30048E411093D48D5055241484D358000000C0003FFFFFFFE4110D0530C901348000000C0003FFFFFFFE4110
310
D0530CD01348020000C30048E4110D0530D501348070000C3004CA4110D0530DD013481E0000C30051A4110D15393901378000000C0003FFFFFFFE4110D15395D01378000000C0003FFFFFFFE4110D312539044B4C494E8000000C0003FFFFFFFE4110D3D38C501308000000C0003FFFFFFFD034110D3D38C901318000000C
310
0003FFFFFFFD034110D3D38CD01328000000C0003FFFFFFFD034110D3D38D101328000000C0003FFFFFFFD034111115510501348000000C0003FFFFFFFE4111125051D01358000000C0003FFFFFFFE4111125312501358000000C0003FFFFFFFE411112535410650415244494D8000000C0003FFFFFFFE4111125354906524
310
54644494D8000000C0003FFFFFFFE4111915353901388000000C0003FFFFFFFE415191535413901388030000C3003FFFFFFFE4151915354D410234418000000C0003FFFFFFFE4151915354D510234418030000C300466415191535593901328000000C0003FFFFFFFE415191535595101328030000C3004664112105510D01
310
388000000C0003FFFFFFFD014112125113901338000000C0003FFFFFFFD034112125115D01338000000C0003FFFFFFFD034112131253901348000000C0003FFFFFFFD01411213D0D3901378000000C0003FFFFFFFE411213D0D5D01378000000C0003FFFFFFFE4112539193D04494E464F8000000C0003FFFFFFFE41131150
310
51101358000000C0003FFFFFFFE419397D0921395902394E8000000C0003FFFFFFFE419397D0D3D38C502304E8000000C0003FFFFFFFD03419397D0D3D38C902314E8000000C0003FFFFFFFD03419397D0D3D38CD02324E8000000C0003FFFFFFFD03419397D0D3D38D102324E8000000C0003FFFFFFFD03419397D0D15393
310
902374E8000000C0003FFFFFFFE419397D0D15395D02374E8000000C0003FFFFFFFE419397D1125312502354E8000000C0003FFFFFFFE419397D2105510D02384E8000000C0003FFFFFFFD01419397D2125113902334E8000000C0003FFFFFFFD03419397D2125115D02334E8000000C0003FFFFFFFD03419397D311505110
310
2354E8000000C0003FFFFFFFE419397D391D25410349504E8000000C0003FFFFFFFE419397D412105390334414E8000000C0003FFFFFFFE419397D510D3D3902304E8000000C0003FFFFFFFD03419397D5121312502344E8000000C0003FFFFFFFD01419397D5131153902304E8000000C0003FFFFFFFD03419397D5941312
310
50332414E8000000C0003FFFFFFFE411391D25410249508000000C0003FFFFFFFE411410530C9055241484D358010000C300466411410530CD055241484D358020000C30048E411410530D5055241484D358000000C0003FFFFFFFE411412105390234418000000C0003FFFFFFFE411413D4D3901358000000C0003FFFFFFF
310
E411490D1D3901378000000C0003FFFFFFFE411490D1D5D01378000000C0003FFFFFFFE4114D09492D01348000000C0003FFFFFFFD014114D150D5101348000000C0003FFFFFFFD014114D6508CD01358020000C30048E411354D653501358020000C30048E411510D3D3901308000000C0003FFFFFFFD0341151213125013
310
48000000C0003FFFFFFFD01411512550C9055241484D358010000C300466411512550CD055241484D358020000C30048E411512550D5055241484D358000000C0003FFFFFFFE4115131153901308000000C0003FFFFFFFD03415514905253105545241494C8000000C0003FFFFFFFE4115149312501348000000C0003FFFFF
310
FFD01411516150C501368030000C300466411516150C901368030000C300466411516150CD01368000000C0003FFFFFFFE411516150D501368070000C3004CA411516150DD013681E0000C30051A4115925155D04564945578000000C0003FFFFFFFE41159151121034849448000000C0003FFFFFFFD024115915115903564
310
9538000000C0003FFFFFFFD02411594131250232418000000C0003FFFFFFFE4116925690501348000000C0003FFFFFFFD01AAA3F400030C01013F90A4393241D3241919415324111940D194092340519479467F6CC
340
16
340
16
340
16
340
27A
340
16
340
16
340
16
340
27B
340
16
340
16
340
27B
340
27C
340
16
340
16
340
16
340
16
340
27A
340
16
340
16
340
16
340
27B
340
16
340
16
340
27B
340
27C
340
16
340
27D
340
16
340
16
340
16
340
16
340
16
340
27A
340
16
340
16
340
16
340
15
340
15
340
15
340
15
340
15
340
15
340
15
340
15
340
15
340
27E
340
15
340
15
340
15
340
15
340
15
340
15
340
15
340
15
340
15
340
15
340
15
340
15
340
15
340
16
340
15
340
15
340
15
340
15
340
27F
340
15
340
15
340
27E
340
15
340
15
340
15
340
15
340
15
340
15
340
15
340
15
340
27E
340
15
340
15
340
15
340
27F
340
15
340
15
340
15
340
15
340
15
340
15
340
15
340
15
340
15
340
15
340
15
340
15
340
15
340
15
340
27E
340
15
340
15
340
15
340
15
340
15
340
15
340
15
340
15
340
15
340
15
340
15
340
15
340
15
340
15
340
15
340
15
340
15
340
15
340
15
340
15
340
15
340
15
340
282
 94
        0
  0
ACAD_PROXY_OBJECT
  5
2AF
102
{ACAD_REACTORS
330
2AA
102
}
330
2AA
100
AcDbProxyObject
 90
      499
 91
      573
 95
  4980761
 70
     0
161
               253
310
43D1444494D454E53494F4E2C414D44545F2A5F44494D404A9012A404A9012AC
 94
        0
  0
ACAD_PROXY_OBJECT
  5
2AE
102
{ACAD_REACTORS
330
2AA
102
}
330
2AA
100
AcDbProxyObject
 90
      499
 91
      573
 95
  4980761
 70
     0
161
               181
310
43D012A42D05357D191504B505357CA9012A404A9012AC
 94
        0
  0
ACAD_PROXY_OBJECT
  5
2AB
102
{ACAD_REACTORS
330
2AA
102
}
330
2AA
100
AcDbProxyObject
 90
      499
 91
      573
 95
  4980761
 70
     0
161
               133
310
43D054841544348404A9012A404A9012AC
 94
        0
  0
ACAD_PROXY_OBJECT
  5
2AC
102
{ACAD_REACTORS
330
2AA
102
}
330
2AA
100
AcDbProxyObject
 90
      499
 91
      573
 95
  4980761
 70
     0
161
               549
310
43D044C494E4549CE0B0E138B0A8B4E0B0A8B4E138B105357CE0B105357CE138B0A8B505357CE0B0A8B505357CE139012A404A910494E534552542C535444504152543244C
 94
        0
  0
ACAD_PROXY_OBJECT
  5
2B0
102
{ACAD_REACTORS
330
2AA
102
}
330
2AA
100
AcDbProxyObject
 90
      499
 91
      573
 95
  4980761
 70
     0
161
               181
310
43D0341524341105357CD5012A404C906494E534552544
 94
        0
  0
ACAD_PROXY_OBJECT
  5
2AD
102
{ACAD_REACTORS
330
2AA
102
}
330
2AA
100
AcDbProxyObject
 90
      499
 91
      573
 95
  4980761
 70
     0
161
              1053
310
43D7841434D46434652414D452C41434D444154554D5441524745542C41434D444154554D49442C41434D57454C4453594D2C41434D5355524653594D2C41434D4645415449442C41434D504152545245462C41434D42414C4C4F4F4E2C414D44544544474553594D2C414D47534352455743414C435441424C45404A9012A
310
404A9012AC
 94
        0
  0
LAYER_INDEX
  5
33A
102
{ACAD_REACTORS
330
339
102
}
330
339
100
AcDbIndex
 40
2458033.442488426
100
AcDbLayerIndex
  8
0
360
33B
 90
      176
  8
FORMAT
360
33C
 90
        0
  8
SLD-0
360
33D
 90
        0
  8
AM_5
360
33E
 90
        3
  8
AM_PAREF
360
33F
 90
        0
  8
双点划线
360
340
 90
        0
  8
虚线
360
341
 90
        0
  8
AM_0
360
342
 90
        0
  8
AM_0N
360
343
 90
        0
  8
AM_3N
360
344
 90
        0
  8
AM_4N
360
345
 90
        0
  8
AM_12N
360
346
 90
        0
  8
AM_7
360
347
 90
        0
  8
CONFIDENTIAL
360
348
 90
        0
  8
AM_12
360
349
 90
        0
  8
Defpoints
360
34A
 90
        0
1001
AcadStringInfo
1000
MIFCodePage
1070
     5
  0
DICTIONARY
  5
3CD
330
385
100
AcDbDictionary
280
     1
281
     1
  3
ACAD_XREC_ROUNDTRIP
360
3CE
  0
DICTIONARY
  5
356
330
355
100
AcDbDictionary
280
     1
281
     1
  3
BUMPTILE
360
358
  3
DIFFUSETILE
360
357
  3
OPACITYTILE
360
35B
  3
REFLECTIONTILE
360
35A
  3
REFRACTIONTILE
360
35C
  3
SPECULARTILE
360
359
  0
DICTIONARY
  5
34E
330
34D
100
AcDbDictionary
280
     1
281
     1
  3
BUMPTILE
360
350
  3
DIFFUSETILE
360
34F
  3
OPACITYTILE
360
353
  3
REFLECTIONTILE
360
352
  3
REFRACTIONTILE
360
354
  3
SPECULARTILE
360
351
  0
DICTIONARY
  5
35E
330
35D
100
AcDbDictionary
280
     1
281
     1
  3
BUMPTILE
360
360
  3
DIFFUSETILE
360
35F
  3
OPACITYTILE
360
363
  3
REFLECTIONTILE
360
362
  3
REFRACTIONTILE
360
364
  3
SPECULARTILE
360
361
  0
DICTIONARY
  5
3CB
330
383
100
AcDbDictionary
280
     1
281
     1
  3
ACAD_XREC_ROUNDTRIP
360
3CC
  0
DICTIONARY
  5
3C9
330
37F
100
AcDbDictionary
280
     1
281
     1
  3
ACAD_ROUNDTRIP_2008_TABLESTYLE_CELLSTYLEMAP
360
3CA
  0
ACAD_PROXY_OBJECT
  5
278
102
{ACAD_REACTORS
330
277
102
}
330
277
100
AcDbProxyObject
 90
      499
 91
      554
 95
  4980761
 70
     0
161
              2497
310
5C40000000000000C408030000C30040D254D3D01640600800030C0200800030C000000000000000C40C88A2085A0B6B23A22B233B2A9BA3220480A1C82C6DAA6EAE4CCA8CAF0E8A6E8C88120284A0B1B6A321A329BA3220480A1A82C6DAAECAD8C8D2DCCEA6E8C8812028420B1B6A4B229BA3220480A1682C6DA88C2E8EAD
310
AA6E8C88120284A0B1B6A127A6A9BA3220480A2082DAC8E888CAE8C2D2D8A6F2DAA6E8C88120288A0B6B23A29B2B1BA34B7B729BCB6A9BA3220480A2282DAC8E886CADCE8CAE498D2DCCAA6E8C88120288A0B6B23A2A343932B0B22634B732A9BA3220480A1682DAC8E89CDEE8CAA6E8C88120285A0B1A0B6B3A630BCA9BA3
310
220480A1682C682DACE88D2DAA6E8C88120288A0B1A0B6B3A437B632A1B430B93A29BA3220480A1A82C682DACEA8D2E8D8CAA6E8C88120320480CC
340
283
360
284
360
285
360
286
360
287
360
288
360
289
360
28A
360
28B
360
28C
360
28D
360
28E
360
28F
360
29A
360
29B
360
2A7
360
2A8
340
0
340
0
 94
        0
  0
ACAD_PROXY_OBJECT
  5
214
102
{ACAD_REACTORS
330
213
102
}
330
213
100
AcDbProxyObject
 90
      499
 91
      507
 95
  4980761
 70
     0
161
              2396
310
4050B44574753455454494E4753A1286829C8E82A4A482B282A106660F8686AF86C608321A2A720A723A0A849A1ABE1C983E18999AA0C868A9C889282940000000000000488083A1A2A72224A0A9A0A8418983E19183E199820E868A9C8892A6A894000000000000010808321A2A72622A7250000000000000122020C868A9
310
C9E8C8C940000000000000488084A1A624A720A92920ACA0A8418983E19183E19982108698929C8AA8B2A082A0AB098929C8A84A22BA3AAA9A1A0A622A50A0E9882A6A89E849482A02608426A0A5A2AB24A2ABA7E8120CA0A68682988A0C00800010652455649534941501304154D0D0531150540CC4E8C50954494D455354
310
414D504A06BEFD3014F30734141D5915494D253D3905414C4D4B8C0C1107B44574753455454494E4753454E447DC
 94
        0
  0
ACAD_PROXY_OBJECT
  5
215
102
{ACAD_REACTORS
330
213
102
}
330
213
100
AcDbProxyObject
 90
      499
 91
      507
 95
  4980761
 70
     0
161
               852
310
4050D5452414E5353455454494E4753A2488A482AE929C8EA8A4829CA69882A8929E9C0C00800050D4F524947494E414C4C595F4F4E0600400008529A7AAA921A2A620A723A0A81A1A429A12AAA0A48AA68AA4AC8A0C0080001107B44574753455454494E4753454E447DC
 94
        0
  0
IDBUFFER
  5
33B
330
0
100
AcDbIdBuffer
330
139
330
13A
330
13B
330
13C
330
13D
330
13E
330
13F
330
140
330
141
330
142
330
143
330
144
330
145
330
146
330
147
330
148
330
149
330
14A
330
14B
330
14C
330
14D
330
14E
330
14F
330
150
330
151
330
152
330
153
330
154
330
155
330
156
330
157
330
158
330
159
330
15A
330
15B
330
15C
330
15D
330
15E
330
15F
330
160
330
161
330
162
330
163
330
164
330
165
330
166
330
167
330
168
330
169
330
16A
330
16B
330
16C
330
16D
330
16E
330
16F
330
170
330
171
330
172
330
173
330
174
330
175
330
176
330
177
330
178
330
179
330
17A
330
17B
330
17C
330
17D
330
17E
330
17F
330
180
330
181
330
182
330
183
330
184
330
185
330
186
330
187
330
188
330
189
330
18A
330
18B
330
18C
330
18D
330
18E
330
18F
330
190
330
191
330
192
330
193
330
194
330
195
330
196
330
197
330
198
330
199
330
19A
330
19B
330
19C
330
19D
330
19E
330
19F
330
1A0
330
1A1
330
1A2
330
1A3
330
1A4
330
1A5
330
1A6
330
1A7
330
1A8
330
1A9
330
1AA
330
1AB
330
1AC
330
1AD
330
1AE
330
1AF
330
1B0
330
1B1
330
1B2
330
1B3
330
1B4
330
1B5
330
1B6
330
1B7
330
1B8
330
1B9
330
1BA
330
1BB
330
1BC
330
1BD
330
1BE
330
1BF
330
1C0
330
1C1
330
1C2
330
1C3
330
1C4
330
1C5
330
1C6
330
1C7
330
1C8
330
1C9
330
1CA
330
1CB
330
1CC
330
1CD
330
1CE
330
1CF
330
1D0
330
1D1
330
1D2
330
1D3
330
1D4
330
1D5
330
1D6
330
1D7
330
1D8
330
1D9
330
1DA
330
1DB
330
1DC
330
1DD
330
1DE
330
1DF
330
1E0
330
1E1
330
1E2
330
1E3
330
1E4
330
1E5
330
1E6
330
1E7
330
1E8
  0
IDBUFFER
  5
33C
330
0
100
AcDbIdBuffer
  0
IDBUFFER
  5
33D
330
0
100
AcDbIdBuffer
  0
IDBUFFER
  5
33E
330
0
100
AcDbIdBuffer
330
2C0
330
2F5
330
31D
  0
IDBUFFER
  5
33F
330
0
100
AcDbIdBuffer
  0
IDBUFFER
  5
340
330
0
100
AcDbIdBuffer
  0
IDBUFFER
  5
341
330
0
100
AcDbIdBuffer
  0
IDBUFFER
  5
342
330
0
100
AcDbIdBuffer
  0
IDBUFFER
  5
343
330
0
100
AcDbIdBuffer
  0
IDBUFFER
  5
344
330
0
100
AcDbIdBuffer
  0
IDBUFFER
  5
345
330
0
100
AcDbIdBuffer
  0
IDBUFFER
  5
346
330
0
100
AcDbIdBuffer
  0
IDBUFFER
  5
347
330
0
100
AcDbIdBuffer
  0
IDBUFFER
  5
348
330
0
100
AcDbIdBuffer
  0
IDBUFFER
  5
349
330
0
100
AcDbIdBuffer
  0
IDBUFFER
  5
34A
330
0
100
AcDbIdBuffer
  0
XRECORD
  5
3CE
102
{ACAD_REACTORS
330
3CD
102
}
330
3CD
100
AcDbXrecord
280
     1
102
DISPLAYNAME
  1
Metric50
102
FLAGS
 90
        0
  0
XRECORD
  5
358
102
{ACAD_REACTORS
330
356
102
}
330
356
100
AcDbXrecord
280
     1
270
     1
271
     1
  0
XRECORD
  5
357
102
{ACAD_REACTORS
330
356
102
}
330
356
100
AcDbXrecord
280
     1
270
     1
271
     1
  0
XRECORD
  5
35B
102
{ACAD_REACTORS
330
356
102
}
330
356
100
AcDbXrecord
280
     1
270
     1
271
     1
  0
XRECORD
  5
35A
102
{ACAD_REACTORS
330
356
102
}
330
356
100
AcDbXrecord
280
     1
270
     1
271
     1
  0
XRECORD
  5
35C
102
{ACAD_REACTORS
330
356
102
}
330
356
100
AcDbXrecord
280
     1
270
     1
271
     1
  0
XRECORD
  5
359
102
{ACAD_REACTORS
330
356
102
}
330
356
100
AcDbXrecord
280
     1
270
     1
271
     1
  0
XRECORD
  5
350
102
{ACAD_REACTORS
330
34E
102
}
330
34E
100
AcDbXrecord
280
     1
270
     1
271
     1
  0
XRECORD
  5
34F
102
{ACAD_REACTORS
330
34E
102
}
330
34E
100
AcDbXrecord
280
     1
270
     1
271
     1
  0
XRECORD
  5
353
102
{ACAD_REACTORS
330
34E
102
}
330
34E
100
AcDbXrecord
280
     1
270
     1
271
     1
  0
XRECORD
  5
352
102
{ACAD_REACTORS
330
34E
102
}
330
34E
100
AcDbXrecord
280
     1
270
     1
271
     1
  0
XRECORD
  5
354
102
{ACAD_REACTORS
330
34E
102
}
330
34E
100
AcDbXrecord
280
     1
270
     1
271
     1
  0
XRECORD
  5
351
102
{ACAD_REACTORS
330
34E
102
}
330
34E
100
AcDbXrecord
280
     1
270
     1
271
     1
  0
XRECORD
  5
360
102
{ACAD_REACTORS
330
35E
102
}
330
35E
100
AcDbXrecord
280
     1
270
     1
271
     1
  0
XRECORD
  5
35F
102
{ACAD_REACTORS
330
35E
102
}
330
35E
100
AcDbXrecord
280
     1
270
     1
271
     1
  0
XRECORD
  5
363
102
{ACAD_REACTORS
330
35E
102
}
330
35E
100
AcDbXrecord
280
     1
270
     1
271
     1
  0
XRECORD
  5
362
102
{ACAD_REACTORS
330
35E
102
}
330
35E
100
AcDbXrecord
280
     1
270
     1
271
     1
  0
XRECORD
  5
364
102
{ACAD_REACTORS
330
35E
102
}
330
35E
100
AcDbXrecord
280
     1
270
     1
271
     1
  0
XRECORD
  5
361
102
{ACAD_REACTORS
330
35E
102
}
330
35E
100
AcDbXrecord
280
     1
270
     1
271
     1
  0
XRECORD
  5
3CC
102
{ACAD_REACTORS
330
3CB
102
}
330
3CB
100
AcDbXrecord
280
     1
102
DISPLAYNAME
  1
Metric50
102
FLAGS
 90
        0
  0
CELLSTYLEMAP
  5
3CA
102
{ACAD_REACTORS
330
3C9
102
}
330
3C9
100
AcDbCellStyleMap
 90
        3
300
CELLSTYLE
  1
TABLEFORMAT_BEGIN
 90
        5
170
     1
 91
        0
 92
    32768
 62
   257
 93
        1
300
CONTENTFORMAT
  1
CONTENTFORMAT_BEGIN
 90
        0
 91
        0
 92
      512
 93
        0
300

 40
0.0
140
1.0
 94
        5
 62
     0
340
11
144
6.0
309
CONTENTFORMAT_END
171
     1
301
MARGIN
  1
CELLMARGIN_BEGIN
 40
1.5
 40
1.5
 40
1.5
 40
1.5
 40
4.5
 40
4.5
309
CELLMARGIN_END
 94
        6
 95
        1
302
GRIDFORMAT
  1
GRIDFORMAT_BEGIN
 90
        0
 91
        1
 62
     0
 92
       -2
340
0
 93
        0
 40
1.125
309
GRIDFORMAT_END
 95
        2
302
GRIDFORMAT
  1
GRIDFORMAT_BEGIN
 90
        0
 91
        1
 62
     0
 92
       -2
340
0
 93
        0
 40
1.125
309
GRIDFORMAT_END
 95
        4
302
GRIDFORMAT
  1
GRIDFORMAT_BEGIN
 90
        0
 91
        1
 62
     0
 92
       -2
340
0
 93
        0
 40
1.125
309
GRIDFORMAT_END
 95
        8
302
GRIDFORMAT
  1
GRIDFORMAT_BEGIN
 90
        0
 91
        1
 62
     0
 92
       -2
340
0
 93
        0
 40
1.125
309
GRIDFORMAT_END
 95
       16
302
GRIDFORMAT
  1
GRIDFORMAT_BEGIN
 90
        0
 91
        1
 62
     0
 92
       -2
340
0
 93
        0
 40
1.125
309
GRIDFORMAT_END
 95
       32
302
GRIDFORMAT
  1
GRIDFORMAT_BEGIN
 90
        0
 91
        1
 62
     0
 92
       -2
340
0
 93
        0
 40
1.125
309
GRIDFORMAT_END
309
TABLEFORMAT_END
  1
CELLSTYLE_BEGIN
 90
        1
 91
        1
300
_TITLE
309
CELLSTYLE_END
300
CELLSTYLE
  1
TABLEFORMAT_BEGIN
 90
        5
170
     1
 91
        0
 92
        0
 62
   257
 93
        1
300
CONTENTFORMAT
  1
CONTENTFORMAT_BEGIN
 90
        0
 91
        0
 92
      512
 93
        0
300

 40
0.0
140
1.0
 94
        5
 62
     0
340
11
144
4.5
309
CONTENTFORMAT_END
171
     1
301
MARGIN
  1
CELLMARGIN_BEGIN
 40
1.5
 40
1.5
 40
1.5
 40
1.5
 40
4.5
 40
4.5
309
CELLMARGIN_END
 94
        6
 95
        1
302
GRIDFORMAT
  1
GRIDFORMAT_BEGIN
 90
        0
 91
        1
 62
     0
 92
       -2
340
0
 93
        0
 40
1.125
309
GRIDFORMAT_END
 95
        2
302
GRIDFORMAT
  1
GRIDFORMAT_BEGIN
 90
        0
 91
        1
 62
     0
 92
       -2
340
0
 93
        0
 40
1.125
309
GRIDFORMAT_END
 95
        4
302
GRIDFORMAT
  1
GRIDFORMAT_BEGIN
 90
        0
 91
        1
 62
     0
 92
       -2
340
0
 93
        0
 40
1.125
309
GRIDFORMAT_END
 95
        8
302
GRIDFORMAT
  1
GRIDFORMAT_BEGIN
 90
        0
 91
        1
 62
     0
 92
       -2
340
0
 93
        0
 40
1.125
309
GRIDFORMAT_END
 95
       16
302
GRIDFORMAT
  1
GRIDFORMAT_BEGIN
 90
        0
 91
        1
 62
     0
 92
       -2
340
0
 93
        0
 40
1.125
309
GRIDFORMAT_END
 95
       32
302
GRIDFORMAT
  1
GRIDFORMAT_BEGIN
 90
        0
 91
        1
 62
     0
 92
       -2
340
0
 93
        0
 40
1.125
309
GRIDFORMAT_END
309
TABLEFORMAT_END
  1
CELLSTYLE_BEGIN
 90
        2
 91
        1
300
_HEADER
309
CELLSTYLE_END
300
CELLSTYLE
  1
TABLEFORMAT_BEGIN
 90
        5
170
     1
 91
        0
 92
        0
 62
   257
 93
        1
300
CONTENTFORMAT
  1
CONTENTFORMAT_BEGIN
 90
        0
 91
        0
 92
      512
 93
        0
300

 40
0.0
140
1.0
 94
        2
 62
     0
340
11
144
4.5
309
CONTENTFORMAT_END
171
     1
301
MARGIN
  1
CELLMARGIN_BEGIN
 40
1.5
 40
1.5
 40
1.5
 40
1.5
 40
4.5
 40
4.5
309
CELLMARGIN_END
 94
        6
 95
        1
302
GRIDFORMAT
  1
GRIDFORMAT_BEGIN
 90
        0
 91
        1
 62
     0
 92
       -2
340
0
 93
        0
 40
1.125
309
GRIDFORMAT_END
 95
        2
302
GRIDFORMAT
  1
GRIDFORMAT_BEGIN
 90
        0
 91
        1
 62
     0
 92
       -2
340
0
 93
        0
 40
1.125
309
GRIDFORMAT_END
 95
        4
302
GRIDFORMAT
  1
GRIDFORMAT_BEGIN
 90
        0
 91
        1
 62
     0
 92
       -2
340
0
 93
        0
 40
1.125
309
GRIDFORMAT_END
 95
        8
302
GRIDFORMAT
  1
GRIDFORMAT_BEGIN
 90
        0
 91
        1
 62
     0
 92
       -2
340
0
 93
        0
 40
1.125
309
GRIDFORMAT_END
 95
       16
302
GRIDFORMAT
  1
GRIDFORMAT_BEGIN
 90
        0
 91
        1
 62
     0
 92
       -2
340
0
 93
        0
 40
1.125
309
GRIDFORMAT_END
 95
       32
302
GRIDFORMAT
  1
GRIDFORMAT_BEGIN
 90
        0
 91
        1
 62
     0
 92
       -2
340
0
 93
        0
 40
1.125
309
GRIDFORMAT_END
309
TABLEFORMAT_END
  1
CELLSTYLE_BEGIN
 90
        3
 91
        2
300
_DATA
309
CELLSTYLE_END
  0
ACAD_PROXY_OBJECT
  5
284
330
278
100
AcDbProxyObject
 90
      499
 91
      556
 95
  4980761
 70
     0
161
                12
310
5C5C
 94
        0
  0
ACAD_PROXY_OBJECT
  5
285
330
278
100
AcDbProxyObject
 90
      499
 91
      557
 95
  4980761
 70
     0
161
                96
310
5C6A0E80A0280A0280A0280F66
 94
        0
  0
ACAD_PROXY_OBJECT
  5
286
330
278
100
AcDbProxyObject
 90
      499
 91
      558
 95
  4980761
 70
     0
161
               272
310
5C50E4050140501405014050140501405014050140D01405012C000000000000004000
340
290
 94
        0
  0
ACAD_PROXY_OBJECT
  5
287
330
278
100
AcDbProxyObject
 90
      499
 91
      559
 95
  4980761
 70
     0
161
               496
310
5C68666666666667A67E199999999999E99FD22405014050140501405014050140501405014050140501405014050140501405014050140501405014050100
340
291
 94
        0
  0
ACAD_PROXY_OBJECT
  5
288
330
278
100
AcDbProxyObject
 90
      499
 91
      560
 95
  4980761
 70
     0
161
                10
310
5C4C
 94
        0
  0
ACAD_PROXY_OBJECT
  5
289
330
278
100
AcDbProxyObject
 90
      499
 91
      561
 95
  4980761
 70
     0
161
               257
310
5C6290EA22A7D90F49F8000000000000108140000000000000420401000061804C
340
292
340
293
 94
        0
  0
ACAD_PROXY_OBJECT
  5
28A
330
278
100
AcDbProxyObject
 90
      499
 91
      562
 95
  4980761
 70
     0
161
             12823
310
5C50E411255115350141343CAEB150140501406901000000000000091013347454E545241434F2C4348532C302CD0F2BAC52C47454E54524154582C25732C2847454E4D53472067656E647767203232322940690120281A8AA2CA0282657EE0DFA028120280A0320200000000000012202668E8A9CA8A482869E588690A658
310
605995FB837E588E8A9CA8A482A8B0584AE658508E8A9C9AA68E40CECADCC8EECE406464665280D202405044E414D4540504C3FBB3C64051C40640A80000000000004E404CD1D15395149050D3CB10D214CB0C0B30FEECF18B11D15395149055160B095CCB0A11D1539354D1C819D95B991DD9C80C8C8D8A50192C3D494628
310
4953424C414E4B28504152543A4E414D45292C424C4F434B3A4E414D452C504152543A4E414D452940480A0A888AA686A480A09976B87EE80A3A80C81D0000000000100A28099A3A2A72A2920A1A79621A42996181665DAE1FB9623A2A72A2920AA2C1612B9961423A2A726A9A39033B2B7323BB39019189B94A0348090142
310
14D5105391105491101412C7AB5EF10147501904A000000000000125013347454E545241434F2C4348532C302CB1EAD7BC2C47454E54524154582C25732C2847454E4D53472067656E64776720323138294069012028426A0AA22A924A0A620282596260E7A028EA0320B40000000000001CA02668E8A9CA8A482869E58869
310
0A65860596589839E588E8A9CA8A482A8B0584AE658508E8A9C9AA68E40CECADCC8EECE406464625280D202405044E4F544540504B1B8D7A24051D40641A80000000000003E404CD1D15395149050D3CB10D214CB0C0B2C6E35E88B11D15395149055160B095CCB0A11D1539354D1C819D95B991DD9C80C8C8D4A501240480
310
A0CAC8A9C889EA480A0D7353A74D939880A3A80C83D00000000000007C809AA3A2A72A2920A1A79621A4299618165CD4E9D364E61623A2A72A2920AA2C1612B9961423A2A726A9A39033B2B7323BB39019191A14A0248090141911154D0D48C90142B078EF3FB0FA32BD880C90147501908A000000000020145013847454E5
310
45241434F2C4348532C302CC1E3BCFEC3E8CAF620322C47454E54524154582C25732C2847454E4D53472067656E6477672033362940490120284A9AA20A72220A922192028358F56BDE10192028EA03213400000000000024A026A8E8A9CA8A482869E588690A658605963D5AF784064588E8A9CA8A482A8B0584AE658508E
310
8A9C9AA68E40CECADCC8EECE4064646052809202405094D4154455249414C3240506B2C4C1CF20324051D40642A8713D0AD7A37045404D11D15395149050D3CB10D214CB0C0B2CB13073C80C8B11D15395149055160B095CCB0A11D1539354D1C819D95B991DD9C80D0C0A501240480A089A82A6A680A09AD95837E80A3A80
310
A0485A068100000000000007C809923A2A72A2920A1A79621A4299618166B6560DF9623A2A72A2920AA2C1612B9961423A2A726A9A39033B2B7323BB3901A1914A024809014154149250D1501412D696F36D01475014090C409020000000000000F9013247454E545241434F2C4348532C302CB5A5BCDB2C47454E54524154
310
582C25732C2847454E4D53472067656E6477672034332940490120281A224A6A028259EFDA73A028EA028121A81A040000000000001F202648E8A9CA8A482869E588690A658605967BF69CE588E8A9CA8A482A8B0584AE658508E8A9C9AA68E40CECADCC8EECE406868528092024050E445020000000000000510201C00030
310
C00010180000000000003E400000000000000F901073D3C4954454D3E4050180000000000003E400000000000000F901073D3C4954454D3E40501800000000000034400000000000000D101073D3C4954454D3E40501800000000000034400000000000000D101073D3C4954454D3E405029010000000000000F9000000000
310
000003E4041CF4F125511534F901418F4F1455164F9014060000000000000F9000000000000003E4041CF4F125511534F901901000000000000000F9000000000000003E40A2200000000000008204018000618048220681A048120280C882148448820348520348452028521485214814000000000000F0BF000000000000
310
3C2FD018020000C3008070000C3003373333333333B0FCCDCCCCCCCCCCEC3F000000000000031012034164050341105901A00000000000006204010000618040100006180400800061802026280A02
340
0
340
0
 94
        0
  0
ACAD_PROXY_OBJECT
  5
28B
330
278
100
AcDbProxyObject
 90
      499
 91
      563
 95
  4980761
 70
     0
161
               898
310
5C44000000000000144048CF4F11115510525317D3105091530F880A0F11115510525317D05094D4D0D053114F8A51141C9A9999999999B93F26A666666666724FC000000000000E03F400000000000000400000000000000510000000000000024408070000C30000000000000005100C
340
16
340
283
 94
        0
  0
ACAD_PROXY_OBJECT
  5
28C
330
278
100
AcDbProxyObject
 90
      499
 91
      564
 95
  4980761
 70
     0
161
               813
310
5C40B00000000000002880959E9E29A2A1AA24A7A72FA620A122A62FA324A929AA1F169E29A2A1AA24A7A72FA620A122A62FA620A9AA1F00000000000004880FF8070000C30022300E000186000000000000001220000000000000028800000000000000A204
340
41
340
283
 94
        0
  0
ACAD_PROXY_OBJECT
  5
28D
330
278
100
AcDbProxyObject
 90
      499
 91
      565
 95
  4980761
 70
     0
161
               151
310
5C680000000000000840A3D0A5723F0BD1F200
 94
        0
  0
ACAD_PROXY_OBJECT
  5
28E
330
278
100
AcDbProxyObject
 90
      499
 91
      566
 95
  4980761
 70
     0
161
                14
310
5C60
340
0
 94
        0
  0
ACAD_PROXY_OBJECT
  5
28F
330
278
100
AcDbProxyObject
 90
      499
 91
      567
 95
  4980761
 70
     0
161
              8013
310
5C5084050BA4050AA4050240506C4A3B0E520314043A013D2525633C486F6C653A63746469613E2078203C486F6C653A637464657074683E20555C503C696628657175616C28486F6C653A7461707065642C223022292C22252563222C486F6C653A6E6F6D696E616C202220782022293E3C696628657175616C28486F6C65
310
3A7461707065642C223022292C486F6C653A6469612C486F6C653A706974636864657363293E3C696628657175616C28486F6C653A7461707065642C223122292C22207820222C2222293E3C696628657175616C28486F6C653A7461707065642C223122292C486F6C653A74617064657074682C2222293E203C6966286571
310
75616C28486F6C653A7465726D696E6174696F6E2C223022292C22202F20222C2222293E3C696628657175616C28486F6C653A7465726D696E6174696F6E2C223022292C486F6C653A64657074682C2222293E4069014050340506C4A3B0E520314043B013D2525633C486F6C653A63746469613E2078203C486F6C653A637
310
4616E676C653E2525645C503C696628657175616C28486F6C653A7461707065642C223022292C22252563222C486F6C653A6E6F6D696E616C202220782022293E3C696628657175616C28486F6C653A7461707065642C223022292C486F6C653A6469612C486F6C653A706974636864657363293E3C696628657175616C284
310
86F6C653A7461707065642C223122292C22207820222C2222293E3C696628657175616C28486F6C653A7461707065642C223122292C486F6C653A74617064657074682C2222293E203C696628657175616C28486F6C653A7465726D696E6174696F6E2C223022292C22202F20222C2222293E3C696628657175616C28486F6
310
C653A7465726D696E6174696F6E2C223022292C486F6C653A64657074682C2222293E4069014050140506C4A3B0E5203140416013D3C696628657175616C28486F6C653A7461707065642C223022292C22252563222C486F6C653A6E6F6D696E616C202220782022293E3C696628657175616C28486F6C653A746170706564
310
2C223022292C486F6C653A6469612C486F6C653A706974636864657363293E3C696628657175616C28486F6C653A7461707065642C223122292C22207820222C2222293E3C696628657175616C28486F6C653A7461707065642C223122292C486F6C653A74617064657074682C2222293E203C696628657175616C28486F6C
310
653A7465726D696E6174696F6E2C223022292C22202F20222C2222293E3C696628657175616C28486F6C653A7465726D696E6174696F6E2C223022292C486F6C653A64657074682C2222293E4069014051E40506C4A3B0E520314050C3D3C535444503A444553433E40690140515AAAB8C
360
298
330
298
360
299
330
299
360
297
330
297
360
296
330
296
 94
        0
  0
ACAD_PROXY_OBJECT
  5
29A
330
278
100
AcDbProxyObject
 90
      499
 91
      569
 95
  4980761
 70
     0
161
                26
310
5C502A8C
340
279
 94
        0
  0
ACAD_PROXY_OBJECT
  5
29B
330
278
100
AcDbProxyObject
 90
      499
 91
      570
 95
  4980761
 70
     0
161
               250
310
5C5020000000000000A1000000000000002440408F0F9023C3E409A0DCFFFF8C
340
29C
340
0
340
0
340
29D
340
29E
340
29F
340
2A0
340
2A1
340
2A6
340
0
 94
        0
  0
ACAD_PROXY_OBJECT
  5
2A7
330
278
100
AcDbProxyObject
 90
      499
 91
      571
 95
  4980761
 70
     0
161
             13517
310
5C51C009030300030000000000000310200800030C01030300030000000000000310200800030C000508D7F8B1EAC1D0B1ED014DD1D15395149050D3CB10D214CB0C0B35FE2C7AB0742C7B4B11D15395149055160B095CCB0A11D1539354D1C819D95B991A5B5E880CCC0A78000C0000000000000000000000000000000100
310
00000000000310200800030C010000000000000310200800030C0201412FF5EC7B4053347454E545241434F2C4348532C302CBFD7B1ED2C47454E54524154582C25732C2847454E4D53472067656E64696D7A20333129E00030000000000000000000000000000000040000000000000C408020000C30040000000000000C4
310
08020000C30090D44111409034110541D0C4350F4050E44D03449074510F00014131BC2D78C053247454E545241434F2C4348532C302CC6F0B5E32C47454E54524154582C25732C2847454E4D53472067656E64696D7A203129000101040022140002815FEB80A608E8A9CA8A482869E588690A65860597FAE588E8A9CA8A4
310
82A8B0584AE658508E8A9C9AA68E40CECADCC8D2DAF4406452029E9E9E27B934B3B4B71F1E24A31427A91424A9A12620A7259427B934B3B4B7149624A9A12620A7259424BA32B6949496111116111711149F1E24BA32B69F00808200111A000140560052F47454E545241434F2C4348532C302C582C47454E54524154582C2
310
5732C2847454E4D53472067656E64696D7A20332900010100002054000280AC80A5E8E8A9CA8A482869E588690A6586058B2588E8A9CA8A482A8B0584AE658508E8A9C9AA68E40CECADCC8D2DAF4406852000202000040E800050152014BD1D15395149050D3CB10D214CB0C0B148B11D15395149055160B095CCB0A11D153
310
9354D1C819D95B991A5B5E880D8A400040400008250000A30F6B8CCA6F2DAC4DED8F8C460F8D260F8C664F8E06076D4FA02A323A2A72A2920A1A79621A4299618163DAE3329BCB6B137B63E31183E34983E31993E38181DB53E9623A2A72A2920AA2C1612B9961423A2A726A9A39033B2B73234B6BD101B948000808180105
310
A000140A9B54053047454E545241434F2C4348532C302CA6D52C47454E54524154582C25732C2847454E4D53472067656E64696D7A203829000101010020F400028265DAE1FB80A668E8A9CA8A482869E588690A6586059976B87EE588E8A9CA8A482A8B0584AE658508E8A9C9AA68E40CECADCC8D2DAF4406460520002000
310
8004328000504B1EAD7BC014CD1D15395149050D3CB10D214CB0C0B2C7AB5EF0B11D15395149055160B095CCB0A11D1539354D1C819D95B991A5B5E880C8C4A4000400100086D0000A098DE16BC6029923A2A72A2920A1A79621A42996181663785AF19623A2A72A2920AA2C1612B9961423A2A726A9A39033B2B73234B6BD
310
10189480A02620202080043E8000504D0F2BAC5014CD1D15395149050D3CB10D214CB0C0B343CAEB14B11D15395149055160B095CCB0A11D1539354D1C819D95B991A5B5E880C4D0A4000404140280D0000A0997EFA5FA0299A3A2A72A2920A1A79621A42996181665FBE97E9623A2A72A2920AA2C1612B9961423A2A726A9
310
A39033B2B73234B6BD10189A94800080828050EA000141AFF5F2FDF4BF4053547454E545241434F2C4348532C302CBFD7CBF7D2FD2C47454E54524154582C25732C2847454E4D53472067656E64696D7A20313729000101050022740002815FEB80A628E8A9CA8A482869E588690A65860597FAE588E8A9CA8A482A8B0584A
310
E658508E8A9C9AA68E40CECADCC8D2DAF440626C52000202080044A8000504CAFDC1BF014CD1D15395149050D3CB10D214CB0C0B32BF706FCB11D15395149055160B095CCB0A11D1539354D1C819D95B991A5B5E880C4E4A400040418008A521E000000000000001CA040C0000000000003440808000000000000688101000
310
0000000000D102040000000000001A204080000000000003440818000000000000728103000000000000125020600000000004028A040000000000000034408000000000000004881000000000000000D102000000000000001A204000000000000003440818000000000000508143C0000000000000039408180000000000
310
006881030000000000000D102060000000000001A2040C00000000000034408180000000000006881030000000000000E5020600000000000024A040C000000000080514080000000000000068810000000000000009102000000000000001A2040000000000000034408180000000000006881030000000000000A1028422
310
000000087800000202000000838000002040000008180000020800000082800000202890000004
340
0
340
0
340
0
340
0
340
283
340
283
 94
        0
  0
ACAD_PROXY_OBJECT
  5
2A8
330
278
100
AcDbProxyObject
 90
      499
 91
      572
 95
  4980761
 70
     0
161
              7474
310
5C59740D254D3D0649534F5F4133429254D3D7D5125513115051349534F5F42525F5265766973696F6E6C69737446114413378372028343230783230383020BAC1C3D729421254D3D7D04CDE0DD14413478392028323937783138393220BAC1C3D729421254D3D7D04D1E0E514413478362028323937783132363120BAC1C3
310
D729421254D3D7D04D1E0D9144134783420283239377838343120BAC1C3D72920421254D3D7D04D1E0D1134134783320283239377836333020BAC1C3D729421254D3D7D04D1E0CD14413278342028353934783136383220BAC1C3D729421254D3D7D04C9E0D114413278352028353934783231303220BAC1C3D729421254D3
310
D7D04C9E0D51541307833202831313839783235323320BAC1C3D729421254D3D7D04C1E0CD1341302028383430783131383820BAC1C3D72920419254D3D7D04C114413178342028383430783233373820BAC1C3D729421254D3D7D04C5E0D114413478382028323937783136383220BAC1C3D729421254D3D7D04D1E0E1144
310
13278332028353934783132363120BAC1C3D729421254D3D7D04C9E0CD11413320283239377834323020BAC1C3D729419254D3D7D04CD14413478352028323937783130353120BAC1C3D729421254D3D7D04D1E0D511413220283432307835393420BAC1C3D729419254D3D7D04C914413178332028383430783137383320B
310
AC1C3D729421254D3D7D04C5E0CD1541307832202831313839783136383220BAC1C3D729421254D3D7D04C1E0C911413420283239377832313020BAC1C3D729419254D3D7D04D114413378362028343230783137383320BAC1C3D729421254D3D7D04CDE0D9134133783320283432307838393120BAC1C3D729421254D3D7D
310
04CDE0CD14413478372028323937783134373120BAC1C3D729421254D3D7D04D1E0DD1241312028353934783231303220BAC1C3D729419254D3D7D04C514413378352028343230783134383620BAC1C3D729421254D3D7D04CDE0D514413378342028343230783131383920BAC1C3D729421254D3D7D04CDE0D102431254D3
310
C82C7AB338B02E081050A49534F5F5449544C4541431254D3C82C7AB338B02E081090A49534F5F5449544C45424110AB8FCB8C4C0B85F42525F44D254D3D7D09497D4995D9A5CDA5BDB9B1A5CDD10AB8FCB8C4C0B85F54525F44D254D3D7D51497D4995D9A5CDA5BDB9B1A5CDD10AB8FCB8C4C0B85F424C5F44D254D3D7D09
310
317D4995D9A5CDA5BDB9B1A5CDD10AB8FCB8C4C0B85F544C5F44D254D3D7D51317D4995D9A5CDA5BDB9B1A5CDD0C
 94
        0
  0
ACAD_PROXY_OBJECT
  5
298
330
0
100
AcDbProxyObject
 90
      499
 91
      568
 95
  4980761
 70
     0
161
              2616
310
5C60141B128EC39480C4043A013D2525633C486F6C653A63746469613E2078203C486F6C653A637464657074683E20555C503C696628657175616C28486F6C653A7461707065642C223022292C22252563222C486F6C653A6E6F6D696E616C202220782022293E3C696628657175616C28486F6C653A7461707065642C2230
310
22292C486F6C653A6469612C486F6C653A706974636864657363293E3C696628657175616C28486F6C653A7461707065642C223122292C22207820222C2222293E3C696628657175616C28486F6C653A7461707065642C223122292C486F6C653A74617064657074682C2222293E203C696628657175616C28486F6C653A74
310
65726D696E6174696F6E2C223022292C22202F20222C2222293E3C696628657175616C28486F6C653A7465726D696E6174696F6E2C223022292C486F6C653A64657074682C2222293E00
 94
        0
  0
ACAD_PROXY_OBJECT
  5
299
330
0
100
AcDbProxyObject
 90
      499
 91
      568
 95
  4980761
 70
     0
161
              2624
310
5C60141B128EC39480C4043B013D2525633C486F6C653A63746469613E2078203C486F6C653A6374616E676C653E2525645C503C696628657175616C28486F6C653A7461707065642C223022292C22252563222C486F6C653A6E6F6D696E616C202220782022293E3C696628657175616C28486F6C653A7461707065642C22
310
3022292C486F6C653A6469612C486F6C653A706974636864657363293E3C696628657175616C28486F6C653A7461707065642C223122292C22207820222C2222293E3C696628657175616C28486F6C653A7461707065642C223122292C486F6C653A74617064657074682C2222293E203C696628657175616C28486F6C653A
310
7465726D696E6174696F6E2C223022292C22202F20222C2222293E3C696628657175616C28486F6C653A7465726D696E6174696F6E2C223022292C486F6C653A64657074682C2222293E00
 94
        0
  0
ACAD_PROXY_OBJECT
  5
297
330
0
100
AcDbProxyObject
 90
      499
 91
      568
 95
  4980761
 70
     0
161
              2328
310
5C60141B128EC39480C40416013D3C696628657175616C28486F6C653A7461707065642C223022292C22252563222C486F6C653A6E6F6D696E616C202220782022293E3C696628657175616C28486F6C653A7461707065642C223022292C486F6C653A6469612C486F6C653A706974636864657363293E3C69662865717561
310
6C28486F6C653A7461707065642C223122292C22207820222C2222293E3C696628657175616C28486F6C653A7461707065642C223122292C486F6C653A74617064657074682C2222293E203C696628657175616C28486F6C653A7465726D696E6174696F6E2C223022292C22202F20222C2222293E3C696628657175616C28
310
486F6C653A7465726D696E6174696F6E2C223022292C486F6C653A64657074682C2222293E00
 94
        0
  0
ACAD_PROXY_OBJECT
  5
296
330
0
100
AcDbProxyObject
 90
      499
 91
      568
 95
  4980761
 70
     0
161
               192
310
5C60141B128EC39480C4050C3D3C535444503A444553433E00
 94
        0
  0
ENDSEC
  0
EOF
