  0
SECTION
  2
HEADER
  9
$ACADVER
  1
AC1032
  9
$ACADMAINTVER
 90
      174
  9
$DWGCODEPAGE
  3
ANSI_1252
  9
$LASTSAVEDBY
  1
pengb
  9
$REQUIREDVERSIONS
160
                 0
  9
$INSBASE
 10
0.0
 20
0.0
 30
0.0
  9
$EXTMIN
 10
-42.91900541973177
 20
-57.31443724142673
 30
-0.0015258207003583
  9
$EXTMAX
 10
497.6541148378212
 20
419.7998207807538
 30
0.0000000349246037
  9
$LIMMIN
 10
0.0
 20
0.0
  9
$LIMMAX
 10
420.0
 20
297.0
  9
$ORTHOMODE
 70
     0
  9
$REGENMODE
 70
     1
  9
$FILLMODE
 70
     1
  9
$QTEXTMODE
 70
     0
  9
$MIRRTEXT
 70
     1
  9
$LTSCALE
 40
1.0
  9
$ATTMODE
 70
     1
  9
$TEXTSIZE
 40
3.5
  9
$TRACEWID
 40
1.0
  9
$TEXTSTYLE
  7
Standard
  9
$CLAYER
  8
0
  9
$CELTYPE
  6
ByLayer
  9
$CECOLOR
 62
   256
  9
$CELTSCALE
 40
1.0
  9
$DISPSILH
 70
     0
  9
$DIMSCALE
 40
1.0
  9
$DIMASZ
 40
3.302
  9
$DIMEXO
 40
1.0
  9
$DIMDLI
 40
3.75
  9
$DIMRND
 40
0.0
  9
$DIMDLE
 40
0.0
  9
$DIMEXE
 40
1.0
  9
$DIMTP
 40
0.0
  9
$DIMTM
 40
0.0
  9
$DIMTXT
 40
3.5
  9
$DIMCEN
 40
2.5
  9
$DIMTSZ
 40
0.0
  9
$DIMTOL
 70
     0
  9
$DIMLIM
 70
     0
  9
$DIMTIH
 70
     1
  9
$DIMTOH
 70
     1
  9
$DIMSE1
 70
     0
  9
$DIMSE2
 70
     0
  9
$DIMTAD
 70
     1
  9
$DIMZIN
 70
     1
  9
$DIMBLK
  1

  9
$DIMASO
 70
     1
  9
$DIMSHO
 70
     1
  9
$DIMPOST
  1

  9
$DIMAPOST
  1

  9
$DIMALT
 70
     0
  9
$DIMALTD
 70
     3
  9
$DIMALTF
 40
0.0393700787
  9
$DIMLFAC
 40
5.0
  9
$DIMTOFL
 70
     1
  9
$DIMTVP
 40
0.0
  9
$DIMTIX
 70
     0
  9
$DIMSOXD
 70
     0
  9
$DIMSAH
 70
     0
  9
$DIMBLK1
  1

  9
$DIMBLK2
  1

  9
$DIMSTYLE
  2
ISO-25
  9
$DIMCLRD
 70
     0
  9
$DIMCLRE
 70
     0
  9
$DIMCLRT
 70
     0
  9
$DIMTFAC
 40
1.0
  9
$DIMGAP
 40
1.524
  9
$DIMJUST
 70
     0
  9
$DIMSD1
 70
     0
  9
$DIMSD2
 70
     0
  9
$DIMTOLJ
 70
     0
  9
$DIMTZIN
 70
     1
  9
$DIMALTZ
 70
     0
  9
$DIMALTTZ
 70
     0
  9
$DIMUPT
 70
     0
  9
$DIMDEC
 70
     2
  9
$DIMTDEC
 70
     2
  9
$DIMALTU
 70
     2
  9
$DIMALTTD
 70
     3
  9
$DIMTXSTY
  7
Standard
  9
$DIMAUNIT
 70
     0
  9
$DIMADEC
 70
     2
  9
$DIMALTRND
 40
0.0
  9
$DIMAZIN
 70
     0
  9
$DIMDSEP
 70
    44
  9
$DIMATFIT
 70
     3
  9
$DIMFRAC
 70
     0
  9
$DIMLDRBLK
  1

  9
$DIMLUNIT
 70
     2
  9
$DIMLWD
 70
    -2
  9
$DIMLWE
 70
    -2
  9
$DIMTMOVE
 70
     0
  9
$DIMFXL
 40
1.0
  9
$DIMFXLON
 70
     0
  9
$DIMJOGANG
 40
0.7853981633974483
  9
$DIMTFILL
 70
     0
  9
$DIMTFILLCLR
 70
     0
  9
$DIMARCSYM
 70
     0
  9
$DIMLTYPE
  6

  9
$DIMLTEX1
  6

  9
$DIMLTEX2
  6

  9
$DIMTXTDIRECTION
 70
     0
  9
$LUNITS
 70
     2
  9
$LUPREC
 70
     2
  9
$SKETCHINC
 40
1.0
  9
$FILLETRAD
 40
10.0
  9
$AUNITS
 70
     0
  9
$AUPREC
 70
     2
  9
$MENU
  1
.
  9
$ELEVATION
 40
0.0
  9
$PELEVATION
 40
0.0
  9
$THICKNESS
 40
0.0
  9
$LIMCHECK
 70
     0
  9
$CHAMFERA
 40
0.0
  9
$CHAMFERB
 40
0.0
  9
$CHAMFERC
 40
0.0
  9
$CHAMFERD
 40
0.0
  9
$SKPOLY
 70
     0
  9
$TDCREATE
 40
2459979.640578703
  9
$TDUCREATE
 40
2459979.182249097
  9
$TDUPDATE
 40
2460007.497893518
  9
$TDUUPDATE
 40
2460007.039560185
  9
$TDINDWG
 40
0.0009606597
  9
$TDUSRTIMER
 40
0.0009606597
  9
$USRTIMER
 70
     1
  9
$ANGBASE
 50
0.0
  9
$ANGDIR
 70
     0
  9
$PDMODE
 70
     0
  9
$PDSIZE
 40
-1.0
  9
$PLINEWID
 40
0.0
  9
$SPLFRAME
 70
     0
  9
$SPLINETYPE
 70
     6
  9
$SPLINESEGS
 70
     8
  9
$HANDSEED
  5
23C
  9
$SURFTAB1
 70
     6
  9
$SURFTAB2
 70
     6
  9
$SURFTYPE
 70
     6
  9
$SURFU
 70
     6
  9
$SURFV
 70
     6
  9
$UCSBASE
  2

  9
$UCSNAME
  2

  9
$UCSORG
 10
0.0
 20
0.0
 30
0.0
  9
$UCSXDIR
 10
1.0
 20
0.0
 30
0.0
  9
$UCSYDIR
 10
0.0
 20
1.0
 30
0.0
  9
$UCSORTHOREF
  2

  9
$UCSORTHOVIEW
 70
     0
  9
$UCSORGTOP
 10
0.0
 20
0.0
 30
0.0
  9
$UCSORGBOTTOM
 10
0.0
 20
0.0
 30
0.0
  9
$UCSORGLEFT
 10
0.0
 20
0.0
 30
0.0
  9
$UCSORGRIGHT
 10
0.0
 20
0.0
 30
0.0
  9
$UCSORGFRONT
 10
0.0
 20
0.0
 30
0.0
  9
$UCSORGBACK
 10
0.0
 20
0.0
 30
0.0
  9
$PUCSBASE
  2

  9
$PUCSNAME
  2

  9
$PUCSORG
 10
0.0
 20
0.0
 30
0.0
  9
$PUCSXDIR
 10
1.0
 20
0.0
 30
0.0
  9
$PUCSYDIR
 10
0.0
 20
1.0
 30
0.0
  9
$PUCSORTHOREF
  2

  9
$PUCSORTHOVIEW
 70
     0
  9
$PUCSORGTOP
 10
0.0
 20
0.0
 30
0.0
  9
$PUCSORGBOTTOM
 10
0.0
 20
0.0
 30
0.0
  9
$PUCSORGLEFT
 10
0.0
 20
0.0
 30
0.0
  9
$PUCSORGRIGHT
 10
0.0
 20
0.0
 30
0.0
  9
$PUCSORGFRONT
 10
0.0
 20
0.0
 30
0.0
  9
$PUCSORGBACK
 10
0.0
 20
0.0
 30
0.0
  9
$USERI1
 70
     0
  9
$USERI2
 70
     0
  9
$USERI3
 70
     0
  9
$USERI4
 70
     0
  9
$USERI5
 70
     0
  9
$USERR1
 40
0.0
  9
$USERR2
 40
0.0
  9
$USERR3
 40
0.0
  9
$USERR4
 40
0.0
  9
$USERR5
 40
0.0
  9
$WORLDVIEW
 70
     1
  9
$SHADEDGE
 70
     3
  9
$SHADEDIF
 70
    70
  9
$TILEMODE
 70
     1
  9
$MAXACTVP
 70
    64
  9
$PINSBASE
 10
0.0
 20
0.0
 30
0.0
  9
$PLIMCHECK
 70
     0
  9
$PEXTMIN
 10
1.000000000000000E+20
 20
1.000000000000000E+20
 30
1.000000000000000E+20
  9
$PEXTMAX
 10
-1.000000000000000E+20
 20
-1.000000000000000E+20
 30
-1.000000000000000E+20
  9
$PLIMMIN
 10
0.0
 20
0.0
  9
$PLIMMAX
 10
420.0
 20
297.0
  9
$UNITMODE
 70
     0
  9
$VISRETAIN
 70
     1
  9
$PLINEGEN
 70
     0
  9
$PSLTSCALE
 70
     1
  9
$TREEDEPTH
 70
  3020
  9
$CMLSTYLE
  2
Standard
  9
$CMLJUST
 70
     0
  9
$CMLSCALE
 40
20.0
  9
$PROXYGRAPHICS
 70
     1
  9
$MEASUREMENT
 70
     1
  9
$CELWEIGHT
370
    -1
  9
$ENDCAPS
280
     0
  9
$JOINSTYLE
280
     0
  9
$LWDISPLAY
290
     1
  9
$INSUNITS
 70
     4
  9
$HYPERLINKBASE
  1

  9
$STYLESHEET
  1

  9
$XEDIT
290
     1
  9
$CEPSNTYPE
380
     0
  9
$PSTYLEMODE
290
     1
  9
$FINGERPRINTGUID
  2
{20CE7969-97CF-499E-B790-8CF53ADBF744}
  9
$VERSIONGUID
  2
{E813AA25-2625-2647-A903-839BE3A3D08D}
  9
$EXTNAMES
290
     1
  9
$PSVPSCALE
 40
0.0
  9
$OLESTARTUP
290
     0
  9
$SORTENTS
280
   127
  9
$INDEXCTL
280
     0
  9
$HIDETEXT
280
     0
  9
$XCLIPFRAME
280
     2
  9
$HALOGAP
280
     0
  9
$OBSCOLOR
 70
   257
  9
$OBSLTYPE
280
     0
  9
$INTERSECTIONDISPLAY
280
     0
  9
$INTERSECTIONCOLOR
 70
   257
  9
$DIMASSOC
280
     1
  9
$PROJECTNAME
  1

  9
$CAMERADISPLAY
290
     0
  9
$LENSLENGTH
 40
50.0
  9
$CAMERAHEIGHT
 40
0.0
  9
$STEPSPERSEC
 40
2.0
  9
$STEPSIZE
 40
6.0
  9
$3DDWFPREC
 40
2.0
  9
$PSOLWIDTH
 40
0.25
  9
$PSOLHEIGHT
 40
4.0
  9
$LOFTANG1
 40
1.570796326794896
  9
$LOFTANG2
 40
1.570796326794896
  9
$LOFTMAG1
 40
0.0
  9
$LOFTMAG2
 40
0.0
  9
$LOFTPARAM
 70
     7
  9
$LOFTNORMALS
280
     1
  9
$LATITUDE
 40
37.795
  9
$LONGITUDE
 40
-122.394
  9
$NORTHDIRECTION
 40
0.0
  9
$TIMEZONE
 70
 -8000
  9
$LIGHTGLYPHDISPLAY
280
     1
  9
$TILEMODELIGHTSYNCH
280
     1
  9
$CMATERIAL
347
160
  9
$SOLIDHIST
280
     0
  9
$SHOWHIST
280
     1
  9
$DWFFRAME
280
     2
  9
$DGNFRAME
280
     0
  9
$REALWORLDSCALE
290
     1
  9
$INTERFERECOLOR
 62
     1
  9
$INTERFEREOBJVS
345
182
  9
$INTERFEREVPVS
346
17F
  9
$CSHADOW
280
     0
  9
$SHADOWPLANELOCATION
 40
0.0
  0
ENDSEC
  0
SECTION
  2
CLASSES
  0
CLASS
  1
ACDBDICTIONARYWDFLT
  2
AcDbDictionaryWithDefault
  3
ObjectDBX Classes
 90
        0
 91
        1
280
     0
281
     0
  0
CLASS
  1
VISUALSTYLE
  2
AcDbVisualStyle
  3
ObjectDBX Classes
 90
     4095
 91
       24
280
     0
281
     0
  0
CLASS
  1
MATERIAL
  2
AcDbMaterial
  3
ObjectDBX Classes
 90
     1153
 91
        3
280
     0
281
     0
  0
CLASS
  1
SCALE
  2
AcDbScale
  3
ObjectDBX Classes
 90
     1153
 91
       33
280
     0
281
     0
  0
CLASS
  1
TABLESTYLE
  2
AcDbTableStyle
  3
ObjectDBX Classes
 90
     4095
 91
        1
280
     0
281
     0
  0
CLASS
  1
MLEADERSTYLE
  2
AcDbMLeaderStyle
  3
ACDB_MLEADERSTYLE_CLASS
 90
     4095
 91
        1
280
     0
281
     0
  0
CLASS
  1
SUN
  2
AcDbSun
  3
SCENEOE
 90
     1153
 91
        0
280
     0
281
     0
  0
CLASS
  1
ACDBSECTIONVIEWSTYLE
  2
AcDbSectionViewStyle
  3
ObjectDBX Classes
 90
     1025
 91
        1
280
     0
281
     0
  0
CLASS
  1
ACDBDETAILVIEWSTYLE
  2
AcDbDetailViewStyle
  3
ObjectDBX Classes
 90
     1025
 91
        1
280
     0
281
     0
  0
CLASS
  1
ACDB_ALDIMOBJECTCONTEXTDATA_CLASS
  2
AcDbAlignedDimensionObjectContextData
  3
ObjectDBX Classes
 90
     1153
 91
        8
280
     0
281
     0
  0
CLASS
  1
DICTIONARYVAR
  2
AcDbDictionaryVar
  3
ObjectDBX Classes
 90
        0
 91
       18
280
     0
281
     0
  0
CLASS
  1
CELLSTYLEMAP
  2
AcDbCellStyleMap
  3
ObjectDBX Classes
 90
     1152
 91
        1
280
     0
281
     0
  0
ENDSEC
  0
SECTION
  2
TABLES
  0
TABLE
  2
VPORT
  5
8
330
0
100
AcDbSymbolTable
 70
     1
  0
VPORT
  5
29
330
8
100
AcDbSymbolTableRecord
100
AcDbViewportTableRecord
  2
*Active
 70
     0
 10
0.0
 20
0.0
 11
1.0
 21
1.0
 12
227.3675547090447
 22
181.2426917696635
 13
0.0
 23
0.0
 14
10.0
 24
10.0
 15
10.0
 25
10.0
 16
0.0
 26
0.0
 36
1.0
 17
0.0
 27
0.0
 37
0.0
 40
478.8934286549544
 41
1.907960199004975
 42
50.0
 43
0.0
 44
0.0
 50
0.0
 51
0.0
 71
     0
 72
  2000
 73
     1
 74
     3
 75
     0
 76
     0
 77
     0
 78
     0
281
     0
 65
     1
110
0.0
120
0.0
130
0.0
111
1.0
121
0.0
131
0.0
112
0.0
122
1.0
132
0.0
 79
     0
146
0.0
348
17E
 60
     3
 61
     5
292
     1
282
     1
141
0.0
142
0.0
 63
   250
421
  3355443
1001
ACAD_NAV_VCDISPLAY
1070
     3
  0
ENDTAB
  0
TABLE
  2
LTYPE
  5
5
330
0
100
AcDbSymbolTable
 70
     6
  0
LTYPE
  5
14
330
5
100
AcDbSymbolTableRecord
100
AcDbLinetypeTableRecord
  2
ByBlock
 70
     0
  3

 72
    65
 73
     0
 40
0.0
  0
LTYPE
  5
15
330
5
100
AcDbSymbolTableRecord
100
AcDbLinetypeTableRecord
  2
ByLayer
 70
     0
  3

 72
    65
 73
     0
 40
0.0
  0
LTYPE
  5
16
330
5
100
AcDbSymbolTableRecord
100
AcDbLinetypeTableRecord
  2
Continuous
 70
     0
  3
Solid line
 72
    65
 73
     0
 40
0.0
  0
LTYPE
  5
6E
330
5
100
AcDbSymbolTableRecord
100
AcDbLinetypeTableRecord
  2
HIDDEN
 70
     0
  3
Hidden __ __ __ __ __ __ __ __ __ __ __ __ __ __
 72
    65
 73
     2
 40
1.905
 49
1.27
 74
     0
 49
-0.635
 74
     0
  0
LTYPE
  5
6F
330
5
100
AcDbSymbolTableRecord
100
AcDbLinetypeTableRecord
  2
PHANTOM
 70
     0
  3
Phantom ______  __  __  ______  __  __  ______
 72
    65
 73
     6
 40
12.7
 49
6.349999999999999
 74
     0
 49
-1.27
 74
     0
 49
1.27
 74
     0
 49
-1.27
 74
     0
 49
1.27
 74
     0
 49
-1.27
 74
     0
  0
LTYPE
  5
70
330
5
100
AcDbSymbolTableRecord
100
AcDbLinetypeTableRecord
  2
CENTER
 70
     0
  3
Center ____ _ ____ _ ____ _ ____ _ ____ _ ____
 72
    65
 73
     4
 40
10.16
 49
6.349999999999999
 74
     0
 49
-1.27
 74
     0
 49
1.27
 74
     0
 49
-1.27
 74
     0
  0
LTYPE
  5
71
330
5
100
AcDbSymbolTableRecord
100
AcDbLinetypeTableRecord
  2
CENTERX2
 70
     0
  3
Center (2x) ________  __  ________  __  _____
 72
    65
 73
     4
 40
20.32
 49
12.7
 74
     0
 49
-2.54
 74
     0
 49
2.54
 74
     0
 49
-2.54
 74
     0
  0
LTYPE
  5
72
330
5
100
AcDbSymbolTableRecord
100
AcDbLinetypeTableRecord
  2
DOT2
 70
     0
  3
Dot (.5x) ........................................
 72
    65
 73
     2
 40
0.635
 49
0.0
 74
     0
 49
-0.635
 74
     0
  0
ENDTAB
  0
TABLE
  2
LAYER
  5
2
102
{ACAD_XDICTIONARY
360
1B0
102
}
330
0
100
AcDbSymbolTable
 70
     4
  0
LAYER
  5
10
102
{ACAD_XDICTIONARY
360
21F
102
}
330
2
100
AcDbSymbolTableRecord
100
AcDbLayerTableRecord
  2
0
 70
     0
 62
     7
  6
Continuous
370
    -3
390
F
347
170
348
0
  0
LAYER
  5
73
102
{ACAD_XDICTIONARY
360
221
102
}
330
2
100
AcDbSymbolTableRecord
100
AcDbLayerTableRecord
  2
FORMAT
 70
     0
 62
     7
  6
Continuous
370
    -3
390
F
347
170
348
0
  0
LAYER
  5
1A7
330
2
100
AcDbSymbolTableRecord
100
AcDbLayerTableRecord
  2
Defpoints
 70
     0
 62
     7
  6
Continuous
290
     0
370
    -3
390
F
347
170
348
0
  0
LAYER
  5
1A8
102
{ACAD_XDICTIONARY
360
223
102
}
330
2
100
AcDbSymbolTableRecord
100
AcDbLayerTableRecord
  2
DIMENSION
 70
     0
 62
   255
  6
Continuous
370
    -3
390
F
347
170
348
0
  0
ENDTAB
  0
TABLE
  2
STYLE
  5
3
330
0
100
AcDbSymbolTable
 70
     2
  0
STYLE
  5
11
330
3
100
AcDbSymbolTableRecord
100
AcDbTextStyleTableRecord
  2
Standard
 70
     0
 40
0.0
 41
1.0
 50
0.0
 71
     0
 42
3.5
  3
txt
  4

  0
STYLE
  5
D9
330
3
100
AcDbSymbolTableRecord
100
AcDbTextStyleTableRecord
  2
SLDTEXTSTYLE0
 70
     0
 40
0.0
 41
0.75
 50
0.0
 71
     0
 42
3.5
  3
TXT
  4

  0
ENDTAB
  0
TABLE
  2
VIEW
  5
6
330
0
100
AcDbSymbolTable
 70
     0
  0
ENDTAB
  0
TABLE
  2
UCS
  5
7
330
0
100
AcDbSymbolTable
 70
     0
  0
ENDTAB
  0
TABLE
  2
APPID
  5
9
330
0
100
AcDbSymbolTable
 70
     7
  0
APPID
  5
12
330
9
100
AcDbSymbolTableRecord
100
AcDbRegAppTableRecord
  2
ACAD
 70
     0
  0
APPID
  5
1AA
330
9
100
AcDbSymbolTableRecord
100
AcDbRegAppTableRecord
  2
ACAD_PSEXT
 70
     0
  0
APPID
  5
1AB
330
9
100
AcDbSymbolTableRecord
100
AcDbRegAppTableRecord
  2
AcadAnnotative
 70
     0
  0
APPID
  5
1AC
330
9
100
AcDbSymbolTableRecord
100
AcDbRegAppTableRecord
  2
ACAD_DSTYLE_DIMJAG
 70
     0
  0
APPID
  5
1AD
330
9
100
AcDbSymbolTableRecord
100
AcDbRegAppTableRecord
  2
ACAD_DSTYLE_DIMTALN
 70
     0
  0
APPID
  5
1AE
330
9
100
AcDbSymbolTableRecord
100
AcDbRegAppTableRecord
  2
ACAD_NAV_VCDISPLAY
 70
     0
  0
APPID
  5
1AF
330
9
100
AcDbSymbolTableRecord
100
AcDbRegAppTableRecord
  2
ACAD_DSTYLE_DIMBREAK
 70
     0
  0
ENDTAB
  0
TABLE
  2
DIMSTYLE
  5
A
330
0
100
AcDbSymbolTable
 70
     3
100
AcDbDimStyleTable
 71
     1
340
1A9
  0
DIMSTYLE
105
27
330
A
100
AcDbSymbolTableRecord
100
AcDbDimStyleTableRecord
  2
ISO-25
 70
     0
 41
2.5
 42
0.625
 43
3.75
 44
1.25
 73
     0
 74
     0
 77
     1
 78
     8
140
2.5
141
2.5
143
0.0393700787
147
0.625
171
     3
172
     1
271
     2
272
     2
274
     3
278
    44
283
     0
284
     8
340
11
  0
DIMSTYLE
105
DA
330
A
100
AcDbSymbolTableRecord
100
AcDbDimStyleTableRecord
  2
SLDDIMSTYLE0
 70
     0
 41
3.302
 44
0.0
 45
0.000000001
 73
     0
 74
     0
 77
     1
 78
     4
 79
     1
140
4.2333333333
147
1.0583333333
173
     1
271
     2
272
     2
276
     2
284
    12
340
D9
341
DB
343
DB
344
DB
  0
DIMSTYLE
105
1A9
102
{ACAD_REACTORS
330
1B3
330
126
330
11E
330
ED
330
E5
330
D8
330
154
102
}
330
A
100
AcDbSymbolTableRecord
100
AcDbDimStyleTableRecord
  2
RG Dimension Lines
 70
     0
 40
12.0
 41
3.5
 42
1.0
 43
10.0
 44
5.0
 49
5.0
 77
     2
140
8.0
141
0.0
147
4.0
172
     1
176
   256
177
   256
178
     7
271
     0
272
     0
290
     1
340
11
341
DB
342
DB
371
     0
372
     0
1001
ACAD_DSTYLE_DIMBREAK
1070
   391
1040
0.125
1001
AcadAnnotative
1000
AnnotativeData
1002
{
1070
     1
1070
     1
1002
}
1001
ACAD_DSTYLE_DIMJAG
1070
   388
1040
1.5
1001
ACAD_DSTYLE_DIMTALN
1070
   392
1070
     0
  0
ENDTAB
  0
TABLE
  2
BLOCK_RECORD
  5
1
330
0
100
AcDbSymbolTable
 70
    17
  0
BLOCK_RECORD
  5
1F
330
1
100
AcDbSymbolTableRecord
100
AcDbBlockTableRecord
  2
*Model_Space
340
22
 70
     0
280
     1
281
     0
  0
BLOCK_RECORD
  5
1B
330
1
100
AcDbSymbolTableRecord
100
AcDbBlockTableRecord
  2
*Paper_Space
340
1E
 70
     0
280
     1
281
     0
  0
BLOCK_RECORD
  5
23
330
1
100
AcDbSymbolTableRecord
100
AcDbBlockTableRecord
  2
*Paper_Space0
340
26
 70
     0
280
     1
281
     0
  0
BLOCK_RECORD
  5
DB
330
1
100
AcDbSymbolTableRecord
100
AcDbBlockTableRecord
  2
_None
340
0
 70
     0
280
     1
281
     0
  0
BLOCK_RECORD
  5
DE
330
1
100
AcDbSymbolTableRecord
100
AcDbBlockTableRecord
  2
_D
340
0
 70
     0
280
     1
281
     0
  0
BLOCK_RECORD
  5
E6
330
1
100
AcDbSymbolTableRecord
100
AcDbBlockTableRecord
  2
_D_1
340
0
 70
     0
280
     1
281
     0
  0
BLOCK_RECORD
  5
EE
330
1
100
AcDbSymbolTableRecord
100
AcDbBlockTableRecord
  2
_D_2
340
0
 70
     0
280
     1
281
     0
  0
BLOCK_RECORD
  5
11F
330
1
100
AcDbSymbolTableRecord
100
AcDbBlockTableRecord
  2
_D_3
340
0
 70
     0
280
     1
281
     0
  0
BLOCK_RECORD
  5
127
330
1
100
AcDbSymbolTableRecord
100
AcDbBlockTableRecord
  2
_D_4
340
0
 70
     0
280
     1
281
     0
  0
BLOCK_RECORD
  5
155
330
1
100
AcDbSymbolTableRecord
100
AcDbBlockTableRecord
  2
_D_5
340
0
 70
     0
280
     1
281
     0
  0
BLOCK_RECORD
  5
19D
330
1
100
AcDbSymbolTableRecord
100
AcDbBlockTableRecord
  2
*D8
340
0
 70
     0
280
     1
281
     0
  0
BLOCK_RECORD
  5
1C1
330
1
100
AcDbSymbolTableRecord
100
AcDbBlockTableRecord
  2
*D10
340
0
 70
     0
280
     1
281
     0
  0
BLOCK_RECORD
  5
1CB
330
1
100
AcDbSymbolTableRecord
100
AcDbBlockTableRecord
  2
*D11
340
0
 70
     0
280
     1
281
     0
  0
BLOCK_RECORD
  5
1D9
330
1
100
AcDbSymbolTableRecord
100
AcDbBlockTableRecord
  2
*D12
340
0
 70
     0
280
     1
281
     0
  0
BLOCK_RECORD
  5
1E7
330
1
100
AcDbSymbolTableRecord
100
AcDbBlockTableRecord
  2
*D13
340
0
 70
     0
280
     1
281
     0
  0
BLOCK_RECORD
  5
1F5
330
1
100
AcDbSymbolTableRecord
100
AcDbBlockTableRecord
  2
*D14
340
0
 70
     0
280
     1
281
     0
  0
BLOCK_RECORD
  5
203
330
1
100
AcDbSymbolTableRecord
100
AcDbBlockTableRecord
  2
*D15
340
0
 70
     0
280
     1
281
     0
  0
BLOCK_RECORD
  5
211
330
1
100
AcDbSymbolTableRecord
100
AcDbBlockTableRecord
  2
*D16
340
0
 70
     0
280
     1
281
     0
  0
ENDTAB
  0
ENDSEC
  0
SECTION
  2
BLOCKS
  0
BLOCK
  5
20
330
1F
100
AcDbEntity
  8
0
100
AcDbBlockBegin
  2
*Model_Space
 70
     0
 10
0.0
 20
0.0
 30
0.0
  3
*Model_Space
  1

  0
ENDBLK
  5
21
330
1F
100
AcDbEntity
  8
0
100
AcDbBlockEnd
  0
BLOCK
  5
1C
330
1B
100
AcDbEntity
 67
     1
  8
0
100
AcDbBlockBegin
  2
*Paper_Space
 70
     0
 10
0.0
 20
0.0
 30
0.0
  3
*Paper_Space
  1

  0
ENDBLK
  5
1D
330
1B
100
AcDbEntity
 67
     1
  8
0
100
AcDbBlockEnd
  0
BLOCK
  5
24
330
23
100
AcDbEntity
 67
     1
  8
0
100
AcDbBlockBegin
  2
*Paper_Space0
 70
     0
 10
0.0
 20
0.0
 30
0.0
  3
*Paper_Space0
  1

  0
ENDBLK
  5
25
330
23
100
AcDbEntity
 67
     1
  8
0
100
AcDbBlockEnd
  0
BLOCK
  5
DC
330
DB
100
AcDbEntity
  8
0
100
AcDbBlockBegin
  2
_None
 70
     0
 10
0.0
 20
0.0
 30
0.0
  3
_None
  1

  0
ENDBLK
  5
DD
330
DB
100
AcDbEntity
  8
0
100
AcDbBlockEnd
  0
BLOCK
  5
DF
330
DE
100
AcDbEntity
  8
0
100
AcDbBlockBegin
  2
_D
 70
     0
 10
0.0
 20
0.0
 30
0.0
  3
_D
  1

  0
LINE
  5
E1
330
DE
100
AcDbEntity
  8
0
  6
Continuous
 62
     7
440
 16777216
370
     0
100
AcDbLine
 10
-9.9967455352
 20
6.6251427884
 30
0.0
 11
-27.90628299070001
 21
6.6251427884
 31
0.0
  0
LINE
  5
E2
330
DE
100
AcDbEntity
  8
0
  6
Continuous
 62
     7
440
 16777216
370
     0
100
AcDbLine
 10
-10.1133359415
 20
86.62514278839999
 30
0.0
 11
-27.90628299070001
 21
86.62514278839999
 31
0.0
  0
LINE
  5
E3
330
DE
100
AcDbEntity
  8
0
  6
Continuous
 62
     7
440
 16777216
370
     0
100
AcDbLine
 10
-26.90628299070001
 20
6.6251427884
 30
0.0
 11
-26.90628299070001
 21
86.62514278839999
 31
0.0
  0
MTEXT
  5
E4
330
DE
100
AcDbEntity
  8
0
  6
Continuous
 62
     7
440
 16777216
370
    18
100
AcDbMText
 10
-32.3633361896
 20
39.5891856048
 30
0.0
 40
4.2333333333
 41
0.0
 46
0.0
 71
     1
 72
     1
  1
80.00
  7
SLDTEXTSTYLE0
 11
0.0000000000000001
 21
1.0
 31
0.0
 73
     1
 44
1.0
  0
ENDBLK
  5
E0
330
DE
100
AcDbEntity
  8
0
100
AcDbBlockEnd
  0
BLOCK
  5
E7
330
E6
100
AcDbEntity
  8
0
100
AcDbBlockBegin
  2
_D_1
 70
     0
 10
0.0
 20
0.0
 30
0.0
  3
_D_1
  1

  0
LINE
  5
E9
330
E6
100
AcDbEntity
  8
0
  6
Continuous
 62
     7
440
 16777216
370
     0
100
AcDbLine
 10
10.7233340062
 20
69.2230241708
 30
0.0
 11
10.7233340062
 21
129.2494541996
 31
0.0
  0
LINE
  5
EA
330
E6
100
AcDbEntity
  8
0
  6
Continuous
 62
     7
440
 16777216
370
     0
100
AcDbLine
 10
55.46410001239999
 20
70.0719570187
 30
0.0
 11
55.46410001239999
 21
129.2494541996
 31
0.0
  0
LINE
  5
EB
330
E6
100
AcDbEntity
  8
0
  6
Continuous
 62
     7
440
 16777216
370
     0
100
AcDbLine
 10
10.7233340062
 20
128.2494541996
 30
0.0
 11
55.46410001239999
 21
128.2494541996
 31
0.0
  0
MTEXT
  5
EC
330
E6
100
AcDbEntity
  8
0
  6
Continuous
 62
     7
440
 16777216
370
    18
100
AcDbMText
 10
25.38057326400001
 20
133.7065073985
 30
0.0
 40
4.2333333333
 41
0.0
 46
0.0
 71
     1
 72
     1
  1
45.00
  7
SLDTEXTSTYLE0
 73
     1
 44
1.0
  0
ENDBLK
  5
E8
330
E6
100
AcDbEntity
  8
0
100
AcDbBlockEnd
  0
BLOCK
  5
EF
330
EE
100
AcDbEntity
  8
0
100
AcDbBlockBegin
  2
_D_2
 70
     0
 10
0.0
 20
0.0
 30
0.0
  3
_D_2
  1

  0
LINE
  5
F1
330
EE
100
AcDbEntity
  8
0
  6
Continuous
 62
     7
440
 16777216
370
     0
100
AcDbLine
 10
120.3937170093
 20
-27.3066482039
 30
0.0
 11
120.3937170093
 21
-46.3104711248
 31
0.0
  0
LINE
  5
F2
330
EE
100
AcDbEntity
  8
0
  6
Continuous
 62
     7
440
 16777216
370
     0
100
AcDbLine
 10
145.7937170093
 20
-27.1371710153
 30
0.0
 11
145.7937170093
 21
-46.3104711248
 31
0.0
  0
LINE
  5
F3
330
EE
100
AcDbEntity
  8
0
  6
Continuous
 62
     7
440
 16777216
370
     0
100
AcDbLine
 10
120.3937170093
 20
-45.31047112479999
 30
0.0
 11
145.7937170093
 21
-45.31047112479999
 31
0.0
  0
MTEXT
  5
F4
330
EE
100
AcDbEntity
  8
0
  6
Continuous
 62
     7
440
 16777216
370
    18
100
AcDbMText
 10
122.0699575954
 20
-39.8534174603
 30
0.0
 40
4.2333333333
 41
0.0
 46
0.0
 71
     1
 72
     1
  1
%%c
  7
SLDTEXTSTYLE0
 73
     1
 44
1.0
  0
MTEXT
  5
F5
330
EE
100
AcDbEntity
  8
0
  6
Continuous
 62
     7
440
 16777216
370
    18
100
AcDbMText
 10
128.4599391968
 20
-39.8534174603
 30
0.0
 40
4.2333333333
 41
0.0
 46
0.0
 71
     1
 72
     1
  1
25.00
  7
SLDTEXTSTYLE0
 73
     1
 44
1.0
  0
ENDBLK
  5
F0
330
EE
100
AcDbEntity
  8
0
100
AcDbBlockEnd
  0
BLOCK
  5
120
330
11F
100
AcDbEntity
  8
0
100
AcDbBlockBegin
  2
_D_3
 70
     0
 10
0.0
 20
0.0
 30
0.0
  3
_D_3
  1

  0
LINE
  5
122
330
11F
100
AcDbEntity
  8
0
  6
Continuous
 62
     7
440
 16777216
370
     0
100
AcDbLine
 10
455.862643921
 20
46.62514278839999
 30
0.0
 11
481.318719898
 21
46.62514278839999
 31
0.0
  0
LINE
  5
123
330
11F
100
AcDbEntity
  8
0
  6
Continuous
 62
     7
440
 16777216
370
     0
100
AcDbLine
 10
269.6062011445
 20
-20.3748572115
 30
0.0
 11
481.318719898
 21
-20.3748572115
 31
0.0
  0
LINE
  5
124
330
11F
100
AcDbEntity
  8
0
  6
Continuous
 62
     7
440
 16777216
370
     0
100
AcDbLine
 10
480.318719898
 20
46.62514278839999
 30
0.0
 11
480.318719898
 21
-20.3748572115
 31
0.0
  0
MTEXT
  5
125
330
11F
100
AcDbEntity
  8
0
  6
Continuous
 62
     7
440
 16777216
370
    18
100
AcDbMText
 10
474.8616666991
 20
11.4567710448
 30
0.0
 40
4.2333333333
 41
0.0
 46
0.0
 71
     1
 72
     1
  1
67.00
  7
SLDTEXTSTYLE0
 11
-0.0000000000000221
 21
1.0
 31
0.0
 73
     1
 44
1.0
  0
ENDBLK
  5
121
330
11F
100
AcDbEntity
  8
0
100
AcDbBlockEnd
  0
BLOCK
  5
128
330
127
100
AcDbEntity
  8
0
100
AcDbBlockBegin
  2
_D_4
 70
     0
 10
0.0
 20
0.0
 30
0.0
  3
_D_4
  1

  0
LINE
  5
12A
330
127
100
AcDbEntity
  8
0
  6
Continuous
 62
     7
440
 16777216
370
     0
100
AcDbLine
 10
252.318719898
 20
-24.474719116
 30
0.0
 11
252.318719898
 21
-45.41899307699999
 31
0.0
  0
LINE
  5
12B
330
127
100
AcDbEntity
  8
0
  6
Continuous
 62
     7
440
 16777216
370
     0
100
AcDbLine
 10
452.318719898
 20
2.557189393099999
 30
0.0
 11
452.318719898
 21
-45.41899307699999
 31
0.0
  0
LINE
  5
12C
330
127
100
AcDbEntity
  8
0
  6
Continuous
 62
     7
440
 16777216
370
     0
100
AcDbLine
 10
252.318719898
 20
-44.41899307699999
 30
0.0
 11
452.318719898
 21
-44.41899307699999
 31
0.0
  0
MTEXT
  5
12D
330
127
100
AcDbEntity
  8
0
  6
Continuous
 62
     7
440
 16777216
370
    18
100
AcDbMText
 10
346.6984230567
 20
-38.9619398781
 30
0.0
 40
4.2333333333
 41
0.0
 46
0.0
 71
     1
 72
     1
  1
200.00
  7
SLDTEXTSTYLE0
 73
     1
 44
1.0
  0
ENDBLK
  5
129
330
127
100
AcDbEntity
  8
0
100
AcDbBlockEnd
  0
BLOCK
  5
156
330
155
100
AcDbEntity
  8
0
100
AcDbBlockBegin
  2
_D_5
 70
     0
 10
0.0
 20
0.0
 30
0.0
  3
_D_5
  1

  0
LINE
  5
158
330
155
100
AcDbEntity
  8
0
  6
Continuous
 62
     7
440
 16777216
370
     0
100
AcDbLine
 10
-6.9062829907
 20
379.7729304537
 30
0.0
 11
-6.9062829907
 21
408.7828900423
 31
0.0
  0
LINE
  5
159
330
155
100
AcDbEntity
  8
0
  6
Continuous
 62
     7
440
 16777216
370
     0
100
AcDbLine
 10
173.0937170093
 20
378.7301686255
 30
0.0
 11
173.0937170093
 21
408.7828900423
 31
0.0
  0
LINE
  5
15A
330
155
100
AcDbEntity
  8
0
  6
Continuous
 62
     7
440
 16777216
370
     0
100
AcDbLine
 10
-6.9062829907
 20
407.7828900423
 30
0.0
 11
173.0937170093
 21
407.7828900423
 31
0.0
  0
MTEXT
  5
15B
330
155
100
AcDbEntity
  8
0
  6
Continuous
 62
     7
440
 16777216
370
    18
100
AcDbMText
 10
70.5915597401
 20
413.2399432410999
 30
0.0
 40
4.2333333333
 41
0.0
 46
0.0
 71
     1
 72
     1
  1
180.00
  7
SLDTEXTSTYLE0
 73
     1
 44
1.0
  0
ENDBLK
  5
157
330
155
100
AcDbEntity
  8
0
100
AcDbBlockEnd
  0
BLOCK
  5
19E
330
19D
100
AcDbEntity
  8
0
100
AcDbBlockBegin
  2
*D8
 70
     1
 10
0.0
 20
0.0
 30
0.0
  3
*D8
  1

  0
LINE
  5
19F
330
19D
100
AcDbEntity
  8
DIMENSION
440
 16777216
370
     0
100
AcDbLine
 10
1092.625159377854
 20
969.7937323929265
 30
0.0
 11
1092.569709633547
 21
979.7935786580374
 31
0.0
  0
LINE
  5
1A0
330
19D
100
AcDbEntity
  8
DIMENSION
440
 16777216
370
     0
100
AcDbLine
 10
1454.657182624691
 20
971.8012215670347
 30
0.0
 11
1454.601732880384
 21
981.8010678321458
 31
0.0
  0
LINE
  5
1A1
330
19D
100
AcDbEntity
  8
DIMENSION
440
 16777216
370
     0
100
AcDbLine
 10
1092.597434505701
 20
974.793655525482
 30
0.0
 11
1454.629457752537
 21
976.8011446995902
 31
0.0
  0
MTEXT
  5
1A2
330
19D
100
AcDbEntity
  8
DIMENSION
 62
     7
440
 16777216
100
AcDbMText
 10
1273.568105608173
 20
983.9741418578535
 30
0.0
 40
8.0
 41
0.0
 46
0.0
 71
     5
 72
     1
  1
\A1;362
 73
     1
 44
1.0
  0
POINT
  5
1A3
330
19D
100
AcDbEntity
  8
Defpoints
 62
     0
440
 16777216
100
AcDbPoint
 10
1092.771920384362
 20
943.3267482592359
 30
0.0
  0
POINT
  5
1A4
330
19D
100
AcDbEntity
  8
Defpoints
 62
     0
440
 16777216
100
AcDbPoint
 10
1454.803943631198
 20
945.3342374333443
 30
0.0
  0
POINT
  5
1A5
330
19D
100
AcDbEntity
  8
Defpoints
 62
     0
440
 16777216
100
AcDbPoint
 10
1454.629457752537
 20
976.8011446995902
 30
0.0
  0
ENDBLK
  5
1A6
330
19D
100
AcDbEntity
  8
0
100
AcDbBlockEnd
  0
BLOCK
  5
1C2
330
1C1
100
AcDbEntity
  8
0
100
AcDbBlockBegin
  2
*D10
 70
     1
 10
0.0
 20
0.0
 30
0.0
  3
*D10
  1

  0
LINE
  5
1C4
330
1C1
100
AcDbEntity
  8
DIMENSION
440
 16777216
370
     0
100
AcDbLine
 10
282.8845309638963
 20
172.5442958854017
 30
0.0
 11
282.8290812195893
 21
182.5441421505128
 31
0.0
  0
LINE
  5
1C5
330
1C1
100
AcDbEntity
  8
DIMENSION
440
 16777216
370
     0
100
AcDbLine
 10
644.9165542107329
 20
174.55178505951
 30
0.0
 11
644.8611044664259
 21
184.5516313246211
 31
0.0
  0
LINE
  5
1C6
330
1C1
100
AcDbEntity
  8
DIMENSION
440
 16777216
370
     0
100
AcDbLine
 10
282.8568060917428
 20
177.5442190179573
 30
0.0
 11
644.8888293385794
 21
179.5517081920656
 31
0.0
  0
MTEXT
  5
1C7
330
1C1
100
AcDbEntity
  8
DIMENSION
 62
     7
440
 16777216
100
AcDbMText
 10
463.8280076494726
 20
186.6290426724613
 30
0.0
 40
8.0
 41
0.0
 46
0.0
 71
     5
 72
     1
  1
\A1;362
 73
     1
 44
1.0
  0
POINT
  5
1C8
330
1C1
100
AcDbEntity
  8
Defpoints
 62
     0
440
 16777216
100
AcDbPoint
 10
283.0312919704038
 20
146.0773117517112
 30
0.0
  0
POINT
  5
1C9
330
1C1
100
AcDbEntity
  8
Defpoints
 62
     0
440
 16777216
100
AcDbPoint
 10
645.0633152172404
 20
148.0848009258195
 30
0.0
  0
POINT
  5
1CA
330
1C1
100
AcDbEntity
  8
Defpoints
 62
     0
440
 16777216
100
AcDbPoint
 10
644.8888293385794
 20
179.5517081920656
 30
0.0
  0
ENDBLK
  5
1C3
330
1C1
100
AcDbEntity
  8
0
100
AcDbBlockEnd
  0
BLOCK
  5
1CC
330
1CB
100
AcDbEntity
  8
0
100
AcDbBlockBegin
  2
*D11
 70
     1
 10
0.0
 20
0.0
 30
0.0
  3
*D11
  1

  0
LINE
  5
1CE
330
1CB
100
AcDbEntity
  8
DIMENSION
440
 16777216
370
     0
100
AcDbLine
 10
252.318719898
 20
-39.418993077
 30
0.0
 11
252.318719898
 21
-49.41899307699999
 31
0.0
  0
LINE
  5
1CF
330
1CB
100
AcDbEntity
  8
DIMENSION
440
 16777216
370
     0
100
AcDbLine
 10
452.318719898
 20
-39.418993077
 30
0.0
 11
452.318719898
 21
-49.41899307699999
 31
0.0
  0
LINE
  5
1D0
330
1CB
100
AcDbEntity
  8
DIMENSION
440
 16777216
370
     0
100
AcDbLine
 10
252.318719898
 20
-44.41899307699999
 30
0.0
 11
452.318719898
 21
-44.41899307699999
 31
0.0
  0
MTEXT
  5
1D1
330
1CB
100
AcDbEntity
  8
DIMENSION
 62
     7
440
 16777216
100
AcDbMText
 10
355.2983618814
 20
-48.418993077
 30
0.0
 40
8.0
 41
0.0
 46
0.0
 71
     2
 72
     1
  1
\A1;200
 73
     1
 44
1.0
  0
POINT
  5
1D2
330
1CB
100
AcDbEntity
  8
Defpoints
 62
     0
440
 16777216
100
AcDbPoint
 10
252.318719898
 20
-20.3748572115
 30
0.0
  0
POINT
  5
1D3
330
1CB
100
AcDbEntity
  8
Defpoints
 62
     0
440
 16777216
100
AcDbPoint
 10
452.318719898
 20
6.6251427884
 30
0.0
  0
POINT
  5
1D4
330
1CB
100
AcDbEntity
  8
Defpoints
 62
     0
440
 16777216
100
AcDbPoint
 10
452.318719898
 20
-44.41899307699999
 30
0.0
  0
ENDBLK
  5
1CD
330
1CB
100
AcDbEntity
  8
0
100
AcDbBlockEnd
  0
BLOCK
  5
1DA
330
1D9
100
AcDbEntity
  8
0
100
AcDbBlockBegin
  2
*D12
 70
     1
 10
0.0
 20
0.0
 30
0.0
  3
*D12
  1

  0
LINE
  5
1DC
330
1D9
100
AcDbEntity
  8
DIMENSION
440
 16777216
370
     0
100
AcDbLine
 10
475.3187198980001
 20
46.62514278840002
 30
0.0
 11
485.3187198980001
 21
46.62514278840002
 31
0.0
  0
LINE
  5
1DD
330
1D9
100
AcDbEntity
  8
DIMENSION
440
 16777216
370
     0
100
AcDbLine
 10
475.3187198980001
 20
-20.37485721149997
 30
0.0
 11
485.3187198980001
 21
-20.37485721149997
 31
0.0
  0
LINE
  5
1DE
330
1D9
100
AcDbEntity
  8
DIMENSION
440
 16777216
370
     0
100
AcDbLine
 10
480.3187198980001
 20
46.62514278840002
 30
0.0
 11
480.3187198980001
 21
-20.37485721149997
 31
0.0
  0
MTEXT
  5
1DF
330
1D9
100
AcDbEntity
  8
DIMENSION
 62
     7
440
 16777216
100
AcDbMText
 10
490.9853865646667
 20
22.4927282285
 30
0.0
 40
8.0
 41
0.0
 46
0.0
 71
     2
 72
     1
  1
\A1;67
 73
     1
 44
1.0
  0
POINT
  5
1E0
330
1D9
100
AcDbEntity
  8
Defpoints
 62
     0
440
 16777216
100
AcDbPoint
 10
443.5526917389002
 20
46.62514278840001
 30
0.0
  0
POINT
  5
1E1
330
1D9
100
AcDbEntity
  8
Defpoints
 62
     0
440
 16777216
100
AcDbPoint
 10
248.2526917389001
 20
-20.37485721150001
 30
0.0
  0
POINT
  5
1E2
330
1D9
100
AcDbEntity
  8
Defpoints
 62
     0
440
 16777216
100
AcDbPoint
 10
480.3187198980001
 20
-20.37485721149997
 30
0.0
  0
ENDBLK
  5
1DB
330
1D9
100
AcDbEntity
  8
0
100
AcDbBlockEnd
  0
BLOCK
  5
1E8
330
1E7
100
AcDbEntity
  8
0
100
AcDbBlockBegin
  2
*D13
 70
     1
 10
0.0
 20
0.0
 30
0.0
  3
*D13
  1

  0
LINE
  5
1EA
330
1E7
100
AcDbEntity
  8
DIMENSION
440
 16777216
370
     0
100
AcDbLine
 10
120.3937170093
 20
-40.31047112479999
 30
0.0
 11
120.3937170093
 21
-50.31047112479999
 31
0.0
  0
LINE
  5
1EB
330
1E7
100
AcDbEntity
  8
DIMENSION
440
 16777216
370
     0
100
AcDbLine
 10
145.7937170093
 20
-40.31047112479999
 30
0.0
 11
145.7937170093
 21
-50.31047112479999
 31
0.0
  0
LINE
  5
1EC
330
1E7
100
AcDbEntity
  8
DIMENSION
440
 16777216
370
     0
100
AcDbLine
 10
120.3937170093
 20
-45.31047112479999
 30
0.0
 11
145.7937170093
 21
-45.31047112479999
 31
0.0
  0
MTEXT
  5
1ED
330
1E7
100
AcDbEntity
  8
DIMENSION
 62
     7
440
 16777216
100
AcDbMText
 10
133.0937170093
 20
-49.31047112479999
 30
0.0
 40
8.0
 41
0.0
 46
0.0
 71
     2
 72
     1
  1
\A1;%%c25
 73
     1
 44
1.0
  0
POINT
  5
1EE
330
1E7
100
AcDbEntity
  8
Defpoints
 62
     0
440
 16777216
100
AcDbPoint
 10
120.3937170093
 20
-20.3748572115
 30
0.0
  0
POINT
  5
1EF
330
1E7
100
AcDbEntity
  8
Defpoints
 62
     0
440
 16777216
100
AcDbPoint
 10
145.7937170093
 20
-20.3748572115
 30
0.0
  0
POINT
  5
1F0
330
1E7
100
AcDbEntity
  8
Defpoints
 62
     0
440
 16777216
100
AcDbPoint
 10
145.7937170093
 20
-45.31047112479999
 30
0.0
  0
ENDBLK
  5
1E9
330
1E7
100
AcDbEntity
  8
0
100
AcDbBlockEnd
  0
BLOCK
  5
1F6
330
1F5
100
AcDbEntity
  8
0
100
AcDbBlockBegin
  2
*D14
 70
     1
 10
0.0
 20
0.0
 30
0.0
  3
*D14
  1

  0
LINE
  5
1F8
330
1F5
100
AcDbEntity
  8
DIMENSION
440
 16777216
370
     0
100
AcDbLine
 10
10.7233340062
 20
123.2494541996
 30
0.0
 11
10.7233340062
 21
133.2494541996
 31
0.0
  0
LINE
  5
1F9
330
1F5
100
AcDbEntity
  8
DIMENSION
440
 16777216
370
     0
100
AcDbLine
 10
55.4641000124
 20
123.2494541996
 30
0.0
 11
55.4641000124
 21
133.2494541996
 31
0.0
  0
LINE
  5
1FA
330
1F5
100
AcDbEntity
  8
DIMENSION
440
 16777216
370
     0
100
AcDbLine
 10
10.7233340062
 20
128.2494541996
 30
0.0
 11
55.4641000124
 21
128.2494541996
 31
0.0
  0
MTEXT
  5
1FB
330
1F5
100
AcDbEntity
  8
DIMENSION
 62
     7
440
 16777216
100
AcDbMText
 10
32.4165304477
 20
140.2494541996
 30
0.0
 40
8.0
 41
0.0
 46
0.0
 71
     2
 72
     1
  1
\A1;45
 73
     1
 44
1.0
  0
POINT
  5
1FC
330
1F5
100
AcDbEntity
  8
Defpoints
 62
     0
440
 16777216
100
AcDbPoint
 10
10.7233340062
 20
45.4736375582
 30
0.0
  0
POINT
  5
1FD
330
1F5
100
AcDbEntity
  8
Defpoints
 62
     0
440
 16777216
100
AcDbPoint
 10
55.46410001239999
 20
47.7766480187
 30
0.0
  0
POINT
  5
1FE
330
1F5
100
AcDbEntity
  8
Defpoints
 62
     0
440
 16777216
100
AcDbPoint
 10
55.4641000124
 20
128.2494541996
 30
0.0
  0
ENDBLK
  5
1F7
330
1F5
100
AcDbEntity
  8
0
100
AcDbBlockEnd
  0
BLOCK
  5
204
330
203
100
AcDbEntity
  8
0
100
AcDbBlockBegin
  2
*D15
 70
     1
 10
0.0
 20
0.0
 30
0.0
  3
*D15
  1

  0
LINE
  5
206
330
203
100
AcDbEntity
  8
DIMENSION
440
 16777216
370
     0
100
AcDbLine
 10
-21.90628299070001
 20
6.625142788400002
 30
0.0
 11
-31.90628299070001
 21
6.6251427884
 31
0.0
  0
LINE
  5
207
330
203
100
AcDbEntity
  8
DIMENSION
440
 16777216
370
     0
100
AcDbLine
 10
-21.90628299070003
 20
86.62514278840003
 30
0.0
 11
-31.90628299070003
 21
86.62514278840003
 31
0.0
  0
LINE
  5
208
330
203
100
AcDbEntity
  8
DIMENSION
440
 16777216
370
     0
100
AcDbLine
 10
-26.90628299070001
 20
6.6251427884
 30
0.0
 11
-26.90628299070003
 21
86.62514278840003
 31
0.0
  0
MTEXT
  5
209
330
203
100
AcDbEntity
  8
DIMENSION
 62
     7
440
 16777216
100
AcDbMText
 10
-36.90628299070001
 20
50.6251427884
 30
0.0
 40
8.0
 41
0.0
 46
0.0
 71
     2
 72
     1
  1
\A1;80
 73
     1
 44
1.0
  0
POINT
  5
20A
330
203
100
AcDbEntity
  8
Defpoints
 62
     0
440
 16777216
100
AcDbPoint
 10
-6.906282990700003
 20
6.625142788400004
 30
0.0
  0
POINT
  5
20B
330
203
100
AcDbEntity
  8
Defpoints
 62
     0
440
 16777216
100
AcDbPoint
 10
-6.906282990700003
 20
86.62514278840003
 30
0.0
  0
POINT
  5
20C
330
203
100
AcDbEntity
  8
Defpoints
 62
     0
440
 16777216
100
AcDbPoint
 10
-26.90628299070003
 20
86.62514278840003
 30
0.0
  0
ENDBLK
  5
205
330
203
100
AcDbEntity
  8
0
100
AcDbBlockEnd
  0
BLOCK
  5
212
330
211
100
AcDbEntity
  8
0
100
AcDbBlockBegin
  2
*D16
 70
     1
 10
0.0
 20
0.0
 30
0.0
  3
*D16
  1

  0
LINE
  5
214
330
211
100
AcDbEntity
  8
DIMENSION
440
 16777216
370
     0
100
AcDbLine
 10
-6.906282990699998
 20
402.7828900423
 30
0.0
 11
-6.906282990699997
 21
412.7828900423
 31
0.0
  0
LINE
  5
215
330
211
100
AcDbEntity
  8
DIMENSION
440
 16777216
370
     0
100
AcDbLine
 10
173.0937170093
 20
402.7828900423
 30
0.0
 11
173.0937170093
 21
412.7828900423
 31
0.0
  0
LINE
  5
216
330
211
100
AcDbEntity
  8
DIMENSION
440
 16777216
370
     0
100
AcDbLine
 10
-6.906282990699997
 20
407.7828900423
 30
0.0
 11
173.0937170093
 21
407.7828900423
 31
0.0
  0
MTEXT
  5
217
330
211
100
AcDbEntity
  8
DIMENSION
 62
     7
440
 16777216
100
AcDbMText
 10
79.1914985649
 20
419.7828900423
 30
0.0
 40
8.0
 41
0.0
 46
0.0
 71
     2
 72
     1
  1
\A1;180
 73
     1
 44
1.0
  0
POINT
  5
218
330
211
100
AcDbEntity
  8
Defpoints
 62
     0
440
 16777216
100
AcDbPoint
 10
-6.9062829907
 20
365.0168618832
 30
0.0
  0
POINT
  5
219
330
211
100
AcDbEntity
  8
Defpoints
 62
     0
440
 16777216
100
AcDbPoint
 10
173.0937170093
 20
365.0168618832
 30
0.0
  0
POINT
  5
21A
330
211
100
AcDbEntity
  8
Defpoints
 62
     0
440
 16777216
100
AcDbPoint
 10
173.0937170093
 20
407.7828900423
 30
0.0
  0
ENDBLK
  5
213
330
211
100
AcDbEntity
  8
0
100
AcDbBlockEnd
  0
ENDSEC
  0
SECTION
  2
ENTITIES
  0
LINE
  5
74
330
1F
100
AcDbEntity
  8
DIMENSION
100
AcDbLine
 10
29.4621228137
 20
108.1555803669
 30
0.0
 11
29.1528369072
 21
68.798385425
 31
0.0
  0
LINE
  5
75
330
1F
100
AcDbEntity
  8
DIMENSION
100
AcDbLine
 10
37.15258989880001
 20
68.7355198967
 30
0.0
 11
37.4618758052
 21
108.0927148385
 31
0.0
  0
LINE
  5
76
330
1F
100
AcDbEntity
  8
DIMENSION
100
AcDbLine
 10
145.7937170093
 20
-20.3748572116
 30
0.0
 11
145.7937170093
 21
1.625142788399999
 31
0.0
  0
LINE
  5
77
330
1F
100
AcDbEntity
  8
DIMENSION
100
AcDbLine
 10
120.3937170093
 20
1.625142788399999
 30
0.0
 11
120.3937170093
 21
-20.3748572116
 31
0.0
  0
LINE
  5
78
330
1F
100
AcDbEntity
  8
DIMENSION
100
AcDbLine
 10
120.3937170093
 20
46.62514278839999
 30
0.0
 11
120.3937170093
 21
1.625142788399999
 31
0.0
  0
LINE
  5
79
330
1F
100
AcDbEntity
  8
DIMENSION
100
AcDbLine
 10
145.7937170093
 20
1.625142788399999
 30
0.0
 11
145.7937170093
 21
46.62514278839999
 31
0.0
  0
LINE
  5
7A
330
1F
100
AcDbEntity
  8
DIMENSION
100
AcDbLine
 10
37.4618758052
 20
108.0927148385
 30
0.0
 11
29.4621228137
 21
108.1555803669
 31
0.0
  0
SPLINE
  5
7B
330
1F
100
AcDbEntity
  8
DIMENSION
100
AcDbSpline
210
0.0
220
0.0
230
1.0
 70
     8
 71
     3
 72
    23
 73
    19
 74
     0
 42
0.00000001
 43
0.0000000001
 40
0.0
 40
0.0
 40
0.0
 40
0.0
 40
0.0804721983558894
 40
0.1573118011949995
 40
0.2296707469488858
 40
0.2992147125115781
 40
0.3659263642376579
 40
0.4286489723694882
 40
0.48944727829379
 40
0.5481684700902795
 40
0.6054899825861209
 40
0.6617036583269247
 40
0.71701150970505
 40
0.7722715892311367
 40
0.8277552438288687
 40
0.8837924610122682
 40
0.9413238009823004
 40
1.0
 40
1.0
 40
1.0
 40
1.0
 10
47.0666491859912
 20
45.49366206789907
 30
0.0
 10
47.06684655853645
 20
45.4422631161242
 30
0.0
 10
47.06723239403284
 20
45.3417854126634
 30
0.0
 10
47.08229395713384
 20
45.19574766682654
 30
0.0
 10
47.10496628246001
 20
45.05788009154204
 30
0.0
 10
47.13773329374258
 20
44.92856707262975
 30
0.0
 10
47.18103462081239
 20
44.80900117404547
 30
0.0
 10
47.23070314938828
 20
44.69800964067336
 30
0.0
 10
47.2894465074647
 20
44.59733297366507
 30
0.0
 10
47.35600038144347
 20
44.50589229848417
 30
0.0
 10
47.43050812008564
 20
44.42468793577931
 30
0.0
 10
47.51170709767282
 20
44.35354358399497
 30
0.0
 10
47.59847586688147
 20
44.29146168547706
 30
0.0
 10
47.6921048623471
 20
44.2411123398045
 30
0.0
 10
47.79138377780783
 20
44.20217881880886
 30
0.0
 10
47.89517875902216
 20
44.17194243652054
 30
0.0
 10
48.00413963453256
 20
44.15474027682622
 30
0.0
 10
48.07831430057139
 20
44.15202189926957
 30
0.0
 10
48.11576701237028
 20
44.15064931996957
 30
0.0
  0
SPLINE
  5
7C
330
1F
100
AcDbEntity
  8
DIMENSION
100
AcDbSpline
210
0.0
220
0.0
230
1.0
 70
     8
 71
     3
 72
    23
 73
    19
 74
     0
 42
0.00000001
 43
0.0000000001
 40
0.0
 40
0.0
 40
0.0
 40
0.0
 40
0.0585618637700423
 40
0.1159810993414657
 40
0.1719091235435209
 40
0.227284663820701
 40
0.2824370646800712
 40
0.3376371443042224
 40
0.3933088125766818
 40
0.4505531071341716
 40
0.5092831880175699
 40
0.5699630235998697
 40
0.633083924473632
 40
0.6996655832323857
 40
0.7690740368386324
 40
0.8424215182812295
 40
0.9191113930335244
 40
1.0
 40
1.0
 40
1.0
 40
1.0
 10
48.13349501991478
 20
46.82664897225321
 30
0.0
 10
48.09602540843523
 20
46.82586510590099
 30
0.0
 10
48.02181727277278
 20
46.82431266758339
 30
0.0
 10
47.91259883757011
 20
46.80882591371125
 30
0.0
 10
47.80834394462007
 20
46.78022132155192
 30
0.0
 10
47.70845636709149
 20
46.74286453956173
 30
0.0
 10
47.61408123701263
 20
46.69394954302324
 30
0.0
 10
47.52644973314587
 20
46.63355889043311
 30
0.0
 10
47.44478948295872
 20
46.56328074992361
 30
0.0
 10
47.37032771187486
 20
46.48221656392053
 30
0.0
 10
47.3039794509172
 20
46.39057728983704
 30
0.0
 10
47.24281097468721
 20
46.2908898100091
 30
0.0
 10
47.192118974652
 20
46.17995307460659
 30
0.0
 10
47.14660188706978
 20
46.06089505019024
 30
0.0
 10
47.11155210967797
 20
45.93140221712472
 30
0.0
 10
47.08722359665245
 20
45.79308552684672
 30
0.0
 10
47.06954373873507
 20
45.64625359782134
 30
0.0
 10
47.06763102520656
 20
45.54542147989319
 30
0.0
 10
47.0666491859912
 20
45.49366206789907
 30
0.0
  0
SPLINE
  5
7D
330
1F
100
AcDbEntity
  8
DIMENSION
100
AcDbSpline
210
0.0
220
0.0
230
1.0
 70
     8
 71
     3
 72
    23
 73
    19
 74
     0
 42
0.00000001
 43
0.0000000001
 40
0.0
 40
0.0
 40
0.0
 40
0.0
 40
0.0808923518212693
 40
0.1575857770419909
 40
0.2309366542120927
 40
0.3004974080027412
 40
0.3668867659924509
 40
0.430010589139412
 40
0.49069323398227
 40
0.549426033859519
 40
0.6066729786242373
 40
0.6623472242969218
 40
0.7175498594884202
 40
0.7727048137077821
 40
0.8280829176755144
 40
0.8840135311461626
 40
0.9414354250239611
 40
1.0
 40
1.0
 40
1.0
 40
1.0
 10
49.17926001121669
 20
45.47706025582625
 30
0.0
 10
49.17910503433739
 20
45.52883244021677
 30
0.0
 10
49.17880312505421
 20
45.62968943995353
 30
0.0
 10
49.16324917265462
 20
45.77672944498575
 30
0.0
 10
49.14173292987385
 20
45.91568832929799
 30
0.0
 10
49.10646275966112
 20
46.04505160279006
 30
0.0
 10
49.06496882572979
 20
46.16549598858806
 30
0.0
 10
49.01554168963801
 20
46.27692216221469
 30
0.0
 10
48.95608220437352
 20
46.37760369775935
 30
0.0
 10
48.891147988219
 20
46.47026289578229
 30
0.0
 10
48.81797823723044
 20
46.55249025472899
 30
0.0
 10
48.73743027795114
 20
46.62404231814324
 30
0.0
 10
48.65075928971599
 20
46.6858029204918
 30
0.0
 10
48.55716439801703
 20
46.73619501216448
 30
0.0
 10
48.45787629532773
 20
46.77511701779649
 30
0.0
 10
48.35408381317982
 20
46.80535653243954
 30
0.0
 10
48.24512225812718
 20
46.82255784038882
 30
0.0
 10
48.17094768486721
 20
46.82527633423541
 30
0.0
 10
48.13349501991477
 20
46.82664897225321
 30
0.0
  0
SPLINE
  5
7E
330
1F
100
AcDbEntity
  8
DIMENSION
100
AcDbSpline
210
0.0
220
0.0
230
1.0
 70
     8
 71
     3
 72
    23
 73
    19
 74
     0
 42
0.00000001
 43
0.0000000001
 40
0.0
 40
0.0
 40
0.0
 40
0.0
 40
0.0594091818808761
 40
0.1165254615343495
 40
0.1727131498450052
 40
0.2278092478265176
 40
0.2827092146031998
 40
0.3381655786156302
 40
0.3936638213273869
 40
0.4507481315558307
 40
0.509284967183524
 40
0.5702465287098627
 40
0.6331375595797316
 40
0.6998320641166434
 40
0.7697125411955226
 40
0.8422657851797989
 40
0.9193117177090387
 40
1.0
 40
1.0
 40
1.0
 40
1.0
 10
48.11576701237028
 20
44.15064931996957
 30
0.0
 10
48.15360813945972
 20
44.15138821094747
 30
0.0
 10
48.22782991224766
 20
44.15283747534565
 30
0.0
 10
48.33700047853803
 20
44.16863823439931
 30
0.0
 10
48.44061664695972
 20
44.19687958489781
 30
0.0
 10
48.5397663083455
 20
44.23441766614634
 30
0.0
 10
48.63312131674272
 20
44.28373767156977
 30
0.0
 10
48.72061852692711
 20
44.34332439463054
 30
0.0
 10
48.80083918842148
 20
44.41441299322445
 30
0.0
 10
48.87565263055846
 20
44.49389081081603
 30
0.0
 10
48.94231204962653
 20
44.58469418464257
 30
0.0
 10
49.00268045195676
 20
44.68407297596271
 30
0.0
 10
49.0544788135471
 20
44.79403385224192
 30
0.0
 10
49.09754559880157
 20
44.91360445364711
 30
0.0
 10
49.13457563561651
 20
45.04169404072607
 30
0.0
 10
49.15879240666773
 20
45.17947084857639
 30
0.0
 10
49.17632859945518
 20
45.32520007871304
 30
0.0
 10
49.17826794636297
 20
45.42566688067024
 30
0.0
 10
49.17926001121669
 20
45.47706025582625
 30
0.0
  0
CIRCLE
  5
7F
330
1F
100
AcDbEntity
  8
DIMENSION
100
AcDbCircle
 10
32.97872056
 20
46.6260464804
 30
0.0
 40
22.5
  0
LINE
  5
80
330
1F
100
AcDbEntity
  8
DIMENSION
100
AcDbLine
 10
53.48202604549999
 20
46.8539422194
 30
0.0
 11
53.49412954499999
 21
46.8538471049
 31
0.0
  0
SPLINE
  5
81
330
1F
100
AcDbEntity
  8
DIMENSION
100
AcDbSpline
210
0.0
220
0.0
230
1.0
 70
     8
 71
     3
 72
    15
 73
    11
 74
     0
 42
0.00000001
 43
0.0000000001
 40
0.0
 40
0.0
 40
0.0
 40
0.0
 40
0.1406620814067743
 40
0.2735825955707143
 40
0.3978349303110008
 40
0.5174100269364488
 40
0.6355517334823169
 40
0.7541424502103339
 40
0.8752529519779423
 40
1.0
 40
1.0
 40
1.0
 40
1.0
 10
52.50387127545302
 20
47.28527762781113
 30
0.0
 10
52.55566417565806
 20
47.28381034363711
 30
0.0
 10
52.65639946926752
 20
47.28095652966849
 30
0.0
 10
52.80131371259011
 20
47.25799748967227
 30
0.0
 10
52.93619315684826
 20
47.2248041349471
 30
0.0
 10
53.06037019401426
 20
47.17554127682371
 30
0.0
 10
53.17622460665736
 20
47.11357211471496
 30
0.0
 10
53.28507707171199
 20
47.03917025475936
 30
0.0
 10
53.38906214010336
 20
46.95391970915664
 30
0.0
 10
53.45073400853104
 20
46.887595058027
 30
0.0
 10
53.48202604548067
 20
46.85394221943574
 30
0.0
  0
SPLINE
  5
82
330
1F
100
AcDbEntity
  8
DIMENSION
100
AcDbSpline
210
0.0
220
0.0
230
1.0
 70
     8
 71
     3
 72
    23
 73
    19
 74
     0
 42
0.00000001
 43
0.0000000001
 40
0.0
 40
0.0
 40
0.0
 40
0.0
 40
0.072128015492425
 40
0.1407354964119639
 40
0.2074941853965443
 40
0.2718037641159934
 40
0.3343608138689076
 40
0.3946393862377851
 40
0.4538560204073341
 40
0.5120374926085998
 40
0.5696531500155276
 40
0.6270981097936406
 40
0.6853533795884039
 40
0.7449213742099488
 40
0.8060002990983893
 40
0.8685144095390917
 40
0.9329431772901472
 40
1.0
 40
1.0
 40
1.0
 40
1.0
 10
46.43286593842357
 20
45.49864261152092
 30
0.0
 10
46.43487761027441
 20
45.56618162508045
 30
0.0
 10
46.43880276521753
 20
45.69796310465647
 30
0.0
 10
46.4628784965314
 20
45.89102644610657
 30
0.0
 10
46.50084553072438
 20
46.07438254195863
 30
0.0
 10
46.55596198768688
 20
46.24734647988979
 30
0.0
 10
46.62207529972251
 20
46.40995829826799
 30
0.0
 10
46.70419711268611
 20
46.55961485873951
 30
0.0
 10
46.7943911977681
 20
46.69970400874129
 30
0.0
 10
46.89965681814293
 20
46.82584165478595
 30
0.0
 10
47.01657917617431
 20
46.93868250576495
 30
0.0
 10
47.14480644018482
 20
47.03866990920246
 30
0.0
 10
47.28482929277667
 20
47.12490133139757
 30
0.0
 10
47.4366622547675
 20
47.19652807710452
 30
0.0
 10
47.59926451865267
 20
47.25198363645406
 30
0.0
 10
47.77075905099229
 20
47.29302087267467
 30
0.0
 10
47.95142663695036
 20
47.31561976902186
 30
0.0
 10
48.07456764023836
 20
47.31825006418046
 30
0.0
 10
48.1373687760651
 20
47.31959149813915
 30
0.0
  0
SPLINE
  5
83
330
1F
100
AcDbEntity
  8
DIMENSION
100
AcDbSpline
210
0.0
220
0.0
230
1.0
 70
     8
 71
     3
 72
    23
 73
    19
 74
     0
 42
0.00000001
 43
0.0000000001
 40
0.0
 40
0.0
 40
0.0
 40
0.0
 40
0.0689259380248137
 40
0.1345048193840207
 40
0.197243530756454
 40
0.2583914713274602
 40
0.3178984171544497
 40
0.3758870617734711
 40
0.4335805227698308
 40
0.4911371322525401
 40
0.5489565283686977
 40
0.6077841119696018
 40
0.6676387207414978
 40
0.7299856938908686
 40
0.7940049191260396
 40
0.8602343775033272
 40
0.9287279641338358
 40
1.0
 40
1.0
 40
1.0
 40
1.0
 10
48.11189325621994
 20
43.65770679408361
 30
0.0
 10
48.04724983830116
 20
43.65939107328589
 30
0.0
 10
47.92110209913797
 20
43.66267784277188
 30
0.0
 10
47.73798333226356
 20
43.69079140442946
 30
0.0
 10
47.56489691304659
 20
43.73180092084822
 30
0.0
 10
47.40353657038414
 20
43.79221220771825
 30
0.0
 10
47.25288656324031
 20
43.86587019817721
 30
0.0
 10
47.11355861985353
 20
43.95340065358484
 30
0.0
 10
46.98629039460853
 20
44.05481968979982
 30
0.0
 10
46.87141454846718
 20
44.16976795683049
 30
0.0
 10
46.76795247410065
 20
44.29651946580545
 30
0.0
 10
46.67913077873144
 20
44.43650790439007
 30
0.0
 10
46.60271899022935
 20
44.58827948876368
 30
0.0
 10
46.53933659261454
 20
44.75120983733939
 30
0.0
 10
46.49020351477575
 20
44.92517706720171
 30
0.0
 10
46.45531591571649
 20
45.10839611517335
 30
0.0
 10
46.43612784673749
 20
45.30080510124215
 30
0.0
 10
46.43396755624924
 20
45.43182855455285
 30
0.0
 10
46.43286593842357
 20
45.49864261152092
 30
0.0
  0
SPLINE
  5
84
330
1F
100
AcDbEntity
  8
DIMENSION
100
AcDbSpline
210
0.0
220
0.0
230
1.0
 70
     8
 71
     3
 72
    23
 73
    19
 74
     0
 42
0.00000001
 43
0.0000000001
 40
0.0
 40
0.0
 40
0.0
 40
0.0
 40
0.0715597532156475
 40
0.1403735981310598
 40
0.2069481393777236
 40
0.2714511544609573
 40
0.3341963691571694
 40
0.3944734224866243
 40
0.4537537080618528
 40
0.5118065147042726
 40
0.5695954738725819
 40
0.6272132219717892
 40
0.6854359603546155
 40
0.7448294123432061
 40
0.8058547401284153
 40
0.8680824061965626
 40
0.9327586931201979
 40
1.0
 40
1.0
 40
1.0
 40
1.0
 10
49.81304325878434
 20
45.4720797122044
 30
0.0
 10
49.81100364805111
 20
45.40527794553952
 30
0.0
 10
49.80700269102513
 20
45.27423774588981
 30
0.0
 10
49.78319408203788
 20
45.08222908266725
 30
0.0
 10
49.74488061412401
 20
44.89933087152528
 30
0.0
 10
49.69011358890867
 20
44.72660346658758
 30
0.0
 10
49.62347910629146
 20
44.56447328364708
 30
0.0
 10
49.54352773495362
 20
44.41391407837275
 30
0.0
 10
49.45131241207835
 20
44.27574959678796
 30
0.0
 10
49.34605798528577
 20
44.15022923610682
 30
0.0
 10
49.22933625151589
 20
44.03760206971447
 30
0.0
 10
49.10148057092659
 20
43.93738658800289
 30
0.0
 10
48.96103964487544
 20
43.85280018956684
 30
0.0
 10
48.81023535408326
 20
43.78108910118105
 30
0.0
 10
48.64931423204511
 20
43.72347437222178
 30
0.0
 10
48.47785656937497
 20
43.68505940766921
 30
0.0
 10
48.29798128957167
 20
43.65980662784917
 30
0.0
 10
48.17472149294116
 20
43.65841575344292
 30
0.0
 10
48.11189325621994
 20
43.65770679408361
 30
0.0
  0
SPLINE
  5
85
330
1F
100
AcDbEntity
  8
DIMENSION
100
AcDbSpline
210
0.0
220
0.0
230
1.0
 70
     8
 71
     3
 72
    23
 73
    19
 74
     0
 42
0.00000001
 43
0.0000000001
 40
0.0
 40
0.0
 40
0.0
 40
0.0
 40
0.068485864322071
 40
0.133561736711421
 40
0.1967114785785975
 40
0.2576692172236431
 40
0.3171190234273666
 40
0.3755902985068539
 40
0.4329212821648855
 40
0.490144198527031
 40
0.5479636112800814
 40
0.6070627541634847
 40
0.6668598894799979
 40
0.7290032888898498
 40
0.7929610417311539
 40
0.8595872752943785
 40
0.9280150931699667
 40
1.0
 40
1.0
 40
1.0
 40
1.0
 10
48.1373687760651
 20
47.31959149813915
 30
0.0
 10
48.20161060764153
 20
47.31728363693904
 30
0.0
 10
48.32689559425597
 20
47.31278282566903
 30
0.0
 10
48.51007822038856
 20
47.28715261524985
 30
0.0
 10
48.68250227427312
 20
47.24383163007846
 30
0.0
 10
48.84487914951942
 20
47.18547680277075
 30
0.0
 10
48.99571522299589
 20
47.11114710987565
 30
0.0
 10
49.13512326119603
 20
47.0233477651664
 30
0.0
 10
49.26183526049811
 20
46.92130596353282
 30
0.0
 10
49.37606415060999
 20
46.80637394524949
 30
0.0
 10
49.47794112356737
 20
46.67820343473687
 30
0.0
 10
49.56649874202622
 20
46.53772123661921
 30
0.0
 10
49.64349644474457
 20
46.38600113873939
 30
0.0
 10
49.70524929386566
 20
46.22256635000636
 30
0.0
 10
49.754544854278
 20
46.04841896283037
 30
0.0
 10
49.79084480485415
 20
45.86500578702778
 30
0.0
 10
49.80980234543371
 20
45.67137432709921
 30
0.0
 10
49.81194486214072
 20
45.53962380006078
 30
0.0
 10
49.81304325878434
 20
45.4720797122044
 30
0.0
  0
SPLINE
  5
86
330
1F
100
AcDbEntity
  8
DIMENSION
100
AcDbSpline
210
0.0
220
0.0
230
1.0
 70
     8
 71
     3
 72
    11
 73
     7
 74
     0
 42
0.00000001
 43
0.0000000001
 40
0.0
 40
0.0
 40
0.0
 40
0.0
 40
0.2431246859882109
 40
0.5013956607332304
 40
0.7593370488412802
 40
1.0
 40
1.0
 40
1.0
 40
1.0
 10
21.07259631904841
 20
44.73769861984163
 30
0.0
 10
21.11189636334581
 20
44.7381665218316
 30
0.0
 10
21.1929447834075
 20
44.73913147537575
 30
0.0
 10
21.31484127196141
 20
44.75394104129786
 30
0.0
 10
21.43586885899315
 20
44.77194913912754
 30
0.0
 10
21.51403396218422
 20
44.79158093602292
 30
0.0
 10
21.55176216254295
 20
44.80105667822032
 30
0.0
  0
SPLINE
  5
87
330
1F
100
AcDbEntity
  8
DIMENSION
100
AcDbSpline
210
0.0
220
0.0
230
1.0
 70
     8
 71
     3
 72
    15
 73
    11
 74
     0
 42
0.00000001
 43
0.0000000001
 40
0.0
 40
0.0
 40
0.0
 40
0.0
 40
0.1219221137340528
 40
0.2376444387388081
 40
0.3494820411665363
 40
0.4587494149878979
 40
0.5732259643910427
 40
0.6973932157486651
 40
0.8378742972905545
 40
1.0
 40
1.0
 40
1.0
 40
1.0
 10
20.44874181205755
 20
45.30599881630467
 30
0.0
 10
20.45006121156487
 20
45.26695891445728
 30
0.0
 10
20.45263291858168
 20
45.19086430554015
 30
0.0
 10
20.47835989544638
 20
45.08128764950565
 30
0.0
 10
20.52342930959031
 20
44.98247602373917
 30
0.0
 10
20.59127374614697
 20
44.89793531604514
 30
0.0
 10
20.67986070934814
 20
44.82904015551404
 30
0.0
 10
20.79037042960409
 20
44.77717541193481
 30
0.0
 10
20.92382135512573
 20
44.74408093670407
 30
0.0
 10
21.02069496450943
 20
44.7399251429173
 30
0.0
 10
21.07259631904841
 20
44.73769861984163
 30
0.0
  0
LINE
  5
88
330
1F
100
AcDbEntity
  8
DIMENSION
100
AcDbLine
 10
20.4647902304
 20
47.3481892807
 30
0.0
 11
20.4487418121
 21
45.3059988163
 31
0.0
  0
LINE
  5
89
330
1F
100
AcDbEntity
  8
DIMENSION
100
AcDbLine
 10
21.523869081
 20
47.83283954729999
 30
0.0
 11
21.5199953249
 21
47.3398970214
 31
0.0
  0
LINE
  5
8A
330
1F
100
AcDbEntity
  8
DIMENSION
100
AcDbLine
 10
20.4686639865
 20
47.84113180659999
 30
0.0
 11
21.523869081
 21
47.83283954729999
 31
0.0
  0
LINE
  5
8B
330
1F
100
AcDbEntity
  8
DIMENSION
100
AcDbLine
 10
20.4764114988
 20
48.82701685829999
 30
0.0
 11
20.4686639865
 21
47.84113180659999
 31
0.0
  0
LINE
  5
8C
330
1F
100
AcDbEntity
  8
DIMENSION
100
AcDbLine
 10
19.8426282513
 20
48.831997402
 30
0.0
 11
20.4764114988
 21
48.82701685829999
 31
0.0
  0
LINE
  5
8D
330
1F
100
AcDbEntity
  8
DIMENSION
100
AcDbLine
 10
19.834880739
 20
47.8461123502
 30
0.0
 11
19.8426282513
 21
48.831997402
 31
0.0
  0
LINE
  5
8E
330
1F
100
AcDbEntity
  8
DIMENSION
100
AcDbLine
 10
19.1559844477
 20
47.85144741169999
 30
0.0
 11
19.834880739
 21
47.8461123502
 31
0.0
  0
LINE
  5
8F
330
1F
100
AcDbEntity
  8
DIMENSION
100
AcDbLine
 10
19.1521106916
 20
47.3585048858
 30
0.0
 11
19.1559844477
 21
47.85144741169999
 31
0.0
  0
LINE
  5
90
330
1F
100
AcDbEntity
  8
DIMENSION
100
AcDbLine
 10
19.8310069828
 20
47.3531698243
 30
0.0
 11
19.1521106916
 21
47.3585048858
 31
0.0
  0
LINE
  5
91
330
1F
100
AcDbEntity
  8
DIMENSION
100
AcDbLine
 10
19.8142927627
 20
45.22625486329999
 30
0.0
 11
19.8310069828
 21
47.3531698243
 31
0.0
  0
SPLINE
  5
92
330
1F
100
AcDbEntity
  8
DIMENSION
100
AcDbSpline
210
0.0
220
0.0
230
1.0
 70
     8
 71
     3
 72
    23
 73
    19
 74
     0
 42
0.00000001
 43
0.0000000001
 40
0.0
 40
0.0
 40
0.0
 40
0.0
 40
0.079380523592186
 40
0.1545395644724404
 40
0.2253871386532717
 40
0.292822765885339
 40
0.3566936781704224
 40
0.4181477251472136
 40
0.4772233781990683
 40
0.5356652945315962
 40
0.5922296040748778
 40
0.6476458271684336
 40
0.7033017862925509
 40
0.7598477039284875
 40
0.8171682592709995
 40
0.8755246820802474
 40
0.9367345128694783
 40
1.0
 40
1.0
 40
1.0
 40
1.0
 10
20.95759043094612
 20
44.24562941844492
 30
0.0
 10
20.91246681704781
 20
44.24692814973163
 30
0.0
 10
20.82461927808357
 20
44.24945654534218
 30
0.0
 10
20.6968651254118
 20
44.2618149234855
 30
0.0
 10
20.57766243661585
 20
44.28537646744127
 30
0.0
 10
20.46657802536314
 20
44.31542146855718
 30
0.0
 10
20.36379896151813
 20
44.35393084756112
 30
0.0
 10
20.26909223247386
 20
44.39940444901445
 30
0.0
 10
20.18291340416473
 20
44.45384095963472
 30
0.0
 10
20.10411598533479
 20
44.51412070904184
 30
0.0
 10
20.03530943081508
 20
44.58262161189788
 30
0.0
 10
19.97396403405213
 20
44.65590145485564
 30
0.0
 10
19.92430964513744
 20
44.73759034148188
 30
0.0
 10
19.882825148273
 20
44.82480898372746
 30
0.0
 10
19.85203804197549
 20
44.91801252737479
 30
0.0
 10
19.82951286136642
 20
45.01613940002317
 30
0.0
 10
19.81561406817886
 20
45.11942766445678
 30
0.0
 10
19.81473802034505
 20
45.19025589774184
 30
0.0
 10
19.81429276265157
 20
45.22625486328987
 30
0.0
  0
SPLINE
  5
93
330
1F
100
AcDbEntity
  8
DIMENSION
100
AcDbSpline
210
0.0
220
0.0
230
1.0
 70
     8
 71
     3
 72
    15
 73
    11
 74
     0
 42
0.00000001
 43
0.0000000001
 40
0.0
 40
0.0
 40
0.0
 40
0.0
 40
0.0738991566691371
 40
0.1631543021465415
 40
0.2685345511545115
 40
0.3901568816381015
 40
0.5241754556757185
 40
0.6702803767696474
 40
0.8287892265012045
 40
1.0
 40
1.0
 40
1.0
 40
1.0
 10
21.54801810804946
 20
44.32461892440643
 30
0.0
 10
21.53411593436092
 20
44.31971519055323
 30
0.0
 10
21.50342276344114
 20
44.30888874393605
 30
0.0
 10
21.451156328064
 20
44.29697140380682
 30
0.0
 10
21.38944707933076
 20
44.28416411768138
 30
0.0
 10
21.31853875180668
 20
44.27179112389557
 30
0.0
 10
21.23932184246282
 20
44.25988733711824
 30
0.0
 10
21.15218723713165
 20
44.25207733354493
 30
0.0
 10
21.05742853550555
 20
44.24758402536079
 30
0.0
 10
20.99171365289049
 20
44.24629747485384
 30
0.0
 10
20.95759043094612
 20
44.24562941844492
 30
0.0
  0
LINE
  5
94
330
1F
100
AcDbEntity
  8
DIMENSION
100
AcDbLine
 10
11.9523795572
 20
49.3869753656
 30
0.0
 11
12.5861628047
 21
49.38199482199999
 31
0.0
  0
LINE
  5
95
330
1F
100
AcDbEntity
  8
DIMENSION
100
AcDbLine
 10
11.9130886019
 20
44.3871297459
 30
0.0
 11
11.9523795572
 21
49.3869753656
 31
0.0
  0
LINE
  5
96
330
1F
100
AcDbEntity
  8
DIMENSION
100
AcDbLine
 10
12.5468718495
 20
44.38214920229999
 30
0.0
 11
11.9130886019
 21
44.3871297459
 31
0.0
  0
LINE
  5
97
330
1F
100
AcDbEntity
  8
DIMENSION
100
AcDbLine
 10
12.564580449
 20
46.6356007492
 30
0.0
 11
12.5468718495
 21
44.38214920229999
 31
0.0
  0
LINE
  5
98
330
1F
100
AcDbEntity
  8
DIMENSION
100
AcDbLine
 10
15.0997134393
 20
46.6156785747
 30
0.0
 11
12.564580449
 21
46.6356007492
 31
0.0
  0
LINE
  5
99
330
1F
100
AcDbEntity
  8
DIMENSION
100
AcDbLine
 10
15.0820048398
 20
44.36222702779999
 30
0.0
 11
15.0997134393
 21
46.6156785747
 31
0.0
  0
LINE
  5
9A
330
1F
100
AcDbEntity
  8
DIMENSION
100
AcDbLine
 10
15.7157880873
 20
44.35724648419999
 30
0.0
 11
15.0820048398
 21
44.36222702779999
 31
0.0
  0
LINE
  5
9B
330
1F
100
AcDbEntity
  8
DIMENSION
100
AcDbLine
 10
15.7550790426
 20
49.3570921039
 30
0.0
 11
15.7157880873
 21
44.35724648419999
 31
0.0
  0
LINE
  5
9C
330
1F
100
AcDbEntity
  8
DIMENSION
100
AcDbLine
 10
15.121295795
 20
49.3620726475
 30
0.0
 11
15.7550790426
 21
49.3570921039
 31
0.0
  0
LINE
  5
9D
330
1F
100
AcDbEntity
  8
DIMENSION
100
AcDbLine
 10
15.1041405892
 20
47.1790414615
 30
0.0
 11
15.121295795
 21
49.3620726475
 31
0.0
  0
LINE
  5
9E
330
1F
100
AcDbEntity
  8
DIMENSION
100
AcDbLine
 10
12.5690075989
 20
47.1989636359
 30
0.0
 11
15.1041405892
 21
47.1790414615
 31
0.0
  0
SPLINE
  5
9F
330
1F
100
AcDbEntity
  8
DIMENSION
100
AcDbSpline
210
0.0
220
0.0
230
1.0
 70
     8
 71
     3
 72
    23
 73
    19
 74
     0
 42
0.00000001
 43
0.0000000001
 40
0.0
 40
0.0
 40
0.0
 40
0.0
 40
0.072128015492425
 40
0.140735496411964
 40
0.2074941853965444
 40
0.2718037641159937
 40
0.3343608138689076
 40
0.394639386237785
 40
0.453856020407334
 40
0.5120374926085995
 40
0.5696531500155272
 40
0.6270981097936412
 40
0.6853533795884034
 40
0.7449213742099495
 40
0.8060002990983894
 40
0.8685144095390919
 40
0.9329431772901472
 40
1.0
 40
1.0
 40
1.0
 40
1.0
 10
16.05000963222442
 20
46.11193660931143
 30
0.0
 10
16.05202130407526
 20
46.17947562287096
 30
0.0
 10
16.05594645901837
 20
46.31125710244697
 30
0.0
 10
16.08002219033228
 20
46.50432044389709
 30
0.0
 10
16.11798922452526
 20
46.68767653974914
 30
0.0
 10
16.17310568148775
 20
46.86064047768031
 30
0.0
 10
16.23921899352337
 20
47.0232522960585
 30
0.0
 10
16.32134080648698
 20
47.17290885653003
 30
0.0
 10
16.41153489156893
 20
47.31299800653181
 30
0.0
 10
16.51680051194379
 20
47.43913565257646
 30
0.0
 10
16.63372286997519
 20
47.55197650355547
 30
0.0
 10
16.76195013398565
 20
47.65196390699299
 30
0.0
 10
16.90197298657753
 20
47.73819532918809
 30
0.0
 10
17.05380594856837
 20
47.80982207489503
 30
0.0
 10
17.21640821245352
 20
47.86527763424458
 30
0.0
 10
17.38790274479316
 20
47.9063148704652
 30
0.0
 10
17.56857033075124
 20
47.92891376681238
 30
0.0
 10
17.69171133403921
 20
47.93154406197096
 30
0.0
 10
17.75451246986595
 20
47.93288549592968
 30
0.0
  0
SPLINE
  5
A0
330
1F
100
AcDbEntity
  8
DIMENSION
100
AcDbSpline
210
0.0
220
0.0
230
1.0
 70
     8
 71
     3
 72
    23
 73
    19
 74
     0
 42
0.00000001
 43
0.0000000001
 40
0.0
 40
0.0
 40
0.0
 40
0.0
 40
0.0689259380248138
 40
0.1345048193840208
 40
0.1972435307564535
 40
0.2583914713274603
 40
0.3178984171544494
 40
0.3758870617734711
 40
0.4335805227698304
 40
0.4911371322525401
 40
0.5489565283686983
 40
0.6077841119696016
 40
0.6676387207414979
 40
0.7299856938908686
 40
0.7940049191260396
 40
0.8602343775033272
 40
0.9287279641338358
 40
1.0
 40
1.0
 40
1.0
 40
1.0
 10
17.72903695002082
 20
44.27100079187414
 30
0.0
 10
17.66439353210203
 20
44.2726850710764
 30
0.0
 10
17.53824579293883
 20
44.2759718405624
 30
0.0
 10
17.35512702606443
 20
44.30408540221997
 30
0.0
 10
17.18204060684747
 20
44.34509491863875
 30
0.0
 10
17.02068026418501
 20
44.40550620550878
 30
0.0
 10
16.87003025704118
 20
44.47916419596771
 30
0.0
 10
16.73070231365439
 20
44.56669465137536
 30
0.0
 10
16.60343408840939
 20
44.66811368759033
 30
0.0
 10
16.48855824226805
 20
44.78306195462099
 30
0.0
 10
16.38509616790152
 20
44.90981346359595
 30
0.0
 10
16.29627447253232
 20
45.04980190218059
 30
0.0
 10
16.21986268403022
 20
45.2015734865542
 30
0.0
 10
16.15648028641542
 20
45.3645038351299
 30
0.0
 10
16.10734720857662
 20
45.53847106499224
 30
0.0
 10
16.07245960951736
 20
45.72169011296387
 30
0.0
 10
16.05327154053834
 20
45.91409909903266
 30
0.0
 10
16.0511112500501
 20
46.04512255234337
 30
0.0
 10
16.05000963222442
 20
46.11193660931143
 30
0.0
  0
SPLINE
  5
A1
330
1F
100
AcDbEntity
  8
DIMENSION
100
AcDbSpline
210
0.0
220
0.0
230
1.0
 70
     8
 71
     3
 72
    23
 73
    19
 74
     0
 42
0.00000001
 43
0.0000000001
 40
0.0
 40
0.0
 40
0.0
 40
0.0
 40
0.0715597532156475
 40
0.1403735981310598
 40
0.2069481393777236
 40
0.2714511544609573
 40
0.3341963691571694
 40
0.3944734224866243
 40
0.4537537080618528
 40
0.5118065147042722
 40
0.5695954738725821
 40
0.6272132219717899
 40
0.6854359603546156
 40
0.7448294123432057
 40
0.805854740128416
 40
0.8680824061965628
 40
0.9327586931201979
 40
1.0
 40
1.0
 40
1.0
 40
1.0
 10
19.43018695258519
 20
46.08537370999492
 30
0.0
 10
19.42814734185197
 20
46.01857194333002
 30
0.0
 10
19.42414638482598
 20
45.88753174368032
 30
0.0
 10
19.40033777583877
 20
45.69552308045778
 30
0.0
 10
19.36202430792486
 20
45.51262486931578
 30
0.0
 10
19.30725728270954
 20
45.3398974643781
 30
0.0
 10
19.24062280009234
 20
45.17776728143759
 30
0.0
 10
19.16067142875447
 20
45.02720807616325
 30
0.0
 10
19.06845610587923
 20
44.88904359457849
 30
0.0
 10
18.96320167908663
 20
44.76352323389735
 30
0.0
 10
18.84647994531677
 20
44.65089606750498
 30
0.0
 10
18.71862426472745
 20
44.5506805857934
 30
0.0
 10
18.57818333867631
 20
44.46609418735735
 30
0.0
 10
18.42737904788412
 20
44.39438309897156
 30
0.0
 10
18.26645792584599
 20
44.33676837001229
 30
0.0
 10
18.09500026317584
 20
44.29835340545973
 30
0.0
 10
17.91512498337255
 20
44.27310062563968
 30
0.0
 10
17.79186518674203
 20
44.27170975123342
 30
0.0
 10
17.72903695002082
 20
44.27100079187414
 30
0.0
  0
SPLINE
  5
A2
330
1F
100
AcDbEntity
  8
DIMENSION
100
AcDbSpline
210
0.0
220
0.0
230
1.0
 70
     8
 71
     3
 72
    23
 73
    19
 74
     0
 42
0.00000001
 43
0.0000000001
 40
0.0
 40
0.0
 40
0.0
 40
0.0
 40
0.068485864322071
 40
0.133561736711421
 40
0.1967114785785981
 40
0.2576692172236431
 40
0.3171190234273666
 40
0.3755902985068539
 40
0.4329212821648861
 40
0.4901441985270311
 40
0.547963611280081
 40
0.6070627541634844
 40
0.6668598894799979
 40
0.7290032888898498
 40
0.7929610417311539
 40
0.8595872752943785
 40
0.9280150931699667
 40
1.0
 40
1.0
 40
1.0
 40
1.0
 10
17.75451246986595
 20
47.93288549592968
 30
0.0
 10
17.81875430144239
 20
47.93057763472956
 30
0.0
 10
17.94403928805685
 20
47.92607682345955
 30
0.0
 10
18.12722191418942
 20
47.90044661304034
 30
0.0
 10
18.29964596807399
 20
47.85712562786899
 30
0.0
 10
18.46202284332027
 20
47.79877080056127
 30
0.0
 10
18.61285891679673
 20
47.72444110766616
 30
0.0
 10
18.75226695499688
 20
47.63664176295693
 30
0.0
 10
18.87897895429899
 20
47.53459996132334
 30
0.0
 10
18.99320784441086
 20
47.41966794304
 30
0.0
 10
19.09508481736824
 20
47.29149743252738
 30
0.0
 10
19.18364243582707
 20
47.15101523440972
 30
0.0
 10
19.26064013854542
 20
46.99929513652992
 30
0.0
 10
19.32239298766653
 20
46.83586034779688
 30
0.0
 10
19.37168854807886
 20
46.66171296062088
 30
0.0
 10
19.40798849865502
 20
46.47829978481829
 30
0.0
 10
19.42694603923456
 20
46.28466832488973
 30
0.0
 10
19.42908855594157
 20
46.15291779785128
 30
0.0
 10
19.43018695258519
 20
46.08537370999492
 30
0.0
  0
LINE
  5
A3
330
1F
100
AcDbEntity
  8
DIMENSION
100
AcDbLine
 10
46.27794597989999
 20
48.63706077739999
 30
0.0
 11
46.27379552679999
 21
48.10890807109999
 31
0.0
  0
SPLINE
  5
A4
330
1F
100
AcDbEntity
  8
DIMENSION
100
AcDbSpline
210
0.0
220
0.0
230
1.0
 70
     8
 71
     3
 72
    15
 73
    11
 74
     0
 42
0.00000001
 43
0.0000000001
 40
0.0
 40
0.0
 40
0.0
 40
0.0
 40
0.1423315775171936
 40
0.2838434742916131
 40
0.422897485454295
 40
0.555370650247617
 40
0.6816550941453659
 40
0.7998415822546904
 40
0.9070207609353133
 40
1.0
 40
1.0
 40
1.0
 40
1.0
 10
45.22522468785505
 20
48.82139529196363
 30
0.0
 10
45.27620646524685
 20
48.82022352347665
 30
0.0
 10
45.37787641841453
 20
48.81788673466135
 30
0.0
 10
45.52919386927442
 20
48.80855360922854
 30
0.0
 10
45.67608326278885
 20
48.79016334156006
 30
0.0
 10
45.8170396267212
 20
48.76884351585069
 30
0.0
 10
45.9493509464828
 20
48.74141599248766
 30
0.0
 10
46.07140886036188
 20
48.71006668006963
 30
0.0
 10
46.18037780048143
 20
48.67601133483642
 30
0.0
 10
46.24699869326486
 20
48.64941535929458
 30
0.0
 10
46.27794597985211
 20
48.63706077737933
 30
0.0
  0
SPLINE
  5
A5
330
1F
100
AcDbEntity
  8
DIMENSION
100
AcDbSpline
210
0.0
220
0.0
230
1.0
 70
     8
 71
     3
 72
    23
 73
    19
 74
     0
 42
0.00000001
 43
0.0000000001
 40
0.0
 40
0.0
 40
0.0
 40
0.0
 40
0.0687097108412403
 40
0.1351808885939084
 40
0.1995730988927699
 40
0.2627789683321881
 40
0.3243472305287308
 40
0.3841108409489421
 40
0.4429447017408952
 40
0.5011302441377984
 40
0.5591487310744463
 40
0.6174953465347758
 40
0.6765991027182301
 40
0.7374279965145526
 40
0.7999492749265916
 40
0.8639060915258539
 40
0.9304786558206107
 40
1.0
 40
1.0
 40
1.0
 40
1.0
 10
42.66719932365702
 20
46.20827345544037
 30
0.0
 10
42.66994699465775
 20
46.30262510488557
 30
0.0
 10
42.67535281870935
 20
46.48825446725872
 30
0.0
 10
42.71180571185914
 20
46.76025146076909
 30
0.0
 10
42.76670748816672
 20
47.02131611685245
 30
0.0
 10
42.84632009201402
 20
47.26895873317064
 30
0.0
 10
42.94411930438379
 20
47.5030686615018
 30
0.0
 10
43.06322648796554
 20
47.72041396773228
 30
0.0
 10
43.2016313626904
 20
47.92031423104304
 30
0.0
 10
43.35869356877979
 20
48.10283964568967
 30
0.0
 10
43.53484687420567
 20
48.2660708448191
 30
0.0
 10
43.72846153705728
 20
48.4101157872634
 30
0.0
 10
43.93878407537092
 20
48.53618682098692
 30
0.0
 10
44.16683538100756
 20
48.64098252479148
 30
0.0
 10
44.4108000879361
 20
48.7238286845336
 30
0.0
 10
44.66975975189748
 20
48.78215997356432
 30
0.0
 10
44.9427820353937
 20
48.8170433388155
 30
0.0
 10
45.12972694340613
 20
48.81992383676388
 30
0.0
 10
45.22522468785505
 20
48.82139529196363
 30
0.0
  0
SPLINE
  5
A6
330
1F
100
AcDbEntity
  8
DIMENSION
100
AcDbSpline
210
0.0
220
0.0
230
1.0
 70
     8
 71
     3
 72
    23
 73
    19
 74
     0
 42
0.00000001
 43
0.0000000001
 40
0.0
 40
0.0
 40
0.0
 40
0.0
 40
0.0740327257760206
 40
0.144134690401747
 40
0.2105391435802379
 40
0.274342741734466
 40
0.3352202689339304
 40
0.3938136390510125
 40
0.4510391269193443
 40
0.5074795246104486
 40
0.5636953570653255
 40
0.6198813526872505
 40
0.6777630246256303
 40
0.7371866715393594
 40
0.7986879461420696
 40
0.862603428442984
 40
0.9297546604265216
 40
1.0
 40
1.0
 40
1.0
 40
1.0
 10
45.20793362604542
 20
43.68052736826206
 30
0.0
 10
45.10737027506867
 20
43.68341978811129
 30
0.0
 10
44.9115829755081
 20
43.68905105502888
 30
0.0
 10
44.62719635143479
 20
43.72327245754464
 30
0.0
 10
44.36051984848535
 20
43.77901350848006
 30
0.0
 10
44.11228189878506
 20
43.85646202580129
 30
0.0
 10
43.88313139787086
 20
43.95469886173091
 30
0.0
 10
43.67179756188331
 20
44.06945120097438
 30
0.0
 10
43.48045996944472
 20
44.20506881233461
 30
0.0
 10
43.30763837328731
 20
44.35875724858791
 30
0.0
 10
43.15566011958821
 20
44.53126987771771
 30
0.0
 10
43.02349952900301
 20
44.72173685548368
 30
0.0
 10
42.91226786597888
 20
44.93004180995481
 30
0.0
 10
42.82008944843768
 20
45.15520495542317
 30
0.0
 10
42.7495621917124
 20
45.39666750070781
 30
0.0
 10
42.70068871233718
 20
45.653905222873
 30
0.0
 10
42.66973158933708
 20
45.92605783491272
 30
0.0
 10
42.66805599012487
 20
46.11279980087337
 30
0.0
 10
42.66719932365702
 20
46.20827345544037
 30
0.0
  0
SPLINE
  5
A7
330
1F
100
AcDbEntity
  8
DIMENSION
100
AcDbSpline
210
0.0
220
0.0
230
1.0
 70
     8
 71
     3
 72
    13
 73
     9
 74
     0
 42
0.00000001
 43
0.0000000001
 40
0.0
 40
0.0
 40
0.0
 40
0.0
 40
0.1071000510768192
 40
0.2214360250168713
 40
0.3412127204404861
 40
0.4688669775369002
 40
0.7318493900194238
 40
1.0
 40
1.0
 40
1.0
 40
1.0
 10
46.31073556666121
 20
43.84792284646581
 30
0.0
 10
46.27300073590041
 20
43.83456052031174
 30
0.0
 10
46.19498162345049
 20
43.80693307887935
 30
0.0
 10
46.07186586185886
 20
43.77336063267767
 30
0.0
 10
45.93971547237629
 20
43.74466121551468
 30
0.0
 10
45.7516353571136
 20
43.71292404378983
 30
0.0
 10
45.5067716299376
 20
43.68367044250963
 30
0.0
 10
45.30819039320086
 20
43.68158183408931
 30
0.0
 10
45.20793362604542
 20
43.68052736826206
 30
0.0
  0
LINE
  5
A8
330
1F
100
AcDbEntity
  8
DIMENSION
100
AcDbLine
 10
46.31488601970001
 20
44.37607555279999
 30
0.0
 11
46.3107355667
 21
43.84792284649999
 31
0.0
  0
SPLINE
  5
A9
330
1F
100
AcDbEntity
  8
DIMENSION
100
AcDbSpline
210
0.0
220
0.0
230
1.0
 70
     8
 71
     3
 72
    15
 73
    11
 74
     0
 42
0.00000001
 43
0.0000000001
 40
0.0
 40
0.0
 40
0.0
 40
0.0
 40
0.1198117906657701
 40
0.2461307575915146
 40
0.3778821832116048
 40
0.5101883714326533
 40
0.6418944912170625
 40
0.7700047010318417
 40
0.8913597853353479
 40
1.0
 40
1.0
 40
1.0
 40
1.0
 10
45.26957731911468
 20
44.24344062257854
 30
0.0
 10
45.31177842862034
 20
44.24334190643157
 30
0.0
 10
45.39847265959804
 20
44.2431391127006
 30
0.0
 10
45.53125308623111
 20
44.25256219052152
 30
0.0
 10
45.668389966805
 20
44.26214808957641
 30
0.0
 10
45.8066907662319
 20
44.27958863531331
 30
0.0
 10
45.9434354901079
 20
44.29874754095167
 30
0.0
 10
46.07560229967279
 20
44.3221370097516
 30
0.0
 10
46.19944859518539
 20
44.34610976344943
 30
0.0
 10
46.27785166837107
 20
44.36646200176067
 30
0.0
 10
46.31488601967943
 20
44.37607555277217
 30
0.0
  0
SPLINE
  5
AA
330
1F
100
AcDbEntity
  8
DIMENSION
100
AcDbSpline
210
0.0
220
0.0
230
1.0
 70
     8
 71
     3
 72
    23
 73
    19
 74
     0
 42
0.00000001
 43
0.0000000001
 40
0.0
 40
0.0
 40
0.0
 40
0.0
 40
0.0764027299364397
 40
0.1483977005062266
 40
0.2158173386337584
 40
0.2796269113447105
 40
0.3404189556625125
 40
0.3990847144190867
 40
0.4558835196114522
 40
0.5118535488145956
 40
0.5675456502575761
 40
0.6236987833624735
 40
0.6813299797492844
 40
0.7403668968589903
 40
0.8016361476632559
 40
0.8652002007165874
 40
0.9312054806362487
 40
1.0
 40
1.0
 40
1.0
 40
1.0
 10
43.30115550676707
 20
46.22529927458129
 30
0.0
 10
43.30210987038538
 20
46.14415505074298
 30
0.0
 10
43.3039635393121
 20
45.98654790454566
 30
0.0
 10
43.32876183655573
 20
45.75839704107869
 30
0.0
 10
43.37057389388109
 20
45.54643515596899
 30
0.0
 10
43.43064525672592
 20
45.35120219471778
 30
0.0
 10
43.50779129416168
 20
45.17219054324668
 30
0.0
 10
43.6000245448577
 20
45.00891911038777
 30
0.0
 10
43.70760403207581
 20
44.86163452228374
 30
0.0
 10
43.82906443253351
 20
44.72974654082059
 30
0.0
 10
43.96590154300702
 20
44.61497542774394
 30
0.0
 10
44.11592771240517
 20
44.51502058572284
 30
0.0
 10
44.27961962397532
 20
44.43120592646183
 30
0.0
 10
44.45657365585138
 20
44.36426629493422
 30
0.0
 10
44.64458846699089
 20
44.31080823947624
 30
0.0
 10
44.84399872625647
 20
44.27381027261688
 30
0.0
 10
45.05342984149261
 20
44.24953419311628
 30
0.0
 10
45.19654108738925
 20
44.24549964003611
 30
0.0
 10
45.26957731911468
 20
44.24344062257854
 30
0.0
  0
SPLINE
  5
AB
330
1F
100
AcDbEntity
  8
DIMENSION
100
AcDbSpline
210
0.0
220
0.0
230
1.0
 70
     8
 71
     3
 72
    23
 73
    19
 74
     0
 42
0.00000001
 43
0.0000000001
 40
0.0
 40
0.0
 40
0.0
 40
0.0
 40
0.0631622263931592
 40
0.1247221544676837
 40
0.1849922714354699
 40
0.2446593745348377
 40
0.3030804114304682
 40
0.3606657424055575
 40
0.417599795638228
 40
0.4747694548805271
 40
0.5326309266588233
 40
0.5914092324333231
 40
0.652284206235294
 40
0.7151093635930809
 40
0.7808761708778409
 40
0.8500835975887857
 40
0.9226808394839219
 40
1.0
 40
1.0
 40
1.0
 40
1.0
 10
45.2648102634945
 20
48.25768653415197
 30
0.0
 10
45.19758295472048
 20
48.25701968283261
 30
0.0
 10
45.06483375843399
 20
48.25570289686714
 30
0.0
 10
44.86945756695432
 20
48.22992620958775
 30
0.0
 10
44.67976220911327
 20
48.1932197659794
 30
0.0
 10
44.49828657559779
 20
48.13688498747898
 30
0.0
 10
44.32507704365484
 20
48.06610670095359
 30
0.0
 10
44.16335089077263
 20
47.97776677413226
 30
0.0
 10
44.0126346405028
 20
47.87404303151315
 30
0.0
 10
43.87496616541985
 20
47.75310278398202
 30
0.0
 10
43.74882886567852
 20
47.61750957359139
 30
0.0
 10
43.63697269047214
 20
47.46491790612721
 30
0.0
 10
43.53917422397317
 20
47.29696329452457
 30
0.0
 10
43.45434462627917
 20
47.11383849470681
 30
0.0
 10
43.38667204793934
 20
46.91422259477157
 30
0.0
 10
43.33813069544211
 20
46.69851853575302
 30
0.0
 10
43.3088605638371
 20
46.46692919480565
 30
0.0
 10
43.30377722907457
 20
46.30751625834315
 30
0.0
 10
43.30115550676707
 20
46.22529927458129
 30
0.0
  0
SPLINE
  5
AC
330
1F
100
AcDbEntity
  8
DIMENSION
100
AcDbSpline
210
0.0
220
0.0
230
1.0
 70
     8
 71
     3
 72
    11
 73
     7
 74
     0
 42
0.00000001
 43
0.0000000001
 40
0.0
 40
0.0
 40
0.0
 40
0.0
 40
0.2322897423956956
 40
0.482626136622104
 40
0.741563729840583
 40
1.0
 40
1.0
 40
1.0
 40
1.0
 10
46.2737955268339
 20
48.10890807107296
 30
0.0
 10
46.19712118369018
 20
48.12876738421032
 30
0.0
 10
46.03781564730339
 20
48.17002888580141
 30
0.0
 10
45.78898424257086
 20
48.21521276860228
 30
0.0
 10
45.52933523657359
 20
48.25041221314797
 30
0.0
 10
45.35292827646099
 20
48.25526332735569
 30
0.0
 10
45.2648102634945
 20
48.25768653415197
 30
0.0
  0
SPLINE
  5
AD
330
1F
100
AcDbEntity
  8
DIMENSION
100
AcDbSpline
210
0.0
220
0.0
230
1.0
 70
     8
 71
     3
 72
    25
 73
    21
 74
     0
 42
0.00000001
 43
0.0000000001
 40
0.0
 40
0.0
 40
0.0
 40
0.0
 40
0.064628528560828
 40
0.1257948893253271
 40
0.1837584318739094
 40
0.2382462895949316
 40
0.2899975939082829
 40
0.3391637167501469
 40
0.3861940991462239
 40
0.4311632279934151
 40
0.4743096325651692
 40
0.5156653589767194
 40
0.5557415765883961
 40
0.5951490239620406
 40
0.6707636019224054
 40
0.7425086853335503
 40
0.811019522028728
 40
0.8774692092245985
 40
0.9409329808871049
 40
1.0
 40
1.0
 40
1.0
 40
1.0
 10
50.94649113756851
 20
45.42245830194754
 30
0.0
 10
50.94778804492903
 20
45.48115542220657
 30
0.0
 10
50.9503123839711
 20
45.59540524207914
 30
0.0
 10
50.96448201708438
 20
45.76188356322899
 30
0.0
 10
50.98923798471615
 20
45.91770261535174
 30
0.0
 10
51.02027048392621
 20
46.06375557055818
 30
0.0
 10
51.06233339842672
 20
46.19860647532356
 30
0.0
 10
51.10634749525496
 20
46.32565100484358
 30
0.0
 10
51.15828393285766
 20
46.4430287965671
 30
0.0
 10
51.21503129108035
 20
46.55199768336603
 30
0.0
 10
51.27767618143838
 20
46.65165430742656
 30
0.0
 10
51.34432356928225
 20
46.74324614639509
 30
0.0
 10
51.4170126040365
 20
46.82572109310261
 30
0.0
 10
51.51921415682114
 20
46.92286145978132
 30
0.0
 10
51.65376127702411
 20
47.02702488230379
 30
0.0
 10
51.82255050000614
 20
47.12761927250493
 30
0.0
 10
51.99487268565457
 20
47.2037374946974
 30
0.0
 10
52.16904239779197
 20
47.25184081063792
 30
0.0
 10
52.33886786785852
 20
47.27988727215601
 30
0.0
 10
52.45020179873371
 20
47.28352434543015
 30
0.0
 10
52.50387127545302
 20
47.28527762781113
 30
0.0
  0
SPLINE
  5
AE
330
1F
100
AcDbEntity
  8
DIMENSION
100
AcDbSpline
210
0.0
220
0.0
230
1.0
 70
     8
 71
     3
 72
    23
 73
    19
 74
     0
 42
0.00000001
 43
0.0000000001
 40
0.0
 40
0.0
 40
0.0
 40
0.0
 40
0.0537704746945282
 40
0.1075488912655764
 40
0.1616171778429942
 40
0.2165272338525129
 40
0.2711800254600051
 40
0.3255759061681832
 40
0.3807342847831364
 40
0.4369236356369328
 40
0.4948966477099068
 40
0.5547629278731555
 40
0.6178714380704698
 40
0.6843031370296387
 40
0.7547521680229547
 40
0.8303840110303521
 40
0.9119021642990121
 40
1.0
 40
1.0
 40
1.0
 40
1.0
 10
52.47179384677904
 20
43.62344480441833
 30
0.0
 10
52.42404941149863
 20
43.62467174648194
 30
0.0
 10
52.32855348910476
 20
43.62712581182797
 30
0.0
 10
52.18646256486377
 20
43.64851748564327
 30
0.0
 10
52.04509499441305
 20
43.67863088996226
 30
0.0
 10
51.906434390373
 20
43.72251825329992
 30
0.0
 10
51.77211270166509
 20
43.7791837735312
 30
0.0
 10
51.64532818974303
 20
43.85161684613983
 30
0.0
 10
51.52529390886683
 20
43.93713985843194
 30
0.0
 10
51.41444785088657
 20
44.03914696064028
 30
0.0
 10
51.3129826831881
 20
44.15594636658428
 30
0.0
 10
51.2207296820398
 20
44.28775788484744
 30
0.0
 10
51.13966633531795
 20
44.4353349026846
 30
0.0
 10
51.06907083237324
 20
44.59843647124241
 30
0.0
 10
51.01155878534551
 20
44.7784305688863
 30
0.0
 10
50.97185014328022
 20
44.976846092497
 30
0.0
 10
50.94986181259411
 20
45.19370792540288
 30
0.0
 10
50.94764338143821
 20
45.34426143720764
 30
0.0
 10
50.94649113756851
 20
45.42245830194754
 30
0.0
  0
LINE
  5
AF
330
1F
100
AcDbEntity
  8
DIMENSION
100
AcDbLine
 10
21.5517621625
 20
44.8010566782
 30
0.0
 11
21.548018108
 21
44.3246189244
 31
0.0
  0
LINE
  5
B0
330
1F
100
AcDbEntity
  8
DIMENSION
100
AcDbLine
 10
50.72506780819999
 20
49.05987397810001
 30
0.0
 11
50.6830098843
 21
43.70792655419999
 31
0.0
  0
LINE
  5
B1
330
1F
100
AcDbEntity
  8
DIMENSION
100
AcDbLine
 10
12.5861628047
 20
49.38199482199999
 30
0.0
 11
12.5690075989
 21
47.1989636359
 31
0.0
  0
LINE
  5
B2
330
1F
100
AcDbEntity
  8
DIMENSION
100
AcDbLine
 10
21.5199953249
 20
47.3398970214
 30
0.0
 11
20.4647902304
 21
47.3481892807
 31
0.0
  0
SPLINE
  5
B3
330
1F
100
AcDbEntity
  8
DIMENSION
100
AcDbSpline
210
0.0
220
0.0
230
1.0
 70
     8
 71
     3
 72
    15
 73
    11
 74
     0
 42
0.00000001
 43
0.0000000001
 40
0.0
 40
0.0
 40
0.0
 40
0.0
 40
0.0973027423296664
 40
0.2016960988753753
 40
0.3110824337272729
 40
0.4272984343340169
 40
0.5504145854288717
 40
0.6839713750721107
 40
0.8313107294017184
 40
1.0
 40
1.0
 40
1.0
 40
1.0
 10
53.48003324684445
 20
44.07988455120098
 30
0.0
 10
53.45593766912179
 20
44.05116826673417
 30
0.0
 10
53.40599062846857
 20
43.99164309393355
 30
0.0
 10
53.32227085974135
 20
43.9057649182711
 30
0.0
 10
53.22579622470508
 20
43.82255751001536
 30
0.0
 10
53.11241711449625
 20
43.74982566130731
 30
0.0
 10
52.98180970270687
 20
43.68848386411406
 30
0.0
 10
52.83047095410654
 20
43.64969074974594
 30
0.0
 10
52.65869435576504
 20
43.62483571661273
 30
0.0
 10
52.53683809380663
 20
43.62392886321976
 30
0.0
 10
52.47179384677904
 20
43.62344480441833
 30
0.0
  0
LINE
  5
B4
330
1F
100
AcDbEntity
  8
DIMENSION
100
AcDbLine
 10
53.4943373826
 20
44.0797721431
 30
0.0
 11
53.4800332468
 21
44.07988455119999
 31
0.0
  0
LINE
  5
B5
330
1F
100
AcDbEntity
  8
DIMENSION
100
AcDbLine
 10
53.6221796949
 20
43.68482928319999
 30
0.0
 11
53.4943373826
 21
44.0797721431
 31
0.0
  0
LINE
  5
B6
330
1F
100
AcDbEntity
  8
DIMENSION
100
AcDbLine
 10
54.1019184031
 20
43.6810592883
 30
0.0
 11
53.6221796949
 21
43.68482928319999
 31
0.0
  0
LINE
  5
B7
330
1F
100
AcDbEntity
  8
DIMENSION
100
AcDbLine
 10
54.143976327
 20
49.03300671220001
 30
0.0
 11
54.1019184031
 21
43.6810592883
 31
0.0
  0
LINE
  5
B8
330
1F
100
AcDbEntity
  8
DIMENSION
100
AcDbLine
 10
53.51129339759999
 20
49.0379786091
 30
0.0
 11
54.143976327
 21
49.03300671220001
 31
0.0
  0
LINE
  5
B9
330
1F
100
AcDbEntity
  8
DIMENSION
100
AcDbLine
 10
53.49412954499999
 20
46.8538471049
 30
0.0
 11
53.51129339759999
 21
49.0379786091
 31
0.0
  0
LINE
  5
BA
330
1F
100
AcDbEntity
  8
DIMENSION
100
AcDbLine
 10
50.0492266367
 20
43.7129070978
 30
0.0
 11
50.0912845606
 21
49.0648545217
 31
0.0
  0
LINE
  5
BB
330
1F
100
AcDbEntity
  8
DIMENSION
100
AcDbLine
 10
50.6830098843
 20
43.70792655419999
 30
0.0
 11
50.0492266367
 21
43.7129070978
 31
0.0
  0
LINE
  5
BC
330
1F
100
AcDbEntity
  8
DIMENSION
100
AcDbLine
 10
50.0912845606
 20
49.0648545217
 30
0.0
 11
50.72506780819999
 21
49.05987397810001
 31
0.0
  0
SPLINE
  5
BD
330
1F
100
AcDbEntity
  8
DIMENSION
100
AcDbSpline
210
0.0
220
0.0
230
1.0
 70
     8
 71
     3
 72
    23
 73
    19
 74
     0
 42
0.00000001
 43
0.0000000001
 40
0.0
 40
0.0
 40
0.0
 40
0.0
 40
0.0808923518212694
 40
0.1575857770419908
 40
0.2309366542120925
 40
0.3004974080027413
 40
0.366886765992451
 40
0.430010589139412
 40
0.49069323398227
 40
0.549426033859519
 40
0.6066729786242373
 40
0.6623472242969216
 40
0.7175498594884202
 40
0.7727048137077821
 40
0.8280829176755142
 40
0.8840135311461624
 40
0.9414354250239609
 40
1.0
 40
1.0
 40
1.0
 40
1.0
 10
18.79640370501753
 20
46.09035425361677
 30
0.0
 10
18.79624872813826
 20
46.14212643800729
 30
0.0
 10
18.7959468188551
 20
46.24298343774404
 30
0.0
 10
18.7803928664555
 20
46.39002344277626
 30
0.0
 10
18.7588766236747
 20
46.5289823270885
 30
0.0
 10
18.72360645346198
 20
46.65834560058057
 30
0.0
 10
18.68211251953064
 20
46.77878998637856
 30
0.0
 10
18.63268538343888
 20
46.89021616000521
 30
0.0
 10
18.57322589817437
 20
46.99089769554986
 30
0.0
 10
18.50829168201987
 20
47.08355689357282
 30
0.0
 10
18.43512193103131
 20
47.16578425251952
 30
0.0
 10
18.354573971752
 20
47.23733631593375
 30
0.0
 10
18.26790298351688
 20
47.29909691828232
 30
0.0
 10
18.17430809181791
 20
47.34948900995499
 30
0.0
 10
18.07501998912861
 20
47.388411015587
 30
0.0
 10
17.97122750698071
 20
47.41865053023007
 30
0.0
 10
17.86226595192805
 20
47.43585183817933
 30
0.0
 10
17.78809137866807
 20
47.43857033202591
 30
0.0
 10
17.75063871371563
 20
47.43994297004372
 30
0.0
  0
SPLINE
  5
BE
330
1F
100
AcDbEntity
  8
DIMENSION
100
AcDbSpline
210
0.0
220
0.0
230
1.0
 70
     8
 71
     3
 72
    23
 73
    19
 74
     0
 42
0.00000001
 43
0.0000000001
 40
0.0
 40
0.0
 40
0.0
 40
0.0
 40
0.0585618637700423
 40
0.1159810993414657
 40
0.1719091235435209
 40
0.2272846638207011
 40
0.2824370646800721
 40
0.3376371443042225
 40
0.3933088125766819
 40
0.4505531071341717
 40
0.50928318801757
 40
0.5699630235998699
 40
0.6330839244736321
 40
0.6996655832323859
 40
0.7690740368386323
 40
0.8424215182812293
 40
0.9191113930335244
 40
1.0
 40
1.0
 40
1.0
 40
1.0
 10
17.75063871371563
 20
47.43994297004372
 30
0.0
 10
17.71316910223607
 20
47.43915910369152
 30
0.0
 10
17.63896096657363
 20
47.4376066653739
 30
0.0
 10
17.52974253137099
 20
47.42211991150177
 30
0.0
 10
17.42548763842094
 20
47.39351531934244
 30
0.0
 10
17.32560006089234
 20
47.35615853735225
 30
0.0
 10
17.2312249308135
 20
47.30724354081376
 30
0.0
 10
17.14359342694674
 20
47.24685288822363
 30
0.0
 10
17.06193317675961
 20
47.17657474771413
 30
0.0
 10
16.98747140567572
 20
47.09551056171104
 30
0.0
 10
16.92112314471805
 20
47.00387128762757
 30
0.0
 10
16.85995466848808
 20
46.9041838077996
 30
0.0
 10
16.80926266845286
 20
46.79324707239711
 30
0.0
 10
16.76374558087065
 20
46.67418904798077
 30
0.0
 10
16.72869580347883
 20
46.54469621491522
 30
0.0
 10
16.70436729045333
 20
46.40637952463723
 30
0.0
 10
16.68668743253593
 20
46.25954759561184
 30
0.0
 10
16.68477471900742
 20
46.15871547768368
 30
0.0
 10
16.68379287979208
 20
46.10695606568959
 30
0.0
  0
SPLINE
  5
BF
330
1F
100
AcDbEntity
  8
DIMENSION
100
AcDbSpline
210
0.0
220
0.0
230
1.0
 70
     8
 71
     3
 72
    23
 73
    19
 74
     0
 42
0.00000001
 43
0.0000000001
 40
0.0
 40
0.0
 40
0.0
 40
0.0
 40
0.0804721983558893
 40
0.1573118011949997
 40
0.229670746948886
 40
0.2992147125115781
 40
0.3659263642376579
 40
0.4286489723694882
 40
0.4894472782937899
 40
0.5481684700902795
 40
0.6054899825861208
 40
0.6617036583269246
 40
0.71701150970505
 40
0.7722715892311367
 40
0.8277552438288687
 40
0.8837924610122682
 40
0.9413238009823004
 40
1.0
 40
1.0
 40
1.0
 40
1.0
 10
16.68379287979208
 20
46.10695606568959
 30
0.0
 10
16.68399025233733
 20
46.05555711391471
 30
0.0
 10
16.68437608783371
 20
45.95507941045393
 30
0.0
 10
16.6994376509347
 20
45.80904166461704
 30
0.0
 10
16.72210997626089
 20
45.67117408933257
 30
0.0
 10
16.75487698754347
 20
45.54186107042024
 30
0.0
 10
16.79817831461325
 20
45.42229517183598
 30
0.0
 10
16.84784684318916
 20
45.31130363846387
 30
0.0
 10
16.90659020126556
 20
45.21062697145557
 30
0.0
 10
16.97314407524433
 20
45.11918629627468
 30
0.0
 10
17.04765181388654
 20
45.03798193356983
 30
0.0
 10
17.12885079147369
 20
44.9668375817855
 30
0.0
 10
17.21561956068235
 20
44.90475568326759
 30
0.0
 10
17.30924855614796
 20
44.85440633759499
 30
0.0
 10
17.40852747160868
 20
44.81547281659939
 30
0.0
 10
17.51232245282305
 20
44.78523643431106
 30
0.0
 10
17.62128332833343
 20
44.76803427461674
 30
0.0
 10
17.69545799437225
 20
44.76531589706008
 30
0.0
 10
17.73291070617114
 20
44.76394331776009
 30
0.0
  0
SPLINE
  5
C0
330
1F
100
AcDbEntity
  8
DIMENSION
100
AcDbSpline
210
0.0
220
0.0
230
1.0
 70
     8
 71
     3
 72
    23
 73
    19
 74
     0
 42
0.00000001
 43
0.0000000001
 40
0.0
 40
0.0
 40
0.0
 40
0.0
 40
0.0594091818808761
 40
0.1165254615343495
 40
0.1727131498450052
 40
0.2278092478265176
 40
0.282709214603199
 40
0.3381655786156301
 40
0.3936638213273869
 40
0.4507481315558307
 40
0.509284967183524
 40
0.5702465287098627
 40
0.6331375595797316
 40
0.6998320641166434
 40
0.7697125411955228
 40
0.8422657851797991
 40
0.9193117177090387
 40
1.0
 40
1.0
 40
1.0
 40
1.0
 10
17.73291070617114
 20
44.76394331776009
 30
0.0
 10
17.7707518332606
 20
44.76468220873799
 30
0.0
 10
17.84497360604856
 20
44.76613147313615
 30
0.0
 10
17.95414417233892
 20
44.78193223218982
 30
0.0
 10
18.05776034076059
 20
44.81017358268831
 30
0.0
 10
18.15691000214636
 20
44.84771166393685
 30
0.0
 10
18.25026501054358
 20
44.89703166936028
 30
0.0
 10
18.33776222072797
 20
44.95661839242106
 30
0.0
 10
18.41798288222235
 20
45.02770699101496
 30
0.0
 10
18.49279632435932
 20
45.10718480860655
 30
0.0
 10
18.55945574342738
 20
45.1979881824331
 30
0.0
 10
18.61982414575764
 20
45.29736697375322
 30
0.0
 10
18.67162250734794
 20
45.40732785003242
 30
0.0
 10
18.71468929260245
 20
45.52689845143763
 30
0.0
 10
18.75171932941738
 20
45.65498803851657
 30
0.0
 10
18.7759361004686
 20
45.79276484636691
 30
0.0
 10
18.79347229325606
 20
45.93849407650355
 30
0.0
 10
18.79541164016382
 20
46.03896087846076
 30
0.0
 10
18.79640370501753
 20
46.09035425361677
 30
0.0
  0
SPLINE
  5
C1
330
1F
100
AcDbEntity
  8
DIMENSION
100
AcDbSpline
210
0.0
220
0.0
230
1.0
 70
     8
 71
     3
 72
    23
 73
    19
 74
     0
 42
0.00000001
 43
0.0000000001
 40
0.0
 40
0.0
 40
0.0
 40
0.0
 40
0.07911606421984
 40
0.1543192054066129
 40
0.2265586833678063
 40
0.2956385389034754
 40
0.3618277814480375
 40
0.4249914710220415
 40
0.4848355836265735
 40
0.5427187325193841
 40
0.5992828477553456
 40
0.6539656231925015
 40
0.7087872244969784
 40
0.7638822198588514
 40
0.8198652084046203
 40
0.8772822919404024
 40
0.9374974339414547
 40
1.0
 40
1.0
 40
1.0
 40
1.0
 10
51.58035220613026
 20
45.42738062156892
 30
0.0
 10
51.58086634322915
 20
45.37856807452065
 30
0.0
 10
51.58186918922959
 20
45.28335715182571
 30
0.0
 10
51.59288641405106
 20
45.14391563617414
 30
0.0
 10
51.61237360922621
 20
45.01165003340766
 30
0.0
 10
51.64132130471886
 20
44.88683567097636
 30
0.0
 10
51.67739993740133
 20
44.76972825917563
 30
0.0
 10
51.72164008992112
 20
44.66156970871739
 30
0.0
 10
51.77264402692026
 20
44.56212619605484
 30
0.0
 10
51.83167477537484
 20
44.47204218553243
 30
0.0
 10
51.89772717726703
 20
44.39095424503456
 30
0.0
 10
51.97220242183119
 20
44.32030090424992
 30
0.0
 10
52.05303573282959
 20
44.25838484151365
 30
0.0
 10
52.14270317905885
 20
44.20848304768752
 30
0.0
 10
52.23849441010933
 20
44.16756447660825
 30
0.0
 10
52.34175821509893
 20
44.13832583114825
 30
0.0
 10
52.45157414502692
 20
44.11930489218831
 30
0.0
 10
52.52731656925023
 20
44.11690208964079
 30
0.0
 10
52.5658936902567
 20
44.11567829458032
 30
0.0
  0
SPLINE
  5
C2
330
1F
100
AcDbEntity
  8
DIMENSION
100
AcDbSpline
210
0.0
220
0.0
230
1.0
 70
     8
 71
     3
 72
    15
 73
    11
 74
     0
 42
0.00000001
 43
0.0000000001
 40
0.0
 40
0.0
 40
0.0
 40
0.0
 40
0.1600853383608775
 40
0.3079807182048597
 40
0.4471923241116202
 40
0.57711219677558
 40
0.6999412269085812
 40
0.8130032330888884
 40
0.9135158021360524
 40
1.0
 40
1.0
 40
1.0
 40
1.0
 10
52.5658936902567
 20
44.11567829458032
 30
0.0
 10
52.62261616846878
 20
44.11735264731443
 30
0.0
 10
52.73174189951315
 20
44.12057385646982
 30
0.0
 10
52.88684410201783
 20
44.1561465665335
 30
0.0
 10
53.02493031865406
 20
44.20914152553069
 30
0.0
 10
53.14717862346547
 20
44.27512241762911
 30
0.0
 10
53.25462015301514
 20
44.34790372740603
 30
0.0
 10
53.342936535417
 20
44.4279683929492
 30
0.0
 10
53.41680150743451
 20
44.50445487834699
 30
0.0
 10
53.45671433500699
 20
44.55727158152419
 30
0.0
 10
53.47517363210664
 20
44.58169879640899
 30
0.0
  0
LINE
  5
C3
330
1F
100
AcDbEntity
  8
DIMENSION
100
AcDbLine
 10
53.4751736321
 20
44.5816987964
 30
0.0
 11
53.48939758050001
 21
46.3917221336
 31
0.0
  0
SPLINE
  5
C4
330
1F
100
AcDbEntity
  8
DIMENSION
100
AcDbSpline
210
0.0
220
0.0
230
1.0
 70
     8
 71
     3
 72
    15
 73
    11
 74
     0
 42
0.00000001
 43
0.0000000001
 40
0.0
 40
0.0
 40
0.0
 40
0.0
 40
0.1233156637054267
 40
0.2459080048176661
 40
0.3696760260907684
 40
0.4947192432861347
 40
0.6197143946649283
 40
0.7439476380183736
 40
0.870471838927658
 40
1.0
 40
1.0
 40
1.0
 40
1.0
 10
53.48939758047111
 20
46.39172213364645
 30
0.0
 10
53.46005650812474
 20
46.42076053443396
 30
0.0
 10
53.40154646695798
 20
46.47866700783874
 30
0.0
 10
53.30439909384259
 20
46.5556653440739
 30
0.0
 10
53.20008775764649
 20
46.62339235486089
 30
0.0
 10
53.08998478101072
 20
46.68317615362524
 30
0.0
 10
52.97351234748747
 20
46.72978166701212
 30
0.0
 10
52.85288377926886
 20
46.765920034371
 30
0.0
 10
52.72692519836422
 20
46.78675230628829
 30
0.0
 10
52.64126062230846
 20
46.7899486283788
 30
0.0
 10
52.59792583359701
 20
46.79156553876139
 30
0.0
  0
SPLINE
  5
C5
330
1F
100
AcDbEntity
  8
DIMENSION
100
AcDbSpline
210
0.0
220
0.0
230
1.0
 70
     8
 71
     3
 72
    21
 73
    17
 74
     0
 42
0.00000001
 43
0.0000000001
 40
0.0
 40
0.0
 40
0.0
 40
0.0
 40
0.0860700789647129
 40
0.1786909317110175
 40
0.2273997610387887
 40
0.2774086142379024
 40
0.3296305067345596
 40
0.384961561527187
 40
0.4433552012767603
 40
0.5047664311110217
 40
0.5711421730842829
 40
0.6420591948477349
 40
0.7190155409364874
 40
0.8039482843874496
 40
0.8975707799622226
 40
1.0
 40
1.0
 40
1.0
 40
1.0
 10
52.59792583359701
 20
46.79156553876139
 30
0.0
 10
52.5430340562309
 20
46.78853397631453
 30
0.0
 10
52.42907270103287
 20
46.78224011990484
 30
0.0
 10
52.28737575453581
 20
46.74668755022886
 30
0.0
 10
52.17397613535636
 20
46.70089656832874
 30
0.0
 10
52.09083194254742
 20
46.65184819955106
 30
0.0
 10
52.00916947824238
 20
46.59302686929239
 30
0.0
 10
51.93151437183065
 20
46.52067283021568
 30
0.0
 10
51.85942673671941
 20
46.43503675373243
 30
0.0
 10
51.79326175562278
 20
46.33619851805888
 30
0.0
 10
51.73311429930262
 20
46.22443310788084
 30
0.0
 10
51.68023056238194
 20
46.09823895433663
 30
0.0
 10
51.63549647674565
 20
45.95639090107376
 30
0.0
 10
51.60408891737325
 20
45.79618026775989
 30
0.0
 10
51.58583942839261
 20
45.61770004369535
 30
0.0
 10
51.58223524732109
 20
45.49269222990992
 30
0.0
 10
51.58035220613026
 20
45.42738062156892
 30
0.0
  0
LINE
  5
C6
330
1F
100
AcDbEntity
  8
DIMENSION
100
AcDbLine
 10
120.3937170093
 20
-20.3748572116
 30
0.0
 11
145.7937170093
 21
-20.3748572116
 31
0.0
  0
ARC
  5
C7
330
1F
100
AcDbEntity
  8
DIMENSION
100
AcDbCircle
 10
133.0937170093
 20
46.62514278839999
 30
0.0
 40
12.70000000000002
100
AcDbArc
 50
0.0
 51
180.0
  0
LINE
  5
C8
330
1F
100
AcDbEntity
  8
DIMENSION
100
AcDbLine
 10
-6.9062829907
 20
86.62514278839999
 30
0.0
 11
29.2929272978
 21
86.62514278839999
 31
0.0
  0
LINE
  5
C9
330
1F
100
AcDbEntity
  8
DIMENSION
100
AcDbLine
 10
37.2931743139
 20
86.62514278839999
 30
0.0
 11
173.0937170093
 21
86.62514278839999
 31
0.0
  0
LINE
  5
CA
330
1F
100
AcDbEntity
  8
DIMENSION
100
AcDbLine
 10
173.0937170093
 20
86.62514278839999
 30
0.0
 11
173.0937170093
 21
6.6251427884
 31
0.0
  0
LINE
  5
CB
330
1F
100
AcDbEntity
  8
DIMENSION
100
AcDbLine
 10
173.0937170093
 20
6.6251427884
 30
0.0
 11
145.7937170093
 21
6.6251427884
 31
0.0
  0
LINE
  5
CC
330
1F
100
AcDbEntity
  8
DIMENSION
100
AcDbLine
 10
120.3937170093
 20
6.6251427884
 30
0.0
 11
-6.9062829907
 21
6.6251427884
 31
0.0
  0
LINE
  5
CD
330
1F
100
AcDbEntity
  8
DIMENSION
100
AcDbLine
 10
-6.9062829907
 20
6.6251427884
 30
0.0
 11
-6.9062829907
 21
86.62514278839999
 31
0.0
  0
ARC
  5
CE
330
1F
100
AcDbEntity
  8
DIMENSION
100
AcDbCircle
 10
33.0937170093
 20
46.62514278839999
 30
0.0
 40
22.50000000000001
100
AcDbArc
 50
269.4033314252
 51
79.6068531527
  0
ARC
  5
CF
330
1F
100
AcDbEntity
  8
DIMENSION
100
AcDbCircle
 10
133.0937170093
 20
46.62514278839999
 30
0.0
 40
12.875
100
AcDbArc
 50
350.542503582
 51
90.0
  0
ARC
  5
D0
330
1F
100
AcDbEntity
  8
DIMENSION
100
AcDbCircle
 10
133.0937170093
 20
46.62514278839999
 30
0.0
 40
12.87500000000002
100
AcDbArc
 50
90.0
 51
189.457496418
  0
ARC
  5
D1
330
1F
100
AcDbEntity
  8
DIMENSION
100
AcDbCircle
 10
133.0937170093
 20
46.62514278839999
 30
0.0
 40
13.375
100
AcDbArc
 50
341.7195773916
 51
90.0
  0
ARC
  5
D2
330
1F
100
AcDbEntity
  8
DIMENSION
100
AcDbCircle
 10
133.0937170093
 20
46.62514278839999
 30
0.0
 40
13.37500000000002
100
AcDbArc
 50
90.0
 51
198.2804226084
  0
ARC
  5
D3
330
1F
100
AcDbEntity
  8
DIMENSION
100
AcDbCircle
 10
133.0937170093
 20
46.62514278839999
 30
0.0
 40
27.0
100
AcDbArc
 50
298.058340761
 51
90.0
  0
ARC
  5
D4
330
1F
100
AcDbEntity
  8
DIMENSION
100
AcDbCircle
 10
133.0937170093
 20
46.62514278839999
 30
0.0
 40
27.00000000000001
100
AcDbArc
 50
90.0
 51
241.9416592390001
  0
ARC
  5
D5
330
1F
100
AcDbEntity
  8
DIMENSION
100
AcDbCircle
 10
33.0937170093
 20
46.62514278839999
 30
0.0
 40
22.65
100
AcDbArc
 50
226.7813606552
 51
79.6733624794
  0
ARC
  5
D6
330
1F
100
AcDbEntity
  8
DIMENSION
100
AcDbCircle
 10
33.0937170093
 20
46.62514278839999
 30
0.0
 40
22.65000000000001
100
AcDbArc
 50
100.0172507843
 51
127.5117376748
  0
ARC
  5
D7
330
1F
100
AcDbEntity
  8
DIMENSION
100
AcDbCircle
 10
33.0937170093
 20
46.62514278839999
 30
0.0
 40
28.0
100
AcDbArc
 50
98.00079740260001
 51
81.57423358859999
  0
DIMENSION
  5
D8
102
{ACAD_XDICTIONARY
360
20D
102
}
330
1F
100
AcDbEntity
  8
DIMENSION
100
AcDbDimension
280
     0
  2
*D15
 10
-26.90628299070003
 20
86.62514278840003
 30
0.0
 11
-26.90628299070001
 21
46.62514278839999
 31
0.0
 70
   160
  1
<>
 71
     2
 42
80.00000000000001
 73
     0
 74
     0
 75
     0
  3
RG Dimension Lines
100
AcDbAlignedDimension
 13
-6.9062829907
 23
6.6251427884
 33
0.0
 14
-6.9062829907
 24
86.62514278839999
 34
0.0
 50
90.0
100
AcDbRotatedDimension
1001
AcadAnnotative
1000
AnnotativeData
1002
{
1070
     1
1070
     1
1002
}
  0
DIMENSION
  5
E5
102
{ACAD_XDICTIONARY
360
1FF
102
}
330
1F
100
AcDbEntity
  8
DIMENSION
100
AcDbDimension
280
     0
  2
*D14
 10
55.4641000124
 20
128.2494541996
 30
0.0
 11
32.4165304477
 21
128.2494541996
 31
0.0
 70
   160
  1
<>
 71
     2
 42
44.7407660062
 73
     0
 74
     0
 75
     0
  3
RG Dimension Lines
100
AcDbAlignedDimension
 13
10.7233340062
 23
45.4736375582
 33
0.0
 14
55.46410001239999
 24
47.7766480187
 34
0.0
100
AcDbRotatedDimension
1001
AcadAnnotative
1000
AnnotativeData
1002
{
1070
     1
1070
     1
1002
}
  0
DIMENSION
  5
ED
102
{ACAD_XDICTIONARY
360
1F1
102
}
330
1F
100
AcDbEntity
  8
DIMENSION
100
AcDbDimension
280
     0
  2
*D13
 10
145.7937170093
 20
-45.31047112479999
 30
0.0
 11
133.0937170093
 21
-45.31047112479999
 31
0.0
 70
   160
  1
%%c<>
 71
     2
 42
25.39999999999999
 73
     0
 74
     0
 75
     0
  3
RG Dimension Lines
100
AcDbAlignedDimension
 13
120.3937170093
 23
-20.3748572115
 33
0.0
 14
145.7937170093
 24
-20.3748572115
 34
0.0
100
AcDbRotatedDimension
1001
AcadAnnotative
1000
AnnotativeData
1002
{
1070
     1
1070
     1
1002
}
  0
LINE
  5
F6
330
1F
100
AcDbEntity
  8
DIMENSION
100
AcDbLine
 10
406.0690014969999
 20
108.1241476027
 30
0.0
 11
406.0690014969999
 21
69.1029319565
 31
0.0
  0
LINE
  5
F7
330
1F
100
AcDbEntity
  8
DIMENSION
100
AcDbLine
 10
414.0690014969999
 20
69.1008818463
 30
0.0
 11
414.0690014969999
 21
108.1241476027
 31
0.0
  0
LINE
  5
F8
330
1F
100
AcDbEntity
  8
DIMENSION
100
AcDbLine
 10
399.769001497
 20
24.1260464804
 30
0.0
 11
417.6692681716999
 21
24.1260464804
 31
0.0
  0
LINE
  5
F9
330
1F
100
AcDbEntity
  8
DIMENSION
100
AcDbLine
 10
405.9907532473999
 20
69.12604648040001
 30
0.0
 11
399.769001497
 21
69.12604648040001
 31
0.0
  0
LINE
  5
FA
330
1F
100
AcDbEntity
  8
DIMENSION
100
AcDbLine
 10
426.669001497
 20
69.12604648040001
 30
0.0
 11
414.1291347224999
 21
69.12604648040001
 31
0.0
  0
ARC
  5
FB
330
1F
100
AcDbEntity
  8
DIMENSION
100
AcDbCircle
 10
399.769001497
 20
69.0260464804
 30
0.0
 40
0.1000000000000227
100
AcDbArc
 50
90.0
 51
180.0
  0
ARC
  5
FC
330
1F
100
AcDbEntity
  8
DIMENSION
100
AcDbCircle
 10
399.769001497
 20
24.2260464804
 30
0.0
 40
0.1000000000000227
100
AcDbArc
 50
180.0
 51
270.0
  0
LINE
  5
FD
330
1F
100
AcDbEntity
  8
DIMENSION
100
AcDbLine
 10
440.318719898
 20
59.3251427884
 30
0.0
 11
297.318719898
 21
59.3251427884
 31
0.0
  0
LINE
  5
FE
330
1F
100
AcDbEntity
  8
DIMENSION
100
AcDbLine
 10
297.318719898
 20
33.9251427884
 30
0.0
 11
440.318719898
 21
33.9251427884
 31
0.0
  0
ARC
  5
FF
330
1F
100
AcDbEntity
  8
0
  6
Continuous
 62
     7
370
    25
100
AcDbCircle
 10
297.318719898
 20
1.625142788399999
 30
0.0
 40
32.30000000000001
100
AcDbArc
 50
90.0
 51
180.0
  0
ARC
  5
100
330
1F
100
AcDbEntity
  8
0
  6
Continuous
 62
     7
370
    25
100
AcDbCircle
 10
297.318719898
 20
1.625142788399999
 30
0.0
 40
57.70000000000002
100
AcDbArc
 50
90.0
 51
180.0
  0
LINE
  5
101
330
1F
100
AcDbEntity
  8
0
  6
Continuous
 62
     7
370
    25
100
AcDbLine
 10
265.018719898
 20
-20.3748572116
 30
0.0
 11
265.018719898
 21
1.625142788399999
 31
0.0
  0
LINE
  5
102
330
1F
100
AcDbEntity
  8
0
  6
Continuous
 62
     7
370
    25
100
AcDbLine
 10
239.618719898
 20
1.625142788399999
 30
0.0
 11
239.618719898
 21
-20.3748572116
 31
0.0
  0
LINE
  5
103
330
1F
100
AcDbEntity
  8
DIMENSION
100
AcDbLine
 10
440.318719898
 20
69.12514278839999
 30
0.0
 11
428.5526917388999
 21
69.12514278839999
 31
0.0
  0
LINE
  5
104
330
1F
100
AcDbEntity
  8
DIMENSION
100
AcDbLine
 10
428.5526917388999
 20
24.1251427884
 30
0.0
 11
440.318719898
 21
24.1251427884
 31
0.0
  0
LINE
  5
105
330
1F
100
AcDbEntity
  8
0
  6
Continuous
 62
     7
370
    25
100
AcDbLine
 10
450.318719898
 20
73.62514278839999
 30
0.0
 11
440.318719898
 21
73.62514278839999
 31
0.0
  0
LINE
  5
106
330
1F
100
AcDbEntity
  8
DIMENSION
100
AcDbLine
 10
440.318719898
 20
19.6251427884
 30
0.0
 11
450.318719898
 21
19.6251427884
 31
0.0
  0
LWPOLYLINE
  5
107
330
1F
100
AcDbEntity
  8
DIMENSION
100
AcDbPolyline
 90
        3
 70
   128
 43
0.0
 10
428.5526917388999
 20
67.0462014393
 10
428.1204419802
 20
66.99876759109999
 10
426.669001497
 20
66.76912431879999
  0
ARC
  5
108
330
1F
100
AcDbEntity
  8
DIMENSION
100
AcDbCircle
 10
430.5180839155999
 20
46.1072807047
 30
0.0
 40
20.00000000000001
100
AcDbArc
 50
237.2357575776
 51
264.3604644467
  0
LINE
  5
109
330
1F
100
AcDbEntity
  8
0
  6
Continuous
 62
     7
370
    25
100
AcDbLine
 10
450.318719898
 20
74.6251427884
 30
0.0
 11
445.518719898
 21
74.6251427884
 31
0.0
  0
LINE
  5
10A
330
1F
100
AcDbEntity
  8
DIMENSION
100
AcDbLine
 10
445.518719898
 20
18.6251427884
 30
0.0
 11
450.318719898
 21
18.6251427884
 31
0.0
  0
LWPOLYLINE
  5
10B
330
1F
100
AcDbEntity
  8
0
  6
Continuous
 62
     7
370
    25
100
AcDbPolyline
 90
       28
 70
   128
 43
0.0
 10
414.04263273
 20
108.120544343
 10
413.8297774176
 20
108.1134403612
 10
413.4141777017999
 20
108.1069136095
 10
412.8182386708999
 20
108.1013159468
 10
412.0740875523999
 20
108.0969491447
 10
411.2218417256999
 20
108.0940486184
 10
410.3074459838
 20
108.0927707362
 10
409.3801956379
 20
108.093184389
 10
408.4900789941
 20
108.0952672766
 10
407.6850824712
 20
108.0989071101
 10
407.00860364
 20
108.1039076651
 10
406.4971116494
 20
108.1099993604
 10
406.1781811651
 20
108.1168537911
 10
406.0690058119999
 20
108.124101433
 10
406.1754712615
 20
108.131351564
 10
406.4918379338999
 20
108.1382133275
 10
407.0010504198999
 20
108.1443168042
 10
407.6756569426
 20
108.1493329541
 10
408.4792892897
 20
108.1529913551
 10
409.3686234333
 20
108.1550947819
 10
410.2957151396999
 20
108.1555298383
 10
411.2105846549
 20
108.1542730703
 10
412.0639111264999
 20
108.1513922305
 10
412.8096915037
 20
108.1470426258
 10
413.4077205731999
 20
108.1414587445
 10
413.8257584330999
 20
108.134941615
 10
414.0412685541999
 20
108.1278425775
 10
414.04263273
 20
108.120544343
  0
SPLINE
  5
10C
330
1F
100
AcDbEntity
  8
DIMENSION
100
AcDbSpline
210
0.0
220
0.0
230
1.0
 70
     8
 71
     3
 72
    12
 73
     8
 74
     0
 42
0.00000001
 43
0.0000000001
 40
0.0
 40
0.0
 40
0.0
 40
0.0
 40
0.2123062295494725
 40
0.4245263515826618
 40
0.6389741926682606
 40
0.8549312691972284
 40
1.0
 40
1.0
 40
1.0
 40
1.0
 10
410.069001496969
 20
68.71643571150021
 30
0.0
 10
410.5255132606369
 20
68.72524002673969
 30
0.0
 10
411.4383516351671
 20
68.7428450863497
 30
0.0
 10
412.6604342273568
 20
68.86666691750741
 30
0.0
 10
413.5831109078894
 20
69.00384134024822
 30
0.0
 10
414.1161249243735
 20
69.10704914900986
 30
0.0
 10
414.1179526898912
 20
69.11364371492678
 30
0.0
 10
414.1186871294201
 20
69.11629356789667
 30
0.0
  0
SPLINE
  5
10D
330
1F
100
AcDbEntity
  8
DIMENSION
100
AcDbSpline
210
0.0
220
0.0
230
1.0
 70
     8
 71
     3
 72
    13
 73
     9
 74
     0
 42
0.00000001
 43
0.0000000001
 40
0.0
 40
0.0
 40
0.0
 40
0.0
 40
0.0175968846558033
 40
0.2234920033839871
 40
0.4290899299924396
 40
0.6374999363184864
 40
0.847609574847355
 40
1.0
 40
1.0
 40
1.0
 40
1.0
 10
405.9907532474276
 20
69.12289294176186
 30
0.0
 10
405.9831997994137
 20
69.12393085094007
 30
0.0
 10
405.8872660439734
 20
69.13711297982894
 30
0.0
 10
406.1321123996966
 20
69.08485612430467
 30
0.0
 10
406.7387959280433
 20
68.97300832146064
 30
0.0
 10
407.7651336168226
 20
68.83149079209584
 30
0.0
 10
408.9327423095298
 20
68.73268342959537
 30
0.0
 10
409.7327066451267
 20
68.72124449457543
 30
0.0
 10
410.069001496969
 20
68.71643571150021
 30
0.0
  0
LINE
  5
10E
330
1F
100
AcDbEntity
  8
DIMENSION
100
AcDbLine
 10
426.669001497
 20
59.3251427884
 30
0.0
 11
426.669001497
 21
69.12604648040001
 31
0.0
  0
ELLIPSE
  5
10F
330
1F
100
AcDbEntity
  8
DIMENSION
100
AcDbEllipse
 10
426.3059422852999
 20
46.6260464804
 30
0.0
 11
8.636738210075405
 21
22.49998854218726
 31
0.0
210
0.0
220
0.0
230
0.9999999999999998
 40
0.0026290962
 41
3.142601845588011
 42
4.113589433404259
  0
LINE
  5
110
330
1F
100
AcDbEntity
  8
DIMENSION
100
AcDbLine
 10
399.6690014969999
 20
59.3251427884
 30
0.0
 11
399.6690014969999
 21
69.0260464804
 31
0.0
  0
LINE
  5
111
330
1F
100
AcDbEntity
  8
DIMENSION
100
AcDbLine
 10
399.6690014969999
 20
24.2260464804
 30
0.0
 11
399.6690014969999
 21
33.9251427884
 31
0.0
  0
LINE
  5
112
330
1F
100
AcDbEntity
  8
0
  6
Continuous
 62
     7
370
    25
100
AcDbLine
 10
239.618719898
 20
-20.3748572116
 30
0.0
 11
265.018719898
 21
-20.3748572116
 31
0.0
  0
LINE
  5
113
330
1F
100
AcDbEntity
  8
0
  6
Continuous
 62
     7
370
    25
100
AcDbLine
 10
452.318719898
 20
86.62514278839999
 30
0.0
 11
450.318719898
 21
86.62514278839999
 31
0.0
  0
LINE
  5
114
330
1F
100
AcDbEntity
  8
DIMENSION
100
AcDbLine
 10
452.318719898
 20
86.62514278839999
 30
0.0
 11
452.318719898
 21
6.6251427884
 31
0.0
  0
LINE
  5
115
330
1F
100
AcDbEntity
  8
DIMENSION
100
AcDbLine
 10
452.318719898
 20
6.6251427884
 30
0.0
 11
450.318719898
 21
6.6251427884
 31
0.0
  0
LINE
  5
116
330
1F
100
AcDbEntity
  8
DIMENSION
100
AcDbLine
 10
450.318719898
 20
86.62514278839999
 30
0.0
 11
450.318719898
 21
6.6251427884
 31
0.0
  0
LINE
  5
117
330
1F
100
AcDbEntity
  8
DIMENSION
100
AcDbLine
 10
428.5526917388999
 20
69.12514278839999
 30
0.0
 11
428.5526917388999
 21
59.3251427884
 31
0.0
  0
LINE
  5
118
330
1F
100
AcDbEntity
  8
DIMENSION
100
AcDbLine
 10
428.5526917388999
 20
33.9251427884
 30
0.0
 11
428.5526917388999
 21
24.1251427884
 31
0.0
  0
LINE
  5
119
330
1F
100
AcDbEntity
  8
DIMENSION
100
AcDbLine
 10
440.318719898
 20
73.62514278839999
 30
0.0
 11
440.318719898
 21
19.6251427884
 31
0.0
  0
LINE
  5
11A
330
1F
100
AcDbEntity
  8
0
  6
Continuous
 62
     7
370
    25
100
AcDbLine
 10
445.518719898
 20
74.6251427884
 30
0.0
 11
445.518719898
 21
73.62514278839999
 31
0.0
  0
LINE
  5
11B
330
1F
100
AcDbEntity
  8
DIMENSION
100
AcDbLine
 10
445.518719898
 20
19.6251427884
 30
0.0
 11
445.518719898
 21
18.6251427884
 31
0.0
  0
POINT
  5
11C
330
1F
100
AcDbEntity
  8
DIMENSION
100
AcDbPoint
 10
443.5526917388999
 20
46.62514278839999
 30
0.0
  0
POINT
  5
11D
330
1F
100
AcDbEntity
  8
0
  6
Continuous
 62
     7
370
     0
100
AcDbPoint
 10
252.318719898
 20
-20.3748572115
 30
0.0
  0
DIMENSION
  5
11E
102
{ACAD_XDICTIONARY
360
1E3
102
}
330
1F
100
AcDbEntity
  8
DIMENSION
100
AcDbDimension
280
     0
  2
*D12
 10
480.3187198980001
 20
-20.37485721149997
 30
0.0
 11
480.318719898
 21
18.4927282285
 31
0.0
 70
   160
  1
<>
 71
     2
 42
66.99999999989997
 73
     0
 74
     0
 75
     0
  3
RG Dimension Lines
100
AcDbAlignedDimension
 13
443.5526917388999
 23
46.62514278839999
 33
0.0
 14
248.2526917389
 24
-20.3748572115
 34
0.0
 50
90.0
100
AcDbRotatedDimension
1001
AcadAnnotative
1000
AnnotativeData
1002
{
1070
     1
1070
     1
1002
}
  0
DIMENSION
  5
126
102
{ACAD_XDICTIONARY
360
1D5
102
}
330
1F
100
AcDbEntity
  8
DIMENSION
100
AcDbDimension
280
     0
  2
*D11
 10
452.318719898
 20
-44.41899307699999
 30
0.0
 11
355.2983618814
 21
-44.41899307699999
 31
0.0
 70
   160
  1
<>
 71
     2
 42
200.0
 73
     0
 74
     0
 75
     0
  3
RG Dimension Lines
100
AcDbAlignedDimension
 13
252.318719898
 23
-20.3748572115
 33
0.0
 14
452.318719898
 24
6.6251427884
 34
0.0
100
AcDbRotatedDimension
1001
AcadAnnotative
1000
AnnotativeData
1002
{
1070
     1
1070
     1
1002
}
  0
LINE
  5
12E
330
1F
100
AcDbEntity
  8
0
  6
Continuous
 62
     7
370
    25
100
AcDbLine
 10
33.4619993095
 20
335.5331716413
 30
0.0
 11
33.1476716676
 21
335.5331716413
 31
0.0
  0
LINE
  5
12F
330
1F
100
AcDbEntity
  8
0
  6
Continuous
 62
     7
370
    25
100
AcDbLine
 10
33.1476716676
 20
327.5331716413
 30
0.0
 11
33.4619993095
 21
327.5331716413
 31
0.0
  0
LINE
  5
130
330
1F
100
AcDbEntity
  8
0
  6
Continuous
 62
     7
370
    25
100
AcDbLine
 10
55.47872056
 20
321.2331716413
 30
0.0
 11
55.47872056
 21
347.8379831603
 31
0.0
  0
LINE
  5
131
330
1F
100
AcDbEntity
  8
0
  6
Continuous
 62
     7
370
    25
100
AcDbLine
 10
10.47872056
 20
347.7022416988
 30
0.0
 11
10.47872056
 21
321.2331716413
 31
0.0
  0
ARC
  5
132
330
1F
100
AcDbEntity
  8
0
  6
Continuous
 62
     7
370
    25
100
AcDbCircle
 10
10.57872056
 20
321.2331716413
 30
0.0
 40
0.1000000000000227
100
AcDbArc
 50
180.0
 51
270.0
  0
ARC
  5
133
330
1F
100
AcDbEntity
  8
0
  6
Continuous
 62
     7
370
    25
100
AcDbCircle
 10
55.37872056
 20
321.2331716413
 30
0.0
 40
0.1000000000000227
100
AcDbArc
 50
270.0
 51
0.0
  0
LINE
  5
134
330
1F
100
AcDbEntity
  8
0
  6
Continuous
 62
     7
370
    25
100
AcDbLine
 10
120.3937170093
 20
361.7828900423
 30
0.0
 11
120.3937170093
 21
218.7828900423
 31
0.0
  0
LINE
  5
135
330
1F
100
AcDbEntity
  8
0
  6
Continuous
 62
     7
370
    25
100
AcDbLine
 10
145.7937170093
 20
218.7828900423
 30
0.0
 11
145.7937170093
 21
361.7828900423
 31
0.0
  0
LINE
  5
136
330
1F
100
AcDbEntity
  8
0
  6
Continuous
 62
     7
370
    25
100
AcDbLine
 10
120.3937170093
 20
218.7828900423
 30
0.0
 11
120.3937170093
 21
173.7828900423
 31
0.0
  0
LINE
  5
137
330
1F
100
AcDbEntity
  8
0
  6
Continuous
 62
     7
370
    25
100
AcDbLine
 10
145.7937170093
 20
173.7828900423
 30
0.0
 11
145.7937170093
 21
218.7828900423
 31
0.0
  0
LINE
  5
138
330
1F
100
AcDbEntity
  8
0
  6
Continuous
 62
     7
370
    25
100
AcDbLine
 10
10.5937170093
 20
366.9828900423
 30
0.0
 11
10.5937170093
 21
350.0168618832
 31
0.0
  0
LINE
  5
139
330
1F
100
AcDbEntity
  8
0
  6
Continuous
 62
     7
370
    25
100
AcDbLine
 10
55.5937170093
 20
350.0168618832
 30
0.0
 11
55.5937170093
 21
366.9828900423
 31
0.0
  0
LINE
  5
13A
330
1F
100
AcDbEntity
  8
0
  6
Continuous
 62
     7
370
    25
100
AcDbLine
 10
106.0937170093
 20
371.7828900423
 30
0.0
 11
106.0937170093
 21
361.7828900423
 31
0.0
  0
LINE
  5
13B
330
1F
100
AcDbEntity
  8
0
  6
Continuous
 62
     7
370
    25
100
AcDbLine
 10
160.0937170093
 20
361.7828900423
 30
0.0
 11
160.0937170093
 21
371.7828900423
 31
0.0
  0
LWPOLYLINE
  5
13C
330
1F
100
AcDbEntity
  8
0
  6
Continuous
 62
     7
370
    25
100
AcDbPolyline
 90
        3
 70
   128
 43
0.0
 10
12.6726583584
 20
350.0168618832
 10
12.7200922067
 20
349.5846121245
 10
12.9497354789
 20
348.1331716412999
  0
LWPOLYLINE
  5
13D
330
1F
100
AcDbEntity
  8
0
  6
Continuous
 62
     7
370
    25
100
AcDbPolyline
 90
        3
 70
   128
 43
0.0
 10
53.2376985397
 20
348.1331716412999
 10
53.4673418119
 20
349.5846121245
 10
53.5147756602
 20
350.0168618832
  0
LINE
  5
13E
330
1F
100
AcDbEntity
  8
0
  6
Continuous
 62
     7
370
    25
100
AcDbLine
 10
5.093717009299999
 20
371.7828900423
 30
0.0
 11
5.093717009299999
 21
366.9828900423
 31
0.0
  0
LINE
  5
13F
330
1F
100
AcDbEntity
  8
0
  6
Continuous
 62
     7
370
    25
100
AcDbLine
 10
61.0937170093
 20
366.9828900423
 30
0.0
 11
61.0937170093
 21
371.7828900423
 31
0.0
  0
CIRCLE
  5
140
330
1F
100
AcDbEntity
  8
0
  6
Continuous
 62
     7
370
    25
100
AcDbCircle
 10
33.4619995417
 20
331.5332588845
 30
0.0
 40
3.999911682345698
  0
ARC
  5
141
330
1F
100
AcDbEntity
  8
0
  6
Continuous
 62
     7
370
    25
100
AcDbCircle
 10
33.1477618596
 20
331.5331716413
 30
0.0
 40
4.000000001016825
100
AcDbArc
 50
90.0012919052
 51
269.9987080947
  0
SPLINE
  5
142
330
1F
100
AcDbEntity
  8
0
  6
Continuous
 62
     7
370
    25
100
AcDbSpline
210
0.0
220
0.0
230
1.0
 70
     8
 71
     3
 72
    20
 73
    16
 74
     0
 42
0.00000001
 43
0.0000000001
 40
0.0
 40
0.0
 40
0.0
 40
0.0
 40
0.0512138474806499
 40
0.134687457831972
 40
0.2171822111788662
 40
0.3001302833957995
 40
0.3842767667326402
 40
0.46853839849947
 40
0.5515975636934853
 40
0.6340262663415875
 40
0.7173635976199932
 40
0.8017396376827351
 40
0.885678322092745
 40
0.9684069702036463
 40
1.0
 40
1.0
 40
1.0
 40
1.0
 10
34.85652117530145
 20
335.2015690756299
 30
0.0
 10
34.60325560272428
 20
335.324884378108
 30
0.0
 10
33.93719168046839
 20
335.6491916781765
 30
0.0
 10
32.70492694815124
 20
335.6752064161609
 30
0.0
 10
31.37500335752438
 20
335.3132796714206
 30
0.0
 10
30.23270758198217
 20
334.5185297627737
 30
0.0
 10
29.40943594946982
 20
333.3899778906202
 30
0.0
 10
29.0057646804308
 20
332.0457408630843
 30
0.0
 10
29.07008789196242
 20
330.652387863784
 30
0.0
 10
29.58415454533351
 20
329.3648429682682
 30
0.0
 10
30.4920529951306
 20
328.3140565375707
 30
0.0
 10
31.70913077273516
 20
327.608757032331
 30
0.0
 10
33.07691946948777
 20
327.3722003646395
 30
0.0
 10
34.20166451981036
 20
327.4789122708628
 30
0.0
 10
34.74450057489459
 20
327.7926195502893
 30
0.0
 10
34.8945144303309
 20
327.8793131993651
 30
0.0
  0
ELLIPSE
  5
143
330
1F
100
AcDbEntity
  8
0
  6
Continuous
 62
     7
370
    25
100
AcDbEllipse
 10
32.97872056
 20
347.7701124296
 30
0.0
 11
22.49997925469328
 21
0.0795988341273528
 31
0.0
210
0.0
220
0.0
230
1.0
 40
0.3838480866
 41
3.090328416725798
 42
3.140234703831308
  0
ELLIPSE
  5
144
330
1F
100
AcDbEntity
  8
0
  6
Continuous
 62
     7
370
    25
100
AcDbEllipse
 10
32.97872056
 20
347.7701124296
 30
0.0
 11
22.49997925469328
 21
0.0795988341273528
 31
0.0
210
0.0
220
0.0
230
1.0
 40
0.3838480866
 41
6.281827357421143
 42
6.316017100675701
  0
LINE
  5
145
330
1F
100
AcDbEntity
  8
0
  6
Continuous
 62
     7
370
    25
100
AcDbLine
 10
55.46557128239999
 20
348.1331716412999
 30
0.0
 11
10.5067344168
 21
348.1331716412999
 31
0.0
  0
LWPOLYLINE
  5
146
330
1F
100
AcDbEntity
  8
0
  6
Continuous
 62
     7
370
    25
100
AcDbPolyline
 90
        3
 70
   128
 43
0.0
 10
34.59322025
 20
335.3698707762
 10
33.8596072136
 20
335.5708834286
 10
33.1476716676
 20
335.6331716413
  0
LWPOLYLINE
  5
147
330
1F
100
AcDbEntity
  8
0
  6
Continuous
 62
     7
370
    25
100
AcDbPolyline
 90
        3
 70
   128
 43
0.0
 10
33.1476716676
 20
327.4331716413
 10
33.8596072136
 20
327.4954598539
 10
34.5932202218
 20
327.6964724957
  0
LINE
  5
148
330
1F
100
AcDbEntity
  8
0
  6
Continuous
 62
     7
370
    25
100
AcDbLine
 10
55.37872056
 20
321.1331716413
 30
0.0
 11
10.57872056
 21
321.1331716413
 31
0.0
  0
ARC
  5
149
330
1F
100
AcDbEntity
  8
DIMENSION
100
AcDbCircle
 10
133.0937170093
 20
173.7828900423
 30
0.0
 40
12.70000000000002
100
AcDbArc
 50
180.0
 51
0.0
  0
LINE
  5
14A
330
1F
100
AcDbEntity
  8
0
  6
Continuous
 62
     7
370
    25
100
AcDbLine
 10
-6.9062829907
 20
373.7828900423
 30
0.0
 11
-6.9062829907
 21
371.7828900423
 31
0.0
  0
LINE
  5
14B
330
1F
100
AcDbEntity
  8
0
  6
Continuous
 62
     7
370
    25
100
AcDbLine
 10
-6.9062829907
 20
373.7828900423
 30
0.0
 11
173.0937170093
 21
373.7828900423
 31
0.0
  0
LINE
  5
14C
330
1F
100
AcDbEntity
  8
0
  6
Continuous
 62
     7
370
    25
100
AcDbLine
 10
173.0937170093
 20
373.7828900423
 30
0.0
 11
173.0937170093
 21
371.7828900423
 31
0.0
  0
LINE
  5
14D
330
1F
100
AcDbEntity
  8
0
  6
Continuous
 62
     7
370
    25
100
AcDbLine
 10
-6.9062829907
 20
371.7828900423
 30
0.0
 11
173.0937170093
 21
371.7828900423
 31
0.0
  0
LINE
  5
14E
330
1F
100
AcDbEntity
  8
0
  6
Continuous
 62
     7
370
    25
100
AcDbLine
 10
33.0937170093
 20
350.0168618832
 30
0.0
 11
55.5937170093
 21
350.0168618832
 31
0.0
  0
LINE
  5
14F
330
1F
100
AcDbEntity
  8
0
  6
Continuous
 62
     7
370
    25
100
AcDbLine
 10
10.5937170093
 20
350.0168618832
 30
0.0
 11
33.0937170093
 21
350.0168618832
 31
0.0
  0
LINE
  5
150
330
1F
100
AcDbEntity
  8
0
  6
Continuous
 62
     7
370
    25
100
AcDbLine
 10
133.0937170093
 20
361.7828900423
 30
0.0
 11
160.0937170093
 21
361.7828900423
 31
0.0
  0
LINE
  5
151
330
1F
100
AcDbEntity
  8
0
  6
Continuous
 62
     7
370
    25
100
AcDbLine
 10
106.0937170093
 20
361.7828900423
 30
0.0
 11
133.0937170093
 21
361.7828900423
 31
0.0
  0
LINE
  5
152
330
1F
100
AcDbEntity
  8
0
  6
Continuous
 62
     7
370
    25
100
AcDbLine
 10
33.0937170093
 20
366.9828900423
 30
0.0
 11
61.0937170093
 21
366.9828900423
 31
0.0
  0
LINE
  5
153
330
1F
100
AcDbEntity
  8
0
  6
Continuous
 62
     7
370
    25
100
AcDbLine
 10
5.093717009299999
 20
366.9828900423
 30
0.0
 11
33.0937170093
 21
366.9828900423
 31
0.0
  0
DIMENSION
  5
154
102
{ACAD_XDICTIONARY
360
21B
102
}
330
1F
100
AcDbEntity
  8
DIMENSION
100
AcDbDimension
280
     0
  2
*D16
 10
173.0937170093
 20
407.7828900423
 30
0.0
 11
79.1914985649
 21
407.7828900423
 31
0.0
 70
   160
  1
<>
 71
     2
 42
180.0
 73
     0
 74
     0
 75
     0
  3
RG Dimension Lines
100
AcDbAlignedDimension
 13
-6.9062829907
 23
365.0168618832
 33
0.0
 14
173.0937170093
 24
365.0168618832
 34
0.0
100
AcDbRotatedDimension
1001
AcadAnnotative
1000
AnnotativeData
1002
{
1070
     1
1070
     1
1002
}
  0
ENDSEC
  0
SECTION
  2
OBJECTS
  0
DICTIONARY
  5
C
330
0
100
AcDbDictionary
281
     1
  3
ACAD_CIP_PREVIOUS_PRODUCT_INFO
350
19C
  3
ACAD_COLOR
350
191
  3
ACAD_DETAILVIEWSTYLE
350
198
  3
ACAD_GROUP
350
D
  3
ACAD_LAYOUT
350
1A
  3
ACAD_MATERIAL
350
15F
  3
ACAD_MLEADERSTYLE
350
194
  3
ACAD_MLINESTYLE
350
17
  3
ACAD_PLOTSETTINGS
350
19
  3
ACAD_PLOTSTYLENAME
350
E
  3
ACAD_SCALELIST
350
47
  3
ACAD_SECTIONVIEWSTYLE
350
196
  3
ACAD_TABLESTYLE
350
192
  3
ACAD_VISUALSTYLE
350
178
  3
ACDB_RECOMPOSE_DATA
350
23B
  3
AcDbVariableDictionary
350
22F
  0
DICTIONARY
  5
1B0
330
2
100
AcDbDictionary
280
     1
281
     1
  3
ACAD_LAYERSTATES
360
1B1
  0
DICTIONARY
  5
21F
330
10
100
AcDbDictionary
280
     1
281
     1
  3
ADSK_XREC_LAYER_RECONCILED
360
220
  0
DICTIONARY
  5
221
330
73
100
AcDbDictionary
280
     1
281
     1
  3
ADSK_XREC_LAYER_RECONCILED
360
222
  0
DICTIONARY
  5
223
330
1A8
100
AcDbDictionary
280
     1
281
     1
  3
ADSK_XREC_LAYER_RECONCILED
360
224
  0
DICTIONARY
  5
20D
330
D8
100
AcDbDictionary
280
     1
281
     1
  3
AcDbContextDataManager
360
20E
  0
DICTIONARY
  5
1FF
330
E5
100
AcDbDictionary
280
     1
281
     1
  3
AcDbContextDataManager
360
200
  0
DICTIONARY
  5
1F1
330
ED
100
AcDbDictionary
280
     1
281
     1
  3
AcDbContextDataManager
360
1F2
  0
DICTIONARY
  5
1E3
330
11E
100
AcDbDictionary
280
     1
281
     1
  3
AcDbContextDataManager
360
1E4
  0
DICTIONARY
  5
1D5
330
126
100
AcDbDictionary
280
     1
281
     1
  3
AcDbContextDataManager
360
1D6
  0
DICTIONARY
  5
21B
330
154
100
AcDbDictionary
280
     1
281
     1
  3
AcDbContextDataManager
360
21C
  0
XRECORD
  5
19C
102
{ACAD_REACTORS
330
C
102
}
330
C
100
AcDbXrecord
280
     1
300
ACD
300
2021
300

  0
DICTIONARY
  5
191
102
{ACAD_REACTORS
330
C
102
}
330
C
100
AcDbDictionary
281
     1
  0
DICTIONARY
  5
198
102
{ACAD_REACTORS
330
C
102
}
330
C
100
AcDbDictionary
281
     1
  3
Metric50
350
199
  0
DICTIONARY
  5
D
102
{ACAD_REACTORS
330
C
102
}
330
C
100
AcDbDictionary
281
     1
  0
DICTIONARY
  5
1A
102
{ACAD_REACTORS
330
C
102
}
330
C
100
AcDbDictionary
281
     1
  3
Layout1
350
1E
  3
Layout2
350
26
  3
Model
350
22
  0
DICTIONARY
  5
15F
102
{ACAD_REACTORS
330
C
102
}
330
C
100
AcDbDictionary
281
     1
  3
ByBlock
350
168
  3
ByLayer
350
160
  3
Global
350
170
  0
DICTIONARY
  5
194
102
{ACAD_REACTORS
330
C
102
}
330
C
100
AcDbDictionary
281
     1
  3
Standard
350
195
  0
DICTIONARY
  5
17
102
{ACAD_REACTORS
330
C
102
}
330
C
100
AcDbDictionary
281
     1
  3
Standard
350
18
  0
DICTIONARY
  5
19
102
{ACAD_REACTORS
330
C
102
}
330
C
100
AcDbDictionary
281
     1
  0
ACDBDICTIONARYWDFLT
  5
E
102
{ACAD_REACTORS
330
C
102
}
330
C
100
AcDbDictionary
281
     1
  3
Normal
350
F
100
AcDbDictionaryWithDefault
340
F
  0
DICTIONARY
  5
47
102
{ACAD_REACTORS
330
C
102
}
330
C
100
AcDbDictionary
281
     1
  3
A0
350
48
  3
A1
350
49
  3
A2
350
4A
  3
A3
350
4B
  3
A4
350
4C
  3
A5
350
4D
  3
A6
350
4E
  3
A7
350
4F
  3
A8
350
50
  3
A9
350
51
  3
B0
350
52
  3
B1
350
53
  3
B2
350
54
  3
B3
350
55
  3
B4
350
56
  3
B5
350
57
  3
B6
350
58
  3
B7
350
59
  3
B8
350
5A
  3
B9
350
5B
  3
C0
350
5C
  3
C1
350
5D
  3
C2
350
5E
  3
C3
350
5F
  3
C4
350
60
  3
C5
350
61
  3
C6
350
62
  3
C7
350
63
  3
C8
350
64
  3
C9
350
65
  3
D0
350
66
  3
D1
350
67
  3
D2
350
68
  0
DICTIONARY
  5
196
102
{ACAD_REACTORS
330
C
102
}
330
C
100
AcDbDictionary
281
     1
  3
Metric50
350
197
  0
DICTIONARY
  5
192
102
{ACAD_REACTORS
330
C
102
}
330
C
100
AcDbDictionary
281
     1
  3
Standard
350
193
  0
DICTIONARY
  5
178
102
{ACAD_REACTORS
330
C
102
}
330
C
100
AcDbDictionary
281
     1
  3
2dWireframe
350
17E
  3
Basic
350
17D
  3
Brighten
350
184
  3
ColorChange
350
188
  3
Conceptual
350
181
  3
Dim
350
183
  3
EdgeColorOff
350
190
  3
Facepattern
350
187
  3
Flat
350
179
  3
FlatWithEdges
350
17A
  3
Gouraud
350
17B
  3
GouraudWithEdges
350
17C
  3
Hidden
350
180
  3
JitterOff
350
18E
  3
Linepattern
350
186
  3
OverhangOff
350
18F
  3
Realistic
350
182
  3
Shaded
350
18D
  3
Shaded with edges
350
18C
  3
Shades of Gray
350
189
  3
Sketchy
350
18A
  3
Thicken
350
185
  3
Wireframe
350
17F
  3
X-Ray
350
18B
  0
XRECORD
  5
23B
102
{ACAD_REACTORS
330
C
102
}
330
C
100
AcDbXrecord
280
     1
 90
        1
330
193
  0
DICTIONARY
  5
22F
102
{ACAD_REACTORS
330
C
102
}
330
C
100
AcDbDictionary
281
     1
  3
CANNOSCALE
350
235
  3
CMLEADERSTYLE
350
231
  3
CTABLESTYLE
350
230
  3
CVIEWDETAILSTYLE
350
232
  3
CVIEWSECTIONSTYLE
350
233
  3
LAYEREVAL
350
237
  3
LAYERNOTIFY
350
238
  3
LIGHTINGUNITS
350
236
  3
MSLTSCALE
350
234
  0
DICTIONARY
  5
1B1
102
{ACAD_REACTORS
330
1B0
102
}
330
1B0
100
AcDbDictionary
281
     1
  0
XRECORD
  5
220
102
{ACAD_REACTORS
330
21F
102
}
330
21F
100
AcDbXrecord
280
     1
290
     1
  0
XRECORD
  5
222
102
{ACAD_REACTORS
330
221
102
}
330
221
100
AcDbXrecord
280
     1
290
     1
  0
XRECORD
  5
224
102
{ACAD_REACTORS
330
223
102
}
330
223
100
AcDbXrecord
280
     1
290
     1
  0
DICTIONARY
  5
20E
102
{ACAD_REACTORS
330
20D
102
}
330
20D
100
AcDbDictionary
281
     1
  3
ACDB_ANNOTATIONSCALES
350
20F
  0
DICTIONARY
  5
200
102
{ACAD_REACTORS
330
1FF
102
}
330
1FF
100
AcDbDictionary
281
     1
  3
ACDB_ANNOTATIONSCALES
350
201
  0
DICTIONARY
  5
1F2
102
{ACAD_REACTORS
330
1F1
102
}
330
1F1
100
AcDbDictionary
281
     1
  3
ACDB_ANNOTATIONSCALES
350
1F3
  0
DICTIONARY
  5
1E4
102
{ACAD_REACTORS
330
1E3
102
}
330
1E3
100
AcDbDictionary
281
     1
  3
ACDB_ANNOTATIONSCALES
350
1E5
  0
DICTIONARY
  5
1D6
102
{ACAD_REACTORS
330
1D5
102
}
330
1D5
100
AcDbDictionary
281
     1
  3
ACDB_ANNOTATIONSCALES
350
1D7
  0
DICTIONARY
  5
21C
102
{ACAD_REACTORS
330
21B
102
}
330
21B
100
AcDbDictionary
281
     1
  3
ACDB_ANNOTATIONSCALES
350
21D
  0
ACDBDETAILVIEWSTYLE
  5
199
102
{ACAD_REACTORS
330
198
102
}
330
198
100
AcDbModelDocViewStyle
 70
     0
  3
Metric50
290
     0
300
Metric50
 90
        0
100
AcDbDetailViewStyle
 70
     0
 71
     0
 90
        3
 71
     1
340
11
 62
   256
 40
5.0
340
0
 62
   256
 40
5.0
300

 40
0.0
280
     1
 71
     2
340
16
 90
       25
 62
   256
 71
     3
340
11
 62
   256
 40
5.0
 90
        0
 40
15.0
 90
        1
300
%<\AcVar ViewDetailId>% (%<\AcVar ViewScale \f "%sn">%)
 71
     4
340
16
 90
       25
 62
   256
340
16
 90
       25
 62
   256
280
     0
  0
LAYOUT
  5
1E
102
{ACAD_REACTORS
330
1A
102
}
330
1A
100
AcDbPlotSettings
  1

  2
none_device
  4

  6

 40
0.0
 41
0.0
 42
0.0
 43
0.0
 44
0.0
 45
0.0
 46
0.0
 47
0.0
 48
0.0
 49
0.0
140
0.0
141
0.0
142
1.0
143
1.0
 70
   688
 72
     1
 73
     0
 74
     5
  7

 75
    16
147
1.0
 76
     0
 77
     2
 78
   300
148
0.0
149
0.0
100
AcDbLayout
  1
Layout1
 70
     1
 71
     1
 10
0.0
 20
0.0
 11
420.0
 21
297.0
 12
0.0
 22
0.0
 32
0.0
 14
1.000000000000000E+20
 24
1.000000000000000E+20
 34
1.000000000000000E+20
 15
-1.000000000000000E+20
 25
-1.000000000000000E+20
 35
-1.000000000000000E+20
146
0.0
 13
0.0
 23
0.0
 33
0.0
 16
1.0
 26
0.0
 36
0.0
 17
0.0
 27
1.0
 37
0.0
 76
     0
330
1B
  0
LAYOUT
  5
26
102
{ACAD_REACTORS
330
1A
102
}
330
1A
100
AcDbPlotSettings
  1

  2
none_device
  4

  6

 40
0.0
 41
0.0
 42
0.0
 43
0.0
 44
0.0
 45
0.0
 46
0.0
 47
0.0
 48
0.0
 49
0.0
140
0.0
141
0.0
142
1.0
143
1.0
 70
   688
 72
     1
 73
     0
 74
     5
  7

 75
    16
147
1.0
 76
     0
 77
     2
 78
   300
148
0.0
149
0.0
100
AcDbLayout
  1
Layout2
 70
     1
 71
     2
 10
0.0
 20
0.0
 11
0.0
 21
0.0
 12
0.0
 22
0.0
 32
0.0
 14
0.0
 24
0.0
 34
0.0
 15
0.0
 25
0.0
 35
0.0
146
0.0
 13
0.0
 23
0.0
 33
0.0
 16
1.0
 26
0.0
 36
0.0
 17
0.0
 27
1.0
 37
0.0
 76
     0
330
23
  0
LAYOUT
  5
22
102
{ACAD_REACTORS
330
1A
102
}
330
1A
100
AcDbPlotSettings
  1

  2
none_device
  4
Letter_(8.50_x_11.00_Inches)
  6

 40
6.349999999999999
 41
6.349999999999999
 42
6.350005079999999
 43
6.350005079999999
 44
215.9
 45
279.4
 46
0.0
 47
0.0
 48
0.0
 49
0.0
140
0.0
141
0.0
142
1.0
143
1.0
 70
  1712
 72
     1
 73
     0
 74
     0
  7

 75
     0
147
1.0
 76
     0
 77
     2
 78
   300
148
0.0
149
0.0
100
AcDbLayout
  1
Model
 70
     1
 71
     0
 10
0.0
 20
0.0
 11
420.0
 21
297.0
 12
0.0
 22
0.0
 32
0.0
 14
0.0
 24
0.0
 34
0.0
 15
420.0
 25
297.0
 35
0.0
146
0.0
 13
0.0
 23
0.0
 33
0.0
 16
1.0
 26
0.0
 36
0.0
 17
0.0
 27
1.0
 37
0.0
 76
     0
330
1F
331
29
  0
MATERIAL
  5
168
102
{ACAD_XDICTIONARY
360
169
102
}
102
{ACAD_REACTORS
330
15F
102
}
330
15F
100
AcDbMaterial
  1
ByBlock
 72
     0
 43
0.0008202099737533
 43
0.0
 43
0.0
 43
0.0
 43
0.0
 43
0.0008202099737533
 43
0.0
 43
0.0
 43
0.0
 43
0.0
 43
1.0
 43
0.0
 43
0.0
 43
0.0
 43
0.0
 43
1.0
 77
     0
 47
0.0008202099737533
 47
0.0
 47
0.0
 47
0.0
 47
0.0
 47
0.0008202099737533
 47
0.0
 47
0.0
 47
0.0
 47
0.0
 47
1.0
 47
0.0
 47
0.0
 47
0.0
 47
0.0
 47
1.0
171
     0
 49
0.0008202099737533
 49
0.0
 49
0.0
 49
0.0
 49
0.0
 49
0.0008202099737533
 49
0.0
 49
0.0
 49
0.0
 49
0.0
 49
1.0
 49
0.0
 49
0.0
 49
0.0
 49
0.0
 49
1.0
175
     0
142
0.0008202099737533
142
0.0
142
0.0
142
0.0
142
0.0
142
0.0008202099737533
142
0.0
142
0.0
142
0.0
142
0.0
142
1.0
142
0.0
142
0.0
142
0.0
142
0.0
142
1.0
179
     0
144
0.0008202099737533
144
0.0
144
0.0
144
0.0
144
0.0
144
0.0008202099737533
144
0.0
144
0.0
144
0.0
144
0.0
144
1.0
144
0.0
144
0.0
144
0.0
144
0.0
144
1.0
147
0.0008202099737533
147
0.0
147
0.0
147
0.0
147
0.0
147
0.0008202099737533
147
0.0
147
0.0
147
0.0
147
0.0
147
1.0
147
0.0
147
0.0
147
0.0
147
0.0
147
1.0
  0
MATERIAL
  5
160
102
{ACAD_XDICTIONARY
360
161
102
}
102
{ACAD_REACTORS
330
15F
102
}
330
15F
100
AcDbMaterial
  1
ByLayer
 72
     0
 43
0.0008202099737533
 43
0.0
 43
0.0
 43
0.0
 43
0.0
 43
0.0008202099737533
 43
0.0
 43
0.0
 43
0.0
 43
0.0
 43
1.0
 43
0.0
 43
0.0
 43
0.0
 43
0.0
 43
1.0
 77
     0
 47
0.0008202099737533
 47
0.0
 47
0.0
 47
0.0
 47
0.0
 47
0.0008202099737533
 47
0.0
 47
0.0
 47
0.0
 47
0.0
 47
1.0
 47
0.0
 47
0.0
 47
0.0
 47
0.0
 47
1.0
171
     0
 49
0.0008202099737533
 49
0.0
 49
0.0
 49
0.0
 49
0.0
 49
0.0008202099737533
 49
0.0
 49
0.0
 49
0.0
 49
0.0
 49
1.0
 49
0.0
 49
0.0
 49
0.0
 49
0.0
 49
1.0
175
     0
142
0.0008202099737533
142
0.0
142
0.0
142
0.0
142
0.0
142
0.0008202099737533
142
0.0
142
0.0
142
0.0
142
0.0
142
1.0
142
0.0
142
0.0
142
0.0
142
0.0
142
1.0
179
     0
144
0.0008202099737533
144
0.0
144
0.0
144
0.0
144
0.0
144
0.0008202099737533
144
0.0
144
0.0
144
0.0
144
0.0
144
1.0
144
0.0
144
0.0
144
0.0
144
0.0
144
1.0
147
0.0008202099737533
147
0.0
147
0.0
147
0.0
147
0.0
147
0.0008202099737533
147
0.0
147
0.0
147
0.0
147
0.0
147
1.0
147
0.0
147
0.0
147
0.0
147
0.0
147
1.0
  0
MATERIAL
  5
170
102
{ACAD_XDICTIONARY
360
171
102
}
102
{ACAD_REACTORS
330
15F
102
}
330
15F
100
AcDbMaterial
  1
Global
 72
     0
 43
0.0008202099737533
 43
0.0
 43
0.0
 43
0.0
 43
0.0
 43
0.0008202099737533
 43
0.0
 43
0.0
 43
0.0
 43
0.0
 43
1.0
 43
0.0
 43
0.0
 43
0.0
 43
0.0
 43
1.0
 77
     0
 47
0.0008202099737533
 47
0.0
 47
0.0
 47
0.0
 47
0.0
 47
0.0008202099737533
 47
0.0
 47
0.0
 47
0.0
 47
0.0
 47
1.0
 47
0.0
 47
0.0
 47
0.0
 47
0.0
 47
1.0
171
     0
 49
0.0008202099737533
 49
0.0
 49
0.0
 49
0.0
 49
0.0
 49
0.0008202099737533
 49
0.0
 49
0.0
 49
0.0
 49
0.0
 49
1.0
 49
0.0
 49
0.0
 49
0.0
 49
0.0
 49
1.0
175
     0
142
0.0008202099737533
142
0.0
142
0.0
142
0.0
142
0.0
142
0.0008202099737533
142
0.0
142
0.0
142
0.0
142
0.0
142
1.0
142
0.0
142
0.0
142
0.0
142
0.0
142
1.0
179
     0
144
0.0008202099737533
144
0.0
144
0.0
144
0.0
144
0.0
144
0.0008202099737533
144
0.0
144
0.0
144
0.0
144
0.0
144
1.0
144
0.0
144
0.0
144
0.0
144
0.0
144
1.0
147
0.0008202099737533
147
0.0
147
0.0
147
0.0
147
0.0
147
0.0008202099737533
147
0.0
147
0.0
147
0.0
147
0.0
147
1.0
147
0.0
147
0.0
147
0.0
147
0.0
147
1.0
  0
MLEADERSTYLE
  5
195
102
{ACAD_REACTORS
330
194
102
}
330
194
100
AcDbMLeaderStyle
179
     2
170
     2
171
     1
172
     0
 90
        2
 40
0.0
 41
0.0
173
     1
 91
-1056964608
340
14
 92
       -2
290
     1
 42
2.0
291
     1
 43
0.36
  3
Standard
 44
4.0
300

342
11
174
     1
178
     6
175
     1
176
     0
 93
-1056964608
 45
4.0
292
     0
297
     0
 46
4.0
 94
-1056964608
 47
1.0
 49
1.0
140
1.0
293
     1
141
0.0
294
     1
177
     0
142
1.0
295
     0
296
     0
143
0.125
271
     0
272
     9
273
     9
298
     0
  0
MLINESTYLE
  5
18
102
{ACAD_REACTORS
330
17
102
}
330
17
100
AcDbMlineStyle
  2
STANDARD
 70
     0
  3

 62
   256
 51
90.0
 52
90.0
 71
     2
 49
0.5
 62
   256
  6
BYLAYER
 49
-0.5
 62
   256
  6
BYLAYER
  0
ACDBPLACEHOLDER
  5
F
102
{ACAD_REACTORS
330
E
102
}
330
E
  0
SCALE
  5
48
102
{ACAD_REACTORS
330
47
102
}
330
47
100
AcDbScale
 70
     0
300
1:1
140
1.0
141
1.0
290
     1
  0
SCALE
  5
49
102
{ACAD_REACTORS
330
47
102
}
330
47
100
AcDbScale
 70
     0
300
1:2
140
1.0
141
2.0
290
     0
  0
SCALE
  5
4A
102
{ACAD_REACTORS
330
47
102
}
330
47
100
AcDbScale
 70
     0
300
1:4
140
1.0
141
4.0
290
     0
  0
SCALE
  5
4B
102
{ACAD_REACTORS
330
47
102
}
330
47
100
AcDbScale
 70
     0
300
1:5
140
1.0
141
5.0
290
     0
  0
SCALE
  5
4C
102
{ACAD_REACTORS
330
47
102
}
330
47
100
AcDbScale
 70
     0
300
1:8
140
1.0
141
8.0
290
     0
  0
SCALE
  5
4D
102
{ACAD_REACTORS
330
47
102
}
330
47
100
AcDbScale
 70
     0
300
1:10
140
1.0
141
10.0
290
     0
  0
SCALE
  5
4E
102
{ACAD_REACTORS
330
47
102
}
330
47
100
AcDbScale
 70
     0
300
1:16
140
1.0
141
16.0
290
     0
  0
SCALE
  5
4F
102
{ACAD_REACTORS
330
47
102
}
330
47
100
AcDbScale
 70
     0
300
1:20
140
1.0
141
20.0
290
     0
  0
SCALE
  5
50
102
{ACAD_REACTORS
330
47
102
}
330
47
100
AcDbScale
 70
     0
300
1:30
140
1.0
141
30.0
290
     0
  0
SCALE
  5
51
102
{ACAD_REACTORS
330
47
102
}
330
47
100
AcDbScale
 70
     0
300
1:40
140
1.0
141
40.0
290
     0
  0
SCALE
  5
52
102
{ACAD_REACTORS
330
47
102
}
330
47
100
AcDbScale
 70
     0
300
1:50
140
1.0
141
50.0
290
     0
  0
SCALE
  5
53
102
{ACAD_REACTORS
330
47
102
}
330
47
100
AcDbScale
 70
     0
300
1:100
140
1.0
141
100.0
290
     0
  0
SCALE
  5
54
102
{ACAD_REACTORS
330
47
102
}
330
47
100
AcDbScale
 70
     0
300
2:1
140
2.0
141
1.0
290
     0
  0
SCALE
  5
55
102
{ACAD_REACTORS
330
47
102
}
330
47
100
AcDbScale
 70
     0
300
4:1
140
4.0
141
1.0
290
     0
  0
SCALE
  5
56
102
{ACAD_REACTORS
330
47
102
}
330
47
100
AcDbScale
 70
     0
300
8:1
140
8.0
141
1.0
290
     0
  0
SCALE
  5
57
102
{ACAD_REACTORS
330
47
102
}
330
47
100
AcDbScale
 70
     0
300
10:1
140
10.0
141
1.0
290
     0
  0
SCALE
  5
58
102
{ACAD_REACTORS
330
47
102
}
330
47
100
AcDbScale
 70
     0
300
100:1
140
100.0
141
1.0
290
     0
  0
SCALE
  5
59
102
{ACAD_REACTORS
330
47
102
}
330
47
100
AcDbScale
 70
     0
300
1/128" = 1'-0"
140
0.0078125
141
12.0
290
     0
  0
SCALE
  5
5A
102
{ACAD_REACTORS
330
47
102
}
330
47
100
AcDbScale
 70
     0
300
1/64" = 1'-0"
140
0.015625
141
12.0
290
     0
  0
SCALE
  5
5B
102
{ACAD_REACTORS
330
47
102
}
330
47
100
AcDbScale
 70
     0
300
1/32" = 1'-0"
140
0.03125
141
12.0
290
     0
  0
SCALE
  5
5C
102
{ACAD_REACTORS
330
47
102
}
330
47
100
AcDbScale
 70
     0
300
1/16" = 1'-0"
140
0.0625
141
12.0
290
     0
  0
SCALE
  5
5D
102
{ACAD_REACTORS
330
47
102
}
330
47
100
AcDbScale
 70
     0
300
3/32" = 1'-0"
140
0.09375
141
12.0
290
     0
  0
SCALE
  5
5E
102
{ACAD_REACTORS
330
47
102
}
330
47
100
AcDbScale
 70
     0
300
1/8" = 1'-0"
140
0.125
141
12.0
290
     0
  0
SCALE
  5
5F
102
{ACAD_REACTORS
330
47
102
}
330
47
100
AcDbScale
 70
     0
300
3/16" = 1'-0"
140
0.1875
141
12.0
290
     0
  0
SCALE
  5
60
102
{ACAD_REACTORS
330
47
102
}
330
47
100
AcDbScale
 70
     0
300
1/4" = 1'-0"
140
0.25
141
12.0
290
     0
  0
SCALE
  5
61
102
{ACAD_REACTORS
330
47
102
}
330
47
100
AcDbScale
 70
     0
300
3/8" = 1'-0"
140
0.375
141
12.0
290
     0
  0
SCALE
  5
62
102
{ACAD_REACTORS
330
47
102
}
330
47
100
AcDbScale
 70
     0
300
1/2" = 1'-0"
140
0.5
141
12.0
290
     0
  0
SCALE
  5
63
102
{ACAD_REACTORS
330
47
102
}
330
47
100
AcDbScale
 70
     0
300
3/4" = 1'-0"
140
0.75
141
12.0
290
     0
  0
SCALE
  5
64
102
{ACAD_REACTORS
330
47
102
}
330
47
100
AcDbScale
 70
     0
300
1" = 1'-0"
140
1.0
141
12.0
290
     0
  0
SCALE
  5
65
102
{ACAD_REACTORS
330
47
102
}
330
47
100
AcDbScale
 70
     0
300
1-1/2" = 1'-0"
140
1.5
141
12.0
290
     0
  0
SCALE
  5
66
102
{ACAD_REACTORS
330
47
102
}
330
47
100
AcDbScale
 70
     0
300
3" = 1'-0"
140
3.0
141
12.0
290
     0
  0
SCALE
  5
67
102
{ACAD_REACTORS
330
47
102
}
330
47
100
AcDbScale
 70
     0
300
6" = 1'-0"
140
6.0
141
12.0
290
     0
  0
SCALE
  5
68
102
{ACAD_REACTORS
330
47
102
}
330
47
100
AcDbScale
 70
     0
300
1'-0" = 1'-0"
140
12.0
141
12.0
290
     0
  0
ACDBSECTIONVIEWSTYLE
  5
197
102
{ACAD_REACTORS
330
196
102
}
330
196
100
AcDbModelDocViewStyle
 70
     0
  3
Metric50
290
     0
300
Metric50
 90
        0
100
AcDbSectionViewStyle
 70
     0
 71
     0
 90
      102
 71
     1
340
11
 62
   256
 40
5.0
340
0
340
0
 62
   256
 40
5.0
300
I, O, Q, S, X, Z
 40
10.0
 90
        0
 40
2.5
 90
        0
 71
     2
340
16
 90
       25
 62
   256
340
16
 90
       50
 62
   256
 40
5.0
 40
2.5
 40
5.0
 71
     3
340
11
 62
   256
 40
5.0
 90
        0
 40
15.0
 90
        1
300
%<\AcVar ViewSectionStartId>%-%<\AcVar ViewSectionEndId>% (%<\AcVar ViewScale \f "%sn">%)
 71
     4
 62
   256
 62
   257
300
ANSI31
 40
1.0
 90
        0
290
     0
290
     0
 90
        6
 40
0.0
 40
1.570796326794896
 40
0.2617993877991494
 40
1.308996938995747
 40
-0.2617993877991494
 40
1.832595714594046
  0
TABLESTYLE
  5
193
102
{ACAD_XDICTIONARY
360
239
102
}
102
{ACAD_REACTORS
330
192
102
}
330
192
100
AcDbTableStyle
280
     0
  3
Standard
 70
     0
 71
     0
 40
1.5
 41
1.5
280
     0
281
     0
  7
Standard
140
4.5
170
     2
 62
     0
 63
     7
283
     0
 90
      512
 91
        0
  1

274
    -2
284
     1
 64
     0
275
    -2
285
     1
 65
     0
276
    -2
286
     1
 66
     0
277
    -2
287
     1
 67
     0
278
    -2
288
     1
 68
     0
279
    -2
289
     1
 69
     0
  7
Standard
140
6.0
170
     5
 62
     0
 63
     7
283
     0
 90
      512
 91
        0
  1

274
    -2
284
     1
 64
     0
275
    -2
285
     1
 65
     0
276
    -2
286
     1
 66
     0
277
    -2
287
     1
 67
     0
278
    -2
288
     1
 68
     0
279
    -2
289
     1
 69
     0
  7
Standard
140
4.5
170
     5
 62
     0
 63
     7
283
     0
 90
      512
 91
        0
  1

274
    -2
284
     1
 64
     0
275
    -2
285
     1
 65
     0
276
    -2
286
     1
 66
     0
277
    -2
287
     1
 67
     0
278
    -2
288
     1
 68
     0
279
    -2
289
     1
 69
     0
  0
VISUALSTYLE
  5
17E
102
{ACAD_REACTORS
330
178
102
}
330
178
100
AcDbVisualStyle
  2
2dWireframe
 70
     4
177
     3
291
     0
 70
    58
 90
        0
176
     1
 90
        2
176
     1
 90
        0
176
     1
 90
        0
176
     1
 40
0.6
176
     1
 40
30.0
176
     1
 62
     7
420
 16777215
176
     1
 90
        1
176
     1
 90
        4
176
     1
 62
     7
176
     1
 62
   257
176
     1
 90
        1
176
     1
 90
        1
176
     1
 40
1.0
176
     1
 90
        0
176
     1
 62
   257
176
     1
 40
1.0
176
     1
 90
        1
176
     1
 90
        6
176
     1
 90
        2
176
     1
 62
     7
176
     1
 90
        5
176
     1
 90
        0
176
     1
 90
        0
176
     1
290
     0
176
     1
 90
        1
176
     1
 40
0.0
176
     1
 90
        0
176
     1
290
     1
176
     1
290
     1
176
     1
290
     0
176
     1
290
     0
176
     1
290
     0
176
     1
290
     0
176
     1
290
     0
176
     1
290
     0
176
     1
290
     0
176
     1
 90
       50
176
     1
 40
0.0
176
     1
 40
1.0
176
     1
 90
        0
176
     1
 62
    18
420
        0
176
     1
 90
       50
176
     1
 90
        3
176
     1
 62
     5
420
      255
176
     1
290
     0
176
     1
 90
       50
176
     1
 90
       50
176
     1
 90
       50
176
     1
290
     0
176
     1
 90
       50
176
     1
 62
   256
176
     0
 40
1.0
176
     0
 90
        2
176
     1
  1
strokes_ogs.tif
176
     1
290
     0
176
     1
 40
1.0
176
     1
 40
1.0
176
     1
  0
VISUALSTYLE
  5
17D
102
{ACAD_REACTORS
330
178
102
}
330
178
100
AcDbVisualStyle
  2
Basic
 70
     7
177
     3
291
     1
 70
    58
 90
        1
176
     1
 90
        0
176
     1
 90
        1
176
     1
 90
        0
176
     1
 40
0.6
176
     1
 40
30.0
176
     1
 62
     7
420
 16777215
176
     1
 90
        0
176
     1
 90
        4
176
     1
 62
     7
176
     1
 62
   257
176
     1
 90
        1
176
     1
 90
        1
176
     1
 40
1.0
176
     1
 90
        8
176
     1
 62
     7
176
     1
 40
1.0
176
     1
 90
        1
176
     1
 90
        6
176
     1
 90
        2
176
     1
 62
     7
176
     1
 90
        5
176
     1
 90
        0
176
     1
 90
        0
176
     1
290
     0
176
     1
 90
        1
176
     1
 40
0.0
176
     1
 90
        0
176
     1
290
     0
176
     1
290
     1
176
     1
290
     1
176
     1
290
     0
176
     1
290
     0
176
     1
290
     0
176
     1
290
     0
176
     1
290
     0
176
     1
290
     0
176
     1
 90
       50
176
     1
 40
0.0
176
     1
 40
1.0
176
     1
 90
        0
176
     1
 62
    18
420
        0
176
     1
 90
       50
176
     1
 90
        3
176
     1
 62
     5
420
      255
176
     1
290
     0
176
     1
 90
       50
176
     1
 90
       50
176
     1
 90
       50
176
     1
290
     0
176
     1
 90
       50
176
     1
 62
   256
176
     0
 40
1.0
176
     0
 90
        2
176
     1
  1
strokes_ogs.tif
176
     1
290
     0
176
     1
 40
1.0
176
     1
 40
1.0
176
     1
  0
VISUALSTYLE
  5
184
102
{ACAD_REACTORS
330
178
102
}
330
178
100
AcDbVisualStyle
  2
Brighten
 70
    12
177
     3
291
     1
 70
    58
 90
        2
176
     1
 90
        2
176
     1
 90
        0
176
     1
 90
        0
176
     1
 40
0.6
176
     1
 40
30.0
176
     1
 62
     7
420
 16777215
176
     1
 90
        1
176
     1
 90
        4
176
     1
 62
     7
176
     1
 62
   257
176
     1
 90
        1
176
     1
 90
        1
176
     1
 40
1.0
176
     1
 90
        8
176
     1
 62
     7
176
     1
 40
1.0
176
     1
 90
        1
176
     1
 90
        6
176
     1
 90
        2
176
     1
 62
     7
176
     1
 90
        5
176
     1
 90
        0
176
     1
 90
        0
176
     1
290
     0
176
     1
 90
        1
176
     1
 40
50.0
176
     1
 90
        0
176
     1
290
     0
176
     1
290
     1
176
     1
290
     1
176
     1
290
     0
176
     1
290
     0
176
     1
290
     0
176
     1
290
     0
176
     1
290
     0
176
     1
290
     0
176
     1
 90
       50
176
     1
 40
0.0
176
     1
 40
1.0
176
     1
 90
        0
176
     1
 62
    18
420
        0
176
     1
 90
       50
176
     1
 90
        3
176
     1
 62
     5
420
      255
176
     1
290
     0
176
     1
 90
       50
176
     1
 90
       50
176
     1
 90
       50
176
     1
290
     0
176
     1
 90
       50
176
     1
 62
   256
176
     0
 40
1.0
176
     0
 90
        2
176
     1
  1
strokes_ogs.tif
176
     1
290
     0
176
     1
 40
1.0
176
     1
 40
1.0
176
     1
  0
VISUALSTYLE
  5
188
102
{ACAD_REACTORS
330
178
102
}
330
178
100
AcDbVisualStyle
  2
ColorChange
 70
    16
177
     3
291
     1
 70
    58
 90
        2
176
     1
 90
        2
176
     1
 90
        3
176
     1
 90
        0
176
     1
 40
0.6
176
     1
 40
30.0
176
     1
 62
     8
420
  8421504
176
     1
 90
        1
176
     1
 90
        4
176
     1
 62
     7
176
     1
 62
   257
176
     1
 90
        1
176
     1
 90
        1
176
     1
 40
1.0
176
     1
 90
        8
176
     1
 62
     8
420
  8421504
176
     1
 40
1.0
176
     1
 90
        1
176
     1
 90
        6
176
     1
 90
        2
176
     1
 62
     7
176
     1
 90
        5
176
     1
 90
        0
176
     1
 90
        0
176
     1
290
     0
176
     1
 90
        1
176
     1
 40
0.0
176
     1
 90
        0
176
     1
290
     0
176
     1
290
     1
176
     1
290
     1
176
     1
290
     0
176
     1
290
     0
176
     1
290
     0
176
     1
290
     0
176
     1
290
     0
176
     1
290
     0
176
     1
 90
       50
176
     1
 40
0.0
176
     1
 40
1.0
176
     1
 90
        0
176
     1
 62
    18
420
        0
176
     1
 90
       50
176
     1
 90
        3
176
     1
 62
     5
420
      255
176
     1
290
     0
176
     1
 90
       50
176
     1
 90
       50
176
     1
 90
       50
176
     1
290
     0
176
     1
 90
       50
176
     1
 62
   256
176
     0
 40
1.0
176
     0
 90
        2
176
     1
  1
strokes_ogs.tif
176
     1
290
     0
176
     1
 40
1.0
176
     1
 40
1.0
176
     1
  0
VISUALSTYLE
  5
181
102
{ACAD_REACTORS
330
178
102
}
330
178
100
AcDbVisualStyle
  2
Conceptual
 70
     9
177
     3
291
     0
 70
    58
 90
        3
176
     1
 90
        2
176
     1
 90
        0
176
     1
 90
        0
176
     1
 40
0.6
176
     1
 40
30.0
176
     1
 62
     7
420
 16777215
176
     1
 90
        2
176
     1
 90
        2
176
     1
 62
     7
176
     1
 62
   257
176
     1
 90
        1
176
     1
 90
        1
176
     1
 40
179.0
176
     1
 90
        8
176
     1
 62
     7
176
     1
 40
1.0
176
     1
 90
        1
176
     1
 90
        6
176
     1
 90
        2
176
     1
 62
     7
176
     1
 90
        3
176
     1
 90
        0
176
     1
 90
        0
176
     1
290
     0
176
     1
 90
        1
176
     1
 40
0.0
176
     1
 90
        0
176
     1
290
     0
176
     1
290
     1
176
     1
290
     1
176
     1
290
     0
176
     1
290
     0
176
     1
290
     0
176
     1
290
     0
176
     1
290
     0
176
     1
290
     0
176
     1
 90
       50
176
     1
 40
0.0
176
     1
 40
1.0
176
     1
 90
        0
176
     1
 62
    18
420
        0
176
     1
 90
       50
176
     1
 90
        3
176
     1
 62
     5
420
      255
176
     1
290
     0
176
     1
 90
       50
176
     1
 90
       50
176
     1
 90
       50
176
     1
290
     0
176
     1
 90
       50
176
     1
 62
   256
176
     0
 40
1.0
176
     0
 90
        2
176
     1
  1
strokes_ogs.tif
176
     1
290
     0
176
     1
 40
1.0
176
     1
 40
1.0
176
     1
  0
VISUALSTYLE
  5
183
102
{ACAD_REACTORS
330
178
102
}
330
178
100
AcDbVisualStyle
  2
Dim
 70
    11
177
     3
291
     1
 70
    58
 90
        2
176
     1
 90
        2
176
     1
 90
        0
176
     1
 90
        0
176
     1
 40
0.6
176
     1
 40
30.0
176
     1
 62
     7
420
 16777215
176
     1
 90
        1
176
     1
 90
        4
176
     1
 62
     7
176
     1
 62
   257
176
     1
 90
        1
176
     1
 90
        1
176
     1
 40
1.0
176
     1
 90
        8
176
     1
 62
     7
176
     1
 40
1.0
176
     1
 90
        1
176
     1
 90
        6
176
     1
 90
        2
176
     1
 62
     7
176
     1
 90
        5
176
     1
 90
        0
176
     1
 90
        0
176
     1
290
     0
176
     1
 90
        1
176
     1
 40
-50.0
176
     1
 90
        0
176
     1
290
     0
176
     1
290
     1
176
     1
290
     1
176
     1
290
     0
176
     1
290
     0
176
     1
290
     0
176
     1
290
     0
176
     1
290
     0
176
     1
290
     0
176
     1
 90
       50
176
     1
 40
0.0
176
     1
 40
1.0
176
     1
 90
        0
176
     1
 62
    18
420
        0
176
     1
 90
       50
176
     1
 90
        3
176
     1
 62
     5
420
      255
176
     1
290
     0
176
     1
 90
       50
176
     1
 90
       50
176
     1
 90
       50
176
     1
290
     0
176
     1
 90
       50
176
     1
 62
   256
176
     0
 40
1.0
176
     0
 90
        2
176
     1
  1
strokes_ogs.tif
176
     1
290
     0
176
     1
 40
1.0
176
     1
 40
1.0
176
     1
  0
VISUALSTYLE
  5
190
102
{ACAD_REACTORS
330
178
102
}
330
178
100
AcDbVisualStyle
  2
EdgeColorOff
 70
    22
177
     3
291
     1
 70
    58
 90
        2
176
     0
 90
        2
176
     0
 90
        0
176
     0
 90
        0
176
     0
 40
0.6
176
     0
 40
30.0
176
     0
 62
     7
420
 16777215
176
     0
 90
        1
176
     0
 90
        4
176
     0
 62
     7
176
     0
 62
   257
176
     0
 90
        1
176
     0
 90
        1
176
     0
 40
1.0
176
     0
 90
        8
176
     2
 62
     7
176
     0
 40
1.0
176
     0
 90
        1
176
     0
 90
        6
176
     0
 90
        2
176
     0
 62
     7
176
     0
 90
        5
176
     0
 90
        0
176
     0
 90
        0
176
     0
290
     0
176
     0
 90
        1
176
     0
 40
0.0
176
     0
 90
        0
176
     0
290
     0
176
     1
290
     1
176
     1
290
     1
176
     1
290
     0
176
     1
290
     0
176
     1
290
     0
176
     1
290
     0
176
     1
290
     0
176
     1
290
     0
176
     1
 90
       50
176
     0
 40
0.0
176
     0
 40
1.0
176
     0
 90
        0
176
     0
 62
    18
420
        0
176
     0
 90
       50
176
     0
 90
        3
176
     0
 62
     5
420
      255
176
     0
290
     0
176
     1
 90
       50
176
     0
 90
       50
176
     0
 90
       50
176
     0
290
     0
176
     1
 90
       50
176
     0
 62
   256
176
     0
 40
1.0
176
     0
 90
        2
176
     0
  1
strokes_ogs.tif
176
     0
290
     0
176
     1
 40
1.0
176
     0
 40
1.0
176
     0
  0
VISUALSTYLE
  5
187
102
{ACAD_REACTORS
330
178
102
}
330
178
100
AcDbVisualStyle
  2
Facepattern
 70
    15
177
     3
291
     1
 70
    58
 90
        2
176
     1
 90
        2
176
     1
 90
        0
176
     1
 90
        0
176
     1
 40
0.6
176
     1
 40
30.0
176
     1
 62
     7
420
 16777215
176
     1
 90
        1
176
     1
 90
        4
176
     1
 62
     7
176
     1
 62
   257
176
     1
 90
        1
176
     1
 90
        1
176
     1
 40
1.0
176
     1
 90
        8
176
     1
 62
     7
176
     1
 40
1.0
176
     1
 90
        1
176
     1
 90
        6
176
     1
 90
        2
176
     1
 62
     7
176
     1
 90
        5
176
     1
 90
        0
176
     1
 90
        0
176
     1
290
     0
176
     1
 90
        1
176
     1
 40
0.0
176
     1
 90
        0
176
     1
290
     0
176
     1
290
     1
176
     1
290
     1
176
     1
290
     0
176
     1
290
     0
176
     1
290
     0
176
     1
290
     0
176
     1
290
     0
176
     1
290
     0
176
     1
 90
       50
176
     1
 40
0.0
176
     1
 40
1.0
176
     1
 90
        0
176
     1
 62
    18
420
        0
176
     1
 90
       50
176
     1
 90
        3
176
     1
 62
     5
420
      255
176
     1
290
     0
176
     1
 90
       50
176
     1
 90
       50
176
     1
 90
       50
176
     1
290
     0
176
     1
 90
       50
176
     1
 62
   256
176
     0
 40
1.0
176
     0
 90
        2
176
     1
  1
strokes_ogs.tif
176
     1
290
     0
176
     1
 40
1.0
176
     1
 40
1.0
176
     1
  0
VISUALSTYLE
  5
179
102
{ACAD_REACTORS
330
178
102
}
330
178
100
AcDbVisualStyle
  2
Flat
 70
     0
177
     3
291
     1
 70
    58
 90
        2
176
     1
 90
        1
176
     1
 90
        1
176
     1
 90
        2
176
     1
 40
0.6
176
     1
 40
30.0
176
     1
 62
     7
420
 16777215
176
     1
 90
        0
176
     1
 90
        0
176
     1
 62
     7
176
     1
 62
   257
176
     1
 90
        1
176
     1
 90
        1
176
     1
 40
1.0
176
     1
 90
        8
176
     1
 62
     7
176
     1
 40
1.0
176
     1
 90
        1
176
     1
 90
        6
176
     1
 90
        2
176
     1
 62
     7
176
     1
 90
        5
176
     1
 90
        0
176
     1
 90
        0
176
     1
290
     0
176
     1
 90
       13
176
     1
 40
0.0
176
     1
 90
        0
176
     1
290
     0
176
     1
290
     1
176
     1
290
     1
176
     1
290
     0
176
     1
290
     0
176
     1
290
     0
176
     1
290
     0
176
     1
290
     0
176
     1
290
     0
176
     1
 90
       50
176
     1
 40
0.0
176
     1
 40
1.0
176
     1
 90
        0
176
     1
 62
    18
420
        0
176
     1
 90
       50
176
     1
 90
        3
176
     1
 62
     5
420
      255
176
     1
290
     0
176
     1
 90
       50
176
     1
 90
       50
176
     1
 90
       50
176
     1
290
     0
176
     1
 90
       50
176
     1
 62
   256
176
     0
 40
1.0
176
     0
 90
        2
176
     1
  1
strokes_ogs.tif
176
     1
290
     0
176
     1
 40
1.0
176
     1
 40
1.0
176
     1
  0
VISUALSTYLE
  5
17A
102
{ACAD_REACTORS
330
178
102
}
330
178
100
AcDbVisualStyle
  2
FlatWithEdges
 70
     1
177
     3
291
     1
 70
    58
 90
        2
176
     1
 90
        1
176
     1
 90
        1
176
     1
 90
        2
176
     1
 40
0.6
176
     1
 40
30.0
176
     1
 62
     7
420
 16777215
176
     1
 90
        1
176
     1
 90
        0
176
     1
 62
     7
176
     1
 62
   257
176
     1
 90
        1
176
     1
 90
        1
176
     1
 40
1.0
176
     1
 90
        0
176
     1
 62
   257
176
     1
 40
1.0
176
     1
 90
        1
176
     1
 90
        6
176
     1
 90
        2
176
     1
 62
     7
176
     1
 90
        5
176
     1
 90
        0
176
     1
 90
        0
176
     1
290
     0
176
     1
 90
       13
176
     1
 40
0.0
176
     1
 90
        0
176
     1
290
     0
176
     1
290
     1
176
     1
290
     1
176
     1
290
     0
176
     1
290
     0
176
     1
290
     0
176
     1
290
     0
176
     1
290
     0
176
     1
290
     0
176
     1
 90
       50
176
     1
 40
0.0
176
     1
 40
1.0
176
     1
 90
        0
176
     1
 62
    18
420
        0
176
     1
 90
       50
176
     1
 90
        3
176
     1
 62
     5
420
      255
176
     1
290
     0
176
     1
 90
       50
176
     1
 90
       50
176
     1
 90
       50
176
     1
290
     0
176
     1
 90
       50
176
     1
 62
   256
176
     0
 40
1.0
176
     0
 90
        2
176
     1
  1
strokes_ogs.tif
176
     1
290
     0
176
     1
 40
1.0
176
     1
 40
1.0
176
     1
  0
VISUALSTYLE
  5
17B
102
{ACAD_REACTORS
330
178
102
}
330
178
100
AcDbVisualStyle
  2
Gouraud
 70
     2
177
     3
291
     1
 70
    58
 90
        2
176
     1
 90
        2
176
     1
 90
        1
176
     1
 90
        2
176
     1
 40
0.6
176
     1
 40
30.0
176
     1
 62
     7
420
 16777215
176
     1
 90
        0
176
     1
 90
        0
176
     1
 62
     7
176
     1
 62
   257
176
     1
 90
        1
176
     1
 90
        1
176
     1
 40
1.0
176
     1
 90
        0
176
     1
 62
     7
176
     1
 40
1.0
176
     1
 90
        1
176
     1
 90
        6
176
     1
 90
        2
176
     1
 62
     7
176
     1
 90
        5
176
     1
 90
        0
176
     1
 90
        0
176
     1
290
     0
176
     1
 90
       13
176
     1
 40
0.0
176
     1
 90
        0
176
     1
290
     0
176
     1
290
     1
176
     1
290
     1
176
     1
290
     0
176
     1
290
     0
176
     1
290
     0
176
     1
290
     0
176
     1
290
     0
176
     1
290
     0
176
     1
 90
       50
176
     1
 40
0.0
176
     1
 40
1.0
176
     1
 90
        0
176
     1
 62
    18
420
        0
176
     1
 90
       50
176
     1
 90
        3
176
     1
 62
     5
420
      255
176
     1
290
     0
176
     1
 90
       50
176
     1
 90
       50
176
     1
 90
       50
176
     1
290
     0
176
     1
 90
       50
176
     1
 62
   256
176
     0
 40
1.0
176
     0
 90
        2
176
     1
  1
strokes_ogs.tif
176
     1
290
     0
176
     1
 40
1.0
176
     1
 40
1.0
176
     1
  0
VISUALSTYLE
  5
17C
102
{ACAD_REACTORS
330
178
102
}
330
178
100
AcDbVisualStyle
  2
GouraudWithEdges
 70
     3
177
     3
291
     1
 70
    58
 90
        2
176
     1
 90
        2
176
     1
 90
        1
176
     1
 90
        2
176
     1
 40
0.6
176
     1
 40
30.0
176
     1
 62
     7
420
 16777215
176
     1
 90
        1
176
     1
 90
        0
176
     1
 62
     7
176
     1
 62
   257
176
     1
 90
        1
176
     1
 90
        1
176
     1
 40
1.0
176
     1
 90
        0
176
     1
 62
   257
176
     1
 40
1.0
176
     1
 90
        1
176
     1
 90
        6
176
     1
 90
        2
176
     1
 62
     7
176
     1
 90
        5
176
     1
 90
        0
176
     1
 90
        0
176
     1
290
     0
176
     1
 90
       13
176
     1
 40
0.0
176
     1
 90
        0
176
     1
290
     0
176
     1
290
     1
176
     1
290
     1
176
     1
290
     0
176
     1
290
     0
176
     1
290
     0
176
     1
290
     0
176
     1
290
     0
176
     1
290
     0
176
     1
 90
       50
176
     1
 40
0.0
176
     1
 40
1.0
176
     1
 90
        0
176
     1
 62
    18
420
        0
176
     1
 90
       50
176
     1
 90
        3
176
     1
 62
     5
420
      255
176
     1
290
     0
176
     1
 90
       50
176
     1
 90
       50
176
     1
 90
       50
176
     1
290
     0
176
     1
 90
       50
176
     1
 62
   256
176
     0
 40
1.0
176
     0
 90
        2
176
     1
  1
strokes_ogs.tif
176
     1
290
     0
176
     1
 40
1.0
176
     1
 40
1.0
176
     1
  0
VISUALSTYLE
  5
180
102
{ACAD_REACTORS
330
178
102
}
330
178
100
AcDbVisualStyle
  2
Hidden
 70
     6
177
     3
291
     0
 70
    58
 90
        1
176
     1
 90
        2
176
     1
 90
        2
176
     1
 90
        0
176
     1
 40
0.6
176
     1
 40
30.0
176
     1
 62
     7
420
 16777215
176
     1
 90
        2
176
     1
 90
        2
176
     1
 62
     7
176
     1
 62
   257
176
     1
 90
        2
176
     1
 90
        1
176
     1
 40
40.0
176
     1
 90
        0
176
     1
 62
   257
176
     1
 40
1.0
176
     1
 90
        1
176
     1
 90
        6
176
     1
 90
        2
176
     1
 62
     7
176
     1
 90
        3
176
     1
 90
        0
176
     1
 90
        0
176
     1
290
     0
176
     1
 90
        1
176
     1
 40
0.0
176
     1
 90
        0
176
     1
290
     0
176
     1
290
     1
176
     1
290
     1
176
     1
290
     0
176
     1
290
     0
176
     1
290
     0
176
     1
290
     0
176
     1
290
     0
176
     1
290
     0
176
     1
 90
       50
176
     1
 40
0.0
176
     1
 40
1.0
176
     1
 90
        0
176
     1
 62
    18
420
        0
176
     1
 90
       50
176
     1
 90
        3
176
     1
 62
     5
420
      255
176
     1
290
     0
176
     1
 90
       50
176
     1
 90
       50
176
     1
 90
       50
176
     1
290
     0
176
     1
 90
       50
176
     1
 62
   256
176
     0
 40
1.0
176
     0
 90
        2
176
     1
  1
strokes_ogs.tif
176
     1
290
     0
176
     1
 40
1.0
176
     1
 40
1.0
176
     1
  0
VISUALSTYLE
  5
18E
102
{ACAD_REACTORS
330
178
102
}
330
178
100
AcDbVisualStyle
  2
JitterOff
 70
    20
177
     3
291
     1
 70
    58
 90
        2
176
     0
 90
        2
176
     0
 90
        0
176
     0
 90
        0
176
     0
 40
0.6
176
     0
 40
30.0
176
     0
 62
     7
420
 16777215
176
     0
 90
        1
176
     0
 90
        4
176
     0
 62
     7
176
     0
 62
   257
176
     0
 90
        1
176
     0
 90
        1
176
     0
 40
1.0
176
     0
 90
       10
176
     2
 62
     7
176
     0
 40
1.0
176
     0
 90
        1
176
     0
 90
        6
176
     0
 90
        2
176
     0
 62
     7
176
     0
 90
        5
176
     0
 90
        0
176
     0
 90
        0
176
     0
290
     0
176
     0
 90
        1
176
     0
 40
0.0
176
     0
 90
        0
176
     0
290
     0
176
     1
290
     1
176
     1
290
     1
176
     1
290
     0
176
     1
290
     0
176
     1
290
     0
176
     1
290
     0
176
     1
290
     0
176
     1
290
     0
176
     1
 90
       50
176
     0
 40
0.0
176
     0
 40
1.0
176
     0
 90
        0
176
     0
 62
    18
420
        0
176
     0
 90
       50
176
     0
 90
        3
176
     0
 62
     5
420
      255
176
     0
290
     0
176
     1
 90
       50
176
     0
 90
       50
176
     0
 90
       50
176
     0
290
     0
176
     1
 90
       50
176
     0
 62
   256
176
     0
 40
1.0
176
     0
 90
        2
176
     0
  1
strokes_ogs.tif
176
     0
290
     0
176
     1
 40
1.0
176
     0
 40
1.0
176
     0
  0
VISUALSTYLE
  5
186
102
{ACAD_REACTORS
330
178
102
}
330
178
100
AcDbVisualStyle
  2
Linepattern
 70
    14
177
     3
291
     1
 70
    58
 90
        2
176
     1
 90
        2
176
     1
 90
        0
176
     1
 90
        0
176
     1
 40
0.6
176
     1
 40
30.0
176
     1
 62
     7
420
 16777215
176
     1
 90
        1
176
     1
 90
        4
176
     1
 62
     7
176
     1
 62
   257
176
     1
 90
        7
176
     1
 90
        7
176
     1
 40
1.0
176
     1
 90
        8
176
     1
 62
     7
176
     1
 40
1.0
176
     1
 90
        1
176
     1
 90
        6
176
     1
 90
        2
176
     1
 62
     7
176
     1
 90
        5
176
     1
 90
        0
176
     1
 90
        0
176
     1
290
     0
176
     1
 90
        1
176
     1
 40
0.0
176
     1
 90
        0
176
     1
290
     0
176
     1
290
     1
176
     1
290
     1
176
     1
290
     0
176
     1
290
     0
176
     1
290
     0
176
     1
290
     0
176
     1
290
     0
176
     1
290
     0
176
     1
 90
       50
176
     1
 40
0.0
176
     1
 40
1.0
176
     1
 90
        0
176
     1
 62
    18
420
        0
176
     1
 90
       50
176
     1
 90
        3
176
     1
 62
     5
420
      255
176
     1
290
     0
176
     1
 90
       50
176
     1
 90
       50
176
     1
 90
       50
176
     1
290
     0
176
     1
 90
       50
176
     1
 62
   256
176
     0
 40
1.0
176
     0
 90
        2
176
     1
  1
strokes_ogs.tif
176
     1
290
     0
176
     1
 40
1.0
176
     1
 40
1.0
176
     1
  0
VISUALSTYLE
  5
18F
102
{ACAD_REACTORS
330
178
102
}
330
178
100
AcDbVisualStyle
  2
OverhangOff
 70
    21
177
     3
291
     1
 70
    58
 90
        2
176
     0
 90
        2
176
     0
 90
        0
176
     0
 90
        0
176
     0
 40
0.6
176
     0
 40
30.0
176
     0
 62
     7
420
 16777215
176
     0
 90
        1
176
     0
 90
        4
176
     0
 62
     7
176
     0
 62
   257
176
     0
 90
        1
176
     0
 90
        1
176
     0
 40
1.0
176
     0
 90
        9
176
     2
 62
     7
176
     0
 40
1.0
176
     0
 90
        1
176
     0
 90
        6
176
     0
 90
        2
176
     0
 62
     7
176
     0
 90
        5
176
     0
 90
        0
176
     0
 90
        0
176
     0
290
     0
176
     0
 90
        1
176
     0
 40
0.0
176
     0
 90
        0
176
     0
290
     0
176
     1
290
     1
176
     1
290
     1
176
     1
290
     0
176
     1
290
     0
176
     1
290
     0
176
     1
290
     0
176
     1
290
     0
176
     1
290
     0
176
     1
 90
       50
176
     0
 40
0.0
176
     0
 40
1.0
176
     0
 90
        0
176
     0
 62
    18
420
        0
176
     0
 90
       50
176
     0
 90
        3
176
     0
 62
     5
420
      255
176
     0
290
     0
176
     1
 90
       50
176
     0
 90
       50
176
     0
 90
       50
176
     0
290
     0
176
     1
 90
       50
176
     0
 62
   256
176
     0
 40
1.0
176
     0
 90
        2
176
     0
  1
strokes_ogs.tif
176
     0
290
     0
176
     1
 40
1.0
176
     0
 40
1.0
176
     0
  0
VISUALSTYLE
  5
182
102
{ACAD_REACTORS
330
178
102
}
330
178
100
AcDbVisualStyle
  2
Realistic
 70
     8
177
     3
291
     0
 70
    58
 90
        2
176
     1
 90
        3
176
     1
 90
        0
176
     1
 90
        2
176
     1
 40
0.6
176
     1
 40
30.0
176
     1
 62
     7
420
 16777215
176
     1
 90
        0
176
     1
 90
        0
176
     1
 62
     7
176
     1
 62
   257
176
     1
 90
        1
176
     1
 90
        1
176
     1
 40
1.0
176
     1
 90
        8
176
     1
 62
   257
176
     1
 40
1.0
176
     1
 90
        1
176
     1
 90
        6
176
     1
 90
        2
176
     1
 62
     7
176
     1
 90
        3
176
     1
 90
        0
176
     1
 90
        0
176
     1
290
     0
176
     1
 90
       13
176
     1
 40
0.0
176
     1
 90
        0
176
     1
290
     0
176
     1
290
     1
176
     1
290
     1
176
     1
290
     0
176
     1
290
     0
176
     1
290
     0
176
     1
290
     0
176
     1
290
     0
176
     1
290
     0
176
     1
 90
       50
176
     1
 40
0.0
176
     1
 40
1.0
176
     1
 90
        0
176
     1
 62
    18
420
        0
176
     1
 90
       50
176
     1
 90
        3
176
     1
 62
     5
420
      255
176
     1
290
     0
176
     1
 90
       50
176
     1
 90
       50
176
     1
 90
       50
176
     1
290
     0
176
     1
 90
       50
176
     1
 62
   256
176
     0
 40
1.0
176
     0
 90
        2
176
     1
  1
strokes_ogs.tif
176
     1
290
     0
176
     1
 40
1.0
176
     1
 40
1.0
176
     1
  0
VISUALSTYLE
  5
18D
102
{ACAD_REACTORS
330
178
102
}
330
178
100
AcDbVisualStyle
  2
Shaded
 70
    27
177
     3
291
     0
 70
    58
 90
        2
176
     1
 90
        2
176
     1
 90
        1
176
     1
 90
        2
176
     1
 40
0.6
176
     1
 40
30.0
176
     1
 62
     7
420
 16777215
176
     1
 90
        0
176
     1
 90
        4
176
     1
 62
     7
176
     1
 62
   257
176
     1
 90
        1
176
     1
 90
        1
176
     1
 40
1.0
176
     1
 90
        8
176
     1
 62
   257
176
     1
 40
1.0
176
     1
 90
        1
176
     1
 90
        6
176
     1
 90
        2
176
     1
 62
     8
420
  7895160
176
     1
 90
        3
176
     1
 90
        0
176
     1
 90
        0
176
     1
290
     0
176
     1
 90
        5
176
     1
 40
0.0
176
     1
 90
        0
176
     1
290
     0
176
     1
290
     1
176
     1
290
     1
176
     1
290
     0
176
     1
290
     0
176
     1
290
     0
176
     1
290
     0
176
     1
290
     0
176
     1
290
     0
176
     1
 90
       50
176
     1
 40
0.0
176
     1
 40
1.0
176
     1
 90
        0
176
     1
 62
    18
420
        0
176
     1
 90
       50
176
     1
 90
        3
176
     1
 62
     5
420
      255
176
     1
290
     0
176
     1
 90
       50
176
     1
 90
       50
176
     1
 90
       50
176
     1
290
     0
176
     1
 90
       50
176
     1
 62
   256
176
     0
 40
1.0
176
     0
 90
        2
176
     1
  1
strokes_ogs.tif
176
     1
290
     0
176
     1
 40
1.0
176
     1
 40
1.0
176
     1
  0
VISUALSTYLE
  5
18C
102
{ACAD_REACTORS
330
178
102
}
330
178
100
AcDbVisualStyle
  2
Shaded with edges
 70
    26
177
     3
291
     0
 70
    58
 90
        2
176
     1
 90
        2
176
     1
 90
        1
176
     1
 90
        2
176
     1
 40
0.6
176
     1
 40
30.0
176
     1
 62
     7
420
 16777215
176
     1
 90
        1
176
     1
 90
        2
176
     1
 62
     7
176
     1
 62
   257
176
     1
 90
        2
176
     1
 90
        1
176
     1
 40
1.0
176
     1
 90
        8
176
     1
 62
   257
176
     1
 40
1.0
176
     1
 90
        1
176
     1
 90
        6
176
     1
 90
        2
176
     1
 62
     7
176
     1
 90
        3
176
     1
 90
        0
176
     1
 90
        0
176
     1
290
     0
176
     1
 90
        5
176
     1
 40
0.0
176
     1
 90
        0
176
     1
290
     0
176
     1
290
     1
176
     1
290
     1
176
     1
290
     0
176
     1
290
     0
176
     1
290
     0
176
     1
290
     0
176
     1
290
     0
176
     1
290
     0
176
     1
 90
       50
176
     1
 40
0.0
176
     1
 40
1.0
176
     1
 90
        0
176
     1
 62
    18
420
        0
176
     1
 90
       50
176
     1
 90
        3
176
     1
 62
     5
420
      255
176
     1
290
     0
176
     1
 90
       50
176
     1
 90
       50
176
     1
 90
       50
176
     1
290
     0
176
     1
 90
       50
176
     1
 62
   256
176
     0
 40
1.0
176
     0
 90
        2
176
     1
  1
strokes_ogs.tif
176
     1
290
     0
176
     1
 40
1.0
176
     1
 40
1.0
176
     1
  0
VISUALSTYLE
  5
189
102
{ACAD_REACTORS
330
178
102
}
330
178
100
AcDbVisualStyle
  2
Shades of Gray
 70
    23
177
     3
291
     0
 70
    58
 90
        2
176
     1
 90
        2
176
     1
 90
        3
176
     1
 90
        0
176
     1
 40
0.6
176
     1
 40
30.0
176
     1
 62
     7
420
 16777215
176
     1
 90
        2
176
     1
 90
        2
176
     1
 62
     7
176
     1
 62
     7
176
     1
 90
        1
176
     1
 90
        1
176
     1
 40
40.0
176
     1
 90
        8
176
     1
 62
     7
176
     1
 40
1.0
176
     1
 90
        1
176
     1
 90
        6
176
     1
 90
        2
176
     1
 62
     7
176
     1
 90
        3
176
     1
 90
        0
176
     1
 90
        0
176
     1
290
     0
176
     1
 90
        1
176
     1
 40
0.0
176
     1
 90
        0
176
     1
290
     0
176
     1
290
     1
176
     1
290
     1
176
     1
290
     0
176
     1
290
     0
176
     1
290
     0
176
     1
290
     0
176
     1
290
     0
176
     1
290
     0
176
     1
 90
       50
176
     1
 40
0.0
176
     1
 40
1.0
176
     1
 90
        0
176
     1
 62
    18
420
        0
176
     1
 90
       50
176
     1
 90
        3
176
     1
 62
     5
420
      255
176
     1
290
     0
176
     1
 90
       50
176
     1
 90
       50
176
     1
 90
       50
176
     1
290
     0
176
     1
 90
       50
176
     1
 62
   256
176
     0
 40
1.0
176
     0
 90
        2
176
     1
  1
strokes_ogs.tif
176
     1
290
     0
176
     1
 40
1.0
176
     1
 40
1.0
176
     1
  0
VISUALSTYLE
  5
18A
102
{ACAD_REACTORS
330
178
102
}
330
178
100
AcDbVisualStyle
  2
Sketchy
 70
    24
177
     3
291
     0
 70
    58
 90
        1
176
     1
 90
        2
176
     1
 90
        2
176
     1
 90
        0
176
     1
 40
0.6
176
     1
 40
30.0
176
     1
 62
     7
420
 16777215
176
     1
 90
        2
176
     1
 90
        2
176
     1
 62
     7
176
     1
 62
     7
176
     1
 90
        1
176
     1
 90
        1
176
     1
 40
40.0
176
     1
 90
       11
176
     1
 62
     7
176
     1
 40
1.0
176
     1
 90
        1
176
     1
 90
        6
176
     1
 90
        2
176
     1
 62
     7
176
     1
 90
        6
176
     1
 90
        0
176
     1
 90
        0
176
     1
290
     0
176
     1
 90
        1
176
     1
 40
0.0
176
     1
 90
        0
176
     1
290
     0
176
     1
290
     1
176
     1
290
     1
176
     1
290
     0
176
     1
290
     0
176
     1
290
     0
176
     1
290
     0
176
     1
290
     0
176
     1
290
     0
176
     1
 90
       50
176
     1
 40
0.0
176
     1
 40
1.0
176
     1
 90
        0
176
     1
 62
    18
420
        0
176
     1
 90
       50
176
     1
 90
        3
176
     1
 62
     5
420
      255
176
     1
290
     0
176
     1
 90
       50
176
     1
 90
       50
176
     1
 90
       50
176
     1
290
     0
176
     1
 90
       50
176
     1
 62
   256
176
     0
 40
1.0
176
     0
 90
        2
176
     1
  1
strokes_ogs.tif
176
     1
290
     0
176
     1
 40
1.0
176
     1
 40
1.0
176
     1
  0
VISUALSTYLE
  5
185
102
{ACAD_REACTORS
330
178
102
}
330
178
100
AcDbVisualStyle
  2
Thicken
 70
    13
177
     3
291
     1
 70
    58
 90
        2
176
     1
 90
        2
176
     1
 90
        0
176
     1
 90
        0
176
     1
 40
0.6
176
     1
 40
30.0
176
     1
 62
     7
420
 16777215
176
     1
 90
        1
176
     1
 90
        4
176
     1
 62
     7
176
     1
 62
   257
176
     1
 90
        1
176
     1
 90
        1
176
     1
 40
1.0
176
     1
 90
       12
176
     1
 62
     7
176
     1
 40
1.0
176
     1
 90
        1
176
     1
 90
        6
176
     1
 90
        2
176
     1
 62
     7
176
     1
 90
        5
176
     1
 90
        0
176
     1
 90
        0
176
     1
290
     0
176
     1
 90
        1
176
     1
 40
0.0
176
     1
 90
        0
176
     1
290
     0
176
     1
290
     1
176
     1
290
     1
176
     1
290
     0
176
     1
290
     0
176
     1
290
     0
176
     1
290
     0
176
     1
290
     0
176
     1
290
     0
176
     1
 90
       50
176
     1
 40
0.0
176
     1
 40
1.0
176
     1
 90
        0
176
     1
 62
    18
420
        0
176
     1
 90
       50
176
     1
 90
        3
176
     1
 62
     5
420
      255
176
     1
290
     0
176
     1
 90
       50
176
     1
 90
       50
176
     1
 90
       50
176
     1
290
     0
176
     1
 90
       50
176
     1
 62
   256
176
     0
 40
1.0
176
     0
 90
        2
176
     1
  1
strokes_ogs.tif
176
     1
290
     0
176
     1
 40
1.0
176
     1
 40
1.0
176
     1
  0
VISUALSTYLE
  5
17F
102
{ACAD_REACTORS
330
178
102
}
330
178
100
AcDbVisualStyle
  2
Wireframe
 70
     5
177
     3
291
     0
 70
    58
 90
        0
176
     1
 90
        2
176
     1
 90
        0
176
     1
 90
        0
176
     1
 40
0.6
176
     1
 40
30.0
176
     1
 62
     7
420
 16777215
176
     1
 90
        1
176
     1
 90
        4
176
     1
 62
     7
176
     1
 62
   257
176
     1
 90
        1
176
     1
 90
        1
176
     1
 40
1.0
176
     1
 90
        0
176
     1
 62
   257
176
     1
 40
1.0
176
     1
 90
        1
176
     1
 90
        6
176
     1
 90
        2
176
     1
 62
     7
176
     1
 90
        3
176
     1
 90
        0
176
     1
 90
        0
176
     1
290
     0
176
     1
 90
        1
176
     1
 40
0.0
176
     1
 90
        0
176
     1
290
     0
176
     1
290
     1
176
     1
290
     1
176
     1
290
     0
176
     1
290
     0
176
     1
290
     0
176
     1
290
     0
176
     1
290
     0
176
     1
290
     0
176
     1
 90
       50
176
     1
 40
0.0
176
     1
 40
1.0
176
     1
 90
        0
176
     1
 62
    18
420
        0
176
     1
 90
       50
176
     1
 90
        3
176
     1
 62
     5
420
      255
176
     1
290
     0
176
     1
 90
       50
176
     1
 90
       50
176
     1
 90
       50
176
     1
290
     0
176
     1
 90
       50
176
     1
 62
   256
176
     0
 40
1.0
176
     0
 90
        2
176
     1
  1
strokes_ogs.tif
176
     1
290
     0
176
     1
 40
1.0
176
     1
 40
1.0
176
     1
  0
VISUALSTYLE
  5
18B
102
{ACAD_REACTORS
330
178
102
}
330
178
100
AcDbVisualStyle
  2
X-Ray
 70
    25
177
     3
291
     0
 70
    58
 90
        2
176
     1
 90
        2
176
     1
 90
        1
176
     1
 90
        1
176
     1
 40
0.5
176
     1
 40
30.0
176
     1
 62
     7
420
 16777215
176
     1
 90
        1
176
     1
 90
        0
176
     1
 62
     7
176
     1
 62
   257
176
     1
 90
        1
176
     1
 90
        1
176
     1
 40
1.0
176
     1
 90
        8
176
     1
 62
     7
176
     1
 40
1.0
176
     1
 90
        1
176
     1
 90
        6
176
     1
 90
        2
176
     1
 62
     7
176
     1
 90
        3
176
     1
 90
        0
176
     1
 90
        0
176
     1
290
     0
176
     1
 90
       13
176
     1
 40
0.0
176
     1
 90
        0
176
     1
290
     0
176
     1
290
     1
176
     1
290
     1
176
     1
290
     0
176
     1
290
     0
176
     1
290
     0
176
     1
290
     0
176
     1
290
     0
176
     1
290
     0
176
     1
 90
       50
176
     1
 40
0.0
176
     1
 40
1.0
176
     1
 90
        0
176
     1
 62
    18
420
        0
176
     1
 90
       50
176
     1
 90
        3
176
     1
 62
     5
420
      255
176
     1
290
     0
176
     1
 90
       50
176
     1
 90
       50
176
     1
 90
       50
176
     1
290
     0
176
     1
 90
       50
176
     1
 62
   256
176
     0
 40
1.0
176
     0
 90
        2
176
     1
  1
strokes_ogs.tif
176
     1
290
     0
176
     1
 40
1.0
176
     1
 40
1.0
176
     1
  0
DICTIONARYVAR
  5
235
102
{ACAD_REACTORS
330
22F
102
}
330
22F
100
DictionaryVariables
280
     0
  1
1:1
  0
DICTIONARYVAR
  5
231
102
{ACAD_REACTORS
330
22F
102
}
330
22F
100
DictionaryVariables
280
     0
  1
STANDARD
  0
DICTIONARYVAR
  5
230
102
{ACAD_REACTORS
330
22F
102
}
330
22F
100
DictionaryVariables
280
     0
  1
STANDARD
  0
DICTIONARYVAR
  5
232
102
{ACAD_REACTORS
330
22F
102
}
330
22F
100
DictionaryVariables
280
     0
  1
Metric50
  0
DICTIONARYVAR
  5
233
102
{ACAD_REACTORS
330
22F
102
}
330
22F
100
DictionaryVariables
280
     0
  1
Metric50
  0
DICTIONARYVAR
  5
237
102
{ACAD_REACTORS
330
22F
102
}
330
22F
100
DictionaryVariables
280
     0
  1
1
  0
DICTIONARYVAR
  5
238
102
{ACAD_REACTORS
330
22F
102
}
330
22F
100
DictionaryVariables
280
     0
  1
15
  0
DICTIONARYVAR
  5
236
102
{ACAD_REACTORS
330
22F
102
}
330
22F
100
DictionaryVariables
280
     0
  1
0
  0
DICTIONARYVAR
  5
234
102
{ACAD_REACTORS
330
22F
102
}
330
22F
100
DictionaryVariables
280
     0
  1
0
  0
DICTIONARY
  5
20F
102
{ACAD_REACTORS
330
20E
102
}
330
20E
100
AcDbDictionary
281
     1
  3
*A1
350
210
  0
DICTIONARY
  5
201
102
{ACAD_REACTORS
330
200
102
}
330
200
100
AcDbDictionary
281
     1
  3
*A1
350
202
  0
DICTIONARY
  5
1F3
102
{ACAD_REACTORS
330
1F2
102
}
330
1F2
100
AcDbDictionary
281
     1
  3
*A1
350
1F4
  0
DICTIONARY
  5
1E5
102
{ACAD_REACTORS
330
1E4
102
}
330
1E4
100
AcDbDictionary
281
     1
  3
*A1
350
1E6
  0
DICTIONARY
  5
1D7
102
{ACAD_REACTORS
330
1D6
102
}
330
1D6
100
AcDbDictionary
281
     1
  3
*A1
350
1D8
  0
DICTIONARY
  5
21D
102
{ACAD_REACTORS
330
21C
102
}
330
21C
100
AcDbDictionary
281
     1
  3
*A1
350
21E
  0
DICTIONARY
  5
169
330
168
100
AcDbDictionary
280
     1
281
     1
  3
BUMPTILE
360
16B
  3
DIFFUSETILE
360
16A
  3
OPACITYTILE
360
16E
  3
REFLECTIONTILE
360
16D
  3
REFRACTIONTILE
360
16F
  3
SPECULARTILE
360
16C
  0
DICTIONARY
  5
161
330
160
100
AcDbDictionary
280
     1
281
     1
  3
BUMPTILE
360
163
  3
DIFFUSETILE
360
162
  3
OPACITYTILE
360
166
  3
REFLECTIONTILE
360
165
  3
REFRACTIONTILE
360
167
  3
SPECULARTILE
360
164
  0
DICTIONARY
  5
171
330
170
100
AcDbDictionary
280
     1
281
     1
  3
BUMPTILE
360
173
  3
DIFFUSETILE
360
172
  3
OPACITYTILE
360
176
  3
REFLECTIONTILE
360
175
  3
REFRACTIONTILE
360
177
  3
SPECULARTILE
360
174
  0
DICTIONARY
  5
239
330
193
100
AcDbDictionary
280
     1
281
     1
  3
ACAD_ROUNDTRIP_2008_TABLESTYLE_CELLSTYLEMAP
360
23A
  0
ACDB_ALDIMOBJECTCONTEXTDATA_CLASS
  5
210
102
{ACAD_REACTORS
330
20F
102
}
330
20F
100
AcDbObjectContextData
 70
     4
290
     1
100
AcDbAnnotScaleObjectContextData
340
48
100
AcDbDimensionObjectContextData
  2
*D15
293
     0
 10
-26.90628299070001
 20
46.62514278839999
294
     0
140
0.0
298
     0
291
     0
 70
     0
292
     0
 71
     0
280
     0
295
     0
296
     0
297
     0
100
AcDbAlignedDimensionObjectContextData
 11
-26.90628299070003
 21
86.62514278840003
 31
0.0
  0
ACDB_ALDIMOBJECTCONTEXTDATA_CLASS
  5
202
102
{ACAD_REACTORS
330
201
102
}
330
201
100
AcDbObjectContextData
 70
     4
290
     1
100
AcDbAnnotScaleObjectContextData
340
48
100
AcDbDimensionObjectContextData
  2
*D14
293
     0
 10
32.4165304477
 20
128.2494541996
294
     0
140
0.0
298
     0
291
     0
 70
     0
292
     0
 71
     0
280
     0
295
     0
296
     0
297
     0
100
AcDbAlignedDimensionObjectContextData
 11
55.4641000124
 21
128.2494541996
 31
0.0
  0
ACDB_ALDIMOBJECTCONTEXTDATA_CLASS
  5
1F4
102
{ACAD_REACTORS
330
1F3
102
}
330
1F3
100
AcDbObjectContextData
 70
     4
290
     1
100
AcDbAnnotScaleObjectContextData
340
48
100
AcDbDimensionObjectContextData
  2
*D13
293
     0
 10
133.0937170093
 20
-45.31047112479999
294
     0
140
0.0
298
     0
291
     0
 70
     0
292
     0
 71
     0
280
     0
295
     0
296
     0
297
     0
100
AcDbAlignedDimensionObjectContextData
 11
145.7937170093
 21
-45.31047112479999
 31
0.0
  0
ACDB_ALDIMOBJECTCONTEXTDATA_CLASS
  5
1E6
102
{ACAD_REACTORS
330
1E5
102
}
330
1E5
100
AcDbObjectContextData
 70
     4
290
     1
100
AcDbAnnotScaleObjectContextData
340
48
100
AcDbDimensionObjectContextData
  2
*D12
293
     0
 10
480.318719898
 20
18.4927282285
294
     0
140
0.0
298
     0
291
     0
 70
     0
292
     0
 71
     0
280
     0
295
     0
296
     0
297
     0
100
AcDbAlignedDimensionObjectContextData
 11
480.3187198980001
 21
-20.37485721149997
 31
0.0
  0
ACDB_ALDIMOBJECTCONTEXTDATA_CLASS
  5
1D8
102
{ACAD_REACTORS
330
1D7
102
}
330
1D7
100
AcDbObjectContextData
 70
     4
290
     1
100
AcDbAnnotScaleObjectContextData
340
48
100
AcDbDimensionObjectContextData
  2
*D11
293
     0
 10
355.2983618814
 20
-44.41899307699999
294
     0
140
0.0
298
     0
291
     0
 70
     0
292
     0
 71
     0
280
     0
295
     0
296
     0
297
     0
100
AcDbAlignedDimensionObjectContextData
 11
452.318719898
 21
-44.41899307699999
 31
0.0
  0
ACDB_ALDIMOBJECTCONTEXTDATA_CLASS
  5
21E
102
{ACAD_REACTORS
330
21D
102
}
330
21D
100
AcDbObjectContextData
 70
     4
290
     1
100
AcDbAnnotScaleObjectContextData
340
48
100
AcDbDimensionObjectContextData
  2
*D16
293
     0
 10
79.1914985649
 20
407.7828900423
294
     0
140
0.0
298
     0
291
     0
 70
     0
292
     0
 71
     0
280
     0
295
     0
296
     0
297
     0
100
AcDbAlignedDimensionObjectContextData
 11
173.0937170093
 21
407.7828900423
 31
0.0
  0
XRECORD
  5
16B
102
{ACAD_REACTORS
330
169
102
}
330
169
100
AcDbXrecord
280
     1
270
     1
271
     1
  0
XRECORD
  5
16A
102
{ACAD_REACTORS
330
169
102
}
330
169
100
AcDbXrecord
280
     1
270
     1
271
     1
  0
XRECORD
  5
16E
102
{ACAD_REACTORS
330
169
102
}
330
169
100
AcDbXrecord
280
     1
270
     1
271
     1
  0
XRECORD
  5
16D
102
{ACAD_REACTORS
330
169
102
}
330
169
100
AcDbXrecord
280
     1
270
     1
271
     1
  0
XRECORD
  5
16F
102
{ACAD_REACTORS
330
169
102
}
330
169
100
AcDbXrecord
280
     1
270
     1
271
     1
  0
XRECORD
  5
16C
102
{ACAD_REACTORS
330
169
102
}
330
169
100
AcDbXrecord
280
     1
270
     1
271
     1
  0
XRECORD
  5
163
102
{ACAD_REACTORS
330
161
102
}
330
161
100
AcDbXrecord
280
     1
270
     1
271
     1
  0
XRECORD
  5
162
102
{ACAD_REACTORS
330
161
102
}
330
161
100
AcDbXrecord
280
     1
270
     1
271
     1
  0
XRECORD
  5
166
102
{ACAD_REACTORS
330
161
102
}
330
161
100
AcDbXrecord
280
     1
270
     1
271
     1
  0
XRECORD
  5
165
102
{ACAD_REACTORS
330
161
102
}
330
161
100
AcDbXrecord
280
     1
270
     1
271
     1
  0
XRECORD
  5
167
102
{ACAD_REACTORS
330
161
102
}
330
161
100
AcDbXrecord
280
     1
270
     1
271
     1
  0
XRECORD
  5
164
102
{ACAD_REACTORS
330
161
102
}
330
161
100
AcDbXrecord
280
     1
270
     1
271
     1
  0
XRECORD
  5
173
102
{ACAD_REACTORS
330
171
102
}
330
171
100
AcDbXrecord
280
     1
270
     1
271
     1
  0
XRECORD
  5
172
102
{ACAD_REACTORS
330
171
102
}
330
171
100
AcDbXrecord
280
     1
270
     1
271
     1
  0
XRECORD
  5
176
102
{ACAD_REACTORS
330
171
102
}
330
171
100
AcDbXrecord
280
     1
270
     1
271
     1
  0
XRECORD
  5
175
102
{ACAD_REACTORS
330
171
102
}
330
171
100
AcDbXrecord
280
     1
270
     1
271
     1
  0
XRECORD
  5
177
102
{ACAD_REACTORS
330
171
102
}
330
171
100
AcDbXrecord
280
     1
270
     1
271
     1
  0
XRECORD
  5
174
102
{ACAD_REACTORS
330
171
102
}
330
171
100
AcDbXrecord
280
     1
270
     1
271
     1
  0
CELLSTYLEMAP
  5
23A
102
{ACAD_REACTORS
330
239
102
}
330
239
100
AcDbCellStyleMap
 90
        3
300
CELLSTYLE
  1
TABLEFORMAT_BEGIN
 90
        5
170
     1
 91
        0
 92
    32768
 62
   257
 93
        1
300
CONTENTFORMAT
  1
CONTENTFORMAT_BEGIN
 90
        0
 91
        0
 92
      512
 93
        0
300

 40
0.0
140
1.0
 94
        5
 62
     0
340
11
144
6.0
309
CONTENTFORMAT_END
171
     1
301
MARGIN
  1
CELLMARGIN_BEGIN
 40
1.5
 40
1.5
 40
1.5
 40
1.5
 40
4.5
 40
4.5
309
CELLMARGIN_END
 94
        6
 95
        1
302
GRIDFORMAT
  1
GRIDFORMAT_BEGIN
 90
        0
 91
        1
 62
     0
 92
       -2
340
0
 93
        0
 40
1.125
309
GRIDFORMAT_END
 95
        2
302
GRIDFORMAT
  1
GRIDFORMAT_BEGIN
 90
        0
 91
        1
 62
     0
 92
       -2
340
0
 93
        0
 40
1.125
309
GRIDFORMAT_END
 95
        4
302
GRIDFORMAT
  1
GRIDFORMAT_BEGIN
 90
        0
 91
        1
 62
     0
 92
       -2
340
0
 93
        0
 40
1.125
309
GRIDFORMAT_END
 95
        8
302
GRIDFORMAT
  1
GRIDFORMAT_BEGIN
 90
        0
 91
        1
 62
     0
 92
       -2
340
0
 93
        0
 40
1.125
309
GRIDFORMAT_END
 95
       16
302
GRIDFORMAT
  1
GRIDFORMAT_BEGIN
 90
        0
 91
        1
 62
     0
 92
       -2
340
0
 93
        0
 40
1.125
309
GRIDFORMAT_END
 95
       32
302
GRIDFORMAT
  1
GRIDFORMAT_BEGIN
 90
        0
 91
        1
 62
     0
 92
       -2
340
0
 93
        0
 40
1.125
309
GRIDFORMAT_END
309
TABLEFORMAT_END
  1
CELLSTYLE_BEGIN
 90
        1
 91
        1
300
_TITLE
309
CELLSTYLE_END
300
CELLSTYLE
  1
TABLEFORMAT_BEGIN
 90
        5
170
     1
 91
        0
 92
        0
 62
   257
 93
        1
300
CONTENTFORMAT
  1
CONTENTFORMAT_BEGIN
 90
        0
 91
        0
 92
      512
 93
        0
300

 40
0.0
140
1.0
 94
        5
 62
     0
340
11
144
4.5
309
CONTENTFORMAT_END
171
     1
301
MARGIN
  1
CELLMARGIN_BEGIN
 40
1.5
 40
1.5
 40
1.5
 40
1.5
 40
4.5
 40
4.5
309
CELLMARGIN_END
 94
        6
 95
        1
302
GRIDFORMAT
  1
GRIDFORMAT_BEGIN
 90
        0
 91
        1
 62
     0
 92
       -2
340
0
 93
        0
 40
1.125
309
GRIDFORMAT_END
 95
        2
302
GRIDFORMAT
  1
GRIDFORMAT_BEGIN
 90
        0
 91
        1
 62
     0
 92
       -2
340
0
 93
        0
 40
1.125
309
GRIDFORMAT_END
 95
        4
302
GRIDFORMAT
  1
GRIDFORMAT_BEGIN
 90
        0
 91
        1
 62
     0
 92
       -2
340
0
 93
        0
 40
1.125
309
GRIDFORMAT_END
 95
        8
302
GRIDFORMAT
  1
GRIDFORMAT_BEGIN
 90
        0
 91
        1
 62
     0
 92
       -2
340
0
 93
        0
 40
1.125
309
GRIDFORMAT_END
 95
       16
302
GRIDFORMAT
  1
GRIDFORMAT_BEGIN
 90
        0
 91
        1
 62
     0
 92
       -2
340
0
 93
        0
 40
1.125
309
GRIDFORMAT_END
 95
       32
302
GRIDFORMAT
  1
GRIDFORMAT_BEGIN
 90
        0
 91
        1
 62
     0
 92
       -2
340
0
 93
        0
 40
1.125
309
GRIDFORMAT_END
309
TABLEFORMAT_END
  1
CELLSTYLE_BEGIN
 90
        2
 91
        1
300
_HEADER
309
CELLSTYLE_END
300
CELLSTYLE
  1
TABLEFORMAT_BEGIN
 90
        5
170
     1
 91
        0
 92
        0
 62
   257
 93
        1
300
CONTENTFORMAT
  1
CONTENTFORMAT_BEGIN
 90
        0
 91
        0
 92
      512
 93
        0
300

 40
0.0
140
1.0
 94
        2
 62
     0
340
11
144
4.5
309
CONTENTFORMAT_END
171
     1
301
MARGIN
  1
CELLMARGIN_BEGIN
 40
1.5
 40
1.5
 40
1.5
 40
1.5
 40
4.5
 40
4.5
309
CELLMARGIN_END
 94
        6
 95
        1
302
GRIDFORMAT
  1
GRIDFORMAT_BEGIN
 90
        0
 91
        1
 62
     0
 92
       -2
340
0
 93
        0
 40
1.125
309
GRIDFORMAT_END
 95
        2
302
GRIDFORMAT
  1
GRIDFORMAT_BEGIN
 90
        0
 91
        1
 62
     0
 92
       -2
340
0
 93
        0
 40
1.125
309
GRIDFORMAT_END
 95
        4
302
GRIDFORMAT
  1
GRIDFORMAT_BEGIN
 90
        0
 91
        1
 62
     0
 92
       -2
340
0
 93
        0
 40
1.125
309
GRIDFORMAT_END
 95
        8
302
GRIDFORMAT
  1
GRIDFORMAT_BEGIN
 90
        0
 91
        1
 62
     0
 92
       -2
340
0
 93
        0
 40
1.125
309
GRIDFORMAT_END
 95
       16
302
GRIDFORMAT
  1
GRIDFORMAT_BEGIN
 90
        0
 91
        1
 62
     0
 92
       -2
340
0
 93
        0
 40
1.125
309
GRIDFORMAT_END
 95
       32
302
GRIDFORMAT
  1
GRIDFORMAT_BEGIN
 90
        0
 91
        1
 62
     0
 92
       -2
340
0
 93
        0
 40
1.125
309
GRIDFORMAT_END
309
TABLEFORMAT_END
  1
CELLSTYLE_BEGIN
 90
        3
 91
        2
300
_DATA
309
CELLSTYLE_END
  0
ENDSEC
  0
EOF
