  0
SECTION
  2
HEADER
  9
$ACADVER
  1
AC1032
  9
$ACADMAINTVER
 90
      174
  9
$DWGCODEPAGE
  3
ANSI_1252
  9
$LASTSAVEDBY
  1
pengb
  9
$REQUIREDVERSIONS
160
                 0
  9
$INSBASE
 10
0.0
 20
0.0
 30
0.0
  9
$EXTMIN
 10
69.27686972384572
 20
321.1056490707886
 30
-0.0015258207003583
  9
$EXTMAX
 10
580.1797830557347
 20
814.0108277217946
 30
0.0000000349246037
  9
$LIMMIN
 10
0.0
 20
0.0
  9
$LIMMAX
 10
420.0
 20
297.0
  9
$ORTHOMODE
 70
     0
  9
$REGENMODE
 70
     1
  9
$FILLMODE
 70
     1
  9
$QTEXTMODE
 70
     0
  9
$MIRRTEXT
 70
     1
  9
$LTSCALE
 40
1.0
  9
$ATTMODE
 70
     1
  9
$TEXTSIZE
 40
3.5
  9
$TRACEWID
 40
1.0
  9
$TEXTSTYLE
  7
Standard
  9
$CLAYER
  8
0
  9
$CELTYPE
  6
ByLayer
  9
$CECOLOR
 62
   256
  9
$CELTSCALE
 40
1.0
  9
$DISPSILH
 70
     0
  9
$DIMSCALE
 40
1.0
  9
$DIMASZ
 40
3.302
  9
$DIMEXO
 40
1.0
  9
$DIMDLI
 40
3.75
  9
$DIMRND
 40
0.0
  9
$DIMDLE
 40
0.0
  9
$DIMEXE
 40
1.0
  9
$DIMTP
 40
0.0
  9
$DIMTM
 40
0.0
  9
$DIMTXT
 40
3.5
  9
$DIMCEN
 40
2.5
  9
$DIMTSZ
 40
0.0
  9
$DIMTOL
 70
     0
  9
$DIMLIM
 70
     0
  9
$DIMTIH
 70
     1
  9
$DIMTOH
 70
     1
  9
$DIMSE1
 70
     0
  9
$DIMSE2
 70
     0
  9
$DIMTAD
 70
     1
  9
$DIMZIN
 70
     1
  9
$DIMBLK
  1

  9
$DIMASO
 70
     1
  9
$DIMSHO
 70
     1
  9
$DIMPOST
  1

  9
$DIMAPOST
  1

  9
$DIMALT
 70
     0
  9
$DIMALTD
 70
     3
  9
$DIMALTF
 40
0.0393700787
  9
$DIMLFAC
 40
5.0
  9
$DIMTOFL
 70
     1
  9
$DIMTVP
 40
0.0
  9
$DIMTIX
 70
     0
  9
$DIMSOXD
 70
     0
  9
$DIMSAH
 70
     0
  9
$DIMBLK1
  1

  9
$DIMBLK2
  1

  9
$DIMSTYLE
  2
ISO-25
  9
$DIMCLRD
 70
     0
  9
$DIMCLRE
 70
     0
  9
$DIMCLRT
 70
     0
  9
$DIMTFAC
 40
1.0
  9
$DIMGAP
 40
1.524
  9
$DIMJUST
 70
     0
  9
$DIMSD1
 70
     0
  9
$DIMSD2
 70
     0
  9
$DIMTOLJ
 70
     0
  9
$DIMTZIN
 70
     1
  9
$DIMALTZ
 70
     0
  9
$DIMALTTZ
 70
     0
  9
$DIMUPT
 70
     0
  9
$DIMDEC
 70
     2
  9
$DIMTDEC
 70
     2
  9
$DIMALTU
 70
     2
  9
$DIMALTTD
 70
     3
  9
$DIMTXSTY
  7
Standard
  9
$DIMAUNIT
 70
     0
  9
$DIMADEC
 70
     2
  9
$DIMALTRND
 40
0.0
  9
$DIMAZIN
 70
     0
  9
$DIMDSEP
 70
    44
  9
$DIMATFIT
 70
     3
  9
$DIMFRAC
 70
     0
  9
$DIMLDRBLK
  1

  9
$DIMLUNIT
 70
     2
  9
$DIMLWD
 70
    -2
  9
$DIMLWE
 70
    -2
  9
$DIMTMOVE
 70
     0
  9
$DIMFXL
 40
1.0
  9
$DIMFXLON
 70
     0
  9
$DIMJOGANG
 40
0.7853981633974483
  9
$DIMTFILL
 70
     0
  9
$DIMTFILLCLR
 70
     0
  9
$DIMARCSYM
 70
     0
  9
$DIMLTYPE
  6

  9
$DIMLTEX1
  6

  9
$DIMLTEX2
  6

  9
$DIMTXTDIRECTION
 70
     0
  9
$LUNITS
 70
     2
  9
$LUPREC
 70
     2
  9
$SKETCHINC
 40
1.0
  9
$FILLETRAD
 40
10.0
  9
$AUNITS
 70
     0
  9
$AUPREC
 70
     2
  9
$MENU
  1
.
  9
$ELEVATION
 40
0.0
  9
$PELEVATION
 40
0.0
  9
$THICKNESS
 40
0.0
  9
$LIMCHECK
 70
     0
  9
$CHAMFERA
 40
0.0
  9
$CHAMFERB
 40
0.0
  9
$CHAMFERC
 40
0.0
  9
$CHAMFERD
 40
0.0
  9
$SKPOLY
 70
     0
  9
$TDCREATE
 40
2459982.627557871
  9
$TDUCREATE
 40
2459982.169233160
  9
$TDUPDATE
 40
2460006.651747685
  9
$TDUUPDATE
 40
2460006.193414352
  9
$TDINDWG
 40
0.0105902894
  9
$TDUSRTIMER
 40
0.0105902894
  9
$USRTIMER
 70
     1
  9
$ANGBASE
 50
0.0
  9
$ANGDIR
 70
     0
  9
$PDMODE
 70
     0
  9
$PDSIZE
 40
-1.0
  9
$PLINEWID
 40
0.0
  9
$SPLFRAME
 70
     0
  9
$SPLINETYPE
 70
     6
  9
$SPLINESEGS
 70
     8
  9
$HANDSEED
  5
493
  9
$SURFTAB1
 70
     6
  9
$SURFTAB2
 70
     6
  9
$SURFTYPE
 70
     6
  9
$SURFU
 70
     6
  9
$SURFV
 70
     6
  9
$UCSBASE
  2

  9
$UCSNAME
  2

  9
$UCSORG
 10
0.0
 20
0.0
 30
0.0
  9
$UCSXDIR
 10
1.0
 20
0.0
 30
0.0
  9
$UCSYDIR
 10
0.0
 20
1.0
 30
0.0
  9
$UCSORTHOREF
  2

  9
$UCSORTHOVIEW
 70
     0
  9
$UCSORGTOP
 10
0.0
 20
0.0
 30
0.0
  9
$UCSORGBOTTOM
 10
0.0
 20
0.0
 30
0.0
  9
$UCSORGLEFT
 10
0.0
 20
0.0
 30
0.0
  9
$UCSORGRIGHT
 10
0.0
 20
0.0
 30
0.0
  9
$UCSORGFRONT
 10
0.0
 20
0.0
 30
0.0
  9
$UCSORGBACK
 10
0.0
 20
0.0
 30
0.0
  9
$PUCSBASE
  2

  9
$PUCSNAME
  2

  9
$PUCSORG
 10
0.0
 20
0.0
 30
0.0
  9
$PUCSXDIR
 10
1.0
 20
0.0
 30
0.0
  9
$PUCSYDIR
 10
0.0
 20
1.0
 30
0.0
  9
$PUCSORTHOREF
  2

  9
$PUCSORTHOVIEW
 70
     0
  9
$PUCSORGTOP
 10
0.0
 20
0.0
 30
0.0
  9
$PUCSORGBOTTOM
 10
0.0
 20
0.0
 30
0.0
  9
$PUCSORGLEFT
 10
0.0
 20
0.0
 30
0.0
  9
$PUCSORGRIGHT
 10
0.0
 20
0.0
 30
0.0
  9
$PUCSORGFRONT
 10
0.0
 20
0.0
 30
0.0
  9
$PUCSORGBACK
 10
0.0
 20
0.0
 30
0.0
  9
$USERI1
 70
     0
  9
$USERI2
 70
     0
  9
$USERI3
 70
     0
  9
$USERI4
 70
     0
  9
$USERI5
 70
     0
  9
$USERR1
 40
0.0
  9
$USERR2
 40
0.0
  9
$USERR3
 40
0.0
  9
$USERR4
 40
0.0
  9
$USERR5
 40
0.0
  9
$WORLDVIEW
 70
     1
  9
$SHADEDGE
 70
     3
  9
$SHADEDIF
 70
    70
  9
$TILEMODE
 70
     1
  9
$MAXACTVP
 70
    64
  9
$PINSBASE
 10
0.0
 20
0.0
 30
0.0
  9
$PLIMCHECK
 70
     0
  9
$PEXTMIN
 10
1.000000000000000E+20
 20
1.000000000000000E+20
 30
1.000000000000000E+20
  9
$PEXTMAX
 10
-1.000000000000000E+20
 20
-1.000000000000000E+20
 30
-1.000000000000000E+20
  9
$PLIMMIN
 10
0.0
 20
0.0
  9
$PLIMMAX
 10
420.0
 20
297.0
  9
$UNITMODE
 70
     0
  9
$VISRETAIN
 70
     1
  9
$PLINEGEN
 70
     0
  9
$PSLTSCALE
 70
     1
  9
$TREEDEPTH
 70
  3020
  9
$CMLSTYLE
  2
Standard
  9
$CMLJUST
 70
     0
  9
$CMLSCALE
 40
20.0
  9
$PROXYGRAPHICS
 70
     1
  9
$MEASUREMENT
 70
     1
  9
$CELWEIGHT
370
    -1
  9
$ENDCAPS
280
     0
  9
$JOINSTYLE
280
     0
  9
$LWDISPLAY
290
     1
  9
$INSUNITS
 70
     4
  9
$HYPERLINKBASE
  1

  9
$STYLESHEET
  1

  9
$XEDIT
290
     1
  9
$CEPSNTYPE
380
     0
  9
$PSTYLEMODE
290
     1
  9
$FINGERPRINTGUID
  2
{D30AAE2D-791E-4F1D-A6DA-C5BD3CC89296}
  9
$VERSIONGUID
  2
{794427FC-01FE-EC49-9B26-D9F6F6A89971}
  9
$EXTNAMES
290
     1
  9
$PSVPSCALE
 40
0.0
  9
$OLESTARTUP
290
     0
  9
$SORTENTS
280
   127
  9
$INDEXCTL
280
     0
  9
$HIDETEXT
280
     0
  9
$XCLIPFRAME
280
     2
  9
$HALOGAP
280
     0
  9
$OBSCOLOR
 70
   257
  9
$OBSLTYPE
280
     0
  9
$INTERSECTIONDISPLAY
280
     0
  9
$INTERSECTIONCOLOR
 70
   257
  9
$DIMASSOC
280
     1
  9
$PROJECTNAME
  1

  9
$CAMERADISPLAY
290
     0
  9
$LENSLENGTH
 40
50.0
  9
$CAMERAHEIGHT
 40
0.0
  9
$STEPSPERSEC
 40
2.0
  9
$STEPSIZE
 40
6.0
  9
$3DDWFPREC
 40
2.0
  9
$PSOLWIDTH
 40
0.25
  9
$PSOLHEIGHT
 40
4.0
  9
$LOFTANG1
 40
1.570796326794896
  9
$LOFTANG2
 40
1.570796326794896
  9
$LOFTMAG1
 40
0.0
  9
$LOFTMAG2
 40
0.0
  9
$LOFTPARAM
 70
     7
  9
$LOFTNORMALS
280
     1
  9
$LATITUDE
 40
37.795
  9
$LONGITUDE
 40
-122.394
  9
$NORTHDIRECTION
 40
0.0
  9
$TIMEZONE
 70
 -8000
  9
$LIGHTGLYPHDISPLAY
280
     1
  9
$TILEMODELIGHTSYNCH
280
     1
  9
$CMATERIAL
347
141
  9
$SOLIDHIST
280
     0
  9
$SHOWHIST
280
     1
  9
$DWFFRAME
280
     2
  9
$DGNFRAME
280
     0
  9
$REALWORLDSCALE
290
     1
  9
$INTERFERECOLOR
 62
     1
  9
$INTERFEREOBJVS
345
163
  9
$INTERFEREVPVS
346
160
  9
$CSHADOW
280
     0
  9
$SHADOWPLANELOCATION
 40
0.0
  0
ENDSEC
  0
SECTION
  2
CLASSES
  0
CLASS
  1
ACDBDICTIONARYWDFLT
  2
AcDbDictionaryWithDefault
  3
ObjectDBX Classes
 90
        0
 91
        1
280
     0
281
     0
  0
CLASS
  1
VISUALSTYLE
  2
AcDbVisualStyle
  3
ObjectDBX Classes
 90
     4095
 91
       24
280
     0
281
     0
  0
CLASS
  1
MATERIAL
  2
AcDbMaterial
  3
ObjectDBX Classes
 90
     1153
 91
        3
280
     0
281
     0
  0
CLASS
  1
SCALE
  2
AcDbScale
  3
ObjectDBX Classes
 90
     1153
 91
       33
280
     0
281
     0
  0
CLASS
  1
TABLESTYLE
  2
AcDbTableStyle
  3
ObjectDBX Classes
 90
     4095
 91
        1
280
     0
281
     0
  0
CLASS
  1
MLEADERSTYLE
  2
AcDbMLeaderStyle
  3
ACDB_MLEADERSTYLE_CLASS
 90
     4095
 91
        1
280
     0
281
     0
  0
CLASS
  1
SUN
  2
AcDbSun
  3
SCENEOE
 90
     1153
 91
        0
280
     0
281
     0
  0
CLASS
  1
ACDBSECTIONVIEWSTYLE
  2
AcDbSectionViewStyle
  3
ObjectDBX Classes
 90
     1025
 91
        1
280
     0
281
     0
  0
CLASS
  1
ACDBDETAILVIEWSTYLE
  2
AcDbDetailViewStyle
  3
ObjectDBX Classes
 90
     1025
 91
        1
280
     0
281
     0
  0
CLASS
  1
ACDB_ALDIMOBJECTCONTEXTDATA_CLASS
  2
AcDbAlignedDimensionObjectContextData
  3
ObjectDBX Classes
 90
     1153
 91
       12
280
     0
281
     0
  0
CLASS
  1
DICTIONARYVAR
  2
AcDbDictionaryVar
  3
ObjectDBX Classes
 90
        0
 91
        9
280
     0
281
     0
  0
CLASS
  1
CELLSTYLEMAP
  2
AcDbCellStyleMap
  3
ObjectDBX Classes
 90
     1152
 91
        3
280
     0
281
     0
  0
ENDSEC
  0
SECTION
  2
TABLES
  0
TABLE
  2
VPORT
  5
8
330
0
100
AcDbSymbolTable
 70
     1
  0
VPORT
  5
29
330
8
100
AcDbSymbolTableRecord
100
AcDbViewportTableRecord
  2
*Active
 70
     0
 10
0.0
 20
0.0
 11
1.0
 21
1.0
 12
324.7283263897902
 22
567.5582383962916
 13
0.0
 23
0.0
 14
10.0
 24
10.0
 15
10.0
 25
10.0
 16
0.0
 26
0.0
 36
1.0
 17
0.0
 27
0.0
 37
0.0
 40
494.7432340095554
 41
1.907960199004975
 42
50.0
 43
0.0
 44
0.0
 50
0.0
 51
0.0
 71
     0
 72
  2000
 73
     1
 74
     3
 75
     0
 76
     0
 77
     0
 78
     0
281
     0
 65
     1
110
0.0
120
0.0
130
0.0
111
1.0
121
0.0
131
0.0
112
0.0
122
1.0
132
0.0
 79
     0
146
0.0
348
15F
 60
     3
 61
     5
292
     1
282
     1
141
0.0
142
0.0
 63
   250
421
  3355443
1001
ACAD_NAV_VCDISPLAY
1070
     3
  0
ENDTAB
  0
TABLE
  2
LTYPE
  5
5
330
0
100
AcDbSymbolTable
 70
     6
  0
LTYPE
  5
14
330
5
100
AcDbSymbolTableRecord
100
AcDbLinetypeTableRecord
  2
ByBlock
 70
     0
  3

 72
    65
 73
     0
 40
0.0
  0
LTYPE
  5
15
330
5
100
AcDbSymbolTableRecord
100
AcDbLinetypeTableRecord
  2
ByLayer
 70
     0
  3

 72
    65
 73
     0
 40
0.0
  0
LTYPE
  5
16
330
5
100
AcDbSymbolTableRecord
100
AcDbLinetypeTableRecord
  2
Continuous
 70
     0
  3
Solid line
 72
    65
 73
     0
 40
0.0
  0
LTYPE
  5
6E
330
5
100
AcDbSymbolTableRecord
100
AcDbLinetypeTableRecord
  2
HIDDEN
 70
     0
  3
Hidden __ __ __ __ __ __ __ __ __ __ __ __ __ __
 72
    65
 73
     2
 40
1.905
 49
1.27
 74
     0
 49
-0.635
 74
     0
  0
LTYPE
  5
6F
330
5
100
AcDbSymbolTableRecord
100
AcDbLinetypeTableRecord
  2
PHANTOM
 70
     0
  3
Phantom ______  __  __  ______  __  __  ______
 72
    65
 73
     6
 40
12.7
 49
6.349999999999999
 74
     0
 49
-1.27
 74
     0
 49
1.27
 74
     0
 49
-1.27
 74
     0
 49
1.27
 74
     0
 49
-1.27
 74
     0
  0
LTYPE
  5
70
330
5
100
AcDbSymbolTableRecord
100
AcDbLinetypeTableRecord
  2
CENTER
 70
     0
  3
Center ____ _ ____ _ ____ _ ____ _ ____ _ ____
 72
    65
 73
     4
 40
10.16
 49
6.349999999999999
 74
     0
 49
-1.27
 74
     0
 49
1.27
 74
     0
 49
-1.27
 74
     0
  0
LTYPE
  5
71
330
5
100
AcDbSymbolTableRecord
100
AcDbLinetypeTableRecord
  2
CENTERX2
 70
     0
  3
Center (2x) ________  __  ________  __  _____
 72
    65
 73
     4
 40
20.32
 49
12.7
 74
     0
 49
-2.54
 74
     0
 49
2.54
 74
     0
 49
-2.54
 74
     0
  0
LTYPE
  5
72
330
5
100
AcDbSymbolTableRecord
100
AcDbLinetypeTableRecord
  2
DOT2
 70
     0
  3
Dot (.5x) ........................................
 72
    65
 73
     2
 40
0.635
 49
0.0
 74
     0
 49
-0.635
 74
     0
  0
ENDTAB
  0
TABLE
  2
LAYER
  5
2
102
{ACAD_XDICTIONARY
360
191
102
}
330
0
100
AcDbSymbolTable
 70
     4
  0
LAYER
  5
10
102
{ACAD_XDICTIONARY
360
436
102
}
330
2
100
AcDbSymbolTableRecord
100
AcDbLayerTableRecord
  2
0
 70
     0
 62
     7
  6
Continuous
370
    -3
390
F
347
151
348
0
  0
LAYER
  5
73
102
{ACAD_XDICTIONARY
360
438
102
}
330
2
100
AcDbSymbolTableRecord
100
AcDbLayerTableRecord
  2
FORMAT
 70
     0
 62
     7
  6
Continuous
370
    -3
390
F
347
151
348
0
  0
LAYER
  5
188
330
2
100
AcDbSymbolTableRecord
100
AcDbLayerTableRecord
  2
Defpoints
 70
     0
 62
     7
  6
Continuous
290
     0
370
    -3
390
F
347
151
348
0
  0
LAYER
  5
189
102
{ACAD_XDICTIONARY
360
43A
102
}
330
2
100
AcDbSymbolTableRecord
100
AcDbLayerTableRecord
  2
DIMENSION
 70
     0
 62
   255
  6
Continuous
370
    -3
390
F
347
151
348
0
  0
ENDTAB
  0
TABLE
  2
STYLE
  5
3
330
0
100
AcDbSymbolTable
 70
     2
  0
STYLE
  5
11
330
3
100
AcDbSymbolTableRecord
100
AcDbTextStyleTableRecord
  2
Standard
 70
     0
 40
0.0
 41
1.0
 50
0.0
 71
     0
 42
3.5
  3
txt
  4

  0
STYLE
  5
9A
330
3
100
AcDbSymbolTableRecord
100
AcDbTextStyleTableRecord
  2
SLDTEXTSTYLE0
 70
     0
 40
0.0
 41
0.75
 50
0.0
 71
     0
 42
3.5
  3
TXT
  4

  0
ENDTAB
  0
TABLE
  2
VIEW
  5
6
330
0
100
AcDbSymbolTable
 70
     1
  0
ENDTAB
  0
TABLE
  2
UCS
  5
7
330
0
100
AcDbSymbolTable
 70
     0
  0
ENDTAB
  0
TABLE
  2
APPID
  5
9
330
0
100
AcDbSymbolTable
 70
     8
  0
APPID
  5
12
330
9
100
AcDbSymbolTableRecord
100
AcDbRegAppTableRecord
  2
ACAD
 70
     0
  0
APPID
  5
18B
330
9
100
AcDbSymbolTableRecord
100
AcDbRegAppTableRecord
  2
ACAD_PSEXT
 70
     0
  0
APPID
  5
18C
330
9
100
AcDbSymbolTableRecord
100
AcDbRegAppTableRecord
  2
AcadAnnotative
 70
     0
  0
APPID
  5
18D
330
9
100
AcDbSymbolTableRecord
100
AcDbRegAppTableRecord
  2
ACAD_DSTYLE_DIMJAG
 70
     0
  0
APPID
  5
18E
330
9
100
AcDbSymbolTableRecord
100
AcDbRegAppTableRecord
  2
ACAD_DSTYLE_DIMTALN
 70
     0
  0
APPID
  5
18F
330
9
100
AcDbSymbolTableRecord
100
AcDbRegAppTableRecord
  2
ACAD_NAV_VCDISPLAY
 70
     0
  0
APPID
  5
190
330
9
100
AcDbSymbolTableRecord
100
AcDbRegAppTableRecord
  2
ACAD_DSTYLE_DIMBREAK
 70
     0
  0
APPID
  5
45B
330
9
100
AcDbSymbolTableRecord
100
AcDbRegAppTableRecord
  2
ACAD_DSTYLE_DIMRADIAL_EXTENSION
 70
     0
  0
ENDTAB
  0
TABLE
  2
DIMSTYLE
  5
A
330
0
100
AcDbSymbolTable
 70
     3
100
AcDbDimStyleTable
 71
     2
340
18A
340
27
  0
DIMSTYLE
105
27
330
A
100
AcDbSymbolTableRecord
100
AcDbDimStyleTableRecord
  2
ISO-25
 70
     0
 41
2.5
 42
0.625
 43
3.75
 44
1.25
 73
     0
 74
     0
 77
     1
 78
     8
140
2.5
141
2.5
143
0.0393700787
147
0.625
171
     3
172
     1
271
     2
272
     2
274
     3
278
    44
283
     0
284
     8
340
11
  0
DIMSTYLE
105
9B
330
A
100
AcDbSymbolTableRecord
100
AcDbDimStyleTableRecord
  2
SLDDIMSTYLE0
 70
     0
 41
3.302
 44
0.0
 45
0.000000001
 73
     0
 74
     0
 77
     1
 78
     4
 79
     1
140
4.2333333333
144
1.75
147
1.0583333333
173
     1
271
     2
272
     2
276
     2
284
    12
340
9A
341
9C
343
9C
344
9C
  0
DIMSTYLE
105
18A
102
{ACAD_REACTORS
330
194
330
2CD
330
2CC
330
2CB
330
292
330
291
330
26B
330
26A
330
269
330
43F
330
45C
102
}
330
A
100
AcDbSymbolTableRecord
100
AcDbDimStyleTableRecord
  2
RG Dimension Lines
 70
     0
 40
12.0
 41
3.5
 42
1.0
 43
10.0
 44
5.0
 49
5.0
 77
     2
140
8.0
141
0.0
147
4.0
172
     1
176
   256
177
   256
178
     7
271
     0
272
     0
290
     1
340
11
341
9C
342
9C
371
     0
372
     0
1001
ACAD_DSTYLE_DIMBREAK
1070
   391
1040
0.125
1001
AcadAnnotative
1000
AnnotativeData
1002
{
1070
     1
1070
     1
1002
}
1001
ACAD_DSTYLE_DIMJAG
1070
   388
1040
1.5
1001
ACAD_DSTYLE_DIMTALN
1070
   392
1070
     0
  0
ENDTAB
  0
TABLE
  2
BLOCK_RECORD
  5
1
330
0
100
AcDbSymbolTable
 70
    34
  0
BLOCK_RECORD
  5
1F
330
1
100
AcDbSymbolTableRecord
100
AcDbBlockTableRecord
  2
*Model_Space
340
22
 70
     0
280
     1
281
     0
  0
BLOCK_RECORD
  5
1B
330
1
100
AcDbSymbolTableRecord
100
AcDbBlockTableRecord
  2
*Paper_Space
340
1E
 70
     0
280
     1
281
     0
  0
BLOCK_RECORD
  5
23
330
1
100
AcDbSymbolTableRecord
100
AcDbBlockTableRecord
  2
*Paper_Space0
340
26
 70
     0
280
     1
281
     0
  0
BLOCK_RECORD
  5
9C
330
1
100
AcDbSymbolTableRecord
100
AcDbBlockTableRecord
  2
_None
340
0
 70
     0
280
     1
281
     0
  0
BLOCK_RECORD
  5
9F
330
1
100
AcDbSymbolTableRecord
100
AcDbBlockTableRecord
  2
_D
340
0
 70
     0
280
     1
281
     0
  0
BLOCK_RECORD
  5
A7
330
1
100
AcDbSymbolTableRecord
100
AcDbBlockTableRecord
  2
_D_1
340
0
 70
     0
280
     1
281
     0
  0
BLOCK_RECORD
  5
AF
330
1
100
AcDbSymbolTableRecord
100
AcDbBlockTableRecord
  2
_D_2
340
0
 70
     0
280
     1
281
     0
  0
BLOCK_RECORD
  5
DC
330
1
100
AcDbSymbolTableRecord
100
AcDbBlockTableRecord
  2
_D_3
340
0
 70
     0
280
     1
281
     0
  0
BLOCK_RECORD
  5
E4
330
1
100
AcDbSymbolTableRecord
100
AcDbBlockTableRecord
  2
_D_4
340
0
 70
     0
280
     1
281
     0
  0
BLOCK_RECORD
  5
125
330
1
100
AcDbSymbolTableRecord
100
AcDbBlockTableRecord
  2
_D_5
340
0
 70
     0
280
     1
281
     0
  0
BLOCK_RECORD
  5
12D
330
1
100
AcDbSymbolTableRecord
100
AcDbBlockTableRecord
  2
_D_6
340
0
 70
     0
280
     1
281
     0
  0
BLOCK_RECORD
  5
136
330
1
100
AcDbSymbolTableRecord
100
AcDbBlockTableRecord
  2
_D_7
340
0
 70
     0
280
     1
281
     0
  0
BLOCK_RECORD
  5
17E
330
1
100
AcDbSymbolTableRecord
100
AcDbBlockTableRecord
  2
*D10
340
0
 70
     0
280
     1
281
     0
  0
BLOCK_RECORD
  5
1A2
330
1
100
AcDbSymbolTableRecord
100
AcDbBlockTableRecord
  2
*D12
340
0
 70
     0
280
     1
281
     0
  0
BLOCK_RECORD
  5
2CE
330
1
100
AcDbSymbolTableRecord
100
AcDbBlockTableRecord
  2
*D14
340
0
 70
     0
280
     1
281
     0
  0
BLOCK_RECORD
  5
2D8
330
1
100
AcDbSymbolTableRecord
100
AcDbBlockTableRecord
  2
*D15
340
0
 70
     0
280
     1
281
     0
  0
BLOCK_RECORD
  5
2E2
330
1
100
AcDbSymbolTableRecord
100
AcDbBlockTableRecord
  2
*D16
340
0
 70
     0
280
     1
281
     0
  0
BLOCK_RECORD
  5
2EC
330
1
100
AcDbSymbolTableRecord
100
AcDbBlockTableRecord
  2
*D17
340
0
 70
     0
280
     1
281
     0
  0
BLOCK_RECORD
  5
2F6
330
1
100
AcDbSymbolTableRecord
100
AcDbBlockTableRecord
  2
*D18
340
0
 70
     0
280
     1
281
     0
  0
BLOCK_RECORD
  5
300
330
1
100
AcDbSymbolTableRecord
100
AcDbBlockTableRecord
  2
*D19
340
0
 70
     0
280
     1
281
     0
  0
BLOCK_RECORD
  5
30A
330
1
100
AcDbSymbolTableRecord
100
AcDbBlockTableRecord
  2
*D20
340
0
 70
     0
280
     1
281
     0
  0
BLOCK_RECORD
  5
314
330
1
100
AcDbSymbolTableRecord
100
AcDbBlockTableRecord
  2
*D21
340
0
 70
     0
280
     1
281
     0
  0
BLOCK_RECORD
  5
3C6
330
1
100
AcDbSymbolTableRecord
100
AcDbBlockTableRecord
  2
*D22
340
0
 70
     0
280
     1
281
     0
  0
BLOCK_RECORD
  5
3D4
330
1
100
AcDbSymbolTableRecord
100
AcDbBlockTableRecord
  2
*D23
340
0
 70
     0
280
     1
281
     0
  0
BLOCK_RECORD
  5
3E2
330
1
100
AcDbSymbolTableRecord
100
AcDbBlockTableRecord
  2
*D24
340
0
 70
     0
280
     1
281
     0
  0
BLOCK_RECORD
  5
3F0
330
1
100
AcDbSymbolTableRecord
100
AcDbBlockTableRecord
  2
*D25
340
0
 70
     0
280
     1
281
     0
  0
BLOCK_RECORD
  5
3FE
330
1
100
AcDbSymbolTableRecord
100
AcDbBlockTableRecord
  2
*D26
340
0
 70
     0
280
     1
281
     0
  0
BLOCK_RECORD
  5
40C
330
1
100
AcDbSymbolTableRecord
100
AcDbBlockTableRecord
  2
*D27
340
0
 70
     0
280
     1
281
     0
  0
BLOCK_RECORD
  5
41A
330
1
100
AcDbSymbolTableRecord
100
AcDbBlockTableRecord
  2
*D28
340
0
 70
     0
280
     1
281
     0
  0
BLOCK_RECORD
  5
428
330
1
100
AcDbSymbolTableRecord
100
AcDbBlockTableRecord
  2
*D29
340
0
 70
     0
280
     1
281
     0
  0
BLOCK_RECORD
  5
440
330
1
100
AcDbSymbolTableRecord
100
AcDbBlockTableRecord
  2
*D30
340
0
 70
     0
280
     1
281
     0
  0
BLOCK_RECORD
  5
44D
330
1
100
AcDbSymbolTableRecord
100
AcDbBlockTableRecord
  2
*D31
340
0
 70
     0
280
     1
281
     0
  0
BLOCK_RECORD
  5
45D
330
1
100
AcDbSymbolTableRecord
100
AcDbBlockTableRecord
  2
*D32
340
0
 70
     0
280
     1
281
     0
  0
BLOCK_RECORD
  5
46A
330
1
100
AcDbSymbolTableRecord
100
AcDbBlockTableRecord
  2
*D33
340
0
 70
     0
280
     1
281
     0
  0
ENDTAB
  0
ENDSEC
  0
SECTION
  2
BLOCKS
  0
BLOCK
  5
20
330
1F
100
AcDbEntity
  8
0
100
AcDbBlockBegin
  2
*Model_Space
 70
     0
 10
0.0
 20
0.0
 30
0.0
  3
*Model_Space
  1

  0
ENDBLK
  5
21
330
1F
100
AcDbEntity
  8
0
100
AcDbBlockEnd
  0
BLOCK
  5
1C
330
1B
100
AcDbEntity
 67
     1
  8
0
100
AcDbBlockBegin
  2
*Paper_Space
 70
     0
 10
0.0
 20
0.0
 30
0.0
  3
*Paper_Space
  1

  0
ENDBLK
  5
1D
330
1B
100
AcDbEntity
 67
     1
  8
0
100
AcDbBlockEnd
  0
BLOCK
  5
24
330
23
100
AcDbEntity
 67
     1
  8
0
100
AcDbBlockBegin
  2
*Paper_Space0
 70
     0
 10
0.0
 20
0.0
 30
0.0
  3
*Paper_Space0
  1

  0
ENDBLK
  5
25
330
23
100
AcDbEntity
 67
     1
  8
0
100
AcDbBlockEnd
  0
BLOCK
  5
9D
330
9C
100
AcDbEntity
  8
0
100
AcDbBlockBegin
  2
_None
 70
     0
 10
0.0
 20
0.0
 30
0.0
  3
_None
  1

  0
ENDBLK
  5
9E
330
9C
100
AcDbEntity
  8
0
100
AcDbBlockEnd
  0
BLOCK
  5
A0
330
9F
100
AcDbEntity
  8
0
100
AcDbBlockBegin
  2
_D
 70
     0
 10
0.0
 20
0.0
 30
0.0
  3
_D
  1

  0
LINE
  5
A2
330
9F
100
AcDbEntity
  8
0
  6
Continuous
 62
     7
440
 16777216
370
     0
100
AcDbLine
 10
197.3279381072
 20
112.7943346804
 30
0.0
 11
197.3279381072
 21
21.0154215309
 31
0.0
  0
LINE
  5
A3
330
9F
100
AcDbEntity
  8
0
  6
Continuous
 62
     7
440
 16777216
370
     0
100
AcDbLine
 10
114.4707972152
 20
34.7706374674
 30
0.0
 11
114.4707972152
 21
21.0154215309
 31
0.0
  0
LINE
  5
A4
330
9F
100
AcDbEntity
  8
0
  6
Continuous
 62
     7
440
 16777216
370
     0
100
AcDbLine
 10
197.3279381072
 20
22.01542153090001
 30
0.0
 11
114.4707972152
 21
22.01542153090001
 31
0.0
  0
MTEXT
  5
A5
330
9F
100
AcDbEntity
  8
0
  6
Continuous
 62
     7
440
 16777216
370
    18
100
AcDbMText
 10
143.8198961331
 20
27.4724747298
 30
0.0
 40
4.2333333333
 41
0.0
 46
0.0
 71
     1
 72
     1
  1
145.00
  7
SLDTEXTSTYLE0
 73
     1
 44
1.0
  0
ENDBLK
  5
A1
330
9F
100
AcDbEntity
  8
0
100
AcDbBlockEnd
  0
BLOCK
  5
A8
330
A7
100
AcDbEntity
  8
0
100
AcDbBlockBegin
  2
_D_1
 70
     0
 10
0.0
 20
0.0
 30
0.0
  3
_D_1
  1

  0
LINE
  5
AA
330
A7
100
AcDbEntity
  8
0
  6
Continuous
 62
     7
440
 16777216
370
     0
100
AcDbLine
 10
139.8144085873
 20
180.889963971
 30
0.0
 11
82.04222578659999
 21
180.889963971
 31
0.0
  0
LINE
  5
AB
330
A7
100
AcDbEntity
  8
0
  6
Continuous
 62
     7
440
 16777216
370
     0
100
AcDbLine
 10
94.41134413010001
 20
38.0154215309
 30
0.0
 11
82.04222578659999
 21
38.0154215309
 31
0.0
  0
LINE
  5
AC
330
A7
100
AcDbEntity
  8
0
  6
Continuous
 62
     7
440
 16777216
370
     0
100
AcDbLine
 10
83.04222578660001
 20
180.889963971
 30
0.0
 11
83.04222578660001
 21
38.0154215309
 31
0.0
  0
MTEXT
  5
AD
330
A7
100
AcDbEntity
  8
0
  6
Continuous
 62
     7
440
 16777216
370
    18
100
AcDbMText
 10
77.5851725877
 20
106.3441640578
 30
0.0
 40
4.2333333333
 41
0.0
 46
0.0
 71
     1
 72
     1
  1
250.00
  7
SLDTEXTSTYLE0
 11
-0.000000000000007
 21
1.0
 31
0.0
 73
     1
 44
1.0
  0
ENDBLK
  5
A9
330
A7
100
AcDbEntity
  8
0
100
AcDbBlockEnd
  0
BLOCK
  5
B0
330
AF
100
AcDbEntity
  8
0
100
AcDbBlockBegin
  2
_D_2
 70
     0
 10
0.0
 20
0.0
 30
0.0
  3
_D_2
  1

  0
LINE
  5
B2
330
AF
100
AcDbEntity
  8
0
  6
Continuous
 62
     7
440
 16777216
370
     0
100
AcDbLine
 10
207.3626169907
 20
118.0344212913
 30
0.0
 11
217.8203833265
 21
118.0344212913
 31
0.0
  0
LINE
  5
B3
330
AF
100
AcDbEntity
  8
0
  6
Continuous
 62
     7
440
 16777216
370
     0
100
AcDbLine
 10
135.2540737181
 20
38.0154215309
 30
0.0
 11
217.8203833265
 21
38.0154215309
 31
0.0
  0
LINE
  5
B4
330
AF
100
AcDbEntity
  8
0
  6
Continuous
 62
     7
440
 16777216
370
     0
100
AcDbLine
 10
216.8203833265
 20
118.0344212913
 30
0.0
 11
216.8203833265
 21
38.0154215309
 31
0.0
  0
MTEXT
  5
B5
330
AF
100
AcDbEntity
  8
0
  6
Continuous
 62
     7
440
 16777216
370
    18
100
AcDbMText
 10
211.3633301276
 20
68.42399760550001
 30
0.0
 40
4.2333333333
 41
0.0
 46
0.0
 71
     1
 72
     1
  1
140.00
  7
SLDTEXTSTYLE0
 11
-0.000000000000007
 21
1.0
 31
0.0
 73
     1
 44
1.0
  0
ENDBLK
  5
B1
330
AF
100
AcDbEntity
  8
0
100
AcDbBlockEnd
  0
BLOCK
  5
DD
330
DC
100
AcDbEntity
  8
0
100
AcDbBlockBegin
  2
_D_3
 70
     0
 10
0.0
 20
0.0
 30
0.0
  3
_D_3
  1

  0
LINE
  5
DF
330
DC
100
AcDbEntity
  8
0
  6
Continuous
 62
     7
440
 16777216
370
     0
100
AcDbLine
 10
96.52332858780001
 20
276.1680300384
 30
0.0
 11
82.04222578659999
 21
276.1680300384
 31
0.0
  0
LINE
  5
E0
330
DC
100
AcDbEntity
  8
0
  6
Continuous
 62
     7
440
 16777216
370
     0
100
AcDbLine
 10
97.3955004071
 20
207.596601467
 30
0.0
 11
82.04222578659999
 21
207.596601467
 31
0.0
  0
LINE
  5
E1
330
DC
100
AcDbEntity
  8
0
  6
Continuous
 62
     7
440
 16777216
370
     0
100
AcDbLine
 10
83.04222578660001
 20
276.1680300384
 30
0.0
 11
83.04222578660001
 21
207.596601467
 31
0.0
  0
MTEXT
  5
E2
330
DC
100
AcDbEntity
  8
0
  6
Continuous
 62
     7
440
 16777216
370
    18
100
AcDbMText
 10
77.5851725877
 20
235.4121217068
 30
0.0
 40
4.2333333333
 41
0.0
 46
0.0
 71
     1
 72
     1
  1
120.00
  7
SLDTEXTSTYLE0
 11
-0.0000000000000035
 21
1.0
 31
0.0
 73
     1
 44
1.0
  0
ENDBLK
  5
DE
330
DC
100
AcDbEntity
  8
0
100
AcDbBlockEnd
  0
BLOCK
  5
E5
330
E4
100
AcDbEntity
  8
0
100
AcDbBlockBegin
  2
_D_4
 70
     0
 10
0.0
 20
0.0
 30
0.0
  3
_D_4
  1

  0
LINE
  5
E7
330
E4
100
AcDbEntity
  8
0
  6
Continuous
 62
     7
440
 16777216
370
     0
100
AcDbLine
 10
127.3279400723
 20
279.7597260658
 30
0.0
 11
127.3279400723
 21
290.9338256422
 31
0.0
  0
LINE
  5
E8
330
E4
100
AcDbEntity
  8
0
  6
Continuous
 62
     7
440
 16777216
370
     0
100
AcDbLine
 10
101.613654358
 20
280.086790498
 30
0.0
 11
101.613654358
 21
290.9338256422
 31
0.0
  0
LINE
  5
E9
330
E4
100
AcDbEntity
  8
0
  6
Continuous
 62
     7
440
 16777216
370
     0
100
AcDbLine
 10
127.3279400723
 20
289.9338256422
 30
0.0
 11
101.613654358
 21
289.9338256422
 31
0.0
  0
MTEXT
  5
EA
330
E4
100
AcDbEntity
  8
0
  6
Continuous
 62
     7
440
 16777216
370
    18
100
AcDbMText
 10
102.7140390926
 20
295.3908793067
 30
0.0
 40
4.2333333333
 41
0.0
 46
0.0
 71
     1
 72
     1
  1
%%c
  7
SLDTEXTSTYLE0
 73
     1
 44
1.0
  0
MTEXT
  5
EB
330
E4
100
AcDbEntity
  8
0
  6
Continuous
 62
     7
440
 16777216
370
    18
100
AcDbMText
 10
109.104020694
 20
295.3908793067
 30
0.0
 40
4.2333333333
 41
0.0
 46
0.0
 71
     1
 72
     1
  1
45.00
  7
SLDTEXTSTYLE0
 73
     1
 44
1.0
  0
ENDBLK
  5
E6
330
E4
100
AcDbEntity
  8
0
100
AcDbBlockEnd
  0
BLOCK
  5
126
330
125
100
AcDbEntity
  8
0
100
AcDbBlockBegin
  2
_D_5
 70
     0
 10
0.0
 20
0.0
 30
0.0
  3
_D_5
  1

  0
LINE
  5
128
330
125
100
AcDbEntity
  8
0
  6
Continuous
 62
     7
440
 16777216
370
     0
100
AcDbLine
 10
261.6182325677
 20
112.3207354232
 30
0.0
 11
247.6568239198
 21
112.3207354232
 31
0.0
  0
LINE
  5
129
330
125
100
AcDbEntity
  8
0
  6
Continuous
 62
     7
440
 16777216
370
     0
100
AcDbLine
 10
257.8808938778
 20
63.74940144199999
 30
0.0
 11
247.6568239198
 21
63.74940144199999
 31
0.0
  0
LINE
  5
12A
330
125
100
AcDbEntity
  8
0
  6
Continuous
 62
     7
440
 16777216
370
     0
100
AcDbLine
 10
248.6568239198
 20
112.3207354232
 30
0.0
 11
248.6568239198
 21
63.74940144199999
 31
0.0
  0
MTEXT
  5
12B
330
125
100
AcDbEntity
  8
0
  6
Continuous
 62
     7
440
 16777216
370
    18
100
AcDbMText
 10
243.199770721
 20
79.5171582329
 30
0.0
 40
4.2333333333
 41
0.0
 46
0.0
 71
     1
 72
     1
  1
85.00
  7
SLDTEXTSTYLE0
 11
-0.000000000000007
 21
1.0
 31
0.0
 73
     1
 44
1.0
  0
ENDBLK
  5
127
330
125
100
AcDbEntity
  8
0
100
AcDbBlockEnd
  0
BLOCK
  5
12E
330
12D
100
AcDbEntity
  8
0
100
AcDbBlockBegin
  2
_D_6
 70
     0
 10
0.0
 20
0.0
 30
0.0
  3
_D_6
  1

  0
LINE
  5
130
330
12D
100
AcDbEntity
  8
0
  6
Continuous
 62
     7
440
 16777216
370
     0
100
AcDbLine
 10
289.2989172197
 20
34.9206145128
 30
0.0
 11
289.2989172197
 21
21.0154215309
 31
0.0
  0
LINE
  5
131
330
12D
100
AcDbEntity
  8
0
  6
Continuous
 62
     7
440
 16777216
370
     0
100
AcDbLine
 10
320.1560600768
 20
34.5977571189
 30
0.0
 11
320.1560600768
 21
21.0154215309
 31
0.0
  0
LINE
  5
132
330
12D
100
AcDbEntity
  8
0
  6
Continuous
 62
     7
440
 16777216
370
     0
100
AcDbLine
 10
289.2989172197
 20
22.01542153090001
 30
0.0
 11
320.1560600768
 21
22.01542153090001
 31
0.0
  0
MTEXT
  5
133
330
12D
100
AcDbEntity
  8
0
  6
Continuous
 62
     7
440
 16777216
370
    18
100
AcDbMText
 10
293.1825027359
 20
27.4724751954
 30
0.0
 40
4.2333333333
 41
0.0
 46
0.0
 71
     1
 72
     1
  1
%%c
  7
SLDTEXTSTYLE0
 73
     1
 44
1.0
  0
MTEXT
  5
134
330
12D
100
AcDbEntity
  8
0
  6
Continuous
 62
     7
440
 16777216
370
    18
100
AcDbMText
 10
299.5724843373
 20
27.4724751954
 30
0.0
 40
4.2333333333
 41
0.0
 46
0.0
 71
     1
 72
     1
  1
54.00
  7
SLDTEXTSTYLE0
 73
     1
 44
1.0
  0
ENDBLK
  5
12F
330
12D
100
AcDbEntity
  8
0
100
AcDbBlockEnd
  0
BLOCK
  5
137
330
136
100
AcDbEntity
  8
0
100
AcDbBlockBegin
  2
_D_7
 70
     0
 10
0.0
 20
0.0
 30
0.0
  3
_D_7
  1

  0
LINE
  5
139
330
136
100
AcDbEntity
  8
0
  6
Continuous
 62
     7
440
 16777216
370
     0
100
AcDbLine
 10
334.2567527107
 20
89.4629927199
 30
0.0
 11
347.3846315054
 21
89.4629927199
 31
0.0
  0
LINE
  5
13A
330
136
100
AcDbEntity
  8
0
  6
Continuous
 62
     7
440
 16777216
370
     0
100
AcDbLine
 10
325.3840218002
 20
38.0154215309
 30
0.0
 11
347.3846315054
 21
38.0154215309
 31
0.0
  0
LINE
  5
13B
330
136
100
AcDbEntity
  8
0
  6
Continuous
 62
     7
440
 16777216
370
     0
100
AcDbLine
 10
346.3846315054
 20
89.4629927199
 30
0.0
 11
346.3846315054
 21
38.0154215309
 31
0.0
  0
MTEXT
  5
13C
330
136
100
AcDbEntity
  8
0
  6
Continuous
 62
     7
440
 16777216
370
    18
100
AcDbMText
 10
340.9275783065
 20
55.5441402271
 30
0.0
 40
4.2333333333
 41
0.0
 46
0.0
 71
     1
 72
     1
  1
90.00
  7
SLDTEXTSTYLE0
 11
-0.000000000000007
 21
1.0
 31
0.0
 73
     1
 44
1.0
  0
ENDBLK
  5
138
330
136
100
AcDbEntity
  8
0
100
AcDbBlockEnd
  0
BLOCK
  5
17F
330
17E
100
AcDbEntity
  8
0
100
AcDbBlockBegin
  2
*D10
 70
     1
 10
0.0
 20
0.0
 30
0.0
  3
*D10
  1

  0
LINE
  5
180
330
17E
100
AcDbEntity
  8
DIMENSION
440
 16777216
370
     0
100
AcDbLine
 10
1092.625159377854
 20
969.7937323929265
 30
0.0
 11
1092.569709633547
 21
979.7935786580374
 31
0.0
  0
LINE
  5
181
330
17E
100
AcDbEntity
  8
DIMENSION
440
 16777216
370
     0
100
AcDbLine
 10
1454.657182624691
 20
971.8012215670347
 30
0.0
 11
1454.601732880384
 21
981.8010678321458
 31
0.0
  0
LINE
  5
182
330
17E
100
AcDbEntity
  8
DIMENSION
440
 16777216
370
     0
100
AcDbLine
 10
1092.597434505701
 20
974.793655525482
 30
0.0
 11
1454.629457752537
 21
976.8011446995902
 31
0.0
  0
MTEXT
  5
183
330
17E
100
AcDbEntity
  8
DIMENSION
 62
     7
440
 16777216
100
AcDbMText
 10
1273.568105608173
 20
983.9741418578535
 30
0.0
 40
8.0
 41
0.0
 46
0.0
 71
     5
 72
     1
  1
\A1;362
 73
     1
 44
1.0
  0
POINT
  5
184
330
17E
100
AcDbEntity
  8
Defpoints
 62
     0
440
 16777216
100
AcDbPoint
 10
1092.771920384362
 20
943.3267482592359
 30
0.0
  0
POINT
  5
185
330
17E
100
AcDbEntity
  8
Defpoints
 62
     0
440
 16777216
100
AcDbPoint
 10
1454.803943631198
 20
945.3342374333443
 30
0.0
  0
POINT
  5
186
330
17E
100
AcDbEntity
  8
Defpoints
 62
     0
440
 16777216
100
AcDbPoint
 10
1454.629457752537
 20
976.8011446995902
 30
0.0
  0
ENDBLK
  5
187
330
17E
100
AcDbEntity
  8
0
100
AcDbBlockEnd
  0
BLOCK
  5
1A3
330
1A2
100
AcDbEntity
  8
0
100
AcDbBlockBegin
  2
*D12
 70
     1
 10
0.0
 20
0.0
 30
0.0
  3
*D12
  1

  0
LINE
  5
1A5
330
1A2
100
AcDbEntity
  8
DIMENSION
440
 16777216
370
     0
100
AcDbLine
 10
249.039421949141
 20
238.6583588613865
 30
0.0
 11
248.9839722048341
 21
248.6582051264977
 31
0.0
  0
LINE
  5
1A6
330
1A2
100
AcDbEntity
  8
DIMENSION
440
 16777216
370
     0
100
AcDbLine
 10
611.0714451959775
 20
240.6658480354948
 30
0.0
 11
611.0159954516705
 21
250.6656943006059
 31
0.0
  0
LINE
  5
1A7
330
1A2
100
AcDbEntity
  8
DIMENSION
440
 16777216
370
     0
100
AcDbLine
 10
249.0116970769875
 20
243.6582819939421
 30
0.0
 11
611.043720323824
 21
245.6657711680504
 31
0.0
  0
MTEXT
  5
1A8
330
1A2
100
AcDbEntity
  8
DIMENSION
 62
     7
440
 16777216
100
AcDbMText
 10
429.9828986347172
 20
252.7431056484461
 30
0.0
 40
8.0
 41
0.0
 46
0.0
 71
     5
 72
     1
  1
\A1;362
 73
     1
 44
1.0
  0
POINT
  5
1A9
330
1A2
100
AcDbEntity
  8
Defpoints
 62
     0
440
 16777216
100
AcDbPoint
 10
249.1861829556485
 20
212.191374727696
 30
0.0
  0
POINT
  5
1AA
330
1A2
100
AcDbEntity
  8
Defpoints
 62
     0
440
 16777216
100
AcDbPoint
 10
611.2182062024849
 20
214.1988639018043
 30
0.0
  0
POINT
  5
1AB
330
1A2
100
AcDbEntity
  8
Defpoints
 62
     0
440
 16777216
100
AcDbPoint
 10
611.043720323824
 20
245.6657711680504
 30
0.0
  0
ENDBLK
  5
1A4
330
1A2
100
AcDbEntity
  8
0
100
AcDbBlockEnd
  0
BLOCK
  5
2CF
330
2CE
100
AcDbEntity
  8
0
100
AcDbBlockBegin
  2
*D14
 70
     1
 10
0.0
 20
0.0
 30
0.0
  3
*D14
  1

  0
LINE
  5
39C
330
2CE
100
AcDbEntity
  8
0
  6
Continuous
 62
     0
440
 16777216
370
    -2
100
AcDbLine
 10
303.313546579171
 20
501.0995273315941
 30
0.0
 11
303.313546579171
 21
333.1287777508941
 31
0.0
  0
LINE
  5
39D
330
2CE
100
AcDbEntity
  8
0
  6
Continuous
 62
     0
440
 16777216
370
    -2
100
AcDbLine
 10
158.313550018171
 20
361.0662777508941
 30
0.0
 11
158.313550018171
 21
333.1287777508941
 31
0.0
  0
LINE
  5
39E
330
2CE
100
AcDbEntity
  8
0
  6
Continuous
 62
     0
440
 16777216
370
    -2
100
AcDbLine
 10
303.313546579171
 20
333.1287777508941
 30
0.0
 11
158.313550018171
 21
333.1287777508941
 31
0.0
  0
MTEXT
  5
39F
330
2CE
100
AcDbEntity
  8
0
  6
Continuous
 62
     0
440
 16777216
370
    18
100
AcDbMText
 10
224.724366067896
 20
338.4204444174941
 30
0.0
 40
4.2333333333
 41
0.0
 46
0.0
 71
     2
 72
     1
  1
\A1;145.00
  7
SLDTEXTSTYLE0
 73
     1
 44
1.0
  0
POINT
  5
3A0
330
2CE
100
AcDbEntity
  8
Defpoints
  6
Continuous
 62
     0
440
 16777216
100
AcDbPoint
 10
303.313546579171
 20
501.1620273315942
 30
0.0
  0
POINT
  5
3A1
330
2CE
100
AcDbEntity
  8
Defpoints
  6
Continuous
 62
     0
440
 16777216
100
AcDbPoint
 10
158.313550018171
 20
361.1287777508942
 30
0.0
  0
POINT
  5
3A2
330
2CE
100
AcDbEntity
  8
Defpoints
  6
Continuous
 62
     0
440
 16777216
100
AcDbPoint
 10
158.313550018171
 20
333.1287777508941
 30
0.0
  0
ENDBLK
  5
2D0
330
2CE
100
AcDbEntity
  8
0
100
AcDbBlockEnd
  0
BLOCK
  5
2D9
330
2D8
100
AcDbEntity
  8
0
100
AcDbBlockBegin
  2
*D15
 70
     1
 10
0.0
 20
0.0
 30
0.0
  3
*D15
  1

  0
LINE
  5
3B1
330
2D8
100
AcDbEntity
  8
0
  6
Continuous
 62
     0
440
 16777216
370
    -2
100
AcDbLine
 10
230.0669214038211
 20
611.1592270210692
 30
0.0
 11
103.3135500181208
 21
611.1592270210692
 31
0.0
  0
LINE
  5
3B2
330
2D8
100
AcDbEntity
  8
0
  6
Continuous
 62
     0
440
 16777216
370
    -2
100
AcDbLine
 10
131.251050018121
 20
361.1287777508942
 30
0.0
 11
103.3135500181209
 21
361.1287777508942
 31
0.0
  0
LINE
  5
3B3
330
2D8
100
AcDbEntity
  8
0
  6
Continuous
 62
     0
440
 16777216
370
    -2
100
AcDbLine
 10
103.3135500181208
 20
611.1592270210692
 30
0.0
 11
103.3135500181209
 21
361.1287777508942
 31
0.0
  0
MTEXT
  5
3B4
330
2D8
100
AcDbEntity
  8
0
  6
Continuous
 62
     0
440
 16777216
370
    18
100
AcDbMText
 10
98.02188335152099
 20
495.7539701163691
 30
0.0
 40
4.2333333333
 41
0.0
 46
0.0
 71
     2
 72
     1
  1
\A1;250.03
  7
SLDTEXTSTYLE0
 11
0.0000000000000001
 21
1.0
 31
0.0
 73
     1
 44
1.0
  0
POINT
  5
3B5
330
2D8
100
AcDbEntity
  8
Defpoints
  6
Continuous
 62
     0
440
 16777216
100
AcDbPoint
 10
230.1294214038211
 20
611.1592270210692
 30
0.0
  0
POINT
  5
3B6
330
2D8
100
AcDbEntity
  8
Defpoints
  6
Continuous
 62
     0
440
 16777216
100
AcDbPoint
 10
131.313550018121
 20
361.1287777508942
 30
0.0
  0
POINT
  5
3B7
330
2D8
100
AcDbEntity
  8
Defpoints
  6
Continuous
 62
     0
440
 16777216
100
AcDbPoint
 10
103.3135500181209
 20
361.1287777508942
 30
0.0
  0
ENDBLK
  5
2DA
330
2D8
100
AcDbEntity
  8
0
100
AcDbBlockEnd
  0
BLOCK
  5
2E3
330
2E2
100
AcDbEntity
  8
0
100
AcDbBlockBegin
  2
*D16
 70
     1
 10
0.0
 20
0.0
 30
0.0
  3
*D16
  1

  0
LINE
  5
3AA
330
2E2
100
AcDbEntity
  8
0
  6
Continuous
 62
     0
440
 16777216
370
    -2
100
AcDbLine
 10
314.491046579296
 20
501.1620273315943
 30
0.0
 11
337.4253257129459
 21
501.1620273315943
 31
0.0
  0
LINE
  5
3AB
330
2E2
100
AcDbEntity
  8
0
  6
Continuous
 62
     0
440
 16777216
370
    -2
100
AcDbLine
 10
185.376050018046
 20
361.1287777508942
 30
0.0
 11
337.425325712946
 21
361.1287777508942
 31
0.0
  0
LINE
  5
3AC
330
2E2
100
AcDbEntity
  8
0
  6
Continuous
 62
     0
440
 16777216
370
    -2
100
AcDbLine
 10
337.4253257129459
 20
501.1620273315943
 30
0.0
 11
337.425325712946
 21
361.1287777508942
 31
0.0
  0
MTEXT
  5
3AD
330
2E2
100
AcDbEntity
  8
0
  6
Continuous
 62
     0
440
 16777216
370
    18
100
AcDbMText
 10
332.133659046346
 20
429.3936788248441
 30
0.0
 40
4.2333333333
 41
0.0
 46
0.0
 71
     2
 72
     1
  1
\A1;140.03
  7
SLDTEXTSTYLE0
 11
0.0000000000000001
 21
1.0
 31
0.0
 73
     1
 44
1.0
  0
POINT
  5
3AE
330
2E2
100
AcDbEntity
  8
Defpoints
  6
Continuous
 62
     0
440
 16777216
100
AcDbPoint
 10
314.4285465792961
 20
501.1620273315943
 30
0.0
  0
POINT
  5
3AF
330
2E2
100
AcDbEntity
  8
Defpoints
  6
Continuous
 62
     0
440
 16777216
100
AcDbPoint
 10
185.313550018046
 20
361.1287777508942
 30
0.0
  0
POINT
  5
3B0
330
2E2
100
AcDbEntity
  8
Defpoints
  6
Continuous
 62
     0
440
 16777216
100
AcDbPoint
 10
337.425325712946
 20
361.1287777508942
 30
0.0
  0
ENDBLK
  5
2E4
330
2E2
100
AcDbEntity
  8
0
100
AcDbBlockEnd
  0
BLOCK
  5
2ED
330
2EC
100
AcDbEntity
  8
0
100
AcDbBlockBegin
  2
*D17
 70
     1
 10
0.0
 20
0.0
 30
0.0
  3
*D17
  1

  0
LINE
  5
3BF
330
2EC
100
AcDbEntity
  8
0
  6
Continuous
 62
     0
440
 16777216
370
    -2
100
AcDbLine
 10
135.751050018071
 20
777.8958426390195
 30
0.0
 11
103.3135500181208
 21
777.8958426390195
 31
0.0
  0
LINE
  5
3C0
330
2EC
100
AcDbEntity
  8
0
  6
Continuous
 62
     0
440
 16777216
370
    -2
100
AcDbLine
 10
135.786061379596
 20
657.8958426390693
 30
0.0
 11
103.3135500181208
 21
657.8958426390693
 31
0.0
  0
LINE
  5
3C1
330
2EC
100
AcDbEntity
  8
0
  6
Continuous
 62
     0
440
 16777216
370
    -2
100
AcDbLine
 10
103.3135500181208
 20
777.8958426390195
 30
0.0
 11
103.3135500181208
 21
657.8958426390693
 31
0.0
  0
MTEXT
  5
3C2
330
2EC
100
AcDbEntity
  8
0
  6
Continuous
 62
     0
440
 16777216
370
    18
100
AcDbMText
 10
98.02188335152099
 20
721.6228960021192
 30
0.0
 40
4.2333333333
 41
0.0
 46
0.0
 71
     2
 72
     1
  1
\A1;120.00
  7
SLDTEXTSTYLE0
 11
0.0000000000000001
 21
1.0
 31
0.0
 73
     1
 44
1.0
  0
POINT
  5
3C3
330
2EC
100
AcDbEntity
  8
Defpoints
  6
Continuous
 62
     0
440
 16777216
100
AcDbPoint
 10
135.813550018071
 20
777.8958426390195
 30
0.0
  0
POINT
  5
3C4
330
2EC
100
AcDbEntity
  8
Defpoints
  6
Continuous
 62
     0
440
 16777216
100
AcDbPoint
 10
135.848561379596
 20
657.8958426390693
 30
0.0
  0
POINT
  5
3C5
330
2EC
100
AcDbEntity
  8
Defpoints
  6
Continuous
 62
     0
440
 16777216
100
AcDbPoint
 10
103.3135500181208
 20
657.8958426390693
 30
0.0
  0
ENDBLK
  5
2EE
330
2EC
100
AcDbEntity
  8
0
100
AcDbBlockEnd
  0
BLOCK
  5
2F7
330
2F6
100
AcDbEntity
  8
0
100
AcDbBlockBegin
  2
*D18
 70
     1
 10
0.0
 20
0.0
 30
0.0
  3
*D18
  1

  0
LINE
  5
3B8
330
2F6
100
AcDbEntity
  8
0
  6
Continuous
 62
     0
440
 16777216
370
    -2
100
AcDbLine
 10
180.813550018096
 20
777.958342639019
 30
0.0
 11
180.813550018096
 21
801.985984945669
 31
0.0
  0
LINE
  5
3B9
330
2F6
100
AcDbEntity
  8
0
  6
Continuous
 62
     0
440
 16777216
370
    -2
100
AcDbLine
 10
135.813550018071
 20
777.958342639019
 30
0.0
 11
135.813550018071
 21
801.985984945669
 31
0.0
  0
LINE
  5
3BA
330
2F6
100
AcDbEntity
  8
0
  6
Continuous
 62
     0
440
 16777216
370
    -2
100
AcDbLine
 10
180.813550018096
 20
801.985984945669
 30
0.0
 11
135.813550018071
 21
801.985984945669
 31
0.0
  0
MTEXT
  5
3BB
330
2F6
100
AcDbEntity
  8
0
  6
Continuous
 62
     0
440
 16777216
370
    18
100
AcDbMText
 10
155.643381053946
 20
807.277651612269
 30
0.0
 40
4.2333333333
 41
0.0
 46
0.0
 71
     2
 72
     1
  1
\A1;%%c45.00
  7
SLDTEXTSTYLE0
 73
     1
 44
1.0
  0
POINT
  5
3BC
330
2F6
100
AcDbEntity
  8
Defpoints
  6
Continuous
 62
     0
440
 16777216
100
AcDbPoint
 10
180.813550018096
 20
777.895842639019
 30
0.0
  0
POINT
  5
3BD
330
2F6
100
AcDbEntity
  8
Defpoints
  6
Continuous
 62
     0
440
 16777216
100
AcDbPoint
 10
135.813550018071
 20
777.895842639019
 30
0.0
  0
POINT
  5
3BE
330
2F6
100
AcDbEntity
  8
Defpoints
  6
Continuous
 62
     0
440
 16777216
100
AcDbPoint
 10
135.813550018071
 20
801.985984945669
 30
0.0
  0
ENDBLK
  5
2F8
330
2F6
100
AcDbEntity
  8
0
100
AcDbBlockEnd
  0
BLOCK
  5
301
330
300
100
AcDbEntity
  8
0
100
AcDbBlockBegin
  2
*D19
 70
     1
 10
0.0
 20
0.0
 30
0.0
  3
*D19
  1

  0
LINE
  5
3A3
330
300
100
AcDbEntity
  8
0
  6
Continuous
 62
     0
440
 16777216
370
    -2
100
AcDbLine
 10
426.5002600259712
 20
491.1630770624192
 30
0.0
 11
393.139096751221
 21
491.1630770624192
 31
0.0
  0
LINE
  5
3A4
330
300
100
AcDbEntity
  8
0
  6
Continuous
 62
     0
440
 16777216
370
    -2
100
AcDbLine
 10
416.2002600259962
 20
406.1632425953193
 30
0.0
 11
393.139096751221
 21
406.1632425953193
 31
0.0
  0
LINE
  5
3A5
330
300
100
AcDbEntity
  8
0
  6
Continuous
 62
     0
440
 16777216
370
    -2
100
AcDbLine
 10
393.139096751221
 20
491.1630770624192
 30
0.0
 11
393.139096751221
 21
406.1632425953193
 31
0.0
  0
MTEXT
  5
3A6
330
300
100
AcDbEntity
  8
0
  6
Continuous
 62
     0
440
 16777216
370
    18
100
AcDbMText
 10
387.8474300846209
 20
446.0697420508691
 30
0.0
 40
4.2333333333
 41
0.0
 46
0.0
 71
     2
 72
     1
  1
\A1;85.00
  7
SLDTEXTSTYLE0
 11
0.0000000000000001
 21
1.0
 31
0.0
 73
     1
 44
1.0
  0
POINT
  5
3A7
330
300
100
AcDbEntity
  8
Defpoints
  6
Continuous
 62
     0
440
 16777216
100
AcDbPoint
 10
426.5627600259712
 20
491.1630770624192
 30
0.0
  0
POINT
  5
3A8
330
300
100
AcDbEntity
  8
Defpoints
  6
Continuous
 62
     0
440
 16777216
100
AcDbPoint
 10
416.2627600259963
 20
406.1632425953193
 30
0.0
  0
POINT
  5
3A9
330
300
100
AcDbEntity
  8
Defpoints
  6
Continuous
 62
     0
440
 16777216
100
AcDbPoint
 10
393.139096751221
 20
406.1632425953193
 30
0.0
  0
ENDBLK
  5
302
330
300
100
AcDbEntity
  8
0
100
AcDbBlockEnd
  0
BLOCK
  5
30B
330
30A
100
AcDbEntity
  8
0
100
AcDbBlockBegin
  2
*D20
 70
     1
 10
0.0
 20
0.0
 30
0.0
  3
*D20
  1

  0
LINE
  5
395
330
30A
100
AcDbEntity
  8
0
  6
Continuous
 62
     0
440
 16777216
370
    -2
100
AcDbLine
 10
464.262760026046
 20
361.0662777508941
 30
0.0
 11
464.262760026046
 21
333.1287777508941
 31
0.0
  0
LINE
  5
396
330
30A
100
AcDbEntity
  8
0
  6
Continuous
 62
     0
440
 16777216
370
    -2
100
AcDbLine
 10
518.262760025971
 20
361.0662777508941
 30
0.0
 11
518.262760025971
 21
333.1287777508941
 31
0.0
  0
LINE
  5
397
330
30A
100
AcDbEntity
  8
0
  6
Continuous
 62
     0
440
 16777216
370
    -2
100
AcDbLine
 10
464.262760026046
 20
333.1287777508941
 30
0.0
 11
518.262760025971
 21
333.1287777508941
 31
0.0
  0
MTEXT
  5
398
330
30A
100
AcDbEntity
  8
0
  6
Continuous
 62
     0
440
 16777216
370
    18
100
AcDbMText
 10
488.963192429721
 20
338.4204444174941
 30
0.0
 40
4.2333333333
 41
0.0
 46
0.0
 71
     2
 72
     1
  1
\A1;%%c54.00
  7
SLDTEXTSTYLE0
 73
     1
 44
1.0
  0
POINT
  5
399
330
30A
100
AcDbEntity
  8
Defpoints
  6
Continuous
 62
     0
440
 16777216
100
AcDbPoint
 10
464.262760026046
 20
361.1287777508942
 30
0.0
  0
POINT
  5
39A
330
30A
100
AcDbEntity
  8
Defpoints
  6
Continuous
 62
     0
440
 16777216
100
AcDbPoint
 10
518.262760025971
 20
361.1287777508942
 30
0.0
  0
POINT
  5
39B
330
30A
100
AcDbEntity
  8
Defpoints
  6
Continuous
 62
     0
440
 16777216
100
AcDbPoint
 10
518.262760025971
 20
333.1287777508941
 30
0.0
  0
ENDBLK
  5
30C
330
30A
100
AcDbEntity
  8
0
100
AcDbBlockEnd
  0
BLOCK
  5
315
330
314
100
AcDbEntity
  8
0
100
AcDbBlockBegin
  2
*D21
 70
     1
 10
0.0
 20
0.0
 30
0.0
  3
*D21
  1

  0
LINE
  5
38E
330
314
100
AcDbEntity
  8
0
  6
Continuous
 62
     0
440
 16777216
370
    -2
100
AcDbLine
 10
536.2252600260212
 20
451.1620273316442
 30
0.0
 11
564.162760026021
 21
451.1620273316442
 31
0.0
  0
LINE
  5
38F
330
314
100
AcDbEntity
  8
0
  6
Continuous
 62
     0
440
 16777216
370
    -2
100
AcDbLine
 10
518.3252600259712
 20
361.1287777508942
 30
0.0
 11
564.162760026021
 21
361.1287777508942
 31
0.0
  0
LINE
  5
390
330
314
100
AcDbEntity
  8
0
  6
Continuous
 62
     0
440
 16777216
370
    -2
100
AcDbLine
 10
564.162760026021
 20
451.1620273316442
 30
0.0
 11
564.162760026021
 21
361.1287777508942
 31
0.0
  0
MTEXT
  5
391
330
314
100
AcDbEntity
  8
0
  6
Continuous
 62
     0
440
 16777216
370
    18
100
AcDbMText
 10
558.871093359421
 20
404.1169605407191
 30
0.0
 40
4.2333333333
 41
0.0
 46
0.0
 71
     2
 72
     1
  1
\A1;90.03
  7
SLDTEXTSTYLE0
 11
0.0000000000000001
 21
1.0
 31
0.0
 73
     1
 44
1.0
  0
POINT
  5
392
330
314
100
AcDbEntity
  8
Defpoints
  6
Continuous
 62
     0
440
 16777216
100
AcDbPoint
 10
536.1627600260212
 20
451.1620273316442
 30
0.0
  0
POINT
  5
393
330
314
100
AcDbEntity
  8
Defpoints
  6
Continuous
 62
     0
440
 16777216
100
AcDbPoint
 10
518.2627600259713
 20
361.1287777508942
 30
0.0
  0
POINT
  5
394
330
314
100
AcDbEntity
  8
Defpoints
  6
Continuous
 62
     0
440
 16777216
100
AcDbPoint
 10
564.162760026021
 20
361.1287777508942
 30
0.0
  0
ENDBLK
  5
316
330
314
100
AcDbEntity
  8
0
100
AcDbBlockEnd
  0
BLOCK
  5
3C7
330
3C6
100
AcDbEntity
  8
0
100
AcDbBlockBegin
  2
*D22
 70
     1
 10
0.0
 20
0.0
 30
0.0
  3
*D22
  1

  0
LINE
  5
3C9
330
3C6
100
AcDbEntity
  8
DIMENSION
440
 16777216
370
     0
100
AcDbLine
 10
559.162760026021
 20
451.1620273316442
 30
0.0
 11
569.162760026021
 21
451.1620273316442
 31
0.0
  0
LINE
  5
3CA
330
3C6
100
AcDbEntity
  8
DIMENSION
440
 16777216
370
     0
100
AcDbLine
 10
559.162760026021
 20
361.1287777508942
 30
0.0
 11
569.162760026021
 21
361.1287777508942
 31
0.0
  0
LINE
  5
3CB
330
3C6
100
AcDbEntity
  8
DIMENSION
440
 16777216
370
     0
100
AcDbLine
 10
564.162760026021
 20
451.1620273316442
 30
0.0
 11
564.162760026021
 21
361.1287777508942
 31
0.0
  0
MTEXT
  5
3CC
330
3C6
100
AcDbEntity
  8
DIMENSION
 62
     7
440
 16777216
100
AcDbMText
 10
574.162760026021
 20
408.1169605407191
 30
0.0
 40
8.0
 41
0.0
 46
0.0
 71
     2
 72
     1
  1
\A1;90
 73
     1
 44
1.0
  0
POINT
  5
3CD
330
3C6
100
AcDbEntity
  8
Defpoints
 62
     0
440
 16777216
100
AcDbPoint
 10
536.1627600260212
 20
451.1620273316442
 30
0.0
  0
POINT
  5
3CE
330
3C6
100
AcDbEntity
  8
Defpoints
 62
     0
440
 16777216
100
AcDbPoint
 10
518.2627600259713
 20
361.1287777508942
 30
0.0
  0
POINT
  5
3CF
330
3C6
100
AcDbEntity
  8
Defpoints
 62
     0
440
 16777216
100
AcDbPoint
 10
564.162760026021
 20
361.1287777508942
 30
0.0
  0
ENDBLK
  5
3C8
330
3C6
100
AcDbEntity
  8
0
100
AcDbBlockEnd
  0
BLOCK
  5
3D5
330
3D4
100
AcDbEntity
  8
0
100
AcDbBlockBegin
  2
*D23
 70
     1
 10
0.0
 20
0.0
 30
0.0
  3
*D23
  1

  0
LINE
  5
3D7
330
3D4
100
AcDbEntity
  8
DIMENSION
440
 16777216
370
     0
100
AcDbLine
 10
464.262760026046
 20
338.1287777508941
 30
0.0
 11
464.262760026046
 21
328.1287777508941
 31
0.0
  0
LINE
  5
3D8
330
3D4
100
AcDbEntity
  8
DIMENSION
440
 16777216
370
     0
100
AcDbLine
 10
518.262760025971
 20
338.1287777508941
 30
0.0
 11
518.262760025971
 21
328.1287777508941
 31
0.0
  0
LINE
  5
3D9
330
3D4
100
AcDbEntity
  8
DIMENSION
440
 16777216
370
     0
100
AcDbLine
 10
464.262760026046
 20
333.1287777508941
 30
0.0
 11
518.262760025971
 21
333.1287777508941
 31
0.0
  0
MTEXT
  5
3DA
330
3D4
100
AcDbEntity
  8
DIMENSION
 62
     7
440
 16777216
100
AcDbMText
 10
488.963192429721
 20
329.1287777508941
 30
0.0
 40
8.0
 41
0.0
 46
0.0
 71
     2
 72
     1
  1
\A1;%%c54
 73
     1
 44
1.0
  0
POINT
  5
3DB
330
3D4
100
AcDbEntity
  8
Defpoints
 62
     0
440
 16777216
100
AcDbPoint
 10
464.262760026046
 20
361.1287777508942
 30
0.0
  0
POINT
  5
3DC
330
3D4
100
AcDbEntity
  8
Defpoints
 62
     0
440
 16777216
100
AcDbPoint
 10
518.262760025971
 20
361.1287777508942
 30
0.0
  0
POINT
  5
3DD
330
3D4
100
AcDbEntity
  8
Defpoints
 62
     0
440
 16777216
100
AcDbPoint
 10
518.262760025971
 20
333.1287777508941
 30
0.0
  0
ENDBLK
  5
3D6
330
3D4
100
AcDbEntity
  8
0
100
AcDbBlockEnd
  0
BLOCK
  5
3E3
330
3E2
100
AcDbEntity
  8
0
100
AcDbBlockBegin
  2
*D24
 70
     1
 10
0.0
 20
0.0
 30
0.0
  3
*D24
  1

  0
LINE
  5
3E5
330
3E2
100
AcDbEntity
  8
DIMENSION
440
 16777216
370
     0
100
AcDbLine
 10
398.139096751221
 20
491.1630770624192
 30
0.0
 11
388.139096751221
 21
491.1630770624192
 31
0.0
  0
LINE
  5
3E6
330
3E2
100
AcDbEntity
  8
DIMENSION
440
 16777216
370
     0
100
AcDbLine
 10
398.139096751221
 20
406.1632425953193
 30
0.0
 11
388.139096751221
 21
406.1632425953193
 31
0.0
  0
LINE
  5
3E7
330
3E2
100
AcDbEntity
  8
DIMENSION
440
 16777216
370
     0
100
AcDbLine
 10
393.139096751221
 20
491.1630770624192
 30
0.0
 11
393.139096751221
 21
406.1632425953193
 31
0.0
  0
MTEXT
  5
3E8
330
3E2
100
AcDbEntity
  8
DIMENSION
 62
     7
440
 16777216
100
AcDbMText
 10
382.4724300845543
 20
450.0697420508691
 30
0.0
 40
8.0
 41
0.0
 46
0.0
 71
     2
 72
     1
  1
\A1;85
 73
     1
 44
1.0
  0
POINT
  5
3E9
330
3E2
100
AcDbEntity
  8
Defpoints
 62
     0
440
 16777216
100
AcDbPoint
 10
426.5627600259712
 20
491.1630770624192
 30
0.0
  0
POINT
  5
3EA
330
3E2
100
AcDbEntity
  8
Defpoints
 62
     0
440
 16777216
100
AcDbPoint
 10
416.2627600259963
 20
406.1632425953193
 30
0.0
  0
POINT
  5
3EB
330
3E2
100
AcDbEntity
  8
Defpoints
 62
     0
440
 16777216
100
AcDbPoint
 10
393.139096751221
 20
406.1632425953193
 30
0.0
  0
ENDBLK
  5
3E4
330
3E2
100
AcDbEntity
  8
0
100
AcDbBlockEnd
  0
BLOCK
  5
3F1
330
3F0
100
AcDbEntity
  8
0
100
AcDbBlockBegin
  2
*D25
 70
     1
 10
0.0
 20
0.0
 30
0.0
  3
*D25
  1

  0
LINE
  5
3F3
330
3F0
100
AcDbEntity
  8
DIMENSION
440
 16777216
370
     0
100
AcDbLine
 10
180.813550018096
 20
796.9859849456691
 30
0.0
 11
180.813550018096
 21
806.985984945669
 31
0.0
  0
LINE
  5
3F4
330
3F0
100
AcDbEntity
  8
DIMENSION
440
 16777216
370
     0
100
AcDbLine
 10
135.813550018071
 20
796.9859849456691
 30
0.0
 11
135.813550018071
 21
806.985984945669
 31
0.0
  0
LINE
  5
3F5
330
3F0
100
AcDbEntity
  8
DIMENSION
440
 16777216
370
     0
100
AcDbLine
 10
180.813550018096
 20
801.985984945669
 30
0.0
 11
135.813550018071
 21
801.985984945669
 31
0.0
  0
MTEXT
  5
3F6
330
3F0
100
AcDbEntity
  8
DIMENSION
 62
     7
440
 16777216
100
AcDbMText
 10
155.643381053946
 20
813.9859849456691
 30
0.0
 40
8.0
 41
0.0
 46
0.0
 71
     2
 72
     1
  1
\A1;%%c45
 73
     1
 44
1.0
  0
POINT
  5
3F7
330
3F0
100
AcDbEntity
  8
Defpoints
 62
     0
440
 16777216
100
AcDbPoint
 10
180.813550018096
 20
777.895842639019
 30
0.0
  0
POINT
  5
3F8
330
3F0
100
AcDbEntity
  8
Defpoints
 62
     0
440
 16777216
100
AcDbPoint
 10
135.813550018071
 20
777.895842639019
 30
0.0
  0
POINT
  5
3F9
330
3F0
100
AcDbEntity
  8
Defpoints
 62
     0
440
 16777216
100
AcDbPoint
 10
135.813550018071
 20
801.985984945669
 30
0.0
  0
ENDBLK
  5
3F2
330
3F0
100
AcDbEntity
  8
0
100
AcDbBlockEnd
  0
BLOCK
  5
3FF
330
3FE
100
AcDbEntity
  8
0
100
AcDbBlockBegin
  2
*D26
 70
     1
 10
0.0
 20
0.0
 30
0.0
  3
*D26
  1

  0
LINE
  5
47F
330
3FE
100
AcDbEntity
  8
DIMENSION
440
 16777216
370
     0
100
AcDbLine
 10
95.64688335145415
 20
777.8958426390195
 30
0.0
 11
85.64688335145415
 21
777.8958426390195
 31
0.0
  0
LINE
  5
480
330
3FE
100
AcDbEntity
  8
DIMENSION
440
 16777216
370
     0
100
AcDbLine
 10
95.64688335145417
 20
657.8958426390693
 30
0.0
 11
85.64688335145417
 21
657.8958426390693
 31
0.0
  0
LINE
  5
481
330
3FE
100
AcDbEntity
  8
DIMENSION
440
 16777216
370
     0
100
AcDbLine
 10
90.64688335145415
 20
777.8958426390195
 30
0.0
 11
90.64688335145417
 21
657.8958426390693
 31
0.0
  0
MTEXT
  5
482
330
3FE
100
AcDbEntity
  8
DIMENSION
 62
     7
440
 16777216
100
AcDbMText
 10
77.98021668478767
 20
721.8958426390443
 30
0.0
 40
8.0
 41
0.0
 46
0.0
 71
     2
 72
     1
  1
\A1;120
 73
     1
 44
1.0
  0
POINT
  5
483
330
3FE
100
AcDbEntity
  8
Defpoints
 62
     0
440
 16777216
100
AcDbPoint
 10
135.813550018071
 20
777.8958426390195
 30
0.0
  0
POINT
  5
484
330
3FE
100
AcDbEntity
  8
Defpoints
 62
     0
440
 16777216
100
AcDbPoint
 10
135.848561379596
 20
657.8958426390693
 30
0.0
  0
POINT
  5
485
330
3FE
100
AcDbEntity
  8
Defpoints
 62
     0
440
 16777216
100
AcDbPoint
 10
90.64688335145417
 20
657.8958426390693
 30
0.0
  0
ENDBLK
  5
400
330
3FE
100
AcDbEntity
  8
0
100
AcDbBlockEnd
  0
BLOCK
  5
40D
330
40C
100
AcDbEntity
  8
0
100
AcDbBlockBegin
  2
*D27
 70
     1
 10
0.0
 20
0.0
 30
0.0
  3
*D27
  1

  0
LINE
  5
40F
330
40C
100
AcDbEntity
  8
DIMENSION
440
 16777216
370
     0
100
AcDbLine
 10
332.425325712946
 20
501.1620273315943
 30
0.0
 11
342.425325712946
 21
501.1620273315943
 31
0.0
  0
LINE
  5
410
330
40C
100
AcDbEntity
  8
DIMENSION
440
 16777216
370
     0
100
AcDbLine
 10
332.425325712946
 20
361.1287777508942
 30
0.0
 11
342.425325712946
 21
361.1287777508942
 31
0.0
  0
LINE
  5
411
330
40C
100
AcDbEntity
  8
DIMENSION
440
 16777216
370
     0
100
AcDbLine
 10
337.4253257129459
 20
501.1620273315943
 30
0.0
 11
337.425325712946
 21
361.1287777508942
 31
0.0
  0
MTEXT
  5
412
330
40C
100
AcDbEntity
  8
DIMENSION
 62
     7
440
 16777216
100
AcDbMText
 10
350.0919923796127
 20
433.3936788248441
 30
0.0
 40
8.0
 41
0.0
 46
0.0
 71
     2
 72
     1
  1
\A1;140
 73
     1
 44
1.0
  0
POINT
  5
413
330
40C
100
AcDbEntity
  8
Defpoints
 62
     0
440
 16777216
100
AcDbPoint
 10
314.4285465792961
 20
501.1620273315943
 30
0.0
  0
POINT
  5
414
330
40C
100
AcDbEntity
  8
Defpoints
 62
     0
440
 16777216
100
AcDbPoint
 10
185.313550018046
 20
361.1287777508942
 30
0.0
  0
POINT
  5
415
330
40C
100
AcDbEntity
  8
Defpoints
 62
     0
440
 16777216
100
AcDbPoint
 10
337.425325712946
 20
361.1287777508942
 30
0.0
  0
ENDBLK
  5
40E
330
40C
100
AcDbEntity
  8
0
100
AcDbBlockEnd
  0
BLOCK
  5
41B
330
41A
100
AcDbEntity
  8
0
100
AcDbBlockBegin
  2
*D28
 70
     1
 10
0.0
 20
0.0
 30
0.0
  3
*D28
  1

  0
LINE
  5
41D
330
41A
100
AcDbEntity
  8
DIMENSION
440
 16777216
370
     0
100
AcDbLine
 10
108.3135500181208
 20
611.1592270210692
 30
0.0
 11
98.31355001812084
 21
611.1592270210692
 31
0.0
  0
LINE
  5
41E
330
41A
100
AcDbEntity
  8
DIMENSION
440
 16777216
370
     0
100
AcDbLine
 10
108.3135500181209
 20
361.1287777508942
 30
0.0
 11
98.31355001812092
 21
361.1287777508942
 31
0.0
  0
LINE
  5
41F
330
41A
100
AcDbEntity
  8
DIMENSION
440
 16777216
370
     0
100
AcDbLine
 10
103.3135500181208
 20
611.1592270210692
 30
0.0
 11
103.3135500181209
 21
361.1287777508942
 31
0.0
  0
MTEXT
  5
420
330
41A
100
AcDbEntity
  8
DIMENSION
 62
     7
440
 16777216
100
AcDbMText
 10
89.31355001812098
 20
499.7539701163691
 30
0.0
 40
8.0
 41
0.0
 46
0.0
 71
     2
 72
     1
  1
\A1;250
 73
     1
 44
1.0
  0
POINT
  5
421
330
41A
100
AcDbEntity
  8
Defpoints
 62
     0
440
 16777216
100
AcDbPoint
 10
230.1294214038211
 20
611.1592270210692
 30
0.0
  0
POINT
  5
422
330
41A
100
AcDbEntity
  8
Defpoints
 62
     0
440
 16777216
100
AcDbPoint
 10
131.313550018121
 20
361.1287777508942
 30
0.0
  0
POINT
  5
423
330
41A
100
AcDbEntity
  8
Defpoints
 62
     0
440
 16777216
100
AcDbPoint
 10
103.3135500181209
 20
361.1287777508942
 30
0.0
  0
ENDBLK
  5
41C
330
41A
100
AcDbEntity
  8
0
100
AcDbBlockEnd
  0
BLOCK
  5
429
330
428
100
AcDbEntity
  8
0
100
AcDbBlockBegin
  2
*D29
 70
     1
 10
0.0
 20
0.0
 30
0.0
  3
*D29
  1

  0
LINE
  5
42B
330
428
100
AcDbEntity
  8
DIMENSION
440
 16777216
370
     0
100
AcDbLine
 10
303.313546579171
 20
338.1287777508941
 30
0.0
 11
303.313546579171
 21
328.1287777508941
 31
0.0
  0
LINE
  5
42C
330
428
100
AcDbEntity
  8
DIMENSION
440
 16777216
370
     0
100
AcDbLine
 10
158.313550018171
 20
338.1287777508941
 30
0.0
 11
158.313550018171
 21
328.1287777508941
 31
0.0
  0
LINE
  5
42D
330
428
100
AcDbEntity
  8
DIMENSION
440
 16777216
370
     0
100
AcDbLine
 10
303.313546579171
 20
333.1287777508941
 30
0.0
 11
158.313550018171
 21
333.1287777508941
 31
0.0
  0
MTEXT
  5
42E
330
428
100
AcDbEntity
  8
DIMENSION
 62
     7
440
 16777216
100
AcDbMText
 10
224.724366067896
 20
329.1287777508941
 30
0.0
 40
8.0
 41
0.0
 46
0.0
 71
     2
 72
     1
  1
\A1;145
 73
     1
 44
1.0
  0
POINT
  5
42F
330
428
100
AcDbEntity
  8
Defpoints
 62
     0
440
 16777216
100
AcDbPoint
 10
303.313546579171
 20
501.1620273315942
 30
0.0
  0
POINT
  5
430
330
428
100
AcDbEntity
  8
Defpoints
 62
     0
440
 16777216
100
AcDbPoint
 10
158.313550018171
 20
361.1287777508942
 30
0.0
  0
POINT
  5
431
330
428
100
AcDbEntity
  8
Defpoints
 62
     0
440
 16777216
100
AcDbPoint
 10
158.313550018171
 20
333.1287777508941
 30
0.0
  0
ENDBLK
  5
42A
330
428
100
AcDbEntity
  8
0
100
AcDbBlockEnd
  0
BLOCK
  5
441
330
440
100
AcDbEntity
  8
0
100
AcDbBlockBegin
  2
*D30
 70
     1
 10
0.0
 20
0.0
 30
0.0
  3
*D30
  1

  0
LINE
  5
443
330
440
100
AcDbEntity
  8
0
 62
     0
440
 16777216
370
    -2
100
AcDbLine
 10
492.2627600260087
 20
361.1287777508942
 30
0.0
 11
549.5473382832176
 21
361.1287777508942
 31
0.0
  0
LINE
  5
444
330
440
100
AcDbEntity
  8
0
 62
     0
440
 16777216
370
    -2
100
AcDbLine
 10
537.1627600260212
 20
428.6620273316318
 30
0.0
 11
549.5473382832176
 21
428.6620273316318
 31
0.0
  0
LINE
  5
445
330
440
100
AcDbEntity
  8
0
 62
     0
440
 16777216
370
    -2
100
AcDbLine
 10
548.5473382832176
 20
364.4307777508942
 30
0.0
 11
548.5473382832176
 21
391.3297358745964
 31
0.0
  0
LINE
  5
446
330
440
100
AcDbEntity
  8
0
 62
     0
440
 16777216
370
    -2
100
AcDbLine
 10
548.5473382832176
 20
425.3600273316317
 30
0.0
 11
548.5473382832176
 21
398.4610692079297
 31
0.0
  0
SOLID
  5
447
330
440
100
AcDbEntity
  8
0
 62
     0
440
 16777216
100
AcDbTrace
 10
547.9970049498843
 20
364.4307777508942
 30
0.0
 11
549.0976716165509
 21
364.4307777508942
 31
0.0
 12
548.5473382832176
 22
361.1287777508942
 32
0.0
 13
548.5473382832176
 23
361.1287777508942
 33
0.0
  0
SOLID
  5
448
330
440
100
AcDbEntity
  8
0
 62
     0
440
 16777216
100
AcDbTrace
 10
547.9970049498843
 20
425.3600273316317
 30
0.0
 11
549.0976716165509
 21
425.3600273316317
 31
0.0
 12
548.5473382832176
 22
428.6620273316318
 32
0.0
 13
548.5473382832176
 23
428.6620273316318
 33
0.0
  0
MTEXT
  5
449
330
440
100
AcDbEntity
  8
0
 62
     0
440
 16777216
100
AcDbMText
 10
548.5473382832176
 20
394.8954025412628
 30
0.0
 40
3.5
 41
0.0
 46
0.0
 71
     5
 72
     1
  1
337,67
 73
     1
 44
1.0
  0
POINT
  5
44A
330
440
100
AcDbEntity
  8
Defpoints
 62
     0
440
 16777216
100
AcDbPoint
 10
491.2627600260087
 20
361.1287777508942
 30
0.0
  0
POINT
  5
44B
330
440
100
AcDbEntity
  8
Defpoints
 62
     0
440
 16777216
100
AcDbPoint
 10
536.1627600260212
 20
428.6620273316318
 30
0.0
  0
POINT
  5
44C
330
440
100
AcDbEntity
  8
Defpoints
 62
     0
440
 16777216
100
AcDbPoint
 10
548.5473382832176
 20
428.6620273316318
 30
0.0
  0
ENDBLK
  5
442
330
440
100
AcDbEntity
  8
0
100
AcDbBlockEnd
  0
BLOCK
  5
44E
330
44D
100
AcDbEntity
  8
0
100
AcDbBlockBegin
  2
*D31
 70
     1
 10
0.0
 20
0.0
 30
0.0
  3
*D31
  1

  0
LINE
  5
450
330
44D
100
AcDbEntity
  8
DIMENSION
440
 16777216
370
     0
100
AcDbLine
 10
543.5473382832178
 20
361.1287777508942
 30
0.0
 11
553.5473382832178
 21
361.1287777508942
 31
0.0
  0
LINE
  5
451
330
44D
100
AcDbEntity
  8
DIMENSION
440
 16777216
370
     0
100
AcDbLine
 10
543.5473382832178
 20
428.6620273316318
 30
0.0
 11
553.5473382832178
 21
428.6620273316318
 31
0.0
  0
LINE
  5
452
330
44D
100
AcDbEntity
  8
DIMENSION
440
 16777216
370
     0
100
AcDbLine
 10
548.5473382832179
 20
361.1287777508942
 30
0.0
 11
548.5473382832179
 21
428.6620273316318
 31
0.0
  0
MTEXT
  5
453
330
44D
100
AcDbEntity
  8
DIMENSION
 62
     7
440
 16777216
100
AcDbMText
 10
559.2140049498844
 20
394.8954025412628
 30
0.0
 40
8.0
 41
0.0
 46
0.0
 71
     5
 72
     1
  1
\A1;68
 73
     1
 44
1.0
  0
POINT
  5
454
330
44D
100
AcDbEntity
  8
Defpoints
 62
     0
440
 16777216
100
AcDbPoint
 10
491.2627600260087
 20
361.1287777508942
 30
0.0
  0
POINT
  5
455
330
44D
100
AcDbEntity
  8
Defpoints
 62
     0
440
 16777216
100
AcDbPoint
 10
536.1627600260212
 20
428.6620273316318
 30
0.0
  0
POINT
  5
456
330
44D
100
AcDbEntity
  8
Defpoints
 62
     0
440
 16777216
100
AcDbPoint
 10
548.5473382832179
 20
428.6620273316318
 30
0.0
  0
ENDBLK
  5
44F
330
44D
100
AcDbEntity
  8
0
100
AcDbBlockEnd
  0
BLOCK
  5
45E
330
45D
100
AcDbEntity
  8
0
100
AcDbBlockBegin
  2
*D32
 70
     1
 10
0.0
 20
0.0
 30
0.0
  3
*D32
  1

  0
LINE
  5
460
330
45D
100
AcDbEntity
  8
0
 62
     0
440
 16777216
370
    -2
100
AcDbLine
 10
157.313550018171
 20
732.9958426390942
 30
0.0
 11
117.0716680202395
 21
732.9958426390942
 31
0.0
  0
LINE
  5
461
330
45D
100
AcDbEntity
  8
0
 62
     0
440
 16777216
370
    -2
100
AcDbLine
 10
157.313550018171
 20
657.8958426390693
 30
0.0
 11
117.0716680202395
 21
657.8958426390693
 31
0.0
  0
LINE
  5
462
330
45D
100
AcDbEntity
  8
0
 62
     0
440
 16777216
370
    -2
100
AcDbLine
 10
118.0716680202395
 20
729.6938426390942
 30
0.0
 11
118.0716680202395
 21
699.0115093057483
 31
0.0
  0
LINE
  5
463
330
45D
100
AcDbEntity
  8
0
 62
     0
440
 16777216
370
    -2
100
AcDbLine
 10
118.0716680202395
 20
661.1978426390693
 30
0.0
 11
118.0716680202395
 21
691.8801759724151
 31
0.0
  0
SOLID
  5
464
330
45D
100
AcDbEntity
  8
0
 62
     0
440
 16777216
100
AcDbTrace
 10
117.5213346869062
 20
729.6938426390942
 30
0.0
 11
118.6220013535729
 21
729.6938426390942
 31
0.0
 12
118.0716680202395
 22
732.9958426390942
 32
0.0
 13
118.0716680202395
 23
732.9958426390942
 33
0.0
  0
SOLID
  5
465
330
45D
100
AcDbEntity
  8
0
 62
     0
440
 16777216
100
AcDbTrace
 10
117.5213346869062
 20
661.1978426390693
 30
0.0
 11
118.6220013535729
 21
661.1978426390693
 31
0.0
 12
118.0716680202395
 22
657.8958426390693
 32
0.0
 13
118.0716680202395
 23
657.8958426390693
 33
0.0
  0
MTEXT
  5
466
330
45D
100
AcDbEntity
  8
0
 62
     0
440
 16777216
100
AcDbMText
 10
118.0716680202397
 20
695.4458426390816
 30
0.0
 40
3.5
 41
0.0
 46
0.0
 71
     5
 72
     1
  1
375,50
 73
     1
 44
1.0
  0
POINT
  5
467
330
45D
100
AcDbEntity
  8
Defpoints
 62
     0
440
 16777216
100
AcDbPoint
 10
158.313550018171
 20
732.9958426390942
 30
0.0
  0
POINT
  5
468
330
45D
100
AcDbEntity
  8
Defpoints
 62
     0
440
 16777216
100
AcDbPoint
 10
158.313550018171
 20
657.8958426390693
 30
0.0
  0
POINT
  5
469
330
45D
100
AcDbEntity
  8
Defpoints
 62
     0
440
 16777216
100
AcDbPoint
 10
118.0716680202395
 20
657.8958426390693
 30
0.0
  0
ENDBLK
  5
45F
330
45D
100
AcDbEntity
  8
0
100
AcDbBlockEnd
  0
BLOCK
  5
46B
330
46A
100
AcDbEntity
  8
0
100
AcDbBlockBegin
  2
*D33
 70
     1
 10
0.0
 20
0.0
 30
0.0
  3
*D33
  1

  0
LINE
  5
46D
330
46A
100
AcDbEntity
  8
DIMENSION
440
 16777216
370
     0
100
AcDbLine
 10
123.0716680202396
 20
732.9958426390942
 30
0.0
 11
113.0716680202396
 21
732.9958426390942
 31
0.0
  0
LINE
  5
46E
330
46A
100
AcDbEntity
  8
DIMENSION
440
 16777216
370
     0
100
AcDbLine
 10
123.0716680202396
 20
657.8958426390693
 30
0.0
 11
113.0716680202396
 21
657.8958426390693
 31
0.0
  0
LINE
  5
46F
330
46A
100
AcDbEntity
  8
DIMENSION
440
 16777216
370
     0
100
AcDbLine
 10
118.0716680202396
 20
732.9958426390942
 30
0.0
 11
118.0716680202396
 21
657.8958426390693
 31
0.0
  0
MTEXT
  5
470
330
46A
100
AcDbEntity
  8
DIMENSION
 62
     7
440
 16777216
100
AcDbMText
 10
107.4050013535731
 20
695.4458426390816
 30
0.0
 40
8.0
 41
0.0
 46
0.0
 71
     5
 72
     1
  1
\A1;75
 73
     1
 44
1.0
  0
POINT
  5
471
330
46A
100
AcDbEntity
  8
Defpoints
 62
     0
440
 16777216
100
AcDbPoint
 10
158.313550018171
 20
732.9958426390942
 30
0.0
  0
POINT
  5
472
330
46A
100
AcDbEntity
  8
Defpoints
 62
     0
440
 16777216
100
AcDbPoint
 10
158.313550018171
 20
657.8958426390693
 30
0.0
  0
POINT
  5
473
330
46A
100
AcDbEntity
  8
Defpoints
 62
     0
440
 16777216
100
AcDbPoint
 10
118.0716680202396
 20
657.8958426390693
 30
0.0
  0
ENDBLK
  5
46C
330
46A
100
AcDbEntity
  8
0
100
AcDbBlockEnd
  0
ENDSEC
  0
SECTION
  2
ENTITIES
  0
LINE
  5
244
330
1F
100
AcDbEntity
  8
DIMENSION
100
AcDbLine
 10
314.4285465792959
 20
501.1620273315942
 30
0.0
 11
314.4285465792959
 21
524.6620273316441
 31
0.0
  0
LINE
  5
245
330
1F
100
AcDbEntity
  8
DIMENSION
100
AcDbLine
 10
292.198546579221
 20
524.6620273316441
 30
0.0
 11
292.198546579221
 21
501.1620273315942
 31
0.0
  0
SPLINE
  5
246
330
1F
100
AcDbEntity
  8
DIMENSION
100
AcDbSpline
210
0.0
220
0.0
230
1.0
 70
     8
 71
     3
 72
    63
 73
    59
 74
     0
 42
0.00000001
 43
0.0000000001
 40
0.0
 40
0.0
 40
0.0
 40
0.0
 40
0.0087808423602527
 40
0.0269156344396413
 40
0.0450523567928176
 40
0.0631890796837282
 40
0.0813258025764913
 40
0.0994625254718496
 40
0.1175992483706557
 40
0.1357359712737158
 40
0.153872694181786
 40
0.1720094170955475
 40
0.1901461400156108
 40
0.2082828629425036
 40
0.2264195858766571
 40
0.2445563088184057
 40
0.2626930317679874
 40
0.2808297547255371
 40
0.2989664776910764
 40
0.3171032006645226
 40
0.3352399236456951
 40
0.3533766466342924
 40
0.3715133696299368
 40
0.3896500926321409
 40
0.4077868156403295
 40
0.4259235386538646
 40
0.4440602616720092
 40
0.4621969846939902
 40
0.480333707718973
 40
0.4984704307460768
 40
0.5166071537744074
 40
0.5347438768027964
 40
0.5528805998302604
 40
0.5710173228558966
 40
0.58915404587882
 40
0.6072907688981854
 40
0.6254274919131925
 40
0.6435642149230967
 40
0.6617009379272283
 40
0.6798376609249907
 40
0.6979743839158682
 40
0.7161111068994518
 40
0.7342478298754087
 40
0.7523845528435213
 40
0.7705212758036786
 40
0.7886579987558675
 40
0.8067947217001805
 40
0.824931444636822
 40
0.843068167566103
 40
0.8612048904884144
 40
0.8793416134042587
 40
0.8974783363142137
 40
0.9156150592189423
 40
0.9337517821191664
 40
0.9518885050156857
 40
0.9700252279093341
 40
0.9881619508009887
 40
1.0
 40
1.0
 40
1.0
 40
1.0
 10
169.4135500181137
 20
527.5620273316117
 30
0.0
 10
169.4184076197819
 20
528.1344475982255
 30
0.0
 10
169.4332974703669
 20
529.8890690809844
 30
0.0
 10
169.6067017738878
 20
532.8230107138129
 30
0.0
 10
170.0105152744088
 20
536.3484557389833
 30
0.0
 10
170.6198848246852
 20
539.8447648506569
 30
0.0
 10
171.4294203907956
 20
543.3000691461934
 30
0.0
 10
172.4373160016821
 20
546.7028583364743
 30
0.0
 10
173.6399682502886
 20
550.0417714948839
 30
0.0
 10
175.0334280619985
 20
553.3056678008286
 30
0.0
 10
176.6130280933692
 20
556.483654911487
 30
0.0
 10
178.3735016768884
 20
559.5651276702849
 30
0.0
 10
180.3089726986328
 20
562.5398028651025
 30
0.0
 10
182.412982629033
 20
565.3977537137977
 30
0.0
 10
184.6785100870252
 20
568.1294429454806
 30
0.0
 10
187.0979948039472
 20
570.7257546395044
 30
0.0
 10
189.6633627101357
 20
573.1780246429512
 30
0.0
 10
192.3660529171606
 20
575.4780694846511
 30
0.0
 10
195.1970462761155
 20
577.6182136840166
 30
0.0
 10
198.146895478167
 20
579.5913153649535
 30
0.0
 10
201.2057565804347
 20
581.3907900890042
 30
0.0
 10
204.363421856412
 20
583.0106328282877
 30
0.0
 10
207.6093538601191
 20
584.4454380048805
 30
0.0
 10
210.9327205906323
 20
585.6904175297759
 30
0.0
 10
214.3224316395526
 20
586.7414167812212
 30
0.0
 10
217.7671752008141
 20
587.5949284691095
 30
0.0
 10
221.2554558193157
 20
588.2481043391633
 30
0.0
 10
224.7756327524096
 20
588.6987646778456
 30
0.0
 10
228.3159588162306
 20
588.9454055862879
 30
0.0
 10
231.8646195872285
 20
588.987203998952
 30
0.0
 10
235.409772828072
 20
588.8240204302864
 30
0.0
 10
238.939588006399
 20
588.4563994402085
 30
0.0
 10
242.4422857744975
 20
587.8855678168547
 30
0.0
 10
245.9061772781912
 20
587.1134304826612
 30
0.0
 10
249.3197031637107
 20
586.1425641374453
 30
0.0
 10
252.6714721524144
 20
584.9762086597004
 30
0.0
 10
255.9502990546333
 20
583.6182562947933
 30
0.0
 10
259.1452420957724
 20
582.0732386661516
 30
0.0
 10
262.2456394301174
 20
580.3463116527759
 30
0.0
 10
265.2411447204723
 20
578.4432381835558
 30
0.0
 10
268.1217616649719
 20
576.3703690057909
 30
0.0
 10
270.8778773555832
 20
574.134621492115
 30
0.0
 10
273.5002943579442
 20
571.7434565565006
 30
0.0
 10
275.9802614018953
 20
569.204853756529
 30
0.0
 10
278.3095025936603
 20
566.5272846644645
 30
0.0
 10
280.4802450023144
 20
563.7196845980231
 30
0.0
 10
282.4852447145901
 20
560.7914227976259
 30
0.0
 10
284.3178105765334
 20
557.7522711778081
 30
0.0
 10
285.9718281348333
 20
554.6123716520203
 30
0.0
 10
287.4417740242493
 20
551.3822025318893
 30
0.0
 10
288.7227568558149
 20
548.0725426499932
 30
0.0
 10
289.8104497322752
 20
544.6944387861527
 30
0.0
 10
290.7014174616553
 20
541.2591561279145
 30
0.0
 10
291.3919607313339
 20
537.778187982363
 30
0.0
 10
291.882484836748
 20
534.2630408776174
 30
0.0
 10
292.1612400834717
 20
530.7258550362555
 30
0.0
 10
292.2530217040259
 20
527.5877413357177
 30
0.0
 10
292.1662761188589
 20
525.6352455134088
 30
0.0
 10
292.1320173594629
 20
524.8641390130676
 30
0.0
  0
SPLINE
  5
247
330
1F
100
AcDbEntity
  8
DIMENSION
100
AcDbSpline
210
0.0
220
0.0
230
1.0
 70
     8
 71
     3
 72
    72
 73
    68
 74
     0
 42
0.00000001
 43
0.0000000001
 40
0.0
 40
0.0
 40
0.0
 40
0.0
 40
0.0146916850224023
 40
0.0302914171923523
 40
0.0458911495840032
 40
0.0614908819755131
 40
0.0770906143665239
 40
0.0926903467567279
 40
0.1082900791458245
 40
0.1238898115335254
 40
0.1394895439195495
 40
0.1550892763036419
 40
0.1706890086855599
 40
0.1862887410650876
 40
0.2018884734420253
 40
0.2174882058162076
 40
0.2330879381874863
 40
0.2486876705557484
 40
0.2642874029209081
 40
0.279887135282911
 40
0.295486867641732
 40
0.3110865999973792
 40
0.3266863323498907
 40
0.3422860646993341
 40
0.3578857970458109
 40
0.3734855293894467
 40
0.3890852617304004
 40
0.4046849940688527
 40
0.4202847264050077
 40
0.4358844587390996
 40
0.4514841910713706
 40
0.4670839234020935
 40
0.4826836557315535
 40
0.4982833880600401
 40
0.5138831203878547
 40
0.5294828527153081
 40
0.5450825850426125
 40
0.560682317370087
 40
0.5762820496980549
 40
0.5918817820268038
 40
0.6074815143566543
 40
0.6230812466878871
 40
0.6386809790207816
 40
0.6542807113556055
 40
0.669880443692589
 40
0.6854801760319638
 40
0.7010799083739256
 40
0.7166796407186414
 40
0.732279373066262
 40
0.7478791054169026
 40
0.7634788377706485
 40
0.779078570127558
 40
0.7946783024876587
 40
0.8102780348509433
 40
0.8258777672173767
 40
0.8414774995868878
 40
0.8570772319593828
 40
0.8726769643347337
 40
0.8882766967127848
 40
0.9038764290933563
 40
0.9194761614762402
 40
0.9350758938612104
 40
0.950675626248015
 40
0.9662753586363884
 40
0.9818750910260481
 40
0.9966544676926291
 40
1.0
 40
1.0
 40
1.0
 40
1.0
 10
314.3643223520464
 20
524.8620389118777
 30
0.0
 10
314.3910868131279
 20
526.161306588288
 30
0.0
 10
314.4462699630056
 20
528.8401456166686
 30
0.0
 10
314.2745240328305
 20
532.8975688236771
 30
0.0
 10
313.9117622599927
 20
537.0216903298269
 30
0.0
 10
313.3407933814975
 20
541.1227631944885
 30
0.0
 10
312.5687720049135
 20
545.1905630787491
 30
0.0
 10
311.5960482015058
 20
549.215166398611
 30
0.0
 10
310.4254192564979
 20
553.186696711356
 30
0.0
 10
309.0596435846626
 20
557.0954233894447
 30
0.0
 10
307.5020982768931
 20
560.9317655161484
 30
0.0
 10
305.7565928225881
 20
564.6863207142525
 30
0.0
 10
303.8274074679632
 20
568.3498867580517
 30
0.0
 10
301.7192699455879
 20
571.9134845112487
 30
0.0
 10
299.4373473113876
 20
575.3683798313589
 30
0.0
 10
296.9872323629819
 20
578.7061050040624
 30
0.0
 10
294.374930177972
 20
581.9184794896195
 30
0.0
 10
291.606843330023
 20
584.9976299747991
 30
0.0
 10
288.689756214236
 20
587.9360096693087
 30
0.0
 10
285.6308184143245
 20
590.7264168026119
 30
0.0
 10
282.4375271807316
 20
593.3620122749426
 30
0.0
 10
279.1177090550346
 20
595.8363364194878
 30
0.0
 10
275.6795006877096
 20
598.1433248345934
 30
0.0
 10
272.1313288957243
 20
600.2773232472013
 30
0.0
 10
268.4818900089831
 20
602.2331013710939
 30
0.0
 10
264.740128556207
 20
604.0058657259687
 30
0.0
 10
260.9152153424972
 20
605.5912713859384
 30
0.0
 10
257.0165249723084
 20
606.9854326286454
 30
0.0
 10
253.0536128729262
 20
608.1849324589097
 30
0.0
 10
249.0361918747589
 20
609.1868309835493
 30
0.0
 10
244.9741084058442
 20
609.9886726168597
 30
0.0
 10
240.8773183589193
 20
610.5884920990892
 30
0.0
 10
236.7558626901985
 20
610.9848193131569
 30
0.0
 10
232.619842809668
 20
611.1766828878082
 30
0.0
 10
228.4793958232118
 20
611.1636125783816
 30
0.0
 10
224.3446696872569
 20
610.9456404193454
 30
0.0
 10
220.2257983368077
 20
610.5233006457852
 30
0.0
 10
216.1328768478557
 20
609.8976283840286
 30
0.0
 10
212.0759366950223
 20
609.0701571146175
 30
0.0
 10
208.0649211650978
 20
608.0429149138519
 30
0.0
 10
204.1096609867204
 20
606.8184194831117
 30
0.0
 10
200.2198502359199
 20
605.3996719781387
 30
0.0
 10
196.4050225765943
 20
603.7901496534089
 30
0.0
 10
192.6745278941435
 20
601.9937973396149
 30
0.0
 10
189.0375093795292
 20
600.0150177751536
 30
0.0
 10
185.502881119933
 20
597.8586608153114
 30
0.0
 10
182.0793062509294
 20
595.5300115455957
 30
0.0
 10
178.7751757237242
 20
593.0347773283492
 30
0.0
 10
175.5985877395022
 20
590.3790738143907
 30
0.0
 10
172.557327901273
 20
587.5694099539646
 30
0.0
 10
169.6588501319133
 20
584.6126720437496
 30
0.0
 10
166.9102584049933
 20
581.5161068490031
 30
0.0
 10
164.3182893338296
 20
578.2873038422449
 30
0.0
 10
161.889295658957
 20
574.9341766019186
 30
0.0
 10
159.6292306837463
 20
571.4649434169461
 30
0.0
 10
157.5436336617723
 20
567.8881071435098
 30
0.0
 10
155.637616300662
 20
564.2124343679056
 30
0.0
 10
153.915849934387
 20
560.4469339098622
 30
0.0
 10
152.3825551909728
 20
556.6008347812262
 30
0.0
 10
151.0414874799413
 20
552.68356342187
 30
0.0
 10
149.8959433435466
 20
548.7047211350543
 30
0.0
 10
148.9486943232798
 20
544.6740585439633
 30
0.0
 10
148.2021968270835
 20
540.6014591999214
 30
0.0
 10
147.6577775224418
 20
536.4968873444502
 30
0.0
 10
147.3245924671138
 20
532.442801152078
 30
0.0
 10
147.2199219972459
 20
529.4607992139565
 30
0.0
 10
147.21454290232
 20
527.8578946868037
 30
0.0
 10
147.2135500181136
 20
527.5620273316117
 30
0.0
  0
LINE
  5
248
330
1F
100
AcDbEntity
  8
DIMENSION
100
AcDbLine
 10
169.413550018071
 20
464.8620273316941
 30
0.0
 11
169.413550018071
 21
527.5620273315691
 31
0.0
  0
LINE
  5
249
330
1F
100
AcDbEntity
  8
DIMENSION
100
AcDbLine
 10
147.213550018096
 20
527.5620273315691
 30
0.0
 11
147.213550018096
 21
464.8620273316941
 31
0.0
  0
LINE
  5
24A
330
1F
100
AcDbEntity
  8
DIMENSION
100
AcDbLine
 10
180.813550018096
 20
365.1287777508691
 30
0.0
 11
180.813550018096
 21
410.0287777509691
 31
0.0
  0
LINE
  5
24B
330
1F
100
AcDbEntity
  8
DIMENSION
100
AcDbLine
 10
135.813550018071
 20
410.0287777509691
 30
0.0
 11
135.813550018071
 21
365.1287777508691
 31
0.0
  0
ARC
  5
24C
330
1F
100
AcDbEntity
  8
DIMENSION
100
AcDbCircle
 10
200.810542730646
 20
410.6540283582441
 30
0.0
 40
65.0
100
AcDbArc
 50
170.0399317538994
 51
180.5511503603996
  0
ARC
  5
24D
330
1F
100
AcDbEntity
  8
DIMENSION
100
AcDbCircle
 10
115.816557305521
 20
410.6540283582441
 30
0.0
 40
65.00000000000001
100
AcDbArc
 50
359.4488496396003
 51
10.07798814369935
  0
LINE
  5
24E
330
1F
100
AcDbEntity
  8
DIMENSION
100
AcDbLine
 10
185.313550018046
 20
361.1287777508942
 30
0.0
 11
185.313550018046
 21
365.1287777508691
 31
0.0
  0
LINE
  5
24F
330
1F
100
AcDbEntity
  8
DIMENSION
100
AcDbLine
 10
131.313550018121
 20
365.1287777508691
 30
0.0
 11
131.313550018121
 21
361.1287777508942
 31
0.0
  0
LINE
  5
250
330
1F
100
AcDbEntity
  8
DIMENSION
100
AcDbLine
 10
169.438550018096
 20
448.2192350822191
 30
0.0
 11
169.438550018096
 21
464.6620273316692
 31
0.0
  0
LINE
  5
251
330
1F
100
AcDbEntity
  8
DIMENSION
100
AcDbLine
 10
147.1885500180709
 20
464.6620273316692
 30
0.0
 11
147.1885500180709
 21
448.257276092394
 31
0.0
  0
LINE
  5
252
330
1F
100
AcDbEntity
  8
DIMENSION
100
AcDbLine
 10
154.442394454196
 20
491.1671674539691
 30
0.0
 11
154.401490538871
 21
451.1671883681191
 31
0.0
  0
LINE
  5
253
330
1F
100
AcDbEntity
  8
DIMENSION
100
AcDbLine
 10
162.401486356146
 20
451.1590075850191
 30
0.0
 11
162.442390271471
 21
491.158986670869
 31
0.0
  0
LINE
  5
254
330
1F
100
AcDbEntity
  8
DIMENSION
100
AcDbLine
 10
314.4285465792959
 20
524.6620273316441
 30
0.0
 11
292.198546579221
 21
524.6620273316441
 31
0.0
  0
LINE
  5
255
330
1F
100
AcDbEntity
  8
DIMENSION
100
AcDbLine
 10
314.4285465792959
 20
501.1620273315942
 30
0.0
 11
292.198546579221
 21
501.1620273315942
 31
0.0
  0
SPLINE
  5
256
330
1F
100
AcDbEntity
  8
DIMENSION
100
AcDbSpline
210
0.0
220
0.0
230
1.0
 70
    24
 71
     3
 72
    11
 73
     7
 74
     0
 42
0.00000001
 43
0.0000000001
 40
0.0
 40
0.0
 40
0.0
 40
0.0
 40
0.341582766559617
 40
0.5953846122746011
 40
0.8491857859479001
 40
1.0
 40
1.0
 40
1.0
 40
1.0
 10
294.5200004581217
 20
524.8620273316114
 30
0.0
 10
294.0422621006596
 20
524.8620273316114
 30
0.0
 10
293.2095559615556
 20
524.8620273316114
 30
0.0
 10
292.5165686873438
 20
524.8620273316114
 30
0.0
 10
292.1759549619021
 20
524.8620273316114
 30
0.0
 10
292.1882563005963
 20
524.8620273316114
 30
0.0
 10
292.1928414369585
 20
524.8620273316114
 30
0.0
  0
SPLINE
  5
257
330
1F
100
AcDbEntity
  8
DIMENSION
100
AcDbSpline
210
0.0
220
0.0
230
1.0
 70
    24
 71
     3
 72
    23
 73
    19
 74
     0
 42
0.00000001
 43
0.0000000001
 40
0.0
 40
0.0
 40
0.0
 40
0.0
 40
0.0019884747811357
 40
0.0700302285714631
 40
0.1380720323969487
 40
0.2061133097528624
 40
0.2741547223612354
 40
0.3422154681249365
 40
0.410276398512537
 40
0.4783717126117645
 40
0.546467200471462
 40
0.61460210656928
 40
0.6827370985622962
 40
0.7509018066009885
 40
0.8190664463328285
 40
0.88723505615849
 40
0.9554034380840947
 40
1.0
 40
1.0
 40
1.0
 40
1.0
 10
314.3654328272862
 20
524.8620273316114
 30
0.0
 10
314.3669291143707
 20
524.8620273316114
 30
0.0
 10
314.4196254460153
 20
524.8620273316114
 30
0.0
 10
314.2296894911857
 20
524.8620273316114
 30
0.0
 10
313.7833161311375
 20
524.8620273316114
 30
0.0
 10
312.9953018040048
 20
524.8620273316114
 30
0.0
 10
311.9470051287337
 20
524.8620273316114
 30
0.0
 10
310.6447301605842
 20
524.8620273316114
 30
0.0
 10
309.1379152956093
 20
524.8620273316114
 30
0.0
 10
307.4607049962371
 20
524.8620273316114
 30
0.0
 10
305.6663881104304
 20
524.8620273316114
 30
0.0
 10
303.8021773197359
 20
524.8620273316114
 30
0.0
 10
301.922298782643
 20
524.8620273316114
 30
0.0
 10
300.0812321292524
 20
524.8620273316114
 30
0.0
 10
298.3273103134517
 20
524.8620273316114
 30
0.0
 10
296.7201309587441
 20
524.8620273316114
 30
0.0
 10
295.4467763831509
 20
524.8620273316114
 30
0.0
 10
294.7826505879854
 20
524.8620273316114
 30
0.0
 10
294.5200004581217
 20
524.8620273316114
 30
0.0
  0
LINE
  5
258
330
1F
100
AcDbEntity
  8
DIMENSION
100
AcDbLine
 10
147.213550018096
 20
464.8620273316941
 30
0.0
 11
154.4154948596209
 21
464.8620273316941
 31
0.0
  0
LINE
  5
259
330
1F
100
AcDbEntity
  8
DIMENSION
100
AcDbLine
 10
162.415499042421
 20
464.8620273316941
 30
0.0
 11
169.413549754871
 21
464.8620273316941
 31
0.0
  0
LINE
  5
25A
330
1F
100
AcDbEntity
  8
DIMENSION
100
AcDbLine
 10
158.313550018171
 20
365.1287777508691
 30
0.0
 11
185.313550018046
 21
365.1287777508691
 31
0.0
  0
LINE
  5
25B
330
1F
100
AcDbEntity
  8
DIMENSION
100
AcDbLine
 10
131.313550018121
 20
365.1287777508691
 30
0.0
 11
158.313550018171
 21
365.1287777508691
 31
0.0
  0
LINE
  5
25C
330
1F
100
AcDbEntity
  8
DIMENSION
100
AcDbLine
 10
158.313550018171
 20
361.1287777508942
 30
0.0
 11
185.313550018046
 21
361.1287777508942
 31
0.0
  0
LINE
  5
25D
330
1F
100
AcDbEntity
  8
DIMENSION
100
AcDbLine
 10
131.313550018121
 20
361.1287777508942
 30
0.0
 11
158.313550018171
 21
361.1287777508942
 31
0.0
  0
ARC
  5
25E
330
1F
100
AcDbEntity
  8
DIMENSION
100
AcDbCircle
 10
158.313550018171
 20
428.6620273315441
 30
0.0
 40
22.50000000000002
100
AcDbArc
 50
268.8459527233999
 51
89.0114812054996
  0
LINE
  5
25F
330
1F
100
AcDbEntity
  8
DIMENSION
100
AcDbLine
 10
169.438550018096
 20
464.6620273316692
 30
0.0
 11
162.415294522721
 21
464.6620273316692
 31
0.0
  0
LINE
  5
260
330
1F
100
AcDbEntity
  8
DIMENSION
100
AcDbLine
 10
154.415290339921
 20
464.6620273316692
 30
0.0
 11
147.1885500180709
 21
464.6620273316692
 31
0.0
  0
LINE
  5
261
330
1F
100
AcDbEntity
  8
DIMENSION
100
AcDbLine
 10
154.928201143746
 20
491.166670668694
 30
0.0
 11
154.442394454196
 21
491.1671674539691
 31
0.0
  0
LINE
  5
262
330
1F
100
AcDbEntity
  8
DIMENSION
100
AcDbLine
 10
162.442390271471
 20
491.158986670869
 30
0.0
 11
154.928201143746
 21
491.166670668694
 31
0.0
  0
LINE
  5
263
330
1F
100
AcDbEntity
  8
DIMENSION
100
AcDbLine
 10
154.887297228421
 20
451.1666915828441
 30
0.0
 11
154.401490538871
 21
451.1671883681191
 31
0.0
  0
LINE
  5
264
330
1F
100
AcDbEntity
  8
DIMENSION
100
AcDbLine
 10
162.401486356146
 20
451.1590075850191
 30
0.0
 11
154.887297228421
 21
451.1666915828441
 31
0.0
  0
CIRCLE
  5
265
330
1F
100
AcDbEntity
  8
DIMENSION
100
AcDbCircle
 10
158.248561379596
 20
428.663242595244
 30
0.0
 40
22.49999999999999
  0
CIRCLE
  5
266
330
1F
100
AcDbEntity
  8
DIMENSION
100
AcDbCircle
 10
158.248561379596
 20
428.663242595244
 30
0.0
 40
22.4
  0
POINT
  5
267
330
1F
100
AcDbEntity
  8
DIMENSION
100
AcDbPoint
 10
303.313546579171
 20
501.1620273315942
 30
0.0
  0
POINT
  5
268
330
1F
100
AcDbEntity
  8
DIMENSION
100
AcDbPoint
 10
230.129421403821
 20
611.159227021069
 30
0.0
  0
DIMENSION
  5
269
102
{ACAD_XDICTIONARY
360
432
102
}
330
1F
100
AcDbEntity
  8
DIMENSION
100
AcDbDimension
280
     0
  2
*D29
 10
158.313550018171
 20
333.1287777508941
 30
0.0
 11
224.724366067896
 21
333.1287777508941
 31
0.0
 70
   160
  1
<>
 71
     2
 42
144.999996561
 73
     0
 74
     0
 75
     0
  3
RG Dimension Lines
100
AcDbAlignedDimension
 13
303.313546579171
 23
501.1620273315942
 33
0.0
 14
158.313550018171
 24
361.1287777508942
 34
0.0
100
AcDbRotatedDimension
1001
AcadAnnotative
1000
AnnotativeData
1002
{
1070
     1
1070
     1
1002
}
  0
DIMENSION
  5
26A
102
{ACAD_XDICTIONARY
360
424
102
}
330
1F
100
AcDbEntity
  8
DIMENSION
100
AcDbDimension
280
     0
  2
*D28
 10
103.3135500181209
 20
361.1287777508942
 30
0.0
 11
103.313550018121
 21
495.7539701163691
 31
0.0
 70
   160
  1
<>
 71
     2
 42
250.030449270175
 73
     0
 74
     0
 75
     0
  3
RG Dimension Lines
100
AcDbAlignedDimension
 13
230.129421403821
 23
611.159227021069
 33
0.0
 14
131.313550018121
 24
361.1287777508942
 34
0.0
 50
90.0
100
AcDbRotatedDimension
1001
AcadAnnotative
1000
AnnotativeData
1002
{
1070
     1
1070
     1
1002
}
  0
DIMENSION
  5
26B
102
{ACAD_XDICTIONARY
360
416
102
}
330
1F
100
AcDbEntity
  8
DIMENSION
100
AcDbDimension
280
     0
  2
*D27
 10
337.425325712946
 20
361.1287777508942
 30
0.0
 11
337.425325712946
 21
429.3936788248441
 31
0.0
 70
   160
  1
<>
 71
     2
 42
140.0332495807001
 73
     0
 74
     0
 75
     0
  3
RG Dimension Lines
100
AcDbAlignedDimension
 13
314.4285465792959
 23
501.1620273315942
 33
0.0
 14
185.313550018046
 24
361.1287777508942
 34
0.0
 50
90.0
100
AcDbRotatedDimension
1001
AcadAnnotative
1000
AnnotativeData
1002
{
1070
     1
1070
     1
1002
}
  0
ARC
  5
26C
330
1F
100
AcDbEntity
  8
DIMENSION
100
AcDbCircle
 10
303.313546579171
 20
733.0274224026941
 30
0.0
 40
11.10000000000003
100
AcDbArc
 50
270.0124785323995
 51
90.01247853239956
  0
LINE
  5
26D
330
1F
100
AcDbEntity
  8
DIMENSION
100
AcDbLine
 10
158.315967503521
 20
721.8958429023939
 30
0.0
 11
303.315964064521
 21
721.9274226659941
 31
0.0
  0
LINE
  5
26E
330
1F
100
AcDbEntity
  8
DIMENSION
100
AcDbLine
 10
303.311129093821
 20
744.127422139569
 30
0.0
 11
158.311132532821
 21
744.095842375794
 31
0.0
  0
LWPOLYLINE
  5
26F
330
1F
100
AcDbEntity
  8
DIMENSION
100
AcDbPolyline
 90
        3
 70
   128
 43
0.0
 10
135.813550018071
 20
733.3637243837443
 10
135.8105492876459
 20
733.0130211618191
 10
135.813550018071
 20
732.6279608944441
  0
LINE
  5
270
330
1F
100
AcDbEntity
  8
DIMENSION
100
AcDbLine
 10
135.813550018071
 20
777.895842639019
 30
0.0
 11
135.813550018071
 21
686.995842639119
 31
0.0
  0
LINE
  5
271
330
1F
100
AcDbEntity
  8
DIMENSION
100
AcDbLine
 10
180.813550018096
 20
686.995842639119
 30
0.0
 11
180.813550018096
 21
721.9007426839941
 31
0.0
  0
LINE
  5
272
330
1F
100
AcDbEntity
  8
DIMENSION
100
AcDbLine
 10
180.813550018096
 20
744.1007432105441
 30
0.0
 11
180.813550018096
 21
777.895842639019
 31
0.0
  0
LWPOLYLINE
  5
273
330
1F
100
AcDbEntity
  8
DIMENSION
100
AcDbPolyline
 90
        3
 70
   128
 43
0.0
 10
137.823221234421
 20
686.995842639119
 10
137.939925215521
 20
685.647283122269
 10
138.045161867496
 20
684.8958426391191
  0
LWPOLYLINE
  5
274
330
1F
100
AcDbEntity
  8
DIMENSION
100
AcDbPolyline
 90
        3
 70
   128
 43
0.0
 10
178.581938168671
 20
684.8958426391191
 10
178.687174820646
 20
685.647283122269
 10
178.8038788017459
 20
686.995842639119
  0
LINE
  5
275
330
1F
100
AcDbEntity
  8
DIMENSION
100
AcDbLine
 10
158.442392362921
 20
672.2958426391191
 30
0.0
 11
158.401488447421
 21
672.2958426391191
 31
0.0
  0
LINE
  5
276
330
1F
100
AcDbEntity
  8
DIMENSION
100
AcDbLine
 10
158.401488447421
 20
664.2958426389941
 30
0.0
 11
158.442392362921
 21
664.2958426389941
 31
0.0
  0
LINE
  5
277
330
1F
100
AcDbEntity
  8
DIMENSION
100
AcDbLine
 10
180.748561379696
 20
657.9958426389942
 30
0.0
 11
180.748561379696
 21
684.5422309215692
 31
0.0
  0
LINE
  5
278
330
1F
100
AcDbEntity
  8
DIMENSION
100
AcDbLine
 10
135.748561379671
 20
684.5245850972191
 30
0.0
 11
135.748561379671
 21
657.9958426389942
 31
0.0
  0
LINE
  5
279
330
1F
100
AcDbEntity
  8
DIMENSION
100
AcDbLine
 10
135.748561379671
 20
657.9958426389942
 30
0.0
 11
135.848561379596
 21
657.895842639069
 31
0.0
  0
LINE
  5
27A
330
1F
100
AcDbEntity
  8
DIMENSION
100
AcDbLine
 10
180.648561379596
 20
657.895842639069
 30
0.0
 11
180.748561379696
 21
657.9958426389942
 31
0.0
  0
ARC
  5
27B
330
1F
100
AcDbEntity
  8
DIMENSION
100
AcDbCircle
 10
303.313546579171
 20
733.0274224026941
 30
0.0
 40
11.11500000000003
100
AcDbArc
 50
267.0354885079001
 51
26.52170020019981
  0
ARC
  5
27C
330
1F
100
AcDbEntity
  8
DIMENSION
100
AcDbCircle
 10
303.313546579171
 20
733.0274224026941
 30
0.0
 40
11.11500000000003
100
AcDbArc
 50
26.52170020019981
 51
92.98946855679966
  0
ARC
  5
27D
330
1F
100
AcDbEntity
  8
DIMENSION
100
AcDbCircle
 10
158.313550018171
 20
732.9958426390939
 30
0.0
 40
11.10000000000003
100
AcDbArc
 50
90.01247853239956
 51
270.0124785323995
  0
ARC
  5
27E
330
1F
100
AcDbEntity
  8
DIMENSION
100
AcDbCircle
 10
158.313550018171
 20
732.9958426390939
 30
0.0
 40
27.00000000000002
100
AcDbArc
 50
326.4426902380999
 51
335.7378263378006
  0
ARC
  5
27F
330
1F
100
AcDbEntity
  8
DIMENSION
100
AcDbCircle
 10
158.313550018171
 20
732.9958426390939
 30
0.0
 40
27.00000000000006
100
AcDbArc
 50
24.28713072689851
 51
33.5573097619001
  0
ARC
  5
280
330
1F
100
AcDbEntity
  8
DIMENSION
100
AcDbCircle
 10
158.313550018171
 20
732.9958426390939
 30
0.0
 40
27.0
100
AcDbArc
 50
146.4426902380999
 51
213.5573097619001
  0
LINE
  5
281
330
1F
100
AcDbEntity
  8
DIMENSION
100
AcDbLine
 10
158.313550018171
 20
686.995842639119
 30
0.0
 11
180.813550018096
 21
686.995842639119
 31
0.0
  0
LINE
  5
282
330
1F
100
AcDbEntity
  8
DIMENSION
100
AcDbLine
 10
135.813550018071
 20
686.995842639119
 30
0.0
 11
158.313550018171
 21
686.995842639119
 31
0.0
  0
LINE
  5
283
330
1F
100
AcDbEntity
  8
DIMENSION
100
AcDbLine
 10
158.313550018171
 20
777.895842639019
 30
0.0
 11
180.813550018096
 21
777.895842639019
 31
0.0
  0
LINE
  5
284
330
1F
100
AcDbEntity
  8
DIMENSION
100
AcDbLine
 10
135.813550018071
 20
777.895842639019
 30
0.0
 11
158.313550018171
 21
777.895842639019
 31
0.0
  0
ARC
  5
285
330
1F
100
AcDbEntity
  8
DIMENSION
100
AcDbCircle
 10
158.313550018171
 20
732.9958426390939
 30
0.0
 40
11.12500000000002
100
AcDbArc
 50
86.17064107240024
 51
273.8543159922997
  0
CIRCLE
  5
286
330
1F
100
AcDbEntity
  8
DIMENSION
100
AcDbCircle
 10
158.442393865121
 20
668.295841300219
 30
0.0
 40
3.999999065940833
  0
ARC
  5
287
330
1F
100
AcDbEntity
  8
DIMENSION
100
AcDbCircle
 10
158.401489981471
 20
668.2958428193942
 30
0.0
 40
3.999999819596854
100
AcDbArc
 50
90.00002197249948
 51
208.5322701346008
  0
ARC
  5
288
330
1F
100
AcDbEntity
  8
DIMENSION
100
AcDbCircle
 10
158.401488855696
 20
668.2958402353442
 30
0.0
 40
3.999997596263844
100
AcDbArc
 50
208.5322453171994
 51
269.9999941520003
  0
LINE
  5
289
330
1F
100
AcDbEntity
  8
DIMENSION
100
AcDbLine
 10
135.769427778021
 20
684.8958426391191
 30
0.0
 11
135.799678684196
 21
684.5245850972191
 31
0.0
  0
LINE
  5
28A
330
1F
100
AcDbEntity
  8
DIMENSION
100
AcDbLine
 10
180.6989322322959
 20
684.5422309215692
 30
0.0
 11
180.729629330546
 21
684.8958426391191
 31
0.0
  0
LINE
  5
28B
330
1F
100
AcDbEntity
  8
DIMENSION
100
AcDbLine
 10
180.729629330546
 20
684.8958426391191
 30
0.0
 11
135.769427778021
 21
684.8958426391191
 31
0.0
  0
LINE
  5
28C
330
1F
100
AcDbEntity
  8
DIMENSION
100
AcDbLine
 10
135.748561379671
 20
657.9958426389942
 30
0.0
 11
180.748549615496
 21
657.9958426389942
 31
0.0
  0
SPLINE
  5
28D
330
1F
100
AcDbEntity
  8
DIMENSION
100
AcDbSpline
210
0.0
220
0.0
230
1.0
 70
     8
 71
     3
 72
    29
 73
    25
 74
     0
 42
0.00000001
 43
0.0000000001
 40
0.0
 40
0.0
 40
0.0
 40
0.0
 40
0.0078328672123972
 40
0.0620212488625412
 40
0.1046239339958362
 40
0.113163730040986
 40
0.1142354276514954
 40
0.1143694554565931
 40
0.1143862099565318
 40
0.1143889771138592
 40
0.1267459438879081
 40
0.2100856899811557
 40
0.2980321501433765
 40
0.3116519244816813
 40
0.3721358053024623
 40
0.4394953609036314
 40
0.5343282762246031
 40
0.6338100678231062
 40
0.7152737934520622
 40
0.8007397968654236
 40
0.81177360082982
 40
0.8666231677808907
 40
0.9697854698970257
 40
1.0
 40
1.0
 40
1.0
 40
1.0
 10
158.2696025092597
 20
672.3811864957756
 30
0.0
 10
158.2363264239195
 20
672.3861552092662
 30
0.0
 10
157.9728438045809
 20
672.4254978672697
 30
0.0
 10
157.5214414867286
 20
672.33158119566
 30
0.0
 10
157.0847855012125
 20
672.2260990845541
 30
0.0
 10
156.874045011344
 20
672.1505192125566
 30
0.0
 10
156.8349402654327
 20
672.1359276126309
 30
0.0
 10
156.830038478414
 20
672.1340872753856
 30
0.0
 10
156.8294228460819
 20
672.1338559803016
 30
0.0
 10
156.7798018504577
 20
672.1152114542967
 30
0.0
 10
156.3990227277305
 20
671.9636894537384
 30
0.0
 10
155.7123367671706
 20
671.5627270277382
 30
0.0
 10
155.1531116649864
 20
670.9890320135257
 30
0.0
 10
154.7540843840002
 20
670.4229364610055
 30
0.0
 10
154.462939011451
 20
669.8876940456309
 30
0.0
 10
154.1811603892034
 20
668.9691786732853
 30
0.0
 10
154.1324848270563
 20
667.8295203879856
 30
0.0
 10
154.4473095858308
 20
666.668882935935
 30
0.0
 10
155.0472966358078
 20
665.6872968592763
 30
0.0
 10
155.6058877751461
 20
665.1563081542295
 30
0.0
 10
156.1364625495135
 20
664.7856448267116
 30
0.0
 10
156.7713600201303
 20
664.4415052707857
 30
0.0
 10
157.568298833654
 20
664.1830906108862
 30
0.0
 10
158.1407534121592
 20
664.219738867414
 30
0.0
 10
158.2704344505153
 20
664.2280409827939
 30
0.0
  0
ARC
  5
28E
330
1F
100
AcDbEntity
  8
DIMENSION
100
AcDbCircle
 10
158.270547107696
 20
668.295846121819
 30
0.0
 40
4.099996517254788
100
AcDbArc
 50
53.43178819789971
 51
89.99999823289959
  0
ARC
  5
28F
330
1F
100
AcDbEntity
  8
DIMENSION
100
AcDbCircle
 10
158.270547107696
 20
668.295839156294
 30
0.0
 40
4.099996517255633
100
AcDbArc
 50
270.0000017666998
 51
306.5682113825012
  0
LINE
  5
290
330
1F
100
AcDbEntity
  8
DIMENSION
100
AcDbLine
 10
180.648549667721
 20
657.895842639069
 30
0.0
 11
135.848561379596
 21
657.895842639069
 31
0.0
  0
DIMENSION
  5
291
102
{ACAD_XDICTIONARY
360
408
102
}
330
1F
100
AcDbEntity
  8
DIMENSION
100
AcDbDimension
280
     0
  2
*D26
 10
90.64688335145417
 20
657.8958426390693
 30
0.0
 11
77.98021668478767
 21
717.8958426390443
 31
0.0
 70
    32
  1
<>
 71
     2
 42
119.9999999999501
 73
     0
 74
     0
 75
     0
  3
RG Dimension Lines
100
AcDbAlignedDimension
 13
135.813550018071
 23
777.895842639019
 33
0.0
 14
135.848561379596
 24
657.895842639069
 34
0.0
 50
90.0
100
AcDbRotatedDimension
1001
AcadAnnotative
1000
AnnotativeData
1002
{
1070
     1
1070
     1
1002
}
  0
DIMENSION
  5
292
102
{ACAD_XDICTIONARY
360
3FA
102
}
330
1F
100
AcDbEntity
  8
DIMENSION
100
AcDbDimension
280
     0
  2
*D25
 10
135.813550018071
 20
801.985984945669
 30
0.0
 11
155.643381053946
 21
801.985984945669
 31
0.0
 70
   160
  1
%%c<>
 71
     2
 42
45.00000000002503
 73
     0
 74
     0
 75
     0
  3
RG Dimension Lines
100
AcDbAlignedDimension
 13
180.813550018096
 23
777.895842639019
 33
0.0
 14
135.813550018071
 24
777.895842639019
 34
0.0
100
AcDbRotatedDimension
1001
AcadAnnotative
1000
AnnotativeData
1002
{
1070
     1
1070
     1
1002
}
  0
LINE
  5
293
330
1F
100
AcDbEntity
  8
DIMENSION
100
AcDbLine
 10
502.409339789821
 20
501.1620273315942
 30
0.0
 11
502.409339789821
 21
524.6620273316441
 31
0.0
  0
LINE
  5
294
330
1F
100
AcDbEntity
  8
DIMENSION
100
AcDbLine
 10
480.1793397897459
 20
524.6620273316441
 30
0.0
 11
480.1793397897459
 21
501.1620273315942
 31
0.0
  0
SPLINE
  5
295
330
1F
100
AcDbEntity
  8
DIMENSION
100
AcDbSpline
210
0.0
220
0.0
230
1.0
 70
     8
 71
     3
 72
    38
 73
    34
 74
     0
 42
0.00000001
 43
0.0000000001
 40
0.0
 40
0.0
 40
0.0
 40
0.0
 40
0.0129703598533121
 40
0.0353338691227026
 40
0.0652244844507983
 40
0.0979335820983291
 40
0.131347147500074
 40
0.1649528631483477
 40
0.1986260549280963
 40
0.2323284000792319
 40
0.2660453170153081
 40
0.2997703172603858
 40
0.3335001630238253
 40
0.3672330923373395
 40
0.4009680791614134
 40
0.4347044925916526
 40
0.468441926936206
 40
0.5021801113442463
 40
0.5359188590989344
 40
0.5696580378507383
 40
0.6033975514537646
 40
0.63713732850369
 40
0.670877314887936
 40
0.7046174688146031
 40
0.7383577574153599
 40
0.7720981543724302
 40
0.8058386382258671
 40
0.8395791911409579
 40
0.8733197979914734
 40
0.9070604456615495
 40
0.9408011224998043
 40
0.9745418178782475
 40
1.0
 40
1.0
 40
1.0
 40
1.0
 10
480.1793174804429
 20
599.9482808179575
 30
0.0
 10
480.1793620493129
 20
599.9406441635649
 30
0.0
 10
480.1794834638799
 20
599.9198403809491
 30
0.0
 10
480.1800411482601
 20
599.7492235764245
 30
0.0
 10
480.1807060624545
 20
599.4010704005433
 30
0.0
 10
480.1814940748259
 20
598.8185314621489
 30
0.0
 10
480.1822982768397
 20
598.0188322611113
 30
0.0
 10
480.1831035974813
 20
597.0132086391429
 30
0.0
 10
480.1838983028784
 20
595.8090417197147
 30
0.0
 10
480.1846792917999
 20
594.4108356760741
 30
0.0
 10
480.1854435038916
 20
592.823082753099
 30
0.0
 10
480.1861885760875
 20
591.0504937609127
 30
0.0
 10
480.186912253997
 20
589.0982090192651
 30
0.0
 10
480.1876124253119
 20
586.9718211366605
 30
0.0
 10
480.1882870681662
 20
584.6773884290969
 30
0.0
 10
480.1889342503807
 20
582.2214280563048
 30
0.0
 10
480.1895521261176
 20
579.6109040865379
 30
0.0
 10
480.1901389379824
 20
576.8532111679692
 30
0.0
 10
480.1906930197999
 20
573.9561557146408
 30
0.0
 10
480.1912128001551
 20
570.9279351217528
 30
0.0
 10
480.1916968060769
 20
567.7771154344452
 30
0.0
 10
480.1921436667567
 20
564.5126076936878
 30
0.0
 10
480.1925521170416
 20
561.1436431485267
 30
0.0
 10
480.1929210010743
 20
557.679747397796
 30
0.0
 10
480.193249274424
 20
554.1307138212214
 30
0.0
 10
480.1935360106508
 20
550.5065754690547
 30
0.0
 10
480.1937803900182
 20
546.8175789753359
 30
0.0
 10
480.1939817533975
 20
543.0741476287559
 30
0.0
 10
480.1941394113837
 20
539.2868820438543
 30
0.0
 10
480.1942533654332
 20
535.4664180609986
 30
0.0
 10
480.1943216236894
 20
531.6238154494105
 30
0.0
 10
480.1943478837804
 20
528.0843882006431
 30
0.0
 10
480.194332291316
 20
525.8310786133481
 30
0.0
 10
480.1943255858547
 20
524.8620540596332
 30
0.0
  0
SPLINE
  5
296
330
1F
100
AcDbEntity
  8
DIMENSION
100
AcDbSpline
210
0.0
220
0.0
230
1.0
 70
     8
 71
     3
 72
   107
 73
   103
 74
     0
 42
0.00000001
 43
0.0000000001
 40
0.0
 40
0.0
 40
0.0
 40
0.0
 40
0.0005679815275199
 40
0.0151723568228908
 40
0.0297779753303899
 40
0.0443835964515092
 40
0.0589892238703863
 40
0.0735948619620079
 40
0.0882005154196973
 40
0.1028061894183602
 40
0.1174118898095746
 40
0.1320176233635913
 40
0.1466233980790083
 40
0.1612292235894171
 40
0.1758351117096044
 40
0.1904410771845623
 40
0.2050471387376822
 40
0.2196533205681995
 40
0.234259654537658
 40
0.2488661834389981
 40
0.2634729660141769
 40
0.2780800848859819
 40
0.2926876595249126
 40
0.3072958682853018
 40
0.3219049875924414
 40
0.3365154654923881
 40
0.3511280690193519
 40
0.3657442043859659
 40
0.3803666885521284
 40
0.3950018833422743
 40
0.4096668715583859
 40
0.4244222929297396
 40
0.4320303258038535
 40
0.4370670064386111
 40
0.4386734783636451
 40
0.4399355821650008
 40
0.4407594604933792
 40
0.4420624011826937
 40
0.4439020838526135
 40
0.4476001147560439
 40
0.4517852945246489
 40
0.4569468236966568
 40
0.461898307287539
 40
0.466582271417513
 40
0.4715843197398917
 40
0.4767461863048292
 40
0.4820093939566788
 40
0.4873366318916434
 40
0.4927047278023195
 40
0.4980986036939083
 40
0.5040726306183135
 40
0.509830302662523
 40
0.5153761829385664
 40
0.5207336424538206
 40
0.5259156394663489
 40
0.5309275996833721
 40
0.5357690429666093
 40
0.5404341603024515
 40
0.5449117025072879
 40
0.5491842934419222
 40
0.5532271517484516
 40
0.5570061087915819
 40
0.5604746140382988
 40
0.5635681711089344
 40
0.5661846042876677
 40
0.5681096376155347
 40
0.5692845468599944
 40
0.5701017574509928
 40
0.5707903340766518
 40
0.5717616716448676
 40
0.5736038994457179
 40
0.5766901685103382
 40
0.5830417171360887
 40
0.5973705127470166
 40
0.6128825471372988
 40
0.627668875981277
 40
0.6423400222005256
 40
0.6569771501619042
 40
0.6716003409270849
 40
0.686216738768758
 40
0.7008294235550473
 40
0.7154399041035412
 40
0.7300489916264167
 40
0.7446571544720949
 40
0.7592646787719378
 40
0.7738717475902734
 40
0.7884784826475081
 40
0.8030849675700727
 40
0.8176912614638482
 40
0.8322974071592096
 40
0.8469034363942499
 40
0.861509373172657
 40
0.8761152359980034
 40
0.8907210393967059
 40
0.9053267949794403
 40
0.9199325121966067
 40
0.934538198887248
 40
0.9491438616864243
 40
0.9637495063346255
 40
0.9783551379190623
 40
0.9929607610679346
 40
1.0
 40
1.0
 40
1.0
 40
1.0
 10
502.3943284139622
 20
524.8620720093638
 30
0.0
 10
502.3943289556014
 20
524.9119729314686
 30
0.0
 10
502.3943434242823
 20
526.2449645153219
 30
0.0
 10
502.3943430256623
 20
528.8667818585527
 30
0.0
 10
502.3943077035037
 20
532.7185267673135
 30
0.0
 10
502.3942251924163
 20
536.5564357915123
 30
0.0
 10
502.3940990891542
 20
540.368760633359
 30
0.0
 10
502.3939288489052
 20
544.1449416083758
 30
0.0
 10
502.39371519396
 20
547.8742515262938
 30
0.0
 10
502.3934586630868
 20
551.5461680678583
 30
0.0
 10
502.393159998136
 20
555.1503119082406
 30
0.0
 10
502.3928200379117
 20
558.6765006611183
 30
0.0
 10
502.3924397436316
 20
562.1147711376113
 30
0.0
 10
502.3920201886951
 20
565.4554093458462
 30
0.0
 10
502.3915625575739
 20
568.6889775729276
 30
0.0
 10
502.3910681418317
 20
571.8063413167185
 30
0.0
 10
502.3905383364684
 20
574.7986952451328
 30
0.0
 10
502.3899746357304
 20
577.6575883330385
 30
0.0
 10
502.3893786285687
 20
580.3749480828762
 30
0.0
 10
502.3887519936978
 20
582.9431038216848
 30
0.0
 10
502.3880964939485
 20
585.354809094463
 30
0.0
 10
502.3874139705663
 20
587.6032631911702
 30
0.0
 10
502.3867063339607
 20
589.6821321169307
 30
0.0
 10
502.3859755619296
 20
591.5855688846573
 30
0.0
 10
502.3852236599823
 20
593.308235773097
 30
0.0
 10
502.384452743989
 20
594.8453232977458
 30
0.0
 10
502.3836646257138
 20
596.1925955829205
 30
0.0
 10
502.3828621587063
 20
597.3463749573086
 30
0.0
 10
502.3820437569547
 20
598.3038527234391
 30
0.0
 10
502.3812226177519
 20
599.062465540056
 30
0.0
 10
502.3803503783986
 20
599.6237408806796
 30
0.0
 10
502.3797121918632
 20
599.9234827251576
 30
0.0
 10
502.3789326944666
 20
600.0738210612635
 30
0.0
 10
502.3786531393427
 20
600.1419128672935
 30
0.0
 10
502.3771345395386
 20
600.2498618331956
 30
0.0
 10
502.3749483151142
 20
600.3601160625592
 30
0.0
 10
502.3678631001266
 20
600.5679075153011
 30
0.0
 10
502.3492942817142
 20
600.9026316502481
 30
0.0
 10
502.2938125423098
 20
601.495894542443
 30
0.0
 10
502.1585366669851
 20
602.3422174087234
 30
0.0
 10
501.8715434189626
 20
603.4543779748205
 30
0.0
 10
501.4230930308254
 20
604.6330842028703
 30
0.0
 10
500.8161394580002
 20
605.7878395361078
 30
0.0
 10
500.0892445980185
 20
606.8537999745928
 30
0.0
 10
499.232207028615
 20
607.8434893190683
 30
0.0
 10
498.2240799474802
 20
608.757014935572
 30
0.0
 10
497.0871138003508
 20
609.5553976685546
 30
0.0
 10
495.8426956011541
 20
610.2131441397841
 30
0.0
 10
494.5140063241066
 20
610.7117514725569
 30
0.0
 10
493.0770687004414
 20
611.0497209938659
 30
0.0
 10
491.5723435943354
 20
611.1942583647257
 30
0.0
 10
490.0492511063876
 20
611.1274559651088
 30
0.0
 10
488.6026985473144
 20
610.8667825810355
 30
0.0
 10
487.2506781262805
 20
610.4366832832254
 30
0.0
 10
486.0060025359486
 20
609.8607823865379
 30
0.0
 10
484.8789937045757
 20
609.1626392567923
 30
0.0
 10
483.8771790615113
 20
608.3659992421496
 30
0.0
 10
483.005113601562
 20
607.4948518231783
 30
0.0
 10
482.2642754437155
 20
606.5734414551816
 30
0.0
 10
481.6529986043767
 20
605.626304594856
 30
0.0
 10
481.1664177165169
 20
604.6783883715408
 30
0.0
 10
480.7964165175517
 20
603.7553378567693
 30
0.0
 10
480.5316232292948
 20
602.8841004980897
 30
0.0
 10
480.3576542812098
 20
602.0952559172378
 30
0.0
 10
480.2579056225832
 20
601.4314756157914
 30
0.0
 10
480.2103496241564
 20
600.9343754711121
 30
0.0
 10
480.1909922346369
 20
600.6043865777581
 30
0.0
 10
480.1842066421886
 20
600.4246087409144
 30
0.0
 10
480.1813119038519
 20
600.3176189581636
 30
0.0
 10
480.1796097314877
 20
600.2296910046666
 30
0.0
 10
480.1787604575739
 20
600.159628749541
 30
0.0
 10
480.1781708266888
 20
600.0881012352301
 30
0.0
 10
480.1776118014761
 20
599.9708323987906
 30
0.0
 10
480.1768860365545
 20
599.7071446100751
 30
0.0
 10
480.1760307246994
 20
599.1778949377582
 30
0.0
 10
480.1751798610598
 20
598.4328090452962
 30
0.0
 10
480.1743577458402
 20
597.5002018637257
 30
0.0
 10
480.1735512186742
 20
596.3729626574925
 30
0.0
 10
480.1727603016391
 20
595.0524828683951
 30
0.0
 10
480.17198641647
 20
593.541937327491
 30
0.0
 10
480.1712314535236
 20
591.845335931167
 30
0.0
 10
480.1704973917671
 20
589.9673380282409
 30
0.0
 10
480.1697862262317
 20
587.9131705210475
 30
0.0
 10
480.1690999199126
 20
585.6885877919446
 30
0.0
 10
480.1684403839857
 20
583.2998425529272
 30
0.0
 10
480.167809464102
 20
580.7536617153305
 30
0.0
 10
480.167208931173
 20
578.0572236835219
 30
0.0
 10
480.1666404740354
 20
575.2181358934365
 30
0.0
 10
480.1661056933377
 20
572.2444119540957
 30
0.0
 10
480.1656060961992
 20
569.1444481226617
 30
0.0
 10
480.1651430914254
 20
565.9269989872666
 30
0.0
 10
480.1647179852217
 20
562.6011523241386
 30
0.0
 10
480.1643319771643
 20
559.1763031175548
 30
0.0
 10
480.1639861570889
 20
555.6621268440055
 30
0.0
 10
480.1636815002934
 20
552.0685518188328
 30
0.0
 10
480.1634188707236
 20
548.4057316075832
 30
0.0
 10
480.1631989960285
 20
544.6840140588249
 30
0.0
 10
480.1630225492504
 20
540.9139201385396
 30
0.0
 10
480.1628898342054
 20
537.1060837302366
 30
0.0
 10
480.1628019515805
 20
533.271335027988
 30
0.0
 10
480.1627642995265
 20
530.0852595653378
 30
0.0
 10
480.1627610747832
 20
528.1812426441722
 30
0.0
 10
480.1627600260477
 20
527.5620273316117
 30
0.0
  0
LINE
  5
297
330
1F
100
AcDbEntity
  8
DIMENSION
100
AcDbLine
 10
502.3627600259961
 20
464.8620273316941
 30
0.0
 11
502.3627600259961
 21
501.1620273315942
 31
0.0
  0
LINE
  5
298
330
1F
100
AcDbEntity
  8
DIMENSION
100
AcDbLine
 10
502.3627600259961
 20
524.6620273316441
 30
0.0
 11
502.3627600259961
 21
524.8620273316691
 31
0.0
  0
LINE
  5
299
330
1F
100
AcDbEntity
  8
DIMENSION
100
AcDbLine
 10
480.162760026021
 20
527.5620273315691
 30
0.0
 11
480.162760026021
 21
464.8620273316941
 31
0.0
  0
LINE
  5
29A
330
1F
100
AcDbEntity
  8
DIMENSION
100
AcDbLine
 10
513.762760026021
 20
365.1287777508691
 30
0.0
 11
513.762760026021
 21
406.162027331619
 31
0.0
  0
LINE
  5
29B
330
1F
100
AcDbEntity
  8
DIMENSION
100
AcDbLine
 10
468.762760025996
 20
406.162027331619
 30
0.0
 11
468.762760025996
 21
365.1287777508691
 31
0.0
  0
LINE
  5
29C
330
1F
100
AcDbEntity
  8
DIMENSION
100
AcDbLine
 10
518.262760025971
 20
361.1287777508942
 30
0.0
 11
518.262760025971
 21
365.1287777508691
 31
0.0
  0
LINE
  5
29D
330
1F
100
AcDbEntity
  8
DIMENSION
100
AcDbLine
 10
464.262760026046
 20
365.1287777508691
 30
0.0
 11
464.262760026046
 21
361.1287777508942
 31
0.0
  0
LINE
  5
29E
330
1F
100
AcDbEntity
  8
DIMENSION
100
AcDbLine
 10
536.162760026021
 20
451.1620273316441
 30
0.0
 11
502.3877600260211
 21
451.1620273316441
 31
0.0
  0
LINE
  5
29F
330
1F
100
AcDbEntity
  8
DIMENSION
100
AcDbLine
 10
480.137760025996
 20
451.1620273316441
 30
0.0
 11
445.2627600261209
 21
451.1620273316441
 31
0.0
  0
LINE
  5
2A0
330
1F
100
AcDbEntity
  8
DIMENSION
100
AcDbLine
 10
445.2627600261209
 20
406.162027331619
 30
0.0
 11
468.762760025996
 21
406.162027331619
 31
0.0
  0
LINE
  5
2A1
330
1F
100
AcDbEntity
  8
DIMENSION
100
AcDbLine
 10
513.762760026021
 20
406.162027331619
 30
0.0
 11
536.162760026021
 21
406.162027331619
 31
0.0
  0
LWPOLYLINE
  5
2A2
330
1F
100
AcDbEntity
  8
DIMENSION
100
AcDbPolyline
 90
        3
 70
   128
 43
0.0
 10
445.2627600261209
 20
449.1523561152941
 10
443.9142005092709
 20
449.0356521341941
 10
443.1627600261209
 20
448.9304154822191
  0
ARC
  5
2A3
330
1F
100
AcDbEntity
  8
DIMENSION
100
AcDbCircle
 10
446.311842444771
 20
428.1441652478191
 30
0.0
 40
20.0
100
AcDbArc
 50
238.9734288230004
 51
266.9932203496999
  0
LINE
  5
2A4
330
1F
100
AcDbEntity
  8
DIMENSION
100
AcDbLine
 10
502.3877600260211
 20
451.1620273316441
 30
0.0
 11
502.3877600260211
 21
464.6620273316692
 31
0.0
  0
LINE
  5
2A5
330
1F
100
AcDbEntity
  8
DIMENSION
100
AcDbLine
 10
480.137760025996
 20
464.6620273316692
 30
0.0
 11
480.137760025996
 21
451.1620273316441
 31
0.0
  0
LINE
  5
2A6
330
1F
100
AcDbEntity
  8
DIMENSION
100
AcDbLine
 10
422.562760025996
 20
491.163077062419
 30
0.0
 11
422.562760025996
 21
451.1630979765691
 31
0.0
  0
LINE
  5
2A7
330
1F
100
AcDbEntity
  8
DIMENSION
100
AcDbLine
 10
430.5627600261209
 20
451.1630979765691
 30
0.0
 11
430.5627600261209
 21
491.163077062419
 31
0.0
  0
LINE
  5
2A8
330
1F
100
AcDbEntity
  8
DIMENSION
100
AcDbLine
 10
416.262760025996
 20
406.1632425953191
 30
0.0
 11
434.163414192496
 21
406.1632425953191
 31
0.0
  0
LINE
  5
2A9
330
1F
100
AcDbEntity
  8
DIMENSION
100
AcDbLine
 10
422.494189692696
 20
451.1632425953441
 30
0.0
 11
416.262760025996
 21
451.1632425953441
 31
0.0
  0
LINE
  5
2AA
330
1F
100
AcDbEntity
  8
DIMENSION
100
AcDbLine
 10
443.1627600261209
 20
451.1632425953441
 30
0.0
 11
430.6509316509209
 21
451.1632425953441
 31
0.0
  0
LINE
  5
2AB
330
1F
100
AcDbEntity
  8
DIMENSION
100
AcDbLine
 10
416.262760025996
 20
451.1632425953441
 30
0.0
 11
416.1627600260709
 21
451.0632425952441
 31
0.0
  0
LINE
  5
2AC
330
1F
100
AcDbEntity
  8
DIMENSION
100
AcDbLine
 10
416.1627600260709
 20
406.2632425952441
 30
0.0
 11
416.262760025996
 21
406.1632425953191
 31
0.0
  0
LINE
  5
2AD
330
1F
100
AcDbEntity
  8
DIMENSION
100
AcDbLine
 10
496.2575955268209
 20
524.6620273316441
 30
0.0
 11
480.1793397897459
 21
524.6620273316441
 31
0.0
  0
LINE
  5
2AE
330
1F
100
AcDbEntity
  8
DIMENSION
100
AcDbLine
 10
502.409339789821
 20
524.6620273316441
 30
0.0
 11
496.2575955268209
 21
524.6620273316441
 31
0.0
  0
LINE
  5
2AF
330
1F
100
AcDbEntity
  8
DIMENSION
100
AcDbLine
 10
496.2575955268209
 20
501.1620273315942
 30
0.0
 11
480.1793397897459
 21
501.1620273315942
 31
0.0
  0
LINE
  5
2B0
330
1F
100
AcDbEntity
  8
DIMENSION
100
AcDbLine
 10
502.409339789821
 20
501.1620273315942
 30
0.0
 11
496.2575955268209
 21
501.1620273315942
 31
0.0
  0
SPLINE
  5
2B1
330
1F
100
AcDbEntity
  8
DIMENSION
100
AcDbSpline
210
0.0
220
0.0
230
1.0
 70
    24
 71
     3
 72
    27
 73
    23
 74
     0
 42
0.00000001
 43
0.0000000001
 40
0.0
 40
0.0
 40
0.0
 40
0.0
 40
0.0048298232283212
 40
0.0585611407977179
 40
0.1122923549626141
 40
0.1660126791967259
 40
0.2197328555217159
 40
0.2867910207713933
 40
0.3404311050553106
 40
0.3940710843519045
 40
0.4477117774471368
 40
0.5013524333449385
 40
0.5549819433488407
 40
0.6086114927897187
 40
0.6622406272750203
 40
0.7158698683643219
 40
0.7695143475624217
 40
0.8231589722783644
 40
0.8768306977303106
 40
0.9305025601377048
 40
0.9842054914208675
 40
1.0
 40
1.0
 40
1.0
 40
1.0
 10
502.3813187695146
 20
524.8620273316114
 30
0.0
 10
502.3855932754221
 20
524.8620273316114
 30
0.0
 10
502.4374212472678
 20
524.8620273316114
 30
0.0
 10
502.2361528202392
 20
524.8620273316114
 30
0.0
 10
501.7674589379553
 20
524.8620273316117
 30
0.0
 10
500.9614738986633
 20
524.8620273316114
 30
0.0
 10
499.8066659683072
 20
524.8620273316114
 30
0.0
 10
498.3469737362183
 20
524.8620273316114
 30
0.0
 10
496.6502117928776
 20
524.8620273316114
 30
0.0
 10
494.9336581265964
 20
524.8620273316114
 30
0.0
 10
493.1120151903039
 20
524.8620273316114
 30
0.0
 10
491.2398296195767
 20
524.8620273316114
 30
0.0
 10
489.3693839259235
 20
524.8620273316114
 30
0.0
 10
487.5525944701938
 20
524.8620273316114
 30
0.0
 10
485.8441731167265
 20
524.8620273316114
 30
0.0
 10
484.287203936739
 20
524.8620273316114
 30
0.0
 10
482.9325710370699
 20
524.8620273316114
 30
0.0
 10
481.8116697530695
 20
524.8620273316114
 30
0.0
 10
480.9589731637167
 20
524.8620273316114
 30
0.0
 10
480.4166613243445
 20
524.8620273316114
 30
0.0
 10
480.1762800016977
 20
524.8620273316114
 30
0.0
 10
480.2183359748569
 20
524.8620273316114
 30
0.0
 10
480.2278939302316
 20
524.8620273316114
 30
0.0
  0
LINE
  5
2B2
330
1F
100
AcDbEntity
  8
DIMENSION
100
AcDbLine
 10
491.2651775114459
 20
464.8620273316941
 30
0.0
 11
502.3627600259961
 21
464.8620273316941
 31
0.0
  0
LINE
  5
2B3
330
1F
100
AcDbEntity
  8
DIMENSION
100
AcDbLine
 10
480.162760026021
 20
464.8620273316941
 30
0.0
 11
491.2651775114459
 21
464.8620273316941
 31
0.0
  0
LINE
  5
2B4
330
1F
100
AcDbEntity
  8
DIMENSION
100
AcDbLine
 10
472.629510445346
 20
410.0287777509691
 30
0.0
 11
468.762760025996
 21
406.162027331619
 31
0.0
  0
LINE
  5
2B5
330
1F
100
AcDbEntity
  8
DIMENSION
100
AcDbLine
 10
513.762760026021
 20
406.162027331619
 30
0.0
 11
509.8960096068459
 21
410.0287777509691
 31
0.0
  0
SPLINE
  5
2B6
330
1F
100
AcDbEntity
  8
DIMENSION
100
AcDbSpline
210
0.0
220
0.0
230
1.0
 70
     8
 71
     3
 72
    46
 73
    42
 74
     0
 42
0.00000001
 43
0.0000000001
 40
0.0
 40
0.0
 40
0.0
 40
0.0
 40
0.0084832142180572
 40
0.0171126745278716
 40
0.0258889801753404
 40
0.0348126664080762
 40
0.0438842056715439
 40
0.0531040086273193
 40
0.0624724250054338
 40
0.0920410139694033
 40
0.1245256279040272
 40
0.1516026400361771
 40
0.187036473187609
 40
0.2183122561637775
 40
0.2494345144912965
 40
0.2828271347218121
 40
0.3115757103997765
 40
0.344641323833405
 40
0.3742668434290008
 40
0.4056008757941657
 40
0.4369881082282247
 40
0.4689206532188761
 40
0.4996654765089362
 40
0.5304619441185914
 40
0.5624316128449558
 40
0.5924463076925965
 40
0.6251747109404385
 40
0.6547057998701299
 40
0.6876550751712739
 40
0.7165845241756154
 40
0.7502086493217341
 40
0.7812728895776388
 40
0.8122442270767605
 40
0.8476980036590132
 40
0.8746172560012437
 40
0.9074683455280837
 40
0.9373298295069043
 40
0.953680340088913
 40
0.969573935357112
 40
0.9850128724924495
 40
1.0
 40
1.0
 40
1.0
 40
1.0
 10
509.8960096067584
 20
410.0287777509011
 30
0.0
 10
509.827075513458
 20
410.0984561765237
 30
0.0
 10
509.6880189398286
 20
410.2390142466895
 30
0.0
 10
509.4720357497636
 20
410.4563220995087
 30
0.0
 10
509.2482286251002
 20
410.6806076004574
 30
0.0
 10
509.0160379055565
 20
410.9122224038564
 30
0.0
 10
508.7754376423395
 20
411.1510648402643
 30
0.0
 10
508.5262641201011
 20
411.3971631621536
 30
0.0
 10
508.0844375334906
 20
411.831213255046
 30
0.0
 10
507.4048628200577
 20
412.4918284352174
 30
0.0
 10
506.510489388845
 20
413.3404955013395
 30
0.0
 10
505.5137354081749
 20
414.2651178042417
 30
0.0
 10
504.4833302430048
 20
415.1879545385234
 30
0.0
 10
503.3598459867079
 20
416.1549601760259
 30
0.0
 10
502.2135201426126
 20
417.0946301118408
 30
0.0
 10
501.0486382076228
 20
417.9909317691807
 30
0.0
 10
499.8095480294412
 20
418.8753840548224
 30
0.0
 10
498.5657789002056
 20
419.6778927741862
 30
0.0
 10
497.2271332006273
 20
420.4335350929873
 30
0.0
 10
495.8496665958932
 20
421.0815332785678
 30
0.0
 10
494.3696050048121
 20
421.6076291465642
 30
0.0
 10
492.837691136674
 20
421.9476641665864
 30
0.0
 10
491.2787802772782
 20
422.0674048802075
 30
0.0
 10
489.7188734599695
 20
421.9523459173784
 30
0.0
 10
488.2067046447288
 20
421.621210265115
 30
0.0
 10
486.7237835644752
 20
421.1002528070555
 30
0.0
 10
485.3440359822455
 20
420.4583646560873
 30
0.0
 10
483.987475407366
 20
419.6945442571316
 30
0.0
 10
482.7427908693685
 20
418.8936875689146
 30
0.0
 10
481.4987124737865
 20
418.0072814213625
 30
0.0
 10
480.3286580342716
 20
417.1079345504162
 30
0.0
 10
479.1833063173473
 20
416.169723540482
 30
0.0
 10
478.0629288177533
 20
415.2061387687294
 30
0.0
 10
477.0363486232787
 20
414.2875194607856
 30
0.0
 10
476.0360702815896
 20
413.3602599049516
 30
0.0
 10
475.1356484704091
 20
412.5063235858004
 30
0.0
 10
474.3829459447128
 20
411.7747705442682
 30
0.0
 10
473.8166120874354
 20
411.2173485243269
 30
0.0
 10
473.3960787282247
 20
410.7995894647912
 30
0.0
 10
473.000285071147
 20
410.4032841489561
 30
0.0
 10
472.7518723919533
 20
410.1523712459686
 30
0.0
 10
472.6295104453369
 20
410.0287777509011
 30
0.0
  0
LINE
  5
2B7
330
1F
100
AcDbEntity
  8
DIMENSION
100
AcDbLine
 10
464.262760026046
 20
361.1287777508942
 30
0.0
 11
518.262760025971
 21
361.1287777508942
 31
0.0
  0
LINE
  5
2B8
330
1F
100
AcDbEntity
  8
DIMENSION
100
AcDbLine
 10
464.262760026046
 20
365.1287777508691
 30
0.0
 11
518.262760025971
 21
365.1287777508691
 31
0.0
  0
LINE
  5
2B9
330
1F
100
AcDbEntity
  8
DIMENSION
100
AcDbLine
 10
445.2627600261209
 20
451.1620273316441
 30
0.0
 11
445.2627600261209
 21
406.162027331619
 31
0.0
  0
LINE
  5
2BA
330
1F
100
AcDbEntity
  8
DIMENSION
100
AcDbLine
 10
536.162760026021
 20
451.1620273316441
 30
0.0
 11
536.162760026021
 21
406.162027331619
 31
0.0
  0
SPLINE
  5
2BB
330
1F
100
AcDbEntity
  8
DIMENSION
100
AcDbSpline
210
0.0
220
0.0
230
1.0
 70
     8
 71
     3
 72
    31
 73
    27
 74
     0
 42
0.00000001
 43
0.0000000001
 40
0.0
 40
0.0
 40
0.0
 40
0.0
 40
0.0558638032762907
 40
0.1127165851020285
 40
0.1475164827071429
 40
0.1834997217307148
 40
0.2119181833163589
 40
0.2415662843127655
 40
0.2724533967982717
 40
0.3045878054822037
 40
0.3385485996222768
 40
0.3747468781239415
 40
0.4132327002303758
 40
0.464846078172381
 40
0.4903336421416092
 40
0.5580289715239005
 40
0.6112205182994788
 40
0.6458163587100576
 40
0.6781288842566794
 40
0.7100176076509507
 40
0.7408768528828409
 40
0.7707143251938948
 40
0.7995385512741713
 40
0.8812572973110547
 40
0.9602589621934283
 40
1.0
 40
1.0
 40
1.0
 40
1.0
 10
491.2627600260476
 20
448.2192350822085
 30
0.0
 10
491.5938145313133
 20
448.2241736333186
 30
0.0
 10
492.2617843279924
 20
448.2341381646224
 30
0.0
 10
493.1268868880701
 20
448.3027529480983
 30
0.0
 10
493.8623561261906
 20
448.3882115936153
 30
0.0
 10
494.4244617784604
 20
448.4709094638802
 30
0.0
 10
494.9473703305882
 20
448.5617278543687
 30
0.0
 10
495.43252237458
 20
448.6573376321811
 30
0.0
 10
495.9267212558167
 20
448.7660703462027
 30
0.0
 10
496.4306191813768
 20
448.888799021885
 30
0.0
 10
496.9463359191758
 20
449.0265451085318
 30
0.0
 10
497.4752310046767
 20
449.1799500329012
 30
0.0
 10
498.0649753572602
 20
449.3661935670026
 30
0.0
 10
498.5762309905437
 20
449.5399364381537
 30
0.0
 10
499.1830253599039
 20
449.759509200879
 30
0.0
 10
499.755079028473
 20
449.9807809466799
 30
0.0
 10
500.30014706325
 20
450.2050977023678
 30
0.0
 10
500.6838735982316
 20
450.3693541419922
 30
0.0
 10
500.9752285863198
 20
450.4975620888044
 30
0.0
 10
501.232316336804
 20
450.6130694977909
 30
0.0
 10
501.4597857557617
 20
450.7173748984458
 30
0.0
 10
501.65750290154
 20
450.8096878665096
 30
0.0
 10
501.9333740450345
 20
450.9402557146359
 30
0.0
 10
502.2119460944678
 20
451.0745689128718
 30
0.0
 10
502.3742523927137
 20
451.1554089794675
 30
0.0
 10
502.3784344161412
 20
451.1573208340788
 30
0.0
 10
502.3798340638448
 20
451.1579606972843
 30
0.0
  0
SPLINE
  5
2BC
330
1F
100
AcDbEntity
  8
DIMENSION
100
AcDbSpline
210
0.0
220
0.0
230
1.0
 70
     8
 71
     3
 72
    53
 73
    49
 74
     0
 42
0.00000001
 43
0.0000000001
 40
0.0
 40
0.0
 40
0.0
 40
0.0
 40
0.020714441705837
 40
0.0497027974102235
 40
0.0787584117539891
 40
0.1078956741964373
 40
0.137128853627904
 40
0.1971727946523595
 40
0.2597275147847603
 40
0.3168236076867759
 40
0.3788211076905356
 40
0.4082170935835957
 40
0.4400187103197434
 40
0.4727381081866462
 40
0.4903414550256828
 40
0.4987077696008562
 40
0.5025091300745065
 40
0.5042049941421155
 40
0.5049556783433027
 40
0.5052868513518283
 40
0.5054327362855768
 40
0.5054969583379157
 40
0.5055252223680702
 40
0.5055474325328531
 40
0.5621230773573488
 40
0.5789897153227778
 40
0.5976828131845036
 40
0.6134354803546655
 40
0.6224003062910644
 40
0.6261109088079007
 40
0.6276982847684869
 40
0.6283879621082499
 40
0.6286897226305214
 40
0.6288221686224697
 40
0.6288803812346036
 40
0.6289059824662706
 40
0.6289172446235025
 40
0.6289221995110063
 40
0.6289260924389746
 40
0.6560139839746665
 40
0.681863140336103
 40
0.7064756383475763
 40
0.7298538885050859
 40
0.7520007084372695
 40
0.7904827989760327
 40
0.8276060928148611
 40
0.8633939852100308
 40
1.0
 40
1.0
 40
1.0
 40
1.0
 10
480.1655957308241
 20
451.14758900898
 30
0.0
 10
480.1554167344298
 20
451.1525346246288
 30
0.0
 10
480.13099297236
 20
451.1644012699451
 30
0.0
 10
480.1723771434762
 20
451.1441625947045
 30
0.0
 10
480.2206834582563
 20
451.1206447814132
 30
0.0
 10
480.2985604731815
 20
451.0828112501291
 30
0.0
 10
480.4337696659424
 20
451.0170420168084
 30
0.0
 10
480.6692699030255
 20
450.9031951279967
 30
0.0
 10
481.0430067152437
 20
450.7275349762696
 30
0.0
 10
481.5093110861674
 20
450.5145484279326
 30
0.0
 10
481.9584931942514
 20
450.3184118012299
 30
0.0
 10
482.3711171893779
 20
450.1449511483922
 30
0.0
 10
482.7055746185627
 20
450.0086248103341
 30
0.0
 10
483.0156128694884
 20
449.8862396079506
 30
0.0
 10
483.2466433527662
 20
449.7980533173037
 30
0.0
 10
483.3662611998465
 20
449.7531673962056
 30
0.0
 10
483.4224866398661
 20
449.7322372332968
 30
0.0
 10
483.447931744085
 20
449.7227991098391
 30
0.0
 10
483.4592651322672
 20
449.7186020166401
 30
0.0
 10
483.4642785264735
 20
449.7167467134175
 30
0.0
 10
483.4664895961488
 20
449.7159287184317
 30
0.0
 10
483.4674634694373
 20
449.7155684788878
 30
0.0
 10
483.4679320976443
 20
449.7153951419843
 30
0.0
 10
483.6993049304675
 20
449.6298172912487
 30
0.0
 10
484.0126348598499
 20
449.5188330454483
 30
0.0
 10
484.4243298276705
 20
449.379827223802
 30
0.0
 10
484.6588205189886
 20
449.3034385125483
 30
0.0
 10
484.8613596528102
 20
449.2399551345741
 30
0.0
 10
484.9958508506888
 20
449.1987151101512
 30
0.0
 10
485.063802172122
 20
449.1781414780521
 30
0.0
 10
485.0924120184081
 20
449.1695272591428
 30
0.0
 10
485.1047493609262
 20
449.165821683743
 30
0.0
 10
485.1101290757785
 20
449.1642076075747
 30
0.0
 10
485.1124867084775
 20
449.1635005833993
 30
0.0
 10
485.113522238038
 20
449.1631901062212
 30
0.0
 10
485.1139775169087
 20
449.1630536150192
 30
0.0
 10
485.1141777710445
 20
449.1629935818805
 30
0.0
 10
485.114274072025
 20
449.1629647128291
 30
0.0
 10
485.2440333329618
 20
449.1240659353594
 30
0.0
 10
485.5013579129995
 20
449.0492183859638
 30
0.0
 10
485.8885491681384
 20
448.9434067861181
 30
0.0
 10
486.2661081577451
 20
448.8466713686045
 30
0.0
 10
486.6323785554876
 20
448.7589901363197
 30
0.0
 10
487.0793470511771
 20
448.6596757357725
 30
0.0
 10
487.6117293012746
 20
448.5539847165839
 30
0.0
 10
488.2336884040053
 20
448.4498998660693
 30
0.0
 10
489.4266745670595
 20
448.2814338445124
 30
0.0
 10
490.451043583652
 20
448.246732581201
 30
0.0
 10
491.2627600260476
 20
448.2192350822083
 30
0.0
  0
LINE
  5
2BD
330
1F
100
AcDbEntity
  8
DIMENSION
100
AcDbLine
 10
491.262760026096
 20
464.6620273316692
 30
0.0
 11
480.137760025996
 21
464.6620273316692
 31
0.0
  0
LINE
  5
2BE
330
1F
100
AcDbEntity
  8
DIMENSION
100
AcDbLine
 10
502.3877600260211
 20
464.6620273316692
 30
0.0
 11
491.262760026096
 21
464.6620273316692
 31
0.0
  0
LWPOLYLINE
  5
2BF
330
1F
100
AcDbEntity
  8
DIMENSION
100
AcDbPolyline
 90
       27
 70
   128
 43
0.0
 10
424.6521456844959
 20
491.166670668694
 10
425.5486661106959
 20
491.1670338176691
 10
426.504121988996
 20
491.167167014369
 10
427.4629856970709
 20
491.1670625178441
 10
428.369531561246
 20
491.1667264012941
 10
429.1710744309959
 20
491.1661781982191
 10
429.821031548596
 20
491.1654497685942
 10
430.281629768496
 20
491.1645834457941
 10
430.526100796521
 20
491.1636295774941
 10
430.540236865146
 20
491.1626435991441
 10
430.3232164373959
 20
491.1616828118692
 10
429.887651951746
 20
491.1608030534442
 10
429.2588568328709
 20
491.1600554522191
 10
428.4733743674459
 20
491.1594834559691
 10
427.5768539414209
 20
491.159120306994
 10
426.621398063121
 20
491.1589871102941
 10
425.6625343550459
 20
491.1590916068191
 10
424.7559884908709
 20
491.159427723544
 10
423.9544456211209
 20
491.1599759264441
 10
423.304488503521
 20
491.1607043560691
 10
422.8438902836209
 20
491.1615706788691
 10
422.5994192555959
 20
491.1625245471691
 10
422.585283186971
 20
491.1635105256941
 10
422.802303614721
 20
491.1644713127942
 10
423.237868100371
 20
491.1653510712191
 10
423.866663219246
 20
491.1660986724442
 10
424.6521456844959
 20
491.166670668694
  0
LWPOLYLINE
  5
2C0
330
1F
100
AcDbEntity
  8
DIMENSION
100
AcDbPolyline
 90
       15
 70
   128
 43
0.0
 10
430.5627600261209
 20
451.1630979765691
 10
430.540236865146
 20
451.162664513119
 10
430.3232164373959
 20
451.1617037260192
 10
429.887651951746
 20
451.1608239675941
 10
429.2588568328709
 20
451.1600763663691
 10
428.4733743674459
 20
451.159504370119
 10
427.5768539414209
 20
451.1591412211441
 10
426.621398063121
 20
451.1590080244442
 10
425.6625343550459
 20
451.1591125209691
 10
424.7559884908709
 20
451.1594486375191
 10
423.9544456211209
 20
451.1599968405941
 10
423.304488503521
 20
451.1607252702192
 10
422.8438902836209
 20
451.1615915930191
 10
422.5994192555959
 20
451.1625454613191
 10
422.562760025996
 20
451.1630979765691
  0
LINE
  5
2C1
330
1F
100
AcDbEntity
  8
DIMENSION
100
AcDbLine
 10
443.1627600261209
 20
429.5860555674441
 30
0.0
 11
443.1627600261209
 21
451.1632425953441
 31
0.0
  0
LINE
  5
2C2
330
1F
100
AcDbEntity
  8
DIMENSION
100
AcDbLine
 10
416.262760025996
 20
428.6402341428191
 30
0.0
 11
416.262760025996
 21
406.1632425953191
 31
0.0
  0
LINE
  5
2C3
330
1F
100
AcDbEntity
  8
DIMENSION
100
AcDbLine
 10
416.262760025996
 20
451.1632425953441
 30
0.0
 11
416.262760025996
 21
428.6402341428191
 31
0.0
  0
SPLINE
  5
2C4
330
1F
100
AcDbEntity
  8
DIMENSION
100
AcDbSpline
210
0.0
220
0.0
230
1.0
 70
     8
 71
     3
 72
    15
 73
    11
 74
     0
 42
0.00000001
 43
0.0000000001
 40
0.0
 40
0.0
 40
0.0
 40
0.0
 40
0.1325324187522648
 40
0.2764713117219669
 40
0.4152887841355187
 40
0.5462056802809277
 40
0.5783675107716157
 40
0.7565053937263265
 40
0.9427487291561464
 40
1.0
 40
1.0
 40
1.0
 40
1.0
 10
426.5627600260478
 20
450.7823292711471
 30
0.0
 10
426.8696982852998
 20
450.7863748858674
 30
0.0
 10
427.5099916109026
 20
450.7948143033243
 30
0.0
 10
428.4204557788945
 20
450.855094929759
 30
0.0
 10
429.2213902212767
 20
450.9388455596533
 30
0.0
 10
429.7029658227602
 20
451.0044527164173
 30
0.0
 10
430.1599544274822
 20
451.0736993827794
 30
0.0
 10
430.5508731125666
 20
451.1407919624386
 30
0.0
 10
430.7103757635523
 20
451.1717264206191
 30
0.0
 10
430.6355275052342
 20
451.1585883780881
 30
0.0
 10
430.6179289309792
 20
451.1554993173373
 30
0.0
  0
LINE
  5
2C5
330
1F
100
AcDbEntity
  8
DIMENSION
100
AcDbLine
 10
426.9527490535461
 20
450.8019457676691
 30
0.0
 11
426.782470187096
 21
450.800785912469
 31
0.0
  0
SPLINE
  5
2C6
330
1F
100
AcDbEntity
  8
DIMENSION
100
AcDbSpline
210
0.0
220
0.0
230
1.0
 70
     8
 71
     3
 72
    11
 73
     7
 74
     0
 42
0.00000001
 43
0.0000000001
 40
0.0
 40
0.0
 40
0.0
 40
0.0
 40
0.0915670858904972
 40
0.15086153874062
 40
0.4456170982851136
 40
1.0
 40
1.0
 40
1.0
 40
1.0
 10
423.3921763952866
 20
451.0171661548235
 30
0.0
 10
423.3394566856209
 20
451.0238161576225
 30
0.0
 10
423.2525982206517
 20
451.03477238327
 30
0.0
 10
423.056922726854
 20
451.0648434834314
 30
0.0
 10
422.6870076109022
 20
451.1232853345689
 30
0.0
 10
422.5625713063463
 20
451.1455828914954
 30
0.0
 10
422.4813297153155
 20
451.160140451745
 30
0.0
  0
SPLINE
  5
2C7
330
1F
100
AcDbEntity
  8
DIMENSION
100
AcDbSpline
210
0.0
220
0.0
230
1.0
 70
     8
 71
     3
 72
    17
 73
    13
 74
     0
 42
0.00000001
 43
0.0000000001
 40
0.0
 40
0.0
 40
0.0
 40
0.0
 40
0.10805065920961
 40
0.2844504946189634
 40
0.4407743350716647
 40
0.4437593683030979
 40
0.4661762728841688
 40
0.6060310177917151
 40
0.6244258575351034
 40
0.7365719143744395
 40
0.8724219555829655
 40
1.0
 40
1.0
 40
1.0
 40
1.0
 10
422.494189692696
 20
451.1572537682651
 30
0.0
 10
422.4921840494134
 20
451.1571819231298
 30
0.0
 10
422.4869040610467
 20
451.1569927860673
 30
0.0
 10
422.8061066940942
 20
451.1000307722512
 30
0.0
 10
423.1907246165901
 20
451.0386274713402
 30
0.0
 10
423.4396098839546
 20
451.0030307223921
 30
0.0
 10
423.6712326197253
 20
450.9704279137855
 30
0.0
 10
423.9629872459475
 20
450.934115707046
 30
0.0
 10
424.4396743072432
 20
450.8834237079453
 30
0.0
 10
424.9434342072381
 20
450.8380824360058
 30
0.0
 10
425.7191479203278
 20
450.7920412805993
 30
0.0
 10
426.2875050506782
 20
450.7854981196076
 30
0.0
 10
426.5627600260478
 20
450.7823292711471
 30
0.0
  0
SPLINE
  5
2C8
330
1F
100
AcDbEntity
  8
DIMENSION
100
AcDbSpline
210
0.0
220
0.0
230
1.0
 70
     8
 71
     3
 72
    17
 73
    13
 74
     0
 42
0.00000001
 43
0.0000000001
 40
0.0
 40
0.0
 40
0.0
 40
0.0
 40
0.0884044405913515
 40
0.1824696412452633
 40
0.2811002733522299
 40
0.383510244951448
 40
0.4885767659065814
 40
0.594867198729763
 40
0.7007439718722008
 40
0.8045310439349943
 40
0.9046964987296208
 40
1.0
 40
1.0
 40
1.0
 40
1.0
 10
434.1634141925021
 20
406.1649351209502
 30
0.0
 10
434.1818497229712
 20
406.2118283000272
 30
0.0
 10
434.2199012575822
 20
406.3086173471135
 30
0.0
 10
434.5365797919877
 20
407.1300832367493
 30
0.0
 10
435.0661607956936
 20
408.5062092953056
 30
0.0
 10
435.8286294879288
 20
410.4892220767974
 30
0.0
 10
436.799432439625
 20
413.0153130040869
 30
0.0
 10
437.9422519216145
 20
415.9900054537379
 30
0.0
 10
439.2046984418339
 20
419.2769082183386
 30
0.0
 10
440.5281030698069
 20
422.723238028962
 30
0.0
 10
441.8560383301775
 20
426.1819345912254
 30
0.0
 10
442.734469279587
 20
428.4703218052208
 30
0.0
 10
443.1627600260477
 20
429.5860555674845
 30
0.0
  0
LINE
  5
2C9
330
1F
100
AcDbEntity
  8
DIMENSION
100
AcDbLine
 10
416.1627600260709
 20
428.6403364026691
 30
0.0
 11
416.1627600260709
 21
451.0632425952441
 31
0.0
  0
LINE
  5
2CA
330
1F
100
AcDbEntity
  8
DIMENSION
100
AcDbLine
 10
416.1627600260709
 20
406.2632425952441
 30
0.0
 11
416.1627600260709
 21
428.6403364026691
 31
0.0
  0
DIMENSION
  5
2CB
102
{ACAD_XDICTIONARY
360
3EC
102
}
330
1F
100
AcDbEntity
  8
DIMENSION
100
AcDbDimension
280
     0
  2
*D24
 10
393.139096751221
 20
406.1632425953193
 30
0.0
 11
393.139096751221
 21
446.0697420508691
 31
0.0
 70
   160
  1
<>
 71
     2
 42
84.99983446709995
 73
     0
 74
     0
 75
     0
  3
RG Dimension Lines
100
AcDbAlignedDimension
 13
426.5627600259709
 23
491.163077062419
 33
0.0
 14
416.262760025996
 24
406.1632425953191
 34
0.0
 50
90.0
100
AcDbRotatedDimension
1001
AcadAnnotative
1000
AnnotativeData
1002
{
1070
     1
1070
     1
1002
}
  0
DIMENSION
  5
2CC
102
{ACAD_XDICTIONARY
360
3DE
102
}
330
1F
100
AcDbEntity
  8
DIMENSION
100
AcDbDimension
280
     0
  2
*D23
 10
518.262760025971
 20
333.1287777508941
 30
0.0
 11
488.963192429721
 21
333.1287777508941
 31
0.0
 70
   160
  1
%%c<>
 71
     2
 42
53.99999999992508
 73
     0
 74
     0
 75
     0
  3
RG Dimension Lines
100
AcDbAlignedDimension
 13
464.262760026046
 23
361.1287777508942
 33
0.0
 14
518.262760025971
 24
361.1287777508942
 34
0.0
100
AcDbRotatedDimension
1001
AcadAnnotative
1000
AnnotativeData
1002
{
1070
     1
1070
     1
1002
}
  0
DIMENSION
  5
2CD
102
{ACAD_XDICTIONARY
360
3D0
102
}
330
1F
100
AcDbEntity
  8
DIMENSION
100
AcDbDimension
280
     0
  2
*D22
 10
564.162760026021
 20
361.1287777508942
 30
0.0
 11
564.162760026021
 21
404.1169605407191
 31
0.0
 70
   160
  1
<>
 71
     2
 42
90.03324958075001
 73
     0
 74
     0
 75
     0
  3
RG Dimension Lines
100
AcDbAlignedDimension
 13
536.162760026021
 23
451.1620273316441
 33
0.0
 14
518.262760025971
 24
361.1287777508942
 34
0.0
 50
90.0
100
AcDbRotatedDimension
1001
AcadAnnotative
1000
AnnotativeData
1002
{
1070
     1
1070
     1
1002
}
  0
DIMENSION
  5
43F
102
{ACAD_XDICTIONARY
360
457
102
}
330
1F
100
AcDbEntity
  8
DIMENSION
100
AcDbDimension
280
     0
  2
*D31
 10
548.5473382832179
 20
428.6620273316318
 30
0.0
 11
559.2140049498844
 21
394.8954025412628
 31
0.0
 70
    32
 71
     5
 42
67.53324958073751
 73
     0
 74
     0
 75
     0
  3
RG Dimension Lines
100
AcDbAlignedDimension
 13
491.2627600260084
 23
361.1287777508942
 33
0.0
 14
536.162760026021
 24
428.6620273316315
 34
0.0
 50
90.0
100
AcDbRotatedDimension
1001
AcadAnnotative
1000
AnnotativeData
1002
{
1070
     1
1070
     1
1002
}
  0
DIMENSION
  5
45C
102
{ACAD_XDICTIONARY
360
474
102
}
330
1F
100
AcDbEntity
  8
DIMENSION
100
AcDbDimension
280
     0
  2
*D33
 10
118.0716680202396
 20
657.8958426390693
 30
0.0
 11
107.4050013535731
 21
695.4458426390816
 31
0.0
 70
    32
 71
     5
 42
75.10000000002492
 73
     0
 74
     0
 75
     0
  3
RG Dimension Lines
100
AcDbAlignedDimension
 13
158.313550018171
 23
732.9958426390939
 33
0.0
 14
158.313550018171
 24
657.895842639069
 34
0.0
 50
90.0
100
AcDbRotatedDimension
1001
AcadAnnotative
1000
AnnotativeData
1002
{
1070
     1
1070
     1
1002
}
  0
ENDSEC
  0
SECTION
  2
OBJECTS
  0
DICTIONARY
  5
C
330
0
100
AcDbDictionary
281
     1
  3
ACAD_CIP_PREVIOUS_PRODUCT_INFO
350
17D
  3
ACAD_COLOR
350
172
  3
ACAD_DETAILVIEWSTYLE
350
179
  3
ACAD_GROUP
350
D
  3
ACAD_LAYOUT
350
1A
  3
ACAD_MATERIAL
350
140
  3
ACAD_MLEADERSTYLE
350
175
  3
ACAD_MLINESTYLE
350
17
  3
ACAD_PLOTSETTINGS
350
19
  3
ACAD_PLOTSTYLENAME
350
E
  3
ACAD_SCALELIST
350
47
  3
ACAD_SECTIONVIEWSTYLE
350
177
  3
ACAD_TABLESTYLE
350
173
  3
ACAD_VISUALSTYLE
350
159
  3
ACDB_RECOMPOSE_DATA
350
492
  3
AcDbVariableDictionary
350
1AC
  0
DICTIONARY
  5
191
330
2
100
AcDbDictionary
280
     1
281
     1
  3
ACAD_LAYERSTATES
360
192
  0
DICTIONARY
  5
436
330
10
100
AcDbDictionary
280
     1
281
     1
  3
ADSK_XREC_LAYER_RECONCILED
360
437
  0
DICTIONARY
  5
438
330
73
100
AcDbDictionary
280
     1
281
     1
  3
ADSK_XREC_LAYER_RECONCILED
360
439
  0
DICTIONARY
  5
43A
330
189
100
AcDbDictionary
280
     1
281
     1
  3
ADSK_XREC_LAYER_RECONCILED
360
43B
  0
DICTIONARY
  5
432
330
269
100
AcDbDictionary
280
     1
281
     1
  3
AcDbContextDataManager
360
433
  0
DICTIONARY
  5
424
330
26A
100
AcDbDictionary
280
     1
281
     1
  3
AcDbContextDataManager
360
425
  0
DICTIONARY
  5
416
330
26B
100
AcDbDictionary
280
     1
281
     1
  3
AcDbContextDataManager
360
417
  0
DICTIONARY
  5
408
330
291
100
AcDbDictionary
280
     1
281
     1
  3
AcDbContextDataManager
360
409
  0
DICTIONARY
  5
3FA
330
292
100
AcDbDictionary
280
     1
281
     1
  3
AcDbContextDataManager
360
3FB
  0
DICTIONARY
  5
3EC
330
2CB
100
AcDbDictionary
280
     1
281
     1
  3
AcDbContextDataManager
360
3ED
  0
DICTIONARY
  5
3DE
330
2CC
100
AcDbDictionary
280
     1
281
     1
  3
AcDbContextDataManager
360
3DF
  0
DICTIONARY
  5
3D0
330
2CD
100
AcDbDictionary
280
     1
281
     1
  3
AcDbContextDataManager
360
3D1
  0
DICTIONARY
  5
457
330
43F
100
AcDbDictionary
280
     1
281
     1
  3
AcDbContextDataManager
360
458
  0
DICTIONARY
  5
474
330
45C
100
AcDbDictionary
280
     1
281
     1
  3
AcDbContextDataManager
360
475
  0
XRECORD
  5
17D
102
{ACAD_REACTORS
330
C
102
}
330
C
100
AcDbXrecord
280
     1
300
ACD
300
2021
300

  0
DICTIONARY
  5
172
102
{ACAD_REACTORS
330
C
102
}
330
C
100
AcDbDictionary
281
     1
  0
DICTIONARY
  5
179
102
{ACAD_REACTORS
330
C
102
}
330
C
100
AcDbDictionary
281
     1
  3
Metric50
350
17A
  0
DICTIONARY
  5
D
102
{ACAD_REACTORS
330
C
102
}
330
C
100
AcDbDictionary
281
     1
  0
DICTIONARY
  5
1A
102
{ACAD_REACTORS
330
C
102
}
330
C
100
AcDbDictionary
281
     1
  3
Layout1
350
1E
  3
Layout2
350
26
  3
Model
350
22
  0
DICTIONARY
  5
140
102
{ACAD_REACTORS
330
C
102
}
330
C
100
AcDbDictionary
281
     1
  3
ByBlock
350
149
  3
ByLayer
350
141
  3
Global
350
151
  0
DICTIONARY
  5
175
102
{ACAD_REACTORS
330
C
102
}
330
C
100
AcDbDictionary
281
     1
  3
Standard
350
176
  0
DICTIONARY
  5
17
102
{ACAD_REACTORS
330
C
102
}
330
C
100
AcDbDictionary
281
     1
  3
Standard
350
18
  0
DICTIONARY
  5
19
102
{ACAD_REACTORS
330
C
102
}
330
C
100
AcDbDictionary
281
     1
  0
ACDBDICTIONARYWDFLT
  5
E
102
{ACAD_REACTORS
330
C
102
}
330
C
100
AcDbDictionary
281
     1
  3
Normal
350
F
100
AcDbDictionaryWithDefault
340
F
  0
DICTIONARY
  5
47
102
{ACAD_REACTORS
330
C
102
}
330
C
100
AcDbDictionary
281
     1
  3
A0
350
48
  3
A1
350
49
  3
A2
350
4A
  3
A3
350
4B
  3
A4
350
4C
  3
A5
350
4D
  3
A6
350
4E
  3
A7
350
4F
  3
A8
350
50
  3
A9
350
51
  3
B0
350
52
  3
B1
350
53
  3
B2
350
54
  3
B3
350
55
  3
B4
350
56
  3
B5
350
57
  3
B6
350
58
  3
B7
350
59
  3
B8
350
5A
  3
B9
350
5B
  3
C0
350
5C
  3
C1
350
5D
  3
C2
350
5E
  3
C3
350
5F
  3
C4
350
60
  3
C5
350
61
  3
C6
350
62
  3
C7
350
63
  3
C8
350
64
  3
C9
350
65
  3
D0
350
66
  3
D1
350
67
  3
D2
350
68
  0
DICTIONARY
  5
177
102
{ACAD_REACTORS
330
C
102
}
330
C
100
AcDbDictionary
281
     1
  3
Metric50
350
178
  0
DICTIONARY
  5
173
102
{ACAD_REACTORS
330
C
102
}
330
C
100
AcDbDictionary
281
     1
  3
Standard
350
174
  0
DICTIONARY
  5
159
102
{ACAD_REACTORS
330
C
102
}
330
C
100
AcDbDictionary
281
     1
  3
2dWireframe
350
15F
  3
Basic
350
15E
  3
Brighten
350
165
  3
ColorChange
350
169
  3
Conceptual
350
162
  3
Dim
350
164
  3
EdgeColorOff
350
171
  3
Facepattern
350
168
  3
Flat
350
15A
  3
FlatWithEdges
350
15B
  3
Gouraud
350
15C
  3
GouraudWithEdges
350
15D
  3
Hidden
350
161
  3
JitterOff
350
16F
  3
Linepattern
350
167
  3
OverhangOff
350
170
  3
Realistic
350
163
  3
Shaded
350
16E
  3
Shaded with edges
350
16D
  3
Shades of Gray
350
16A
  3
Sketchy
350
16B
  3
Thicken
350
166
  3
Wireframe
350
160
  3
X-Ray
350
16C
  0
XRECORD
  5
492
102
{ACAD_REACTORS
330
C
102
}
330
C
100
AcDbXrecord
280
     1
 90
        1
330
174
  0
DICTIONARY
  5
1AC
102
{ACAD_REACTORS
330
C
102
}
330
C
100
AcDbDictionary
281
     1
  3
CANNOSCALE
350
1B2
  3
CMLEADERSTYLE
350
1AE
  3
CTABLESTYLE
350
1AD
  3
CVIEWDETAILSTYLE
350
1AF
  3
CVIEWSECTIONSTYLE
350
1B0
  3
LAYEREVAL
350
1B4
  3
LAYERNOTIFY
350
1B5
  3
LIGHTINGUNITS
350
1B3
  3
MSLTSCALE
350
1B1
  0
DICTIONARY
  5
192
102
{ACAD_REACTORS
330
191
102
}
330
191
100
AcDbDictionary
281
     1
  0
XRECORD
  5
437
102
{ACAD_REACTORS
330
436
102
}
330
436
100
AcDbXrecord
280
     1
290
     1
  0
XRECORD
  5
439
102
{ACAD_REACTORS
330
438
102
}
330
438
100
AcDbXrecord
280
     1
290
     1
  0
XRECORD
  5
43B
102
{ACAD_REACTORS
330
43A
102
}
330
43A
100
AcDbXrecord
280
     1
290
     1
  0
DICTIONARY
  5
433
102
{ACAD_REACTORS
330
432
102
}
330
432
100
AcDbDictionary
281
     1
  3
ACDB_ANNOTATIONSCALES
350
434
  0
DICTIONARY
  5
425
102
{ACAD_REACTORS
330
424
102
}
330
424
100
AcDbDictionary
281
     1
  3
ACDB_ANNOTATIONSCALES
350
426
  0
DICTIONARY
  5
417
102
{ACAD_REACTORS
330
416
102
}
330
416
100
AcDbDictionary
281
     1
  3
ACDB_ANNOTATIONSCALES
350
418
  0
DICTIONARY
  5
409
102
{ACAD_REACTORS
330
408
102
}
330
408
100
AcDbDictionary
281
     1
  3
ACDB_ANNOTATIONSCALES
350
40A
  0
DICTIONARY
  5
3FB
102
{ACAD_REACTORS
330
3FA
102
}
330
3FA
100
AcDbDictionary
281
     1
  3
ACDB_ANNOTATIONSCALES
350
3FC
  0
DICTIONARY
  5
3ED
102
{ACAD_REACTORS
330
3EC
102
}
330
3EC
100
AcDbDictionary
281
     1
  3
ACDB_ANNOTATIONSCALES
350
3EE
  0
DICTIONARY
  5
3DF
102
{ACAD_REACTORS
330
3DE
102
}
330
3DE
100
AcDbDictionary
281
     1
  3
ACDB_ANNOTATIONSCALES
350
3E0
  0
DICTIONARY
  5
3D1
102
{ACAD_REACTORS
330
3D0
102
}
330
3D0
100
AcDbDictionary
281
     1
  3
ACDB_ANNOTATIONSCALES
350
3D2
  0
DICTIONARY
  5
458
102
{ACAD_REACTORS
330
457
102
}
330
457
100
AcDbDictionary
281
     1
  3
ACDB_ANNOTATIONSCALES
350
459
  0
DICTIONARY
  5
475
102
{ACAD_REACTORS
330
474
102
}
330
474
100
AcDbDictionary
281
     1
  3
ACDB_ANNOTATIONSCALES
350
476
  0
ACDBDETAILVIEWSTYLE
  5
17A
102
{ACAD_REACTORS
330
179
102
}
330
179
100
AcDbModelDocViewStyle
 70
     0
  3
Metric50
290
     0
300
Metric50
 90
        0
100
AcDbDetailViewStyle
 70
     0
 71
     0
 90
        3
 71
     1
340
11
 62
   256
 40
5.0
340
0
 62
   256
 40
5.0
300

 40
0.0
280
     1
 71
     2
340
16
 90
       25
 62
   256
 71
     3
340
11
 62
   256
 40
5.0
 90
        0
 40
15.0
 90
        1
300
%<\AcVar ViewDetailId>% (%<\AcVar ViewScale \f "%sn">%)
 71
     4
340
16
 90
       25
 62
   256
340
16
 90
       25
 62
   256
280
     0
  0
LAYOUT
  5
1E
102
{ACAD_REACTORS
330
1A
102
}
330
1A
100
AcDbPlotSettings
  1

  2
none_device
  4

  6

 40
0.0
 41
0.0
 42
0.0
 43
0.0
 44
0.0
 45
0.0
 46
0.0
 47
0.0
 48
0.0
 49
0.0
140
0.0
141
0.0
142
1.0
143
1.0
 70
   688
 72
     1
 73
     0
 74
     5
  7

 75
    16
147
1.0
 76
     0
 77
     2
 78
   300
148
0.0
149
0.0
100
AcDbLayout
  1
Layout1
 70
     1
 71
     1
 10
0.0
 20
0.0
 11
420.0
 21
297.0
 12
0.0
 22
0.0
 32
0.0
 14
1.000000000000000E+20
 24
1.000000000000000E+20
 34
1.000000000000000E+20
 15
-1.000000000000000E+20
 25
-1.000000000000000E+20
 35
-1.000000000000000E+20
146
0.0
 13
0.0
 23
0.0
 33
0.0
 16
1.0
 26
0.0
 36
0.0
 17
0.0
 27
1.0
 37
0.0
 76
     0
330
1B
  0
LAYOUT
  5
26
102
{ACAD_REACTORS
330
1A
102
}
330
1A
100
AcDbPlotSettings
  1

  2
none_device
  4

  6

 40
0.0
 41
0.0
 42
0.0
 43
0.0
 44
0.0
 45
0.0
 46
0.0
 47
0.0
 48
0.0
 49
0.0
140
0.0
141
0.0
142
1.0
143
1.0
 70
   688
 72
     1
 73
     0
 74
     5
  7

 75
    16
147
1.0
 76
     0
 77
     2
 78
   300
148
0.0
149
0.0
100
AcDbLayout
  1
Layout2
 70
     1
 71
     2
 10
0.0
 20
0.0
 11
0.0
 21
0.0
 12
0.0
 22
0.0
 32
0.0
 14
0.0
 24
0.0
 34
0.0
 15
0.0
 25
0.0
 35
0.0
146
0.0
 13
0.0
 23
0.0
 33
0.0
 16
1.0
 26
0.0
 36
0.0
 17
0.0
 27
1.0
 37
0.0
 76
     0
330
23
  0
LAYOUT
  5
22
102
{ACAD_REACTORS
330
1A
102
}
330
1A
100
AcDbPlotSettings
  1

  2
none_device
  4
Letter_(8.50_x_11.00_Inches)
  6

 40
6.349999999999999
 41
6.349999999999999
 42
6.350005079999999
 43
6.350005079999999
 44
215.9
 45
279.4
 46
0.0
 47
0.0
 48
0.0
 49
0.0
140
0.0
141
0.0
142
1.0
143
1.0
 70
  1712
 72
     1
 73
     0
 74
     0
  7

 75
     0
147
1.0
 76
     0
 77
     2
 78
   300
148
0.0
149
0.0
100
AcDbLayout
  1
Model
 70
     1
 71
     0
 10
0.0
 20
0.0
 11
420.0
 21
297.0
 12
0.0
 22
0.0
 32
0.0
 14
0.0
 24
0.0
 34
0.0
 15
420.0
 25
297.0
 35
0.0
146
0.0
 13
0.0
 23
0.0
 33
0.0
 16
1.0
 26
0.0
 36
0.0
 17
0.0
 27
1.0
 37
0.0
 76
     0
330
1F
331
29
  0
MATERIAL
  5
149
102
{ACAD_XDICTIONARY
360
14A
102
}
102
{ACAD_REACTORS
330
140
102
}
330
140
100
AcDbMaterial
  1
ByBlock
 72
     0
 43
0.0008202099737533
 43
0.0
 43
0.0
 43
0.0
 43
0.0
 43
0.0008202099737533
 43
0.0
 43
0.0
 43
0.0
 43
0.0
 43
1.0
 43
0.0
 43
0.0
 43
0.0
 43
0.0
 43
1.0
 77
     0
 47
0.0008202099737533
 47
0.0
 47
0.0
 47
0.0
 47
0.0
 47
0.0008202099737533
 47
0.0
 47
0.0
 47
0.0
 47
0.0
 47
1.0
 47
0.0
 47
0.0
 47
0.0
 47
0.0
 47
1.0
171
     0
 49
0.0008202099737533
 49
0.0
 49
0.0
 49
0.0
 49
0.0
 49
0.0008202099737533
 49
0.0
 49
0.0
 49
0.0
 49
0.0
 49
1.0
 49
0.0
 49
0.0
 49
0.0
 49
0.0
 49
1.0
175
     0
142
0.0008202099737533
142
0.0
142
0.0
142
0.0
142
0.0
142
0.0008202099737533
142
0.0
142
0.0
142
0.0
142
0.0
142
1.0
142
0.0
142
0.0
142
0.0
142
0.0
142
1.0
179
     0
144
0.0008202099737533
144
0.0
144
0.0
144
0.0
144
0.0
144
0.0008202099737533
144
0.0
144
0.0
144
0.0
144
0.0
144
1.0
144
0.0
144
0.0
144
0.0
144
0.0
144
1.0
147
0.0008202099737533
147
0.0
147
0.0
147
0.0
147
0.0
147
0.0008202099737533
147
0.0
147
0.0
147
0.0
147
0.0
147
1.0
147
0.0
147
0.0
147
0.0
147
0.0
147
1.0
  0
MATERIAL
  5
141
102
{ACAD_XDICTIONARY
360
142
102
}
102
{ACAD_REACTORS
330
140
102
}
330
140
100
AcDbMaterial
  1
ByLayer
 72
     0
 43
0.0008202099737533
 43
0.0
 43
0.0
 43
0.0
 43
0.0
 43
0.0008202099737533
 43
0.0
 43
0.0
 43
0.0
 43
0.0
 43
1.0
 43
0.0
 43
0.0
 43
0.0
 43
0.0
 43
1.0
 77
     0
 47
0.0008202099737533
 47
0.0
 47
0.0
 47
0.0
 47
0.0
 47
0.0008202099737533
 47
0.0
 47
0.0
 47
0.0
 47
0.0
 47
1.0
 47
0.0
 47
0.0
 47
0.0
 47
0.0
 47
1.0
171
     0
 49
0.0008202099737533
 49
0.0
 49
0.0
 49
0.0
 49
0.0
 49
0.0008202099737533
 49
0.0
 49
0.0
 49
0.0
 49
0.0
 49
1.0
 49
0.0
 49
0.0
 49
0.0
 49
0.0
 49
1.0
175
     0
142
0.0008202099737533
142
0.0
142
0.0
142
0.0
142
0.0
142
0.0008202099737533
142
0.0
142
0.0
142
0.0
142
0.0
142
1.0
142
0.0
142
0.0
142
0.0
142
0.0
142
1.0
179
     0
144
0.0008202099737533
144
0.0
144
0.0
144
0.0
144
0.0
144
0.0008202099737533
144
0.0
144
0.0
144
0.0
144
0.0
144
1.0
144
0.0
144
0.0
144
0.0
144
0.0
144
1.0
147
0.0008202099737533
147
0.0
147
0.0
147
0.0
147
0.0
147
0.0008202099737533
147
0.0
147
0.0
147
0.0
147
0.0
147
1.0
147
0.0
147
0.0
147
0.0
147
0.0
147
1.0
  0
MATERIAL
  5
151
102
{ACAD_XDICTIONARY
360
152
102
}
102
{ACAD_REACTORS
330
140
102
}
330
140
100
AcDbMaterial
  1
Global
 72
     0
 43
0.0008202099737533
 43
0.0
 43
0.0
 43
0.0
 43
0.0
 43
0.0008202099737533
 43
0.0
 43
0.0
 43
0.0
 43
0.0
 43
1.0
 43
0.0
 43
0.0
 43
0.0
 43
0.0
 43
1.0
 77
     0
 47
0.0008202099737533
 47
0.0
 47
0.0
 47
0.0
 47
0.0
 47
0.0008202099737533
 47
0.0
 47
0.0
 47
0.0
 47
0.0
 47
1.0
 47
0.0
 47
0.0
 47
0.0
 47
0.0
 47
1.0
171
     0
 49
0.0008202099737533
 49
0.0
 49
0.0
 49
0.0
 49
0.0
 49
0.0008202099737533
 49
0.0
 49
0.0
 49
0.0
 49
0.0
 49
1.0
 49
0.0
 49
0.0
 49
0.0
 49
0.0
 49
1.0
175
     0
142
0.0008202099737533
142
0.0
142
0.0
142
0.0
142
0.0
142
0.0008202099737533
142
0.0
142
0.0
142
0.0
142
0.0
142
1.0
142
0.0
142
0.0
142
0.0
142
0.0
142
1.0
179
     0
144
0.0008202099737533
144
0.0
144
0.0
144
0.0
144
0.0
144
0.0008202099737533
144
0.0
144
0.0
144
0.0
144
0.0
144
1.0
144
0.0
144
0.0
144
0.0
144
0.0
144
1.0
147
0.0008202099737533
147
0.0
147
0.0
147
0.0
147
0.0
147
0.0008202099737533
147
0.0
147
0.0
147
0.0
147
0.0
147
1.0
147
0.0
147
0.0
147
0.0
147
0.0
147
1.0
  0
MLEADERSTYLE
  5
176
102
{ACAD_REACTORS
330
175
102
}
330
175
100
AcDbMLeaderStyle
179
     2
170
     2
171
     1
172
     0
 90
        2
 40
0.0
 41
0.0
173
     1
 91
-1056964608
340
14
 92
       -2
290
     1
 42
2.0
291
     1
 43
0.36
  3
Standard
 44
4.0
300

342
11
174
     1
178
     6
175
     1
176
     0
 93
-1056964608
 45
4.0
292
     0
297
     0
 46
4.0
 94
-1056964608
 47
1.0
 49
1.0
140
1.0
293
     1
141
0.0
294
     1
177
     0
142
1.0
295
     0
296
     0
143
0.125
271
     0
272
     9
273
     9
298
     0
  0
MLINESTYLE
  5
18
102
{ACAD_REACTORS
330
17
102
}
330
17
100
AcDbMlineStyle
  2
STANDARD
 70
     0
  3

 62
   256
 51
90.0
 52
90.0
 71
     2
 49
0.5
 62
   256
  6
BYLAYER
 49
-0.5
 62
   256
  6
BYLAYER
  0
ACDBPLACEHOLDER
  5
F
102
{ACAD_REACTORS
330
E
102
}
330
E
  0
SCALE
  5
48
102
{ACAD_REACTORS
330
47
102
}
330
47
100
AcDbScale
 70
     0
300
1:1
140
1.0
141
1.0
290
     1
  0
SCALE
  5
49
102
{ACAD_REACTORS
330
47
102
}
330
47
100
AcDbScale
 70
     0
300
1:2
140
1.0
141
2.0
290
     0
  0
SCALE
  5
4A
102
{ACAD_REACTORS
330
47
102
}
330
47
100
AcDbScale
 70
     0
300
1:4
140
1.0
141
4.0
290
     0
  0
SCALE
  5
4B
102
{ACAD_REACTORS
330
47
102
}
330
47
100
AcDbScale
 70
     0
300
1:5
140
1.0
141
5.0
290
     0
  0
SCALE
  5
4C
102
{ACAD_REACTORS
330
47
102
}
330
47
100
AcDbScale
 70
     0
300
1:8
140
1.0
141
8.0
290
     0
  0
SCALE
  5
4D
102
{ACAD_REACTORS
330
47
102
}
330
47
100
AcDbScale
 70
     0
300
1:10
140
1.0
141
10.0
290
     0
  0
SCALE
  5
4E
102
{ACAD_REACTORS
330
47
102
}
330
47
100
AcDbScale
 70
     0
300
1:16
140
1.0
141
16.0
290
     0
  0
SCALE
  5
4F
102
{ACAD_REACTORS
330
47
102
}
330
47
100
AcDbScale
 70
     0
300
1:20
140
1.0
141
20.0
290
     0
  0
SCALE
  5
50
102
{ACAD_REACTORS
330
47
102
}
330
47
100
AcDbScale
 70
     0
300
1:30
140
1.0
141
30.0
290
     0
  0
SCALE
  5
51
102
{ACAD_REACTORS
330
47
102
}
330
47
100
AcDbScale
 70
     0
300
1:40
140
1.0
141
40.0
290
     0
  0
SCALE
  5
52
102
{ACAD_REACTORS
330
47
102
}
330
47
100
AcDbScale
 70
     0
300
1:50
140
1.0
141
50.0
290
     0
  0
SCALE
  5
53
102
{ACAD_REACTORS
330
47
102
}
330
47
100
AcDbScale
 70
     0
300
1:100
140
1.0
141
100.0
290
     0
  0
SCALE
  5
54
102
{ACAD_REACTORS
330
47
102
}
330
47
100
AcDbScale
 70
     0
300
2:1
140
2.0
141
1.0
290
     0
  0
SCALE
  5
55
102
{ACAD_REACTORS
330
47
102
}
330
47
100
AcDbScale
 70
     0
300
4:1
140
4.0
141
1.0
290
     0
  0
SCALE
  5
56
102
{ACAD_REACTORS
330
47
102
}
330
47
100
AcDbScale
 70
     0
300
8:1
140
8.0
141
1.0
290
     0
  0
SCALE
  5
57
102
{ACAD_REACTORS
330
47
102
}
330
47
100
AcDbScale
 70
     0
300
10:1
140
10.0
141
1.0
290
     0
  0
SCALE
  5
58
102
{ACAD_REACTORS
330
47
102
}
330
47
100
AcDbScale
 70
     0
300
100:1
140
100.0
141
1.0
290
     0
  0
SCALE
  5
59
102
{ACAD_REACTORS
330
47
102
}
330
47
100
AcDbScale
 70
     0
300
1/128" = 1'-0"
140
0.0078125
141
12.0
290
     0
  0
SCALE
  5
5A
102
{ACAD_REACTORS
330
47
102
}
330
47
100
AcDbScale
 70
     0
300
1/64" = 1'-0"
140
0.015625
141
12.0
290
     0
  0
SCALE
  5
5B
102
{ACAD_REACTORS
330
47
102
}
330
47
100
AcDbScale
 70
     0
300
1/32" = 1'-0"
140
0.03125
141
12.0
290
     0
  0
SCALE
  5
5C
102
{ACAD_REACTORS
330
47
102
}
330
47
100
AcDbScale
 70
     0
300
1/16" = 1'-0"
140
0.0625
141
12.0
290
     0
  0
SCALE
  5
5D
102
{ACAD_REACTORS
330
47
102
}
330
47
100
AcDbScale
 70
     0
300
3/32" = 1'-0"
140
0.09375
141
12.0
290
     0
  0
SCALE
  5
5E
102
{ACAD_REACTORS
330
47
102
}
330
47
100
AcDbScale
 70
     0
300
1/8" = 1'-0"
140
0.125
141
12.0
290
     0
  0
SCALE
  5
5F
102
{ACAD_REACTORS
330
47
102
}
330
47
100
AcDbScale
 70
     0
300
3/16" = 1'-0"
140
0.1875
141
12.0
290
     0
  0
SCALE
  5
60
102
{ACAD_REACTORS
330
47
102
}
330
47
100
AcDbScale
 70
     0
300
1/4" = 1'-0"
140
0.25
141
12.0
290
     0
  0
SCALE
  5
61
102
{ACAD_REACTORS
330
47
102
}
330
47
100
AcDbScale
 70
     0
300
3/8" = 1'-0"
140
0.375
141
12.0
290
     0
  0
SCALE
  5
62
102
{ACAD_REACTORS
330
47
102
}
330
47
100
AcDbScale
 70
     0
300
1/2" = 1'-0"
140
0.5
141
12.0
290
     0
  0
SCALE
  5
63
102
{ACAD_REACTORS
330
47
102
}
330
47
100
AcDbScale
 70
     0
300
3/4" = 1'-0"
140
0.75
141
12.0
290
     0
  0
SCALE
  5
64
102
{ACAD_REACTORS
330
47
102
}
330
47
100
AcDbScale
 70
     0
300
1" = 1'-0"
140
1.0
141
12.0
290
     0
  0
SCALE
  5
65
102
{ACAD_REACTORS
330
47
102
}
330
47
100
AcDbScale
 70
     0
300
1-1/2" = 1'-0"
140
1.5
141
12.0
290
     0
  0
SCALE
  5
66
102
{ACAD_REACTORS
330
47
102
}
330
47
100
AcDbScale
 70
     0
300
3" = 1'-0"
140
3.0
141
12.0
290
     0
  0
SCALE
  5
67
102
{ACAD_REACTORS
330
47
102
}
330
47
100
AcDbScale
 70
     0
300
6" = 1'-0"
140
6.0
141
12.0
290
     0
  0
SCALE
  5
68
102
{ACAD_REACTORS
330
47
102
}
330
47
100
AcDbScale
 70
     0
300
1'-0" = 1'-0"
140
12.0
141
12.0
290
     0
  0
ACDBSECTIONVIEWSTYLE
  5
178
102
{ACAD_REACTORS
330
177
102
}
330
177
100
AcDbModelDocViewStyle
 70
     0
  3
Metric50
290
     0
300
Metric50
 90
        0
100
AcDbSectionViewStyle
 70
     0
 71
     0
 90
      102
 71
     1
340
11
 62
   256
 40
5.0
340
0
340
0
 62
   256
 40
5.0
300
I, O, Q, S, X, Z
 40
10.0
 90
        0
 40
2.5
 90
        0
 71
     2
340
16
 90
       25
 62
   256
340
16
 90
       50
 62
   256
 40
5.0
 40
2.5
 40
5.0
 71
     3
340
11
 62
   256
 40
5.0
 90
        0
 40
15.0
 90
        1
300
%<\AcVar ViewSectionStartId>%-%<\AcVar ViewSectionEndId>% (%<\AcVar ViewScale \f "%sn">%)
 71
     4
 62
   256
 62
   257
300
ANSI31
 40
1.0
 90
        0
290
     0
290
     0
 90
        6
 40
0.0
 40
1.570796326794896
 40
0.2617993877991494
 40
1.308996938995747
 40
-0.2617993877991494
 40
1.832595714594046
  0
TABLESTYLE
  5
174
102
{ACAD_XDICTIONARY
360
490
102
}
102
{ACAD_REACTORS
330
173
102
}
330
173
100
AcDbTableStyle
280
     0
  3
Standard
 70
     0
 71
     0
 40
1.5
 41
1.5
280
     0
281
     0
  7
Standard
140
4.5
170
     2
 62
     0
 63
     7
283
     0
 90
      512
 91
        0
  1

274
    -2
284
     1
 64
     0
275
    -2
285
     1
 65
     0
276
    -2
286
     1
 66
     0
277
    -2
287
     1
 67
     0
278
    -2
288
     1
 68
     0
279
    -2
289
     1
 69
     0
  7
Standard
140
6.0
170
     5
 62
     0
 63
     7
283
     0
 90
      512
 91
        0
  1

274
    -2
284
     1
 64
     0
275
    -2
285
     1
 65
     0
276
    -2
286
     1
 66
     0
277
    -2
287
     1
 67
     0
278
    -2
288
     1
 68
     0
279
    -2
289
     1
 69
     0
  7
Standard
140
4.5
170
     5
 62
     0
 63
     7
283
     0
 90
      512
 91
        0
  1

274
    -2
284
     1
 64
     0
275
    -2
285
     1
 65
     0
276
    -2
286
     1
 66
     0
277
    -2
287
     1
 67
     0
278
    -2
288
     1
 68
     0
279
    -2
289
     1
 69
     0
  0
VISUALSTYLE
  5
15F
102
{ACAD_REACTORS
330
159
102
}
330
159
100
AcDbVisualStyle
  2
2dWireframe
 70
     4
177
     3
291
     0
 70
    58
 90
        0
176
     1
 90
        2
176
     1
 90
        0
176
     1
 90
        0
176
     1
 40
0.6
176
     1
 40
30.0
176
     1
 62
     7
420
 16777215
176
     1
 90
        1
176
     1
 90
        4
176
     1
 62
     7
176
     1
 62
   257
176
     1
 90
        1
176
     1
 90
        1
176
     1
 40
1.0
176
     1
 90
        0
176
     1
 62
   257
176
     1
 40
1.0
176
     1
 90
        1
176
     1
 90
        6
176
     1
 90
        2
176
     1
 62
     7
176
     1
 90
        5
176
     1
 90
        0
176
     1
 90
        0
176
     1
290
     0
176
     1
 90
        1
176
     1
 40
0.0
176
     1
 90
        0
176
     1
290
     1
176
     1
290
     1
176
     1
290
     0
176
     1
290
     0
176
     1
290
     0
176
     1
290
     0
176
     1
290
     0
176
     1
290
     0
176
     1
290
     0
176
     1
 90
       50
176
     1
 40
0.0
176
     1
 40
1.0
176
     1
 90
        0
176
     1
 62
    18
420
        0
176
     1
 90
       50
176
     1
 90
        3
176
     1
 62
     5
420
      255
176
     1
290
     0
176
     1
 90
       50
176
     1
 90
       50
176
     1
 90
       50
176
     1
290
     0
176
     1
 90
       50
176
     1
 62
   256
176
     0
 40
1.0
176
     0
 90
        2
176
     1
  1
strokes_ogs.tif
176
     1
290
     0
176
     1
 40
1.0
176
     1
 40
1.0
176
     1
  0
VISUALSTYLE
  5
15E
102
{ACAD_REACTORS
330
159
102
}
330
159
100
AcDbVisualStyle
  2
Basic
 70
     7
177
     3
291
     1
 70
    58
 90
        1
176
     1
 90
        0
176
     1
 90
        1
176
     1
 90
        0
176
     1
 40
0.6
176
     1
 40
30.0
176
     1
 62
     7
420
 16777215
176
     1
 90
        0
176
     1
 90
        4
176
     1
 62
     7
176
     1
 62
   257
176
     1
 90
        1
176
     1
 90
        1
176
     1
 40
1.0
176
     1
 90
        8
176
     1
 62
     7
176
     1
 40
1.0
176
     1
 90
        1
176
     1
 90
        6
176
     1
 90
        2
176
     1
 62
     7
176
     1
 90
        5
176
     1
 90
        0
176
     1
 90
        0
176
     1
290
     0
176
     1
 90
        1
176
     1
 40
0.0
176
     1
 90
        0
176
     1
290
     0
176
     1
290
     1
176
     1
290
     1
176
     1
290
     0
176
     1
290
     0
176
     1
290
     0
176
     1
290
     0
176
     1
290
     0
176
     1
290
     0
176
     1
 90
       50
176
     1
 40
0.0
176
     1
 40
1.0
176
     1
 90
        0
176
     1
 62
    18
420
        0
176
     1
 90
       50
176
     1
 90
        3
176
     1
 62
     5
420
      255
176
     1
290
     0
176
     1
 90
       50
176
     1
 90
       50
176
     1
 90
       50
176
     1
290
     0
176
     1
 90
       50
176
     1
 62
   256
176
     0
 40
1.0
176
     0
 90
        2
176
     1
  1
strokes_ogs.tif
176
     1
290
     0
176
     1
 40
1.0
176
     1
 40
1.0
176
     1
  0
VISUALSTYLE
  5
165
102
{ACAD_REACTORS
330
159
102
}
330
159
100
AcDbVisualStyle
  2
Brighten
 70
    12
177
     3
291
     1
 70
    58
 90
        2
176
     1
 90
        2
176
     1
 90
        0
176
     1
 90
        0
176
     1
 40
0.6
176
     1
 40
30.0
176
     1
 62
     7
420
 16777215
176
     1
 90
        1
176
     1
 90
        4
176
     1
 62
     7
176
     1
 62
   257
176
     1
 90
        1
176
     1
 90
        1
176
     1
 40
1.0
176
     1
 90
        8
176
     1
 62
     7
176
     1
 40
1.0
176
     1
 90
        1
176
     1
 90
        6
176
     1
 90
        2
176
     1
 62
     7
176
     1
 90
        5
176
     1
 90
        0
176
     1
 90
        0
176
     1
290
     0
176
     1
 90
        1
176
     1
 40
50.0
176
     1
 90
        0
176
     1
290
     0
176
     1
290
     1
176
     1
290
     1
176
     1
290
     0
176
     1
290
     0
176
     1
290
     0
176
     1
290
     0
176
     1
290
     0
176
     1
290
     0
176
     1
 90
       50
176
     1
 40
0.0
176
     1
 40
1.0
176
     1
 90
        0
176
     1
 62
    18
420
        0
176
     1
 90
       50
176
     1
 90
        3
176
     1
 62
     5
420
      255
176
     1
290
     0
176
     1
 90
       50
176
     1
 90
       50
176
     1
 90
       50
176
     1
290
     0
176
     1
 90
       50
176
     1
 62
   256
176
     0
 40
1.0
176
     0
 90
        2
176
     1
  1
strokes_ogs.tif
176
     1
290
     0
176
     1
 40
1.0
176
     1
 40
1.0
176
     1
  0
VISUALSTYLE
  5
169
102
{ACAD_REACTORS
330
159
102
}
330
159
100
AcDbVisualStyle
  2
ColorChange
 70
    16
177
     3
291
     1
 70
    58
 90
        2
176
     1
 90
        2
176
     1
 90
        3
176
     1
 90
        0
176
     1
 40
0.6
176
     1
 40
30.0
176
     1
 62
     8
420
  8421504
176
     1
 90
        1
176
     1
 90
        4
176
     1
 62
     7
176
     1
 62
   257
176
     1
 90
        1
176
     1
 90
        1
176
     1
 40
1.0
176
     1
 90
        8
176
     1
 62
     8
420
  8421504
176
     1
 40
1.0
176
     1
 90
        1
176
     1
 90
        6
176
     1
 90
        2
176
     1
 62
     7
176
     1
 90
        5
176
     1
 90
        0
176
     1
 90
        0
176
     1
290
     0
176
     1
 90
        1
176
     1
 40
0.0
176
     1
 90
        0
176
     1
290
     0
176
     1
290
     1
176
     1
290
     1
176
     1
290
     0
176
     1
290
     0
176
     1
290
     0
176
     1
290
     0
176
     1
290
     0
176
     1
290
     0
176
     1
 90
       50
176
     1
 40
0.0
176
     1
 40
1.0
176
     1
 90
        0
176
     1
 62
    18
420
        0
176
     1
 90
       50
176
     1
 90
        3
176
     1
 62
     5
420
      255
176
     1
290
     0
176
     1
 90
       50
176
     1
 90
       50
176
     1
 90
       50
176
     1
290
     0
176
     1
 90
       50
176
     1
 62
   256
176
     0
 40
1.0
176
     0
 90
        2
176
     1
  1
strokes_ogs.tif
176
     1
290
     0
176
     1
 40
1.0
176
     1
 40
1.0
176
     1
  0
VISUALSTYLE
  5
162
102
{ACAD_REACTORS
330
159
102
}
330
159
100
AcDbVisualStyle
  2
Conceptual
 70
     9
177
     3
291
     0
 70
    58
 90
        3
176
     1
 90
        2
176
     1
 90
        0
176
     1
 90
        0
176
     1
 40
0.6
176
     1
 40
30.0
176
     1
 62
     7
420
 16777215
176
     1
 90
        2
176
     1
 90
        2
176
     1
 62
     7
176
     1
 62
   257
176
     1
 90
        1
176
     1
 90
        1
176
     1
 40
179.0
176
     1
 90
        8
176
     1
 62
     7
176
     1
 40
1.0
176
     1
 90
        1
176
     1
 90
        6
176
     1
 90
        2
176
     1
 62
     7
176
     1
 90
        3
176
     1
 90
        0
176
     1
 90
        0
176
     1
290
     0
176
     1
 90
        1
176
     1
 40
0.0
176
     1
 90
        0
176
     1
290
     0
176
     1
290
     1
176
     1
290
     1
176
     1
290
     0
176
     1
290
     0
176
     1
290
     0
176
     1
290
     0
176
     1
290
     0
176
     1
290
     0
176
     1
 90
       50
176
     1
 40
0.0
176
     1
 40
1.0
176
     1
 90
        0
176
     1
 62
    18
420
        0
176
     1
 90
       50
176
     1
 90
        3
176
     1
 62
     5
420
      255
176
     1
290
     0
176
     1
 90
       50
176
     1
 90
       50
176
     1
 90
       50
176
     1
290
     0
176
     1
 90
       50
176
     1
 62
   256
176
     0
 40
1.0
176
     0
 90
        2
176
     1
  1
strokes_ogs.tif
176
     1
290
     0
176
     1
 40
1.0
176
     1
 40
1.0
176
     1
  0
VISUALSTYLE
  5
164
102
{ACAD_REACTORS
330
159
102
}
330
159
100
AcDbVisualStyle
  2
Dim
 70
    11
177
     3
291
     1
 70
    58
 90
        2
176
     1
 90
        2
176
     1
 90
        0
176
     1
 90
        0
176
     1
 40
0.6
176
     1
 40
30.0
176
     1
 62
     7
420
 16777215
176
     1
 90
        1
176
     1
 90
        4
176
     1
 62
     7
176
     1
 62
   257
176
     1
 90
        1
176
     1
 90
        1
176
     1
 40
1.0
176
     1
 90
        8
176
     1
 62
     7
176
     1
 40
1.0
176
     1
 90
        1
176
     1
 90
        6
176
     1
 90
        2
176
     1
 62
     7
176
     1
 90
        5
176
     1
 90
        0
176
     1
 90
        0
176
     1
290
     0
176
     1
 90
        1
176
     1
 40
-50.0
176
     1
 90
        0
176
     1
290
     0
176
     1
290
     1
176
     1
290
     1
176
     1
290
     0
176
     1
290
     0
176
     1
290
     0
176
     1
290
     0
176
     1
290
     0
176
     1
290
     0
176
     1
 90
       50
176
     1
 40
0.0
176
     1
 40
1.0
176
     1
 90
        0
176
     1
 62
    18
420
        0
176
     1
 90
       50
176
     1
 90
        3
176
     1
 62
     5
420
      255
176
     1
290
     0
176
     1
 90
       50
176
     1
 90
       50
176
     1
 90
       50
176
     1
290
     0
176
     1
 90
       50
176
     1
 62
   256
176
     0
 40
1.0
176
     0
 90
        2
176
     1
  1
strokes_ogs.tif
176
     1
290
     0
176
     1
 40
1.0
176
     1
 40
1.0
176
     1
  0
VISUALSTYLE
  5
171
102
{ACAD_REACTORS
330
159
102
}
330
159
100
AcDbVisualStyle
  2
EdgeColorOff
 70
    22
177
     3
291
     1
 70
    58
 90
        2
176
     0
 90
        2
176
     0
 90
        0
176
     0
 90
        0
176
     0
 40
0.6
176
     0
 40
30.0
176
     0
 62
     7
420
 16777215
176
     0
 90
        1
176
     0
 90
        4
176
     0
 62
     7
176
     0
 62
   257
176
     0
 90
        1
176
     0
 90
        1
176
     0
 40
1.0
176
     0
 90
        8
176
     2
 62
     7
176
     0
 40
1.0
176
     0
 90
        1
176
     0
 90
        6
176
     0
 90
        2
176
     0
 62
     7
176
     0
 90
        5
176
     0
 90
        0
176
     0
 90
        0
176
     0
290
     0
176
     0
 90
        1
176
     0
 40
0.0
176
     0
 90
        0
176
     0
290
     0
176
     1
290
     1
176
     1
290
     1
176
     1
290
     0
176
     1
290
     0
176
     1
290
     0
176
     1
290
     0
176
     1
290
     0
176
     1
290
     0
176
     1
 90
       50
176
     0
 40
0.0
176
     0
 40
1.0
176
     0
 90
        0
176
     0
 62
    18
420
        0
176
     0
 90
       50
176
     0
 90
        3
176
     0
 62
     5
420
      255
176
     0
290
     0
176
     1
 90
       50
176
     0
 90
       50
176
     0
 90
       50
176
     0
290
     0
176
     1
 90
       50
176
     0
 62
   256
176
     0
 40
1.0
176
     0
 90
        2
176
     0
  1
strokes_ogs.tif
176
     0
290
     0
176
     1
 40
1.0
176
     0
 40
1.0
176
     0
  0
VISUALSTYLE
  5
168
102
{ACAD_REACTORS
330
159
102
}
330
159
100
AcDbVisualStyle
  2
Facepattern
 70
    15
177
     3
291
     1
 70
    58
 90
        2
176
     1
 90
        2
176
     1
 90
        0
176
     1
 90
        0
176
     1
 40
0.6
176
     1
 40
30.0
176
     1
 62
     7
420
 16777215
176
     1
 90
        1
176
     1
 90
        4
176
     1
 62
     7
176
     1
 62
   257
176
     1
 90
        1
176
     1
 90
        1
176
     1
 40
1.0
176
     1
 90
        8
176
     1
 62
     7
176
     1
 40
1.0
176
     1
 90
        1
176
     1
 90
        6
176
     1
 90
        2
176
     1
 62
     7
176
     1
 90
        5
176
     1
 90
        0
176
     1
 90
        0
176
     1
290
     0
176
     1
 90
        1
176
     1
 40
0.0
176
     1
 90
        0
176
     1
290
     0
176
     1
290
     1
176
     1
290
     1
176
     1
290
     0
176
     1
290
     0
176
     1
290
     0
176
     1
290
     0
176
     1
290
     0
176
     1
290
     0
176
     1
 90
       50
176
     1
 40
0.0
176
     1
 40
1.0
176
     1
 90
        0
176
     1
 62
    18
420
        0
176
     1
 90
       50
176
     1
 90
        3
176
     1
 62
     5
420
      255
176
     1
290
     0
176
     1
 90
       50
176
     1
 90
       50
176
     1
 90
       50
176
     1
290
     0
176
     1
 90
       50
176
     1
 62
   256
176
     0
 40
1.0
176
     0
 90
        2
176
     1
  1
strokes_ogs.tif
176
     1
290
     0
176
     1
 40
1.0
176
     1
 40
1.0
176
     1
  0
VISUALSTYLE
  5
15A
102
{ACAD_REACTORS
330
159
102
}
330
159
100
AcDbVisualStyle
  2
Flat
 70
     0
177
     3
291
     1
 70
    58
 90
        2
176
     1
 90
        1
176
     1
 90
        1
176
     1
 90
        2
176
     1
 40
0.6
176
     1
 40
30.0
176
     1
 62
     7
420
 16777215
176
     1
 90
        0
176
     1
 90
        0
176
     1
 62
     7
176
     1
 62
   257
176
     1
 90
        1
176
     1
 90
        1
176
     1
 40
1.0
176
     1
 90
        8
176
     1
 62
     7
176
     1
 40
1.0
176
     1
 90
        1
176
     1
 90
        6
176
     1
 90
        2
176
     1
 62
     7
176
     1
 90
        5
176
     1
 90
        0
176
     1
 90
        0
176
     1
290
     0
176
     1
 90
       13
176
     1
 40
0.0
176
     1
 90
        0
176
     1
290
     0
176
     1
290
     1
176
     1
290
     1
176
     1
290
     0
176
     1
290
     0
176
     1
290
     0
176
     1
290
     0
176
     1
290
     0
176
     1
290
     0
176
     1
 90
       50
176
     1
 40
0.0
176
     1
 40
1.0
176
     1
 90
        0
176
     1
 62
    18
420
        0
176
     1
 90
       50
176
     1
 90
        3
176
     1
 62
     5
420
      255
176
     1
290
     0
176
     1
 90
       50
176
     1
 90
       50
176
     1
 90
       50
176
     1
290
     0
176
     1
 90
       50
176
     1
 62
   256
176
     0
 40
1.0
176
     0
 90
        2
176
     1
  1
strokes_ogs.tif
176
     1
290
     0
176
     1
 40
1.0
176
     1
 40
1.0
176
     1
  0
VISUALSTYLE
  5
15B
102
{ACAD_REACTORS
330
159
102
}
330
159
100
AcDbVisualStyle
  2
FlatWithEdges
 70
     1
177
     3
291
     1
 70
    58
 90
        2
176
     1
 90
        1
176
     1
 90
        1
176
     1
 90
        2
176
     1
 40
0.6
176
     1
 40
30.0
176
     1
 62
     7
420
 16777215
176
     1
 90
        1
176
     1
 90
        0
176
     1
 62
     7
176
     1
 62
   257
176
     1
 90
        1
176
     1
 90
        1
176
     1
 40
1.0
176
     1
 90
        0
176
     1
 62
   257
176
     1
 40
1.0
176
     1
 90
        1
176
     1
 90
        6
176
     1
 90
        2
176
     1
 62
     7
176
     1
 90
        5
176
     1
 90
        0
176
     1
 90
        0
176
     1
290
     0
176
     1
 90
       13
176
     1
 40
0.0
176
     1
 90
        0
176
     1
290
     0
176
     1
290
     1
176
     1
290
     1
176
     1
290
     0
176
     1
290
     0
176
     1
290
     0
176
     1
290
     0
176
     1
290
     0
176
     1
290
     0
176
     1
 90
       50
176
     1
 40
0.0
176
     1
 40
1.0
176
     1
 90
        0
176
     1
 62
    18
420
        0
176
     1
 90
       50
176
     1
 90
        3
176
     1
 62
     5
420
      255
176
     1
290
     0
176
     1
 90
       50
176
     1
 90
       50
176
     1
 90
       50
176
     1
290
     0
176
     1
 90
       50
176
     1
 62
   256
176
     0
 40
1.0
176
     0
 90
        2
176
     1
  1
strokes_ogs.tif
176
     1
290
     0
176
     1
 40
1.0
176
     1
 40
1.0
176
     1
  0
VISUALSTYLE
  5
15C
102
{ACAD_REACTORS
330
159
102
}
330
159
100
AcDbVisualStyle
  2
Gouraud
 70
     2
177
     3
291
     1
 70
    58
 90
        2
176
     1
 90
        2
176
     1
 90
        1
176
     1
 90
        2
176
     1
 40
0.6
176
     1
 40
30.0
176
     1
 62
     7
420
 16777215
176
     1
 90
        0
176
     1
 90
        0
176
     1
 62
     7
176
     1
 62
   257
176
     1
 90
        1
176
     1
 90
        1
176
     1
 40
1.0
176
     1
 90
        0
176
     1
 62
     7
176
     1
 40
1.0
176
     1
 90
        1
176
     1
 90
        6
176
     1
 90
        2
176
     1
 62
     7
176
     1
 90
        5
176
     1
 90
        0
176
     1
 90
        0
176
     1
290
     0
176
     1
 90
       13
176
     1
 40
0.0
176
     1
 90
        0
176
     1
290
     0
176
     1
290
     1
176
     1
290
     1
176
     1
290
     0
176
     1
290
     0
176
     1
290
     0
176
     1
290
     0
176
     1
290
     0
176
     1
290
     0
176
     1
 90
       50
176
     1
 40
0.0
176
     1
 40
1.0
176
     1
 90
        0
176
     1
 62
    18
420
        0
176
     1
 90
       50
176
     1
 90
        3
176
     1
 62
     5
420
      255
176
     1
290
     0
176
     1
 90
       50
176
     1
 90
       50
176
     1
 90
       50
176
     1
290
     0
176
     1
 90
       50
176
     1
 62
   256
176
     0
 40
1.0
176
     0
 90
        2
176
     1
  1
strokes_ogs.tif
176
     1
290
     0
176
     1
 40
1.0
176
     1
 40
1.0
176
     1
  0
VISUALSTYLE
  5
15D
102
{ACAD_REACTORS
330
159
102
}
330
159
100
AcDbVisualStyle
  2
GouraudWithEdges
 70
     3
177
     3
291
     1
 70
    58
 90
        2
176
     1
 90
        2
176
     1
 90
        1
176
     1
 90
        2
176
     1
 40
0.6
176
     1
 40
30.0
176
     1
 62
     7
420
 16777215
176
     1
 90
        1
176
     1
 90
        0
176
     1
 62
     7
176
     1
 62
   257
176
     1
 90
        1
176
     1
 90
        1
176
     1
 40
1.0
176
     1
 90
        0
176
     1
 62
   257
176
     1
 40
1.0
176
     1
 90
        1
176
     1
 90
        6
176
     1
 90
        2
176
     1
 62
     7
176
     1
 90
        5
176
     1
 90
        0
176
     1
 90
        0
176
     1
290
     0
176
     1
 90
       13
176
     1
 40
0.0
176
     1
 90
        0
176
     1
290
     0
176
     1
290
     1
176
     1
290
     1
176
     1
290
     0
176
     1
290
     0
176
     1
290
     0
176
     1
290
     0
176
     1
290
     0
176
     1
290
     0
176
     1
 90
       50
176
     1
 40
0.0
176
     1
 40
1.0
176
     1
 90
        0
176
     1
 62
    18
420
        0
176
     1
 90
       50
176
     1
 90
        3
176
     1
 62
     5
420
      255
176
     1
290
     0
176
     1
 90
       50
176
     1
 90
       50
176
     1
 90
       50
176
     1
290
     0
176
     1
 90
       50
176
     1
 62
   256
176
     0
 40
1.0
176
     0
 90
        2
176
     1
  1
strokes_ogs.tif
176
     1
290
     0
176
     1
 40
1.0
176
     1
 40
1.0
176
     1
  0
VISUALSTYLE
  5
161
102
{ACAD_REACTORS
330
159
102
}
330
159
100
AcDbVisualStyle
  2
Hidden
 70
     6
177
     3
291
     0
 70
    58
 90
        1
176
     1
 90
        2
176
     1
 90
        2
176
     1
 90
        0
176
     1
 40
0.6
176
     1
 40
30.0
176
     1
 62
     7
420
 16777215
176
     1
 90
        2
176
     1
 90
        2
176
     1
 62
     7
176
     1
 62
   257
176
     1
 90
        2
176
     1
 90
        1
176
     1
 40
40.0
176
     1
 90
        0
176
     1
 62
   257
176
     1
 40
1.0
176
     1
 90
        1
176
     1
 90
        6
176
     1
 90
        2
176
     1
 62
     7
176
     1
 90
        3
176
     1
 90
        0
176
     1
 90
        0
176
     1
290
     0
176
     1
 90
        1
176
     1
 40
0.0
176
     1
 90
        0
176
     1
290
     0
176
     1
290
     1
176
     1
290
     1
176
     1
290
     0
176
     1
290
     0
176
     1
290
     0
176
     1
290
     0
176
     1
290
     0
176
     1
290
     0
176
     1
 90
       50
176
     1
 40
0.0
176
     1
 40
1.0
176
     1
 90
        0
176
     1
 62
    18
420
        0
176
     1
 90
       50
176
     1
 90
        3
176
     1
 62
     5
420
      255
176
     1
290
     0
176
     1
 90
       50
176
     1
 90
       50
176
     1
 90
       50
176
     1
290
     0
176
     1
 90
       50
176
     1
 62
   256
176
     0
 40
1.0
176
     0
 90
        2
176
     1
  1
strokes_ogs.tif
176
     1
290
     0
176
     1
 40
1.0
176
     1
 40
1.0
176
     1
  0
VISUALSTYLE
  5
16F
102
{ACAD_REACTORS
330
159
102
}
330
159
100
AcDbVisualStyle
  2
JitterOff
 70
    20
177
     3
291
     1
 70
    58
 90
        2
176
     0
 90
        2
176
     0
 90
        0
176
     0
 90
        0
176
     0
 40
0.6
176
     0
 40
30.0
176
     0
 62
     7
420
 16777215
176
     0
 90
        1
176
     0
 90
        4
176
     0
 62
     7
176
     0
 62
   257
176
     0
 90
        1
176
     0
 90
        1
176
     0
 40
1.0
176
     0
 90
       10
176
     2
 62
     7
176
     0
 40
1.0
176
     0
 90
        1
176
     0
 90
        6
176
     0
 90
        2
176
     0
 62
     7
176
     0
 90
        5
176
     0
 90
        0
176
     0
 90
        0
176
     0
290
     0
176
     0
 90
        1
176
     0
 40
0.0
176
     0
 90
        0
176
     0
290
     0
176
     1
290
     1
176
     1
290
     1
176
     1
290
     0
176
     1
290
     0
176
     1
290
     0
176
     1
290
     0
176
     1
290
     0
176
     1
290
     0
176
     1
 90
       50
176
     0
 40
0.0
176
     0
 40
1.0
176
     0
 90
        0
176
     0
 62
    18
420
        0
176
     0
 90
       50
176
     0
 90
        3
176
     0
 62
     5
420
      255
176
     0
290
     0
176
     1
 90
       50
176
     0
 90
       50
176
     0
 90
       50
176
     0
290
     0
176
     1
 90
       50
176
     0
 62
   256
176
     0
 40
1.0
176
     0
 90
        2
176
     0
  1
strokes_ogs.tif
176
     0
290
     0
176
     1
 40
1.0
176
     0
 40
1.0
176
     0
  0
VISUALSTYLE
  5
167
102
{ACAD_REACTORS
330
159
102
}
330
159
100
AcDbVisualStyle
  2
Linepattern
 70
    14
177
     3
291
     1
 70
    58
 90
        2
176
     1
 90
        2
176
     1
 90
        0
176
     1
 90
        0
176
     1
 40
0.6
176
     1
 40
30.0
176
     1
 62
     7
420
 16777215
176
     1
 90
        1
176
     1
 90
        4
176
     1
 62
     7
176
     1
 62
   257
176
     1
 90
        7
176
     1
 90
        7
176
     1
 40
1.0
176
     1
 90
        8
176
     1
 62
     7
176
     1
 40
1.0
176
     1
 90
        1
176
     1
 90
        6
176
     1
 90
        2
176
     1
 62
     7
176
     1
 90
        5
176
     1
 90
        0
176
     1
 90
        0
176
     1
290
     0
176
     1
 90
        1
176
     1
 40
0.0
176
     1
 90
        0
176
     1
290
     0
176
     1
290
     1
176
     1
290
     1
176
     1
290
     0
176
     1
290
     0
176
     1
290
     0
176
     1
290
     0
176
     1
290
     0
176
     1
290
     0
176
     1
 90
       50
176
     1
 40
0.0
176
     1
 40
1.0
176
     1
 90
        0
176
     1
 62
    18
420
        0
176
     1
 90
       50
176
     1
 90
        3
176
     1
 62
     5
420
      255
176
     1
290
     0
176
     1
 90
       50
176
     1
 90
       50
176
     1
 90
       50
176
     1
290
     0
176
     1
 90
       50
176
     1
 62
   256
176
     0
 40
1.0
176
     0
 90
        2
176
     1
  1
strokes_ogs.tif
176
     1
290
     0
176
     1
 40
1.0
176
     1
 40
1.0
176
     1
  0
VISUALSTYLE
  5
170
102
{ACAD_REACTORS
330
159
102
}
330
159
100
AcDbVisualStyle
  2
OverhangOff
 70
    21
177
     3
291
     1
 70
    58
 90
        2
176
     0
 90
        2
176
     0
 90
        0
176
     0
 90
        0
176
     0
 40
0.6
176
     0
 40
30.0
176
     0
 62
     7
420
 16777215
176
     0
 90
        1
176
     0
 90
        4
176
     0
 62
     7
176
     0
 62
   257
176
     0
 90
        1
176
     0
 90
        1
176
     0
 40
1.0
176
     0
 90
        9
176
     2
 62
     7
176
     0
 40
1.0
176
     0
 90
        1
176
     0
 90
        6
176
     0
 90
        2
176
     0
 62
     7
176
     0
 90
        5
176
     0
 90
        0
176
     0
 90
        0
176
     0
290
     0
176
     0
 90
        1
176
     0
 40
0.0
176
     0
 90
        0
176
     0
290
     0
176
     1
290
     1
176
     1
290
     1
176
     1
290
     0
176
     1
290
     0
176
     1
290
     0
176
     1
290
     0
176
     1
290
     0
176
     1
290
     0
176
     1
 90
       50
176
     0
 40
0.0
176
     0
 40
1.0
176
     0
 90
        0
176
     0
 62
    18
420
        0
176
     0
 90
       50
176
     0
 90
        3
176
     0
 62
     5
420
      255
176
     0
290
     0
176
     1
 90
       50
176
     0
 90
       50
176
     0
 90
       50
176
     0
290
     0
176
     1
 90
       50
176
     0
 62
   256
176
     0
 40
1.0
176
     0
 90
        2
176
     0
  1
strokes_ogs.tif
176
     0
290
     0
176
     1
 40
1.0
176
     0
 40
1.0
176
     0
  0
VISUALSTYLE
  5
163
102
{ACAD_REACTORS
330
159
102
}
330
159
100
AcDbVisualStyle
  2
Realistic
 70
     8
177
     3
291
     0
 70
    58
 90
        2
176
     1
 90
        3
176
     1
 90
        0
176
     1
 90
        2
176
     1
 40
0.6
176
     1
 40
30.0
176
     1
 62
     7
420
 16777215
176
     1
 90
        0
176
     1
 90
        0
176
     1
 62
     7
176
     1
 62
   257
176
     1
 90
        1
176
     1
 90
        1
176
     1
 40
1.0
176
     1
 90
        8
176
     1
 62
   257
176
     1
 40
1.0
176
     1
 90
        1
176
     1
 90
        6
176
     1
 90
        2
176
     1
 62
     7
176
     1
 90
        3
176
     1
 90
        0
176
     1
 90
        0
176
     1
290
     0
176
     1
 90
       13
176
     1
 40
0.0
176
     1
 90
        0
176
     1
290
     0
176
     1
290
     1
176
     1
290
     1
176
     1
290
     0
176
     1
290
     0
176
     1
290
     0
176
     1
290
     0
176
     1
290
     0
176
     1
290
     0
176
     1
 90
       50
176
     1
 40
0.0
176
     1
 40
1.0
176
     1
 90
        0
176
     1
 62
    18
420
        0
176
     1
 90
       50
176
     1
 90
        3
176
     1
 62
     5
420
      255
176
     1
290
     0
176
     1
 90
       50
176
     1
 90
       50
176
     1
 90
       50
176
     1
290
     0
176
     1
 90
       50
176
     1
 62
   256
176
     0
 40
1.0
176
     0
 90
        2
176
     1
  1
strokes_ogs.tif
176
     1
290
     0
176
     1
 40
1.0
176
     1
 40
1.0
176
     1
  0
VISUALSTYLE
  5
16E
102
{ACAD_REACTORS
330
159
102
}
330
159
100
AcDbVisualStyle
  2
Shaded
 70
    27
177
     3
291
     0
 70
    58
 90
        2
176
     1
 90
        2
176
     1
 90
        1
176
     1
 90
        2
176
     1
 40
0.6
176
     1
 40
30.0
176
     1
 62
     7
420
 16777215
176
     1
 90
        0
176
     1
 90
        4
176
     1
 62
     7
176
     1
 62
   257
176
     1
 90
        1
176
     1
 90
        1
176
     1
 40
1.0
176
     1
 90
        8
176
     1
 62
   257
176
     1
 40
1.0
176
     1
 90
        1
176
     1
 90
        6
176
     1
 90
        2
176
     1
 62
     8
420
  7895160
176
     1
 90
        3
176
     1
 90
        0
176
     1
 90
        0
176
     1
290
     0
176
     1
 90
        5
176
     1
 40
0.0
176
     1
 90
        0
176
     1
290
     0
176
     1
290
     1
176
     1
290
     1
176
     1
290
     0
176
     1
290
     0
176
     1
290
     0
176
     1
290
     0
176
     1
290
     0
176
     1
290
     0
176
     1
 90
       50
176
     1
 40
0.0
176
     1
 40
1.0
176
     1
 90
        0
176
     1
 62
    18
420
        0
176
     1
 90
       50
176
     1
 90
        3
176
     1
 62
     5
420
      255
176
     1
290
     0
176
     1
 90
       50
176
     1
 90
       50
176
     1
 90
       50
176
     1
290
     0
176
     1
 90
       50
176
     1
 62
   256
176
     0
 40
1.0
176
     0
 90
        2
176
     1
  1
strokes_ogs.tif
176
     1
290
     0
176
     1
 40
1.0
176
     1
 40
1.0
176
     1
  0
VISUALSTYLE
  5
16D
102
{ACAD_REACTORS
330
159
102
}
330
159
100
AcDbVisualStyle
  2
Shaded with edges
 70
    26
177
     3
291
     0
 70
    58
 90
        2
176
     1
 90
        2
176
     1
 90
        1
176
     1
 90
        2
176
     1
 40
0.6
176
     1
 40
30.0
176
     1
 62
     7
420
 16777215
176
     1
 90
        1
176
     1
 90
        2
176
     1
 62
     7
176
     1
 62
   257
176
     1
 90
        2
176
     1
 90
        1
176
     1
 40
1.0
176
     1
 90
        8
176
     1
 62
   257
176
     1
 40
1.0
176
     1
 90
        1
176
     1
 90
        6
176
     1
 90
        2
176
     1
 62
     7
176
     1
 90
        3
176
     1
 90
        0
176
     1
 90
        0
176
     1
290
     0
176
     1
 90
        5
176
     1
 40
0.0
176
     1
 90
        0
176
     1
290
     0
176
     1
290
     1
176
     1
290
     1
176
     1
290
     0
176
     1
290
     0
176
     1
290
     0
176
     1
290
     0
176
     1
290
     0
176
     1
290
     0
176
     1
 90
       50
176
     1
 40
0.0
176
     1
 40
1.0
176
     1
 90
        0
176
     1
 62
    18
420
        0
176
     1
 90
       50
176
     1
 90
        3
176
     1
 62
     5
420
      255
176
     1
290
     0
176
     1
 90
       50
176
     1
 90
       50
176
     1
 90
       50
176
     1
290
     0
176
     1
 90
       50
176
     1
 62
   256
176
     0
 40
1.0
176
     0
 90
        2
176
     1
  1
strokes_ogs.tif
176
     1
290
     0
176
     1
 40
1.0
176
     1
 40
1.0
176
     1
  0
VISUALSTYLE
  5
16A
102
{ACAD_REACTORS
330
159
102
}
330
159
100
AcDbVisualStyle
  2
Shades of Gray
 70
    23
177
     3
291
     0
 70
    58
 90
        2
176
     1
 90
        2
176
     1
 90
        3
176
     1
 90
        0
176
     1
 40
0.6
176
     1
 40
30.0
176
     1
 62
     7
420
 16777215
176
     1
 90
        2
176
     1
 90
        2
176
     1
 62
     7
176
     1
 62
     7
176
     1
 90
        1
176
     1
 90
        1
176
     1
 40
40.0
176
     1
 90
        8
176
     1
 62
     7
176
     1
 40
1.0
176
     1
 90
        1
176
     1
 90
        6
176
     1
 90
        2
176
     1
 62
     7
176
     1
 90
        3
176
     1
 90
        0
176
     1
 90
        0
176
     1
290
     0
176
     1
 90
        1
176
     1
 40
0.0
176
     1
 90
        0
176
     1
290
     0
176
     1
290
     1
176
     1
290
     1
176
     1
290
     0
176
     1
290
     0
176
     1
290
     0
176
     1
290
     0
176
     1
290
     0
176
     1
290
     0
176
     1
 90
       50
176
     1
 40
0.0
176
     1
 40
1.0
176
     1
 90
        0
176
     1
 62
    18
420
        0
176
     1
 90
       50
176
     1
 90
        3
176
     1
 62
     5
420
      255
176
     1
290
     0
176
     1
 90
       50
176
     1
 90
       50
176
     1
 90
       50
176
     1
290
     0
176
     1
 90
       50
176
     1
 62
   256
176
     0
 40
1.0
176
     0
 90
        2
176
     1
  1
strokes_ogs.tif
176
     1
290
     0
176
     1
 40
1.0
176
     1
 40
1.0
176
     1
  0
VISUALSTYLE
  5
16B
102
{ACAD_REACTORS
330
159
102
}
330
159
100
AcDbVisualStyle
  2
Sketchy
 70
    24
177
     3
291
     0
 70
    58
 90
        1
176
     1
 90
        2
176
     1
 90
        2
176
     1
 90
        0
176
     1
 40
0.6
176
     1
 40
30.0
176
     1
 62
     7
420
 16777215
176
     1
 90
        2
176
     1
 90
        2
176
     1
 62
     7
176
     1
 62
     7
176
     1
 90
        1
176
     1
 90
        1
176
     1
 40
40.0
176
     1
 90
       11
176
     1
 62
     7
176
     1
 40
1.0
176
     1
 90
        1
176
     1
 90
        6
176
     1
 90
        2
176
     1
 62
     7
176
     1
 90
        6
176
     1
 90
        0
176
     1
 90
        0
176
     1
290
     0
176
     1
 90
        1
176
     1
 40
0.0
176
     1
 90
        0
176
     1
290
     0
176
     1
290
     1
176
     1
290
     1
176
     1
290
     0
176
     1
290
     0
176
     1
290
     0
176
     1
290
     0
176
     1
290
     0
176
     1
290
     0
176
     1
 90
       50
176
     1
 40
0.0
176
     1
 40
1.0
176
     1
 90
        0
176
     1
 62
    18
420
        0
176
     1
 90
       50
176
     1
 90
        3
176
     1
 62
     5
420
      255
176
     1
290
     0
176
     1
 90
       50
176
     1
 90
       50
176
     1
 90
       50
176
     1
290
     0
176
     1
 90
       50
176
     1
 62
   256
176
     0
 40
1.0
176
     0
 90
        2
176
     1
  1
strokes_ogs.tif
176
     1
290
     0
176
     1
 40
1.0
176
     1
 40
1.0
176
     1
  0
VISUALSTYLE
  5
166
102
{ACAD_REACTORS
330
159
102
}
330
159
100
AcDbVisualStyle
  2
Thicken
 70
    13
177
     3
291
     1
 70
    58
 90
        2
176
     1
 90
        2
176
     1
 90
        0
176
     1
 90
        0
176
     1
 40
0.6
176
     1
 40
30.0
176
     1
 62
     7
420
 16777215
176
     1
 90
        1
176
     1
 90
        4
176
     1
 62
     7
176
     1
 62
   257
176
     1
 90
        1
176
     1
 90
        1
176
     1
 40
1.0
176
     1
 90
       12
176
     1
 62
     7
176
     1
 40
1.0
176
     1
 90
        1
176
     1
 90
        6
176
     1
 90
        2
176
     1
 62
     7
176
     1
 90
        5
176
     1
 90
        0
176
     1
 90
        0
176
     1
290
     0
176
     1
 90
        1
176
     1
 40
0.0
176
     1
 90
        0
176
     1
290
     0
176
     1
290
     1
176
     1
290
     1
176
     1
290
     0
176
     1
290
     0
176
     1
290
     0
176
     1
290
     0
176
     1
290
     0
176
     1
290
     0
176
     1
 90
       50
176
     1
 40
0.0
176
     1
 40
1.0
176
     1
 90
        0
176
     1
 62
    18
420
        0
176
     1
 90
       50
176
     1
 90
        3
176
     1
 62
     5
420
      255
176
     1
290
     0
176
     1
 90
       50
176
     1
 90
       50
176
     1
 90
       50
176
     1
290
     0
176
     1
 90
       50
176
     1
 62
   256
176
     0
 40
1.0
176
     0
 90
        2
176
     1
  1
strokes_ogs.tif
176
     1
290
     0
176
     1
 40
1.0
176
     1
 40
1.0
176
     1
  0
VISUALSTYLE
  5
160
102
{ACAD_REACTORS
330
159
102
}
330
159
100
AcDbVisualStyle
  2
Wireframe
 70
     5
177
     3
291
     0
 70
    58
 90
        0
176
     1
 90
        2
176
     1
 90
        0
176
     1
 90
        0
176
     1
 40
0.6
176
     1
 40
30.0
176
     1
 62
     7
420
 16777215
176
     1
 90
        1
176
     1
 90
        4
176
     1
 62
     7
176
     1
 62
   257
176
     1
 90
        1
176
     1
 90
        1
176
     1
 40
1.0
176
     1
 90
        0
176
     1
 62
   257
176
     1
 40
1.0
176
     1
 90
        1
176
     1
 90
        6
176
     1
 90
        2
176
     1
 62
     7
176
     1
 90
        3
176
     1
 90
        0
176
     1
 90
        0
176
     1
290
     0
176
     1
 90
        1
176
     1
 40
0.0
176
     1
 90
        0
176
     1
290
     0
176
     1
290
     1
176
     1
290
     1
176
     1
290
     0
176
     1
290
     0
176
     1
290
     0
176
     1
290
     0
176
     1
290
     0
176
     1
290
     0
176
     1
 90
       50
176
     1
 40
0.0
176
     1
 40
1.0
176
     1
 90
        0
176
     1
 62
    18
420
        0
176
     1
 90
       50
176
     1
 90
        3
176
     1
 62
     5
420
      255
176
     1
290
     0
176
     1
 90
       50
176
     1
 90
       50
176
     1
 90
       50
176
     1
290
     0
176
     1
 90
       50
176
     1
 62
   256
176
     0
 40
1.0
176
     0
 90
        2
176
     1
  1
strokes_ogs.tif
176
     1
290
     0
176
     1
 40
1.0
176
     1
 40
1.0
176
     1
  0
VISUALSTYLE
  5
16C
102
{ACAD_REACTORS
330
159
102
}
330
159
100
AcDbVisualStyle
  2
X-Ray
 70
    25
177
     3
291
     0
 70
    58
 90
        2
176
     1
 90
        2
176
     1
 90
        1
176
     1
 90
        1
176
     1
 40
0.5
176
     1
 40
30.0
176
     1
 62
     7
420
 16777215
176
     1
 90
        1
176
     1
 90
        0
176
     1
 62
     7
176
     1
 62
   257
176
     1
 90
        1
176
     1
 90
        1
176
     1
 40
1.0
176
     1
 90
        8
176
     1
 62
     7
176
     1
 40
1.0
176
     1
 90
        1
176
     1
 90
        6
176
     1
 90
        2
176
     1
 62
     7
176
     1
 90
        3
176
     1
 90
        0
176
     1
 90
        0
176
     1
290
     0
176
     1
 90
       13
176
     1
 40
0.0
176
     1
 90
        0
176
     1
290
     0
176
     1
290
     1
176
     1
290
     1
176
     1
290
     0
176
     1
290
     0
176
     1
290
     0
176
     1
290
     0
176
     1
290
     0
176
     1
290
     0
176
     1
 90
       50
176
     1
 40
0.0
176
     1
 40
1.0
176
     1
 90
        0
176
     1
 62
    18
420
        0
176
     1
 90
       50
176
     1
 90
        3
176
     1
 62
     5
420
      255
176
     1
290
     0
176
     1
 90
       50
176
     1
 90
       50
176
     1
 90
       50
176
     1
290
     0
176
     1
 90
       50
176
     1
 62
   256
176
     0
 40
1.0
176
     0
 90
        2
176
     1
  1
strokes_ogs.tif
176
     1
290
     0
176
     1
 40
1.0
176
     1
 40
1.0
176
     1
  0
DICTIONARYVAR
  5
1B2
102
{ACAD_REACTORS
330
1AC
102
}
330
1AC
100
DictionaryVariables
280
     0
  1
1:1
  0
DICTIONARYVAR
  5
1AE
102
{ACAD_REACTORS
330
1AC
102
}
330
1AC
100
DictionaryVariables
280
     0
  1
STANDARD
  0
DICTIONARYVAR
  5
1AD
102
{ACAD_REACTORS
330
1AC
102
}
330
1AC
100
DictionaryVariables
280
     0
  1
STANDARD
  0
DICTIONARYVAR
  5
1AF
102
{ACAD_REACTORS
330
1AC
102
}
330
1AC
100
DictionaryVariables
280
     0
  1
Metric50
  0
DICTIONARYVAR
  5
1B0
102
{ACAD_REACTORS
330
1AC
102
}
330
1AC
100
DictionaryVariables
280
     0
  1
Metric50
  0
DICTIONARYVAR
  5
1B4
102
{ACAD_REACTORS
330
1AC
102
}
330
1AC
100
DictionaryVariables
280
     0
  1
1
  0
DICTIONARYVAR
  5
1B5
102
{ACAD_REACTORS
330
1AC
102
}
330
1AC
100
DictionaryVariables
280
     0
  1
15
  0
DICTIONARYVAR
  5
1B3
102
{ACAD_REACTORS
330
1AC
102
}
330
1AC
100
DictionaryVariables
280
     0
  1
0
  0
DICTIONARYVAR
  5
1B1
102
{ACAD_REACTORS
330
1AC
102
}
330
1AC
100
DictionaryVariables
280
     0
  1
0
  0
DICTIONARY
  5
434
102
{ACAD_REACTORS
330
433
102
}
330
433
100
AcDbDictionary
281
     1
  3
*A1
350
435
  0
DICTIONARY
  5
426
102
{ACAD_REACTORS
330
425
102
}
330
425
100
AcDbDictionary
281
     1
  3
*A1
350
427
  0
DICTIONARY
  5
418
102
{ACAD_REACTORS
330
417
102
}
330
417
100
AcDbDictionary
281
     1
  3
*A1
350
419
  0
DICTIONARY
  5
40A
102
{ACAD_REACTORS
330
409
102
}
330
409
100
AcDbDictionary
281
     1
  3
*A1
350
40B
  0
DICTIONARY
  5
3FC
102
{ACAD_REACTORS
330
3FB
102
}
330
3FB
100
AcDbDictionary
281
     1
  3
*A1
350
3FD
  0
DICTIONARY
  5
3EE
102
{ACAD_REACTORS
330
3ED
102
}
330
3ED
100
AcDbDictionary
281
     1
  3
*A1
350
3EF
  0
DICTIONARY
  5
3E0
102
{ACAD_REACTORS
330
3DF
102
}
330
3DF
100
AcDbDictionary
281
     1
  3
*A1
350
3E1
  0
DICTIONARY
  5
3D2
102
{ACAD_REACTORS
330
3D1
102
}
330
3D1
100
AcDbDictionary
281
     1
  3
*A1
350
3D3
  0
DICTIONARY
  5
459
102
{ACAD_REACTORS
330
458
102
}
330
458
100
AcDbDictionary
281
     1
  3
*A1
350
45A
  0
DICTIONARY
  5
476
102
{ACAD_REACTORS
330
475
102
}
330
475
100
AcDbDictionary
281
     1
  3
*A1
350
477
  0
DICTIONARY
  5
14A
330
149
100
AcDbDictionary
280
     1
281
     1
  3
BUMPTILE
360
14C
  3
DIFFUSETILE
360
14B
  3
OPACITYTILE
360
14F
  3
REFLECTIONTILE
360
14E
  3
REFRACTIONTILE
360
150
  3
SPECULARTILE
360
14D
  0
DICTIONARY
  5
142
330
141
100
AcDbDictionary
280
     1
281
     1
  3
BUMPTILE
360
144
  3
DIFFUSETILE
360
143
  3
OPACITYTILE
360
147
  3
REFLECTIONTILE
360
146
  3
REFRACTIONTILE
360
148
  3
SPECULARTILE
360
145
  0
DICTIONARY
  5
152
330
151
100
AcDbDictionary
280
     1
281
     1
  3
BUMPTILE
360
154
  3
DIFFUSETILE
360
153
  3
OPACITYTILE
360
157
  3
REFLECTIONTILE
360
156
  3
REFRACTIONTILE
360
158
  3
SPECULARTILE
360
155
  0
DICTIONARY
  5
490
330
174
100
AcDbDictionary
280
     1
281
     1
  3
ACAD_ROUNDTRIP_2008_TABLESTYLE_CELLSTYLEMAP
360
491
  0
ACDB_ALDIMOBJECTCONTEXTDATA_CLASS
  5
435
102
{ACAD_REACTORS
330
434
102
}
330
434
100
AcDbObjectContextData
 70
     4
290
     1
100
AcDbAnnotScaleObjectContextData
340
48
100
AcDbDimensionObjectContextData
  2
*D29
293
     0
 10
224.724366067896
 20
333.1287777508941
294
     0
140
0.0
298
     0
291
     0
 70
     0
292
     0
 71
     0
280
     0
295
     0
296
     0
297
     0
100
AcDbAlignedDimensionObjectContextData
 11
158.313550018171
 21
333.1287777508941
 31
0.0
  0
ACDB_ALDIMOBJECTCONTEXTDATA_CLASS
  5
427
102
{ACAD_REACTORS
330
426
102
}
330
426
100
AcDbObjectContextData
 70
     4
290
     1
100
AcDbAnnotScaleObjectContextData
340
48
100
AcDbDimensionObjectContextData
  2
*D28
293
     0
 10
103.313550018121
 20
495.7539701163691
294
     0
140
0.0
298
     0
291
     0
 70
     0
292
     0
 71
     0
280
     0
295
     0
296
     0
297
     0
100
AcDbAlignedDimensionObjectContextData
 11
103.3135500181209
 21
361.1287777508942
 31
0.0
  0
ACDB_ALDIMOBJECTCONTEXTDATA_CLASS
  5
419
102
{ACAD_REACTORS
330
418
102
}
330
418
100
AcDbObjectContextData
 70
     4
290
     1
100
AcDbAnnotScaleObjectContextData
340
48
100
AcDbDimensionObjectContextData
  2
*D27
293
     0
 10
337.425325712946
 20
429.3936788248441
294
     0
140
0.0
298
     0
291
     0
 70
     0
292
     0
 71
     0
280
     0
295
     0
296
     0
297
     0
100
AcDbAlignedDimensionObjectContextData
 11
337.425325712946
 21
361.1287777508942
 31
0.0
  0
ACDB_ALDIMOBJECTCONTEXTDATA_CLASS
  5
40B
102
{ACAD_REACTORS
330
40A
102
}
330
40A
100
AcDbObjectContextData
 70
     4
290
     1
100
AcDbAnnotScaleObjectContextData
340
48
100
AcDbDimensionObjectContextData
  2
*D26
293
     0
 10
77.98021668478767
 20
717.8958426390443
294
     1
140
0.0
298
     0
291
     0
 70
     0
292
     0
 71
     0
280
    16
295
     0
296
     0
297
     0
100
AcDbAlignedDimensionObjectContextData
 11
90.64688335145417
 21
657.8958426390693
 31
0.0
  0
ACDB_ALDIMOBJECTCONTEXTDATA_CLASS
  5
3FD
102
{ACAD_REACTORS
330
3FC
102
}
330
3FC
100
AcDbObjectContextData
 70
     4
290
     1
100
AcDbAnnotScaleObjectContextData
340
48
100
AcDbDimensionObjectContextData
  2
*D25
293
     0
 10
155.643381053946
 20
801.985984945669
294
     0
140
0.0
298
     0
291
     0
 70
     0
292
     0
 71
     0
280
     0
295
     0
296
     0
297
     0
100
AcDbAlignedDimensionObjectContextData
 11
135.813550018071
 21
801.985984945669
 31
0.0
  0
ACDB_ALDIMOBJECTCONTEXTDATA_CLASS
  5
3EF
102
{ACAD_REACTORS
330
3EE
102
}
330
3EE
100
AcDbObjectContextData
 70
     4
290
     1
100
AcDbAnnotScaleObjectContextData
340
48
100
AcDbDimensionObjectContextData
  2
*D24
293
     0
 10
393.139096751221
 20
446.0697420508691
294
     0
140
0.0
298
     0
291
     0
 70
     0
292
     0
 71
     0
280
     0
295
     0
296
     0
297
     0
100
AcDbAlignedDimensionObjectContextData
 11
393.139096751221
 21
406.1632425953193
 31
0.0
  0
ACDB_ALDIMOBJECTCONTEXTDATA_CLASS
  5
3E1
102
{ACAD_REACTORS
330
3E0
102
}
330
3E0
100
AcDbObjectContextData
 70
     4
290
     1
100
AcDbAnnotScaleObjectContextData
340
48
100
AcDbDimensionObjectContextData
  2
*D23
293
     0
 10
488.963192429721
 20
333.1287777508941
294
     0
140
0.0
298
     0
291
     0
 70
     0
292
     0
 71
     0
280
     0
295
     0
296
     0
297
     0
100
AcDbAlignedDimensionObjectContextData
 11
518.262760025971
 21
333.1287777508941
 31
0.0
  0
ACDB_ALDIMOBJECTCONTEXTDATA_CLASS
  5
3D3
102
{ACAD_REACTORS
330
3D2
102
}
330
3D2
100
AcDbObjectContextData
 70
     4
290
     1
100
AcDbAnnotScaleObjectContextData
340
48
100
AcDbDimensionObjectContextData
  2
*D22
293
     0
 10
564.162760026021
 20
404.1169605407191
294
     0
140
0.0
298
     0
291
     0
 70
     0
292
     0
 71
     0
280
     0
295
     0
296
     0
297
     0
100
AcDbAlignedDimensionObjectContextData
 11
564.162760026021
 21
361.1287777508942
 31
0.0
  0
ACDB_ALDIMOBJECTCONTEXTDATA_CLASS
  5
45A
102
{ACAD_REACTORS
330
459
102
}
330
459
100
AcDbObjectContextData
 70
     4
290
     1
100
AcDbAnnotScaleObjectContextData
340
48
100
AcDbDimensionObjectContextData
  2
*D31
293
     0
 10
559.2140049498844
 20
394.8954025412628
294
     1
140
0.0
298
     0
291
     0
 70
     0
292
     0
 71
     0
280
     0
295
     0
296
     0
297
     0
100
AcDbAlignedDimensionObjectContextData
 11
548.5473382832179
 21
428.6620273316318
 31
0.0
  0
ACDB_ALDIMOBJECTCONTEXTDATA_CLASS
  5
477
102
{ACAD_REACTORS
330
476
102
}
330
476
100
AcDbObjectContextData
 70
     4
290
     1
100
AcDbAnnotScaleObjectContextData
340
48
100
AcDbDimensionObjectContextData
  2
*D33
293
     0
 10
107.4050013535731
 20
695.4458426390816
294
     1
140
0.0
298
     0
291
     0
 70
     0
292
     0
 71
     0
280
     0
295
     0
296
     0
297
     0
100
AcDbAlignedDimensionObjectContextData
 11
118.0716680202396
 21
657.8958426390693
 31
0.0
  0
XRECORD
  5
14C
102
{ACAD_REACTORS
330
14A
102
}
330
14A
100
AcDbXrecord
280
     1
270
     1
271
     1
  0
XRECORD
  5
14B
102
{ACAD_REACTORS
330
14A
102
}
330
14A
100
AcDbXrecord
280
     1
270
     1
271
     1
  0
XRECORD
  5
14F
102
{ACAD_REACTORS
330
14A
102
}
330
14A
100
AcDbXrecord
280
     1
270
     1
271
     1
  0
XRECORD
  5
14E
102
{ACAD_REACTORS
330
14A
102
}
330
14A
100
AcDbXrecord
280
     1
270
     1
271
     1
  0
XRECORD
  5
150
102
{ACAD_REACTORS
330
14A
102
}
330
14A
100
AcDbXrecord
280
     1
270
     1
271
     1
  0
XRECORD
  5
14D
102
{ACAD_REACTORS
330
14A
102
}
330
14A
100
AcDbXrecord
280
     1
270
     1
271
     1
  0
XRECORD
  5
144
102
{ACAD_REACTORS
330
142
102
}
330
142
100
AcDbXrecord
280
     1
270
     1
271
     1
  0
XRECORD
  5
143
102
{ACAD_REACTORS
330
142
102
}
330
142
100
AcDbXrecord
280
     1
270
     1
271
     1
  0
XRECORD
  5
147
102
{ACAD_REACTORS
330
142
102
}
330
142
100
AcDbXrecord
280
     1
270
     1
271
     1
  0
XRECORD
  5
146
102
{ACAD_REACTORS
330
142
102
}
330
142
100
AcDbXrecord
280
     1
270
     1
271
     1
  0
XRECORD
  5
148
102
{ACAD_REACTORS
330
142
102
}
330
142
100
AcDbXrecord
280
     1
270
     1
271
     1
  0
XRECORD
  5
145
102
{ACAD_REACTORS
330
142
102
}
330
142
100
AcDbXrecord
280
     1
270
     1
271
     1
  0
XRECORD
  5
154
102
{ACAD_REACTORS
330
152
102
}
330
152
100
AcDbXrecord
280
     1
270
     1
271
     1
  0
XRECORD
  5
153
102
{ACAD_REACTORS
330
152
102
}
330
152
100
AcDbXrecord
280
     1
270
     1
271
     1
  0
XRECORD
  5
157
102
{ACAD_REACTORS
330
152
102
}
330
152
100
AcDbXrecord
280
     1
270
     1
271
     1
  0
XRECORD
  5
156
102
{ACAD_REACTORS
330
152
102
}
330
152
100
AcDbXrecord
280
     1
270
     1
271
     1
  0
XRECORD
  5
158
102
{ACAD_REACTORS
330
152
102
}
330
152
100
AcDbXrecord
280
     1
270
     1
271
     1
  0
XRECORD
  5
155
102
{ACAD_REACTORS
330
152
102
}
330
152
100
AcDbXrecord
280
     1
270
     1
271
     1
  0
CELLSTYLEMAP
  5
491
102
{ACAD_REACTORS
330
490
102
}
330
490
100
AcDbCellStyleMap
 90
        3
300
CELLSTYLE
  1
TABLEFORMAT_BEGIN
 90
        5
170
     1
 91
        0
 92
    32768
 62
   257
 93
        1
300
CONTENTFORMAT
  1
CONTENTFORMAT_BEGIN
 90
        0
 91
        0
 92
      512
 93
        0
300

 40
0.0
140
1.0
 94
        5
 62
     0
340
11
144
6.0
309
CONTENTFORMAT_END
171
     1
301
MARGIN
  1
CELLMARGIN_BEGIN
 40
1.5
 40
1.5
 40
1.5
 40
1.5
 40
4.5
 40
4.5
309
CELLMARGIN_END
 94
        6
 95
        1
302
GRIDFORMAT
  1
GRIDFORMAT_BEGIN
 90
        0
 91
        1
 62
     0
 92
       -2
340
0
 93
        0
 40
1.125
309
GRIDFORMAT_END
 95
        2
302
GRIDFORMAT
  1
GRIDFORMAT_BEGIN
 90
        0
 91
        1
 62
     0
 92
       -2
340
0
 93
        0
 40
1.125
309
GRIDFORMAT_END
 95
        4
302
GRIDFORMAT
  1
GRIDFORMAT_BEGIN
 90
        0
 91
        1
 62
     0
 92
       -2
340
0
 93
        0
 40
1.125
309
GRIDFORMAT_END
 95
        8
302
GRIDFORMAT
  1
GRIDFORMAT_BEGIN
 90
        0
 91
        1
 62
     0
 92
       -2
340
0
 93
        0
 40
1.125
309
GRIDFORMAT_END
 95
       16
302
GRIDFORMAT
  1
GRIDFORMAT_BEGIN
 90
        0
 91
        1
 62
     0
 92
       -2
340
0
 93
        0
 40
1.125
309
GRIDFORMAT_END
 95
       32
302
GRIDFORMAT
  1
GRIDFORMAT_BEGIN
 90
        0
 91
        1
 62
     0
 92
       -2
340
0
 93
        0
 40
1.125
309
GRIDFORMAT_END
309
TABLEFORMAT_END
  1
CELLSTYLE_BEGIN
 90
        1
 91
        1
300
_TITLE
309
CELLSTYLE_END
300
CELLSTYLE
  1
TABLEFORMAT_BEGIN
 90
        5
170
     1
 91
        0
 92
        0
 62
   257
 93
        1
300
CONTENTFORMAT
  1
CONTENTFORMAT_BEGIN
 90
        0
 91
        0
 92
      512
 93
        0
300

 40
0.0
140
1.0
 94
        5
 62
     0
340
11
144
4.5
309
CONTENTFORMAT_END
171
     1
301
MARGIN
  1
CELLMARGIN_BEGIN
 40
1.5
 40
1.5
 40
1.5
 40
1.5
 40
4.5
 40
4.5
309
CELLMARGIN_END
 94
        6
 95
        1
302
GRIDFORMAT
  1
GRIDFORMAT_BEGIN
 90
        0
 91
        1
 62
     0
 92
       -2
340
0
 93
        0
 40
1.125
309
GRIDFORMAT_END
 95
        2
302
GRIDFORMAT
  1
GRIDFORMAT_BEGIN
 90
        0
 91
        1
 62
     0
 92
       -2
340
0
 93
        0
 40
1.125
309
GRIDFORMAT_END
 95
        4
302
GRIDFORMAT
  1
GRIDFORMAT_BEGIN
 90
        0
 91
        1
 62
     0
 92
       -2
340
0
 93
        0
 40
1.125
309
GRIDFORMAT_END
 95
        8
302
GRIDFORMAT
  1
GRIDFORMAT_BEGIN
 90
        0
 91
        1
 62
     0
 92
       -2
340
0
 93
        0
 40
1.125
309
GRIDFORMAT_END
 95
       16
302
GRIDFORMAT
  1
GRIDFORMAT_BEGIN
 90
        0
 91
        1
 62
     0
 92
       -2
340
0
 93
        0
 40
1.125
309
GRIDFORMAT_END
 95
       32
302
GRIDFORMAT
  1
GRIDFORMAT_BEGIN
 90
        0
 91
        1
 62
     0
 92
       -2
340
0
 93
        0
 40
1.125
309
GRIDFORMAT_END
309
TABLEFORMAT_END
  1
CELLSTYLE_BEGIN
 90
        2
 91
        1
300
_HEADER
309
CELLSTYLE_END
300
CELLSTYLE
  1
TABLEFORMAT_BEGIN
 90
        5
170
     1
 91
        0
 92
        0
 62
   257
 93
        1
300
CONTENTFORMAT
  1
CONTENTFORMAT_BEGIN
 90
        0
 91
        0
 92
      512
 93
        0
300

 40
0.0
140
1.0
 94
        2
 62
     0
340
11
144
4.5
309
CONTENTFORMAT_END
171
     1
301
MARGIN
  1
CELLMARGIN_BEGIN
 40
1.5
 40
1.5
 40
1.5
 40
1.5
 40
4.5
 40
4.5
309
CELLMARGIN_END
 94
        6
 95
        1
302
GRIDFORMAT
  1
GRIDFORMAT_BEGIN
 90
        0
 91
        1
 62
     0
 92
       -2
340
0
 93
        0
 40
1.125
309
GRIDFORMAT_END
 95
        2
302
GRIDFORMAT
  1
GRIDFORMAT_BEGIN
 90
        0
 91
        1
 62
     0
 92
       -2
340
0
 93
        0
 40
1.125
309
GRIDFORMAT_END
 95
        4
302
GRIDFORMAT
  1
GRIDFORMAT_BEGIN
 90
        0
 91
        1
 62
     0
 92
       -2
340
0
 93
        0
 40
1.125
309
GRIDFORMAT_END
 95
        8
302
GRIDFORMAT
  1
GRIDFORMAT_BEGIN
 90
        0
 91
        1
 62
     0
 92
       -2
340
0
 93
        0
 40
1.125
309
GRIDFORMAT_END
 95
       16
302
GRIDFORMAT
  1
GRIDFORMAT_BEGIN
 90
        0
 91
        1
 62
     0
 92
       -2
340
0
 93
        0
 40
1.125
309
GRIDFORMAT_END
 95
       32
302
GRIDFORMAT
  1
GRIDFORMAT_BEGIN
 90
        0
 91
        1
 62
     0
 92
       -2
340
0
 93
        0
 40
1.125
309
GRIDFORMAT_END
309
TABLEFORMAT_END
  1
CELLSTYLE_BEGIN
 90
        3
 91
        2
300
_DATA
309
CELLSTYLE_END
  0
ENDSEC
  0
SECTION
  2
ACDSDATA
 70
     2
 71
     8
  0
ACDSSCHEMA
 90
        0
  1
AcDb_Thumbnail_Schema
  2
AcDbDs::ID
280
    10
 91
        8
  2
Thumbnail_Data
280
    15
 91
        0
101
ACDSRECORD
 95
        0
 90
        1
  2
AcDbDs::TreatedAsObjectData
280
     1
291
     1
101
ACDSRECORD
 95
        0
 90
        2
  2
AcDbDs::Legacy
280
     1
291
     1
101
ACDSRECORD
  1
AcDbDs::ID
 90
        3
  2
AcDs:Indexable
280
     1
291
     1
101
ACDSRECORD
  1
AcDbDs::ID
 90
        4
  2
AcDbDs::HandleAttribute
280
     7
282
     1
  0
ACDSSCHEMA
 90
        1
  1
AcDbDs::TreatedAsObjectDataSchema
  2
AcDbDs::TreatedAsObjectData
280
     1
 91
        0
  0
ACDSSCHEMA
 90
        2
  1
AcDbDs::LegacySchema
  2
AcDbDs::Legacy
280
     1
 91
        0
  0
ACDSSCHEMA
 90
        3
  1
AcDbDs::IndexedPropertySchema
  2
AcDs:Indexable
280
     1
 91
        0
  0
ACDSSCHEMA
 90
        4
  1
AcDbDs::HandleAttributeSchema
  2
AcDbDs::HandleAttribute
280
     7
 91
        1
284
     1
  0
ACDSRECORD
 90
        0
  2
AcDbDs::ID
280
    10
320
22
  2
Thumbnail_Data
280
    15
 94
     1509
310
89504E470D0A1A0A0000000D49484452000001000000008608030000000532A42500000300504C5445212830FFFFFF2128300000000000000000000000000000000000000000000000000000330000660000990000CC0000FF0033000033330033660033990033CC0033FF0066000066330066660066990066CC0066FF0099
310
000099330099660099990099CC0099FF00CC0000CC3300CC6600CC9900CCCC00CCFF00FF0000FF3300FF6600FF9900FFCC00FFFF3300003300333300663300993300CC3300FF3333003333333333663333993333CC3333FF3366003366333366663366993366CC3366FF3399003399333399663399993399CC3399FF33CC00
310
33CC3333CC6633CC9933CCCC33CCFF33FF0033FF3333FF6633FF9933FFCC33FFFF6600006600336600666600996600CC6600FF6633006633336633666633996633CC6633FF6666006666336666666666996666CC6666FF6699006699336699666699996699CC6699FF66CC0066CC3366CC6666CC9966CCCC66CCFF66FF0066
310
FF3366FF6666FF9966FFCC66FFFF9900009900339900669900999900CC9900FF9933009933339933669933999933CC9933FF9966009966339966669966999966CC9966FF9999009999339999669999999999CC9999FF99CC0099CC3399CC6699CC9999CCCC99CCFF99FF0099FF3399FF6699FF9999FFCC99FFFFCC0000CC00
310
33CC0066CC0099CC00CCCC00FFCC3300CC3333CC3366CC3399CC33CCCC33FFCC6600CC6633CC6666CC6699CC66CCCC66FFCC9900CC9933CC9966CC9999CC99CCCC99FFCCCC00CCCC33CCCC66CCCC99CCCCCCCCCCFFCCFF00CCFF33CCFF66CCFF99CCFFCCCCFFFFFF0000FF0033FF0066FF0099FF00CCFF00FFFF3300FF3333
310
FF3366FF3399FF33CCFF33FFFF6600FF6633FF6666FF6699FF66CCFF66FFFF9900FF9933FF9966FF9999FF99CCFF99FFFFCC00FFCC33FFCC66FFCC99FFCCCCFFCCFFFFFF00FFFF33FFFF66FFFF99FFFFCCFFFFFF0000000D0D0D1A1A1A2828283535354343435050505D5D5D6B6B6B787878868686939393A1A1A1AEAEAEBB
310
BBBBC9C9C9D6D6D6E4E4E4F1F1F1FFFFFF0000000000000000000000000000000000000000000000000000000000002E4550F1000002A04944415478DAED9DDB9683200C45F9FFFF3DEF33AB56452E1A2E5D26E49CB7CE586B368140400861B210F0AFE056700D00E163FD06002E8B3F964F0FA87C20008AA2A865239FEF30
310
08EF5180000880000880000860EF071040DE1FAA6BD12A20B66C11042900C87D1F4B54134443026CD5404E000B79C09E076D706C2C09405EAEF6CDBFB4E57018056A00DCF40372009E7B820440007E0194E7433D79807700C79200B6019EE7050880558000CEDC806B007B46C43100E71E7064059CD8FFED026D3941EFCBE4
310
288AA2288AA2288AF2A48781CFBCE191DE1116EE9E799A05DB78D31480C2E30E20509C6681D4FC9B3F8B1CC01200E0C194BE1F3103E0A15D5C1E40F93D9A2102A6009C0626AF140D10B004E05C38941A1AFD6769007761B0978021001045C7F5013C758FB02A8047FB7C00B8ABE35D04CC001058D7357B680C0024C6604500
310
A2D2ED710133004485BB3E8040000430D91C022080B5003427CA35AF3CA20710000110000174470161D3AE320A14A67DBB3BB9263D605F20EC1840EE019FCF03008EDB25FE6E2921320420CAAA13000110000110804900F805002BF9007A0001780730D0158EAA7979E7A5ECBD441DCD423637880900A2DB5DEE9D7C0BCA3C
310
00A1FDB9C4004ADF5206008D63DC7A1B40002601F46DA6969C4CE31100BA001CBB582E00E0B2B858EC01D0E701B3DB80FCF4026F00D27B5F6A8A4200A16729701D00F21BC63B38AA0370BCD674ADD4230032BBE395B6FB3EC6500320AEB7BD00CEF9A2B8F75F8C1AC7EE255005A03D0A345E72093AD0B043F57B00A0C201DE
310
03A025494600EFB60104400004400004A00140EFF901CF1756EEAC04403595DF900FE90200783FE69AA2284AA330F5B2C2A52000E500A61FB464EC88A6ACBCCA39E2460FC8A7CECD3409730AEDDBEFB3D826B6CD12DC78C12FD29F7FB1030C4AAD37ACE50000000049454E44AE426082
  0
ENDSEC
  0
EOF
