  0
SECTION
  2
HEADER
  9
$ACADVER
  1
AC1027
  9
$ACADMAINTVER
 70
   125
  9
$DWGCODEPAGE
  3
ANSI_1252
  9
$LASTSAVEDBY
  1
fleminab
  9
$REQUIREDVERSIONS
160
                 0
  9
$INSBASE
 10
0.0
 20
0.0
 30
0.0
  9
$EXTMIN
 10
1207.66211354113
 20
76.0911475944929
 30
-0.0000000349181948
  9
$EXTMAX
 10
1604.402812758769
 20
411.8796464370914
 30
0.0000000814935747
  9
$LIMMIN
 10
0.0
 20
0.0
  9
$LIMMAX
 10
420.0
 20
297.0
  9
$ORTHOMODE
 70
     0
  9
$REGENMODE
 70
     1
  9
$FILLMODE
 70
     1
  9
$QTEXTMODE
 70
     0
  9
$MIRRTEXT
 70
     1
  9
$LTSCALE
 40
0.3
  9
$ATTMODE
 70
     1
  9
$TEXTSIZE
 40
2.5
  9
$TRACEWID
 40
1.0
  9
$TEXTSTYLE
  7
Standard
  9
$CLAYER
  8
轮廓线
  9
$CELTYPE
  6
ByLayer
  9
$CECOLOR
 62
   256
  9
$CELTSCALE
 40
1.0
  9
$DISPSILH
 70
     0
  9
$DIMSCALE
 40
4.0
  9
$DIMASZ
 40
2.5
  9
$DIMEXO
 40
0.625
  9
$DIMDLI
 40
3.75
  9
$DIMRND
 40
0.0
  9
$DIMDLE
 40
0.0
  9
$DIMEXE
 40
1.25
  9
$DIMTP
 40
0.0
  9
$DIMTM
 40
0.0
  9
$DIMTXT
 40
3.0
  9
$DIMCEN
 40
2.5
  9
$DIMTSZ
 40
0.0
  9
$DIMTOL
 70
     0
  9
$DIMLIM
 70
     0
  9
$DIMTIH
 70
     0
  9
$DIMTOH
 70
     0
  9
$DIMSE1
 70
     0
  9
$DIMSE2
 70
     0
  9
$DIMTAD
 70
     1
  9
$DIMZIN
 70
     8
  9
$DIMBLK
  1

  9
$DIMASO
 70
     1
  9
$DIMSHO
 70
     1
  9
$DIMPOST
  1

  9
$DIMAPOST
  1

  9
$DIMALT
 70
     0
  9
$DIMALTD
 70
     3
  9
$DIMALTF
 40
0.03937007874016
  9
$DIMLFAC
 40
1.0
  9
$DIMTOFL
 70
     1
  9
$DIMTVP
 40
0.0
  9
$DIMTIX
 70
     0
  9
$DIMSOXD
 70
     0
  9
$DIMSAH
 70
     0
  9
$DIMBLK1
  1

  9
$DIMBLK2
  1

  9
$DIMSTYLE
  2
ISO-25
  9
$DIMCLRD
 70
   256
  9
$DIMCLRE
 70
   256
  9
$DIMCLRT
 70
   256
  9
$DIMTFAC
 40
1.0
  9
$DIMGAP
 40
0.625
  9
$DIMJUST
 70
     0
  9
$DIMSD1
 70
     0
  9
$DIMSD2
 70
     0
  9
$DIMTOLJ
 70
     0
  9
$DIMTZIN
 70
     8
  9
$DIMALTZ
 70
     0
  9
$DIMALTTZ
 70
     0
  9
$DIMUPT
 70
     0
  9
$DIMDEC
 70
     1
  9
$DIMTDEC
 70
     1
  9
$DIMALTU
 70
     2
  9
$DIMALTTD
 70
     3
  9
$DIMTXSTY
  7
Standard
  9
$DIMAUNIT
 70
     0
  9
$DIMADEC
 70
     0
  9
$DIMALTRND
 40
0.0
  9
$DIMAZIN
 70
     0
  9
$DIMDSEP
 70
    46
  9
$DIMATFIT
 70
     3
  9
$DIMFRAC
 70
     0
  9
$DIMLDRBLK
  1

  9
$DIMLUNIT
 70
     2
  9
$DIMLWD
 70
    -1
  9
$DIMLWE
 70
    -1
  9
$DIMTMOVE
 70
     0
  9
$DIMFXL
 40
1.25
  9
$DIMFXLON
 70
     0
  9
$DIMJOGANG
 40
0.7853981633974483
  9
$DIMTFILL
 70
     0
  9
$DIMTFILLCLR
 70
     0
  9
$DIMARCSYM
 70
     0
  9
$DIMLTYPE
  6

  9
$DIMLTEX1
  6

  9
$DIMLTEX2
  6

  9
$DIMTXTDIRECTION
 70
     0
  9
$LUNITS
 70
     2
  9
$LUPREC
 70
     4
  9
$SKETCHINC
 40
1.0
  9
$FILLETRAD
 40
2.0
  9
$AUNITS
 70
     0
  9
$AUPREC
 70
     0
  9
$MENU
  1
.
  9
$ELEVATION
 40
0.0
  9
$PELEVATION
 40
0.0
  9
$THICKNESS
 40
0.0
  9
$LIMCHECK
 70
     0
  9
$CHAMFERA
 40
10.0
  9
$CHAMFERB
 40
10.0
  9
$CHAMFERC
 40
20.0
  9
$CHAMFERD
 40
0.0
  9
$SKPOLY
 70
     0
  9
$TDCREATE
 40
2452341.882372685
  9
$TDUCREATE
 40
2452341.424046528
  9
$TDUPDATE
 40
2458015.603136574
  9
$TDUUPDATE
 40
2458015.186469908
  9
$TDINDWG
 40
1.6673939931
  9
$TDUSRTIMER
 40
1.6673939931
  9
$USRTIMER
 70
     1
  9
$ANGBASE
 50
0.0
  9
$ANGDIR
 70
     0
  9
$PDMODE
 70
     0
  9
$PDSIZE
 40
0.0
  9
$PLINEWID
 40
0.0
  9
$SPLFRAME
 70
     0
  9
$SPLINETYPE
 70
     6
  9
$SPLINESEGS
 70
 20000
  9
$HANDSEED
  5
52C8
  9
$SURFTAB1
 70
     6
  9
$SURFTAB2
 70
     6
  9
$SURFTYPE
 70
     6
  9
$SURFU
 70
     6
  9
$SURFV
 70
     6
  9
$UCSBASE
  2

  9
$UCSNAME
  2

  9
$UCSORG
 10
0.0
 20
0.0
 30
0.0
  9
$UCSXDIR
 10
1.0
 20
0.0
 30
0.0
  9
$UCSYDIR
 10
0.0
 20
1.0
 30
0.0
  9
$UCSORTHOREF
  2

  9
$UCSORTHOVIEW
 70
     0
  9
$UCSORGTOP
 10
0.0
 20
0.0
 30
0.0
  9
$UCSORGBOTTOM
 10
0.0
 20
0.0
 30
0.0
  9
$UCSORGLEFT
 10
0.0
 20
0.0
 30
0.0
  9
$UCSORGRIGHT
 10
0.0
 20
0.0
 30
0.0
  9
$UCSORGFRONT
 10
0.0
 20
0.0
 30
0.0
  9
$UCSORGBACK
 10
0.0
 20
0.0
 30
0.0
  9
$PUCSBASE
  2

  9
$PUCSNAME
  2

  9
$PUCSORG
 10
0.0
 20
0.0
 30
0.0
  9
$PUCSXDIR
 10
1.0
 20
0.0
 30
0.0
  9
$PUCSYDIR
 10
0.0
 20
1.0
 30
0.0
  9
$PUCSORTHOREF
  2

  9
$PUCSORTHOVIEW
 70
     0
  9
$PUCSORGTOP
 10
0.0
 20
0.0
 30
0.0
  9
$PUCSORGBOTTOM
 10
0.0
 20
0.0
 30
0.0
  9
$PUCSORGLEFT
 10
0.0
 20
0.0
 30
0.0
  9
$PUCSORGRIGHT
 10
0.0
 20
0.0
 30
0.0
  9
$PUCSORGFRONT
 10
0.0
 20
0.0
 30
0.0
  9
$PUCSORGBACK
 10
0.0
 20
0.0
 30
0.0
  9
$USERI1
 70
     0
  9
$USERI2
 70
     0
  9
$USERI3
 70
     0
  9
$USERI4
 70
     0
  9
$USERI5
 70
     0
  9
$USERR1
 40
0.0
  9
$USERR2
 40
0.0
  9
$USERR3
 40
0.0
  9
$USERR4
 40
0.0
  9
$USERR5
 40
0.0
  9
$WORLDVIEW
 70
     1
  9
$SHADEDGE
 70
     3
  9
$SHADEDIF
 70
    70
  9
$TILEMODE
 70
     1
  9
$MAXACTVP
 70
    64
  9
$PINSBASE
 10
0.0
 20
0.0
 30
0.0
  9
$PLIMCHECK
 70
     0
  9
$PEXTMIN
 10
1.000000000000000E+20
 20
1.000000000000000E+20
 30
1.000000000000000E+20
  9
$PEXTMAX
 10
-1.000000000000000E+20
 20
-1.000000000000000E+20
 30
-1.000000000000000E+20
  9
$PLIMMIN
 10
0.0
 20
0.0
  9
$PLIMMAX
 10
420.0
 20
297.0
  9
$UNITMODE
 70
     0
  9
$VISRETAIN
 70
     1
  9
$PLINEGEN
 70
     0
  9
$PSLTSCALE
 70
     1
  9
$TREEDEPTH
 70
  3020
  9
$CMLSTYLE
  2
Standard
  9
$CMLJUST
 70
     0
  9
$CMLSCALE
 40
20.0
  9
$PROXYGRAPHICS
 70
     1
  9
$MEASUREMENT
 70
     0
  9
$CELWEIGHT
370
    -1
  9
$ENDCAPS
280
     0
  9
$JOINSTYLE
280
     0
  9
$LWDISPLAY
290
     1
  9
$INSUNITS
 70
     4
  9
$HYPERLINKBASE
  1

  9
$STYLESHEET
  1

  9
$XEDIT
290
     1
  9
$CEPSNTYPE
380
     0
  9
$PSTYLEMODE
290
     1
  9
$FINGERPRINTGUID
  2
{76D08062-31F6-11D6-AFE6-00E04C3D640A}
  9
$VERSIONGUID
  2
{CBB8AF2C-99D8-B841-97DE-E97D543D5EB9}
  9
$EXTNAMES
290
     1
  9
$PSVPSCALE
 40
0.0
  9
$OLESTARTUP
290
     0
  9
$SORTENTS
280
    96
  9
$INDEXCTL
280
     0
  9
$HIDETEXT
280
     0
  9
$XCLIPFRAME
280
     0
  9
$HALOGAP
280
     0
  9
$OBSCOLOR
 70
   257
  9
$OBSLTYPE
280
     0
  9
$INTERSECTIONDISPLAY
280
     0
  9
$INTERSECTIONCOLOR
 70
   257
  9
$DIMASSOC
280
     1
  9
$PROJECTNAME
  1

  9
$CAMERADISPLAY
290
     0
  9
$LENSLENGTH
 40
50.0
  9
$CAMERAHEIGHT
 40
0.0
  9
$STEPSPERSEC
 40
2.0
  9
$STEPSIZE
 40
6.0
  9
$3DDWFPREC
 40
2.0
  9
$PSOLWIDTH
 40
0.25
  9
$PSOLHEIGHT
 40
4.0
  9
$LOFTANG1
 40
1.570796326794896
  9
$LOFTANG2
 40
1.570796326794896
  9
$LOFTMAG1
 40
0.0
  9
$LOFTMAG2
 40
0.0
  9
$LOFTPARAM
 70
     7
  9
$LOFTNORMALS
280
     1
  9
$LATITUDE
 40
37.795
  9
$LONGITUDE
 40
-122.394
  9
$NORTHDIRECTION
 40
0.0
  9
$TIMEZONE
 70
 -8000
  9
$LIGHTGLYPHDISPLAY
280
     1
  9
$TILEMODELIGHTSYNCH
280
     1
  9
$CMATERIAL
347
41F9
  9
$SOLIDHIST
280
     0
  9
$SHOWHIST
280
     1
  9
$DWFFRAME
280
     2
  9
$DGNFRAME
280
     0
  9
$REALWORLDSCALE
290
     1
  9
$INTERFERECOLOR
 62
     1
  9
$INTERFEREOBJVS
345
421B
  9
$INTERFEREVPVS
346
4218
  9
$CSHADOW
280
     0
  9
$SHADOWPLANELOCATION
 40
0.0
  0
ENDSEC
  0
SECTION
  2
CLASSES
  0
CLASS
  1
ACDBDICTIONARYWDFLT
  2
AcDbDictionaryWithDefault
  3
ObjectDBX Classes
 90
        0
 91
        1
280
     0
281
     0
  0
CLASS
  1
DICTIONARYVAR
  2
AcDbDictionaryVar
  3
ObjectDBX Classes
 90
        0
 91
       18
280
     0
281
     0
  0
CLASS
  1
TABLESTYLE
  2
AcDbTableStyle
  3
ObjectDBX Classes
 90
     4095
 91
        1
280
     0
281
     0
  0
CLASS
  1
SORTENTSTABLE
  2
AcDbSortentsTable
  3
ObjectDBX Classes
 90
        0
 91
        1
280
     0
281
     0
  0
CLASS
  1
DIMASSOC
  2
AcDbDimAssoc
  3
"AcDbDimAssoc|Product Desc:     AcDim ARX App For Dimension|Company:          Autodesk, Inc.|WEB Address:      www.autodesk.com"
 90
        0
 91
        0
280
     0
281
     0
  0
CLASS
  1
MATERIAL
  2
AcDbMaterial
  3
ObjectDBX Classes
 90
     1153
 91
        3
280
     0
281
     0
  0
CLASS
  1
VISUALSTYLE
  2
AcDbVisualStyle
  3
ObjectDBX Classes
 90
     4095
 91
       24
280
     0
281
     0
  0
CLASS
  1
SCALE
  2
AcDbScale
  3
ObjectDBX Classes
 90
     1153
 91
       17
280
     0
281
     0
  0
CLASS
  1
MLEADERSTYLE
  2
AcDbMLeaderStyle
  3
ACDB_MLEADERSTYLE_CLASS
 90
     4095
 91
        1
280
     0
281
     0
  0
CLASS
  1
CELLSTYLEMAP
  2
AcDbCellStyleMap
  3
ObjectDBX Classes
 90
     1152
 91
        2
280
     0
281
     0
  0
CLASS
  1
ACDBSECTIONVIEWSTYLE
  2
AcDbSectionViewStyle
  3
ObjectDBX Classes
 90
     1025
 91
        1
280
     0
281
     0
  0
CLASS
  1
ACDBDETAILVIEWSTYLE
  2
AcDbDetailViewStyle
  3
ObjectDBX Classes
 90
     1025
 91
        1
280
     0
281
     0
  0
ENDSEC
  0
SECTION
  2
TABLES
  0
TABLE
  2
VPORT
  5
8
102
{ACAD_XDICTIONARY
360
4251
102
}
330
0
100
AcDbSymbolTable
 70
     1
1001
ACAD
1000
DbSaveVer
1071
        5
  0
VPORT
  5
41F7
330
8
100
AcDbSymbolTableRecord
100
AcDbViewportTableRecord
  2
*Active
 70
     0
 10
0.0
 20
0.0
 11
1.0
 21
1.0
 12
1406.03246314995
 22
243.9853970157922
 13
0.0
 23
0.0
 14
10.0
 24
10.0
 15
10.0
 25
10.0
 16
0.0
 26
0.0
 36
1.0
 17
0.0
 27
0.0
 37
0.0
 40
338.1927124381302
 41
2.292712066905615
 42
50.0
 43
0.0
 44
0.0
 50
0.0
 51
0.0
 71
     0
 72
 20000
 73
     1
 74
     3
 75
     0
 76
     0
 77
     0
 78
     0
281
     0
 65
     1
110
0.0
120
0.0
130
0.0
111
1.0
121
0.0
131
0.0
112
0.0
122
1.0
132
0.0
 79
     0
146
0.0
348
4217
 60
     3
 61
     5
292
     1
282
     1
141
0.0
142
0.0
 63
   250
421
  3355443
1001
ACAD_NAV_VCDISPLAY
1070
     3
  0
ENDTAB
  0
TABLE
  2
LTYPE
  5
5
330
0
100
AcDbSymbolTable
 70
     1
  0
LTYPE
  5
14
330
5
100
AcDbSymbolTableRecord
100
AcDbLinetypeTableRecord
  2
ByBlock
 70
     0
  3

 72
    65
 73
     0
 40
0.0
  0
LTYPE
  5
15
330
5
100
AcDbSymbolTableRecord
100
AcDbLinetypeTableRecord
  2
ByLayer
 70
     0
  3

 72
    65
 73
     0
 40
0.0
  0
LTYPE
  5
16
330
5
100
AcDbSymbolTableRecord
100
AcDbLinetypeTableRecord
  2
Continuous
 70
     0
  3
Solid line
 72
    65
 73
     0
 40
0.0
  0
ENDTAB
  0
TABLE
  2
LAYER
  5
2
102
{ACAD_XDICTIONARY
360
25C1
102
}
330
0
100
AcDbSymbolTable
 70
     4
  0
LAYER
  5
10
102
{ACAD_XDICTIONARY
360
4245
102
}
330
2
100
AcDbSymbolTableRecord
100
AcDbLayerTableRecord
  2
0
 70
     0
 62
     7
  6
Continuous
370
    -3
390
F
347
4209
348
0
  0
LAYER
  5
A53
330
2
100
AcDbSymbolTableRecord
100
AcDbLayerTableRecord
  2
Defpoints
 70
     0
 62
     7
  6
Continuous
290
     0
370
    -3
390
F
347
4209
348
0
  0
LAYER
  5
E3B
102
{ACAD_XDICTIONARY
360
4247
102
}
330
2
100
AcDbSymbolTableRecord
100
AcDbLayerTableRecord
  2
轮廓线
 70
     0
 62
     7
  6
Continuous
370
    -3
390
F
347
4209
348
0
  0
LAYER
  5
42B5
102
{ACAD_XDICTIONARY
360
42B6
102
}
330
2
100
AcDbSymbolTableRecord
100
AcDbLayerTableRecord
  2
图层4
 70
     0
 62
     5
  6
Continuous
370
    15
390
F
347
4209
348
0
  0
ENDTAB
  0
TABLE
  2
STYLE
  5
3
330
0
100
AcDbSymbolTable
 70
     3
  0
STYLE
  5
11
330
3
100
AcDbSymbolTableRecord
100
AcDbTextStyleTableRecord
  2
Standard
 70
     0
 40
0.0
 41
1.0
 50
0.0
 71
     0
 42
2.5
  3
arial_0.ttf
  4

1001
ACAD
1000
Arial
1071
       34
  0
STYLE
  5
4130
330
3
100
AcDbSymbolTableRecord
100
AcDbTextStyleTableRecord
  2
GN3
 70
     0
 40
0.156
 41
1.0
 50
0.0
 71
     0
 42
0.2
  3
arial_0.ttf
  4

1001
ACAD
1000
Arial
1071
       34
  0
STYLE
  5
4131
330
3
100
AcDbSymbolTableRecord
100
AcDbTextStyleTableRecord
  2
GN4
 70
     0
 40
0.188
 41
1.0
 50
0.0
 71
     0
 42
0.2
  3
ROMAND
  4

  0
ENDTAB
  0
TABLE
  2
VIEW
  5
6
330
0
100
AcDbSymbolTable
 70
     0
  0
ENDTAB
  0
TABLE
  2
UCS
  5
7
330
0
100
AcDbSymbolTable
 70
     0
  0
ENDTAB
  0
TABLE
  2
APPID
  5
9
330
0
100
AcDbSymbolTable
 70
    15
  0
APPID
  5
12
330
9
100
AcDbSymbolTableRecord
100
AcDbRegAppTableRecord
  2
ACAD
 70
     0
  0
APPID
  5
A80
330
9
100
AcDbSymbolTableRecord
100
AcDbRegAppTableRecord
  2
ACAD_EXEMPT_FROM_CAD_STANDARDS
 70
     0
  0
APPID
  5
B13
330
9
100
AcDbSymbolTableRecord
100
AcDbRegAppTableRecord
  2
DCO15
 70
     0
  0
APPID
  5
1A3B
330
9
100
AcDbSymbolTableRecord
100
AcDbRegAppTableRecord
  2
ACAD_PSEXT
 70
     0
  0
APPID
  5
1A3C
330
9
100
AcDbSymbolTableRecord
100
AcDbRegAppTableRecord
  2
ACAD_DSTYLE_DIMEXT_LENGTH
 70
     0
  0
APPID
  5
1A3D
330
9
100
AcDbSymbolTableRecord
100
AcDbRegAppTableRecord
  2
ACAD_DSTYLE_DIMEXT_ENABLED
 70
     0
  0
APPID
  5
1A3E
330
9
100
AcDbSymbolTableRecord
100
AcDbRegAppTableRecord
  2
ACAD_DSTYLE_DIMJOGGED_JOGANGLE_SYMBOL
 70
     0
  0
APPID
  5
1A3F
330
9
100
AcDbSymbolTableRecord
100
AcDbRegAppTableRecord
  2
ACAD_DSTYLE_DIMARC_LENGTH_SYMBOL
 70
     0
  0
APPID
  5
35B0
330
9
100
AcDbSymbolTableRecord
100
AcDbRegAppTableRecord
  2
ACAD_DSTYLE_DIMTEXT_FILL
 70
     0
  0
APPID
  5
35B3
330
9
100
AcDbSymbolTableRecord
100
AcDbRegAppTableRecord
  2
ACAD_DSTYLE_DIM_LINETYPE
 70
     0
  0
APPID
  5
35B4
330
9
100
AcDbSymbolTableRecord
100
AcDbRegAppTableRecord
  2
ACAD_DSTYLE_DIM_EXT1_LINETYPE
 70
     0
  0
APPID
  5
35B5
330
9
100
AcDbSymbolTableRecord
100
AcDbRegAppTableRecord
  2
ACAD_DSTYLE_DIM_EXT2_LINETYPE
 70
     0
  0
APPID
  5
4132
330
9
100
AcDbSymbolTableRecord
100
AcDbRegAppTableRecord
  2
PSP
 70
     0
  0
APPID
  5
4249
330
9
100
AcDbSymbolTableRecord
100
AcDbRegAppTableRecord
  2
ACAD_NAV_VCDISPLAY
 70
     0
  0
APPID
  5
4287
330
9
100
AcDbSymbolTableRecord
100
AcDbRegAppTableRecord
  2
ACAD_MLEADERVER
 70
     0
  0
ENDTAB
  0
TABLE
  2
DIMSTYLE
  5
A
330
0
100
AcDbSymbolTable
 70
     2
100
AcDbDimStyleTable
 71
     1
340
27
  0
DIMSTYLE
105
27
102
{ACAD_REACTORS
330
3E75
330
3E95
330
3EA2
330
5171
102
}
330
A
100
AcDbSymbolTableRecord
100
AcDbDimStyleTableRecord
  2
ISO-25
 70
     0
 40
4.0
 41
2.5
 42
0.625
 43
3.75
 44
1.25
 49
1.25
 73
     0
 74
     0
 77
     1
 78
     8
140
3.0
141
2.5
143
0.03937007874016
147
0.625
171
     3
172
     1
176
   256
177
   256
178
   256
271
     1
272
     1
274
     3
283
     0
284
     8
340
11
371
    -1
372
    -1
1001
ACAD_DSTYLE_DIMJOGGED_JOGANGLE_SYMBOL
1070
   384
1040
0.7853981633974483
  0
DIMSTYLE
105
42B7
330
A
100
AcDbSymbolTableRecord
100
AcDbDimStyleTableRecord
  2
线性标注
 70
     0
 41
2.5
 42
0.625
 43
3.75
 44
1.25
 73
     0
 74
     0
 77
     1
 78
     8
140
2.5
141
2.5
143
0.03937007874016
147
0.625
171
     3
172
     1
271
     1
272
     1
274
     3
283
     0
284
     8
340
11
342
4291
  0
ENDTAB
  0
TABLE
  2
BLOCK_RECORD
  5
1
330
0
100
AcDbSymbolTable
 70
    20
  0
BLOCK_RECORD
  5
1F
102
{ACAD_XDICTIONARY
360
ADA
102
}
330
1
100
AcDbSymbolTableRecord
100
AcDbBlockTableRecord
  2
*Model_Space
340
22
 70
     0
280
     1
281
     0
  0
BLOCK_RECORD
  5
1B
330
1
100
AcDbSymbolTableRecord
100
AcDbBlockTableRecord
  2
*Paper_Space
340
1E
 70
     0
280
     1
281
     0
  0
BLOCK_RECORD
  5
23
330
1
100
AcDbSymbolTableRecord
100
AcDbBlockTableRecord
  2
*Paper_Space0
340
26
 70
     0
280
     1
281
     0
  0
BLOCK_RECORD
  5
3E67
330
1
100
AcDbSymbolTableRecord
100
AcDbBlockTableRecord
  2
*D1
340
0
 70
     0
280
     1
281
     0
  0
BLOCK_RECORD
  5
3E76
330
1
100
AcDbSymbolTableRecord
100
AcDbBlockTableRecord
  2
*D2
340
0
 70
     0
280
     1
281
     0
  0
BLOCK_RECORD
  5
3E96
330
1
100
AcDbSymbolTableRecord
100
AcDbBlockTableRecord
  2
*D3
340
0
 70
     0
280
     1
281
     0
  0
BLOCK_RECORD
  5
3EA3
330
1
100
AcDbSymbolTableRecord
100
AcDbBlockTableRecord
  2
*D4
340
0
 70
     0
280
     1
281
     0
  0
BLOCK_RECORD
  5
4291
330
1
100
AcDbSymbolTableRecord
100
AcDbBlockTableRecord
  2
_ClosedBlank
340
0
 70
     0
280
     1
281
     0
  0
BLOCK_RECORD
  5
4297
330
1
100
AcDbSymbolTableRecord
100
AcDbBlockTableRecord
  2
_Open30
340
0
102
{BLKREFS
331
42A2
331
42A3
331
42AE
331
42AF
102
}
 70
     0
280
     1
281
     0
  0
BLOCK_RECORD
  5
429D
330
1
100
AcDbSymbolTableRecord
100
AcDbBlockTableRecord
  2
*D7
340
0
 70
     0
280
     1
281
     0
  0
BLOCK_RECORD
  5
42A9
330
1
100
AcDbSymbolTableRecord
100
AcDbBlockTableRecord
  2
*D8
340
0
 70
     0
280
     1
281
     0
  0
BLOCK_RECORD
  5
4310
330
1
100
AcDbSymbolTableRecord
100
AcDbBlockTableRecord
  2
*D9
340
0
 70
     0
280
     1
281
     0
  0
BLOCK_RECORD
  5
431C
330
1
100
AcDbSymbolTableRecord
100
AcDbBlockTableRecord
  2
*D10
340
0
 70
     0
280
     1
281
     0
  0
BLOCK_RECORD
  5
4A1E
330
1
100
AcDbSymbolTableRecord
100
AcDbBlockTableRecord
  2
*D11
340
0
 70
     0
280
     1
281
     0
  0
BLOCK_RECORD
  5
4A2A
330
1
100
AcDbSymbolTableRecord
100
AcDbBlockTableRecord
  2
*D12
340
0
 70
     0
280
     1
281
     0
  0
BLOCK_RECORD
  5
4A36
330
1
100
AcDbSymbolTableRecord
100
AcDbBlockTableRecord
  2
*D13
340
0
 70
     0
280
     1
281
     0
  0
BLOCK_RECORD
  5
4A42
330
1
100
AcDbSymbolTableRecord
100
AcDbBlockTableRecord
  2
*D14
340
0
 70
     0
280
     1
281
     0
  0
BLOCK_RECORD
  5
50AC
330
1
100
AcDbSymbolTableRecord
100
AcDbBlockTableRecord
  2
*D15
340
0
 70
     0
280
     1
281
     0
  0
BLOCK_RECORD
  5
50B8
330
1
100
AcDbSymbolTableRecord
100
AcDbBlockTableRecord
  2
*D16
340
0
 70
     0
280
     1
281
     0
  0
BLOCK_RECORD
  5
50C4
330
1
100
AcDbSymbolTableRecord
100
AcDbBlockTableRecord
  2
*D17
340
0
 70
     0
280
     1
281
     0
  0
BLOCK_RECORD
  5
50D0
330
1
100
AcDbSymbolTableRecord
100
AcDbBlockTableRecord
  2
*D18
340
0
 70
     0
280
     1
281
     0
  0
BLOCK_RECORD
  5
5172
330
1
100
AcDbSymbolTableRecord
100
AcDbBlockTableRecord
  2
*D19
340
0
 70
     0
280
     1
281
     0
  0
ENDTAB
  0
ENDSEC
  0
SECTION
  2
BLOCKS
  0
BLOCK
  5
20
330
1F
100
AcDbEntity
  8
0
100
AcDbBlockBegin
  2
*Model_Space
 70
     0
 10
0.0
 20
0.0
 30
0.0
  3
*Model_Space
  1

  0
ENDBLK
  5
21
330
1F
100
AcDbEntity
  8
0
100
AcDbBlockEnd
  0
BLOCK
  5
1C
330
1B
100
AcDbEntity
 67
     1
  8
0
100
AcDbBlockBegin
  2
*Paper_Space
 70
     0
 10
0.0
 20
0.0
 30
0.0
  3
*Paper_Space
  1

  0
ENDBLK
  5
1D
330
1B
100
AcDbEntity
 67
     1
  8
0
100
AcDbBlockEnd
  0
BLOCK
  5
24
330
23
100
AcDbEntity
 67
     1
  8
0
100
AcDbBlockBegin
  2
*Paper_Space0
 70
     0
 10
0.0
 20
0.0
 30
0.0
  3
*Paper_Space0
  1

  0
ENDBLK
  5
25
330
23
100
AcDbEntity
 67
     1
  8
0
100
AcDbBlockEnd
  0
BLOCK
  5
3E71
330
3E67
100
AcDbEntity
  8
0
100
AcDbBlockBegin
  2
*D1
 70
     1
 10
0.0
 20
0.0
 30
0.0
  3
*D1
  1

  0
LINE
  5
5168
330
3E67
100
AcDbEntity
  8
0
440
 16777216
100
AcDbLine
 10
1575.392718480619
 20
228.8863752331276
 30
0.0
 11
1599.374429954117
 21
228.8863752331276
 31
0.0
  0
LINE
  5
5169
330
3E67
100
AcDbEntity
  8
0
440
 16777216
100
AcDbLine
 10
1582.234723573798
 20
385.8863752331272
 30
0.0
 11
1599.374429954117
 21
385.8863752331272
 31
0.0
  0
LINE
  5
516A
330
3E67
100
AcDbEntity
  8
0
440
 16777216
100
AcDbLine
 10
1594.374429954117
 20
238.8863752331276
 30
0.0
 11
1594.374429954117
 21
375.8863752331273
 31
0.0
  0
SOLID
  5
516B
330
3E67
100
AcDbEntity
  8
0
440
 16777216
100
AcDbTrace
 10
1592.707763287451
 20
238.8863752331276
 30
0.0
 11
1596.041096620784
 21
238.8863752331276
 31
0.0
 12
1594.374429954117
 22
228.8863752331276
 32
0.0
 13
1594.374429954117
 23
228.8863752331276
 33
0.0
  0
SOLID
  5
516C
330
3E67
100
AcDbEntity
  8
0
440
 16777216
100
AcDbTrace
 10
1592.707763287451
 20
375.8863752331273
 30
0.0
 11
1596.041096620784
 21
375.8863752331273
 31
0.0
 12
1594.374429954117
 22
385.8863752331272
 32
0.0
 13
1594.374429954117
 23
385.8863752331272
 33
0.0
  0
MTEXT
  5
516D
330
3E67
100
AcDbEntity
  8
0
440
 16777216
370
    -3
100
AcDbMText
 10
1585.747554101457
 20
307.3863752331277
 30
0.0
 40
12.0
 41
0.0
 46
0.0
 71
     5
 72
     1
  1
150
 11
0.0000000000000001
 21
1.0
 31
0.0
 73
     1
 44
1.0
  0
POINT
  5
516E
330
3E67
100
AcDbEntity
  8
Defpoints
 62
     0
440
 16777216
100
AcDbPoint
 10
1572.892718480621
 20
228.8863752331276
 30
0.0
  0
POINT
  5
516F
330
3E67
100
AcDbEntity
  8
Defpoints
 62
     0
440
 16777216
100
AcDbPoint
 10
1579.734723573798
 20
385.8863752331272
 30
0.0
  0
POINT
  5
5170
330
3E67
100
AcDbEntity
  8
Defpoints
 62
     0
440
 16777216
100
AcDbPoint
 10
1594.374429954117
 20
385.8863752331272
 30
0.0
  0
ENDBLK
  5
3E72
330
3E67
100
AcDbEntity
  8
0
100
AcDbBlockEnd
  0
BLOCK
  5
3E80
330
3E76
100
AcDbEntity
  8
0
100
AcDbBlockBegin
  2
*D2
 70
     1
 10
0.0
 20
0.0
 30
0.0
  3
*D2
  1

  0
LINE
  5
528B
330
3E76
100
AcDbEntity
  8
0
440
 16777216
100
AcDbLine
 10
1583.323543146038
 20
76.11253273552943
 30
0.0
 11
1599.791096620785
 21
76.11253273552943
 31
0.0
  0
LINE
  5
528C
330
3E76
100
AcDbEntity
  8
0
440
 16777216
100
AcDbLine
 10
1580.379537214786
 20
187.1125327355295
 30
0.0
 11
1599.791096620785
 21
187.1125327355295
 31
0.0
  0
LINE
  5
528D
330
3E76
100
AcDbEntity
  8
0
440
 16777216
100
AcDbLine
 10
1594.791096620786
 20
86.11253273552943
 30
0.0
 11
1594.791096620786
 21
177.1125327355294
 31
0.0
  0
SOLID
  5
528E
330
3E76
100
AcDbEntity
  8
0
440
 16777216
100
AcDbTrace
 10
1593.124429954119
 20
86.11253273552943
 30
0.0
 11
1596.457763287452
 21
86.11253273552943
 31
0.0
 12
1594.791096620786
 22
76.11253273552943
 32
0.0
 13
1594.791096620786
 23
76.11253273552943
 33
0.0
  0
SOLID
  5
528F
330
3E76
100
AcDbEntity
  8
0
440
 16777216
100
AcDbTrace
 10
1593.124429954119
 20
177.1125327355294
 30
0.0
 11
1596.457763287452
 21
177.1125327355294
 31
0.0
 12
1594.791096620786
 22
187.1125327355295
 32
0.0
 13
1594.791096620786
 23
187.1125327355295
 33
0.0
  0
MTEXT
  5
5290
330
3E76
100
AcDbEntity
  8
0
440
 16777216
370
    -3
100
AcDbMText
 10
1586.266540004141
 20
131.612532735529
 30
0.0
 40
12.0
 41
0.0
 46
0.0
 71
     5
 72
     1
  1
111
 11
0.0000000000000001
 21
1.0
 31
0.0
 73
     1
 44
1.0
  0
POINT
  5
5291
330
3E76
100
AcDbEntity
  8
Defpoints
 62
     0
440
 16777216
100
AcDbPoint
 10
1580.823543146038
 20
76.11253273552943
 30
0.0
  0
POINT
  5
5292
330
3E76
100
AcDbEntity
  8
Defpoints
 62
     0
440
 16777216
100
AcDbPoint
 10
1577.879537214785
 20
187.1125327355295
 30
0.0
  0
POINT
  5
5293
330
3E76
100
AcDbEntity
  8
Defpoints
 62
     0
440
 16777216
100
AcDbPoint
 10
1594.791096620786
 20
187.1125327355295
 30
0.0
  0
ENDBLK
  5
3E81
330
3E76
100
AcDbEntity
  8
0
100
AcDbBlockEnd
  0
BLOCK
  5
3EA0
330
3E96
100
AcDbEntity
  8
0
100
AcDbBlockBegin
  2
*D3
 70
     1
 10
0.0
 20
0.0
 30
0.0
  3
*D3
  1

  0
LINE
  5
5294
330
3E96
100
AcDbEntity
  8
0
440
 16777216
100
AcDbLine
 10
1401.752432784551
 20
383.0518086878095
 30
0.0
 11
1401.752432784551
 21
398.9942967214763
 31
0.0
  0
LINE
  5
5295
330
3E96
100
AcDbEntity
  8
0
440
 16777216
100
AcDbLine
 10
1569.752432784551
 20
383.0518086878095
 30
0.0
 11
1569.752432784551
 21
398.9942967214763
 31
0.0
  0
LINE
  5
5296
330
3E96
100
AcDbEntity
  8
0
440
 16777216
100
AcDbLine
 10
1411.752432784551
 20
393.9942967214763
 30
0.0
 11
1559.752432784551
 21
393.9942967214763
 31
0.0
  0
SOLID
  5
5297
330
3E96
100
AcDbEntity
  8
0
440
 16777216
100
AcDbTrace
 10
1411.752432784551
 20
395.660963388143
 30
0.0
 11
1411.752432784551
 21
392.3276300548096
 31
0.0
 12
1401.752432784551
 22
393.9942967214763
 32
0.0
 13
1401.752432784551
 23
393.9942967214763
 33
0.0
  0
SOLID
  5
5298
330
3E96
100
AcDbEntity
  8
0
440
 16777216
100
AcDbTrace
 10
1559.752432784551
 20
395.660963388143
 30
0.0
 11
1559.752432784551
 21
392.3276300548096
 31
0.0
 12
1569.752432784551
 22
393.9942967214763
 32
0.0
 13
1569.752432784551
 23
393.9942967214763
 33
0.0
  0
MTEXT
  5
5299
330
3E96
100
AcDbEntity
  8
0
440
 16777216
370
    -3
100
AcDbMText
 10
1485.752432784551
 20
402.6211725741366
 30
0.0
 40
12.0
 41
0.0
 46
0.0
 71
     5
 72
     1
  1
168
 73
     1
 44
1.0
  0
POINT
  5
529A
330
3E96
100
AcDbEntity
  8
Defpoints
 62
     0
440
 16777216
100
AcDbPoint
 10
1401.752432784551
 20
380.5518086878095
 30
0.0
  0
POINT
  5
529B
330
3E96
100
AcDbEntity
  8
Defpoints
 62
     0
440
 16777216
100
AcDbPoint
 10
1569.752432784551
 20
380.5518086878095
 30
0.0
  0
POINT
  5
529C
330
3E96
100
AcDbEntity
  8
Defpoints
 62
     0
440
 16777216
100
AcDbPoint
 10
1569.752432784551
 20
393.9942967214763
 30
0.0
  0
ENDBLK
  5
3EA1
330
3E96
100
AcDbEntity
  8
0
100
AcDbBlockEnd
  0
BLOCK
  5
3EAD
330
3EA3
100
AcDbEntity
  8
0
100
AcDbBlockBegin
  2
*D4
 70
     1
 10
0.0
 20
0.0
 30
0.0
  3
*D4
  1

  0
LINE
  5
529D
330
3EA3
100
AcDbEntity
  8
0
440
 16777216
100
AcDbLine
 10
1421.752432784551
 20
189.6125327355294
 30
0.0
 11
1421.752432784551
 21
200.8485075835494
 31
0.0
  0
LINE
  5
529E
330
3EA3
100
AcDbEntity
  8
0
440
 16777216
100
AcDbLine
 10
1549.752432784551
 20
189.6125327355294
 30
0.0
 11
1549.752432784551
 21
200.8485075835494
 31
0.0
  0
LINE
  5
529F
330
3EA3
100
AcDbEntity
  8
0
440
 16777216
100
AcDbLine
 10
1431.752432784551
 20
195.8485075835494
 30
0.0
 11
1539.752432784551
 21
195.8485075835494
 31
0.0
  0
SOLID
  5
52A0
330
3EA3
100
AcDbEntity
  8
0
440
 16777216
100
AcDbTrace
 10
1431.752432784551
 20
197.5151742502161
 30
0.0
 11
1431.752432784551
 21
194.1818409168828
 31
0.0
 12
1421.752432784551
 22
195.8485075835494
 32
0.0
 13
1421.752432784551
 23
195.8485075835494
 33
0.0
  0
SOLID
  5
52A1
330
3EA3
100
AcDbEntity
  8
0
440
 16777216
100
AcDbTrace
 10
1539.752432784551
 20
197.5151742502161
 30
0.0
 11
1539.752432784551
 21
194.1818409168828
 31
0.0
 12
1549.752432784551
 22
195.8485075835494
 32
0.0
 13
1549.752432784551
 23
195.8485075835494
 33
0.0
  0
MTEXT
  5
52A2
330
3EA3
100
AcDbEntity
  8
0
440
 16777216
370
    -3
100
AcDbMText
 10
1485.752432784551
 20
204.4753834362097
 30
0.0
 40
12.0
 41
0.0
 46
0.0
 71
     5
 72
     1
  1
128
 73
     1
 44
1.0
  0
POINT
  5
52A3
330
3EA3
100
AcDbEntity
  8
Defpoints
 62
     0
440
 16777216
100
AcDbPoint
 10
1421.752432784551
 20
187.1125327355294
 30
0.0
  0
POINT
  5
52A4
330
3EA3
100
AcDbEntity
  8
Defpoints
 62
     0
440
 16777216
100
AcDbPoint
 10
1549.752432784551
 20
187.1125327355294
 30
0.0
  0
POINT
  5
52A5
330
3EA3
100
AcDbEntity
  8
Defpoints
 62
     0
440
 16777216
100
AcDbPoint
 10
1549.752432784551
 20
195.8485075835494
 30
0.0
  0
ENDBLK
  5
3EAE
330
3EA3
100
AcDbEntity
  8
0
100
AcDbBlockEnd
  0
BLOCK
  5
4292
330
4291
100
AcDbEntity
  8
0
 48
0.2
370
    35
100
AcDbBlockBegin
  2
_ClosedBlank
 70
     0
 10
0.0
 20
0.0
 30
0.0
  3
_ClosedBlank
  1

  0
LINE
  5
4293
330
4291
100
AcDbEntity
  8
0
  6
ByBlock
 62
     0
370
    -2
100
AcDbLine
 10
-1.0
 20
0.1666666666666666
 30
0.0
 11
0.0
 21
0.0
 31
0.0
  0
LINE
  5
4294
330
4291
100
AcDbEntity
  8
0
  6
ByBlock
 62
     0
370
    -2
100
AcDbLine
 10
0.0
 20
0.0
 30
0.0
 11
-1.0
 21
-0.1666666666666666
 31
0.0
  0
LINE
  5
4295
330
4291
100
AcDbEntity
  8
0
  6
ByBlock
 62
     0
370
    -2
100
AcDbLine
 10
-1.0
 20
0.1666666666666666
 30
0.0
 11
-1.0
 21
-0.1666666666666666
 31
0.0
  0
ENDBLK
  5
4296
330
4291
100
AcDbEntity
  8
0
 48
0.2
370
    35
100
AcDbBlockEnd
  0
BLOCK
  5
4298
330
4297
100
AcDbEntity
  8
0
100
AcDbBlockBegin
  2
_Open30
 70
     0
 10
0.0
 20
0.0
 30
0.0
  3
_Open30
  1

  0
LINE
  5
4299
330
4297
100
AcDbEntity
  8
图层4
 62
     0
370
    -2
100
AcDbLine
 10
-1.0
 20
0.26794919
 30
0.0
 11
0.0
 21
0.0
 31
0.0
  0
LINE
  5
429A
330
4297
100
AcDbEntity
  8
图层4
 62
     0
370
    -2
100
AcDbLine
 10
0.0
 20
0.0
 30
0.0
 11
-1.0
 21
-0.26794919
 31
0.0
  0
LINE
  5
429B
330
4297
100
AcDbEntity
  8
图层4
 62
     0
370
    -2
100
AcDbLine
 10
0.0
 20
0.0
 30
0.0
 11
-1.0
 21
0.0
 31
0.0
  0
ENDBLK
  5
429C
330
4297
100
AcDbEntity
  8
0
100
AcDbBlockEnd
  0
BLOCK
  5
429E
330
429D
100
AcDbEntity
  8
0
 48
0.5
100
AcDbBlockBegin
  2
*D7
 70
     1
 10
0.0
 20
0.0
 30
0.0
  3
*D7
  1

  0
LINE
  5
429F
330
429D
100
AcDbEntity
  8
图层4
440
 16777216
100
AcDbLine
 10
885.9750766006152
 20
498.9196005032836
 30
0.0
 11
856.9145307649726
 21
498.9196005032836
 31
0.0
  0
LINE
  5
42A0
330
429D
100
AcDbEntity
  8
图层4
440
 16777216
100
AcDbLine
 10
873.7250766006152
 20
341.9196005032832
 30
0.0
 11
856.9145307649726
 21
341.9196005032832
 31
0.0
  0
LINE
  5
42A1
330
429D
100
AcDbEntity
  8
图层4
440
 16777216
100
AcDbLine
 10
858.1645307649727
 20
496.9196005032833
 30
0.0
 11
858.1645307649727
 21
343.9196005032832
 31
0.0
  0
INSERT
  5
42A2
330
429D
100
AcDbEntity
  8
图层4
440
 16777216
100
AcDbBlockReference
  2
_Open30
 10
858.1645307649727
 20
498.9196005032836
 30
0.0
 41
2.0
 42
2.0
 43
2.0
 50
90.0
  0
INSERT
  5
42A3
330
429D
100
AcDbEntity
  8
图层4
440
 16777216
100
AcDbBlockReference
  2
_Open30
 10
858.1645307649727
 20
341.9196005032832
 30
0.0
 41
2.0
 42
2.0
 43
2.0
 50
270.0
  0
MTEXT
  5
42A4
330
429D
100
AcDbEntity
  8
图层4
440
 16777216
100
AcDbMText
 10
856.2895307649725
 20
420.4196005032834
 30
0.0
 40
2.5
 41
0.0
 46
0.0
 71
     5
 72
     1
  1
157
 11
0.0000000000000001
 21
1.0
 31
0.0
 73
     1
 44
1.0
  0
POINT
  5
42A5
330
429D
100
AcDbEntity
  8
Defpoints
 62
     0
440
 16777216
100
AcDbPoint
 10
886.6000766006152
 20
498.9196005032836
 30
0.0
  0
POINT
  5
42A6
330
429D
100
AcDbEntity
  8
Defpoints
 62
     0
440
 16777216
100
AcDbPoint
 10
874.3500766006151
 20
341.9196005032832
 30
0.0
  0
POINT
  5
42A7
330
429D
100
AcDbEntity
  8
Defpoints
 62
     0
440
 16777216
100
AcDbPoint
 10
858.1645307649727
 20
341.9196005032832
 30
0.0
  0
ENDBLK
  5
42A8
330
429D
100
AcDbEntity
  8
0
 48
0.5
100
AcDbBlockEnd
  0
BLOCK
  5
42AA
330
42A9
100
AcDbEntity
  8
0
 48
0.5
100
AcDbBlockBegin
  2
*D8
 70
     1
 10
0.0
 20
0.0
 30
0.0
  3
*D8
  1

  0
LINE
  5
42AB
330
42A9
100
AcDbEntity
  8
图层4
440
 16777216
100
AcDbLine
 10
885.6000766006149
 20
498.5446005032834
 30
0.0
 11
885.6000766006149
 21
508.7251358654508
 31
0.0
  0
LINE
  5
42AC
330
42A9
100
AcDbEntity
  8
图层4
440
 16777216
100
AcDbLine
 10
917.6000766006152
 20
498.5446005032834
 30
0.0
 11
917.6000766006152
 21
508.7251358654508
 31
0.0
  0
LINE
  5
42AD
330
42A9
100
AcDbEntity
  8
图层4
440
 16777216
100
AcDbLine
 10
887.6000766006152
 20
507.4751358654506
 30
0.0
 11
915.6000766006147
 21
507.4751358654506
 31
0.0
  0
INSERT
  5
42AE
330
42A9
100
AcDbEntity
  8
图层4
440
 16777216
100
AcDbBlockReference
  2
_Open30
 10
885.6000766006149
 20
507.4751358654506
 30
0.0
 41
2.0
 42
2.0
 43
2.0
 50
180.0
  0
INSERT
  5
42AF
330
42A9
100
AcDbEntity
  8
图层4
440
 16777216
100
AcDbBlockReference
  2
_Open30
 10
917.6000766006152
 20
507.4751358654506
 30
0.0
 41
2.0
 42
2.0
 43
2.0
  0
MTEXT
  5
42B0
330
42A9
100
AcDbEntity
  8
图层4
440
 16777216
100
AcDbMText
 10
901.6000766006147
 20
509.3501358654509
 30
0.0
 40
2.5
 41
0.0
 46
0.0
 71
     5
 72
     1
  1
%%C32
 73
     1
 44
1.0
  0
POINT
  5
42B1
330
42A9
100
AcDbEntity
  8
Defpoints
 62
     0
440
 16777216
100
AcDbPoint
 10
885.6000766006149
 20
497.9196005032833
 30
0.0
  0
POINT
  5
42B2
330
42A9
100
AcDbEntity
  8
Defpoints
 62
     0
440
 16777216
100
AcDbPoint
 10
917.6000766006152
 20
497.9196005032833
 30
0.0
  0
POINT
  5
42B3
330
42A9
100
AcDbEntity
  8
Defpoints
 62
     0
440
 16777216
100
AcDbPoint
 10
917.6000766006152
 20
507.4751358654506
 30
0.0
  0
ENDBLK
  5
42B4
330
42A9
100
AcDbEntity
  8
0
 48
0.5
100
AcDbBlockEnd
  0
BLOCK
  5
4311
330
4310
100
AcDbEntity
  8
0
100
AcDbBlockBegin
  2
*D9
 70
     1
 10
0.0
 20
0.0
 30
0.0
  3
*D9
  1

  0
LINE
  5
4329
330
4310
100
AcDbEntity
  8
图层4
440
 16777216
100
AcDbLine
 10
1900.88320065777
 20
257.0009407939376
 30
0.0
 11
1869.947654822127
 21
257.0009407939376
 31
0.0
  0
LINE
  5
432A
330
4310
100
AcDbEntity
  8
图层4
440
 16777216
100
AcDbLine
 10
1888.633200657769
 20
100.0009407939371
 30
0.0
 11
1869.947654822127
 21
100.0009407939371
 31
0.0
  0
LINE
  5
432B
330
4310
100
AcDbEntity
  8
图层4
440
 16777216
100
AcDbLine
 10
1874.947654822127
 20
247.0009407939375
 30
0.0
 11
1874.947654822127
 21
110.0009407939372
 31
0.0
  0
SOLID
  5
432C
330
4310
100
AcDbEntity
  8
图层4
440
 16777216
100
AcDbTrace
 10
1873.28098815546
 20
247.0009407939375
 30
0.0
 11
1876.614321488794
 21
247.0009407939375
 31
0.0
 12
1874.947654822127
 22
257.0009407939376
 32
0.0
 13
1874.947654822127
 23
257.0009407939376
 33
0.0
  0
SOLID
  5
432D
330
4310
100
AcDbEntity
  8
图层4
440
 16777216
100
AcDbTrace
 10
1873.28098815546
 20
110.0009407939372
 30
0.0
 11
1876.614321488794
 21
110.0009407939372
 31
0.0
 12
1874.947654822127
 22
100.0009407939371
 32
0.0
 13
1874.947654822127
 23
100.0009407939371
 33
0.0
  0
MTEXT
  5
432E
330
4310
100
AcDbEntity
  8
图层4
440
 16777216
100
AcDbMText
 10
1866.320778969466
 20
178.5009407939377
 30
0.0
 40
12.0
 41
0.0
 46
0.0
 71
     5
 72
     1
  1
157
 11
0.0000000000000001
 21
1.0
 31
0.0
 73
     1
 44
1.0
  0
POINT
  5
432F
330
4310
100
AcDbEntity
  8
Defpoints
 62
     0
440
 16777216
100
AcDbPoint
 10
1903.38320065777
 20
257.0009407939376
 30
0.0
  0
POINT
  5
4330
330
4310
100
AcDbEntity
  8
Defpoints
 62
     0
440
 16777216
100
AcDbPoint
 10
1891.133200657769
 20
100.0009407939371
 30
0.0
  0
POINT
  5
4331
330
4310
100
AcDbEntity
  8
Defpoints
 62
     0
440
 16777216
100
AcDbPoint
 10
1874.947654822127
 20
100.0009407939371
 30
0.0
  0
ENDBLK
  5
4312
330
4310
100
AcDbEntity
  8
0
100
AcDbBlockEnd
  0
BLOCK
  5
431D
330
431C
100
AcDbEntity
  8
0
100
AcDbBlockBegin
  2
*D10
 70
     1
 10
0.0
 20
0.0
 30
0.0
  3
*D10
  1

  0
LINE
  5
4332
330
431C
100
AcDbEntity
  8
图层4
440
 16777216
100
AcDbLine
 10
1902.383200657769
 20
258.5009407939373
 30
0.0
 11
1902.383200657769
 21
270.5564761561047
 31
0.0
  0
LINE
  5
4333
330
431C
100
AcDbEntity
  8
图层4
440
 16777216
100
AcDbLine
 10
1934.38320065777
 20
258.5009407939373
 30
0.0
 11
1934.38320065777
 21
270.5564761561047
 31
0.0
  0
LINE
  5
4334
330
431C
100
AcDbEntity
  8
图层4
440
 16777216
100
AcDbLine
 10
1912.383200657769
 20
265.5564761561048
 30
0.0
 11
1924.38320065777
 21
265.5564761561048
 31
0.0
  0
LINE
  5
4335
330
431C
100
AcDbEntity
  8
图层4
440
 16777216
100
AcDbLine
 10
1934.38320065777
 20
265.5564761561048
 30
0.0
 11
1979.505983740989
 21
265.5564761561048
 31
0.0
  0
SOLID
  5
4336
330
431C
100
AcDbEntity
  8
图层4
440
 16777216
100
AcDbTrace
 10
1912.383200657769
 20
267.2231428227714
 30
0.0
 11
1912.383200657769
 21
263.889809489438
 31
0.0
 12
1902.383200657769
 22
265.5564761561048
 32
0.0
 13
1902.383200657769
 23
265.5564761561048
 33
0.0
  0
SOLID
  5
4337
330
431C
100
AcDbEntity
  8
图层4
440
 16777216
100
AcDbTrace
 10
1924.38320065777
 20
267.2231428227714
 30
0.0
 11
1924.38320065777
 21
263.889809489438
 31
0.0
 12
1934.38320065777
 22
265.5564761561048
 32
0.0
 13
1934.38320065777
 23
265.5564761561048
 33
0.0
  0
MTEXT
  5
4338
330
431C
100
AcDbEntity
  8
图层4
440
 16777216
100
AcDbMText
 10
1961.944592199379
 20
274.5189591028987
 30
0.0
 40
12.0
 41
0.0
 46
0.0
 71
     5
 72
     1
  1
%%C32
 73
     1
 44
1.0
  0
POINT
  5
4339
330
431C
100
AcDbEntity
  8
Defpoints
 62
     0
440
 16777216
100
AcDbPoint
 10
1902.383200657769
 20
256.0009407939373
 30
0.0
  0
POINT
  5
433A
330
431C
100
AcDbEntity
  8
Defpoints
 62
     0
440
 16777216
100
AcDbPoint
 10
1934.38320065777
 20
256.0009407939373
 30
0.0
  0
POINT
  5
433B
330
431C
100
AcDbEntity
  8
Defpoints
 62
     0
440
 16777216
100
AcDbPoint
 10
1934.38320065777
 20
265.5564761561048
 30
0.0
  0
ENDBLK
  5
431E
330
431C
100
AcDbEntity
  8
0
100
AcDbBlockEnd
  0
BLOCK
  5
4A1F
330
4A1E
100
AcDbEntity
  8
0
100
AcDbBlockBegin
  2
*D11
 70
     1
 10
0.0
 20
0.0
 30
0.0
  3
*D11
  1

  0
LINE
  5
4A20
330
4A1E
100
AcDbEntity
  8
0
440
 16777216
100
AcDbLine
 10
1580.379537214786
 20
228.5022286035575
 30
0.0
 11
1599.374429954117
 21
228.5022286035575
 31
0.0
  0
LINE
  5
4A21
330
4A1E
100
AcDbEntity
  8
0
440
 16777216
100
AcDbLine
 10
1580.379537240245
 20
378.2901439877576
 30
0.0
 11
1599.374429954117
 21
378.2901439877576
 31
0.0
  0
LINE
  5
4A22
330
4A1E
100
AcDbEntity
  8
0
440
 16777216
100
AcDbLine
 10
1594.374429954117
 20
238.5022286035575
 30
0.0
 11
1594.374429954117
 21
368.2901439877576
 31
0.0
  0
SOLID
  5
4A23
330
4A1E
100
AcDbEntity
  8
0
440
 16777216
100
AcDbTrace
 10
1592.707763287451
 20
238.5022286035575
 30
0.0
 11
1596.041096620784
 21
238.5022286035575
 31
0.0
 12
1594.374429954117
 22
228.5022286035575
 32
0.0
 13
1594.374429954117
 23
228.5022286035575
 33
0.0
  0
SOLID
  5
4A24
330
4A1E
100
AcDbEntity
  8
0
440
 16777216
100
AcDbTrace
 10
1592.707763287451
 20
368.2901439877576
 30
0.0
 11
1596.041096620784
 21
368.2901439877576
 31
0.0
 12
1594.374429954117
 22
378.2901439877576
 32
0.0
 13
1594.374429954117
 23
378.2901439877576
 33
0.0
  0
MTEXT
  5
4A25
330
4A1E
100
AcDbEntity
  8
0
440
 16777216
370
    -3
100
AcDbMText
 10
1585.747554101457
 20
303.3961862956578
 30
0.0
 40
12.0
 41
0.0
 46
0.0
 71
     5
 72
     1
  1
150
 11
0.0000000000000001
 21
1.0
 31
0.0
 73
     1
 44
1.0
  0
POINT
  5
4A26
330
4A1E
100
AcDbEntity
  8
Defpoints
 62
     0
440
 16777216
100
AcDbPoint
 10
1577.879537214785
 20
228.5022286035575
 30
0.0
  0
POINT
  5
4A27
330
4A1E
100
AcDbEntity
  8
Defpoints
 62
     0
440
 16777216
100
AcDbPoint
 10
1577.879537240245
 20
378.2901439877576
 30
0.0
  0
POINT
  5
4A28
330
4A1E
100
AcDbEntity
  8
Defpoints
 62
     0
440
 16777216
100
AcDbPoint
 10
1594.374429954117
 20
378.2901439877576
 30
0.0
  0
ENDBLK
  5
4A29
330
4A1E
100
AcDbEntity
  8
0
100
AcDbBlockEnd
  0
BLOCK
  5
4A2B
330
4A2A
100
AcDbEntity
  8
0
100
AcDbBlockBegin
  2
*D12
 70
     1
 10
0.0
 20
0.0
 30
0.0
  3
*D12
  1

  0
LINE
  5
4A2C
330
4A2A
100
AcDbEntity
  8
0
440
 16777216
100
AcDbLine
 10
1580.379537214786
 20
80.11253273552936
 30
0.0
 11
1599.791096620784
 21
80.11253273552936
 31
0.0
  0
LINE
  5
4A2D
330
4A2A
100
AcDbEntity
  8
0
440
 16777216
100
AcDbLine
 10
1580.379537214786
 20
187.1125327355294
 30
0.0
 11
1599.791096620784
 21
187.1125327355294
 31
0.0
  0
LINE
  5
4A2E
330
4A2A
100
AcDbEntity
  8
0
440
 16777216
100
AcDbLine
 10
1594.791096620784
 20
90.11253273552936
 30
0.0
 11
1594.791096620784
 21
177.1125327355294
 31
0.0
  0
SOLID
  5
4A2F
330
4A2A
100
AcDbEntity
  8
0
440
 16777216
100
AcDbTrace
 10
1593.124429954117
 20
90.11253273552936
 30
0.0
 11
1596.457763287451
 21
90.11253273552936
 31
0.0
 12
1594.791096620784
 22
80.11253273552936
 32
0.0
 13
1594.791096620784
 23
80.11253273552936
 33
0.0
  0
SOLID
  5
4A30
330
4A2A
100
AcDbEntity
  8
0
440
 16777216
100
AcDbTrace
 10
1593.124429954117
 20
177.1125327355294
 30
0.0
 11
1596.457763287451
 21
177.1125327355294
 31
0.0
 12
1594.791096620784
 22
187.1125327355294
 32
0.0
 13
1594.791096620784
 23
187.1125327355294
 33
0.0
  0
MTEXT
  5
4A31
330
4A2A
100
AcDbEntity
  8
0
440
 16777216
370
    -3
100
AcDbMText
 10
1586.164220768124
 20
133.6125327355295
 30
0.0
 40
12.0
 41
0.0
 46
0.0
 71
     5
 72
     1
  1
107
 11
0.0000000000000001
 21
1.0
 31
0.0
 73
     1
 44
1.0
  0
POINT
  5
4A32
330
4A2A
100
AcDbEntity
  8
Defpoints
 62
     0
440
 16777216
100
AcDbPoint
 10
1577.879537214785
 20
80.11253273552936
 30
0.0
  0
POINT
  5
4A33
330
4A2A
100
AcDbEntity
  8
Defpoints
 62
     0
440
 16777216
100
AcDbPoint
 10
1577.879537214785
 20
187.1125327355294
 30
0.0
  0
POINT
  5
4A34
330
4A2A
100
AcDbEntity
  8
Defpoints
 62
     0
440
 16777216
100
AcDbPoint
 10
1594.791096620784
 20
187.1125327355294
 30
0.0
  0
ENDBLK
  5
4A35
330
4A2A
100
AcDbEntity
  8
0
100
AcDbBlockEnd
  0
BLOCK
  5
4A37
330
4A36
100
AcDbEntity
  8
0
100
AcDbBlockBegin
  2
*D13
 70
     1
 10
0.0
 20
0.0
 30
0.0
  3
*D13
  1

  0
LINE
  5
4A38
330
4A36
100
AcDbEntity
  8
0
440
 16777216
100
AcDbLine
 10
1401.752432784551
 20
383.0518086878095
 30
0.0
 11
1401.752432784551
 21
398.9942967214763
 31
0.0
  0
LINE
  5
4A39
330
4A36
100
AcDbEntity
  8
0
440
 16777216
100
AcDbLine
 10
1569.752432784551
 20
383.0518086878095
 30
0.0
 11
1569.752432784551
 21
398.9942967214763
 31
0.0
  0
LINE
  5
4A3A
330
4A36
100
AcDbEntity
  8
0
440
 16777216
100
AcDbLine
 10
1411.752432784551
 20
393.9942967214763
 30
0.0
 11
1559.752432784551
 21
393.9942967214763
 31
0.0
  0
SOLID
  5
4A3B
330
4A36
100
AcDbEntity
  8
0
440
 16777216
100
AcDbTrace
 10
1411.752432784551
 20
395.660963388143
 30
0.0
 11
1411.752432784551
 21
392.3276300548097
 31
0.0
 12
1401.752432784551
 22
393.9942967214763
 32
0.0
 13
1401.752432784551
 23
393.9942967214763
 33
0.0
  0
SOLID
  5
4A3C
330
4A36
100
AcDbEntity
  8
0
440
 16777216
100
AcDbTrace
 10
1559.752432784551
 20
395.660963388143
 30
0.0
 11
1559.752432784551
 21
392.3276300548097
 31
0.0
 12
1569.752432784551
 22
393.9942967214763
 32
0.0
 13
1569.752432784551
 23
393.9942967214763
 33
0.0
  0
MTEXT
  5
4A3D
330
4A36
100
AcDbEntity
  8
0
440
 16777216
370
    -3
100
AcDbMText
 10
1485.752432784551
 20
402.6211725741366
 30
0.0
 40
12.0
 41
0.0
 46
0.0
 71
     5
 72
     1
  1
168
 73
     1
 44
1.0
  0
POINT
  5
4A3E
330
4A36
100
AcDbEntity
  8
Defpoints
 62
     0
440
 16777216
100
AcDbPoint
 10
1401.752432784551
 20
380.5518086878095
 30
0.0
  0
POINT
  5
4A3F
330
4A36
100
AcDbEntity
  8
Defpoints
 62
     0
440
 16777216
100
AcDbPoint
 10
1569.752432784551
 20
380.5518086878095
 30
0.0
  0
POINT
  5
4A40
330
4A36
100
AcDbEntity
  8
Defpoints
 62
     0
440
 16777216
100
AcDbPoint
 10
1569.752432784551
 20
393.9942967214763
 30
0.0
  0
ENDBLK
  5
4A41
330
4A36
100
AcDbEntity
  8
0
100
AcDbBlockEnd
  0
BLOCK
  5
4A43
330
4A42
100
AcDbEntity
  8
0
100
AcDbBlockBegin
  2
*D14
 70
     1
 10
0.0
 20
0.0
 30
0.0
  3
*D14
  1

  0
LINE
  5
4A44
330
4A42
100
AcDbEntity
  8
0
440
 16777216
100
AcDbLine
 10
1421.752432784551
 20
189.6125327355294
 30
0.0
 11
1421.752432784551
 21
200.8485075835495
 31
0.0
  0
LINE
  5
4A45
330
4A42
100
AcDbEntity
  8
0
440
 16777216
100
AcDbLine
 10
1549.752432784551
 20
189.6125327355294
 30
0.0
 11
1549.752432784551
 21
200.8485075835495
 31
0.0
  0
LINE
  5
4A46
330
4A42
100
AcDbEntity
  8
0
440
 16777216
100
AcDbLine
 10
1431.752432784551
 20
195.8485075835494
 30
0.0
 11
1539.752432784551
 21
195.8485075835494
 31
0.0
  0
SOLID
  5
4A47
330
4A42
100
AcDbEntity
  8
0
440
 16777216
100
AcDbTrace
 10
1431.752432784551
 20
197.5151742502161
 30
0.0
 11
1431.752432784551
 21
194.1818409168828
 31
0.0
 12
1421.752432784551
 22
195.8485075835494
 32
0.0
 13
1421.752432784551
 23
195.8485075835494
 33
0.0
  0
SOLID
  5
4A48
330
4A42
100
AcDbEntity
  8
0
440
 16777216
100
AcDbTrace
 10
1539.752432784551
 20
197.5151742502161
 30
0.0
 11
1539.752432784551
 21
194.1818409168828
 31
0.0
 12
1549.752432784551
 22
195.8485075835494
 32
0.0
 13
1549.752432784551
 23
195.8485075835494
 33
0.0
  0
MTEXT
  5
4A49
330
4A42
100
AcDbEntity
  8
0
440
 16777216
370
    -3
100
AcDbMText
 10
1485.752432784551
 20
204.4753834362098
 30
0.0
 40
12.0
 41
0.0
 46
0.0
 71
     5
 72
     1
  1
128
 73
     1
 44
1.0
  0
POINT
  5
4A4A
330
4A42
100
AcDbEntity
  8
Defpoints
 62
     0
440
 16777216
100
AcDbPoint
 10
1421.752432784551
 20
187.1125327355294
 30
0.0
  0
POINT
  5
4A4B
330
4A42
100
AcDbEntity
  8
Defpoints
 62
     0
440
 16777216
100
AcDbPoint
 10
1549.752432784551
 20
187.1125327355294
 30
0.0
  0
POINT
  5
4A4C
330
4A42
100
AcDbEntity
  8
Defpoints
 62
     0
440
 16777216
100
AcDbPoint
 10
1549.752432784551
 20
195.8485075835494
 30
0.0
  0
ENDBLK
  5
4A4D
330
4A42
100
AcDbEntity
  8
0
100
AcDbBlockEnd
  0
BLOCK
  5
50AD
330
50AC
100
AcDbEntity
  8
0
100
AcDbBlockBegin
  2
*D15
 70
     1
 10
0.0
 20
0.0
 30
0.0
  3
*D15
  1

  0
LINE
  5
50DC
330
50AC
100
AcDbEntity
  8
0
440
 16777216
100
AcDbLine
 10
764.2298080368582
 20
0.9620401340668529
 30
0.0
 11
783.2247007761901
 21
0.9620401340668475
 31
0.0
  0
LINE
  5
50DD
330
50AC
100
AcDbEntity
  8
0
440
 16777216
100
AcDbLine
 10
764.2298080623178
 20
150.7499555182669
 30
0.0
 11
783.2247007761901
 21
150.7499555182669
 31
0.0
  0
LINE
  5
50DE
330
50AC
100
AcDbEntity
  8
0
440
 16777216
100
AcDbLine
 10
778.2247007761902
 20
10.96204013406685
 30
0.0
 11
778.2247007761902
 21
140.7499555182669
 31
0.0
  0
SOLID
  5
50DF
330
50AC
100
AcDbEntity
  8
0
440
 16777216
100
AcDbTrace
 10
776.5580341095236
 20
10.96204013406685
 30
0.0
 11
779.8913674428569
 21
10.96204013406685
 31
0.0
 12
778.2247007761902
 22
0.962040134066849
 32
0.0
 13
778.2247007761902
 23
0.962040134066849
 33
0.0
  0
SOLID
  5
50E0
330
50AC
100
AcDbEntity
  8
0
440
 16777216
100
AcDbTrace
 10
776.5580341095236
 20
140.7499555182669
 30
0.0
 11
779.8913674428569
 21
140.7499555182669
 31
0.0
 12
778.2247007761902
 22
150.7499555182669
 32
0.0
 13
778.2247007761902
 23
150.7499555182669
 33
0.0
  0
MTEXT
  5
50E1
330
50AC
100
AcDbEntity
  8
0
440
 16777216
370
    -3
100
AcDbMText
 10
769.59782492353
 20
75.85599782616701
 30
0.0
 40
12.0
 41
0.0
 46
0.0
 71
     5
 72
     1
  1
150
 11
0.0000000000000001
 21
1.0
 31
0.0
 73
     1
 44
1.0
  0
POINT
  5
50E2
330
50AC
100
AcDbEntity
  8
Defpoints
 62
     0
440
 16777216
100
AcDbPoint
 10
761.7298080368582
 20
0.9620401340668536
 30
0.0
  0
POINT
  5
50E3
330
50AC
100
AcDbEntity
  8
Defpoints
 62
     0
440
 16777216
100
AcDbPoint
 10
761.7298080623178
 20
150.7499555182669
 30
0.0
  0
POINT
  5
50E4
330
50AC
100
AcDbEntity
  8
Defpoints
 62
     0
440
 16777216
100
AcDbPoint
 10
778.2247007761902
 20
150.7499555182669
 30
0.0
  0
ENDBLK
  5
50AE
330
50AC
100
AcDbEntity
  8
0
100
AcDbBlockEnd
  0
BLOCK
  5
50B9
330
50B8
100
AcDbEntity
  8
0
100
AcDbBlockBegin
  2
*D16
 70
     1
 10
0.0
 20
0.0
 30
0.0
  3
*D16
  1

  0
LINE
  5
50E5
330
50B8
100
AcDbEntity
  8
0
440
 16777216
100
AcDbLine
 10
764.2298080368582
 20
-147.4276557339613
 30
0.0
 11
783.6413674428568
 21
-147.4276557339613
 31
0.0
  0
LINE
  5
50E6
330
50B8
100
AcDbEntity
  8
0
440
 16777216
100
AcDbLine
 10
764.2298080368582
 20
-40.42765573396127
 30
0.0
 11
783.6413674428568
 21
-40.42765573396127
 31
0.0
  0
LINE
  5
50E7
330
50B8
100
AcDbEntity
  8
0
440
 16777216
100
AcDbLine
 10
778.6413674428567
 20
-137.4276557339612
 30
0.0
 11
778.6413674428567
 21
-50.42765573396128
 31
0.0
  0
SOLID
  5
50E8
330
50B8
100
AcDbEntity
  8
0
440
 16777216
100
AcDbTrace
 10
776.9747007761901
 20
-137.4276557339612
 30
0.0
 11
780.3080341095233
 21
-137.4276557339612
 31
0.0
 12
778.6413674428567
 22
-147.4276557339613
 32
0.0
 13
778.6413674428567
 23
-147.4276557339613
 33
0.0
  0
SOLID
  5
50E9
330
50B8
100
AcDbEntity
  8
0
440
 16777216
100
AcDbTrace
 10
776.9747007761901
 20
-50.42765573396128
 30
0.0
 11
780.3080341095233
 21
-50.42765573396128
 31
0.0
 12
778.6413674428567
 22
-40.42765573396127
 32
0.0
 13
778.6413674428567
 23
-40.42765573396127
 33
0.0
  0
MTEXT
  5
50EA
330
50B8
100
AcDbEntity
  8
0
440
 16777216
370
    -3
100
AcDbMText
 10
770.0144915901963
 20
-93.92765573396117
 30
0.0
 40
12.0
 41
0.0
 46
0.0
 71
     5
 72
     1
  1
107
 11
0.0000000000000001
 21
1.0
 31
0.0
 73
     1
 44
1.0
  0
POINT
  5
50EB
330
50B8
100
AcDbEntity
  8
Defpoints
 62
     0
440
 16777216
100
AcDbPoint
 10
761.7298080368582
 20
-147.4276557339613
 30
0.0
  0
POINT
  5
50EC
330
50B8
100
AcDbEntity
  8
Defpoints
 62
     0
440
 16777216
100
AcDbPoint
 10
761.7298080368582
 20
-40.42765573396127
 30
0.0
  0
POINT
  5
50ED
330
50B8
100
AcDbEntity
  8
Defpoints
 62
     0
440
 16777216
100
AcDbPoint
 10
778.6413674428567
 20
-40.42765573396127
 30
0.0
  0
ENDBLK
  5
50BA
330
50B8
100
AcDbEntity
  8
0
100
AcDbBlockEnd
  0
BLOCK
  5
50C5
330
50C4
100
AcDbEntity
  8
0
100
AcDbBlockBegin
  2
*D17
 70
     1
 10
0.0
 20
0.0
 30
0.0
  3
*D17
  1

  0
LINE
  5
50EE
330
50C4
100
AcDbEntity
  8
0
440
 16777216
100
AcDbLine
 10
585.6027036066238
 20
155.5116202183188
 30
0.0
 11
585.6027036066238
 21
171.4541082519856
 31
0.0
  0
LINE
  5
50EF
330
50C4
100
AcDbEntity
  8
0
440
 16777216
100
AcDbLine
 10
753.6027036066236
 20
155.5116202183188
 30
0.0
 11
753.6027036066236
 21
171.4541082519856
 31
0.0
  0
LINE
  5
50F0
330
50C4
100
AcDbEntity
  8
0
440
 16777216
100
AcDbLine
 10
595.6027036066237
 20
166.4541082519856
 30
0.0
 11
743.6027036066239
 21
166.4541082519856
 31
0.0
  0
SOLID
  5
50F1
330
50C4
100
AcDbEntity
  8
0
440
 16777216
100
AcDbTrace
 10
595.6027036066237
 20
168.1207749186523
 30
0.0
 11
595.6027036066237
 21
164.787441585319
 31
0.0
 12
585.6027036066238
 22
166.4541082519856
 32
0.0
 13
585.6027036066238
 23
166.4541082519856
 33
0.0
  0
SOLID
  5
50F2
330
50C4
100
AcDbEntity
  8
0
440
 16777216
100
AcDbTrace
 10
743.6027036066239
 20
168.1207749186523
 30
0.0
 11
743.6027036066239
 21
164.787441585319
 31
0.0
 12
753.6027036066236
 22
166.4541082519856
 32
0.0
 13
753.6027036066236
 23
166.4541082519856
 33
0.0
  0
MTEXT
  5
50F3
330
50C4
100
AcDbEntity
  8
0
440
 16777216
370
    -3
100
AcDbMText
 10
669.6027036066237
 20
175.0809841046459
 30
0.0
 40
12.0
 41
0.0
 46
0.0
 71
     5
 72
     1
  1
168
 73
     1
 44
1.0
  0
POINT
  5
50F4
330
50C4
100
AcDbEntity
  8
Defpoints
 62
     0
440
 16777216
100
AcDbPoint
 10
585.6027036066238
 20
153.0116202183188
 30
0.0
  0
POINT
  5
50F5
330
50C4
100
AcDbEntity
  8
Defpoints
 62
     0
440
 16777216
100
AcDbPoint
 10
753.6027036066236
 20
153.0116202183188
 30
0.0
  0
POINT
  5
50F6
330
50C4
100
AcDbEntity
  8
Defpoints
 62
     0
440
 16777216
100
AcDbPoint
 10
753.6027036066236
 20
166.4541082519856
 30
0.0
  0
ENDBLK
  5
50C6
330
50C4
100
AcDbEntity
  8
0
100
AcDbBlockEnd
  0
BLOCK
  5
50D1
330
50D0
100
AcDbEntity
  8
0
100
AcDbBlockBegin
  2
*D18
 70
     1
 10
0.0
 20
0.0
 30
0.0
  3
*D18
  1

  0
LINE
  5
50F7
330
50D0
100
AcDbEntity
  8
0
440
 16777216
100
AcDbLine
 10
605.6027036066239
 20
-37.92765573396128
 30
0.0
 11
605.6027036066239
 21
-26.6916808859412
 31
0.0
  0
LINE
  5
50F8
330
50D0
100
AcDbEntity
  8
0
440
 16777216
100
AcDbLine
 10
733.6027036066239
 20
-37.92765573396128
 30
0.0
 11
733.6027036066239
 21
-26.6916808859412
 31
0.0
  0
LINE
  5
50F9
330
50D0
100
AcDbEntity
  8
0
440
 16777216
100
AcDbLine
 10
615.6027036066237
 20
-31.6916808859412
 30
0.0
 11
723.6027036066237
 21
-31.6916808859412
 31
0.0
  0
SOLID
  5
50FA
330
50D0
100
AcDbEntity
  8
0
440
 16777216
100
AcDbTrace
 10
615.6027036066237
 20
-30.02501421927453
 30
0.0
 11
615.6027036066237
 21
-33.35834755260786
 31
0.0
 12
605.6027036066239
 22
-31.6916808859412
 32
0.0
 13
605.6027036066239
 23
-31.6916808859412
 33
0.0
  0
SOLID
  5
50FB
330
50D0
100
AcDbEntity
  8
0
440
 16777216
100
AcDbTrace
 10
723.6027036066237
 20
-30.02501421927453
 30
0.0
 11
723.6027036066237
 21
-33.35834755260786
 31
0.0
 12
733.6027036066239
 22
-31.6916808859412
 32
0.0
 13
733.6027036066239
 23
-31.6916808859412
 33
0.0
  0
MTEXT
  5
50FC
330
50D0
100
AcDbEntity
  8
0
440
 16777216
370
    -3
100
AcDbMText
 10
669.6027036066237
 20
-23.0648050332809
 30
0.0
 40
12.0
 41
0.0
 46
0.0
 71
     5
 72
     1
  1
128
 73
     1
 44
1.0
  0
POINT
  5
50FD
330
50D0
100
AcDbEntity
  8
Defpoints
 62
     0
440
 16777216
100
AcDbPoint
 10
605.6027036066239
 20
-40.42765573396127
 30
0.0
  0
POINT
  5
50FE
330
50D0
100
AcDbEntity
  8
Defpoints
 62
     0
440
 16777216
100
AcDbPoint
 10
733.6027036066239
 20
-40.42765573396127
 30
0.0
  0
POINT
  5
50FF
330
50D0
100
AcDbEntity
  8
Defpoints
 62
     0
440
 16777216
100
AcDbPoint
 10
733.6027036066239
 20
-31.6916808859412
 30
0.0
  0
ENDBLK
  5
50D2
330
50D0
100
AcDbEntity
  8
0
100
AcDbBlockEnd
  0
BLOCK
  5
5173
330
5172
100
AcDbEntity
  8
0
100
AcDbBlockBegin
  2
*D19
 70
     1
 10
0.0
 20
0.0
 30
0.0
  3
*D19
  1

  0
LINE
  5
52A6
330
5172
100
AcDbEntity
  8
轮廓线
440
 16777216
100
AcDbLine
 10
1590.816374873765
 20
385.886375233128
 30
0.0
 11
1604.380316962978
 21
385.886375233128
 31
0.0
  0
LINE
  5
52A7
330
5172
100
AcDbEntity
  8
轮廓线
440
 16777216
100
AcDbLine
 10
1585.910845918371
 20
228.8863752331276
 30
0.0
 11
1604.380316962978
 21
228.8863752331277
 31
0.0
  0
LINE
  5
52A8
330
5172
100
AcDbEntity
  8
轮廓线
440
 16777216
100
AcDbLine
 10
1599.380316962978
 20
375.886375233128
 30
0.0
 11
1599.380316962978
 21
238.8863752331277
 31
0.0
  0
SOLID
  5
52A9
330
5172
100
AcDbEntity
  8
轮廓线
440
 16777216
100
AcDbTrace
 10
1597.713650296311
 20
375.886375233128
 30
0.0
 11
1601.046983629645
 21
375.886375233128
 31
0.0
 12
1599.380316962978
 22
385.886375233128
 32
0.0
 13
1599.380316962978
 23
385.886375233128
 33
0.0
  0
SOLID
  5
52AA
330
5172
100
AcDbEntity
  8
轮廓线
440
 16777216
100
AcDbTrace
 10
1597.713650296311
 20
238.8863752331277
 30
0.0
 11
1601.046983629645
 21
238.8863752331277
 31
0.0
 12
1599.380316962978
 22
228.8863752331276
 32
0.0
 13
1599.380316962978
 23
228.8863752331276
 33
0.0
  0
MTEXT
  5
52AB
330
5172
100
AcDbEntity
  8
轮廓线
440
 16777216
100
AcDbMText
 10
1590.753441110317
 20
307.3863752331273
 30
0.0
 40
12.0
 41
0.0
 46
0.0
 71
     5
 72
     1
  1
157
 11
0.0000000000000001
 21
1.0
 31
0.0
 73
     1
 44
1.0
  0
POINT
  5
52AC
330
5172
100
AcDbEntity
  8
Defpoints
 62
     0
440
 16777216
100
AcDbPoint
 10
1588.316374873765
 20
385.886375233128
 30
0.0
  0
POINT
  5
52AD
330
5172
100
AcDbEntity
  8
Defpoints
 62
     0
440
 16777216
100
AcDbPoint
 10
1583.410845918371
 20
228.8863752331276
 30
0.0
  0
POINT
  5
52AE
330
5172
100
AcDbEntity
  8
Defpoints
 62
     0
440
 16777216
100
AcDbPoint
 10
1599.380316962978
 20
228.8863752331276
 30
0.0
  0
ENDBLK
  5
5174
330
5172
100
AcDbEntity
  8
0
100
AcDbBlockEnd
  0
ENDSEC
  0
SECTION
  2
ENTITIES
  0
ARC
  5
385B
330
1F
100
AcDbEntity
  8
0
370
    -3
100
AcDbCircle
 10
1421.752432784551
 20
301.62087266994
 30
0.0
 40
20.0
100
AcDbArc
 50
11.53695903281525
 51
348.4630409671845
  0
ARC
  5
385C
330
1F
100
AcDbEntity
  8
0
370
    -3
100
AcDbCircle
 10
1549.752432784551
 20
301.62087266994
 30
0.0
 40
20.0
100
AcDbArc
 50
191.5369590328154
 51
168.4630409671845
  0
ARC
  5
385F
330
1F
100
AcDbEntity
  8
0
370
    -3
100
AcDbCircle
 10
1549.752432784551
 20
301.62087266994
 30
0.0
 40
10.0
100
AcDbArc
 50
203.5781784782026
 51
156.4218215217974
  0
LINE
  5
3863
330
1F
100
AcDbEntity
  8
0
370
    -3
100
AcDbLine
 10
1555.752432784551
 20
305.62087266994
 30
0.0
 11
1555.752432784551
 21
297.62087266994
 31
0.0
  0
LINE
  5
389D
330
1F
100
AcDbEntity
  8
0
370
    -3
100
AcDbLine
 10
1441.752432784551
 20
187.1125327355294
 30
0.0
 11
1441.752432784551
 21
182.1125327355294
 31
0.0
  0
LINE
  5
389F
330
1F
100
AcDbEntity
  8
0
370
    -3
100
AcDbLine
 10
1401.752432784551
 20
187.1125327355294
 30
0.0
 11
1401.752432784551
 21
182.1125327355293
 31
0.0
  0
ARC
  5
38A7
330
1F
100
AcDbEntity
  8
0
370
    -3
100
AcDbCircle
 10
1403.752432784551
 20
182.1125327355293
 30
0.0
 40
2.0
100
AcDbArc
 50
180.0
 51
270.0
  0
ARC
  5
38A8
330
1F
100
AcDbEntity
  8
0
370
    -3
100
AcDbCircle
 10
1439.752432784551
 20
182.1125327355294
 30
0.0
 40
2.0
100
AcDbArc
 50
270.0
 51
0.0
  0
LINE
  5
38AE
330
1F
100
AcDbEntity
  8
0
370
    -3
100
AcDbLine
 10
1411.752432784551
 20
180.1125327355294
 30
0.0
 11
1411.752432784551
 21
80.11253273552936
 31
0.0
  0
LINE
  5
38AF
330
1F
100
AcDbEntity
  8
0
370
    -3
100
AcDbLine
 10
1431.752432784551
 20
180.1125327355294
 30
0.0
 11
1431.752432784551
 21
80.11253273552936
 31
0.0
  0
LINE
  5
38BD
330
1F
100
AcDbEntity
  8
0
370
    -3
100
AcDbLine
 10
1431.752432784551
 20
88.11253273552939
 30
0.0
 11
1482.252432784551
 21
88.11253273552937
 31
0.0
  0
LINE
  5
38BE
330
1F
100
AcDbEntity
  8
0
370
    -3
100
AcDbLine
 10
1559.752432784551
 20
180.1125327355293
 30
0.0
 11
1559.752432784551
 21
80.11253273552936
 31
0.0
  0
LINE
  5
38C0
330
1F
100
AcDbEntity
  8
0
370
    -3
100
AcDbLine
 10
1539.752432784551
 20
180.1125327355294
 30
0.0
 11
1539.752432784551
 21
80.11253273552936
 31
0.0
  0
ARC
  5
38C5
330
1F
100
AcDbEntity
  8
0
370
    -3
100
AcDbCircle
 10
1531.752432784551
 20
182.1125327355293
 30
0.0
 40
2.0
100
AcDbArc
 50
180.0
 51
270.0
  0
LINE
  5
38CD
330
1F
100
AcDbEntity
  8
0
370
    -3
100
AcDbLine
 10
1569.752432784551
 20
187.1125327355293
 30
0.0
 11
1569.752432784551
 21
182.1125327355293
 31
0.0
  0
ARC
  5
38D0
330
1F
100
AcDbEntity
  8
0
370
    -3
100
AcDbCircle
 10
1567.752432784551
 20
182.1125327355293
 30
0.0
 40
2.0
100
AcDbArc
 50
270.0
 51
0.0
  0
LINE
  5
38EA
330
1F
100
AcDbEntity
  8
0
370
    -3
100
AcDbLine
 10
1529.752432784551
 20
187.1125327355293
 30
0.0
 11
1529.752432784551
 21
182.1125327355293
 31
0.0
  0
LINE
  5
398B
330
1F
100
AcDbEntity
  8
0
370
    -3
100
AcDbLine
 10
1555.752432784551
 20
305.62087266994
 30
0.0
 11
1555.752432784551
 21
304.6208726699399
 31
0.0
  0
LINE
  5
3991
330
1F
100
AcDbEntity
  8
0
370
    -3
100
AcDbLine
 10
1555.752432784551
 20
304.62087266994
 30
0.0
 11
1555.752432784551
 21
305.62087266994
 31
0.0
  0
LINE
  5
3992
330
1F
100
AcDbEntity
  8
0
370
    -3
100
AcDbLine
 10
1453.502432784551
 20
307.42087266994
 30
0.0
 11
1518.002432784551
 21
307.42087266994
 31
0.0
  0
ARC
  5
3993
330
1F
100
AcDbEntity
  8
0
370
    -3
100
AcDbCircle
 10
1453.502432784551
 20
305.42087266994
 30
0.0
 40
2.0
100
AcDbArc
 50
90.0
 51
127.882836566203
  0
LINE
  5
3994
330
1F
100
AcDbEntity
  8
0
370
    -3
100
AcDbLine
 10
1450.502432784551
 20
305.62087266994
 30
0.0
 11
1452.27433519305
 21
306.9994087974163
 31
0.0
  0
LINE
  5
3999
330
1F
100
AcDbEntity
  8
0
370
    -3
100
AcDbLine
 10
1521.002432784551
 20
305.62087266994
 30
0.0
 11
1519.230530376053
 21
306.9994087974163
 31
0.0
  0
ARC
  5
399C
330
1F
100
AcDbEntity
  8
0
370
    -3
100
AcDbCircle
 10
1518.002432784551
 20
305.42087266994
 30
0.0
 40
2.0
100
AcDbArc
 50
52.11716343379695
 51
90.0
  0
ARC
  5
3D48
330
1F
100
AcDbEntity
  8
0
370
    -3
100
AcDbCircle
 10
1421.752432784551
 20
301.62087266994
 30
0.0
 40
10.0
100
AcDbArc
 50
23.57817847820303
 51
336.421821521797
  0
LINE
  5
3D49
330
1F
100
AcDbEntity
  8
0
370
    -3
100
AcDbLine
 10
1415.752432784551
 20
305.62087266994
 30
0.0
 11
1415.752432784551
 21
297.62087266994
 31
0.0
  0
LINE
  5
3D4A
330
1F
100
AcDbEntity
  8
0
370
    -3
100
AcDbLine
 10
1415.752432784551
 20
305.62087266994
 30
0.0
 11
1415.752432784551
 21
304.6208726699399
 31
0.0
  0
LINE
  5
3D4B
330
1F
100
AcDbEntity
  8
0
370
    -3
100
AcDbLine
 10
1415.752432784551
 20
304.62087266994
 30
0.0
 11
1415.752432784551
 21
305.62087266994
 31
0.0
  0
LINE
  5
3D4D
330
1F
100
AcDbEntity
  8
0
370
    -3
100
AcDbLine
 10
1415.752432784551
 20
305.62087266994
 30
0.0
 11
1555.752432784551
 21
305.62087266994
 31
0.0
  0
LINE
  5
3D4E
330
1F
100
AcDbEntity
  8
0
370
    -3
100
AcDbLine
 10
1555.752432784551
 20
297.62087266994
 30
0.0
 11
1415.752432784551
 21
297.62087266994
 31
0.0
  0
LINE
  5
3D4F
330
1F
100
AcDbEntity
  8
0
370
    -3
100
AcDbLine
 10
1403.752432784551
 20
180.1125327355293
 30
0.0
 11
1567.752432784551
 21
180.1125327355293
 31
0.0
  0
LINE
  5
3D61
330
1F
100
AcDbEntity
  8
0
370
    -3
100
AcDbLine
 10
1320.70765903163
 20
320.52087266994
 30
0.0
 11
1320.70765903163
 21
282.72087266994
 31
0.0
  0
LINE
  5
3D62
330
1F
100
AcDbEntity
  8
0
370
    -3
100
AcDbLine
 10
1320.70765903163
 20
282.72087266994
 30
0.0
 11
1320.70765903163
 21
320.52087266994
 31
0.0
  0
LINE
  5
3D63
330
1F
100
AcDbEntity
  8
0
370
    -3
100
AcDbLine
 10
1320.70765903163
 20
321.62087266994
 30
0.0
 11
1320.70765903163
 21
281.62087266994
 31
0.0
  0
LINE
  5
3D64
330
1F
100
AcDbEntity
  8
0
370
    -3
100
AcDbLine
 10
1320.70765903163
 20
281.62087266994
 30
0.0
 11
1315.70765903163
 21
281.62087266994
 31
0.0
  0
ARC
  5
3D65
330
1F
100
AcDbEntity
  8
0
370
    -3
100
AcDbCircle
 10
1315.70765903163
 20
283.62087266994
 30
0.0
 40
2.0
100
AcDbArc
 50
180.0
 51
270.0
  0
LINE
  5
3D66
330
1F
100
AcDbEntity
  8
0
370
    -3
100
AcDbLine
 10
1320.70765903163
 20
321.62087266994
 30
0.0
 11
1315.70765903163
 21
321.62087266994
 31
0.0
  0
ARC
  5
3D67
330
1F
100
AcDbEntity
  8
0
370
    -3
100
AcDbCircle
 10
1315.70765903163
 20
319.62087266994
 30
0.0
 40
2.0
100
AcDbArc
 50
90.0
 51
180.0
  0
LINE
  5
3D68
330
1F
100
AcDbEntity
  8
0
370
    -3
100
AcDbLine
 10
1313.70765903163
 20
310.62087266994
 30
0.0
 11
1214.00765903163
 21
310.62087266994
 31
0.0
  0
LINE
  5
3D69
330
1F
100
AcDbEntity
  8
0
370
    -3
100
AcDbLine
 10
1313.70765903163
 20
290.62087266994
 30
0.0
 11
1214.00765903163
 21
290.62087266994
 31
0.0
  0
LINE
  5
3D77
330
1F
100
AcDbEntity
  8
0
370
    -3
100
AcDbLine
 10
1235.35765903163
 20
310.62087266994
 30
0.0
 11
1292.35765903163
 21
310.62087266994
 31
0.0
  0
LINE
  5
3E63
330
1F
100
AcDbEntity
  8
0
370
    -3
100
AcDbLine
 10
1214.00765903163
 20
310.62087266994
 30
0.0
 11
1214.007659031629
 21
290.62087266994
 31
0.0
  0
LINE
  5
3E64
330
1F
100
AcDbEntity
  8
0
370
    -3
100
AcDbLine
 10
1313.70765903163
 20
319.62087266994
 30
0.0
 11
1313.70765903163
 21
283.62087266994
 31
0.0
  0
LINE
  5
3E73
330
1F
100
AcDbEntity
  8
0
370
    -3
100
AcDbLine
 10
1411.752432784551
 20
80.11253273552936
 30
0.0
 11
1482.252432784551
 21
80.11253273552936
 31
0.0
  0
LINE
  5
3E74
330
1F
100
AcDbEntity
  8
0
370
    -3
100
AcDbLine
 10
1401.752432784551
 20
187.1125327355294
 30
0.0
 11
1441.752432784551
 21
187.1125327355294
 31
0.0
  0
DIMENSION
  5
3E75
330
1F
100
AcDbEntity
  8
0
370
    -3
100
AcDbDimension
280
     0
  2
*D2
 10
1594.791096620786
 20
187.1125327355295
 30
0.0
 11
1586.266540004141
 21
131.612532735529
 31
0.0
 70
    32
 71
     5
 42
111.0
 73
     0
 74
     0
 75
     0
  3
ISO-25
100
AcDbAlignedDimension
 13
1580.823543146037
 23
76.11253273552939
 33
0.0
 14
1577.879537214785
 24
187.1125327355294
 34
0.0
 50
90.0
100
AcDbRotatedDimension
  0
LINE
  5
3E82
330
1F
100
AcDbEntity
  8
0
370
    -3
100
AcDbLine
 10
1529.752432784551
 20
187.1125327355294
 30
0.0
 11
1569.752432784551
 21
187.1125327355294
 31
0.0
  0
DIMENSION
  5
3E95
330
1F
100
AcDbEntity
  8
0
370
    -3
100
AcDbDimension
280
     0
  2
*D3
 10
1569.752432784551
 20
393.9942967214763
 30
0.0
 11
1485.752432784551
 21
393.9942967214763
 31
0.0
 70
   160
 71
     5
 42
168.0
 73
     0
 74
     0
 75
     0
  3
ISO-25
100
AcDbAlignedDimension
 13
1401.752432784551
 23
380.5518086878095
 33
0.0
 14
1569.752432784551
 24
380.5518086878095
 34
0.0
100
AcDbRotatedDimension
  0
DIMENSION
  5
3EA2
330
1F
100
AcDbEntity
  8
0
370
    -3
100
AcDbDimension
280
     0
  2
*D4
 10
1549.752432784551
 20
195.8485075835494
 30
0.0
 11
1485.752432784551
 21
204.4753834362097
 31
0.0
 70
    32
 71
     5
 42
128.0
 73
     0
 74
     0
 75
     0
  3
ISO-25
100
AcDbAlignedDimension
 13
1421.752432784551
 23
187.1125327355294
 33
0.0
 14
1549.752432784551
 24
187.1125327355294
 34
0.0
100
AcDbRotatedDimension
  0
ARC
  5
42E7
330
1F
100
AcDbEntity
  8
0
100
AcDbCircle
 10
1513.002432784551
 20
230.8863752331275
 30
0.0
 40
2.0
100
AcDbArc
 50
270.0
 51
0.0
  0
LINE
  5
42E8
330
1F
100
AcDbEntity
  8
0
100
AcDbLine
 10
1458.502432784551
 20
228.8863752331276
 30
0.0
 11
1513.002432784551
 21
228.8863752331276
 31
0.0
  0
LINE
  5
42E9
330
1F
100
AcDbEntity
  8
0
100
AcDbLine
 10
1515.002432784551
 20
230.8863752331275
 30
0.0
 11
1515.002432784551
 21
297.62087266994
 31
0.0
  0
LINE
  5
42EB
330
1F
100
AcDbEntity
  8
0
100
AcDbLine
 10
1516.607937553979
 20
307.42087266994
 30
0.0
 11
1519.291423245695
 21
308.4490876144916
 31
0.0
  0
ARC
  5
42EC
330
1F
100
AcDbEntity
  8
0
100
AcDbCircle
 10
1458.502432784551
 20
230.8863752331275
 30
0.0
 40
2.0
100
AcDbArc
 50
180.0
 51
270.0
  0
LINE
  5
42ED
330
1F
100
AcDbEntity
  8
0
100
AcDbLine
 10
1456.502432784551
 20
230.8863752331275
 30
0.0
 11
1456.502432784551
 21
297.62087266994
 31
0.0
  0
LINE
  5
42EF
330
1F
100
AcDbEntity
  8
0
100
AcDbLine
 10
1454.896928015123
 20
307.42087266994
 30
0.0
 11
1452.213442323407
 21
308.4490876144916
 31
0.0
  0
ARC
  5
42F0
330
1F
100
AcDbEntity
  8
0
100
AcDbCircle
 10
1454.002432784551
 20
313.1180824881166
 30
0.0
 40
5.0
100
AcDbArc
 50
180.0
 51
249.0349692388511
  0
LINE
  5
42F1
330
1F
100
AcDbEntity
  8
0
100
AcDbLine
 10
1453.234859904316
 20
322.5867889634127
 30
0.0
 11
1471.252432784551
 21
323.6600243071091
 31
0.0
  0
ARC
  5
42F2
330
1F
100
AcDbEntity
  8
0
100
AcDbCircle
 10
1453.502432784551
 20
318.0947510346145
 30
0.0
 40
4.5
100
AcDbArc
 50
93.40885444397054
 51
180.0
  0
LINE
  5
42F3
330
1F
100
AcDbEntity
  8
0
100
AcDbLine
 10
1449.002432784551
 20
313.1180824881166
 30
0.0
 11
1449.002432784551
 21
318.0947510346145
 31
0.0
  0
LINE
  5
42F6
330
1F
100
AcDbEntity
  8
0
 48
0.2
100
AcDbLine
 10
1471.252432784551
 20
349.8863752331277
 30
0.0
 11
1471.252432784551
 21
323.6600243071091
 31
0.0
  0
LINE
  5
42F7
330
1F
100
AcDbEntity
  8
0
 48
0.2
100
AcDbLine
 10
1500.252432784551
 20
349.8863752331277
 30
0.0
 11
1500.252432784551
 21
323.660024307109
 31
0.0
  0
LINE
  5
42F8
330
1F
100
AcDbEntity
  8
0
 48
0.1
100
AcDbLine
 10
1470.752432784551
 20
385.886375233128
 30
0.0
 11
1500.752432784551
 21
385.8863752331278
 31
0.0
  0
LINE
  5
42F9
330
1F
100
AcDbEntity
  8
0
 48
0.1
100
AcDbLine
 10
1469.752432784551
 20
349.8863752331396
 30
0.0
 11
1501.752432784551
 21
349.8863752331277
 31
0.0
  0
LINE
  5
42FB
330
1F
100
AcDbEntity
  8
0
 48
0.1
100
AcDbLine
 10
1501.752432784551
 20
384.8863752331277
 30
0.0
 11
1501.752432784551
 21
349.8863752331277
 31
0.0
  0
ARC
  5
42FC
330
1F
100
AcDbEntity
  8
0
 48
0.1
100
AcDbCircle
 10
1500.752432784551
 20
384.8863752331277
 30
0.0
 40
1.0
100
AcDbArc
 50
0.0
 51
90.0
  0
LINE
  5
42FD
330
1F
100
AcDbEntity
  8
0
 48
0.1
100
AcDbLine
 10
1469.752432784551
 20
384.8863752331277
 30
0.0
 11
1469.752432784551
 21
349.8863752331278
 31
0.0
  0
ARC
  5
42FE
330
1F
100
AcDbEntity
  8
0
 48
0.1
100
AcDbCircle
 10
1470.752432784551
 20
384.8863752331277
 30
0.0
 40
0.9999999999999998
100
AcDbArc
 50
90.0
 51
180.0
  0
LINE
  5
4306
330
1F
100
AcDbEntity
  8
0
100
AcDbLine
 10
1518.270005664786
 20
322.5867889634127
 30
0.0
 11
1500.252432784551
 21
323.6600243071091
 31
0.0
  0
LINE
  5
4307
330
1F
100
AcDbEntity
  8
0
100
AcDbLine
 10
1471.252432784551
 20
323.6600243071091
 30
0.0
 11
1500.252432784551
 21
323.6600243071091
 31
0.0
  0
LINE
  5
430A
330
1F
100
AcDbEntity
  8
图层4
 62
     0
100
AcDbLine
 10
1454.896928015123
 20
307.42087266994
 30
0.0
 11
1516.607937553979
 21
307.42087266994
 31
0.0
  0
LINE
  5
430B
330
1F
100
AcDbEntity
  8
图层4
 62
     0
100
AcDbLine
 10
1449.002432784551
 20
318.0947510346145
 30
0.0
 11
1522.502432784501
 21
318.0950982426781
 31
0.0
  0
LINE
  5
430C
330
1F
100
AcDbEntity
  8
图层4
 62
     0
100
AcDbLine
 10
1449.002432784551
 20
313.1180824881166
 30
0.0
 11
1522.502432784551
 21
313.1180824881166
 31
0.0
  0
ARC
  5
430D
330
1F
100
AcDbEntity
  8
0
100
AcDbCircle
 10
1518.002432784551
 20
318.0947510346145
 30
0.0
 40
4.5
100
AcDbArc
 50
0.0
 51
86.59114555602945
  0
LINE
  5
430E
330
1F
100
AcDbEntity
  8
0
100
AcDbLine
 10
1522.502432784551
 20
313.1180824881166
 30
0.0
 11
1522.502432784551
 21
318.0947510346145
 31
0.0
  0
ARC
  5
430F
330
1F
100
AcDbEntity
  8
0
100
AcDbCircle
 10
1517.502432784551
 20
313.1180824881166
 30
0.0
 40
5.0
100
AcDbArc
 50
290.9650307611486
 51
0.0
  0
ARC
  5
5100
330
1F
100
AcDbEntity
  8
0
100
AcDbCircle
 10
1236.607659031629
 20
230.8863752331276
 30
0.0
 40
2.0
100
AcDbArc
 50
180.0
 51
270.0
  0
LINE
  5
5101
330
1F
100
AcDbEntity
  8
0
100
AcDbLine
 10
1291.10765903163
 20
228.8863752331277
 30
0.0
 11
1236.607659031629
 21
228.8863752331277
 31
0.0
  0
LINE
  5
5102
330
1F
100
AcDbEntity
  8
0
100
AcDbLine
 10
1234.607659031629
 20
230.8863752331276
 30
0.0
 11
1234.607659031629
 21
290.62087266994
 31
0.0
  0
ARC
  5
5105
330
1F
100
AcDbEntity
  8
0
100
AcDbCircle
 10
1291.10765903163
 20
230.8863752331276
 30
0.0
 40
2.0
100
AcDbArc
 50
270.0
 51
0.0
  0
LINE
  5
5106
330
1F
100
AcDbEntity
  8
0
100
AcDbLine
 10
1293.10765903163
 20
230.8863752331276
 30
0.0
 11
1293.107659031629
 21
290.62087266994
 31
0.0
  0
ARC
  5
5109
330
1F
100
AcDbEntity
  8
0
100
AcDbCircle
 10
1295.60765903163
 20
313.1180824881167
 30
0.0
 40
5.0
100
AcDbArc
 50
330.0369125263574
 51
0.0
  0
LINE
  5
510A
330
1F
100
AcDbEntity
  8
0
100
AcDbLine
 10
1296.375231911865
 20
322.5867889634128
 30
0.0
 11
1278.35765903163
 21
323.6600243071092
 31
0.0
  0
ARC
  5
510B
330
1F
100
AcDbEntity
  8
0
100
AcDbCircle
 10
1296.10765903163
 20
318.0947510346147
 30
0.0
 40
4.5
100
AcDbArc
 50
0.0
 51
86.59114555602945
  0
LINE
  5
510C
330
1F
100
AcDbEntity
  8
0
100
AcDbLine
 10
1300.60765903163
 20
313.1180824881167
 30
0.0
 11
1300.60765903163
 21
318.0947510346147
 31
0.0
  0
ARC
  5
510D
330
1F
100
AcDbEntity
  8
0
100
AcDbCircle
 10
1242.313286216437
 20
238.8863752331277
 30
0.0
 40
10.0
100
AcDbArc
 50
270.0
 51
276.376046941322
  0
ARC
  5
510E
330
1F
100
AcDbEntity
  8
0
100
AcDbCircle
 10
1285.402031846822
 20
238.8863752331277
 30
0.0
 40
10.0
100
AcDbArc
 50
263.623953058678
 51
270.0
  0
LINE
  5
510F
330
1F
100
AcDbEntity
  8
0
 48
0.2
100
AcDbLine
 10
1278.35765903163
 20
349.8863752331278
 30
0.0
 11
1278.35765903163
 21
323.6600243071092
 31
0.0
  0
LINE
  5
5110
330
1F
100
AcDbEntity
  8
0
 48
0.2
100
AcDbLine
 10
1249.35765903163
 20
349.8863752331278
 30
0.0
 11
1249.35765903163
 21
323.6600243071091
 31
0.0
  0
LINE
  5
5111
330
1F
100
AcDbEntity
  8
0
 48
0.1
100
AcDbLine
 10
1278.85765903163
 20
385.8863752331282
 30
0.0
 11
1248.85765903163
 21
385.8863752331279
 31
0.0
  0
LINE
  5
5112
330
1F
100
AcDbEntity
  8
0
 48
0.1
100
AcDbLine
 10
1279.85765903163
 20
349.8863752331398
 30
0.0
 11
1247.85765903163
 21
349.8863752331278
 31
0.0
  0
LINE
  5
5113
330
1F
100
AcDbEntity
  8
0
 48
0.1
100
AcDbLine
 10
1247.85765903163
 20
384.8863752331278
 30
0.0
 11
1247.85765903163
 21
382.8863752331321
 31
0.0
  0
LINE
  5
5114
330
1F
100
AcDbEntity
  8
0
 48
0.1
100
AcDbLine
 10
1247.85765903163
 20
375.8863752331031
 30
0.0
 11
1247.85765903163
 21
349.8863752331278
 31
0.0
  0
ARC
  5
5115
330
1F
100
AcDbEntity
  8
0
 48
0.1
100
AcDbCircle
 10
1248.85765903163
 20
384.8863752331278
 30
0.0
 40
1.0
100
AcDbArc
 50
90.0
 51
180.0
  0
LINE
  5
5116
330
1F
100
AcDbEntity
  8
0
 48
0.1
100
AcDbLine
 10
1279.85765903163
 20
384.8863752331279
 30
0.0
 11
1279.85765903163
 21
349.8863752331279
 31
0.0
  0
ARC
  5
5117
330
1F
100
AcDbEntity
  8
0
 48
0.1
100
AcDbCircle
 10
1278.85765903163
 20
384.8863752331279
 30
0.0
 40
0.9999999999999998
100
AcDbArc
 50
0.0
 51
90.0
  0
LINE
  5
5118
330
1F
100
AcDbEntity
  8
0
 48
0.2
100
AcDbLine
 10
1247.85765903163
 20
375.8863752331321
 30
0.0
 11
1214.220077124922
 21
375.8863752331321
 31
0.0
  0
LINE
  5
5119
330
1F
100
AcDbEntity
  8
0
 48
0.2
100
AcDbLine
 10
1212.220077124921
 20
375.8863752331321
 30
0.0
 11
1211.220077124922
 21
375.8863752331321
 31
0.0
  0
LINE
  5
511A
330
1F
100
AcDbEntity
  8
0
 48
0.2
100
AcDbLine
 10
1247.85765903163
 20
382.8863752331321
 30
0.0
 11
1211.220077124922
 21
382.8863752331323
 31
0.0
  0
ARC
  5
511B
330
1F
100
AcDbEntity
  8
0
 48
0.2
100
AcDbCircle
 10
1211.220077124922
 20
379.3863752331321
 30
0.0
 40
3.500000000000113
100
AcDbArc
 50
90.0
 51
270.0
  0
ARC
  5
511C
330
1F
100
AcDbEntity
  8
0
 48
0.2
100
AcDbCircle
 10
1213.220077124922
 20
370.2548814500188
 30
0.0
 40
5.719591089338878
100
AcDbArc
 50
79.93078814409845
 51
100.0692118559015
  0
LINE
  5
511D
330
1F
100
AcDbEntity
  8
0
100
AcDbLine
 10
1231.340086151395
 20
322.5867889634128
 30
0.0
 11
1249.35765903163
 21
323.6600243071092
 31
0.0
  0
LINE
  5
511E
330
1F
100
AcDbEntity
  8
0
100
AcDbLine
 10
1278.35765903163
 20
323.6600243071092
 30
0.0
 11
1249.35765903163
 21
323.6600243071092
 31
0.0
  0
ARC
  5
511F
330
1F
100
AcDbEntity
  8
图层4
 62
     0
100
AcDbCircle
 10
1239.215995562081
 20
379.3863752331176
 30
0.0
 40
9.323537285870999
100
AcDbArc
 50
337.9513331764402
 51
22.04866682374671
  0
LINE
  5
5122
330
1F
100
AcDbEntity
  8
图层4
 62
     0
100
AcDbLine
 10
1300.60765903163
 20
318.0947510346147
 30
0.0
 11
1227.10765903168
 21
318.0950982426782
 31
0.0
  0
LINE
  5
5123
330
1F
100
AcDbEntity
  8
图层4
 62
     0
100
AcDbLine
 10
1300.60765903163
 20
313.1180824881167
 30
0.0
 11
1227.10765903163
 21
313.1180824881167
 31
0.0
  0
ARC
  5
5124
330
1F
100
AcDbEntity
  8
0
100
AcDbCircle
 10
1231.60765903163
 20
318.0947510346147
 30
0.0
 40
4.5
100
AcDbArc
 50
93.40885444397054
 51
180.0
  0
LINE
  5
5125
330
1F
100
AcDbEntity
  8
0
100
AcDbLine
 10
1227.10765903163
 20
313.1180824881167
 30
0.0
 11
1227.10765903163
 21
318.0947510346147
 31
0.0
  0
ARC
  5
5126
330
1F
100
AcDbEntity
  8
0
100
AcDbCircle
 10
1232.107659031629
 20
313.1180824881167
 30
0.0
 40
5.0
100
AcDbArc
 50
180.0
 51
209.9630874736427
  0
CIRCLE
  5
5130
330
1F
100
AcDbEntity
  8
轮廓线
100
AcDbCircle
 10
1485.752432784551
 20
379.3863752331334
 30
0.0
 40
3.499999999998464
  0
DIMENSION
  5
5171
330
1F
100
AcDbEntity
  8
轮廓线
100
AcDbDimension
280
     0
  2
*D19
 10
1599.380316962978
 20
228.8863752331276
 30
0.0
 11
1590.753441110317
 21
307.3863752331273
 31
0.0
 70
    32
 71
     5
 42
157.0000000000003
 73
     0
 74
     0
 75
     0
  3
ISO-25
100
AcDbAlignedDimension
 13
1588.316374873764
 23
385.8863752331278
 33
0.0
 14
1583.41084591837
 24
228.8863752331275
 34
0.0
 50
90.0
100
AcDbRotatedDimension
  0
CIRCLE
  5
51A8
330
1F
100
AcDbEntity
  8
轮廓线
100
AcDbCircle
 10
1485.752432784551
 20
132.1125327355294
 30
0.0
 40
16.0
  0
ARC
  5
51A9
330
1F
100
AcDbEntity
  8
轮廓线
100
AcDbCircle
 10
1485.752432784551
 20
132.1125327355294
 30
0.0
 40
32.51757288023487
100
AcDbArc
 50
276.1789502300656
 51
263.821049769934
  0
ARC
  5
51AA
330
1F
100
AcDbEntity
  8
轮廓线
100
AcDbCircle
 10
1485.752432784551
 20
132.1125327355294
 30
0.0
 40
36.74999999999954
100
AcDbArc
 50
275.465023799906
 51
264.5349762000937
  0
LINE
  5
51B6
330
1F
100
AcDbEntity
  8
0
 48
0.2
100
AcDbLine
 10
1489.252432784551
 20
116.5000377395334
 30
0.0
 11
1489.252432784551
 21
79.6125327355295
 31
0.0
  0
LINE
  5
51B8
330
1F
100
AcDbEntity
  8
0
 48
0.2
100
AcDbLine
 10
1482.252432784551
 20
116.5000377395334
 30
0.0
 11
1482.252432784551
 21
79.6125327355295
 31
0.0
  0
ARC
  5
51B9
330
1F
100
AcDbEntity
  8
0
 48
0.2
100
AcDbCircle
 10
1485.752432784551
 20
79.6125327355295
 30
0.0
 40
3.500000000000113
100
AcDbArc
 50
180.0
 51
0.0
  0
LINE
  5
51C6
330
1F
100
AcDbEntity
  8
0
370
    -3
100
AcDbLine
 10
1489.252432784551
 20
80.11253273552936
 30
0.0
 11
1559.752432784551
 21
80.11253273552936
 31
0.0
  0
LINE
  5
51C7
330
1F
100
AcDbEntity
  8
0
370
    -3
100
AcDbLine
 10
1489.252432784551
 20
88.11253273552937
 30
0.0
 11
1539.752432784551
 21
88.11253273552933
 31
0.0
  0
ENDSEC
  0
SECTION
  2
OBJECTS
  0
DICTIONARY
  5
C
330
0
100
AcDbDictionary
281
     1
  3
ACAD_CIP_PREVIOUS_PRODUCT_INFO
350
4242
  3
ACAD_COLOR
350
970
  3
ACAD_DETAILVIEWSTYLE
350
5264
  3
ACAD_GROUP
350
D
  3
ACAD_LAYOUT
350
1A
  3
ACAD_MATERIAL
350
96F
  3
ACAD_MLEADERSTYLE
350
423C
  3
ACAD_MLINESTYLE
350
17
  3
ACAD_PLOTSETTINGS
350
19
  3
ACAD_PLOTSTYLENAME
350
E
  3
ACAD_SCALELIST
350
422A
  3
ACAD_SECTIONVIEWSTYLE
350
5262
  3
ACAD_TABLESTYLE
350
971
  3
ACAD_VISUALSTYLE
350
4211
  3
AcadDim
350
350C
  3
ACDB_RECOMPOSE_DATA
350
52C7
  3
AcDbVariableDictionary
350
7B
  3
ASE_INDEX_DICTIONARY
350
BE2
  0
DICTIONARY
  5
4251
330
8
100
AcDbDictionary
280
     1
281
     1
  0
DICTIONARY
  5
25C1
330
2
100
AcDbDictionary
280
     1
281
     1
  3
ACAD_LAYERFILTERS
360
4099
  3
ACAD_LAYERSTATES
360
25C2
  3
ACLYDICTIONARY
360
4098
  0
DICTIONARY
  5
4245
330
10
100
AcDbDictionary
280
     1
281
     1
  3
ADSK_XREC_LAYER_RECONCILED
360
4246
  0
DICTIONARY
  5
4247
330
E3B
100
AcDbDictionary
280
     1
281
     1
  3
ADSK_XREC_LAYER_RECONCILED
360
4248
  0
DICTIONARY
  5
42B6
330
42B5
100
AcDbDictionary
280
     1
281
     1
  0
DICTIONARY
  5
ADA
330
1F
100
AcDbDictionary
280
     1
281
     1
  3
ACAD_SORTENTS
360
ADB
  0
XRECORD
  5
4242
102
{ACAD_REACTORS
330
C
102
}
330
C
100
AcDbXrecord
280
     1
300
ACD
300
2017
300
ACD_F_S
  0
DICTIONARY
  5
970
102
{ACAD_REACTORS
330
C
102
}
330
C
100
AcDbDictionary
281
     1
  0
DICTIONARY
  5
5264
102
{ACAD_REACTORS
330
C
102
}
330
C
100
AcDbDictionary
281
     1
  3
Imperial24
350
5265
  0
DICTIONARY
  5
D
102
{ACAD_REACTORS
330
C
102
}
330
C
100
AcDbDictionary
281
     1
  0
DICTIONARY
  5
1A
102
{ACAD_REACTORS
330
C
102
}
330
C
100
AcDbDictionary
281
     1
  3
Model
350
22
  3
布局1
350
1E
  3
布局2
350
26
  0
DICTIONARY
  5
96F
102
{ACAD_REACTORS
330
C
102
}
330
C
100
AcDbDictionary
281
     1
  3
ByBlock
350
4201
  3
ByLayer
350
41F9
  3
Global
350
4209
  0
DICTIONARY
  5
423C
102
{ACAD_REACTORS
330
C
102
}
330
C
100
AcDbDictionary
281
     1
  3
Standard
350
423D
  0
DICTIONARY
  5
17
102
{ACAD_REACTORS
330
C
102
}
330
C
100
AcDbDictionary
281
     1
  3
Standard
350
18
  0
DICTIONARY
  5
19
102
{ACAD_REACTORS
330
C
102
}
330
C
100
AcDbDictionary
281
     1
  0
ACDBDICTIONARYWDFLT
  5
E
102
{ACAD_REACTORS
330
C
102
}
330
C
100
AcDbDictionary
281
     1
  3
Normal
350
F
100
AcDbDictionaryWithDefault
340
F
  0
DICTIONARY
  5
422A
102
{ACAD_REACTORS
330
C
102
}
330
C
100
AcDbDictionary
281
     1
  3
A0
350
422B
  3
A1
350
422C
  3
A2
350
422D
  3
A3
350
422E
  3
A4
350
422F
  3
A5
350
4230
  3
A6
350
4231
  3
A7
350
4232
  3
A8
350
4233
  3
A9
350
4234
  3
B0
350
4235
  3
B1
350
4236
  3
B2
350
4237
  3
B3
350
4238
  3
B4
350
4239
  3
B5
350
423A
  3
B6
350
423B
  0
DICTIONARY
  5
5262
102
{ACAD_REACTORS
330
C
102
}
330
C
100
AcDbDictionary
281
     1
  3
Imperial24
350
5263
  0
DICTIONARY
  5
971
102
{ACAD_REACTORS
330
C
102
}
330
C
100
AcDbDictionary
281
     1
  3
Standard
350
972
  0
DICTIONARY
  5
4211
102
{ACAD_REACTORS
330
C
102
}
330
C
100
AcDbDictionary
281
     1
  3
2dWireframe
350
4217
  3
Basic
350
4216
  3
Brighten
350
421D
  3
ColorChange
350
4221
  3
Conceptual
350
421A
  3
Dim
350
421C
  3
EdgeColorOff
350
4229
  3
Facepattern
350
4220
  3
Flat
350
4212
  3
FlatWithEdges
350
4213
  3
Gouraud
350
4214
  3
GouraudWithEdges
350
4215
  3
Hidden
350
4219
  3
JitterOff
350
4227
  3
Linepattern
350
421F
  3
OverhangOff
350
4228
  3
Realistic
350
421B
  3
Shaded
350
4226
  3
Shaded with edges
350
4225
  3
Shades of Gray
350
4222
  3
Sketchy
350
4223
  3
Thicken
350
421E
  3
Wireframe
350
4218
  3
X-Ray
350
4224
  0
XRECORD
  5
350C
102
{ACAD_REACTORS
330
C
102
}
330
C
100
AcDbXrecord
280
     1
 90
   990106
  3

 60
     0
 61
     0
 62
     1
 63
     3
 64
     0
 65
     0
 66
     0
 67
     3
 68
     1
 69
     0
 70
     0
 71
     0
 72
     0
 40
0.0
170
     0
  0
XRECORD
  5
52C7
102
{ACAD_REACTORS
330
C
102
}
330
C
100
AcDbXrecord
280
     1
 90
        1
330
972
330
5263
330
5265
  0
DICTIONARY
  5
7B
102
{ACAD_REACTORS
330
C
102
}
330
C
100
AcDbDictionary
281
     1
  3
CANNOSCALE
350
4289
  3
CMLEADERSTYLE
350
4288
  3
CTABLESTYLE
350
AFB
  3
CVIEWDETAILSTYLE
350
52BC
  3
CVIEWSECTIONSTYLE
350
52BD
  3
DIMASSOC
350
AFC
  3
LAYEREVAL
350
52C0
  3
LAYERNOTIFY
350
52C1
  3
LIGHTINGUNITS
350
52BF
  3
MSLTSCALE
350
52BE
  3
PROJECTNAME
350
AFD
  3
SORTENTS
350
7C
  0
DICTIONARY
  5
BE2
102
{ACAD_REACTORS
330
C
102
}
330
C
100
AcDbDictionary
281
     1
  3
ASEBlockHierarchyIndexRecord
350
BE3
1001
DCO15
1040
1643086128.125
  0
DICTIONARY
  5
4099
102
{ACAD_REACTORS
330
25C1
102
}
330
25C1
100
AcDbDictionary
281
     1
  0
DICTIONARY
  5
25C2
102
{ACAD_REACTORS
330
25C1
102
}
330
25C1
100
AcDbDictionary
281
     1
  0
DICTIONARY
  5
4098
102
{ACAD_REACTORS
330
25C1
102
}
330
25C1
100
AcDbDictionary
281
     1
1001
ACAD
1000
<All
  0
XRECORD
  5
4246
102
{ACAD_REACTORS
330
4245
102
}
330
4245
100
AcDbXrecord
280
     1
290
     1
  0
XRECORD
  5
4248
102
{ACAD_REACTORS
330
4247
102
}
330
4247
100
AcDbXrecord
280
     1
290
     1
  0
SORTENTSTABLE
  5
ADB
102
{ACAD_REACTORS
330
ADA
102
}
330
ADA
100
AcDbSortentsTable
330
1F
331
38A7
  5
38A7
331
3992
  5
3993
331
389F
  5
389F
331
42FD
  5
4306
331
42F9
  5
42FC
331
5130
  5
51A8
331
5124
  5
5126
331
42F1
  5
42F3
331
385C
  5
385C
331
511C
  5
511E
331
42ED
  5
42F0
331
42E9
  5
42EC
331
5118
  5
511A
331
5114
  5
5116
331
5110
  5
5112
331
3D77
  5
3E63
331
3E74
  5
3E82
331
510D
  5
510F
331
5109
  5
510B
331
5105
  5
5109
331
51B8
  5
51BD
331
5101
  5
5105
331
3D67
  5
3D68
331
3D63
  5
3D64
331
3D4F
  5
3D61
331
3D4B
  5
3D4D
331
3E64
  5
3E73
331
38A8
  5
38A8
331
430D
  5
430F
331
51A8
  5
51AA
331
3993
  5
3994
331
42FE
  5
4307
331
398B
  5
3991
331
5125
  5
5130
331
42F6
  5
42F8
331
42F2
  5
42F6
331
5171
  5
51A9
331
51C6
  5
3E75
331
38D0
  5
38EA
331
511D
  5
511F
331
5119
  5
511B
331
5115
  5
5117
331
5111
  5
5113
331
3D68
  5
3D69
331
3E95
  5
4190
331
3E75
  5
3EA2
331
38C0
  5
38C5
331
510E
  5
5110
331
510A
  5
510C
331
5106
  5
510A
331
51B9
  5
51BE
331
5102
  5
5106
331
3D64
  5
3D65
331
3D48
  5
3D49
331
38BD
  5
38BD
331
399C
  5
3D48
331
430E
  5
4D84
331
430A
  5
430C
331
4306
  5
430A
331
51A9
  5
51B6
331
3994
  5
3999
331
389D
  5
389D
331
42FB
  5
42FD
331
5126
  5
5171
331
42F7
  5
42F9
331
5122
  5
5124
331
42F3
  5
42F7
331
3EA2
  5
4191
331
51C7
  5
38BE
331
42EF
  5
42F1
331
511E
  5
5122
331
42EB
  5
42ED
331
511A
  5
511C
331
5116
  5
5118
331
42E7
  5
42E9
331
5112
  5
5114
331
3D69
  5
3D77
331
38CD
  5
38D0
331
38C5
  5
38CD
331
510F
  5
5111
331
510B
  5
510D
331
3D65
  5
3D66
331
3D61
  5
3D62
331
3D4D
  5
3D4E
331
3D49
  5
3D4A
331
38BE
  5
38C0
331
38AE
  5
38AE
331
3999
  5
399C
331
3E82
  5
3E95
331
51B6
  5
51B9
331
430F
  5
4D85
331
430B
  5
430D
331
4307
  5
430B
331
51AA
  5
51B8
331
3991
  5
3992
331
42FC
  5
42FE
331
42F8
  5
42FB
331
42F0
  5
42F2
331
5123
  5
5125
331
38EA
  5
398B
331
3863
  5
3863
331
385F
  5
385F
331
385B
  5
385B
331
42EC
  5
42EF
331
42E8
  5
42EB
331
511F
  5
5123
331
511B
  5
511D
331
5117
  5
5119
331
5113
  5
5115
331
3E73
  5
3E74
331
510C
  5
510E
331
5100
  5
5102
331
3D66
  5
3D67
331
3D62
  5
3D63
331
3D4E
  5
3D4F
331
3D4A
  5
3D4B
331
3E63
  5
3E64
331
38AF
  5
38AF
331
430C
  5
430E
  0
ACDBDETAILVIEWSTYLE
  5
5265
102
{ACAD_XDICTIONARY
360
52C5
102
}
102
{ACAD_REACTORS
330
5264
102
}
330
5264
100
AcDbModelDocViewStyle
 70
     0
  3
Imperial24
290
     0
100
AcDbDetailViewStyle
 70
     0
 71
     0
 90
        3
 71
     1
340
11
 62
   256
 40
0.24
340
0
 62
   256
 40
0.24
300

 40
0.36
280
     3
 71
     2
340
16
 90
       25
 62
   256
 71
     3
340
11
 62
   256
 40
0.24
 90
        1
 40
0.75
 90
        1
300
%<\AcVar ViewType \f "%tc1">% %<\AcVar ViewDetailId>%\PSCALE %<\AcVar ViewScale \f "%sn">%
 71
     4
340
16
 90
       25
 62
   256
340
16
 90
       25
 62
   256
280
     0
  0
LAYOUT
  5
22
102
{ACAD_XDICTIONARY
360
51E5
102
}
102
{ACAD_REACTORS
330
1A
102
}
330
1A
100
AcDbPlotSettings
  1

  2
EPSON Stylus Photo EX3
  4
A3
  6

 40
3.757083177566528
 41
14.76376056671142
 42
3.757080078125
 43
3.757080078125
 44
296.9683227539062
 45
420.0172119140622
 46
0.0
 47
0.0
 48
-2.01420720382157
 49
-1.687121371913349
140
421.216483444302
141
291.759802880008
142
1.0
143
1.054133289698709
 70
 11952
 72
     1
 73
     1
 74
     4
  7

 75
     0
147
0.9486466367889951
 76
     0
 77
     2
 78
   300
148
2.01420720382157
149
1.687121371913349
100
AcDbLayout
  1
Model
 70
     1
 71
     0
 10
0.0
 20
0.0
 11
12.0
 21
9.0
 12
0.0
 22
0.0
 32
0.0
 14
0.0
 24
0.0
 34
0.0
 15
0.0
 25
0.0
 35
0.0
146
0.0
 13
0.0
 23
0.0
 33
0.0
 16
1.0
 26
0.0
 36
0.0
 17
0.0
 27
1.0
 37
0.0
 76
     0
330
1F
331
41F7
  0
LAYOUT
  5
1E
102
{ACAD_REACTORS
330
1A
102
}
330
1A
100
AcDbPlotSettings
  1

  2
Star AR-3200+
  4

  6

 40
0.0
 41
0.0
 42
0.0
 43
0.0
 44
0.0
 45
0.0
 46
0.0
 47
0.0
 48
0.0
 49
0.0
140
0.0
141
0.0
142
1.0
143
1.0
 70
   688
 72
     0
 73
     0
 74
     5
  7

 75
    16
147
1.0
 76
     0
 77
     2
 78
   300
148
0.0
149
0.0
100
AcDbLayout
  1
布局1
 70
     1
 71
     1
 10
0.0
 20
0.0
 11
420.0
 21
297.0
 12
0.0
 22
0.0
 32
0.0
 14
1.000000000000000E+20
 24
1.000000000000000E+20
 34
1.000000000000000E+20
 15
-1.000000000000000E+20
 25
-1.000000000000000E+20
 35
-1.000000000000000E+20
146
0.0
 13
0.0
 23
0.0
 33
0.0
 16
1.0
 26
0.0
 36
0.0
 17
0.0
 27
1.0
 37
0.0
 76
     0
330
1B
  0
LAYOUT
  5
26
102
{ACAD_REACTORS
330
1A
102
}
330
1A
100
AcDbPlotSettings
  1

  2
Star AR-3200+
  4

  6

 40
0.0
 41
0.0
 42
0.0
 43
0.0
 44
0.0
 45
0.0
 46
0.0
 47
0.0
 48
0.0
 49
0.0
140
0.0
141
0.0
142
1.0
143
1.0
 70
   688
 72
     0
 73
     0
 74
     5
  7

 75
    16
147
1.0
 76
     0
 77
     2
 78
   300
148
0.0
149
0.0
100
AcDbLayout
  1
布局2
 70
     1
 71
     2
 10
0.0
 20
0.0
 11
12.0
 21
9.0
 12
0.0
 22
0.0
 32
0.0
 14
0.0
 24
0.0
 34
0.0
 15
0.0
 25
0.0
 35
0.0
146
0.0
 13
0.0
 23
0.0
 33
0.0
 16
1.0
 26
0.0
 36
0.0
 17
0.0
 27
1.0
 37
0.0
 76
     0
330
23
  0
MATERIAL
  5
4201
102
{ACAD_XDICTIONARY
360
4202
102
}
102
{ACAD_REACTORS
330
96F
102
}
330
96F
100
AcDbMaterial
  1
ByBlock
 72
     0
 43
0.0008202099737533
 43
0.0
 43
0.0
 43
0.0
 43
0.0
 43
0.0008202099737533
 43
0.0
 43
0.0
 43
0.0
 43
0.0
 43
1.0
 43
0.0
 43
0.0
 43
0.0
 43
0.0
 43
1.0
 77
     0
 47
0.0008202099737533
 47
0.0
 47
0.0
 47
0.0
 47
0.0
 47
0.0008202099737533
 47
0.0
 47
0.0
 47
0.0
 47
0.0
 47
1.0
 47
0.0
 47
0.0
 47
0.0
 47
0.0
 47
1.0
171
     0
 49
0.0008202099737533
 49
0.0
 49
0.0
 49
0.0
 49
0.0
 49
0.0008202099737533
 49
0.0
 49
0.0
 49
0.0
 49
0.0
 49
1.0
 49
0.0
 49
0.0
 49
0.0
 49
0.0
 49
1.0
175
     0
142
0.0008202099737533
142
0.0
142
0.0
142
0.0
142
0.0
142
0.0008202099737533
142
0.0
142
0.0
142
0.0
142
0.0
142
1.0
142
0.0
142
0.0
142
0.0
142
0.0
142
1.0
179
     0
144
0.0008202099737533
144
0.0
144
0.0
144
0.0
144
0.0
144
0.0008202099737533
144
0.0
144
0.0
144
0.0
144
0.0
144
1.0
144
0.0
144
0.0
144
0.0
144
0.0
144
1.0
147
0.0008202099737533
147
0.0
147
0.0
147
0.0
147
0.0
147
0.0008202099737533
147
0.0
147
0.0
147
0.0
147
0.0
147
1.0
147
0.0
147
0.0
147
0.0
147
0.0
147
1.0
  0
MATERIAL
  5
41F9
102
{ACAD_XDICTIONARY
360
41FA
102
}
102
{ACAD_REACTORS
330
96F
102
}
330
96F
100
AcDbMaterial
  1
ByLayer
 72
     0
 43
0.0008202099737533
 43
0.0
 43
0.0
 43
0.0
 43
0.0
 43
0.0008202099737533
 43
0.0
 43
0.0
 43
0.0
 43
0.0
 43
1.0
 43
0.0
 43
0.0
 43
0.0
 43
0.0
 43
1.0
 77
     0
 47
0.0008202099737533
 47
0.0
 47
0.0
 47
0.0
 47
0.0
 47
0.0008202099737533
 47
0.0
 47
0.0
 47
0.0
 47
0.0
 47
1.0
 47
0.0
 47
0.0
 47
0.0
 47
0.0
 47
1.0
171
     0
 49
0.0008202099737533
 49
0.0
 49
0.0
 49
0.0
 49
0.0
 49
0.0008202099737533
 49
0.0
 49
0.0
 49
0.0
 49
0.0
 49
1.0
 49
0.0
 49
0.0
 49
0.0
 49
0.0
 49
1.0
175
     0
142
0.0008202099737533
142
0.0
142
0.0
142
0.0
142
0.0
142
0.0008202099737533
142
0.0
142
0.0
142
0.0
142
0.0
142
1.0
142
0.0
142
0.0
142
0.0
142
0.0
142
1.0
179
     0
144
0.0008202099737533
144
0.0
144
0.0
144
0.0
144
0.0
144
0.0008202099737533
144
0.0
144
0.0
144
0.0
144
0.0
144
1.0
144
0.0
144
0.0
144
0.0
144
0.0
144
1.0
147
0.0008202099737533
147
0.0
147
0.0
147
0.0
147
0.0
147
0.0008202099737533
147
0.0
147
0.0
147
0.0
147
0.0
147
1.0
147
0.0
147
0.0
147
0.0
147
0.0
147
1.0
  0
MATERIAL
  5
4209
102
{ACAD_XDICTIONARY
360
420A
102
}
102
{ACAD_REACTORS
330
96F
102
}
330
96F
100
AcDbMaterial
  1
Global
 72
     0
 43
0.0008202099737533
 43
0.0
 43
0.0
 43
0.0
 43
0.0
 43
0.0008202099737533
 43
0.0
 43
0.0
 43
0.0
 43
0.0
 43
1.0
 43
0.0
 43
0.0
 43
0.0
 43
0.0
 43
1.0
 77
     0
 47
0.0008202099737533
 47
0.0
 47
0.0
 47
0.0
 47
0.0
 47
0.0008202099737533
 47
0.0
 47
0.0
 47
0.0
 47
0.0
 47
1.0
 47
0.0
 47
0.0
 47
0.0
 47
0.0
 47
1.0
171
     0
 49
0.0008202099737533
 49
0.0
 49
0.0
 49
0.0
 49
0.0
 49
0.0008202099737533
 49
0.0
 49
0.0
 49
0.0
 49
0.0
 49
1.0
 49
0.0
 49
0.0
 49
0.0
 49
0.0
 49
1.0
175
     0
142
0.0008202099737533
142
0.0
142
0.0
142
0.0
142
0.0
142
0.0008202099737533
142
0.0
142
0.0
142
0.0
142
0.0
142
1.0
142
0.0
142
0.0
142
0.0
142
0.0
142
1.0
179
     0
144
0.0008202099737533
144
0.0
144
0.0
144
0.0
144
0.0
144
0.0008202099737533
144
0.0
144
0.0
144
0.0
144
0.0
144
1.0
144
0.0
144
0.0
144
0.0
144
0.0
144
1.0
147
0.0008202099737533
147
0.0
147
0.0
147
0.0
147
0.0
147
0.0008202099737533
147
0.0
147
0.0
147
0.0
147
0.0
147
1.0
147
0.0
147
0.0
147
0.0
147
0.0
147
1.0
  0
MLEADERSTYLE
  5
423D
102
{ACAD_REACTORS
330
423C
102
}
330
423C
100
AcDbMLeaderStyle
179
     2
170
     2
171
     1
172
     0
 90
        2
 40
0.0
 41
0.0
173
     1
 91
-1056964608
340
14
 92
       -2
290
     1
 42
0.09
291
     1
 43
0.36
  3
Standard
 44
0.18
300

342
11
174
     1
178
     6
175
     1
176
     0
 93
-1056964608
 45
0.18
292
     0
297
     0
 46
0.18
 94
-1056964608
 47
1.0
 49
1.0
140
1.0
293
     1
141
0.0
294
     1
177
     0
142
1.0
295
     0
296
     0
143
0.125
271
     0
272
     9
273
     9
298
     1
1001
ACAD_MLEADERVER
1070
     2
  0
MLINESTYLE
  5
18
102
{ACAD_REACTORS
330
17
102
}
330
17
100
AcDbMlineStyle
  2
STANDARD
 70
     0
  3

 62
   256
 51
90.0
 52
90.0
 71
     2
 49
0.5
 62
   256
  6
BYLAYER
 49
-0.5
 62
   256
  6
BYLAYER
  0
ACDBPLACEHOLDER
  5
F
102
{ACAD_REACTORS
330
E
102
}
330
E
  0
SCALE
  5
422B
102
{ACAD_REACTORS
330
422A
102
}
330
422A
100
AcDbScale
 70
     0
300
1:1
140
1.0
141
1.0
290
     1
  0
SCALE
  5
422C
102
{ACAD_REACTORS
330
422A
102
}
330
422A
100
AcDbScale
 70
     0
300
1/128" = 1'-0"
140
0.0078125
141
12.0
290
     0
  0
SCALE
  5
422D
102
{ACAD_REACTORS
330
422A
102
}
330
422A
100
AcDbScale
 70
     0
300
1/64" = 1'-0"
140
0.015625
141
12.0
290
     0
  0
SCALE
  5
422E
102
{ACAD_REACTORS
330
422A
102
}
330
422A
100
AcDbScale
 70
     0
300
1/32" = 1'-0"
140
0.03125
141
12.0
290
     0
  0
SCALE
  5
422F
102
{ACAD_REACTORS
330
422A
102
}
330
422A
100
AcDbScale
 70
     0
300
1/16" = 1'-0"
140
0.0625
141
12.0
290
     0
  0
SCALE
  5
4230
102
{ACAD_REACTORS
330
422A
102
}
330
422A
100
AcDbScale
 70
     0
300
3/32" = 1'-0"
140
0.09375
141
12.0
290
     0
  0
SCALE
  5
4231
102
{ACAD_REACTORS
330
422A
102
}
330
422A
100
AcDbScale
 70
     0
300
1/8" = 1'-0"
140
0.125
141
12.0
290
     0
  0
SCALE
  5
4232
102
{ACAD_REACTORS
330
422A
102
}
330
422A
100
AcDbScale
 70
     0
300
3/16" = 1'-0"
140
0.1875
141
12.0
290
     0
  0
SCALE
  5
4233
102
{ACAD_REACTORS
330
422A
102
}
330
422A
100
AcDbScale
 70
     0
300
1/4" = 1'-0"
140
0.25
141
12.0
290
     0
  0
SCALE
  5
4234
102
{ACAD_REACTORS
330
422A
102
}
330
422A
100
AcDbScale
 70
     0
300
3/8" = 1'-0"
140
0.375
141
12.0
290
     0
  0
SCALE
  5
4235
102
{ACAD_REACTORS
330
422A
102
}
330
422A
100
AcDbScale
 70
     0
300
1/2" = 1'-0"
140
0.5
141
12.0
290
     0
  0
SCALE
  5
4236
102
{ACAD_REACTORS
330
422A
102
}
330
422A
100
AcDbScale
 70
     0
300
3/4" = 1'-0"
140
0.75
141
12.0
290
     0
  0
SCALE
  5
4237
102
{ACAD_REACTORS
330
422A
102
}
330
422A
100
AcDbScale
 70
     0
300
1" = 1'-0"
140
1.0
141
12.0
290
     0
  0
SCALE
  5
4238
102
{ACAD_REACTORS
330
422A
102
}
330
422A
100
AcDbScale
 70
     0
300
1-1/2" = 1'-0"
140
1.5
141
12.0
290
     0
  0
SCALE
  5
4239
102
{ACAD_REACTORS
330
422A
102
}
330
422A
100
AcDbScale
 70
     0
300
3" = 1'-0"
140
3.0
141
12.0
290
     0
  0
SCALE
  5
423A
102
{ACAD_REACTORS
330
422A
102
}
330
422A
100
AcDbScale
 70
     0
300
6" = 1'-0"
140
6.0
141
12.0
290
     0
  0
SCALE
  5
423B
102
{ACAD_REACTORS
330
422A
102
}
330
422A
100
AcDbScale
 70
     0
300
1'-0" = 1'-0"
140
12.0
141
12.0
290
     0
  0
ACDBSECTIONVIEWSTYLE
  5
5263
102
{ACAD_XDICTIONARY
360
52C3
102
}
102
{ACAD_REACTORS
330
5262
102
}
330
5262
100
AcDbModelDocViewStyle
 70
     0
  3
Imperial24
290
     0
100
AcDbSectionViewStyle
 70
     0
 71
     0
 90
       78
 71
     1
340
11
 62
   256
 40
0.24
340
0
340
0
 62
   256
 40
0.24
300
I, O, Q, S, X, Z
 40
0.48
 90
        3
 40
0.18
 90
        1
 71
     2
340
16
 90
       25
 62
   256
340
16
 90
       50
 62
   256
 40
0.24
 40
0.0
 40
0.24
 71
     3
340
11
 62
   256
 40
0.24
 90
        1
 40
0.75
 90
        1
300
%<\AcVar ViewType \f "%tc1">% %<\AcVar ViewSectionStartId>%-%<\AcVar ViewSectionEndId>%\PSCALE %<\AcVar ViewScale \f "%sn">%
 71
     4
 62
   256
 62
   257
300
ANSI31
 40
1.0
 90
        0
290
     0
290
     0
 90
        6
 40
0.0
 40
1.570796326794896
 40
0.2617993877991494
 40
1.308996938995747
 40
-0.2617993877991494
 40
1.832595714594046
  0
TABLESTYLE
  5
972
102
{ACAD_XDICTIONARY
360
424A
102
}
102
{ACAD_REACTORS
330
971
102
}
330
971
100
AcDbTableStyle
280
     0
  3
Standard
 70
     0
 71
     0
 40
0.06
 41
0.06
280
     0
281
     0
  7
Standard
140
0.18
170
     2
 62
     0
 63
     7
283
     0
 90
        4
 91
        0
  1

274
    -2
284
     1
 64
     0
275
    -2
285
     1
 65
     0
276
    -2
286
     1
 66
     0
277
    -2
287
     1
 67
     0
278
    -2
288
     1
 68
     0
279
    -2
289
     1
 69
     0
  7
Standard
140
0.25
170
     5
 62
     0
 63
     7
283
     0
 90
        4
 91
        0
  1

274
    -2
284
     1
 64
     0
275
    -2
285
     1
 65
     0
276
    -2
286
     1
 66
     0
277
    -2
287
     1
 67
     0
278
    -2
288
     1
 68
     0
279
    -2
289
     1
 69
     0
  7
Standard
140
0.18
170
     5
 62
     0
 63
     7
283
     0
 90
        4
 91
        0
  1

274
    -2
284
     1
 64
     0
275
    -2
285
     1
 65
     0
276
    -2
286
     1
 66
     0
277
    -2
287
     1
 67
     0
278
    -2
288
     1
 68
     0
279
    -2
289
     1
 69
     0
  0
VISUALSTYLE
  5
4217
102
{ACAD_REACTORS
330
4211
102
}
330
4211
100
AcDbVisualStyle
  2

 70
     4
177
     3
291
     0
 70
    58
 90
        0
176
     1
 90
        2
176
     1
 90
        0
176
     1
 90
        0
176
     1
 40
0.6
176
     1
 40
30.0
176
     1
 62
     7
420
 16777215
176
     1
 90
        1
176
     1
 90
        4
176
     1
 62
     7
176
     1
 62
   257
176
     1
 90
        1
176
     1
 90
        1
176
     1
 40
1.0
176
     1
 90
        0
176
     1
 62
   257
176
     1
 40
1.0
176
     1
 90
        1
176
     1
 90
        6
176
     1
 90
        2
176
     1
 62
     7
176
     1
 90
        5
176
     1
 90
        0
176
     1
 90
        0
176
     1
290
     0
176
     1
 90
        1
176
     1
 40
0.0
176
     1
 90
        0
176
     1
290
     1
176
     1
290
     1
176
     1
290
     0
176
     1
290
     0
176
     1
290
     0
176
     1
290
     0
176
     1
290
     0
176
     1
290
     0
176
     1
290
     0
176
     1
 90
       50
176
     1
 40
0.0
176
     1
 40
1.0
176
     1
 90
        0
176
     1
 62
    18
420
        0
176
     1
 90
       50
176
     1
 90
        3
176
     1
 62
     5
420
      255
176
     1
290
     0
176
     1
 90
       50
176
     1
 90
       50
176
     1
 90
       50
176
     1
290
     0
176
     1
 90
       50
176
     1
 62
   256
176
     0
 40
1.0
176
     0
 90
        2
176
     1
  1
strokes_ogs.tif
176
     1
290
     0
176
     1
 40
1.0
176
     1
 40
1.0
176
     1
1001
ACAD
1000
AcDbSavedByObjectVersion
1070
     0
  0
VISUALSTYLE
  5
4216
102
{ACAD_REACTORS
330
4211
102
}
330
4211
100
AcDbVisualStyle
  2

 70
     7
177
     3
291
     1
 70
    58
 90
        1
176
     1
 90
        0
176
     1
 90
        1
176
     1
 90
        0
176
     1
 40
0.6
176
     1
 40
30.0
176
     1
 62
     7
420
 16777215
176
     1
 90
        0
176
     1
 90
        4
176
     1
 62
     7
176
     1
 62
   257
176
     1
 90
        1
176
     1
 90
        1
176
     1
 40
1.0
176
     1
 90
        8
176
     1
 62
     7
176
     1
 40
1.0
176
     1
 90
        1
176
     1
 90
        6
176
     1
 90
        2
176
     1
 62
     7
176
     1
 90
        5
176
     1
 90
        0
176
     1
 90
        0
176
     1
290
     0
176
     1
 90
        1
176
     1
 40
0.0
176
     1
 90
        0
176
     1
290
     0
176
     1
290
     1
176
     1
290
     1
176
     1
290
     0
176
     1
290
     0
176
     1
290
     0
176
     1
290
     0
176
     1
290
     0
176
     1
290
     0
176
     1
 90
       50
176
     1
 40
0.0
176
     1
 40
1.0
176
     1
 90
        0
176
     1
 62
    18
420
        0
176
     1
 90
       50
176
     1
 90
        3
176
     1
 62
     5
420
      255
176
     1
290
     0
176
     1
 90
       50
176
     1
 90
       50
176
     1
 90
       50
176
     1
290
     0
176
     1
 90
       50
176
     1
 62
   256
176
     0
 40
1.0
176
     0
 90
        2
176
     1
  1
strokes_ogs.tif
176
     1
290
     0
176
     1
 40
1.0
176
     1
 40
1.0
176
     1
1001
ACAD
1000
AcDbSavedByObjectVersion
1070
     0
  0
VISUALSTYLE
  5
421D
102
{ACAD_REACTORS
330
4211
102
}
330
4211
100
AcDbVisualStyle
  2

 70
    12
177
     3
291
     1
 70
    58
 90
        2
176
     1
 90
        2
176
     1
 90
        0
176
     1
 90
        0
176
     1
 40
0.6
176
     1
 40
30.0
176
     1
 62
     7
420
 16777215
176
     1
 90
        1
176
     1
 90
        4
176
     1
 62
     7
176
     1
 62
   257
176
     1
 90
        1
176
     1
 90
        1
176
     1
 40
1.0
176
     1
 90
        8
176
     1
 62
     7
176
     1
 40
1.0
176
     1
 90
        1
176
     1
 90
        6
176
     1
 90
        2
176
     1
 62
     7
176
     1
 90
        5
176
     1
 90
        0
176
     1
 90
        0
176
     1
290
     0
176
     1
 90
        1
176
     1
 40
50.0
176
     1
 90
        0
176
     1
290
     0
176
     1
290
     1
176
     1
290
     1
176
     1
290
     0
176
     1
290
     0
176
     1
290
     0
176
     1
290
     0
176
     1
290
     0
176
     1
290
     0
176
     1
 90
       50
176
     1
 40
0.0
176
     1
 40
1.0
176
     1
 90
        0
176
     1
 62
    18
420
        0
176
     1
 90
       50
176
     1
 90
        3
176
     1
 62
     5
420
      255
176
     1
290
     0
176
     1
 90
       50
176
     1
 90
       50
176
     1
 90
       50
176
     1
290
     0
176
     1
 90
       50
176
     1
 62
   256
176
     0
 40
1.0
176
     0
 90
        2
176
     1
  1
strokes_ogs.tif
176
     1
290
     0
176
     1
 40
1.0
176
     1
 40
1.0
176
     1
1001
ACAD
1000
AcDbSavedByObjectVersion
1070
     0
  0
VISUALSTYLE
  5
4221
102
{ACAD_REACTORS
330
4211
102
}
330
4211
100
AcDbVisualStyle
  2

 70
    16
177
     3
291
     1
 70
    58
 90
        2
176
     1
 90
        2
176
     1
 90
        3
176
     1
 90
        0
176
     1
 40
0.6
176
     1
 40
30.0
176
     1
 62
     8
420
  8421504
176
     1
 90
        1
176
     1
 90
        4
176
     1
 62
     7
176
     1
 62
   257
176
     1
 90
        1
176
     1
 90
        1
176
     1
 40
1.0
176
     1
 90
        8
176
     1
 62
     8
420
  8421504
176
     1
 40
1.0
176
     1
 90
        1
176
     1
 90
        6
176
     1
 90
        2
176
     1
 62
     7
176
     1
 90
        5
176
     1
 90
        0
176
     1
 90
        0
176
     1
290
     0
176
     1
 90
        1
176
     1
 40
0.0
176
     1
 90
        0
176
     1
290
     0
176
     1
290
     1
176
     1
290
     1
176
     1
290
     0
176
     1
290
     0
176
     1
290
     0
176
     1
290
     0
176
     1
290
     0
176
     1
290
     0
176
     1
 90
       50
176
     1
 40
0.0
176
     1
 40
1.0
176
     1
 90
        0
176
     1
 62
    18
420
        0
176
     1
 90
       50
176
     1
 90
        3
176
     1
 62
     5
420
      255
176
     1
290
     0
176
     1
 90
       50
176
     1
 90
       50
176
     1
 90
       50
176
     1
290
     0
176
     1
 90
       50
176
     1
 62
   256
176
     0
 40
1.0
176
     0
 90
        2
176
     1
  1
strokes_ogs.tif
176
     1
290
     0
176
     1
 40
1.0
176
     1
 40
1.0
176
     1
1001
ACAD
1000
AcDbSavedByObjectVersion
1070
     0
  0
VISUALSTYLE
  5
421A
102
{ACAD_REACTORS
330
4211
102
}
330
4211
100
AcDbVisualStyle
  2

 70
     9
177
     3
291
     0
 70
    58
 90
        3
176
     1
 90
        2
176
     1
 90
        0
176
     1
 90
        0
176
     1
 40
0.6
176
     1
 40
30.0
176
     1
 62
     7
420
 16777215
176
     1
 90
        2
176
     1
 90
        2
176
     1
 62
     7
176
     1
 62
   257
176
     1
 90
        1
176
     1
 90
        1
176
     1
 40
179.0
176
     1
 90
        8
176
     1
 62
     7
176
     1
 40
1.0
176
     1
 90
        1
176
     1
 90
        6
176
     1
 90
        2
176
     1
 62
     7
176
     1
 90
        3
176
     1
 90
        0
176
     1
 90
        0
176
     1
290
     0
176
     1
 90
        1
176
     1
 40
0.0
176
     1
 90
        0
176
     1
290
     0
176
     1
290
     1
176
     1
290
     1
176
     1
290
     0
176
     1
290
     0
176
     1
290
     0
176
     1
290
     0
176
     1
290
     0
176
     1
290
     0
176
     1
 90
       50
176
     1
 40
0.0
176
     1
 40
1.0
176
     1
 90
        0
176
     1
 62
    18
420
        0
176
     1
 90
       50
176
     1
 90
        3
176
     1
 62
     5
420
      255
176
     1
290
     0
176
     1
 90
       50
176
     1
 90
       50
176
     1
 90
       50
176
     1
290
     0
176
     1
 90
       50
176
     1
 62
   256
176
     0
 40
1.0
176
     0
 90
        2
176
     1
  1
strokes_ogs.tif
176
     1
290
     0
176
     1
 40
1.0
176
     1
 40
1.0
176
     1
1001
ACAD
1000
AcDbSavedByObjectVersion
1070
     0
  0
VISUALSTYLE
  5
421C
102
{ACAD_REACTORS
330
4211
102
}
330
4211
100
AcDbVisualStyle
  2

 70
    11
177
     3
291
     1
 70
    58
 90
        2
176
     1
 90
        2
176
     1
 90
        0
176
     1
 90
        0
176
     1
 40
0.6
176
     1
 40
30.0
176
     1
 62
     7
420
 16777215
176
     1
 90
        1
176
     1
 90
        4
176
     1
 62
     7
176
     1
 62
   257
176
     1
 90
        1
176
     1
 90
        1
176
     1
 40
1.0
176
     1
 90
        8
176
     1
 62
     7
176
     1
 40
1.0
176
     1
 90
        1
176
     1
 90
        6
176
     1
 90
        2
176
     1
 62
     7
176
     1
 90
        5
176
     1
 90
        0
176
     1
 90
        0
176
     1
290
     0
176
     1
 90
        1
176
     1
 40
-50.0
176
     1
 90
        0
176
     1
290
     0
176
     1
290
     1
176
     1
290
     1
176
     1
290
     0
176
     1
290
     0
176
     1
290
     0
176
     1
290
     0
176
     1
290
     0
176
     1
290
     0
176
     1
 90
       50
176
     1
 40
0.0
176
     1
 40
1.0
176
     1
 90
        0
176
     1
 62
    18
420
        0
176
     1
 90
       50
176
     1
 90
        3
176
     1
 62
     5
420
      255
176
     1
290
     0
176
     1
 90
       50
176
     1
 90
       50
176
     1
 90
       50
176
     1
290
     0
176
     1
 90
       50
176
     1
 62
   256
176
     0
 40
1.0
176
     0
 90
        2
176
     1
  1
strokes_ogs.tif
176
     1
290
     0
176
     1
 40
1.0
176
     1
 40
1.0
176
     1
1001
ACAD
1000
AcDbSavedByObjectVersion
1070
     0
  0
VISUALSTYLE
  5
4229
102
{ACAD_REACTORS
330
4211
102
}
330
4211
100
AcDbVisualStyle
  2

 70
    22
177
     3
291
     1
 70
    58
 90
        2
176
     0
 90
        2
176
     0
 90
        0
176
     0
 90
        0
176
     0
 40
0.6
176
     0
 40
30.0
176
     0
 62
     7
420
 16777215
176
     0
 90
        1
176
     0
 90
        4
176
     0
 62
     7
176
     0
 62
   257
176
     0
 90
        1
176
     0
 90
        1
176
     0
 40
1.0
176
     0
 90
        8
176
     2
 62
     7
176
     0
 40
1.0
176
     0
 90
        1
176
     0
 90
        6
176
     0
 90
        2
176
     0
 62
     7
176
     0
 90
        5
176
     0
 90
        0
176
     0
 90
        0
176
     0
290
     0
176
     0
 90
        1
176
     0
 40
0.0
176
     0
 90
        0
176
     0
290
     0
176
     0
290
     1
176
     0
290
     1
176
     0
290
     0
176
     0
290
     0
176
     0
290
     0
176
     1
290
     0
176
     1
290
     0
176
     1
290
     0
176
     1
 90
       50
176
     1
 40
0.0
176
     1
 40
1.0
176
     1
 90
        0
176
     1
 62
    18
420
        0
176
     1
 90
       50
176
     1
 90
        3
176
     1
 62
     5
420
      255
176
     1
290
     0
176
     1
 90
       50
176
     1
 90
       50
176
     1
 90
       50
176
     1
290
     0
176
     1
 90
       50
176
     1
 62
   256
176
     0
 40
1.0
176
     0
 90
        2
176
     1
  1
strokes_ogs.tif
176
     1
290
     0
176
     1
 40
1.0
176
     1
 40
1.0
176
     1
1001
ACAD
1000
AcDbSavedByObjectVersion
1070
     0
  0
VISUALSTYLE
  5
4220
102
{ACAD_REACTORS
330
4211
102
}
330
4211
100
AcDbVisualStyle
  2

 70
    15
177
     3
291
     1
 70
    58
 90
        2
176
     1
 90
        2
176
     1
 90
        0
176
     1
 90
        0
176
     1
 40
0.6
176
     1
 40
30.0
176
     1
 62
     7
420
 16777215
176
     1
 90
        1
176
     1
 90
        4
176
     1
 62
     7
176
     1
 62
   257
176
     1
 90
        1
176
     1
 90
        1
176
     1
 40
1.0
176
     1
 90
        8
176
     1
 62
     7
176
     1
 40
1.0
176
     1
 90
        1
176
     1
 90
        6
176
     1
 90
        2
176
     1
 62
     7
176
     1
 90
        5
176
     1
 90
        0
176
     1
 90
        0
176
     1
290
     0
176
     1
 90
        1
176
     1
 40
0.0
176
     1
 90
        0
176
     1
290
     0
176
     1
290
     1
176
     1
290
     1
176
     1
290
     0
176
     1
290
     0
176
     1
290
     0
176
     1
290
     0
176
     1
290
     0
176
     1
290
     0
176
     1
 90
       50
176
     1
 40
0.0
176
     1
 40
1.0
176
     1
 90
        0
176
     1
 62
    18
420
        0
176
     1
 90
       50
176
     1
 90
        3
176
     1
 62
     5
420
      255
176
     1
290
     0
176
     1
 90
       50
176
     1
 90
       50
176
     1
 90
       50
176
     1
290
     0
176
     1
 90
       50
176
     1
 62
   256
176
     0
 40
1.0
176
     0
 90
        2
176
     1
  1
strokes_ogs.tif
176
     1
290
     0
176
     1
 40
1.0
176
     1
 40
1.0
176
     1
1001
ACAD
1000
AcDbSavedByObjectVersion
1070
     0
  0
VISUALSTYLE
  5
4212
102
{ACAD_REACTORS
330
4211
102
}
330
4211
100
AcDbVisualStyle
  2

 70
     0
177
     3
291
     1
 70
    58
 90
        2
176
     1
 90
        1
176
     1
 90
        1
176
     1
 90
        2
176
     1
 40
0.6
176
     1
 40
30.0
176
     1
 62
     7
420
 16777215
176
     1
 90
        0
176
     1
 90
        0
176
     1
 62
     7
176
     1
 62
   257
176
     1
 90
        1
176
     1
 90
        1
176
     1
 40
1.0
176
     1
 90
        8
176
     1
 62
     7
176
     1
 40
1.0
176
     1
 90
        1
176
     1
 90
        6
176
     1
 90
        2
176
     1
 62
     7
176
     1
 90
        5
176
     1
 90
        0
176
     1
 90
        0
176
     1
290
     0
176
     1
 90
       13
176
     1
 40
0.0
176
     1
 90
        0
176
     1
290
     0
176
     1
290
     1
176
     1
290
     1
176
     1
290
     0
176
     1
290
     0
176
     1
290
     0
176
     1
290
     0
176
     1
290
     0
176
     1
290
     0
176
     1
 90
       50
176
     1
 40
0.0
176
     1
 40
1.0
176
     1
 90
        0
176
     1
 62
    18
420
        0
176
     1
 90
       50
176
     1
 90
        3
176
     1
 62
     5
420
      255
176
     1
290
     0
176
     1
 90
       50
176
     1
 90
       50
176
     1
 90
       50
176
     1
290
     0
176
     1
 90
       50
176
     1
 62
   256
176
     0
 40
1.0
176
     0
 90
        2
176
     1
  1
strokes_ogs.tif
176
     1
290
     0
176
     1
 40
1.0
176
     1
 40
1.0
176
     1
1001
ACAD
1000
AcDbSavedByObjectVersion
1070
     0
  0
VISUALSTYLE
  5
4213
102
{ACAD_REACTORS
330
4211
102
}
330
4211
100
AcDbVisualStyle
  2

 70
     1
177
     3
291
     1
 70
    58
 90
        2
176
     1
 90
        1
176
     1
 90
        1
176
     1
 90
        2
176
     1
 40
0.6
176
     1
 40
30.0
176
     1
 62
     7
420
 16777215
176
     1
 90
        1
176
     1
 90
        0
176
     1
 62
     7
176
     1
 62
   257
176
     1
 90
        1
176
     1
 90
        1
176
     1
 40
1.0
176
     1
 90
        0
176
     1
 62
   257
176
     1
 40
1.0
176
     1
 90
        1
176
     1
 90
        6
176
     1
 90
        2
176
     1
 62
     7
176
     1
 90
        5
176
     1
 90
        0
176
     1
 90
        0
176
     1
290
     0
176
     1
 90
       13
176
     1
 40
0.0
176
     1
 90
        0
176
     1
290
     0
176
     1
290
     1
176
     1
290
     1
176
     1
290
     0
176
     1
290
     0
176
     1
290
     0
176
     1
290
     0
176
     1
290
     0
176
     1
290
     0
176
     1
 90
       50
176
     1
 40
0.0
176
     1
 40
1.0
176
     1
 90
        0
176
     1
 62
    18
420
        0
176
     1
 90
       50
176
     1
 90
        3
176
     1
 62
     5
420
      255
176
     1
290
     0
176
     1
 90
       50
176
     1
 90
       50
176
     1
 90
       50
176
     1
290
     0
176
     1
 90
       50
176
     1
 62
   256
176
     0
 40
1.0
176
     0
 90
        2
176
     1
  1
strokes_ogs.tif
176
     1
290
     0
176
     1
 40
1.0
176
     1
 40
1.0
176
     1
1001
ACAD
1000
AcDbSavedByObjectVersion
1070
     0
  0
VISUALSTYLE
  5
4214
102
{ACAD_REACTORS
330
4211
102
}
330
4211
100
AcDbVisualStyle
  2

 70
     2
177
     3
291
     1
 70
    58
 90
        2
176
     1
 90
        2
176
     1
 90
        1
176
     1
 90
        2
176
     1
 40
0.6
176
     1
 40
30.0
176
     1
 62
     7
420
 16777215
176
     1
 90
        0
176
     1
 90
        0
176
     1
 62
     7
176
     1
 62
   257
176
     1
 90
        1
176
     1
 90
        1
176
     1
 40
1.0
176
     1
 90
        0
176
     1
 62
     7
176
     1
 40
1.0
176
     1
 90
        1
176
     1
 90
        6
176
     1
 90
        2
176
     1
 62
     7
176
     1
 90
        5
176
     1
 90
        0
176
     1
 90
        0
176
     1
290
     0
176
     1
 90
       13
176
     1
 40
0.0
176
     1
 90
        0
176
     1
290
     0
176
     1
290
     1
176
     1
290
     1
176
     1
290
     0
176
     1
290
     0
176
     1
290
     0
176
     1
290
     0
176
     1
290
     0
176
     1
290
     0
176
     1
 90
       50
176
     1
 40
0.0
176
     1
 40
1.0
176
     1
 90
        0
176
     1
 62
    18
420
        0
176
     1
 90
       50
176
     1
 90
        3
176
     1
 62
     5
420
      255
176
     1
290
     0
176
     1
 90
       50
176
     1
 90
       50
176
     1
 90
       50
176
     1
290
     0
176
     1
 90
       50
176
     1
 62
   256
176
     0
 40
1.0
176
     0
 90
        2
176
     1
  1
strokes_ogs.tif
176
     1
290
     0
176
     1
 40
1.0
176
     1
 40
1.0
176
     1
1001
ACAD
1000
AcDbSavedByObjectVersion
1070
     0
  0
VISUALSTYLE
  5
4215
102
{ACAD_REACTORS
330
4211
102
}
330
4211
100
AcDbVisualStyle
  2

 70
     3
177
     3
291
     1
 70
    58
 90
        2
176
     1
 90
        2
176
     1
 90
        1
176
     1
 90
        2
176
     1
 40
0.6
176
     1
 40
30.0
176
     1
 62
     7
420
 16777215
176
     1
 90
        1
176
     1
 90
        0
176
     1
 62
     7
176
     1
 62
   257
176
     1
 90
        1
176
     1
 90
        1
176
     1
 40
1.0
176
     1
 90
        0
176
     1
 62
   257
176
     1
 40
1.0
176
     1
 90
        1
176
     1
 90
        6
176
     1
 90
        2
176
     1
 62
     7
176
     1
 90
        5
176
     1
 90
        0
176
     1
 90
        0
176
     1
290
     0
176
     1
 90
       13
176
     1
 40
0.0
176
     1
 90
        0
176
     1
290
     0
176
     1
290
     1
176
     1
290
     1
176
     1
290
     0
176
     1
290
     0
176
     1
290
     0
176
     1
290
     0
176
     1
290
     0
176
     1
290
     0
176
     1
 90
       50
176
     1
 40
0.0
176
     1
 40
1.0
176
     1
 90
        0
176
     1
 62
    18
420
        0
176
     1
 90
       50
176
     1
 90
        3
176
     1
 62
     5
420
      255
176
     1
290
     0
176
     1
 90
       50
176
     1
 90
       50
176
     1
 90
       50
176
     1
290
     0
176
     1
 90
       50
176
     1
 62
   256
176
     0
 40
1.0
176
     0
 90
        2
176
     1
  1
strokes_ogs.tif
176
     1
290
     0
176
     1
 40
1.0
176
     1
 40
1.0
176
     1
1001
ACAD
1000
AcDbSavedByObjectVersion
1070
     0
  0
VISUALSTYLE
  5
4219
102
{ACAD_REACTORS
330
4211
102
}
330
4211
100
AcDbVisualStyle
  2

 70
     6
177
     3
291
     0
 70
    58
 90
        1
176
     1
 90
        2
176
     1
 90
        2
176
     1
 90
        0
176
     1
 40
0.6
176
     1
 40
30.0
176
     1
 62
     7
420
 16777215
176
     1
 90
        2
176
     1
 90
        2
176
     1
 62
     7
176
     1
 62
   257
176
     1
 90
        2
176
     1
 90
        1
176
     1
 40
40.0
176
     1
 90
        0
176
     1
 62
   257
176
     1
 40
1.0
176
     1
 90
        1
176
     1
 90
        6
176
     1
 90
        2
176
     1
 62
     7
176
     1
 90
        3
176
     1
 90
        0
176
     1
 90
        0
176
     1
290
     0
176
     1
 90
        1
176
     1
 40
0.0
176
     1
 90
        0
176
     1
290
     0
176
     1
290
     1
176
     1
290
     1
176
     1
290
     0
176
     1
290
     0
176
     1
290
     0
176
     1
290
     0
176
     1
290
     0
176
     1
290
     0
176
     1
 90
       50
176
     1
 40
0.0
176
     1
 40
1.0
176
     1
 90
        0
176
     1
 62
    18
420
        0
176
     1
 90
       50
176
     1
 90
        3
176
     1
 62
     5
420
      255
176
     1
290
     0
176
     1
 90
       50
176
     1
 90
       50
176
     1
 90
       50
176
     1
290
     0
176
     1
 90
       50
176
     1
 62
   256
176
     0
 40
1.0
176
     0
 90
        2
176
     1
  1
strokes_ogs.tif
176
     1
290
     0
176
     1
 40
1.0
176
     1
 40
1.0
176
     1
1001
ACAD
1000
AcDbSavedByObjectVersion
1070
     0
  0
VISUALSTYLE
  5
4227
102
{ACAD_REACTORS
330
4211
102
}
330
4211
100
AcDbVisualStyle
  2

 70
    20
177
     3
291
     1
 70
    58
 90
        2
176
     0
 90
        2
176
     0
 90
        0
176
     0
 90
        0
176
     0
 40
0.6
176
     0
 40
30.0
176
     0
 62
     7
420
 16777215
176
     0
 90
        1
176
     0
 90
        4
176
     0
 62
     7
176
     0
 62
   257
176
     0
 90
        1
176
     0
 90
        1
176
     0
 40
1.0
176
     0
 90
       10
176
     2
 62
     7
176
     0
 40
1.0
176
     0
 90
        1
176
     0
 90
        6
176
     0
 90
        2
176
     0
 62
     7
176
     0
 90
        5
176
     0
 90
        0
176
     0
 90
        0
176
     0
290
     0
176
     0
 90
        1
176
     0
 40
0.0
176
     0
 90
        0
176
     0
290
     0
176
     0
290
     1
176
     0
290
     1
176
     0
290
     0
176
     0
290
     0
176
     0
290
     0
176
     1
290
     0
176
     1
290
     0
176
     1
290
     0
176
     1
 90
       50
176
     1
 40
0.0
176
     1
 40
1.0
176
     1
 90
        0
176
     1
 62
    18
420
        0
176
     1
 90
       50
176
     1
 90
        3
176
     1
 62
     5
420
      255
176
     1
290
     0
176
     1
 90
       50
176
     1
 90
       50
176
     1
 90
       50
176
     1
290
     0
176
     1
 90
       50
176
     1
 62
   256
176
     0
 40
1.0
176
     0
 90
        2
176
     1
  1
strokes_ogs.tif
176
     1
290
     0
176
     1
 40
1.0
176
     1
 40
1.0
176
     1
1001
ACAD
1000
AcDbSavedByObjectVersion
1070
     0
  0
VISUALSTYLE
  5
421F
102
{ACAD_REACTORS
330
4211
102
}
330
4211
100
AcDbVisualStyle
  2

 70
    14
177
     3
291
     1
 70
    58
 90
        2
176
     1
 90
        2
176
     1
 90
        0
176
     1
 90
        0
176
     1
 40
0.6
176
     1
 40
30.0
176
     1
 62
     7
420
 16777215
176
     1
 90
        1
176
     1
 90
        4
176
     1
 62
     7
176
     1
 62
   257
176
     1
 90
        7
176
     1
 90
        7
176
     1
 40
1.0
176
     1
 90
        8
176
     1
 62
     7
176
     1
 40
1.0
176
     1
 90
        1
176
     1
 90
        6
176
     1
 90
        2
176
     1
 62
     7
176
     1
 90
        5
176
     1
 90
        0
176
     1
 90
        0
176
     1
290
     0
176
     1
 90
        1
176
     1
 40
0.0
176
     1
 90
        0
176
     1
290
     0
176
     1
290
     1
176
     1
290
     1
176
     1
290
     0
176
     1
290
     0
176
     1
290
     0
176
     1
290
     0
176
     1
290
     0
176
     1
290
     0
176
     1
 90
       50
176
     1
 40
0.0
176
     1
 40
1.0
176
     1
 90
        0
176
     1
 62
    18
420
        0
176
     1
 90
       50
176
     1
 90
        3
176
     1
 62
     5
420
      255
176
     1
290
     0
176
     1
 90
       50
176
     1
 90
       50
176
     1
 90
       50
176
     1
290
     0
176
     1
 90
       50
176
     1
 62
   256
176
     0
 40
1.0
176
     0
 90
        2
176
     1
  1
strokes_ogs.tif
176
     1
290
     0
176
     1
 40
1.0
176
     1
 40
1.0
176
     1
1001
ACAD
1000
AcDbSavedByObjectVersion
1070
     0
  0
VISUALSTYLE
  5
4228
102
{ACAD_REACTORS
330
4211
102
}
330
4211
100
AcDbVisualStyle
  2

 70
    21
177
     3
291
     1
 70
    58
 90
        2
176
     0
 90
        2
176
     0
 90
        0
176
     0
 90
        0
176
     0
 40
0.6
176
     0
 40
30.0
176
     0
 62
     7
420
 16777215
176
     0
 90
        1
176
     0
 90
        4
176
     0
 62
     7
176
     0
 62
   257
176
     0
 90
        1
176
     0
 90
        1
176
     0
 40
1.0
176
     0
 90
        9
176
     2
 62
     7
176
     0
 40
1.0
176
     0
 90
        1
176
     0
 90
        6
176
     0
 90
        2
176
     0
 62
     7
176
     0
 90
        5
176
     0
 90
        0
176
     0
 90
        0
176
     0
290
     0
176
     0
 90
        1
176
     0
 40
0.0
176
     0
 90
        0
176
     0
290
     0
176
     0
290
     1
176
     0
290
     1
176
     0
290
     0
176
     0
290
     0
176
     0
290
     0
176
     1
290
     0
176
     1
290
     0
176
     1
290
     0
176
     1
 90
       50
176
     1
 40
0.0
176
     1
 40
1.0
176
     1
 90
        0
176
     1
 62
    18
420
        0
176
     1
 90
       50
176
     1
 90
        3
176
     1
 62
     5
420
      255
176
     1
290
     0
176
     1
 90
       50
176
     1
 90
       50
176
     1
 90
       50
176
     1
290
     0
176
     1
 90
       50
176
     1
 62
   256
176
     0
 40
1.0
176
     0
 90
        2
176
     1
  1
strokes_ogs.tif
176
     1
290
     0
176
     1
 40
1.0
176
     1
 40
1.0
176
     1
1001
ACAD
1000
AcDbSavedByObjectVersion
1070
     0
  0
VISUALSTYLE
  5
421B
102
{ACAD_REACTORS
330
4211
102
}
330
4211
100
AcDbVisualStyle
  2

 70
     8
177
     3
291
     0
 70
    58
 90
        2
176
     1
 90
        2
176
     1
 90
        0
176
     1
 90
        2
176
     1
 40
0.6
176
     1
 40
30.0
176
     1
 62
     7
420
 16777215
176
     1
 90
        0
176
     1
 90
        0
176
     1
 62
     7
176
     1
 62
   257
176
     1
 90
        1
176
     1
 90
        1
176
     1
 40
1.0
176
     1
 90
        8
176
     1
 62
   257
176
     1
 40
1.0
176
     1
 90
        1
176
     1
 90
        6
176
     1
 90
        2
176
     1
 62
     7
176
     1
 90
        3
176
     1
 90
        0
176
     1
 90
        0
176
     1
290
     0
176
     1
 90
       13
176
     1
 40
0.0
176
     1
 90
        0
176
     1
290
     0
176
     1
290
     1
176
     1
290
     1
176
     1
290
     0
176
     1
290
     0
176
     1
290
     0
176
     1
290
     0
176
     1
290
     0
176
     1
290
     0
176
     1
 90
       50
176
     1
 40
0.0
176
     1
 40
1.0
176
     1
 90
        0
176
     1
 62
    18
420
        0
176
     1
 90
       50
176
     1
 90
        3
176
     1
 62
     5
420
      255
176
     1
290
     0
176
     1
 90
       50
176
     1
 90
       50
176
     1
 90
       50
176
     1
290
     0
176
     1
 90
       50
176
     1
 62
   256
176
     0
 40
1.0
176
     0
 90
        2
176
     1
  1
strokes_ogs.tif
176
     1
290
     0
176
     1
 40
1.0
176
     1
 40
1.0
176
     1
1001
ACAD
1000
AcDbSavedByObjectVersion
1070
     0
  0
VISUALSTYLE
  5
4226
102
{ACAD_REACTORS
330
4211
102
}
330
4211
100
AcDbVisualStyle
  2

 70
    27
177
     3
291
     0
 70
    58
 90
        2
176
     1
 90
        2
176
     1
 90
        1
176
     1
 90
        2
176
     1
 40
0.6
176
     1
 40
30.0
176
     1
 62
     7
420
 16777215
176
     1
 90
        0
176
     1
 90
        4
176
     1
 62
     7
176
     1
 62
   257
176
     1
 90
        1
176
     1
 90
        1
176
     1
 40
1.0
176
     1
 90
        8
176
     1
 62
   257
176
     1
 40
1.0
176
     1
 90
        1
176
     1
 90
        6
176
     1
 90
        2
176
     1
 62
     8
420
  7895160
176
     1
 90
        3
176
     1
 90
        0
176
     1
 90
        0
176
     1
290
     0
176
     1
 90
        5
176
     1
 40
0.0
176
     1
 90
        0
176
     1
290
     0
176
     1
290
     1
176
     1
290
     1
176
     1
290
     0
176
     1
290
     0
176
     1
290
     0
176
     1
290
     0
176
     1
290
     0
176
     1
290
     0
176
     1
 90
       50
176
     1
 40
0.0
176
     1
 40
1.0
176
     1
 90
        0
176
     1
 62
    18
420
        0
176
     1
 90
       50
176
     1
 90
        3
176
     1
 62
     5
420
      255
176
     1
290
     0
176
     1
 90
       50
176
     1
 90
       50
176
     1
 90
       50
176
     1
290
     0
176
     1
 90
       50
176
     1
 62
   256
176
     0
 40
1.0
176
     0
 90
        2
176
     1
  1
strokes_ogs.tif
176
     1
290
     0
176
     1
 40
1.0
176
     1
 40
1.0
176
     1
1001
ACAD
1000
AcDbSavedByObjectVersion
1070
     0
  0
VISUALSTYLE
  5
4225
102
{ACAD_REACTORS
330
4211
102
}
330
4211
100
AcDbVisualStyle
  2

 70
    26
177
     3
291
     0
 70
    58
 90
        2
176
     1
 90
        2
176
     1
 90
        1
176
     1
 90
        2
176
     1
 40
0.6
176
     1
 40
30.0
176
     1
 62
     7
420
 16777215
176
     1
 90
        1
176
     1
 90
       10
176
     1
 62
     7
176
     1
 62
   257
176
     1
 90
        2
176
     1
 90
        1
176
     1
 40
1.0
176
     1
 90
        8
176
     1
 62
   257
176
     1
 40
1.0
176
     1
 90
        1
176
     1
 90
        6
176
     1
 90
        2
176
     1
 62
     7
176
     1
 90
        3
176
     1
 90
        0
176
     1
 90
        0
176
     1
290
     0
176
     1
 90
        5
176
     1
 40
0.0
176
     1
 90
        0
176
     1
290
     0
176
     1
290
     1
176
     1
290
     1
176
     1
290
     0
176
     1
290
     0
176
     1
290
     0
176
     1
290
     0
176
     1
290
     0
176
     1
290
     0
176
     1
 90
       50
176
     1
 40
0.0
176
     1
 40
1.0
176
     1
 90
        0
176
     1
 62
    18
420
        0
176
     1
 90
       50
176
     1
 90
        3
176
     1
 62
     5
420
      255
176
     1
290
     0
176
     1
 90
       50
176
     1
 90
       50
176
     1
 90
       50
176
     1
290
     0
176
     1
 90
       50
176
     1
 62
   256
176
     0
 40
1.0
176
     0
 90
        2
176
     1
  1
strokes_ogs.tif
176
     1
290
     0
176
     1
 40
1.0
176
     1
 40
1.0
176
     1
1001
ACAD
1000
AcDbSavedByObjectVersion
1070
     0
  0
VISUALSTYLE
  5
4222
102
{ACAD_REACTORS
330
4211
102
}
330
4211
100
AcDbVisualStyle
  2

 70
    23
177
     3
291
     0
 70
    58
 90
        2
176
     1
 90
        2
176
     1
 90
        3
176
     1
 90
        0
176
     1
 40
0.6
176
     1
 40
30.0
176
     1
 62
     7
420
 16777215
176
     1
 90
        2
176
     1
 90
        2
176
     1
 62
     7
176
     1
 62
     7
176
     1
 90
        1
176
     1
 90
        1
176
     1
 40
40.0
176
     1
 90
        8
176
     1
 62
     7
176
     1
 40
1.0
176
     1
 90
        1
176
     1
 90
        6
176
     1
 90
        2
176
     1
 62
     7
176
     1
 90
        3
176
     1
 90
        0
176
     1
 90
        0
176
     1
290
     0
176
     1
 90
        1
176
     1
 40
0.0
176
     1
 90
        0
176
     1
290
     0
176
     1
290
     1
176
     1
290
     1
176
     1
290
     0
176
     1
290
     0
176
     1
290
     0
176
     1
290
     0
176
     1
290
     0
176
     1
290
     0
176
     1
 90
       50
176
     1
 40
0.0
176
     1
 40
1.0
176
     1
 90
        0
176
     1
 62
    18
420
        0
176
     1
 90
       50
176
     1
 90
        3
176
     1
 62
     5
420
      255
176
     1
290
     0
176
     1
 90
       50
176
     1
 90
       50
176
     1
 90
       50
176
     1
290
     0
176
     1
 90
       50
176
     1
 62
   256
176
     0
 40
1.0
176
     0
 90
        2
176
     1
  1
strokes_ogs.tif
176
     1
290
     0
176
     1
 40
1.0
176
     1
 40
1.0
176
     1
1001
ACAD
1000
AcDbSavedByObjectVersion
1070
     0
  0
VISUALSTYLE
  5
4223
102
{ACAD_REACTORS
330
4211
102
}
330
4211
100
AcDbVisualStyle
  2

 70
    24
177
     3
291
     0
 70
    58
 90
        1
176
     1
 90
        2
176
     1
 90
        2
176
     1
 90
        0
176
     1
 40
0.6
176
     1
 40
30.0
176
     1
 62
     7
420
 16777215
176
     1
 90
        2
176
     1
 90
        2
176
     1
 62
     7
176
     1
 62
     7
176
     1
 90
        1
176
     1
 90
        1
176
     1
 40
40.0
176
     1
 90
       11
176
     1
 62
     7
176
     1
 40
1.0
176
     1
 90
        1
176
     1
 90
        6
176
     1
 90
        2
176
     1
 62
     7
176
     1
 90
        6
176
     1
 90
        0
176
     1
 90
        0
176
     1
290
     0
176
     1
 90
        1
176
     1
 40
0.0
176
     1
 90
        0
176
     1
290
     0
176
     1
290
     1
176
     1
290
     1
176
     1
290
     0
176
     1
290
     0
176
     1
290
     0
176
     1
290
     0
176
     1
290
     0
176
     1
290
     0
176
     1
 90
       50
176
     1
 40
0.0
176
     1
 40
1.0
176
     1
 90
        0
176
     1
 62
    18
420
        0
176
     1
 90
       50
176
     1
 90
        3
176
     1
 62
     5
420
      255
176
     1
290
     0
176
     1
 90
       50
176
     1
 90
       50
176
     1
 90
       50
176
     1
290
     0
176
     1
 90
       50
176
     1
 62
   256
176
     0
 40
1.0
176
     0
 90
        2
176
     1
  1
strokes_ogs.tif
176
     1
290
     0
176
     1
 40
1.0
176
     1
 40
1.0
176
     1
1001
ACAD
1000
AcDbSavedByObjectVersion
1070
     0
  0
VISUALSTYLE
  5
421E
102
{ACAD_REACTORS
330
4211
102
}
330
4211
100
AcDbVisualStyle
  2

 70
    13
177
     3
291
     1
 70
    58
 90
        2
176
     1
 90
        2
176
     1
 90
        0
176
     1
 90
        0
176
     1
 40
0.6
176
     1
 40
30.0
176
     1
 62
     7
420
 16777215
176
     1
 90
        1
176
     1
 90
        4
176
     1
 62
     7
176
     1
 62
   257
176
     1
 90
        1
176
     1
 90
        1
176
     1
 40
1.0
176
     1
 90
       12
176
     1
 62
     7
176
     1
 40
1.0
176
     1
 90
        1
176
     1
 90
        6
176
     1
 90
        2
176
     1
 62
     7
176
     1
 90
        5
176
     1
 90
        0
176
     1
 90
        0
176
     1
290
     0
176
     1
 90
        1
176
     1
 40
0.0
176
     1
 90
        0
176
     1
290
     0
176
     1
290
     1
176
     1
290
     1
176
     1
290
     0
176
     1
290
     0
176
     1
290
     0
176
     1
290
     0
176
     1
290
     0
176
     1
290
     0
176
     1
 90
       50
176
     1
 40
0.0
176
     1
 40
1.0
176
     1
 90
        0
176
     1
 62
    18
420
        0
176
     1
 90
       50
176
     1
 90
        3
176
     1
 62
     5
420
      255
176
     1
290
     0
176
     1
 90
       50
176
     1
 90
       50
176
     1
 90
       50
176
     1
290
     0
176
     1
 90
       50
176
     1
 62
   256
176
     0
 40
1.0
176
     0
 90
        2
176
     1
  1
strokes_ogs.tif
176
     1
290
     0
176
     1
 40
1.0
176
     1
 40
1.0
176
     1
1001
ACAD
1000
AcDbSavedByObjectVersion
1070
     0
  0
VISUALSTYLE
  5
4218
102
{ACAD_REACTORS
330
4211
102
}
330
4211
100
AcDbVisualStyle
  2

 70
     5
177
     3
291
     0
 70
    58
 90
        0
176
     1
 90
        2
176
     1
 90
        0
176
     1
 90
        0
176
     1
 40
0.6
176
     1
 40
30.0
176
     1
 62
     7
420
 16777215
176
     1
 90
        1
176
     1
 90
        4
176
     1
 62
     7
176
     1
 62
   257
176
     1
 90
        1
176
     1
 90
        1
176
     1
 40
1.0
176
     1
 90
        0
176
     1
 62
   257
176
     1
 40
1.0
176
     1
 90
        1
176
     1
 90
        6
176
     1
 90
        2
176
     1
 62
     7
176
     1
 90
        3
176
     1
 90
        0
176
     1
 90
        0
176
     1
290
     0
176
     1
 90
        1
176
     1
 40
0.0
176
     1
 90
        0
176
     1
290
     0
176
     1
290
     1
176
     1
290
     1
176
     1
290
     0
176
     1
290
     0
176
     1
290
     0
176
     1
290
     0
176
     1
290
     0
176
     1
290
     0
176
     1
 90
       50
176
     1
 40
0.0
176
     1
 40
1.0
176
     1
 90
        0
176
     1
 62
    18
420
        0
176
     1
 90
       50
176
     1
 90
        3
176
     1
 62
     5
420
      255
176
     1
290
     0
176
     1
 90
       50
176
     1
 90
       50
176
     1
 90
       50
176
     1
290
     0
176
     1
 90
       50
176
     1
 62
   256
176
     0
 40
1.0
176
     0
 90
        2
176
     1
  1
strokes_ogs.tif
176
     1
290
     0
176
     1
 40
1.0
176
     1
 40
1.0
176
     1
1001
ACAD
1000
AcDbSavedByObjectVersion
1070
     0
  0
VISUALSTYLE
  5
4224
102
{ACAD_REACTORS
330
4211
102
}
330
4211
100
AcDbVisualStyle
  2

 70
    25
177
     3
291
     0
 70
    58
 90
        2
176
     1
 90
        2
176
     1
 90
        1
176
     1
 90
        1
176
     1
 40
0.5
176
     1
 40
30.0
176
     1
 62
     7
420
 16777215
176
     1
 90
        1
176
     1
 90
        0
176
     1
 62
     7
176
     1
 62
   257
176
     1
 90
        1
176
     1
 90
        1
176
     1
 40
1.0
176
     1
 90
        8
176
     1
 62
     7
176
     1
 40
1.0
176
     1
 90
        1
176
     1
 90
        6
176
     1
 90
        2
176
     1
 62
     7
176
     1
 90
        3
176
     1
 90
        0
176
     1
 90
        0
176
     1
290
     0
176
     1
 90
       13
176
     1
 40
0.0
176
     1
 90
        0
176
     1
290
     0
176
     1
290
     1
176
     1
290
     1
176
     1
290
     0
176
     1
290
     0
176
     1
290
     0
176
     1
290
     0
176
     1
290
     0
176
     1
290
     0
176
     1
 90
       50
176
     1
 40
0.0
176
     1
 40
1.0
176
     1
 90
        0
176
     1
 62
    18
420
        0
176
     1
 90
       50
176
     1
 90
        3
176
     1
 62
     5
420
      255
176
     1
290
     0
176
     1
 90
       50
176
     1
 90
       50
176
     1
 90
       50
176
     1
290
     0
176
     1
 90
       50
176
     1
 62
   256
176
     0
 40
1.0
176
     0
 90
        2
176
     1
  1
strokes_ogs.tif
176
     1
290
     0
176
     1
 40
1.0
176
     1
 40
1.0
176
     1
1001
ACAD
1000
AcDbSavedByObjectVersion
1070
     0
  0
DICTIONARYVAR
  5
4289
102
{ACAD_REACTORS
330
7B
102
}
330
7B
100
DictionaryVariables
280
     0
  1
1:1
  0
DICTIONARYVAR
  5
4288
102
{ACAD_REACTORS
330
7B
102
}
330
7B
100
DictionaryVariables
280
     0
  1
STANDARD
  0
DICTIONARYVAR
  5
AFB
102
{ACAD_REACTORS
330
7B
102
}
330
7B
100
DictionaryVariables
280
     0
  1
STANDARD
  0
DICTIONARYVAR
  5
52BC
102
{ACAD_REACTORS
330
7B
102
}
330
7B
100
DictionaryVariables
280
     0
  1
Imperial24
  0
DICTIONARYVAR
  5
52BD
102
{ACAD_REACTORS
330
7B
102
}
330
7B
100
DictionaryVariables
280
     0
  1
Imperial24
  0
DICTIONARYVAR
  5
AFC
102
{ACAD_REACTORS
330
7B
102
}
330
7B
100
DictionaryVariables
280
     0
  1
1
  0
DICTIONARYVAR
  5
52C0
102
{ACAD_REACTORS
330
7B
102
}
330
7B
100
DictionaryVariables
280
     0
  1
1
  0
DICTIONARYVAR
  5
52C1
102
{ACAD_REACTORS
330
7B
102
}
330
7B
100
DictionaryVariables
280
     0
  1
15
  0
DICTIONARYVAR
  5
52BF
102
{ACAD_REACTORS
330
7B
102
}
330
7B
100
DictionaryVariables
280
     0
  1
0
  0
DICTIONARYVAR
  5
52BE
102
{ACAD_REACTORS
330
7B
102
}
330
7B
100
DictionaryVariables
280
     0
  1
0
  0
DICTIONARYVAR
  5
AFD
102
{ACAD_REACTORS
330
7B
102
}
330
7B
100
DictionaryVariables
280
     0
  1

  0
DICTIONARYVAR
  5
7C
102
{ACAD_REACTORS
330
7B
102
}
330
7B
100
DictionaryVariables
280
     0
  1
96
  0
XRECORD
  5
BE3
102
{ACAD_REACTORS
330
BE2
102
}
330
BE2
100
AcDbXrecord
280
     1
  0
DICTIONARY
  5
52C5
330
5265
100
AcDbDictionary
280
     1
281
     1
  3
ACAD_XREC_ROUNDTRIP
360
52C6
  0
DICTIONARY
  5
51E5
330
22
100
AcDbDictionary
280
     1
281
     1
  0
DICTIONARY
  5
4202
330
4201
100
AcDbDictionary
280
     1
281
     1
  3
ACAD_XREC_ROUNDTRIP
360
522C
  3
BUMPTILE
360
4204
  3
DIFFUSETILE
360
4203
  3
OPACITYTILE
360
4207
  3
REFLECTIONTILE
360
4206
  3
REFRACTIONTILE
360
4208
  3
SPECULARTILE
360
4205
  0
DICTIONARY
  5
41FA
330
41F9
100
AcDbDictionary
280
     1
281
     1
  3
ACAD_XREC_ROUNDTRIP
360
522B
  3
BUMPTILE
360
41FC
  3
DIFFUSETILE
360
41FB
  3
OPACITYTILE
360
41FF
  3
REFLECTIONTILE
360
41FE
  3
REFRACTIONTILE
360
4200
  3
SPECULARTILE
360
41FD
  0
DICTIONARY
  5
420A
330
4209
100
AcDbDictionary
280
     1
281
     1
  3
ACAD_XREC_ROUNDTRIP
360
522D
  3
BUMPTILE
360
420C
  3
DIFFUSETILE
360
420B
  3
OPACITYTILE
360
420F
  3
REFLECTIONTILE
360
420E
  3
REFRACTIONTILE
360
4210
  3
SPECULARTILE
360
420D
  0
DICTIONARY
  5
52C3
330
5263
100
AcDbDictionary
280
     1
281
     1
  3
ACAD_XREC_ROUNDTRIP
360
52C4
  0
DICTIONARY
  5
424A
330
972
100
AcDbDictionary
280
     1
281
     1
  3
ACAD_ROUNDTRIP_2008_TABLESTYLE_CELLSTYLEMAP
360
52C2
  0
XRECORD
  5
52C6
102
{ACAD_REACTORS
330
52C5
102
}
330
52C5
100
AcDbXrecord
280
     1
102
DISPLAYNAME
  1
Imperial24
102
FLAGS
 90
        0
  0
XRECORD
  5
522C
102
{ACAD_REACTORS
330
4202
102
}
330
4202
100
AcDbXrecord
280
     1
102
MATERIAL
148
0.0
149
0.0
149
0.0
 93
        0
 94
      127
282
     0
 72
     0
 77
     0
171
     0
175
     0
179
     0
273
     0
  0
XRECORD
  5
4204
102
{ACAD_REACTORS
330
4202
102
}
330
4202
100
AcDbXrecord
280
     1
270
     1
271
     1
  0
XRECORD
  5
4203
102
{ACAD_REACTORS
330
4202
102
}
330
4202
100
AcDbXrecord
280
     1
270
     1
271
     1
  0
XRECORD
  5
4207
102
{ACAD_REACTORS
330
4202
102
}
330
4202
100
AcDbXrecord
280
     1
270
     1
271
     1
  0
XRECORD
  5
4206
102
{ACAD_REACTORS
330
4202
102
}
330
4202
100
AcDbXrecord
280
     1
270
     1
271
     1
  0
XRECORD
  5
4208
102
{ACAD_REACTORS
330
4202
102
}
330
4202
100
AcDbXrecord
280
     1
270
     1
271
     1
  0
XRECORD
  5
4205
102
{ACAD_REACTORS
330
4202
102
}
330
4202
100
AcDbXrecord
280
     1
270
     1
271
     1
  0
XRECORD
  5
522B
102
{ACAD_REACTORS
330
41FA
102
}
330
41FA
100
AcDbXrecord
280
     1
102
MATERIAL
148
0.0
149
0.0
149
0.0
 93
        0
 94
      127
282
     0
 72
     0
 77
     0
171
     0
175
     0
179
     0
273
     0
  0
XRECORD
  5
41FC
102
{ACAD_REACTORS
330
41FA
102
}
330
41FA
100
AcDbXrecord
280
     1
270
     1
271
     1
  0
XRECORD
  5
41FB
102
{ACAD_REACTORS
330
41FA
102
}
330
41FA
100
AcDbXrecord
280
     1
270
     1
271
     1
  0
XRECORD
  5
41FF
102
{ACAD_REACTORS
330
41FA
102
}
330
41FA
100
AcDbXrecord
280
     1
270
     1
271
     1
  0
XRECORD
  5
41FE
102
{ACAD_REACTORS
330
41FA
102
}
330
41FA
100
AcDbXrecord
280
     1
270
     1
271
     1
  0
XRECORD
  5
4200
102
{ACAD_REACTORS
330
41FA
102
}
330
41FA
100
AcDbXrecord
280
     1
270
     1
271
     1
  0
XRECORD
  5
41FD
102
{ACAD_REACTORS
330
41FA
102
}
330
41FA
100
AcDbXrecord
280
     1
270
     1
271
     1
  0
XRECORD
  5
522D
102
{ACAD_REACTORS
330
420A
102
}
330
420A
100
AcDbXrecord
280
     1
102
MATERIAL
148
0.0
149
0.0
149
0.0
 93
        0
 94
      127
282
     0
 72
     0
 77
     0
171
     0
175
     0
179
     0
273
     0
  0
XRECORD
  5
420C
102
{ACAD_REACTORS
330
420A
102
}
330
420A
100
AcDbXrecord
280
     1
270
     1
271
     1
  0
XRECORD
  5
420B
102
{ACAD_REACTORS
330
420A
102
}
330
420A
100
AcDbXrecord
280
     1
270
     1
271
     1
  0
XRECORD
  5
420F
102
{ACAD_REACTORS
330
420A
102
}
330
420A
100
AcDbXrecord
280
     1
270
     1
271
     1
  0
XRECORD
  5
420E
102
{ACAD_REACTORS
330
420A
102
}
330
420A
100
AcDbXrecord
280
     1
270
     1
271
     1
  0
XRECORD
  5
4210
102
{ACAD_REACTORS
330
420A
102
}
330
420A
100
AcDbXrecord
280
     1
270
     1
271
     1
  0
XRECORD
  5
420D
102
{ACAD_REACTORS
330
420A
102
}
330
420A
100
AcDbXrecord
280
     1
270
     1
271
     1
  0
XRECORD
  5
52C4
102
{ACAD_REACTORS
330
52C3
102
}
330
52C3
100
AcDbXrecord
280
     1
102
DISPLAYNAME
  1
Imperial24
102
FLAGS
 90
        0
  0
CELLSTYLEMAP
  5
52C2
102
{ACAD_REACTORS
330
424A
102
}
330
424A
100
AcDbCellStyleMap
 90
        3
300
CELLSTYLE
  1
TABLEFORMAT_BEGIN
 90
        5
170
     1
 91
        0
 92
    32768
 62
   257
 93
        1
300
CONTENTFORMAT
  1
CONTENTFORMAT_BEGIN
 90
        0
 91
        0
 92
        4
 93
        0
300

 40
0.0
140
1.0
 94
        5
 62
     0
340
11
144
0.25
309
CONTENTFORMAT_END
171
     1
301
MARGIN
  1
CELLMARGIN_BEGIN
 40
0.06
 40
0.06
 40
0.06
 40
0.06
 40
0.18
 40
0.18
309
CELLMARGIN_END
 94
        6
 95
        1
302
GRIDFORMAT
  1
GRIDFORMAT_BEGIN
 90
        0
 91
        1
 62
     0
 92
       -2
340
0
 93
        0
 40
0.045
309
GRIDFORMAT_END
 95
        2
302
GRIDFORMAT
  1
GRIDFORMAT_BEGIN
 90
        0
 91
        1
 62
     0
 92
       -2
340
0
 93
        0
 40
0.045
309
GRIDFORMAT_END
 95
        4
302
GRIDFORMAT
  1
GRIDFORMAT_BEGIN
 90
        0
 91
        1
 62
     0
 92
       -2
340
0
 93
        0
 40
0.045
309
GRIDFORMAT_END
 95
        8
302
GRIDFORMAT
  1
GRIDFORMAT_BEGIN
 90
        0
 91
        1
 62
     0
 92
       -2
340
0
 93
        0
 40
0.045
309
GRIDFORMAT_END
 95
       16
302
GRIDFORMAT
  1
GRIDFORMAT_BEGIN
 90
        0
 91
        1
 62
     0
 92
       -2
340
0
 93
        0
 40
0.045
309
GRIDFORMAT_END
 95
       32
302
GRIDFORMAT
  1
GRIDFORMAT_BEGIN
 90
        0
 91
        1
 62
     0
 92
       -2
340
0
 93
        0
 40
0.045
309
GRIDFORMAT_END
309
TABLEFORMAT_END
  1
CELLSTYLE_BEGIN
 90
        1
 91
        1
300
_TITLE
309
CELLSTYLE_END
300
CELLSTYLE
  1
TABLEFORMAT_BEGIN
 90
        5
170
     1
 91
        0
 92
        0
 62
   257
 93
        1
300
CONTENTFORMAT
  1
CONTENTFORMAT_BEGIN
 90
        0
 91
        0
 92
        4
 93
        0
300

 40
0.0
140
1.0
 94
        5
 62
     0
340
11
144
0.18
309
CONTENTFORMAT_END
171
     1
301
MARGIN
  1
CELLMARGIN_BEGIN
 40
0.06
 40
0.06
 40
0.06
 40
0.06
 40
0.18
 40
0.18
309
CELLMARGIN_END
 94
        6
 95
        1
302
GRIDFORMAT
  1
GRIDFORMAT_BEGIN
 90
        0
 91
        1
 62
     0
 92
       -2
340
0
 93
        0
 40
0.045
309
GRIDFORMAT_END
 95
        2
302
GRIDFORMAT
  1
GRIDFORMAT_BEGIN
 90
        0
 91
        1
 62
     0
 92
       -2
340
0
 93
        0
 40
0.045
309
GRIDFORMAT_END
 95
        4
302
GRIDFORMAT
  1
GRIDFORMAT_BEGIN
 90
        0
 91
        1
 62
     0
 92
       -2
340
0
 93
        0
 40
0.045
309
GRIDFORMAT_END
 95
        8
302
GRIDFORMAT
  1
GRIDFORMAT_BEGIN
 90
        0
 91
        1
 62
     0
 92
       -2
340
0
 93
        0
 40
0.045
309
GRIDFORMAT_END
 95
       16
302
GRIDFORMAT
  1
GRIDFORMAT_BEGIN
 90
        0
 91
        1
 62
     0
 92
       -2
340
0
 93
        0
 40
0.045
309
GRIDFORMAT_END
 95
       32
302
GRIDFORMAT
  1
GRIDFORMAT_BEGIN
 90
        0
 91
        1
 62
     0
 92
       -2
340
0
 93
        0
 40
0.045
309
GRIDFORMAT_END
309
TABLEFORMAT_END
  1
CELLSTYLE_BEGIN
 90
        2
 91
        1
300
_HEADER
309
CELLSTYLE_END
300
CELLSTYLE
  1
TABLEFORMAT_BEGIN
 90
        5
170
     1
 91
        0
 92
        0
 62
   257
 93
        1
300
CONTENTFORMAT
  1
CONTENTFORMAT_BEGIN
 90
        0
 91
        0
 92
        4
 93
        0
300

 40
0.0
140
1.0
 94
        2
 62
     0
340
11
144
0.18
309
CONTENTFORMAT_END
171
     1
301
MARGIN
  1
CELLMARGIN_BEGIN
 40
0.06
 40
0.06
 40
0.06
 40
0.06
 40
0.18
 40
0.18
309
CELLMARGIN_END
 94
        6
 95
        1
302
GRIDFORMAT
  1
GRIDFORMAT_BEGIN
 90
        0
 91
        1
 62
     0
 92
       -2
340
0
 93
        0
 40
0.045
309
GRIDFORMAT_END
 95
        2
302
GRIDFORMAT
  1
GRIDFORMAT_BEGIN
 90
        0
 91
        1
 62
     0
 92
       -2
340
0
 93
        0
 40
0.045
309
GRIDFORMAT_END
 95
        4
302
GRIDFORMAT
  1
GRIDFORMAT_BEGIN
 90
        0
 91
        1
 62
     0
 92
       -2
340
0
 93
        0
 40
0.045
309
GRIDFORMAT_END
 95
        8
302
GRIDFORMAT
  1
GRIDFORMAT_BEGIN
 90
        0
 91
        1
 62
     0
 92
       -2
340
0
 93
        0
 40
0.045
309
GRIDFORMAT_END
 95
       16
302
GRIDFORMAT
  1
GRIDFORMAT_BEGIN
 90
        0
 91
        1
 62
     0
 92
       -2
340
0
 93
        0
 40
0.045
309
GRIDFORMAT_END
 95
       32
302
GRIDFORMAT
  1
GRIDFORMAT_BEGIN
 90
        0
 91
        1
 62
     0
 92
       -2
340
0
 93
        0
 40
0.045
309
GRIDFORMAT_END
309
TABLEFORMAT_END
  1
CELLSTYLE_BEGIN
 90
        3
 91
        2
300
_DATA
309
CELLSTYLE_END
  0
ENDSEC
  0
SECTION
  2
ACDSDATA
 70
     2
 71
     8
  0
ACDSSCHEMA
 90
        0
  1
AcDb_Thumbnail_Schema
  2
AcDbDs::ID
280
    10
 91
        8
  2
Thumbnail_Data
280
    15
 91
        0
101
ACDSRECORD
 95
        0
 90
        1
  2
AcDbDs::TreatedAsObjectData
280
     1
291
     1
101
ACDSRECORD
 95
        0
 90
        2
  2
AcDbDs::Legacy
280
     1
291
     1
101
ACDSRECORD
  1
AcDbDs::ID
 90
        3
  2
AcDs:Indexable
280
     1
291
     1
101
ACDSRECORD
  1
AcDbDs::ID
 90
        4
  2
AcDbDs::HandleAttribute
280
     7
282
     1
  0
ACDSSCHEMA
 90
        1
  1
AcDbDs::TreatedAsObjectDataSchema
  2
AcDbDs::TreatedAsObjectData
280
     1
 91
        0
  0
ACDSSCHEMA
 90
        2
  1
AcDbDs::LegacySchema
  2
AcDbDs::Legacy
280
     1
 91
        0
  0
ACDSSCHEMA
 90
        3
  1
AcDbDs::IndexedPropertySchema
  2
AcDs:Indexable
280
     1
 91
        0
  0
ACDSSCHEMA
 90
        4
  1
AcDbDs::HandleAttributeSchema
  2
AcDbDs::HandleAttribute
280
     7
 91
        1
284
     1
  0
ACDSRECORD
 90
        0
  2
AcDbDs::ID
280
    10
320
22
  2
Thumbnail_Data
280
    15
 94
     1737
310
89504E470D0A1A0A0000000D494844520000010000000076080300000010A0BD3C00000300504C5445212830000000C8C8C80000000000000000000000000000000000000000000000000000330000660000990000CC0000FF0033000033330033660033990033CC0033FF0066000066330066660066990066CC0066FF0099
310
000099330099660099990099CC0099FF00CC0000CC3300CC6600CC9900CCCC00CCFF00FF0000FF3300FF6600FF9900FFCC00FFFF3300003300333300663300993300CC3300FF3333003333333333663333993333CC3333FF3366003366333366663366993366CC3366FF3399003399333399663399993399CC3399FF33CC00
310
33CC3333CC6633CC9933CCCC33CCFF33FF0033FF3333FF6633FF9933FFCC33FFFF6600006600336600666600996600CC6600FF6633006633336633666633996633CC6633FF6666006666336666666666996666CC6666FF6699006699336699666699996699CC6699FF66CC0066CC3366CC6666CC9966CCCC66CCFF66FF0066
310
FF3366FF6666FF9966FFCC66FFFF9900009900339900669900999900CC9900FF9933009933339933669933999933CC9933FF9966009966339966669966999966CC9966FF9999009999339999669999999999CC9999FF99CC0099CC3399CC6699CC9999CCCC99CCFF99FF0099FF3399FF6699FF9999FFCC99FFFFCC0000CC00
310
33CC0066CC0099CC00CCCC00FFCC3300CC3333CC3366CC3399CC33CCCC33FFCC6600CC6633CC6666CC6699CC66CCCC66FFCC9900CC9933CC9966CC9999CC99CCCC99FFCCCC00CCCC33CCCC66CCCC99CCCCCCCCCCFFCCFF00CCFF33CCFF66CCFF99CCFFCCCCFFFFFF0000FF0033FF0066FF0099FF00CCFF00FFFF3300FF3333
310
FF3366FF3399FF33CCFF33FFFF6600FF6633FF6666FF6699FF66CCFF66FFFF9900FF9933FF9966FF9999FF99CCFF99FFFFCC00FFCC33FFCC66FFCC99FFCCCCFFCCFFFFFF00FFFF33FFFF66FFFF99FFFFCCFFFFFF0000000D0D0D1A1A1A2828283535354343435050505D5D5D6B6B6B787878868686939393A1A1A1AEAEAEBB
310
BBBBC9C9C9D6D6D6E4E4E4F1F1F1FFFFFF000000000000000000000000000000000000000000000000000000000000B21171F6000003844944415478DAED9DD19A8420084679FFF7E57E2FB61C51544C3443BADA2DE6AB4E80887F33005B6DB86A834D3734761E07F0E0C296F8FFD6006C9CC4013880B7AEAD3DC81904D037
310
E45B04107D8ADE33820D008D2A0E33CB74643502A054C4A4F79BEC8004C0DEA530B6EA3714D47858ABFC1CC06793A003381E80602ECFDB1801F09FD105335D0407E000CC01A0C5601AE5579F23697B8464601E005E05606643397C18406392579D0DDA00900111DE3F3880334200EEBB4DF698C901C4091080CD01990D3F85
310
B608E0DE81D43A58D903D069E3001C80037000270340F7001300040217D6C64A2538FB245BE8935E05B0EE213B804A0CBFA70FD8429F34B06C270FB70A80D793DCC04584FEE7EFBECF01D0EE13AE01302ECF992491C1991E50AF3856850056CF361780A63E691C40A2255901A0E7D0740084FD8100C2B3BF435F07805865CF
310
26E29E34390EE0BA88BBE4500150588F1400C8CF3D17405822BCFE0CE59D4208886AB43680B921703FA61B8226009078006C0200660010E6007C1900CCF2004912C4F701DC8B8487020819007487C12F01083A116500A24280B3590B804E0CF500901936A74F8A35E988713A5C0D201E8B1501D0BE51DEC54AB409D7CEC500
310
CAFDA731008FF54980D204AC00A03A211595A30FE53950CC0C4B01D4AAB1D18E501BC0061EA0D0971B0C81E8D37895A2680400F182F22890D84443D164005ABD7931803E1B07301F40A61164D8C4D7620F00C42118271E4C0B23DA28B209A0101DD41F6CE680DA21E2179D85D09700B02B42487BC56076146000E48B64FFFE
310
EFC3603700C1D2006383BDFAA401005CDAE39E199A5B1E7700B1B28699B3E495BB317D805A0E78AE4F6207585CE8019DBCCA3AC181272F13284900BCA5D41AD127F5EC44C5A799F567E83FEC0175001AFAA41100200250134FEB0018D2270D24343DBDEE9BFAA42D3605008FF54936000CE8934C00C842FF4400105E562F01
310
F8EC7718C93D20EEBBB1E3A35D002000603A042E59CAB900D00160C4E1640007174270702114068283E7028FF549DF0730A84FFA38804AE7A9F77D814F02D8EE240E60DDB51DFFD5FE0E00CA77455F3242A321500590D4053601402AC5481765F1F7120F5A4E82E563F4BB2E01AD790030F51E05902EDF5BF58074DD05E9EC
310
2099251B03D0D0E8DD48D00B21A300321A2435C42E703A009B75404B9F8454A9E939C0641D20E6E5BF7467EBB70ECB9A24D6C82000100010E893F60070E6EF9DFE01D5D137757F34ABA30000000049454E44AE426082
  0
ENDSEC
  0
EOF
