  0
SECTION
  2
HEADER
  9
$ACADVER
  1
AC1015
  9
$ACADMAINTVER
 70
     6
  9
$DWGCODEPAGE
  3
ANSI_1252
  9
$INSBASE
 10
0.0
 20
0.0
 30
0.0
  9
$EXTMIN
 10
0.0
 20
0.0
 30
0.0
  9
$EXTMAX
 10
2100.0
 20
2970.0
 30
0.0
  9
$LIMMIN
 10
0.0
 20
0.0
  9
$LIMMAX
 10
2100.0
 20
2970.0
  9
$ORTHOMODE
 70
     0
  9
$REGENMODE
 70
     1
  9
$FILLMODE
 70
     1
  9
$QTEXTMODE
 70
     0
  9
$MIRRTEXT
 70
     1
  9
$LTSCALE
 40
10.0
  9
$ATTMODE
 70
     1
  9
$TEXTSIZE
 40
35.0
  9
$TRACEWID
 40
1.0
  9
$TEXTSTYLE
  7
Standard
  9
$CLAYER
  8
0
  9
$CELTYPE
  6
ByLayer
  9
$CECOLOR
 62
   256
  9
$CELTSCALE
 40
1.0
  9
$DISPSILH
 70
     0
  9
$DIMSCALE
 40
1.0
  9
$DIMASZ
 40
25.0
  9
$DIMEXO
 40
5.0
  9
$DIMDLI
 40
3.75
  9
$DIMRND
 40
0.0
  9
$DIMDLE
 40
0.0
  9
$DIMEXE
 40
10.0
  9
$DIMTP
 40
0.0
  9
$DIMTM
 40
0.0
  9
$DIMTXT
 40
35.0
  9
$DIMCEN
 40
2.5
  9
$DIMTSZ
 40
0.0
  9
$DIMTOL
 70
     0
  9
$DIMLIM
 70
     0
  9
$DIMTIH
 70
     1
  9
$DIMTOH
 70
     1
  9
$DIMSE1
 70
     0
  9
$DIMSE2
 70
     0
  9
$DIMTAD
 70
     1
  9
$DIMZIN
 70
     0
  9
$DIMBLK
  1

  9
$DIMASO
 70
     1
  9
$DIMSHO
 70
     1
  9
$DIMPOST
  1

  9
$DIMAPOST
  1

  9
$DIMALT
 70
     0
  9
$DIMALTD
 70
     3
  9
$DIMALTF
 40
0.0393700787
  9
$DIMLFAC
 40
1.0
  9
$DIMTOFL
 70
     1
  9
$DIMTVP
 40
0.0
  9
$DIMTIX
 70
     0
  9
$DIMSOXD
 70
     0
  9
$DIMSAH
 70
     0
  9
$DIMBLK1
  1

  9
$DIMBLK2
  1

  9
$DIMSTYLE
  2
ISO-25
  9
$DIMCLRD
 70
     0
  9
$DIMCLRE
 70
     0
  9
$DIMCLRT
 70
     0
  9
$DIMTFAC
 40
1.0
  9
$DIMGAP
 40
15.24
  9
$DIMJUST
 70
     0
  9
$DIMSD1
 70
     0
  9
$DIMSD2
 70
     0
  9
$DIMTOLJ
 70
     0
  9
$DIMTZIN
 70
     0
  9
$DIMALTZ
 70
     0
  9
$DIMALTTZ
 70
     0
  9
$DIMUPT
 70
     0
  9
$DIMDEC
 70
     2
  9
$DIMTDEC
 70
     2
  9
$DIMALTU
 70
     2
  9
$DIMALTTD
 70
     3
  9
$DIMTXSTY
  7
Standard
  9
$DIMAUNIT
 70
     0
  9
$DIMADEC
 70
     2
  9
$DIMALTRND
 40
0.0
  9
$DIMAZIN
 70
     0
  9
$DIMDSEP
 70
    44
  9
$DIMATFIT
 70
     3
  9
$DIMFRAC
 70
     0
  9
$DIMLDRBLK
  1

  9
$DIMLUNIT
 70
     2
  9
$DIMLWD
 70
    -2
  9
$DIMLWE
 70
    -2
  9
$DIMTMOVE
 70
     0
  9
$LUNITS
 70
     2
  9
$LUPREC
 70
     2
  9
$SKETCHINC
 40
1.0
  9
$FILLETRAD
 40
10.0
  9
$AUNITS
 70
     0
  9
$AUPREC
 70
     2
  9
$MENU
  1
.
  9
$ELEVATION
 40
0.0
  9
$PELEVATION
 40
0.0
  9
$THICKNESS
 40
0.0
  9
$LIMCHECK
 70
     0
  9
$CHAMFERA
 40
10.0
  9
$CHAMFERB
 40
10.0
  9
$CHAMFERC
 40
20.0
  9
$CHAMFERD
 40
0.0
  9
$SKPOLY
 70
     0
  9
$TDCREATE
 40
2457196.622248796
  9
$TDUCREATE
 40
2457196.538915463
  9
$TDUPDATE
 40
2457196.622250775
  9
$TDUUPDATE
 40
2457196.538917442
  9
$TDINDWG
 40
0.0000000116
  9
$TDUSRTIMER
 40
0.0000000116
  9
$USRTIMER
 70
     1
  9
$ANGBASE
 50
0.0
  9
$ANGDIR
 70
     0
  9
$PDMODE
 70
     0
  9
$PDSIZE
 40
-1.0
  9
$PLINEWID
 40
0.0
  9
$SPLFRAME
 70
     0
  9
$SPLINETYPE
 70
     6
  9
$SPLINESEGS
 70
     8
  9
$HANDSEED
  5
20A
  9
$SURFTAB1
 70
     6
  9
$SURFTAB2
 70
     6
  9
$SURFTYPE
 70
     6
  9
$SURFU
 70
     6
  9
$SURFV
 70
     6
  9
$UCSBASE
  2

  9
$UCSNAME
  2

  9
$UCSORG
 10
0.0
 20
0.0
 30
0.0
  9
$UCSXDIR
 10
1.0
 20
0.0
 30
0.0
  9
$UCSYDIR
 10
0.0
 20
1.0
 30
0.0
  9
$UCSORTHOREF
  2

  9
$UCSORTHOVIEW
 70
     0
  9
$UCSORGTOP
 10
0.0
 20
0.0
 30
0.0
  9
$UCSORGBOTTOM
 10
0.0
 20
0.0
 30
0.0
  9
$UCSORGLEFT
 10
0.0
 20
0.0
 30
0.0
  9
$UCSORGRIGHT
 10
0.0
 20
0.0
 30
0.0
  9
$UCSORGFRONT
 10
0.0
 20
0.0
 30
0.0
  9
$UCSORGBACK
 10
0.0
 20
0.0
 30
0.0
  9
$PUCSBASE
  2

  9
$PUCSNAME
  2

  9
$PUCSORG
 10
0.0
 20
0.0
 30
0.0
  9
$PUCSXDIR
 10
1.0
 20
0.0
 30
0.0
  9
$PUCSYDIR
 10
0.0
 20
1.0
 30
0.0
  9
$PUCSORTHOREF
  2

  9
$PUCSORTHOVIEW
 70
     0
  9
$PUCSORGTOP
 10
0.0
 20
0.0
 30
0.0
  9
$PUCSORGBOTTOM
 10
0.0
 20
0.0
 30
0.0
  9
$PUCSORGLEFT
 10
0.0
 20
0.0
 30
0.0
  9
$PUCSORGRIGHT
 10
0.0
 20
0.0
 30
0.0
  9
$PUCSORGFRONT
 10
0.0
 20
0.0
 30
0.0
  9
$PUCSORGBACK
 10
0.0
 20
0.0
 30
0.0
  9
$USERI1
 70
     0
  9
$USERI2
 70
     0
  9
$USERI3
 70
     0
  9
$USERI4
 70
     0
  9
$USERI5
 70
     0
  9
$USERR1
 40
0.0
  9
$USERR2
 40
0.0
  9
$USERR3
 40
0.0
  9
$USERR4
 40
0.0
  9
$USERR5
 40
0.0
  9
$WORLDVIEW
 70
     1
  9
$SHADEDGE
 70
     3
  9
$SHADEDIF
 70
    70
  9
$TILEMODE
 70
     1
  9
$MAXACTVP
 70
    64
  9
$PINSBASE
 10
0.0
 20
0.0
 30
0.0
  9
$PLIMCHECK
 70
     0
  9
$PEXTMIN
 10
1.0000000000E+20
 20
1.0000000000E+20
 30
1.0000000000E+20
  9
$PEXTMAX
 10
-1.0000000000E+20
 20
-1.0000000000E+20
 30
-1.0000000000E+20
  9
$PLIMMIN
 10
0.0
 20
0.0
  9
$PLIMMAX
 10
420.0
 20
297.0
  9
$UNITMODE
 70
     0
  9
$VISRETAIN
 70
     1
  9
$PLINEGEN
 70
     0
  9
$PSLTSCALE
 70
     1
  9
$TREEDEPTH
 70
  3020
  9
$CMLSTYLE
  2
Standard
  9
$CMLJUST
 70
     0
  9
$CMLSCALE
 40
20.0
  9
$PROXYGRAPHICS
 70
     1
  9
$MEASUREMENT
 70
     1
  9
$CELWEIGHT
370
    -1
  9
$ENDCAPS
280
     0
  9
$JOINSTYLE
280
     0
  9
$LWDISPLAY
290
     1
  9
$INSUNITS
 70
     4
  9
$HYPERLINKBASE
  1

  9
$STYLESHEET
  1

  9
$XEDIT
290
     1
  9
$CEPSNTYPE
380
     0
  9
$PSTYLEMODE
290
     1
  9
$FINGERPRINTGUID
  2
{97AC6428-0391-40AE-8D4A-2D47AEC3ACF2}
  9
$VERSIONGUID
  2
{FAEB1C32-E019-11D5-929B-00C0DF256EC4}
  9
$EXTNAMES
290
     1
  9
$PSVPSCALE
 40
0.0
  9
$OLESTARTUP
290
     0
  0
ENDSEC
  0
SECTION
  2
CLASSES
  0
CLASS
  1
ACDBDICTIONARYWDFLT
  2
AcDbDictionaryWithDefault
  3
ObjectDBX Classes
 90
        0
280
     0
281
     0
  0
CLASS
  1
VISUALSTYLE
  2
AcDbVisualStyle
  3
ObjectDBX Classes
 90
     4095
280
     0
281
     0
  0
CLASS
  1
MATERIAL
  2
AcDbMaterial
  3
ObjectDBX Classes
 90
     1153
280
     0
281
     0
  0
CLASS
  1
ACDBPLACEHOLDER
  2
AcDbPlaceHolder
  3
ObjectDBX Classes
 90
        0
280
     0
281
     0
  0
CLASS
  1
LAYOUT
  2
AcDbLayout
  3
ObjectDBX Classes
 90
        0
280
     0
281
     0
  0
ENDSEC
  0
SECTION
  2
TABLES
  0
TABLE
  2
VPORT
  5
8
330
0
100
AcDbSymbolTable
 70
     1
  0
VPORT
  5
29
330
8
100
AcDbSymbolTableRecord
100
AcDbViewportTableRecord
  2
*Active
 70
     0
 10
0.0
 20
0.0
 11
1.0
 21
1.0
 12
1050.0
 22
1485.0
 13
0.0
 23
0.0
 14
10.0
 24
10.0
 15
10.0
 25
10.0
 16
0.0
 26
0.0
 36
1.0
 17
0.0
 27
0.0
 37
0.0
 40
2970.0
 41
0.7070707071
 42
50.0
 43
0.0
 44
0.0
 50
0.0
 51
0.0
 71
     0
 72
  2000
 73
     1
 74
     3
 75
     0
 76
     0
 77
     0
 78
     0
281
     0
 65
     1
110
0.0
120
0.0
130
0.0
111
1.0
121
0.0
131
0.0
112
0.0
122
1.0
132
0.0
 79
     0
146
0.0
  0
ENDTAB
  0
TABLE
  2
LTYPE
  5
5
330
0
100
AcDbSymbolTable
 70
     6
  0
LTYPE
  5
14
330
5
100
AcDbSymbolTableRecord
100
AcDbLinetypeTableRecord
  2
ByBlock
 70
     0
  3

 72
    65
 73
     0
 40
0.0
  0
LTYPE
  5
15
330
5
100
AcDbSymbolTableRecord
100
AcDbLinetypeTableRecord
  2
ByLayer
 70
     0
  3

 72
    65
 73
     0
 40
0.0
  0
LTYPE
  5
16
330
5
100
AcDbSymbolTableRecord
100
AcDbLinetypeTableRecord
  2
Continuous
 70
     0
  3
Solid line
 72
    65
 73
     0
 40
0.0
  0
LTYPE
  5
3F
330
5
100
AcDbSymbolTableRecord
100
AcDbLinetypeTableRecord
  2
HIDDEN
 70
     0
  3
Hidden __ __ __ __ __ __ __ __ __ __ __ __ __ __
 72
    65
 73
     2
 40
1.905
 49
1.27
 74
     0
 49
-0.635
 74
     0
  0
LTYPE
  5
40
330
5
100
AcDbSymbolTableRecord
100
AcDbLinetypeTableRecord
  2
PHANTOM
 70
     0
  3
Phantom ______  __  __  ______  __  __  ______
 72
    65
 73
     6
 40
12.7
 49
6.35
 74
     0
 49
-1.27
 74
     0
 49
1.27
 74
     0
 49
-1.27
 74
     0
 49
1.27
 74
     0
 49
-1.27
 74
     0
  0
LTYPE
  5
41
330
5
100
AcDbSymbolTableRecord
100
AcDbLinetypeTableRecord
  2
CENTER
 70
     0
  3
Center ____ _ ____ _ ____ _ ____ _ ____ _ ____
 72
    65
 73
     4
 40
10.16
 49
6.35
 74
     0
 49
-1.27
 74
     0
 49
1.27
 74
     0
 49
-1.27
 74
     0
  0
LTYPE
  5
42
330
5
100
AcDbSymbolTableRecord
100
AcDbLinetypeTableRecord
  2
CENTERX2
 70
     0
  3
Center (2x) ________  __  ________  __  _____
 72
    65
 73
     4
 40
20.32
 49
12.7
 74
     0
 49
-2.54
 74
     0
 49
2.54
 74
     0
 49
-2.54
 74
     0
  0
LTYPE
  5
43
330
5
100
AcDbSymbolTableRecord
100
AcDbLinetypeTableRecord
  2
DOT2
 70
     0
  3
Dot (.5x) ........................................
 72
    65
 73
     2
 40
0.635
 49
0.0
 74
     0
 49
-0.635
 74
     0
  0
ENDTAB
  0
TABLE
  2
LAYER
  5
2
330
0
100
AcDbSymbolTable
 70
     1
  0
LAYER
  5
10
330
2
100
AcDbSymbolTableRecord
100
AcDbLayerTableRecord
  2
0
 70
     0
 62
     7
  6
Continuous
370
    -3
390
F
  0
ENDTAB
  0
TABLE
  2
STYLE
  5
3
330
0
100
AcDbSymbolTable
 70
     2
  0
STYLE
  5
11
330
3
100
AcDbSymbolTableRecord
100
AcDbTextStyleTableRecord
  2
Standard
 70
     0
 40
0.0
 41
1.0
 50
0.0
 71
     0
 42
35.0
  3
txt
  4

  0
STYLE
  5
73
330
3
100
AcDbSymbolTableRecord
100
AcDbTextStyleTableRecord
  2
SLDTEXTSTYLE0
 70
     0
 40
0.0
 41
0.605
 50
0.0
 71
     0
 42
0.2
  3
TXT
  4

  0
ENDTAB
  0
TABLE
  2
VIEW
  5
6
330
0
100
AcDbSymbolTable
 70
     0
  0
ENDTAB
  0
TABLE
  2
UCS
  5
7
330
0
100
AcDbSymbolTable
 70
     0
  0
ENDTAB
  0
TABLE
  2
APPID
  5
9
330
0
100
AcDbSymbolTable
 70
     1
  0
APPID
  5
12
330
9
100
AcDbSymbolTableRecord
100
AcDbRegAppTableRecord
  2
ACAD
 70
     0
  0
ENDTAB
  0
TABLE
  2
DIMSTYLE
  5
A
330
0
100
AcDbSymbolTable
 70
     3
100
AcDbDimStyleTable
  0
DIMSTYLE
105
27
330
A
100
AcDbSymbolTableRecord
100
AcDbDimStyleTableRecord
  2
ISO-25
 70
     0
 41
2.5
 42
0.625
 43
3.75
 44
1.25
 73
     0
 74
     0
 77
     1
 78
     8
140
2.5
141
2.5
143
0.0393700787
147
0.625
171
     3
172
     1
178
     0
271
     2
272
     2
274
     3
278
    44
283
     0
284
     8
340
11
  0
DIMSTYLE
105
D9
102
{ACAD_REACTORS
330
D8
330
11E
330
126
330
14D
330
155
330
15D
330
165
102
}
330
A
100
AcDbSymbolTableRecord
100
AcDbDimStyleTableRecord
  2
SLDDIMSTYLE0
 70
     0
 41
25.0
 44
0.0
 45
0.000000001
 73
     0
 74
     0
 77
     1
 78
    12
 79
     3
140
35.0
147
8.75
173
     1
178
     0
271
     2
272
     2
276
     2
284
    12
340
73
341
DA
343
DA
344
DA
  0
DIMSTYLE
105
116
102
{ACAD_REACTORS
330
115
102
}
330
A
100
AcDbSymbolTableRecord
100
AcDbDimStyleTableRecord
  2
SLDDIMSTYLE1
 70
     0
 41
25.0
 44
0.0
 45
0.000000001
 73
     0
 74
     0
 77
     1
 78
    12
 79
     3
140
35.0
147
8.75
173
     1
178
     0
271
     0
272
     2
276
     2
284
    12
340
73
341
DA
343
DA
344
DA
  0
ENDTAB
  0
TABLE
  2
BLOCK_RECORD
  5
1
330
0
100
AcDbSymbolTable
 70
    12
  0
BLOCK_RECORD
  5
1F
330
1
100
AcDbSymbolTableRecord
100
AcDbBlockTableRecord
  2
*Model_Space
340
22
  0
BLOCK_RECORD
  5
1B
330
1
100
AcDbSymbolTableRecord
100
AcDbBlockTableRecord
  2
*Paper_Space
340
1E
  0
BLOCK_RECORD
  5
23
330
1
100
AcDbSymbolTableRecord
100
AcDbBlockTableRecord
  2
*Paper_Space0
340
26
  0
BLOCK_RECORD
  5
77
330
1
100
AcDbSymbolTableRecord
100
AcDbBlockTableRecord
  2
SW_NOTE_0
340
0
102
{BLKREFS
331
7C
102
}
  0
BLOCK_RECORD
  5
8B
330
1
100
AcDbSymbolTableRecord
100
AcDbBlockTableRecord
  2
SW_NOTE_1
340
0
102
{BLKREFS
331
94
102
}
  0
BLOCK_RECORD
  5
DA
330
1
100
AcDbSymbolTableRecord
100
AcDbBlockTableRecord
  2
_NONE
340
0
  0
BLOCK_RECORD
  5
DD
330
1
100
AcDbSymbolTableRecord
100
AcDbBlockTableRecord
  2
_D
340
0
  0
BLOCK_RECORD
  5
117
330
1
100
AcDbSymbolTableRecord
100
AcDbBlockTableRecord
  2
_D_1
340
0
  0
BLOCK_RECORD
  5
11F
330
1
100
AcDbSymbolTableRecord
100
AcDbBlockTableRecord
  2
_D_2
340
0
  0
BLOCK_RECORD
  5
127
330
1
100
AcDbSymbolTableRecord
100
AcDbBlockTableRecord
  2
_D_3
340
0
  0
BLOCK_RECORD
  5
14E
330
1
100
AcDbSymbolTableRecord
100
AcDbBlockTableRecord
  2
_D_4
340
0
  0
BLOCK_RECORD
  5
156
330
1
100
AcDbSymbolTableRecord
100
AcDbBlockTableRecord
  2
_D_5
340
0
  0
BLOCK_RECORD
  5
15E
330
1
100
AcDbSymbolTableRecord
100
AcDbBlockTableRecord
  2
_D_6
340
0
  0
BLOCK_RECORD
  5
166
330
1
100
AcDbSymbolTableRecord
100
AcDbBlockTableRecord
  2
_D_7
340
0
  0
ENDTAB
  0
ENDSEC
  0
SECTION
  2
BLOCKS
  0
BLOCK
  5
20
330
1F
100
AcDbEntity
  8
0
100
AcDbBlockBegin
  2
*Model_Space
 70
     0
 10
0.0
 20
0.0
 30
0.0
  3
*Model_Space
  1

  0
ENDBLK
  5
21
330
1F
100
AcDbEntity
  8
0
100
AcDbBlockEnd
  0
BLOCK
  5
1C
330
1B
100
AcDbEntity
 67
     1
  8
0
100
AcDbBlockBegin
  2
*Paper_Space
 70
     0
 10
0.0
 20
0.0
 30
0.0
  3
*Paper_Space
  1

  0
ENDBLK
  5
1D
330
1B
100
AcDbEntity
 67
     1
  8
0
100
AcDbBlockEnd
  0
BLOCK
  5
24
330
23
100
AcDbEntity
  8
0
100
AcDbBlockBegin
  2
*Paper_Space0
 70
     0
 10
0.0
 20
0.0
 30
0.0
  3
*Paper_Space0
  1

  0
ENDBLK
  5
25
330
23
100
AcDbEntity
  8
0
100
AcDbBlockEnd
  0
BLOCK
  5
78
330
77
100
AcDbEntity
  8
0
100
AcDbBlockBegin
  2
SW_NOTE_0
 70
     0
 10
0.0
 20
0.0
 30
0.0
  3
SW_NOTE_0
  1

  0
MTEXT
  5
7A
330
77
100
AcDbEntity
  8
0
  6
Continuous
 62
     0
370
     0
100
AcDbMText
 10
0.0
 20
23.2032193159
 30
0.0
 40
18.0
 41
0.0
 71
     1
 72
     1
  1
Schutzvermerk nach
  7
SLDTEXTSTYLE0
 73
     1
 44
1.0
  0
MTEXT
  5
7B
330
77
100
AcDbEntity
  8
0
  6
Continuous
 62
     0
370
     0
100
AcDbMText
 10
20.25
 20
-4.7967796857
 30
0.0
 40
18.0
 41
0.0
 71
     1
 72
     1
  1
DIN 34 beachten.
  7
SLDTEXTSTYLE0
 73
     1
 44
1.0
  0
ENDBLK
  5
79
330
77
100
AcDbEntity
  8
0
100
AcDbBlockEnd
  0
BLOCK
  5
8C
330
8B
100
AcDbEntity
  8
0
100
AcDbBlockBegin
  2
SW_NOTE_1
 70
     0
 10
0.0
 20
0.0
 30
0.0
  3
SW_NOTE_1
  1

  0
MTEXT
  5
8E
330
8B
100
AcDbEntity
  8
0
  6
Continuous
 62
     0
370
     0
100
AcDbMText
 10
0.0
 20
19.3360160966
 30
0.0
 40
15.0
 41
0.0
 71
     1
 72
     1
  1
Alape GmbH
  7
SLDTEXTSTYLE0
 73
     1
 44
1.0
  0
MTEXT
  5
8F
330
8B
100
AcDbEntity
  8
0
  6
Continuous
 62
     0
370
     0
100
AcDbMText
 10
0.0
 20
-2.6639837842
 30
0.0
 40
15.0
 41
0.0
 71
     1
 72
     1
  1
Am Gräbicht 1 - 9
  7
SLDTEXTSTYLE0
 73
     1
 44
1.0
  0
MTEXT
  5
90
330
8B
100
AcDbEntity
  8
0
  6
Continuous
 62
     0
370
     0
100
AcDbMText
 10
0.0
 20
-24.663983665
 30
0.0
 40
15.0
 41
0.0
 71
     1
 72
     1
  1
D-38644    Goslar
  7
SLDTEXTSTYLE0
 73
     1
 44
1.0
  0
MTEXT
  5
91
330
8B
100
AcDbEntity
  8
0
  6
Continuous
 62
     0
370
     0
100
AcDbMText
 10
0.0
 20
-46.6639835458
 30
0.0
 40
15.0
 41
0.0
 71
     1
 72
     1
  1
Tel.: 05321-558 0
  7
SLDTEXTSTYLE0
 73
     1
 44
1.0
  0
MTEXT
  5
92
330
8B
100
AcDbEntity
  8
0
  6
Continuous
 62
     0
370
     0
100
AcDbMText
 10
0.0
 20
-68.6639834266
 30
0.0
 40
15.0
 41
0.0
 71
     1
 72
     1
  1
info@alape.com
  7
SLDTEXTSTYLE0
 73
     1
 44
1.0
  0
MTEXT
  5
93
330
8B
100
AcDbEntity
  8
0
  6
Continuous
 62
     0
370
     0
100
AcDbMText
 10
0.0
 20
-90.6639833074
 30
0.0
 40
15.0
 41
0.0
 71
     1
 72
     1
  1
www.alape.com
  7
SLDTEXTSTYLE0
 73
     1
 44
1.0
  0
ENDBLK
  5
8D
330
8B
100
AcDbEntity
  8
0
100
AcDbBlockEnd
  0
BLOCK
  5
DB
330
DA
100
AcDbEntity
  8
0
100
AcDbBlockBegin
  2
_NONE
 70
     0
 10
0.0
 20
0.0
 30
0.0
  3
_NONE
  1

  0
ENDBLK
  5
DC
330
DA
100
AcDbEntity
  8
0
100
AcDbBlockEnd
  0
BLOCK
  5
DE
330
DD
100
AcDbEntity
  8
0
100
AcDbBlockBegin
  2
_D
 70
     0
 10
0.0
 20
0.0
 30
0.0
  3
_D
  1

  0
LINE
  5
E0
330
DD
100
AcDbEntity
  8
0
  6
Continuous
 62
     7
370
     0
100
AcDbLine
 10
705.9676459499
 20
2388.8406604048
 30
0.0
 11
705.9676459499
 21
2189.6654009315
 31
0.0
  0
LINE
  5
E1
330
DD
100
AcDbEntity
  8
0
  6
Continuous
 62
     7
370
     0
100
AcDbLine
 10
320.9676459499
 20
2429.8406604048
 30
0.0
 11
320.9676459499
 21
2189.6654009315
 31
0.0
  0
LINE
  5
E2
330
DD
100
AcDbEntity
  8
0
  6
Continuous
 62
     7
370
     0
100
AcDbLine
 10
705.9676459499
 20
2199.6654009315
 30
0.0
 11
320.9676459499
 21
2199.6654009315
 31
0.0
  0
MTEXT
  5
E3
330
DD
100
AcDbEntity
  8
0
  6
Continuous
 62
     7
370
     0
100
AcDbMText
 10
467.432920567
 20
2244.7827729877
 30
5.8911391075
 40
35.0
 41
0.0
 71
     1
 72
     1
  1
385
  7
SLDTEXTSTYLE0
 73
     1
 44
1.0
  0
ENDBLK
  5
DF
330
DD
100
AcDbEntity
  8
0
100
AcDbBlockEnd
  0
BLOCK
  5
118
330
117
100
AcDbEntity
  8
0
100
AcDbBlockBegin
  2
_D_1
 70
     0
 10
0.0
 20
0.0
 30
0.0
  3
_D_1
  1

  0
LINE
  5
11A
330
117
100
AcDbEntity
  8
0
  6
Continuous
 62
     7
370
     0
100
AcDbLine
 10
1598.0681786365
 20
2382.7506604048
 30
0.0
 11
1941.5681786365
 21
2382.7506604048
 31
0.0
  0
LINE
  5
11B
330
117
100
AcDbEntity
  8
0
  6
Continuous
 62
     7
370
     0
100
AcDbLine
 10
1756.5681786365
 20
2493.8406604048
 30
0.0
 11
1941.5681786365
 21
2493.8406604048
 31
0.0
  0
LINE
  5
11C
330
117
100
AcDbEntity
  8
0
  6
Continuous
 62
     7
370
     0
100
AcDbLine
 10
1931.5681786365
 20
2382.7506604048
 30
0.0
 11
1931.5681786365
 21
2493.8406604048
 31
0.0
  0
MTEXT
  5
11D
330
117
100
AcDbEntity
  8
0
  6
Continuous
 62
     7
370
     0
100
AcDbMText
 10
1886.4508065804
 20
2392.2609350219
 30
0.1
 40
35.0
 41
0.0
 71
     1
 72
     1
  1
111
  7
SLDTEXTSTYLE0
 11
6.123233995736766E-17
 21
1.0
 31
0.0
 73
     1
 44
1.0
  0
ENDBLK
  5
119
330
117
100
AcDbEntity
  8
0
100
AcDbBlockEnd
  0
BLOCK
  5
120
330
11F
100
AcDbEntity
  8
0
100
AcDbBlockBegin
  2
_D_2
 70
     0
 10
0.0
 20
0.0
 30
0.0
  3
_D_2
  1

  0
LINE
  5
122
330
11F
100
AcDbEntity
  8
0
  6
Continuous
 62
     7
370
     0
100
AcDbLine
 10
1771.5681786365
 20
2437.8406604048
 30
0.0
 11
1876.5681786365
 21
2437.8406604048
 31
0.0
  0
LINE
  5
123
330
11F
100
AcDbEntity
  8
0
  6
Continuous
 62
     7
370
     0
100
AcDbLine
 10
1756.5681786365
 20
2493.8406604048
 30
0.0
 11
1876.5681786365
 21
2493.8406604048
 31
0.0
  0
LINE
  5
124
330
11F
100
AcDbEntity
  8
0
  6
Continuous
 62
     7
370
     0
100
AcDbLine
 10
1866.5681786365
 20
2437.8406604048
 30
0.0
 11
1866.5681786365
 21
2493.8406604048
 31
0.0
  0
MTEXT
  5
125
330
11F
100
AcDbEntity
  8
0
  6
Continuous
 62
     7
370
     0
100
AcDbMText
 10
1821.4508065804
 20
2430.7677414235
 30
0.1
 40
35.0
 41
0.0
 71
     1
 72
     1
  1
56
  7
SLDTEXTSTYLE0
 11
6.123233995736766E-17
 21
1.0
 31
0.0
 73
     1
 44
1.0
  0
ENDBLK
  5
121
330
11F
100
AcDbEntity
  8
0
100
AcDbBlockEnd
  0
BLOCK
  5
128
330
127
100
AcDbEntity
  8
0
100
AcDbBlockBegin
  2
_D_3
 70
     0
 10
0.0
 20
0.0
 30
0.0
  3
_D_3
  1

  0
LINE
  5
12A
330
127
100
AcDbEntity
  8
0
  6
Continuous
 62
     7
370
     0
100
AcDbLine
 10
1569.0681786365
 20
2381.3390068167
 30
0.0
 11
1569.0681786365
 21
2189.6654009315
 31
0.0
  0
LINE
  5
12B
330
127
100
AcDbEntity
  8
0
  6
Continuous
 62
     7
370
     0
100
AcDbLine
 10
1381.5681786365
 20
2393.8406604048
 30
0.0
 11
1381.5681786365
 21
2189.6654009315
 31
0.0
  0
LINE
  5
12C
330
127
100
AcDbEntity
  8
0
  6
Continuous
 62
     7
370
     0
100
AcDbLine
 10
1569.0681786365
 20
2199.6654009315
 30
0.0
 11
1381.5681786365
 21
2199.6654009315
 31
0.0
  0
MTEXT
  5
12D
330
127
100
AcDbEntity
  8
0
  6
Continuous
 62
     7
370
     0
100
AcDbMText
 10
1412.8285898916
 20
2244.7827729877
 30
0.1
 40
35.0
 41
0.0
 71
     1
 72
     1
  1
187,5
  7
SLDTEXTSTYLE0
 73
     1
 44
1.0
  0
ENDBLK
  5
129
330
127
100
AcDbEntity
  8
0
100
AcDbBlockEnd
  0
BLOCK
  5
14F
330
14E
100
AcDbEntity
  8
0
100
AcDbBlockBegin
  2
_D_4
 70
     0
 10
0.0
 20
0.0
 30
0.0
  3
_D_4
  1

  0
LINE
  5
151
330
14E
100
AcDbEntity
  8
0
  6
Continuous
 62
     7
370
     0
100
AcDbLine
 10
330.9676459499
 20
1516.8426302147
 30
0.0
 11
330.9676459499
 21
1396.8426302147
 31
0.0
  0
LINE
  5
152
330
14E
100
AcDbEntity
  8
0
  6
Continuous
 62
     7
370
     0
100
AcDbLine
 10
1080.9676459499
 20
1516.8426302147
 30
0.0
 11
1080.9676459499
 21
1396.8426302147
 31
0.0
  0
LINE
  5
153
330
14E
100
AcDbEntity
  8
0
  6
Continuous
 62
     7
370
     0
100
AcDbLine
 10
330.9676459499
 20
1406.8426302147
 30
0.0
 11
1080.9676459499
 21
1406.8426302147
 31
0.0
  0
MTEXT
  5
154
330
14E
100
AcDbEntity
  8
0
  6
Continuous
 62
     7
370
     0
100
AcDbMText
 10
659.932920567
 20
1451.9600022709
 30
-22.2126095119
 40
35.0
 41
0.0
 71
     1
 72
     1
  1
750
  7
SLDTEXTSTYLE0
 73
     1
 44
1.0
  0
ENDBLK
  5
150
330
14E
100
AcDbEntity
  8
0
100
AcDbBlockEnd
  0
BLOCK
  5
157
330
156
100
AcDbEntity
  8
0
100
AcDbBlockBegin
  2
_D_5
 70
     0
 10
0.0
 20
0.0
 30
0.0
  3
_D_5
  1

  0
LINE
  5
159
330
156
100
AcDbEntity
  8
0
  6
Continuous
 62
     7
370
     0
100
AcDbLine
 10
1090.9676459499
 20
1516.8426302147
 30
0.0
 11
1090.9676459499
 21
1336.8426302147
 31
0.0
  0
LINE
  5
15A
330
156
100
AcDbEntity
  8
0
  6
Continuous
 62
     7
370
     0
100
AcDbLine
 10
320.9676459499
 20
1516.8426302147
 30
0.0
 11
320.9676459499
 21
1336.8426302147
 31
0.0
  0
LINE
  5
15B
330
156
100
AcDbEntity
  8
0
  6
Continuous
 62
     7
370
     0
100
AcDbLine
 10
1090.9676459499
 20
1346.8426302147
 30
0.0
 11
320.9676459499
 21
1346.8426302147
 31
0.0
  0
MTEXT
  5
15C
330
156
100
AcDbEntity
  8
0
  6
Continuous
 62
     7
370
     0
100
AcDbMText
 10
659.932920567
 20
1391.9600022709
 30
-22.2126095119
 40
35.0
 41
0.0
 71
     1
 72
     1
  1
770
  7
SLDTEXTSTYLE0
 73
     1
 44
1.0
  0
ENDBLK
  5
158
330
156
100
AcDbEntity
  8
0
100
AcDbBlockEnd
  0
BLOCK
  5
15F
330
15E
100
AcDbEntity
  8
0
100
AcDbBlockBegin
  2
_D_6
 70
     0
 10
0.0
 20
0.0
 30
0.0
  3
_D_6
  1

  0
LINE
  5
161
330
15E
100
AcDbEntity
  8
0
  6
Continuous
 62
     7
370
     0
100
AcDbLine
 10
1080.9676459499
 20
1516.8426302147
 30
0.0
 11
1200.9676459499
 21
1516.8426302147
 31
0.0
  0
LINE
  5
162
330
15E
100
AcDbEntity
  8
0
  6
Continuous
 62
     7
370
     0
100
AcDbLine
 10
1080.9676459499
 20
1891.8426302147
 30
0.0
 11
1200.9676459499
 21
1891.8426302147
 31
0.0
  0
LINE
  5
163
330
15E
100
AcDbEntity
  8
0
  6
Continuous
 62
     7
370
     0
100
AcDbLine
 10
1190.9676459499
 20
1516.8426302147
 30
0.0
 11
1190.9676459499
 21
1891.8426302147
 31
0.0
  0
MTEXT
  5
164
330
15E
100
AcDbEntity
  8
0
  6
Continuous
 62
     7
370
     0
100
AcDbMText
 10
1145.8502738938
 20
1658.3079048318
 30
-22.2126095119
 40
35.0
 41
0.0
 71
     1
 72
     1
  1
375
  7
SLDTEXTSTYLE0
 11
6.123233995736766E-17
 21
1.0
 31
0.0
 73
     1
 44
1.0
  0
ENDBLK
  5
160
330
15E
100
AcDbEntity
  8
0
100
AcDbBlockEnd
  0
BLOCK
  5
167
330
166
100
AcDbEntity
  8
0
100
AcDbBlockBegin
  2
_D_7
 70
     0
 10
0.0
 20
0.0
 30
0.0
  3
_D_7
  1

  0
LINE
  5
169
330
166
100
AcDbEntity
  8
0
  6
Continuous
 62
     7
370
     0
100
AcDbLine
 10
1080.9676459499
 20
1901.8426302147
 30
0.0
 11
1260.9676459499
 21
1901.8426302147
 31
0.0
  0
LINE
  5
16A
330
166
100
AcDbEntity
  8
0
  6
Continuous
 62
     7
370
     0
100
AcDbLine
 10
1080.9676459499
 20
1506.8426302147
 30
0.0
 11
1260.9676459499
 21
1506.8426302147
 31
0.0
  0
LINE
  5
16B
330
166
100
AcDbEntity
  8
0
  6
Continuous
 62
     7
370
     0
100
AcDbLine
 10
1250.9676459499
 20
1901.8426302147
 30
0.0
 11
1250.9676459499
 21
1506.8426302147
 31
0.0
  0
MTEXT
  5
16C
330
166
100
AcDbEntity
  8
0
  6
Continuous
 62
     7
370
     0
100
AcDbMText
 10
1205.8502738938
 20
1658.3079048318
 30
-22.2126095119
 40
35.0
 41
0.0
 71
     1
 72
     1
  1
395
  7
SLDTEXTSTYLE0
 11
-7.044195017643634E-15
 21
1.0
 31
0.0
 73
     1
 44
1.0
  0
ENDBLK
  5
168
330
166
100
AcDbEntity
  8
0
100
AcDbBlockEnd
  0
ENDSEC
  0
SECTION
  2
ENTITIES
  0
LINE
  5
44
330
1F
100
AcDbEntity
  8
0
  6
Continuous
 62
     7
370
    30
100
AcDbLine
 10
178.0
 20
611.9648888889
 30
0.0
 11
178.0
 21
59.4648888889
 31
0.0
  0
LINE
  5
45
330
1F
100
AcDbEntity
  8
0
  6
Continuous
 62
     7
370
     0
100
AcDbLine
 10
256.0
 20
441.9648888889
 30
0.0
 11
256.0
 21
59.4648888889
 31
0.0
  0
LINE
  5
46
330
1F
100
AcDbEntity
  8
0
  6
Continuous
 62
     7
370
     0
100
AcDbLine
 10
506.0
 20
441.9648888889
 30
0.0
 11
506.0
 21
59.4648888889
 31
0.0
  0
LINE
  5
47
330
1F
100
AcDbEntity
  8
0
  6
Continuous
 62
     7
370
     0
100
AcDbLine
 10
178.0
 20
97.3527580974
 30
0.0
 11
724.0
 21
97.3527580974
 31
0.0
  0
LINE
  5
48
330
1F
100
AcDbEntity
  8
0
  6
Continuous
 62
     7
370
    30
100
AcDbLine
 10
724.0
 20
229.4648888889
 30
0.0
 11
2050.0
 21
229.4648888889
 31
0.0
  0
LINE
  5
49
330
1F
100
AcDbEntity
  8
0
  6
Continuous
 62
     7
370
    30
100
AcDbLine
 10
2050.0
 20
441.9648888889
 30
0.0
 11
178.0
 21
441.9648888889
 31
0.0
  0
LINE
  5
4A
330
1F
100
AcDbEntity
  8
0
  6
Continuous
 62
     7
370
    30
100
AcDbLine
 10
178.0
 20
611.9648888889
 30
0.0
 11
2050.0
 21
611.9648888889
 31
0.0
  0
LINE
  5
4B
330
1F
100
AcDbEntity
  8
0
  6
Continuous
 62
     7
370
    30
100
AcDbLine
 10
1166.0
 20
97.3527580974
 30
0.0
 11
2050.0
 21
97.3527580974
 31
0.0
  0
LINE
  5
4C
330
1F
100
AcDbEntity
  8
0
  6
Continuous
 62
     7
370
    30
100
AcDbLine
 10
724.0
 20
59.4648888889
 30
0.0
 11
724.0
 21
611.9648888889
 31
0.0
  0
LINE
  5
4D
330
1F
100
AcDbEntity
  8
0
  6
Continuous
 62
     7
370
    30
100
AcDbLine
 10
1166.0
 20
611.9648888889
 30
0.0
 11
1166.0
 21
59.4648888889
 31
0.0
  0
LINE
  5
4E
330
1F
100
AcDbEntity
  8
0
  6
Continuous
 62
     7
370
     0
100
AcDbLine
 10
606.0
 20
441.9648888889
 30
0.0
 11
606.0
 21
59.4648888889
 31
0.0
  0
LINE
  5
4F
330
1F
100
AcDbEntity
  8
0
  6
Continuous
 62
     7
370
     0
100
AcDbLine
 10
828.0
 20
271.9648888889
 30
0.0
 11
828.0
 21
441.9648888889
 31
0.0
  0
LINE
  5
50
330
1F
100
AcDbEntity
  8
0
  6
Continuous
 62
     7
370
     0
100
AcDbLine
 10
724.0
 20
144.4648888889
 30
0.0
 11
178.0
 21
144.4648888889
 31
0.0
  0
LINE
  5
51
330
1F
100
AcDbEntity
  8
0
  6
Continuous
 62
     7
370
     0
100
AcDbLine
 10
984.0
 20
611.9648888889
 30
0.0
 11
984.0
 21
229.4648888889
 31
0.0
  0
LINE
  5
52
330
1F
100
AcDbEntity
  8
0
  6
Continuous
 62
     7
370
     0
100
AcDbLine
 10
1608.0
 20
59.4648888889
 30
0.0
 11
1608.0
 21
97.3527580974
 31
0.0
  0
LINE
  5
53
330
1F
100
AcDbEntity
  8
0
  6
Continuous
 62
     7
370
     0
100
AcDbLine
 10
1686.0
 20
548.2148888889
 30
0.0
 11
1686.0
 21
611.9648888889
 31
0.0
  0
LINE
  5
54
330
1F
100
AcDbEntity
  8
0
  6
Continuous
 62
     7
370
     0
100
AcDbLine
 10
724.0
 20
526.9648888889
 30
0.0
 11
1166.0
 21
526.9648888889
 31
0.0
  0
LINE
  5
55
330
1F
100
AcDbEntity
  8
0
  6
Continuous
 62
     7
370
    30
100
AcDbLine
 10
1920.0
 20
97.3527580974
 30
0.0
 11
1920.0
 21
229.4648888889
 31
0.0
  0
LINE
  5
56
330
1F
100
AcDbEntity
  8
0
  6
Continuous
 62
     7
370
     0
100
AcDbLine
 10
2050.0
 20
548.2148888889
 30
0.0
 11
1166.0
 21
548.2148888889
 31
0.0
  0
LINE
  5
57
330
1F
100
AcDbEntity
  8
0
  6
Continuous
 62
     7
370
     0
100
AcDbLine
 10
128.0
 20
2961.9648888889
 30
0.0
 11
128.0
 21
611.9648888889
 31
0.0
  0
LINE
  5
58
330
1F
100
AcDbEntity
  8
0
  6
Continuous
 62
     7
370
    30
100
AcDbLine
 10
178.0
 20
2911.9648888889
 30
0.0
 11
178.0
 21
611.9648888889
 31
0.0
  0
LINE
  5
59
330
1F
100
AcDbEntity
  8
0
  6
Continuous
 62
     7
370
    30
100
AcDbLine
 10
2050.0
 20
59.4648888889
 30
0.0
 11
2050.0
 21
611.9648888889
 31
0.0
  0
LINE
  5
5A
330
1F
100
AcDbEntity
  8
0
  6
Continuous
 62
     7
370
    30
100
AcDbLine
 10
178.0
 20
59.4648888889
 30
0.0
 11
2050.0
 21
59.4648888889
 31
0.0
  0
LINE
  5
5B
330
1F
100
AcDbEntity
  8
0
  6
Continuous
 62
     7
370
     0
100
AcDbLine
 10
724.0
 20
186.9648888889
 30
0.0
 11
178.0
 21
186.9648888889
 31
0.0
  0
LINE
  5
5C
330
1F
100
AcDbEntity
  8
0
  6
Continuous
 62
     7
370
     0
100
AcDbLine
 10
724.0
 20
229.4648888889
 30
0.0
 11
178.0
 21
229.4648888889
 31
0.0
  0
LINE
  5
5D
330
1F
100
AcDbEntity
  8
0
  6
Continuous
 62
     7
370
     0
100
AcDbLine
 10
1166.0
 20
271.9648888889
 30
0.0
 11
178.0
 21
271.9648888889
 31
0.0
  0
LINE
  5
5E
330
1F
100
AcDbEntity
  8
0
  6
Continuous
 62
     7
370
     0
100
AcDbLine
 10
1166.0
 20
314.4648888889
 30
0.0
 11
178.0
 21
314.4648888889
 31
0.0
  0
LINE
  5
5F
330
1F
100
AcDbEntity
  8
0
  6
Continuous
 62
     7
370
     0
100
AcDbLine
 10
1166.0
 20
356.9648888889
 30
0.0
 11
178.0
 21
356.9648888889
 31
0.0
  0
LINE
  5
60
330
1F
100
AcDbEntity
  8
0
  6
Continuous
 62
     7
370
     0
100
AcDbLine
 10
1166.0
 20
399.4648888889
 30
0.0
 11
178.0
 21
399.4648888889
 31
0.0
  0
LINE
  5
61
330
1F
100
AcDbEntity
  8
0
  6
Continuous
 62
     7
370
     0
100
AcDbLine
 10
2050.0
 20
144.4648888889
 30
0.0
 11
1920.0
 21
144.4648888889
 31
0.0
  0
LINE
  5
62
330
1F
100
AcDbEntity
  8
0
  6
Continuous
 62
     7
370
     0
100
AcDbLine
 10
178.0
 20
1071.9648888889
 30
0.0
 11
128.0
 21
1071.9648888889
 31
0.0
  0
LINE
  5
63
330
1F
100
AcDbEntity
  8
0
  6
Continuous
 62
     7
370
     0
100
AcDbLine
 10
128.0
 20
1531.9648888889
 30
0.0
 11
178.0
 21
1531.9648888889
 31
0.0
  0
LINE
  5
64
330
1F
100
AcDbEntity
  8
0
  6
Continuous
 62
     7
370
     0
100
AcDbLine
 10
128.0
 20
1991.9648888889
 30
0.0
 11
178.0
 21
1991.9648888889
 31
0.0
  0
LINE
  5
65
330
1F
100
AcDbEntity
  8
0
  6
Continuous
 62
     7
370
     0
100
AcDbLine
 10
128.0
 20
2451.9648888889
 30
0.0
 11
178.0
 21
2451.9648888889
 31
0.0
  0
LINE
  5
66
330
1F
100
AcDbEntity
  8
0
  6
Continuous
 62
     7
370
     0
100
AcDbLine
 10
645.5
 20
2961.9648888889
 30
0.0
 11
645.5
 21
2911.9648888889
 31
0.0
  0
LINE
  5
67
330
1F
100
AcDbEntity
  8
0
  6
Continuous
 62
     7
370
     0
100
AcDbLine
 10
1113.0
 20
2961.9648888889
 30
0.0
 11
1113.0
 21
2911.9648888889
 31
0.0
  0
LINE
  5
68
330
1F
100
AcDbEntity
  8
0
  6
Continuous
 62
     7
370
     0
100
AcDbLine
 10
128.0
 20
2961.9648888889
 30
0.0
 11
2050.0
 21
2961.9648888889
 31
0.0
  0
LINE
  5
69
330
1F
100
AcDbEntity
  8
0
  6
Continuous
 62
     7
370
    30
100
AcDbLine
 10
2050.0
 20
2911.9648888889
 30
0.0
 11
2050.0
 21
611.9648888889
 31
0.0
  0
LINE
  5
6A
330
1F
100
AcDbEntity
  8
0
  6
Continuous
 62
     7
370
    30
100
AcDbLine
 10
178.0
 20
2911.9648888889
 30
0.0
 11
2050.0
 21
2911.9648888889
 31
0.0
  0
LINE
  5
6B
330
1F
100
AcDbEntity
  8
0
  6
Continuous
 62
     7
370
     0
100
AcDbLine
 10
1580.5
 20
2961.9648888889
 30
0.0
 11
1580.5
 21
2911.9648888889
 31
0.0
  0
LINE
  5
6C
330
1F
100
AcDbEntity
  8
0
  6
Continuous
 62
     7
370
     0
100
AcDbLine
 10
2050.0
 20
2961.9648888889
 30
0.0
 11
2050.0
 21
2911.9648888889
 31
0.0
  0
LINE
  5
6D
330
1F
100
AcDbEntity
  8
0
  6
Continuous
 62
     7
370
     0
100
AcDbLine
 10
128.0
 20
611.9648888889
 30
0.0
 11
178.0
 21
611.9648888889
 31
0.0
  0
LINE
  5
6E
330
1F
100
AcDbEntity
  8
0
  6
Continuous
 62
     7
370
     0
100
AcDbLine
 10
2100.0
 20
2961.9648888889
 30
0.0
 11
2100.0
 21
9.4648888889
 31
0.0
  0
LINE
  5
6F
330
1F
100
AcDbEntity
  8
0
  6
Continuous
 62
     7
370
     0
100
AcDbLine
 10
2100.0
 20
9.4648888889
 30
0.0
 11
3.0
 21
9.4648888889
 31
0.0
  0
LINE
  5
70
330
1F
100
AcDbEntity
  8
0
  6
Continuous
 62
     7
370
     0
100
AcDbLine
 10
3.0
 20
9.4648888889
 30
0.0
 11
3.0
 21
2961.9648888889
 31
0.0
  0
LINE
  5
71
330
1F
100
AcDbEntity
  8
0
  6
Continuous
 62
     7
370
     0
100
AcDbLine
 10
3.0
 20
2961.9648888889
 30
0.0
 11
2100.0
 21
2961.9648888889
 31
0.0
  0
ARC
  5
72
330
1F
100
AcDbEntity
  8
0
  6
Continuous
 62
     7
370
     0
100
AcDbCircle
 10
1144.2790264777
 20
179.5558961975
 30
0.0
 40
14.21146949138165
100
AcDbArc
 50
180.0
 51
0.0
  0
MTEXT
  5
74
330
1F
100
AcDbEntity
  8
0
  6
Continuous
 62
     7
370
     0
100
AcDbMText
 10
1001.866114271
 20
507.3657725829
 30
0.0
 40
18.0
 41
0.0
 71
     1
 72
     1
  1
Werkstückkanten
  7
SLDTEXTSTYLE0
 73
     1
 44
1.0
  0
MTEXT
  5
75
330
1F
100
AcDbEntity
  8
0
  6
Continuous
 62
     7
370
     0
100
AcDbMText
 10
741.2329342285
 20
508.0953097765
 30
0.0
 40
18.0
 41
0.0
 71
     1
 72
     1
  1
Allgemeintoleranzen
  7
SLDTEXTSTYLE0
 73
     1
 44
1.0
  0
MTEXT
  5
76
330
1F
100
AcDbEntity
  8
0
  6
Continuous
 62
     7
370
     0
100
AcDbMText
 10
1009.010503761
 20
595.4984997076
 30
0.0
 40
18.0
 41
0.0
 71
     1
 72
     1
  1
Oberflächen
  7
SLDTEXTSTYLE0
 73
     1
 44
1.0
  0
INSERT
  5
7C
330
1F
100
AcDbEntity
  8
0
  6
Continuous
 62
     7
370
     0
100
AcDbBlockReference
  2
SW_NOTE_0
 10
741.4609723973
 20
572.2099196998
 30
0.0
  0
MTEXT
  5
7D
330
1F
100
AcDbEntity
  8
0
  6
Continuous
 62
     7
370
     0
100
AcDbMText
 10
834.5570552235
 20
433.2295769538
 30
0.0
 40
18.0
 41
0.0
 71
     1
 72
     1
  1
Datum
  7
SLDTEXTSTYLE0
 73
     1
 44
1.0
  0
MTEXT
  5
7E
330
1F
100
AcDbEntity
  8
0
  6
Continuous
 62
     7
370
     0
100
AcDbMText
 10
990.0482574197
 20
433.1878737719
 30
0.0
 40
18.0
 41
0.0
 71
     1
 72
     1
  1
Name
  7
SLDTEXTSTYLE0
 73
     1
 44
1.0
  0
MTEXT
  5
7F
330
1F
100
AcDbEntity
  8
0
  6
Continuous
 62
     7
370
     0
100
AcDbMText
 10
729.9942931855
 20
388.5774933557
 30
0.0
 40
18.0
 41
0.0
 71
     1
 72
     1
  1
Bearb.
  7
SLDTEXTSTYLE0
 73
     1
 44
1.0
  0
MTEXT
  5
80
330
1F
100
AcDbEntity
  8
0
  6
Continuous
 62
     7
370
     0
100
AcDbMText
 10
730.0241080765
 20
344.9741674525
 30
0.0
 40
18.0
 41
0.0
 71
     1
 72
     1
  1
Gepr.
  7
SLDTEXTSTYLE0
 73
     1
 44
1.0
  0
MTEXT
  5
81
330
1F
100
AcDbEntity
  8
0
  6
Continuous
 62
     7
370
     0
100
AcDbMText
 10
730.0241080765
 20
302.6450473666
 30
0.0
 40
18.0
 41
0.0
 71
     1
 72
     1
  1
Freigabe
  7
SLDTEXTSTYLE0
 73
     1
 44
1.0
  0
MTEXT
  5
82
330
1F
100
AcDbEntity
  8
0
  6
Continuous
 62
     7
370
     0
100
AcDbMText
 10
1173.1967557727
 20
594.7494385311
 30
0.0
 40
18.0
 41
0.0
 71
     1
 72
     1
  1
Maßstab
  7
SLDTEXTSTYLE0
 73
     1
 44
1.0
  0
MTEXT
  5
83
330
1F
100
AcDbEntity
  8
0
  6
Continuous
 62
     7
370
     0
100
AcDbMText
 10
1695.0427154453
 20
594.0500090479
 30
0.0
 40
18.0
 41
0.0
 71
     1
 72
     1
  1
Gewicht
  7
SLDTEXTSTYLE0
 73
     1
 44
1.0
  0
MTEXT
  5
84
330
1F
100
AcDbEntity
  8
0
  6
Continuous
 62
     7
370
     0
100
AcDbMText
 10
1172.3498791808
 20
532.9840223793
 30
0.0
 40
18.0
 41
0.0
 71
     1
 72
     1
  1
Werkstoff
  7
SLDTEXTSTYLE0
 73
     1
 44
1.0
  0
MTEXT
  5
85
330
1F
100
AcDbEntity
  8
0
  6
Continuous
 62
     7
370
     0
100
AcDbMText
 10
1171.7968375726
 20
433.1282583672
 30
0.0
 40
18.0
 41
0.0
 71
     1
 72
     1
  1
Benennung
  7
SLDTEXTSTYLE0
 73
     1
 44
1.0
  0
MTEXT
  5
86
330
1F
100
AcDbEntity
  8
0
  6
Continuous
 62
     7
370
     0
100
AcDbMText
 10
1173.3614733249
 20
221.37483921
 30
0.0
 40
18.0
 41
0.0
 71
     1
 72
     1
  1
Zeichnungs-Nr.
  7
SLDTEXTSTYLE0
 73
     1
 44
1.0
  0
MTEXT
  5
87
330
1F
100
AcDbEntity
  8
0
  6
Continuous
 62
     7
370
     0
100
AcDbMText
 10
1929.1803388485
 20
212.6948179662
 30
0.0
 40
18.0
 41
0.0
 71
     1
 72
     1
  1
Blatt
  7
SLDTEXTSTYLE0
 73
     1
 44
1.0
  0
MTEXT
  5
88
330
1F
100
AcDbEntity
  8
0
  6
Continuous
 62
     7
370
     0
100
AcDbMText
 10
2018.0969978698
 20
127.6982546133
 30
0.0
 40
18.0
 41
0.0
 71
     1
 72
     1
  1
Bl.
  7
SLDTEXTSTYLE0
 73
     1
 44
1.0
  0
MTEXT
  5
89
330
1F
100
AcDbEntity
  8
0
  6
Continuous
 62
     7
370
     0
100
AcDbMText
 10
1174.6668592817
 20
87.4549030772
 30
0.0
 40
18.0
 41
0.0
 71
     1
 72
     1
  1
Ers. f.:
  7
SLDTEXTSTYLE0
 73
     1
 44
1.0
  0
MTEXT
  5
8A
330
1F
100
AcDbEntity
  8
0
  6
Continuous
 62
     7
370
     0
100
AcDbMText
 10
1619.2007214728
 20
87.4435098117
 30
0.0
 40
18.0
 41
0.0
 71
     1
 72
     1
  1
Ers.d.:
  7
SLDTEXTSTYLE0
 73
     1
 44
1.0
  0
INSERT
  5
94
330
1F
100
AcDbEntity
  8
0
  6
Continuous
 62
     7
370
     0
100
AcDbBlockReference
  2
SW_NOTE_1
 10
737.2537837524
 20
187.7803307423
 30
0.0
  0
MTEXT
  5
95
330
1F
100
AcDbEntity
  8
0
  6
Continuous
 62
     7
370
     0
100
AcDbMText
 10
188.9126280003
 20
87.9469530416
 30
0.0
 40
18.0
 41
0.0
 71
     1
 72
     1
  1
Zust.
  7
SLDTEXTSTYLE0
 73
     1
 44
1.0
  0
MTEXT
  5
96
330
1F
100
AcDbEntity
  8
0
  6
Continuous
 62
     7
370
     0
100
AcDbMText
 10
278.6703693015
 20
88.0638668116
 30
0.0
 40
18.0
 41
0.0
 71
     1
 72
     1
  1
Änder.-Mittlg.Nr.
  7
SLDTEXTSTYLE0
 73
     1
 44
1.0
  0
MTEXT
  5
97
330
1F
100
AcDbEntity
  8
0
  6
Continuous
 62
     7
370
     0
100
AcDbMText
 10
513.5123929092
 20
87.7900593302
 30
0.0
 40
18.0
 41
0.0
 71
     1
 72
     1
  1
Datum
  7
SLDTEXTSTYLE0
 73
     1
 44
1.0
  0
MTEXT
  5
98
330
1F
100
AcDbEntity
  8
0
  6
Continuous
 62
     7
370
     0
100
AcDbMText
 10
630.8647509777
 20
87.7900593302
 30
0.0
 40
18.0
 41
0.0
 71
     1
 72
     1
  1
Name
  7
SLDTEXTSTYLE0
 73
     1
 44
1.0
  0
MTEXT
  5
99
330
1F
100
AcDbEntity
  8
0
  6
Continuous
 62
     7
370
     0
100
AcDbMText
 10
398.422293125
 20
2950.5148161091
 30
0.0
 40
21.1666666667
 41
0.0
 71
     1
 72
     1
  1
1
  7
SLDTEXTSTYLE0
 73
     1
 44
1.0
  0
MTEXT
  5
9A
330
1F
100
AcDbEntity
  8
0
  6
Continuous
 62
     7
370
     0
100
AcDbMText
 10
867.5407155486
 20
2949.8615389252
 30
0.0
 40
21.1666666667
 41
0.0
 71
     1
 72
     1
  1
2
  7
SLDTEXTSTYLE0
 73
     1
 44
1.0
  0
MTEXT
  5
9B
330
1F
100
AcDbEntity
  8
0
  6
Continuous
 62
     7
370
     0
100
AcDbMText
 10
1335.3829425856
 20
2948.4080725268
 30
0.0
 40
21.1666666667
 41
0.0
 71
     1
 72
     1
  1
3
  7
SLDTEXTSTYLE0
 73
     1
 44
1.0
  0
MTEXT
  5
9C
330
1F
100
AcDbEntity
  8
0
  6
Continuous
 62
     7
370
     0
100
AcDbMText
 10
1800.9058849482
 20
2949.7146268946
 30
0.0
 40
21.1666666667
 41
0.0
 71
     1
 72
     1
  1
4
  7
SLDTEXTSTYLE0
 73
     1
 44
1.0
  0
MTEXT
  5
9D
330
1F
100
AcDbEntity
  8
0
  6
Continuous
 62
     7
370
     0
100
AcDbMText
 10
145.0802845236
 20
2702.8133145842
 30
0.0
 40
21.1666666667
 41
0.0
 71
     1
 72
     1
  1
A
  7
SLDTEXTSTYLE0
 73
     1
 44
1.0
  0
MTEXT
  5
9E
330
1F
100
AcDbEntity
  8
0
  6
Continuous
 62
     7
370
     0
100
AcDbMText
 10
144.5552754657
 20
2240.6320595628
 30
0.0
 40
21.1666666667
 41
0.0
 71
     1
 72
     1
  1
B
  7
SLDTEXTSTYLE0
 73
     1
 44
1.0
  0
MTEXT
  5
9F
330
1F
100
AcDbEntity
  8
0
  6
Continuous
 62
     7
370
     0
100
AcDbMText
 10
143.1025836798
 20
1783.958589489
 30
0.0
 40
21.1666666667
 41
0.0
 71
     1
 72
     1
  1
C
  7
SLDTEXTSTYLE0
 73
     1
 44
1.0
  0
MTEXT
  5
A0
330
1F
100
AcDbEntity
  8
0
  6
Continuous
 62
     7
370
     0
100
AcDbMText
 10
144.5389977141
 20
1321.7221350506
 30
0.0
 40
21.1666666667
 41
0.0
 71
     1
 72
     1
  1
D
  7
SLDTEXTSTYLE0
 73
     1
 44
1.0
  0
MTEXT
  5
A1
330
1F
100
AcDbEntity
  8
0
  6
Continuous
 62
     7
370
     0
100
AcDbMText
 10
143.8110602807
 20
864.6161854606
 30
0.0
 40
21.1666666667
 41
0.0
 71
     1
 72
     1
  1
E
  7
SLDTEXTSTYLE0
 73
     1
 44
1.0
  0
MTEXT
  5
A2
330
1F
100
AcDbEntity
  8
0
  6
Continuous
 62
     7
370
     0
100
AcDbMText
 10
835.2552951786
 20
395.7395339105
 30
0.0
 40
25.0
 41
0.0
 71
     1
 72
     1
  1
08.12.2014
  7
SLDTEXTSTYLE0
 73
     1
 44
1.0
  0
MTEXT
  5
A3
330
1F
100
AcDbEntity
  8
0
  6
Continuous
 62
     7
370
     0
100
AcDbMText
 10
990.4549606022
 20
395.2015013674
 30
0.0
 40
25.0
 41
0.0
 71
     1
 72
     1
  1
Skott
  7
SLDTEXTSTYLE0
 73
     1
 44
1.0
  0
MTEXT
  5
A4
330
1F
100
AcDbEntity
  8
0
  6
Continuous
 62
     7
370
     0
100
AcDbMText
 10
1301.5226104542
 20
398.1749955265
 30
0.0
 40
42.3333333333
 41
0.0
 71
     1
 72
     1
  1
EB.ME750 o.HL, o.Ü.
  7
SLDTEXTSTYLE0
 73
     1
 44
1.0
  0
MTEXT
  5
A5
330
1F
100
AcDbEntity
  8
0
  6
Continuous
 62
     7
370
     0
100
AcDbMText
 10
1301.7667543784
 20
516.9122851531
 30
0.0
 40
35.0
 41
0.0
 71
     1
 72
     1
  1
Baugruppe
  7
SLDTEXTSTYLE0
 73
     1
 44
1.0
  0
MTEXT
  5
A6
330
1F
100
AcDbEntity
  8
0
  6
Continuous
 62
     7
370
     0
100
AcDbMText
 10
1404.6612035267
 20
187.4282802931
 30
0.0
 40
50.0
 41
0.0
 71
     1
 72
     1
  1
2227503
  7
SLDTEXTSTYLE0
 73
     1
 44
1.0
  0
MTEXT
  5
A7
330
1F
100
AcDbEntity
  8
0
  6
Continuous
 62
     7
370
     0
100
AcDbMText
 10
1301.5347505117
 20
598.8729207203
 30
0.0
 40
30.0
 41
0.0
 71
     1
 72
     1
  1
1:10
  7
SLDTEXTSTYLE0
 73
     1
 44
1.0
  0
MTEXT
  5
A8
330
1F
100
AcDbEntity
  8
0
  6
Continuous
 62
     7
370
     0
100
AcDbMText
 10
1831.7270293839
 20
597.6546302789
 30
0.0
 40
30.0
 41
0.0
 71
     1
 72
     1
  1
12,621
  7
SLDTEXTSTYLE0
 73
     1
 44
1.0
  0
MTEXT
  5
A9
330
1F
100
AcDbEntity
  8
0
  6
Continuous
 62
     7
370
     0
100
AcDbMText
 10
1957.1087262161
 20
184.2445619008
 30
0.0
 40
25.0
 41
0.0
 71
     1
 72
     1
  1
ANSK
  7
SLDTEXTSTYLE0
 73
     1
 44
1.0
  0
MTEXT
  5
AA
330
1F
100
AcDbEntity
  8
0
  6
Continuous
 62
     7
370
     0
100
AcDbMText
 10
1967.8405829161
 20
134.4197992187
 30
0.0
 40
25.0
 41
0.0
 71
     2
 72
     1
  1
8
  7
SLDTEXTSTYLE0
 73
     1
 44
1.0
  0
MTEXT
  5
AB
330
1F
100
AcDbEntity
  8
0
  6
Continuous
 62
     7
370
     0
100
AcDbMText
 10
847.8338426104
 20
477.2187744315
 30
0.0
 40
18.0
 41
0.0
 71
     2
 72
     1
  1
DIN ISO 2768-mK
  7
SLDTEXTSTYLE0
 73
     1
 44
1.0
  0
MTEXT
  5
AC
330
1F
100
AcDbEntity
  8
0
  6
Continuous
 62
     7
370
     0
100
AcDbMText
 10
1301.5226104542
 20
338.6434728878
 30
0.0
 40
31.75
 41
0.0
 71
     1
 72
     1
  1
Einbaubecken
  7
SLDTEXTSTYLE0
 73
     1
 44
1.0
  0
MTEXT
  5
AD
330
1F
100
AcDbEntity
  8
0
  6
Continuous
 62
     7
370
     0
100
AcDbMText
 10
881.6074585385
 20
183.4834639929
 30
0.0
 40
70.0
 41
0.0
 71
     1
 72
     1
  1
Alape
  7
SLDTEXTSTYLE0
 73
     1
 44
1.0
  0
MTEXT
  5
AE
330
1F
100
AcDbEntity
  8
0
  6
Continuous
 62
     7
370
     0
100
AcDbMText
 10
1301.4050030395
 20
288.6434728878
 30
0.0
 40
31.75
 41
0.0
 71
     1
 72
     1
  1
Naturstein
  7
SLDTEXTSTYLE0
 73
     1
 44
1.0
  0
LINE
  5
AF
330
1F
100
AcDbEntity
  8
0
  6
Continuous
 62
     7
370
    15
100
AcDbLine
 10
470.9676459499
 20
2391.3406604048
 30
0.0
 11
470.9676459499
 21
2392.8406604048
 31
0.0
  0
LINE
  5
B0
330
1F
100
AcDbEntity
  8
0
  6
Continuous
 62
     7
370
    15
100
AcDbLine
 10
390.9676459499
 20
2392.8406604048
 30
0.0
 11
390.9676459499
 21
2391.3406604048
 31
0.0
  0
ARC
  5
B1
330
1F
100
AcDbEntity
  8
0
  6
Continuous
 62
     7
370
    15
100
AcDbCircle
 10
665.0804581577
 20
2382.9912343509
 30
0.0
 40
8.910000000000249
100
AcDbArc
 50
52.1480946784
 51
83.3152054855
  0
ARC
  5
B2
330
1F
100
AcDbEntity
  8
0
  6
Continuous
 62
     7
370
    15
100
AcDbCircle
 10
746.8548337422
 20
2382.9912343509
 30
0.0
 40
8.910000000000307
100
AcDbArc
 50
96.6847945145
 51
127.8519053216
  0
LINE
  5
B3
330
1F
100
AcDbEntity
  8
0
  6
Continuous
 62
     7
370
    15
100
AcDbLine
 10
670.5478356868
 20
2390.0265653989
 30
0.0
 11
678.2859102401
 21
2384.0130637395
 31
0.0
  0
LINE
  5
B4
330
1F
100
AcDbEntity
  8
0
  6
Continuous
 62
     7
370
    15
100
AcDbLine
 10
733.6493816598
 20
2384.0130637395
 30
0.0
 11
741.3874562131
 21
2390.0265653989
 31
0.0
  0
ARC
  5
B5
330
1F
100
AcDbEntity
  8
0
  6
Continuous
 62
     7
370
    15
100
AcDbCircle
 10
681.9676459499
 20
2388.7506604048
 30
0.0
 40
6.0
100
AcDbArc
 50
232.1480946784
 51
270.0
  0
ARC
  5
B6
330
1F
100
AcDbEntity
  8
0
  6
Continuous
 62
     7
370
    15
100
AcDbCircle
 10
729.9676459499
 20
2388.7506604048
 30
0.0
 40
6.0
100
AcDbArc
 50
270.0
 51
307.8519053216
  0
LINE
  5
B7
330
1F
100
AcDbEntity
  8
0
  6
Continuous
 62
     7
370
    15
100
AcDbLine
 10
338.9698087996
 20
2393.8406471825
 30
0.0
 11
666.1176459499
 21
2391.8406604048
 31
0.0
  0
LINE
  5
B8
330
1F
100
AcDbEntity
  8
0
  6
Continuous
 62
     7
370
    15
100
AcDbLine
 10
745.8176459499
 20
2391.8406604048
 30
0.0
 11
1072.9654831003
 21
2393.8406471825
 31
0.0
  0
LINE
  5
B9
330
1F
100
AcDbEntity
  8
0
  6
Continuous
 62
     7
370
    15
100
AcDbLine
 10
320.9676459499
 20
2434.8406604048
 30
0.0
 11
320.9676459499
 21
2437.8406604048
 31
0.0
  0
LINE
  5
BA
330
1F
100
AcDbEntity
  8
0
  6
Continuous
 62
     7
370
    15
100
AcDbLine
 10
335.9676459499
 20
2434.8406604048
 30
0.0
 11
320.9676459499
 21
2434.8406604048
 31
0.0
  0
LINE
  5
BB
330
1F
100
AcDbEntity
  8
0
  6
Continuous
 62
     7
370
    15
100
AcDbLine
 10
320.9676459499
 20
2437.8406604048
 30
0.0
 11
335.9676459499
 21
2437.8406604048
 31
0.0
  0
LINE
  5
BC
330
1F
100
AcDbEntity
  8
0
  6
Continuous
 62
     7
370
    15
100
AcDbLine
 10
1090.9676459499
 20
2437.8406604048
 30
0.0
 11
1090.9676459499
 21
2434.8406604048
 31
0.0
  0
LINE
  5
BD
330
1F
100
AcDbEntity
  8
0
  6
Continuous
 62
     7
370
    15
100
AcDbLine
 10
1090.9676459499
 20
2434.8406604048
 30
0.0
 11
1075.9676459499
 21
2434.8406604048
 31
0.0
  0
LINE
  5
BE
330
1F
100
AcDbEntity
  8
0
  6
Continuous
 62
     7
370
    15
100
AcDbLine
 10
1075.9676459499
 20
2437.8406604048
 30
0.0
 11
1090.9676459499
 21
2437.8406604048
 31
0.0
  0
LINE
  5
BF
330
1F
100
AcDbEntity
  8
0
  6
Continuous
 62
     7
370
    15
100
AcDbLine
 10
335.9676459499
 20
2434.8406604048
 30
0.0
 11
1075.9676459499
 21
2434.8406604048
 31
0.0
  0
LINE
  5
C0
330
1F
100
AcDbEntity
  8
0
  6
Continuous
 62
     7
370
    15
100
AcDbLine
 10
335.9676459499
 20
2437.8406604048
 30
0.0
 11
1075.9676459499
 21
2437.8406604048
 31
0.0
  0
LINE
  5
C1
330
1F
100
AcDbEntity
  8
0
  6
Continuous
 62
     7
370
    15
100
AcDbLine
 10
461.9676459499
 20
2391.3406604048
 30
0.0
 11
470.9676459499
 21
2391.3406604048
 31
0.0
  0
LINE
  5
C2
330
1F
100
AcDbEntity
  8
0
  6
Continuous
 62
     7
370
    15
100
AcDbLine
 10
461.9676459499
 20
2391.3406604048
 30
0.0
 11
461.9676459499
 21
2392.8406604048
 31
0.0
  0
LINE
  5
C3
330
1F
100
AcDbEntity
  8
0
  6
Continuous
 62
     7
370
    15
100
AcDbLine
 10
461.9676459499
 20
2392.8406604048
 30
0.0
 11
470.9676459499
 21
2392.8406604048
 31
0.0
  0
LINE
  5
C4
330
1F
100
AcDbEntity
  8
0
  6
Continuous
 62
     7
370
    15
100
AcDbLine
 10
399.9676459499
 20
2391.3406604048
 30
0.0
 11
399.9676459499
 21
2392.8406604048
 31
0.0
  0
LINE
  5
C5
330
1F
100
AcDbEntity
  8
0
  6
Continuous
 62
     7
370
    15
100
AcDbLine
 10
399.9676459499
 20
2391.3406604048
 30
0.0
 11
461.9676459499
 21
2391.3406604048
 31
0.0
  0
LINE
  5
C6
330
1F
100
AcDbEntity
  8
0
  6
Continuous
 62
     7
370
    15
100
AcDbLine
 10
399.9676459499
 20
2392.8406604048
 30
0.0
 11
461.9676459499
 21
2392.8406604048
 31
0.0
  0
LINE
  5
C7
330
1F
100
AcDbEntity
  8
0
  6
Continuous
 62
     7
370
    15
100
AcDbLine
 10
390.9676459499
 20
2391.3406604048
 30
0.0
 11
399.9676459499
 21
2391.3406604048
 31
0.0
  0
LINE
  5
C8
330
1F
100
AcDbEntity
  8
0
  6
Continuous
 62
     7
370
    15
100
AcDbLine
 10
390.9676459499
 20
2392.8406604048
 30
0.0
 11
399.9676459499
 21
2392.8406604048
 31
0.0
  0
LINE
  5
C9
330
1F
100
AcDbEntity
  8
0
  6
Continuous
 62
     7
370
    15
100
AcDbLine
 10
681.9676459499
 20
2382.7506604048
 30
0.0
 11
729.9676457867
 21
2382.7506604048
 31
0.0
  0
LINE
  5
CA
330
1F
100
AcDbEntity
  8
0
  6
Continuous
 62
     7
370
    15
100
AcDbLine
 10
1075.9676459499
 20
2493.8406604048
 30
0.0
 11
1079.4676459499
 21
2493.8406604048
 31
0.0
  0
ARC
  5
CB
330
1F
100
AcDbEntity
  8
0
  6
Continuous
 62
     7
370
    15
100
AcDbCircle
 10
1079.4676459499
 20
2492.3406604048
 30
0.0
 40
1.500000000000227
100
AcDbArc
 50
0.0
 51
90.0
  0
LINE
  5
CC
330
1F
100
AcDbEntity
  8
0
  6
Continuous
 62
     7
370
    15
100
AcDbLine
 10
1080.9676459499
 20
2492.3406604048
 30
0.0
 11
1080.9676459499
 21
2437.8406604048
 31
0.0
  0
LINE
  5
CD
330
1F
100
AcDbEntity
  8
0
  6
Continuous
 62
     7
370
    15
100
AcDbLine
 10
1080.9676459499
 20
2434.8406604048
 30
0.0
 11
1080.9676459499
 21
2398.8406604048
 31
0.0
  0
LINE
  5
CE
330
1F
100
AcDbEntity
  8
0
  6
Continuous
 62
     7
370
    15
100
AcDbLine
 10
1075.9676459499
 20
2393.8406604048
 30
0.0
 11
335.9676459499
 21
2393.8406604048
 31
0.0
  0
ARC
  5
CF
330
1F
100
AcDbEntity
  8
0
  6
Continuous
 62
     7
370
    15
100
AcDbCircle
 10
1075.9676459499
 20
2398.8406604048
 30
0.0
 40
5.0
100
AcDbArc
 50
270.0
 51
0.0
  0
LINE
  5
D0
330
1F
100
AcDbEntity
  8
0
  6
Continuous
 62
     7
370
    15
100
AcDbLine
 10
335.9676459499
 20
2493.8406604048
 30
0.0
 11
1075.9676459499
 21
2493.8406604048
 31
0.0
  0
ARC
  5
D1
330
1F
100
AcDbEntity
  8
0
  6
Continuous
 62
     7
370
    15
100
AcDbCircle
 10
332.4676459499
 20
2492.3406604048
 30
0.0
 40
1.5
100
AcDbArc
 50
90.0
 51
180.0
  0
LINE
  5
D2
330
1F
100
AcDbEntity
  8
0
  6
Continuous
 62
     7
370
    15
100
AcDbLine
 10
332.4676459499
 20
2493.8406604048
 30
0.0
 11
335.9676459499
 21
2493.8406604048
 31
0.0
  0
LINE
  5
D3
330
1F
100
AcDbEntity
  8
0
  6
Continuous
 62
     7
370
    15
100
AcDbLine
 10
330.9676459499
 20
2492.3406604048
 30
0.0
 11
330.9676459499
 21
2437.8406604048
 31
0.0
  0
LINE
  5
D4
330
1F
100
AcDbEntity
  8
0
  6
Continuous
 62
     7
370
    15
100
AcDbLine
 10
330.9676459499
 20
2434.8406604048
 30
0.0
 11
330.9676459499
 21
2398.8406604048
 31
0.0
  0
ARC
  5
D5
330
1F
100
AcDbEntity
  8
0
  6
Continuous
 62
     7
370
    15
100
AcDbCircle
 10
335.9676459499
 20
2398.8406604048
 30
0.0
 40
5.0
100
AcDbArc
 50
180.0
 51
270.0
  0
LINE
  5
D6
330
1F
100
AcDbEntity
  8
0
  6
Continuous
 62
     7
370
    15
100
AcDbLine
 10
741.7652687164
 20
2391.8406604048
 30
0.0
 11
1072.9676459499
 21
2393.8406604048
 31
0.0
  0
LINE
  5
D7
330
1F
100
AcDbEntity
  8
0
  6
Continuous
 62
     7
370
    15
100
AcDbLine
 10
338.9676459499
 20
2393.8406604048
 30
0.0
 11
670.1700231835
 21
2391.8406604048
 31
0.0
  0
DIMENSION
  5
D8
330
1F
100
AcDbEntity
  8
0
  6
Continuous
 62
     7
370
     0
100
AcDbDimension
  2
_D
 10
320.9676459499
 20
2199.6654009315
 30
0.0
 11
513.4676459499
 21
2199.6654009315
 31
0.0
 70
   160
  1
<>
 71
     2
 42
-1.0
  3
SLDDIMSTYLE0
100
AcDbAlignedDimension
 13
705.9676459499
 23
2393.8406604048
 33
0.0
 14
320.9676459499
 24
2434.8406604048
 34
0.0
100
AcDbRotatedDimension
  0
ARC
  5
E4
330
1F
100
AcDbEntity
  8
0
  6
Continuous
 62
     7
370
    15
100
AcDbCircle
 10
1528.1809908443
 20
2382.9912343509
 30
0.0
 40
8.910000000000446
100
AcDbArc
 50
52.1480946784
 51
83.3152054855
  0
ARC
  5
E5
330
1F
100
AcDbEntity
  8
0
  6
Continuous
 62
     7
370
    15
100
AcDbCircle
 10
1609.9553664288
 20
2382.9912343509
 30
0.0
 40
8.910000000000261
100
AcDbArc
 50
96.6847945145
 51
127.8519053216
  0
LINE
  5
E6
330
1F
100
AcDbEntity
  8
0
  6
Continuous
 62
     7
370
    15
100
AcDbLine
 10
1533.6483683734
 20
2390.0265653989
 30
0.0
 11
1541.3864429267
 21
2384.0130637395
 31
0.0
  0
LINE
  5
E7
330
1F
100
AcDbEntity
  8
0
  6
Continuous
 62
     7
370
    15
100
AcDbLine
 10
1596.7499143464
 20
2384.0130637395
 30
0.0
 11
1604.4879888997
 21
2390.0265653989
 31
0.0
  0
ARC
  5
E8
330
1F
100
AcDbEntity
  8
0
  6
Continuous
 62
     7
370
    15
100
AcDbCircle
 10
1545.0681786365
 20
2388.7506604048
 30
0.0
 40
6.0
100
AcDbArc
 50
232.1480946784
 51
270.0
  0
ARC
  5
E9
330
1F
100
AcDbEntity
  8
0
  6
Continuous
 62
     7
370
    15
100
AcDbCircle
 10
1593.0681786365
 20
2388.7506604048
 30
0.0
 40
6.0
100
AcDbArc
 50
270.0
 51
307.8519053216
  0
LINE
  5
EA
330
1F
100
AcDbEntity
  8
0
  6
Continuous
 62
     7
370
    15
100
AcDbLine
 10
1389.5703413048
 20
2393.8406294321
 30
0.0
 11
1459.3931786363
 21
2392.8406604048
 31
0.0
  0
LINE
  5
EB
330
1F
100
AcDbEntity
  8
0
  6
Continuous
 62
     7
370
    15
100
AcDbLine
 10
1464.5681786366
 20
2392.7665465488
 30
0.0
 11
1529.2181786365
 21
2391.8406604048
 31
0.0
  0
LINE
  5
EC
330
1F
100
AcDbEntity
  8
0
  6
Continuous
 62
     7
370
    15
100
AcDbLine
 10
1608.9181786365
 20
2391.8406604048
 30
0.0
 11
1673.5681786365
 21
2392.7665465488
 31
0.0
  0
LINE
  5
ED
330
1F
100
AcDbEntity
  8
0
  6
Continuous
 62
     7
370
    15
100
AcDbLine
 10
1678.7431786363
 20
2392.8406604048
 30
0.0
 11
1748.5660159683
 21
2393.8406294321
 31
0.0
  0
LINE
  5
EE
330
1F
100
AcDbEntity
  8
0
  6
Continuous
 62
     7
370
    15
100
AcDbLine
 10
1386.5681786365
 20
2437.8406604048
 30
0.0
 11
1386.5681786365
 21
2434.8406604048
 31
0.0
  0
LINE
  5
EF
330
1F
100
AcDbEntity
  8
0
  6
Continuous
 62
     7
370
    15
100
AcDbLine
 10
1371.5681786365
 20
2434.8406604048
 30
0.0
 11
1371.5681786365
 21
2437.8406604048
 31
0.0
  0
LINE
  5
F0
330
1F
100
AcDbEntity
  8
0
  6
Continuous
 62
     7
370
    15
100
AcDbLine
 10
1386.5681786365
 20
2434.8406604048
 30
0.0
 11
1371.5681786365
 21
2434.8406604048
 31
0.0
  0
LINE
  5
F1
330
1F
100
AcDbEntity
  8
0
  6
Continuous
 62
     7
370
    15
100
AcDbLine
 10
1371.5681786365
 20
2437.8406604048
 30
0.0
 11
1386.5681786365
 21
2437.8406604048
 31
0.0
  0
LINE
  5
F2
330
1F
100
AcDbEntity
  8
0
  6
Continuous
 62
     7
370
    15
100
AcDbLine
 10
1751.5681786365
 20
2434.8406604048
 30
0.0
 11
1751.5681786365
 21
2437.8406604048
 31
0.0
  0
LINE
  5
F3
330
1F
100
AcDbEntity
  8
0
  6
Continuous
 62
     7
370
    15
100
AcDbLine
 10
1386.5681786365
 20
2434.8406604048
 30
0.0
 11
1751.5681786365
 21
2434.8406604048
 31
0.0
  0
LINE
  5
F4
330
1F
100
AcDbEntity
  8
0
  6
Continuous
 62
     7
370
    15
100
AcDbLine
 10
1386.5681786365
 20
2437.8406604048
 30
0.0
 11
1751.5681786365
 21
2437.8406604048
 31
0.0
  0
LINE
  5
F5
330
1F
100
AcDbEntity
  8
0
  6
Continuous
 62
     7
370
    15
100
AcDbLine
 10
1766.5681786365
 20
2437.8406604048
 30
0.0
 11
1766.5681786365
 21
2434.8406604048
 31
0.0
  0
LINE
  5
F6
330
1F
100
AcDbEntity
  8
0
  6
Continuous
 62
     7
370
    15
100
AcDbLine
 10
1766.5681786365
 20
2434.8406604048
 30
0.0
 11
1751.5681786365
 21
2434.8406604048
 31
0.0
  0
LINE
  5
F7
330
1F
100
AcDbEntity
  8
0
  6
Continuous
 62
     7
370
    15
100
AcDbLine
 10
1751.5681786365
 20
2437.8406604048
 30
0.0
 11
1766.5681786365
 21
2437.8406604048
 31
0.0
  0
LINE
  5
F8
330
1F
100
AcDbEntity
  8
0
  6
Continuous
 62
     7
370
    15
100
AcDbLine
 10
1446.5681786366
 20
2392.8406604048
 30
0.0
 11
1446.5681786366
 21
2391.3406604048
 31
0.0
  0
LINE
  5
F9
330
1F
100
AcDbEntity
  8
0
  6
Continuous
 62
     7
370
    15
100
AcDbLine
 10
1464.5681786366
 20
2392.8406604048
 30
0.0
 11
1464.5681786366
 21
2391.3406604048
 31
0.0
  0
LINE
  5
FA
330
1F
100
AcDbEntity
  8
0
  6
Continuous
 62
     7
370
    15
100
AcDbLine
 10
1464.5681786366
 20
2391.3406604048
 30
0.0
 11
1446.5681786366
 21
2391.3406604048
 31
0.0
  0
LINE
  5
FB
330
1F
100
AcDbEntity
  8
0
  6
Continuous
 62
     7
370
    15
100
AcDbLine
 10
1464.5681786366
 20
2392.8406604048
 30
0.0
 11
1446.5681786366
 21
2392.8406604048
 31
0.0
  0
LINE
  5
FC
330
1F
100
AcDbEntity
  8
0
  6
Continuous
 62
     7
370
    15
100
AcDbLine
 10
1691.5681786365
 20
2391.3406604048
 30
0.0
 11
1691.5681786365
 21
2392.8406604048
 31
0.0
  0
LINE
  5
FD
330
1F
100
AcDbEntity
  8
0
  6
Continuous
 62
     7
370
    15
100
AcDbLine
 10
1673.5681786365
 20
2391.3406604048
 30
0.0
 11
1673.5681786365
 21
2392.8406604048
 31
0.0
  0
LINE
  5
FE
330
1F
100
AcDbEntity
  8
0
  6
Continuous
 62
     7
370
    15
100
AcDbLine
 10
1673.5681786365
 20
2392.8406604048
 30
0.0
 11
1691.5681786365
 21
2392.8406604048
 31
0.0
  0
LINE
  5
FF
330
1F
100
AcDbEntity
  8
0
  6
Continuous
 62
     7
370
    15
100
AcDbLine
 10
1673.5681786365
 20
2391.3406604048
 30
0.0
 11
1691.5681786365
 21
2391.3406604048
 31
0.0
  0
LINE
  5
100
330
1F
100
AcDbEntity
  8
0
  6
Continuous
 62
     7
370
    15
100
AcDbLine
 10
1569.0681786365
 20
2382.7506604048
 30
0.0
 11
1593.0681786365
 21
2382.7506604048
 31
0.0
  0
LINE
  5
101
330
1F
100
AcDbEntity
  8
0
  6
Continuous
 62
     7
370
    15
100
AcDbLine
 10
1545.0681786365
 20
2382.7506604048
 30
0.0
 11
1569.0681786365
 21
2382.7506604048
 31
0.0
  0
LINE
  5
102
330
1F
100
AcDbEntity
  8
0
  6
Continuous
 62
     7
370
    15
100
AcDbLine
 10
1751.5681786365
 20
2393.8406604048
 30
0.0
 11
1386.5681786365
 21
2393.8406604048
 31
0.0
  0
ARC
  5
103
330
1F
100
AcDbEntity
  8
0
  6
Continuous
 62
     7
370
    15
100
AcDbCircle
 10
1383.0681786365
 20
2492.3406604048
 30
0.0
 40
1.5
100
AcDbArc
 50
90.0
 51
180.0
  0
LINE
  5
104
330
1F
100
AcDbEntity
  8
0
  6
Continuous
 62
     7
370
    15
100
AcDbLine
 10
1383.0681786365
 20
2493.8406604048
 30
0.0
 11
1386.5681786365
 21
2493.8406604048
 31
0.0
  0
ARC
  5
105
330
1F
100
AcDbEntity
  8
0
  6
Continuous
 62
     7
370
    15
100
AcDbCircle
 10
1386.5681786365
 20
2398.8406604048
 30
0.0
 40
5.0
100
AcDbArc
 50
180.0
 51
270.0
  0
LINE
  5
106
330
1F
100
AcDbEntity
  8
0
  6
Continuous
 62
     7
370
    15
100
AcDbLine
 10
1381.5681786365
 20
2492.3406604048
 30
0.0
 11
1381.5681786365
 21
2437.8406604048
 31
0.0
  0
LINE
  5
107
330
1F
100
AcDbEntity
  8
0
  6
Continuous
 62
     7
370
    15
100
AcDbLine
 10
1381.5681786365
 20
2434.8406604048
 30
0.0
 11
1381.5681786365
 21
2398.8406604048
 31
0.0
  0
LINE
  5
108
330
1F
100
AcDbEntity
  8
0
  6
Continuous
 62
     7
370
    15
100
AcDbLine
 10
1386.5681786365
 20
2493.8406604048
 30
0.0
 11
1751.5681786365
 21
2493.8406604048
 31
0.0
  0
ARC
  5
109
330
1F
100
AcDbEntity
  8
0
  6
Continuous
 62
     7
370
    15
100
AcDbCircle
 10
1751.5681786365
 20
2398.8406604048
 30
0.0
 40
5.0
100
AcDbArc
 50
270.0
 51
0.0
  0
LINE
  5
10A
330
1F
100
AcDbEntity
  8
0
  6
Continuous
 62
     7
370
    15
100
AcDbLine
 10
1751.5681786365
 20
2493.8406604048
 30
0.0
 11
1755.0681786365
 21
2493.8406604048
 31
0.0
  0
ARC
  5
10B
330
1F
100
AcDbEntity
  8
0
  6
Continuous
 62
     7
370
    15
100
AcDbCircle
 10
1755.0681786365
 20
2492.3406604048
 30
0.0
 40
1.5
100
AcDbArc
 50
0.0
 51
90.0
  0
LINE
  5
10C
330
1F
100
AcDbEntity
  8
0
  6
Continuous
 62
     7
370
    15
100
AcDbLine
 10
1756.5681786365
 20
2492.3406604048
 30
0.0
 11
1756.5681786365
 21
2437.8406604048
 31
0.0
  0
LINE
  5
10D
330
1F
100
AcDbEntity
  8
0
  6
Continuous
 62
     7
370
    15
100
AcDbLine
 10
1756.5681786365
 20
2434.8406604048
 30
0.0
 11
1756.5681786365
 21
2398.8406604048
 31
0.0
  0
LINE
  5
10E
330
1F
100
AcDbEntity
  8
0
  6
Continuous
 62
     7
370
    15
100
AcDbLine
 10
1748.5681786365
 20
2393.8406604048
 30
0.0
 11
1748.5662358691
 21
2393.8406364188
 31
0.0
  0
LINE
  5
10F
330
1F
100
AcDbEntity
  8
0
  6
Continuous
 62
     7
370
    15
100
AcDbLine
 10
1551.5595320791
 20
2391.8406604048
 30
0.0
 11
1586.576825194
 21
2391.8406604048
 31
0.0
  0
LINE
  5
110
330
1F
100
AcDbEntity
  8
0
  6
Continuous
 62
     7
370
    15
100
AcDbLine
 10
1389.5681786365
 20
2393.8406604048
 30
0.0
 11
1389.570121404
 21
2393.8406364188
 31
0.0
  0
LINE
  5
111
330
1F
100
AcDbEntity
  8
0
  6
Continuous
 62
     7
370
    15
100
AcDbLine
 10
1529.218179247
 20
2391.8406604048
 30
0.0
 11
1551.5595320791
 21
2391.8406604048
 31
0.0
  0
LINE
  5
112
330
1F
100
AcDbEntity
  8
0
  6
Continuous
 62
     7
370
    15
100
AcDbLine
 10
1586.576825194
 20
2391.8406604048
 30
0.0
 11
1608.9181780261
 21
2391.8406604048
 31
0.0
  0
LINE
  5
113
330
1F
100
AcDbEntity
  8
0
  6
Continuous
 62
     8
370
    15
100
AcDbLine
 10
1748.5662358691
 20
2393.8406364188
 30
0.0
 11
1586.576825194
 21
2391.8406604048
 31
0.0
  0
LINE
  5
114
330
1F
100
AcDbEntity
  8
0
  6
Continuous
 62
     8
370
    15
100
AcDbLine
 10
1389.570121404
 20
2393.8406364188
 30
0.0
 11
1551.5595320791
 21
2391.8406604048
 31
0.0
  0
DIMENSION
  5
115
330
1F
100
AcDbEntity
  8
0
  6
Continuous
 62
     7
370
     0
100
AcDbDimension
  2
_D_1
 10
1931.5681786365
 20
2493.8406604048
 30
0.0
 11
1931.5681786365
 21
2438.2956604048
 31
0.0
 70
   160
  1
<>
 71
     2
 42
-1.0
  3
SLDDIMSTYLE1
100
AcDbAlignedDimension
 13
1593.0681786365
 23
2382.7506604048
 33
0.0
 14
1751.5681786365
 24
2493.8406604048
 34
0.0
 50
90.0
100
AcDbRotatedDimension
  0
DIMENSION
  5
11E
330
1F
100
AcDbEntity
  8
0
  6
Continuous
 62
     7
370
     0
100
AcDbDimension
  2
_D_2
 10
1866.5681786365
 20
2493.8406604048
 30
0.0
 11
1866.5681786365
 21
2465.8406604048
 31
0.0
 70
   160
  1
<>
 71
     2
 42
-1.0
  3
SLDDIMSTYLE0
100
AcDbAlignedDimension
 13
1766.5681786365
 23
2437.8406604048
 33
0.0
 14
1751.5681786365
 24
2493.8406604048
 34
0.0
 50
90.0
100
AcDbRotatedDimension
  0
DIMENSION
  5
126
330
1F
100
AcDbEntity
  8
0
  6
Continuous
 62
     7
370
     0
100
AcDbDimension
  2
_D_3
 10
1381.5681786365
 20
2199.6654009315
 30
0.0
 11
1475.3181786365
 21
2199.6654009315
 31
0.0
 70
   160
  1
<>
 71
     2
 42
-1.0
  3
SLDDIMSTYLE0
100
AcDbAlignedDimension
 13
1569.0681786365
 23
2386.3390068167
 33
0.0
 14
1381.5681786365
 24
2398.8406604048
 34
0.0
100
AcDbRotatedDimension
  0
CIRCLE
  5
12E
330
1F
100
AcDbEntity
  8
0
  6
Continuous
 62
     7
370
    15
100
AcDbCircle
 10
705.9676459499
 20
1704.3426302147
 30
0.0
 40
31.50000000000003
  0
LINE
  5
12F
330
1F
100
AcDbEntity
  8
0
  6
Continuous
 62
     7
370
    15
100
AcDbLine
 10
1090.9676459499
 20
1521.8426302147
 30
0.0
 11
1090.9676459499
 21
1886.8426302147
 31
0.0
  0
ARC
  5
130
330
1F
100
AcDbEntity
  8
0
  6
Continuous
 62
     7
370
    15
100
AcDbCircle
 10
1075.9676459499
 20
1521.8426302147
 30
0.0
 40
15.0
100
AcDbArc
 50
270.0
 51
0.0
  0
LINE
  5
131
330
1F
100
AcDbEntity
  8
0
  6
Continuous
 62
     7
370
    15
100
AcDbLine
 10
335.9676459499
 20
1506.8426302147
 30
0.0
 11
1075.9676459499
 21
1506.8426302147
 31
0.0
  0
ARC
  5
132
330
1F
100
AcDbEntity
  8
0
  6
Continuous
 62
     7
370
    15
100
AcDbCircle
 10
335.9676459499
 20
1521.8426302147
 30
0.0
 40
15.0
100
AcDbArc
 50
180.0
 51
270.0
  0
LINE
  5
133
330
1F
100
AcDbEntity
  8
0
  6
Continuous
 62
     7
370
    15
100
AcDbLine
 10
320.9676459499
 20
1886.8426302147
 30
0.0
 11
320.9676459499
 21
1521.8426302147
 31
0.0
  0
ARC
  5
134
330
1F
100
AcDbEntity
  8
0
  6
Continuous
 62
     7
370
    15
100
AcDbCircle
 10
335.9676459499
 20
1886.8426302147
 30
0.0
 40
15.0
100
AcDbArc
 50
90.0
 51
180.0
  0
LINE
  5
135
330
1F
100
AcDbEntity
  8
0
  6
Continuous
 62
     7
370
    15
100
AcDbLine
 10
1075.9676459499
 20
1901.8426302147
 30
0.0
 11
335.9676459499
 21
1901.8426302147
 31
0.0
  0
ARC
  5
136
330
1F
100
AcDbEntity
  8
0
  6
Continuous
 62
     7
370
    15
100
AcDbCircle
 10
1075.9676459499
 20
1886.8426302147
 30
0.0
 40
15.0
100
AcDbArc
 50
0.0
 51
90.0
  0
LWPOLYLINE
  5
137
330
1F
100
AcDbEntity
  8
0
  6
Continuous
 62
     7
370
    15
100
AcDbPolyline
 90
        3
 70
   128
 43
0.0
 10
669.173271301
 20
1689.039150408
 10
670.418718514
 20
1686.3344027018
 10
671.2620599554
 20
1684.7583303607
  0
LWPOLYLINE
  5
138
330
1F
100
AcDbEntity
  8
0
  6
Continuous
 62
     7
370
    15
100
AcDbPolyline
 90
        3
 70
   128
 43
0.0
 10
740.9693686148
 20
1685.2926456874
 10
742.3215876236
 20
1688.0204543553
 10
743.6218840497
 20
1691.297291847
  0
LWPOLYLINE
  5
139
330
1F
100
AcDbEntity
  8
0
  6
Continuous
 62
     7
370
    15
100
AcDbPolyline
 90
        3
 70
   128
 43
0.0
 10
742.146478635
 20
1721.0493523812
 10
740.6334148904
 20
1723.9973233887
 10
738.8002022893
 20
1726.9268225674
  0
LWPOLYLINE
  5
13A
330
1F
100
AcDbEntity
  8
0
  6
Continuous
 62
     7
370
    15
100
AcDbPolyline
 90
        3
 70
   128
 43
0.0
 10
670.3306787555
 20
1722.1759997557
 10
668.8886038921
 20
1718.9428747357
 10
667.9044358292
 20
1716.1415511527
  0
LWPOLYLINE
  5
13B
330
1F
100
AcDbEntity
  8
0
  6
Continuous
 62
     7
370
    15
100
AcDbPolyline
 90
        3
 70
   128
 43
0.0
 10
666.325370856
 20
1708.4061908918
 10
666.2927475664
 20
1708.0742435726
 10
666.1176459499
 20
1704.3426302147
  0
ARC
  5
13C
330
1F
100
AcDbEntity
  8
0
  6
Continuous
 62
     7
370
    15
100
AcDbCircle
 10
335.9676459499
 20
1886.8426302147
 30
0.0
 40
2.0
100
AcDbArc
 50
90.0
 51
180.0
  0
LINE
  5
13D
330
1F
100
AcDbEntity
  8
0
  6
Continuous
 62
     7
370
    15
100
AcDbLine
 10
335.9676459499
 20
1891.8426302147
 30
0.0
 11
1075.9676459499
 21
1891.8426302147
 31
0.0
  0
LINE
  5
13E
330
1F
100
AcDbEntity
  8
0
  6
Continuous
 62
     7
370
    15
100
AcDbLine
 10
1075.9676459499
 20
1888.8426302147
 30
0.0
 11
335.9676459499
 21
1888.8426302147
 31
0.0
  0
ARC
  5
13F
330
1F
100
AcDbEntity
  8
0
  6
Continuous
 62
     7
370
    15
100
AcDbCircle
 10
335.9676459499
 20
1886.8426302147
 30
0.0
 40
5.0
100
AcDbArc
 50
90.0
 51
180.0
  0
LINE
  5
140
330
1F
100
AcDbEntity
  8
0
  6
Continuous
 62
     7
370
    15
100
AcDbLine
 10
330.9676459499
 20
1521.8426302147
 30
0.0
 11
330.9676459499
 21
1886.8426302147
 31
0.0
  0
LINE
  5
141
330
1F
100
AcDbEntity
  8
0
  6
Continuous
 62
     7
370
    15
100
AcDbLine
 10
333.9676459499
 20
1886.8426302147
 30
0.0
 11
333.9676459499
 21
1521.8426302147
 31
0.0
  0
ARC
  5
142
330
1F
100
AcDbEntity
  8
0
  6
Continuous
 62
     7
370
    15
100
AcDbCircle
 10
1075.9676459499
 20
1886.8426302147
 30
0.0
 40
2.0
100
AcDbArc
 50
0.0
 51
90.0
  0
ARC
  5
143
330
1F
100
AcDbEntity
  8
0
  6
Continuous
 62
     7
370
    15
100
AcDbCircle
 10
1075.9676459499
 20
1886.8426302147
 30
0.0
 40
5.0
100
AcDbArc
 50
0.0
 51
90.0
  0
LINE
  5
144
330
1F
100
AcDbEntity
  8
0
  6
Continuous
 62
     7
370
    15
100
AcDbLine
 10
1080.9676459499
 20
1886.8426302147
 30
0.0
 11
1080.9676459499
 21
1521.8426302147
 31
0.0
  0
LINE
  5
145
330
1F
100
AcDbEntity
  8
0
  6
Continuous
 62
     7
370
    15
100
AcDbLine
 10
1077.9676459499
 20
1521.8426302147
 30
0.0
 11
1077.9676459499
 21
1886.8426302147
 31
0.0
  0
ARC
  5
146
330
1F
100
AcDbEntity
  8
0
  6
Continuous
 62
     7
370
    15
100
AcDbCircle
 10
335.9676459499
 20
1521.8426302147
 30
0.0
 40
2.0
100
AcDbArc
 50
180.0
 51
270.0
  0
LINE
  5
147
330
1F
100
AcDbEntity
  8
0
  6
Continuous
 62
     7
370
    15
100
AcDbLine
 10
335.9676459499
 20
1519.8426302147
 30
0.0
 11
1075.9676459499
 21
1519.8426302147
 31
0.0
  0
ARC
  5
148
330
1F
100
AcDbEntity
  8
0
  6
Continuous
 62
     7
370
    15
100
AcDbCircle
 10
335.9676459499
 20
1521.8426302147
 30
0.0
 40
5.0
100
AcDbArc
 50
180.0
 51
270.0
  0
LINE
  5
149
330
1F
100
AcDbEntity
  8
0
  6
Continuous
 62
     7
370
    15
100
AcDbLine
 10
1075.9676459499
 20
1516.8426302147
 30
0.0
 11
335.9676459499
 21
1516.8426302147
 31
0.0
  0
ARC
  5
14A
330
1F
100
AcDbEntity
  8
0
  6
Continuous
 62
     7
370
    15
100
AcDbCircle
 10
1075.9676459499
 20
1521.8426302147
 30
0.0
 40
2.0
100
AcDbArc
 50
270.0
 51
0.0
  0
ARC
  5
14B
330
1F
100
AcDbEntity
  8
0
  6
Continuous
 62
     7
370
    15
100
AcDbCircle
 10
1075.9676459499
 20
1521.8426302147
 30
0.0
 40
5.0
100
AcDbArc
 50
270.0
 51
0.0
  0
SPLINE
  5
14C
330
1F
100
AcDbEntity
  8
0
  6
Continuous
 62
     7
370
    15
100
AcDbSpline
210
0.0
220
0.0
230
1.0
 70
     8
 71
     3
 72
    23
 73
    19
 74
     0
 42
0.00000001
 43
0.00000001
 12
1.0
 22
0.0
 32
0.0
 13
1.0
 23
0.0
 33
0.0
 40
0.0
 40
0.0
 40
0.0
 40
0.0
 40
0.0625000000000001
 40
0.1249999999999999
 40
0.1874999999999998
 40
0.2500000000000001
 40
0.3124999999999998
 40
0.3750000000000001
 40
0.4375
 40
0.4999999999999999
 40
0.5625000000000002
 40
0.6250000000000001
 40
0.6874999999999999
 40
0.7500000000000001
 40
0.8125
 40
0.8749999999999999
 40
0.9375000000000001
 40
1.0
 40
1.0
 40
1.0
 40
1.0
 10
670.1700217301656
 20
1721.851273800646
 30
0.0
 10
671.0512342237517
 20
1723.482886050214
 30
0.0
 10
672.8136592109242
 20
1726.746110549349
 30
0.0
 10
676.2876555590426
 20
1731.114616582599
 30
0.0
 10
680.2882726381711
 20
1734.987483819782
 30
0.0
 10
684.8011007610588
 20
1738.258517971011
 30
0.0
 10
689.721514050903
 20
1740.872474058881
 30
0.0
 10
694.958475855617
 20
1742.776351616382
 30
0.0
 10
700.4090396899652
 20
1743.933763436757
 30
0.0
 10
705.9676459499434
 20
1744.322063603676
 30
0.0
 10
711.5262522099215
 20
1743.933763436757
 30
0.0
 10
716.9768160442696
 20
1742.776351616382
 30
0.0
 10
722.2137778489837
 20
1740.872474058881
 30
0.0
 10
727.134191138828
 20
1738.258517971011
 30
0.0
 10
731.6470192617157
 20
1734.987483819782
 30
0.0
 10
735.6476363408442
 20
1731.114616582599
 30
0.0
 10
739.1216326889626
 20
1726.746110549349
 30
0.0
 10
740.884057676135
 20
1723.482886050214
 30
0.0
 10
741.7652701697212
 20
1721.851273800646
 30
0.0
  0
DIMENSION
  5
14D
330
1F
100
AcDbEntity
  8
0
  6
Continuous
 62
     7
370
     0
100
AcDbDimension
  2
_D_4
 10
1080.9676459499
 20
1406.8426302147
 30
0.0
 11
705.9676459499
 21
1406.8426302147
 31
0.0
 70
   160
  1
<>
 71
     2
 42
-1.0
  3
SLDDIMSTYLE0
100
AcDbAlignedDimension
 13
330.9676459499
 23
1521.8426302147
 33
0.0
 14
1080.9676459499
 24
1521.8426302147
 34
0.0
100
AcDbRotatedDimension
  0
DIMENSION
  5
155
330
1F
100
AcDbEntity
  8
0
  6
Continuous
 62
     7
370
     0
100
AcDbDimension
  2
_D_5
 10
320.9676459499
 20
1346.8426302147
 30
0.0
 11
705.9676459499
 21
1346.8426302147
 31
0.0
 70
   160
  1
<>
 71
     2
 42
-1.0
  3
SLDDIMSTYLE0
100
AcDbAlignedDimension
 13
1090.9676459499
 23
1521.8426302147
 33
0.0
 14
320.9676459499
 24
1521.8426302147
 34
0.0
100
AcDbRotatedDimension
  0
DIMENSION
  5
15D
330
1F
100
AcDbEntity
  8
0
  6
Continuous
 62
     7
370
     0
100
AcDbDimension
  2
_D_6
 10
1190.9676459499
 20
1891.8426302147
 30
0.0
 11
1190.9676459499
 21
1704.3426302147
 31
0.0
 70
   160
  1
<>
 71
     2
 42
-1.0
  3
SLDDIMSTYLE0
100
AcDbAlignedDimension
 13
1075.9676459499
 23
1516.8426302147
 33
0.0
 14
1075.9676459499
 24
1891.8426302147
 34
0.0
 50
90.0
100
AcDbRotatedDimension
  0
DIMENSION
  5
165
330
1F
100
AcDbEntity
  8
0
  6
Continuous
 62
     7
370
     0
100
AcDbDimension
  2
_D_7
 10
1250.9676459499
 20
1506.8426302147
 30
0.0
 11
1250.9676459499
 21
1704.3426302147
 31
0.0
 70
   160
  1
<>
 71
     2
 42
-1.0
  3
SLDDIMSTYLE0
100
AcDbAlignedDimension
 13
1075.9676459499
 23
1901.8426302147
 33
0.0
 14
1075.9676459499
 24
1506.8426302147
 34
0.0
 50
90.0
100
AcDbRotatedDimension
  0
SPLINE
  5
16D
330
1F
100
AcDbEntity
  8
0
  6
Continuous
 62
     7
370
    15
100
AcDbSpline
210
0.0
220
0.0
230
1.0
 70
     8
 71
     3
 72
    34
 73
    30
 74
     0
 42
0.00000001
 43
0.00000001
 12
1.0
 22
0.0
 32
0.0
 13
1.0
 23
0.0
 33
0.0
 40
0.0
 40
0.0
 40
0.0
 40
0.0
 40
0.0132479957332332
 40
0.0512461057249313
 40
0.0895427238221622
 40
0.1280899592689329
 40
0.1668050081996054
 40
0.2056086275615857
 40
0.2444423503799266
 40
0.2832653753915313
 40
0.3220652667643075
 40
0.3608390119692977
 40
0.3995888668520565
 40
0.4383198254708017
 40
0.4770382167663402
 40
0.5157509901354499
 40
0.5544653869865506
 40
0.5931866799217496
 40
0.6319220296465653
 40
0.6706789049094123
 40
0.709464484218028
 40
0.7482850404674364
 40
0.7871446892605024
 40
0.8260430520862125
 40
0.8649712443931955
 40
0.9038969829462398
 40
0.9427625830472328
 40
0.981486116621338
 40
1.0
 40
1.0
 40
1.0
 40
1.0
 10
1612.933702069696
 20
943.9182386104401
 30
0.0
 10
1612.845423946982
 20
944.1304202520935
 30
0.0
 10
1612.503945122494
 20
944.9511846197765
 30
0.0
 10
1611.599628300142
 20
946.3182685103675
 30
0.0
 10
1610.231546050048
 20
948.0012736936502
 30
0.0
 10
1608.561903142845
 20
949.5899528905708
 30
0.0
 10
1606.633459774281
 20
951.0724756654993
 30
0.0
 10
1604.459721101825
 20
952.4314463939554
 30
0.0
 10
1602.066236945647
 20
953.6531443761079
 30
0.0
 10
1599.478048677488
 20
954.7255018533917
 30
0.0
 10
1596.722195992645
 20
955.638541917652
 30
0.0
 10
1593.826492742559
 20
956.3840262694107
 30
0.0
 10
1590.819872111183
 20
956.9552999060016
 30
0.0
 10
1587.732159282551
 20
957.3472776077073
 30
0.0
 10
1584.593875019474
 20
957.5564746785803
 30
0.0
 10
1581.435979720548
 20
957.5810369690522
 30
0.0
 10
1578.289652997035
 20
957.4207623634054
 30
0.0
 10
1575.185947479476
 20
957.0771110860569
 30
0.0
 10
1572.155476047286
 20
956.5531777118501
 30
0.0
 10
1569.228065551523
 20
955.8536179444247
 30
0.0
 10
1566.432557431553
 20
954.9845658474155
 30
0.0
 10
1563.796547030578
 20
953.9535489594945
 30
0.0
 10
1561.346397938831
 20
952.7693557672696
 30
0.0
 10
1559.10648757173
 20
951.4421190711504
 30
0.0
 10
1557.101832338652
 20
949.9829360220283
 30
0.0
 10
1555.348761396979
 20
948.4061598367813
 30
0.0
 10
1553.889230987706
 20
946.7225243517225
 30
0.0
 10
1552.872564920933
 20
945.2690332705754
 30
0.0
 10
1552.463673112081
 20
944.3575614508457
 30
0.0
 10
1552.331413907061
 20
944.0627388702364
 30
0.0
  0
LINE
  5
16E
330
1F
100
AcDbEntity
  8
0
  6
Continuous
 62
     7
370
    15
100
AcDbLine
 10
1551.0959978048
 20
938.9554182603
 30
0.0
 11
1551.0959978048
 21
935.5833118401
 31
0.0
  0
LINE
  5
16F
330
1F
100
AcDbEntity
  8
0
  6
Continuous
 62
     7
370
    15
100
AcDbLine
 10
1614.0959978048
 20
935.5833118401
 30
0.0
 11
1614.0959978048
 21
938.9554182603
 31
0.0
  0
LINE
  5
170
330
1F
100
AcDbEntity
  8
0
  6
Continuous
 62
     7
370
    15
100
AcDbLine
 10
1596.4082904675
 20
918.8049667154
 30
0.0
 11
1596.4082904675
 21
919.2401491637
 31
0.0
  0
SPLINE
  5
171
330
1F
100
AcDbEntity
  8
0
  6
Continuous
 62
     7
370
    15
100
AcDbSpline
210
0.0
220
0.0
230
1.0
 70
     8
 71
     3
 72
    11
 73
     7
 74
     0
 42
0.00000001
 43
0.00000001
 12
1.0
 22
0.0
 32
0.0
 13
1.0
 23
0.0
 33
0.0
 40
0.0
 40
0.0
 40
0.0
 40
0.0
 40
0.2497800973950057
 40
0.5896740493294594
 40
0.8996310445371534
 40
1.0
 40
1.0
 40
1.0
 40
1.0
 10
1593.628443496619
 20
917.4389881263261
 30
0.0
 10
1593.74938006718
 20
917.3357257989956
 30
0.0
 10
1594.034883828364
 20
917.0919469097437
 30
0.0
 10
1594.554876585474
 20
916.8839681860916
 30
0.0
 10
1595.066842984838
 20
916.8392007994
 30
0.0
 10
1595.305178292756
 20
916.960509981198
 30
0.0
 10
1595.363476983995
 20
916.990183161374
 30
0.0
  0
SPLINE
  5
172
330
1F
100
AcDbEntity
  8
0
  6
Continuous
 62
     7
370
    15
100
AcDbSpline
210
0.0
220
0.0
230
1.0
 70
     8
 71
     3
 72
    11
 73
     7
 74
     0
 42
0.00000001
 43
0.00000001
 12
1.0
 22
0.0
 32
0.0
 13
1.0
 23
0.0
 33
0.0
 40
0.0
 40
0.0
 40
0.0
 40
0.0
 40
0.1697132773532457
 40
0.4160630844849952
 40
0.6766303999373592
 40
1.0
 40
1.0
 40
1.0
 40
1.0
 10
1595.363476983995
 20
916.990183161374
 30
0.0
 10
1595.486114415157
 20
917.0356064745516
 30
0.0
 10
1595.786768015619
 20
917.1469646669275
 30
0.0
 10
1596.122159360354
 20
917.5543910248463
 30
0.0
 10
1596.36606249298
 20
918.1089010894808
 30
0.0
 10
1596.393240158734
 20
918.5568846624291
 30
0.0
 10
1596.408290467547
 20
918.8049667154213
 30
0.0
  0
SPLINE
  5
173
330
1F
100
AcDbEntity
  8
0
  6
Continuous
 62
     7
370
    15
100
AcDbSpline
210
0.0
220
0.0
230
1.0
 70
     8
 71
     3
 72
    11
 73
     7
 74
     0
 42
0.00000001
 43
0.00000001
 12
1.0
 22
0.0
 32
0.0
 13
1.0
 23
0.0
 33
0.0
 40
0.0
 40
0.0
 40
0.0
 40
0.0
 40
0.1766979802586362
 40
0.5642040461944189
 40
0.9464318827645626
 40
1.0
 40
1.0
 40
1.0
 40
1.0
 10
1562.121321638519
 20
921.4848267032929
 30
0.0
 10
1562.20165550547
 20
921.3979007497179
 30
0.0
 10
1562.458164904808
 20
921.120342541896
 30
0.0
 10
1563.091233349177
 20
920.9406059634234
 30
0.0
 10
1563.652447925133
 20
920.8908715575158
 30
0.0
 10
1563.946672560498
 20
920.9734859087114
 30
0.0
 10
1563.982838705739
 20
920.9836408796594
 30
0.0
  0
SPLINE
  5
174
330
1F
100
AcDbEntity
  8
0
  6
Continuous
 62
     7
370
    15
100
AcDbSpline
210
0.0
220
0.0
230
1.0
 70
     8
 71
     3
 72
     9
 73
     5
 74
     0
 42
0.00000001
 43
0.00000001
 12
1.0
 22
0.0
 32
0.0
 13
1.0
 23
0.0
 33
0.0
 40
0.0
 40
0.0
 40
0.0
 40
0.0
 40
0.4300344548531097
 40
1.0
 40
1.0
 40
1.0
 40
1.0
 10
1561.640997804799
 20
922.1402226264063
 30
0.0
 10
1561.679938986842
 20
922.0249644636475
 30
0.0
 10
1561.77049261947
 20
921.7569437005246
 30
0.0
 10
1561.993955497451
 20
921.5836169685638
 30
0.0
 10
1562.121321638519
 20
921.4848267032929
 30
0.0
  0
LINE
  5
175
330
1F
100
AcDbEntity
  8
0
  6
Continuous
 62
     7
370
    15
100
AcDbLine
 10
1612.6120081258
 20
928.4585074942
 30
0.0
 11
1612.5753981122
 21
929.0285191226
 31
0.0
  0
LINE
  5
176
330
1F
100
AcDbEntity
  8
0
  6
Continuous
 62
     7
370
    15
100
AcDbLine
 10
1552.6165974974
 20
929.0285191226
 30
0.0
 11
1552.5799874838
 21
928.4585074942
 31
0.0
  0
SPLINE
  5
177
330
1F
100
AcDbEntity
  8
0
  6
Continuous
 62
     7
370
    15
100
AcDbSpline
210
0.0
220
0.0
230
1.0
 70
     8
 71
     3
 72
    19
 73
    15
 74
     0
 42
0.00000001
 43
0.00000001
 12
1.0
 22
0.0
 32
0.0
 13
1.0
 23
0.0
 33
0.0
 40
0.0
 40
0.0
 40
0.0
 40
0.0
 40
0.1197200785694148
 40
0.1680023115439599
 40
0.2478263153120804
 40
0.3300937674180638
 40
0.417672389368133
 40
0.5082684117219635
 40
0.6009532489770897
 40
0.6950151133311381
 40
0.7900037148589104
 40
0.8856754084506776
 40
0.981991025167702
 40
1.0
 40
1.0
 40
1.0
 40
1.0
 10
1582.595997804798
 20
914.9920823866804
 30
0.0
 10
1581.693918000356
 20
915.0092226948998
 30
0.0
 10
1580.428036001661
 20
915.0332755641917
 30
0.0
 10
1578.581998725504
 20
915.192779327852
 30
0.0
 10
1577.032124335051
 20
915.3818824590556
 30
0.0
 10
1575.232340325879
 20
915.6937470873977
 30
0.0
 10
1573.411626834684
 20
916.1096948543278
 30
0.0
 10
1571.595996047762
 20
916.6380251500065
 30
0.0
 10
1569.835122653583
 20
917.2743457680954
 30
0.0
 10
1568.166300157603
 20
918.0132200579977
 30
0.0
 10
1566.613212089918
 20
918.844859248393
 30
0.0
 10
1565.220274666596
 20
919.7653957737338
 30
0.0
 10
1564.279825957711
 20
920.4759073671398
 30
0.0
 10
1563.866663413316
 20
920.8904596769119
 30
0.0
 10
1563.801580006825
 20
920.955762006115
 30
0.0
  0
SPLINE
  5
178
330
1F
100
AcDbEntity
  8
0
  6
Continuous
 62
     7
370
    15
100
AcDbSpline
210
0.0
220
0.0
230
1.0
 70
     8
 71
     3
 72
    11
 73
     7
 74
     0
 42
0.00000001
 43
0.00000001
 12
1.0
 22
0.0
 32
0.0
 13
1.0
 23
0.0
 33
0.0
 40
0.0
 40
0.0
 40
0.0
 40
0.0
 40
0.2093607406023162
 40
0.494466257326689
 40
0.7784434548350431
 40
1.0
 40
1.0
 40
1.0
 40
1.0
 10
1601.573156343364
 20
921.1370191146075
 30
0.0
 10
1601.278909953553
 20
920.8587489224414
 30
0.0
 10
1600.583961556431
 20
920.2015329608907
 30
0.0
 10
1599.229129100526
 20
919.2515078772017
 30
0.0
 10
1597.714176282474
 20
918.3497133842191
 30
0.0
 10
1596.61057103388
 20
917.853830925361
 30
0.0
 10
1596.126902100504
 20
917.6365041771771
 30
0.0
  0
SPLINE
  5
179
330
1F
100
AcDbEntity
  8
0
  6
Continuous
 62
     7
370
    15
100
AcDbSpline
210
0.0
220
0.0
230
1.0
 70
     8
 71
     3
 72
    14
 73
    10
 74
     0
 42
0.00000001
 43
0.00000001
 12
1.0
 22
0.0
 32
0.0
 13
1.0
 23
0.0
 33
0.0
 40
0.0
 40
0.0
 40
0.0
 40
0.0
 40
0.0635846361154224
 40
0.2478181660936141
 40
0.4245497170400925
 40
0.5904060637419947
 40
0.7094150689977247
 40
0.8371668374535975
 40
1.0
 40
1.0
 40
1.0
 40
1.0
 10
1594.442436160555
 20
916.9681481909921
 30
0.0
 10
1594.223141244413
 20
916.8837813133925
 30
0.0
 10
1593.368449493826
 20
916.5549653263384
 30
0.0
 10
1591.772890554646
 20
916.1089281825645
 30
0.0
 10
1589.7322496982
 20
915.6432866410978
 30
0.0
 10
1587.875943991882
 20
915.3419217365082
 30
0.0
 10
1586.186623198126
 20
915.1495043709268
 30
0.0
 10
1584.489456607493
 20
915.020333118075
 30
0.0
 10
1583.275983648726
 20
915.002227892567
 30
0.0
 10
1582.595997804798
 20
914.9920823866804
 30
0.0
  0
LINE
  5
17A
330
1F
100
AcDbEntity
  8
0
  6
Continuous
 62
     7
370
    15
100
AcDbLine
 10
1988.2724944104
 20
888.2400242907
 30
0.0
 11
1988.2724944104
 21
890.6896467263
 31
0.0
  0
LINE
  5
17B
330
1F
100
AcDbEntity
  8
0
  6
Continuous
 62
     7
370
    15
100
AcDbLine
 10
1176.9195011992
 20
1043.7661676931
 30
0.0
 11
1176.9195011992
 21
1041.3165452574
 31
0.0
  0
LINE
  5
17C
330
1F
100
AcDbEntity
  8
0
  6
Continuous
 62
     7
370
    15
100
AcDbLine
 10
1622.4456255885
 20
929.7664600205
 30
0.0
 11
1622.4272858916
 21
932.2159909217
 31
0.0
  0
LINE
  5
17D
330
1F
100
AcDbEntity
  8
0
  6
Continuous
 62
     7
370
    15
100
AcDbLine
 10
1542.764709718
 20
932.2159909217
 30
0.0
 11
1542.7626100598
 21
931.935551309
 31
0.0
  0
SPLINE
  5
17E
330
1F
100
AcDbEntity
  8
0
  6
Continuous
 62
     7
370
    15
100
AcDbSpline
210
0.0
220
0.0
230
1.0
 70
     8
 71
     3
 72
    13
 73
     9
 74
     0
 42
0.00000001
 43
0.00000001
 12
1.0
 22
0.0
 32
0.0
 13
1.0
 23
0.0
 33
0.0
 40
0.0
 40
0.0
 40
0.0
 40
0.0
 40
0.0981565717297586
 40
0.2675453475104976
 40
0.4523308655783414
 40
0.6475423068450671
 40
0.8431981802697129
 40
1.0
 40
1.0
 40
1.0
 40
1.0
 10
1716.903453961952
 20
786.0669996643516
 30
0.0
 10
1716.825636218005
 20
786.0259460221599
 30
0.0
 10
1716.613528409227
 20
785.9140461180253
 30
0.0
 10
1716.095490953673
 20
785.7519077554167
 30
0.0
 10
1715.364250828884
 20
785.6576170692858
 30
0.0
 10
1714.573153251845
 20
785.692913818099
 30
0.0
 10
1713.880761253376
 20
785.8530916388457
 30
0.0
 10
1713.585112970689
 20
786.0011370406684
 30
0.0
 10
1713.4535845926
 20
786.0669996643516
 30
0.0
  0
LINE
  5
17F
330
1F
100
AcDbEntity
  8
0
  6
Continuous
 62
     7
370
    15
100
AcDbLine
 10
1713.4535845926
 20
786.0669996644
 30
0.0
 11
1190.1945665146
 21
1088.1380010388
 31
0.0
  0
LINE
  5
180
330
1F
100
AcDbEntity
  8
0
  6
Continuous
 62
     7
370
    15
100
AcDbLine
 10
1974.997429095
 20
935.061480072
 30
0.0
 11
1716.903453962
 21
786.0669996644
 31
0.0
  0
ARC
  5
181
330
1F
100
AcDbEntity
  8
0
  6
Continuous
 62
     7
370
    15
100
AcDbCircle
 10
1715.1785192773
 20
709.8500746552
 30
0.0
 40
5.000000000000079
100
AcDbArc
 50
240.0026882663
 51
299.9973117337
  0
LINE
  5
182
330
1F
100
AcDbEntity
  8
0
  6
Continuous
 62
     7
370
    15
100
AcDbLine
 10
1717.6783161089
 20
705.5198303432
 30
0.0
 11
1975.772291242
 21
854.5143107509
 31
0.0
  0
LINE
  5
183
330
1F
100
AcDbEntity
  8
0
  6
Continuous
 62
     7
370
    15
100
AcDbLine
 10
1189.4197043676
 20
1007.5908317177
 30
0.0
 11
1712.6787224457
 21
705.5198303432
 31
0.0
  0
SPLINE
  5
184
330
1F
100
AcDbEntity
  8
0
  6
Continuous
 62
     7
370
    15
100
AcDbSpline
210
0.0
220
0.0
230
1.0
 70
     8
 71
     3
 72
    12
 73
     8
 74
     0
 42
0.00000001
 43
0.00000001
 12
1.0
 22
0.0
 32
0.0
 13
1.0
 23
0.0
 33
0.0
 40
0.0
 40
0.0
 40
0.0
 40
0.0
 40
0.0027392109206222
 40
0.2750580318981564
 40
0.5371281705304949
 40
0.8061967412621854
 40
1.0
 40
1.0
 40
1.0
 40
1.0
 10
1978.270949645647
 20
935.1731544562143
 30
0.0
 10
1978.271464372845
 20
935.1761961039091
 30
0.0
 10
1978.323150735883
 20
935.4816233429634
 30
0.0
 10
1978.146993582324
 20
936.0982728574419
 30
0.0
 10
1977.736103225104
 20
936.8990247550773
 30
0.0
 10
1977.151839492531
 20
937.502025380037
 30
0.0
 10
1976.69047805533
 20
937.7958745589154
 30
0.0
 10
1976.497307193997
 20
937.9189084633753
 30
0.0
  0
LINE
  5
185
330
1F
100
AcDbEntity
  8
0
  6
Continuous
 62
     7
370
    15
100
AcDbLine
 10
1978.2724944104
 20
858.8445550628
 30
0.0
 11
1978.2724944104
 21
878.8803411738
 31
0.0
  0
LINE
  5
186
330
1F
100
AcDbEntity
  8
0
  6
Continuous
 62
     7
370
    15
100
AcDbLine
 10
1978.2724944104
 20
890.6896467263
 30
0.0
 11
1978.2724944104
 21
935.1911209741
 31
0.0
  0
SPLINE
  5
187
330
1F
100
AcDbEntity
  8
0
  6
Continuous
 62
     7
370
    15
100
AcDbSpline
210
0.0
220
0.0
230
1.0
 70
     8
 71
     3
 72
    10
 73
     6
 74
     0
 42
0.00000001
 43
0.00000001
 12
1.0
 22
0.0
 32
0.0
 13
1.0
 23
0.0
 33
0.0
 40
0.0
 40
0.0
 40
0.0
 40
0.0
 40
0.4146642682515932
 40
0.9211155683067862
 40
1.0
 40
1.0
 40
1.0
 40
1.0
 10
1975.277737209738
 20
935.2785216279857
 30
0.0
 10
1975.2791986413
 20
935.2785350513055
 30
0.0
 10
1975.282444996163
 20
935.2785648692327
 30
0.0
 10
1975.138878779945
 20
935.1448237849539
 30
0.0
 10
1975.014228009952
 20
935.0713781777653
 30
0.0
 10
1974.997429095043
 20
935.0614800719959
 30
0.0
  0
LINE
  5
188
330
1F
100
AcDbEntity
  8
0
  6
Continuous
 62
     7
370
    15
100
AcDbLine
 10
1976.497307194
 20
937.9189084634
 30
0.0
 11
1453.238289116
 21
1239.9899098378
 31
0.0
  0
ARC
  5
189
330
1F
100
AcDbEntity
  8
0
  6
Continuous
 62
     7
370
    15
100
AcDbCircle
 10
1973.2724944104
 20
858.8445550628
 30
0.0
 40
5.000000000000162
100
AcDbArc
 50
299.9973117337
 51
0.0
  0
SPLINE
  5
18A
330
1F
100
AcDbEntity
  8
0
  6
Continuous
 62
     7
370
    15
100
AcDbSpline
210
0.0
220
0.0
230
1.0
 70
     8
 71
     3
 72
    11
 73
     7
 74
     0
 42
0.00000001
 43
0.00000001
 12
1.0
 22
0.0
 32
0.0
 13
1.0
 23
0.0
 33
0.0
 40
0.0
 40
0.0
 40
0.0
 40
0.0
 40
0.1857766841514911
 40
0.473596720664555
 40
0.7420098987571988
 40
1.0
 40
1.0
 40
1.0
 40
1.0
 10
1188.694688415602
 20
1090.995429430134
 30
0.0
 10
1188.510774494679
 20
1090.879055980351
 30
0.0
 10
1188.041926478408
 20
1090.582387512825
 30
0.0
 10
1187.459688447691
 20
1089.973371570684
 30
0.0
 10
1187.008968590677
 20
1089.163304849295
 30
0.0
 10
1186.94996406542
 20
1088.574286290914
 30
0.0
 10
1186.921045963951
 20
1088.285608458773
 30
0.0
  0
LINE
  5
18B
330
1F
100
AcDbEntity
  8
0
  6
Continuous
 62
     7
370
    15
100
AcDbLine
 10
1186.9195011992
 20
1088.2676419409
 30
0.0
 11
1186.9195011992
 21
1043.7661676931
 31
0.0
  0
LINE
  5
18C
330
1F
100
AcDbEntity
  8
0
  6
Continuous
 62
     7
370
    15
100
AcDbLine
 10
1186.9195011992
 20
1031.9568621405
 30
0.0
 11
1186.9195011992
 21
1011.9210760296
 31
0.0
  0
SPLINE
  5
18D
330
1F
100
AcDbEntity
  8
0
  6
Continuous
 62
     7
370
    15
100
AcDbSpline
210
0.0
220
0.0
230
1.0
 70
     8
 71
     3
 72
    10
 73
     6
 74
     0
 42
0.00000001
 43
0.00000001
 12
1.0
 22
0.0
 32
0.0
 13
1.0
 23
0.0
 33
0.0
 40
0.0
 40
0.0
 40
0.0
 40
0.0
 40
0.3196629088320442
 40
0.8517288669729745
 40
1.0
 40
1.0
 40
1.0
 40
1.0
 10
1190.194566514556
 20
1088.138001038755
 30
0.0
 10
1190.132045072323
 20
1088.17705360319
 30
0.0
 10
1189.96545922303
 20
1088.281107578611
 30
0.0
 10
1189.89410526811
 20
1088.39176337608
 30
0.0
 10
1189.90297775013
 20
1088.366810592407
 30
0.0
 10
1189.904911398875
 20
1088.361372438945
 30
0.0
  0
LINE
  5
18E
330
1F
100
AcDbEntity
  8
0
  6
Continuous
 62
     7
370
    15
100
AcDbLine
 10
1446.7886635487
 20
1239.9899098378
 30
0.0
 11
1188.6946884156
 21
1090.9954294301
 31
0.0
  0
ARC
  5
18F
330
1F
100
AcDbEntity
  8
0
  6
Continuous
 62
     7
370
    15
100
AcDbCircle
 10
1191.9195011992
 20
1011.9210760296
 30
0.0
 40
5.000000000000064
100
AcDbArc
 50
180.0
 51
240.0026882664
  0
SPLINE
  5
190
330
1F
100
AcDbEntity
  8
0
  6
Continuous
 62
     7
370
    15
100
AcDbSpline
210
0.0
220
0.0
230
1.0
 70
     8
 71
     3
 72
    13
 73
     9
 74
     0
 42
0.00000001
 43
0.00000001
 12
1.0
 22
0.0
 32
0.0
 13
1.0
 23
0.0
 33
0.0
 40
0.0
 40
0.0
 40
0.0
 40
0.0
 40
0.1022945132382428
 40
0.282804955956267
 40
0.4629628570841769
 40
0.6433443921291444
 40
0.8258794196417075
 40
1.0
 40
1.0
 40
1.0
 40
1.0
 10
1453.238289115952
 20
1239.989909837778
 30
0.0
 10
1453.047224751139
 20
1240.090336177555
 30
0.0
 10
1452.519005323084
 20
1240.367976352951
 30
0.0
 10
1451.52282789741
 20
1240.663141871742
 30
0.0
 10
1450.274731890125
 20
1240.814315294198
 30
0.0
 10
1449.005877812153
 20
1240.74848600986
 30
0.0
 10
1447.801877647112
 20
1240.49049755018
 30
0.0
 10
1447.121047387223
 20
1240.15412711982
 30
0.0
 10
1446.788663548693
 20
1239.989909837778
 30
0.0
  0
LWPOLYLINE
  5
191
330
1F
100
AcDbEntity
  8
0
  6
Continuous
 62
     7
370
    15
100
AcDbPolyline
 90
       59
 70
   128
 43
0.0
 10
1556.7339405622
 20
930.2833226607
 10
1558.6612278288
 20
928.7247003798
 10
1560.8691283896
 20
927.2955079491
 10
1563.3317566292
 20
926.012501343
 10
1566.0202404832
 20
924.8907226409
 10
1568.9030599364
 20
923.9433236725
 10
1571.9464165665
 20
923.1814118245
 10
1575.1146297997
 20
922.6139198166
 10
1578.3705552324
 20
922.2475009738
 10
1581.6760201159
 20
922.086451222
 10
1584.9922708967
 20
922.1326587223
 10
1588.2804275664
 20
922.385581734
 10
1591.5019394945
 20
922.842254966
 10
1594.6190373991
 20
923.4973243423
 10
1597.5951761572
 20
924.3431097733
 10
1600.3954632629
 20
925.3696951981
 10
1602.9870679104
 20
926.5650448413
 10
1605.3396059047
 20
927.9151443212
 10
1607.4254958886
 20
929.4041649558
 10
1609.2202827093
 20
931.0146493397
 10
1610.7029241324
 20
932.7277160158
 10
1611.8560375426
 20
934.5232808438
 10
1612.6661037397
 20
936.3802924676
 10
1613.123625438
 20
938.2769791238
 10
1613.223238614
 20
940.1911038957
 10
1612.9637753943
 20
942.1002254202
 10
1612.3482777478
 20
943.9819609932
 10
1611.3839618218
 20
945.8142489854
 10
1610.0821333388
 20
947.5756074955
 10
1608.4580550474
 20
949.2453862053
 10
1606.5307677808
 20
950.8040084862
 10
1604.32286722
 20
952.233200917
 10
1601.8602389804
 20
953.5162075231
 10
1599.1717551264
 20
954.6379862251
 10
1596.2889356732
 20
955.5853851935
 10
1593.2455790431
 20
956.3472970416
 10
1590.0773658099
 20
956.9147890494
 10
1586.8214403772
 20
957.2812078922
 10
1583.5159754937
 20
957.442257644
 10
1580.1997247129
 20
957.3960501437
 10
1576.9115680432
 20
957.143127132
 10
1573.6900561151
 20
956.6864539
 10
1570.5729582105
 20
956.0313845238
 10
1567.5968194524
 20
955.1855990928
 10
1564.7965323467
 20
954.159013668
 10
1562.2049276992
 20
952.9636640248
 10
1559.8523897049
 20
951.6135645448
 10
1557.766499721
 20
950.1245439102
 10
1555.9717129003
 20
948.5140595263
 10
1554.4890714772
 20
946.8009928502
 10
1553.335958067
 20
945.0054280223
 10
1552.5258918699
 20
943.1484163985
 10
1552.0683701716
 20
941.2517297422
 10
1551.9687569956
 20
939.3376049704
 10
1552.2282202153
 20
937.4284834458
 10
1552.8437178618
 20
935.5467478728
 10
1553.8080337878
 20
933.7144598806
 10
1555.1098622708
 20
931.9531013705
 10
1556.7339405622
 20
930.2833226607
  0
ARC
  5
192
330
1F
100
AcDbEntity
  8
0
  6
Continuous
 62
     7
370
    15
100
AcDbCircle
 10
1603.0804472035
 20
938.9553040604
 30
0.0
 40
10.99993206965385
100
AcDbArc
 50
334.6461056868
 51
25.2875297363
  0
ARC
  5
193
330
1F
100
AcDbEntity
  8
0
  6
Continuous
 62
     7
370
    15
100
AcDbCircle
 10
1562.1216985157
 20
938.957129243
 30
0.0
 40
11.00956662364217
100
AcDbArc
 50
153.9285969477
 51
205.1054764212
  0
LWPOLYLINE
  5
194
330
1F
100
AcDbEntity
  8
0
  6
Continuous
 62
     7
370
    15
100
AcDbPolyline
 90
       26
 70
   128
 43
0.0
 10
1556.0047153416
 20
925.8349460571
 10
1557.9502846316
 20
924.2584802662
 10
1560.1750996998
 20
922.8103293422
 10
1562.6539525025
 20
921.5069014138
 10
1565.3587566469
 20
920.3629648401
 10
1568.2588656213
 20
919.3914808797
 10
1571.3214200321
 20
918.6034568339
 10
1574.5117199142
 20
918.0078213302
 10
1577.7936178951
 20
917.6113231568
 10
1581.1299287594
 20
917.4184547964
 10
1584.4828507717
 20
917.4314015247
 10
1587.8143939859
 20
917.6500166499
 10
1591.0868106863
 20
918.0718231754
 10
1594.2630230839
 20
918.6920418647
 10
1597.3070434233
 20
919.5036453923
 10
1600.1843817375
 20
920.4974379658
 10
1602.8624366338
 20
921.6621595183
 10
1605.3108646802
 20
922.9846132893
 10
1607.5019242084
 20
924.449815349
 10
1609.4107896386
 20
926.0411643726
 10
1611.0158327626
 20
927.7406297399
 10
1612.2988678006
 20
929.5289558292
 10
1613.2453574529
 20
931.3858801913
 10
1613.8445776135
 20
933.2903631312
 10
1614.0897388785
 20
935.2208260962
 10
1614.0959978048
 20
935.5833118401
  0
ARC
  5
195
330
1F
100
AcDbEntity
  8
0
  6
Continuous
 62
     7
370
    15
100
AcDbCircle
 10
1564.3397712755
 20
936.142058974
 30
0.0
 40
13.25555483947297
100
AcDbArc
 50
182.4158430825
 51
231.0385612964
  0
LINE
  5
196
330
1F
100
AcDbEntity
  8
0
  6
Continuous
 62
     7
370
    15
100
AcDbLine
 10
1593.4797187511
 20
917.0316596347
 30
0.0
 11
1593.4797187511
 21
917.848306968
 31
0.0
  0
SPLINE
  5
197
330
1F
100
AcDbEntity
  8
0
  6
Continuous
 62
     7
370
    15
100
AcDbSpline
210
0.0
220
0.0
230
1.0
 70
     8
 71
     3
 72
    10
 73
     6
 74
     0
 42
0.00000001
 43
0.00000001
 12
1.0
 22
0.0
 32
0.0
 13
1.0
 23
0.0
 33
0.0
 40
0.0
 40
0.0
 40
0.0
 40
0.0
 40
0.1319381253061496
 40
0.655090580613069
 40
1.0
 40
1.0
 40
1.0
 40
1.0
 10
1593.660405322684
 20
917.4238663759002
 30
0.0
 10
1593.643650152407
 20
917.4349594084647
 30
0.0
 10
1593.560458472977
 20
917.4900378107583
 30
0.0
 10
1593.496680097968
 20
917.6433651319057
 30
0.0
 10
1593.484541724507
 20
917.7900315825785
 30
0.0
 10
1593.479718751094
 20
917.8483069680317
 30
0.0
  0
ARC
  5
198
330
1F
100
AcDbEntity
  8
0
  6
Continuous
 62
     7
370
    15
100
AcDbCircle
 10
1588.1284476041
 20
936.1788718962
 30
0.0
 40
19.80136129586644
100
AcDbArc
 50
294.8075443678
 51
307.7626189018
  0
LWPOLYLINE
  5
199
330
1F
100
AcDbEntity
  8
0
  6
Continuous
 62
     7
370
    15
100
AcDbPolyline
 90
       12
 70
   128
 43
0.0
 10
1564.9373644861
 20
920.5248122814
 10
1566.511807063
 20
919.4222468157
 10
1568.6500316783
 20
918.2546845713
 10
1571.0401419323
 20
917.2631824402
 10
1573.6389687505
 20
916.465648479
 10
1576.3995733161
 20
915.8764873798
 10
1579.2720948565
 20
915.5063403
 10
1582.2046512062
 20
915.3618926663
 10
1585.1442758785
 20
915.4457534255
 10
1588.037874722
 20
915.7564079231
 10
1590.8331848825
 20
916.2882452601
 10
1593.4797187511
 20
917.0316596347
  0
LINE
  5
19A
330
1F
100
AcDbEntity
  8
0
  6
Continuous
 62
     7
370
    15
100
AcDbLine
 10
1592.1363748825
 20
918.252838532
 30
0.0
 11
1593.4797187511
 21
917.0316596347
 31
0.0
  0
ARC
  5
19B
330
1F
100
AcDbEntity
  8
0
  6
Continuous
 62
     7
370
    15
100
AcDbCircle
 10
1595.4193327062
 20
919.6877184779
 30
0.0
 40
1.467235961400551
100
AcDbArc
 50
234.3472411756
 51
290.9676538313
  0
LWPOLYLINE
  5
19C
330
1F
100
AcDbEntity
  8
0
  6
Continuous
 62
     7
370
    15
100
AcDbPolyline
 90
        9
 70
   128
 43
0.0
 10
1593.4797187511
 20
917.848306968
 10
1593.6906125648
 20
917.6847606873
 10
1593.893761383
 20
917.59082407
 10
1594.0812447369
 20
917.5701595644
 10
1594.2457529308
 20
917.6235728488
 10
1594.3808720359
 20
917.7489814189
 10
1594.4813339603
 20
917.9414957821
 10
1594.5432218438
 20
918.1936100911
 10
1594.5641227703
 20
918.4954947858
  0
ARC
  5
19D
330
1F
100
AcDbEntity
  8
0
  6
Continuous
 62
     7
370
    15
100
AcDbCircle
 10
1586.2050142162
 20
946.9164256739
 30
0.0
 40
35.97723840472106
100
AcDbArc
 50
285.6866986366
 51
299.3428564339
  0
LWPOLYLINE
  5
19E
330
1F
100
AcDbEntity
  8
0
  6
Continuous
 62
     7
370
    15
100
AcDbPolyline
 90
       13
 70
   128
 43
0.0
 10
1569.2595655009
 20
912.2791760243
 10
1567.8131184384
 20
912.7216907909
 10
1565.0727876724
 20
913.7328594479
 10
1562.5379005235
 20
914.9091404752
 10
1560.238176226
 20
916.2367430534
 10
1558.2005769445
 20
917.7001022559
 10
1556.4489916676
 20
919.2820615342
 10
1555.0039561313
 20
920.9640738621
 10
1553.882412056
 20
922.7264191829
 10
1553.0975085205
 20
924.548435609
 10
1552.6584478011
 20
926.4087616639
 10
1552.5703774834
 20
928.2855867252
 10
1552.5799874838
 20
928.4585074942
  0
LWPOLYLINE
  5
19F
330
1F
100
AcDbEntity
  8
0
  6
Continuous
 62
     7
370
    15
100
AcDbPolyline
 90
        9
 70
   128
 43
0.0
 10
1612.6120081258
 20
928.4585074942
 10
1612.6216181262
 20
927.3464855582
 10
1612.3576654984
 20
925.4751655481
 10
1611.7447845282
 20
923.6312901054
 10
1610.7901606847
 20
921.8364769839
 10
1609.5049860596
 20
920.1117687263
 10
1607.9043281503
 20
918.4773859601
 10
1606.0069532073
 20
916.9524903288
 10
1603.8351062171
 20
915.5549598396
  0
LWPOLYLINE
  5
1A0
330
1F
100
AcDbEntity
  8
0
  6
Continuous
 62
     7
370
    15
100
AcDbPolyline
 90
       33
 70
   128
 43
0.0
 10
1612.4888757746
 20
929.849073543
 10
1612.4970334916
 20
929.7923894307
 10
1612.5849963915
 20
927.9178535007
 10
1612.3213657022
 20
926.0488159076
 10
1611.7092322524
 20
924.2071894082
 10
1610.7557727472
 20
922.4145653895
 10
1609.4721656276
 20
920.691960729
 10
1607.8734600133
 20
919.0595713915
 10
1605.9783992661
 20
917.5365356493
 10
1603.8092012404
 20
916.1407097041
 10
1601.3912977999
 20
914.8884583388
 10
1598.7530366516
 20
913.7944630558
 10
1595.9253489954
 20
912.8715499494
 10
1592.9413868836
 20
912.1305393321
 10
1589.8361345438
 20
911.5801188758
 10
1586.6459982204
 20
911.2267417571
 10
1583.4083793451
 20
911.0745509996
 10
1580.161236039
 20
911.1253309008
 10
1576.9426380884
 20
911.3784861128
 10
1573.7903206117
 20
911.8310486223
 10
1570.7412416489
 20
912.4777125474
 10
1567.8311488631
 20
913.3108963451
 10
1565.0941604316
 20
914.320831697
 10
1562.5623650411
 20
915.4956780345
 10
1560.2654456779
 20
916.8216613586
 10
1558.2303316214
 20
918.283235727
 10
1556.4808827231
 20
919.8632655166
 10
1555.0376096719
 20
921.5432263229
 10
1553.9174335246
 20
923.3034221413
 10
1553.1334873225
 20
925.1232162852
 10
1552.694962118
 20
926.9812733322
 10
1552.6069992181
 20
928.8558092622
 10
1552.703119835
 20
929.849073543
  0
LINE
  5
1A1
330
1F
100
AcDbEntity
  8
0
  6
Continuous
 62
     7
370
    15
100
AcDbLine
 10
1725.7851209951
 20
735.57210548
 30
0.0
 11
1725.7851209951
 21
733.1224830444
 31
0.0
  0
ARC
  5
1A2
330
1F
100
AcDbEntity
  8
0
  6
Continuous
 62
     7
370
    15
100
AcDbCircle
 10
1715.1785192773
 20
753.4033157845
 30
0.0
 40
22.88694336589684
100
AcDbArc
 50
242.3910402158
 51
297.6089597842
  0
LINE
  5
1A3
330
1F
100
AcDbEntity
  8
0
  6
Continuous
 62
     7
370
    15
100
AcDbLine
 10
1704.5719175595
 20
733.1224830444
 30
0.0
 11
1704.5719175595
 21
735.57210548
 31
0.0
  0
ARC
  5
1A4
330
1F
100
AcDbEntity
  8
0
  6
Continuous
 62
     7
370
    15
100
AcDbCircle
 10
1715.1785192773
 20
755.8529382202
 30
0.0
 40
22.88694336589543
100
AcDbArc
 50
242.3910402158
 51
297.6089597842
  0
ARC
  5
1A5
330
1F
100
AcDbEntity
  8
0
  6
Continuous
 62
     7
370
    15
100
AcDbCircle
 10
1189.4217865117
 20
1044.0156995776
 30
0.0
 40
2.5146963924694
100
AcDbArc
 50
185.6947992512
 51
245.6253417064
  0
LINE
  5
1A6
330
1F
100
AcDbEntity
  8
0
  6
Continuous
 62
     7
370
    15
100
AcDbLine
 10
1188.3839672933
 20
1041.7251474135
 30
0.0
 11
1711.6429853713
 21
739.6541460391
 31
0.0
  0
ARC
  5
1A7
330
1F
100
AcDbEntity
  8
0
  6
Continuous
 62
     7
370
    15
100
AcDbCircle
 10
1715.1785192773
 20
746.4777014639
 30
0.0
 40
7.685109539558606
100
AcDbArc
 50
242.6096722366
 51
297.3903277634
  0
LINE
  5
1A8
330
1F
100
AcDbEntity
  8
0
  6
Continuous
 62
     7
370
    15
100
AcDbLine
 10
1718.7140531832
 20
739.6541460391
 30
0.0
 11
1976.8080283163
 21
888.6486264468
 31
0.0
  0
ARC
  5
1A9
330
1F
100
AcDbEntity
  8
0
  6
Continuous
 62
     7
370
    15
100
AcDbCircle
 10
1975.7702090979
 20
890.9391786108
 30
0.0
 40
2.514696392468196
100
AcDbArc
 50
294.3746582936
 51
354.3052007488
  0
LWPOLYLINE
  5
1AA
330
1F
100
AcDbEntity
  8
0
  6
Continuous
 62
     7
370
    15
100
AcDbPolyline
 90
       11
 70
   128
 43
0.0
 10
1983.8790961282
 20
884.5665858877
 10
1985.407749326
 20
885.5998286739
 10
1986.6375922732
 20
886.7583996728
 10
1987.5383421548
 20
888.0137710212
 10
1988.0878195193
 20
889.3350313101
 10
1988.2724944104
 20
890.6896467263
 10
1988.0878195193
 20
892.0442621426
 10
1987.5383421548
 20
893.3655224315
 10
1986.6375922732
 20
894.6208937799
 10
1985.407749326
 20
895.7794647787
 10
1983.8790961282
 20
896.812707565
  0
LINE
  5
1AB
330
1F
100
AcDbEntity
  8
0
  6
Continuous
 62
     7
370
    15
100
AcDbLine
 10
1725.7851209951
 20
735.57210548
 30
0.0
 11
1983.8790961282
 21
884.5665858877
 31
0.0
  0
LINE
  5
1AC
330
1F
100
AcDbEntity
  8
0
  6
Continuous
 62
     7
370
    15
100
AcDbLine
 10
1181.3128994814
 20
1037.6431068544
 30
0.0
 11
1704.5719175595
 21
735.57210548
 31
0.0
  0
LWPOLYLINE
  5
1AD
330
1F
100
AcDbEntity
  8
0
  6
Continuous
 62
     7
370
    15
100
AcDbPolyline
 90
       11
 70
   128
 43
0.0
 10
1181.3128994814
 20
1049.8892285318
 10
1179.7842462836
 20
1048.8559857455
 10
1178.5544033364
 20
1047.6974147466
 10
1177.6536534548
 20
1046.4420433983
 10
1177.1041760903
 20
1045.1207831093
 10
1176.9195011992
 20
1043.7661676931
 10
1177.1041760903
 20
1042.4115522769
 10
1177.6536534548
 20
1041.0902919879
 10
1178.5544033364
 20
1039.8349206396
 10
1179.7842462836
 20
1038.6763496407
 10
1181.3128994814
 20
1037.6431068544
  0
LINE
  5
1AE
330
1F
100
AcDbEntity
  8
0
  6
Continuous
 62
     7
370
    15
100
AcDbLine
 10
1186.9195011992
 20
1053.12585081
 30
0.0
 11
1181.3128994814
 21
1049.8892285318
 31
0.0
  0
LINE
  5
1AF
330
1F
100
AcDbEntity
  8
0
  6
Continuous
 62
     7
370
    15
100
AcDbLine
 10
1983.8790961282
 20
896.812707565
 30
0.0
 11
1978.2724944104
 21
900.0493298433
 31
0.0
  0
LINE
  5
1B0
330
1F
100
AcDbEntity
  8
0
  6
Continuous
 62
     7
370
    15
100
AcDbLine
 10
1983.8790961282
 20
882.116963452
 30
0.0
 11
1983.8790961282
 21
884.5665858877
 31
0.0
  0
LINE
  5
1B1
330
1F
100
AcDbEntity
  8
0
  6
Continuous
 62
     7
370
    15
100
AcDbLine
 10
1725.7851209951
 20
733.1224830444
 30
0.0
 11
1983.8790961282
 21
882.116963452
 31
0.0
  0
LINE
  5
1B2
330
1F
100
AcDbEntity
  8
0
  6
Continuous
 62
     7
370
    15
100
AcDbLine
 10
1181.3128994814
 20
1037.6431068544
 30
0.0
 11
1181.3128994814
 21
1035.1934844188
 31
0.0
  0
LINE
  5
1B3
330
1F
100
AcDbEntity
  8
0
  6
Continuous
 62
     7
370
    15
100
AcDbLine
 10
1181.3128994814
 20
1035.1934844188
 30
0.0
 11
1704.5719175595
 21
733.1224830444
 31
0.0
  0
ARC
  5
1B4
330
1F
100
AcDbEntity
  8
0
  6
Continuous
 62
     7
370
    15
100
AcDbCircle
 10
1980.6585186668
 20
889.0654801919
 30
0.0
 40
7.658590214176562
100
AcDbArc
 50
294.8673152799
 51
353.8125437624
  0
ARC
  5
1B5
330
1F
100
AcDbEntity
  8
0
  6
Continuous
 62
     7
370
    15
100
AcDbCircle
 10
1184.362605517
 20
1042.0193980605
 30
0.0
 40
7.476215884243869
100
AcDbArc
 50
185.3944478058
 51
245.9256931518
  0
LWPOLYLINE
  5
1B6
330
1F
100
AcDbEntity
  8
0
  6
Continuous
 62
     7
370
    15
100
AcDbPolyline
 90
       53
 70
   128
 43
0.0
 10
1556.696659885
 20
949.5864567468
 10
1554.4307608197
 20
948.3760517437
 10
1551.917084633
 20
946.7820487797
 10
1549.6730158383
 20
945.0591653819
 10
1547.718275393
 20
943.2225423115
 10
1546.0700416263
 20
941.288319878
 10
1544.7427992758
 20
939.2734960978
 10
1543.748212195
 20
937.1957773147
 10
1543.095020851
 20
935.0734225961
 10
1542.7889655128
 20
932.9250832715
 10
1542.8327358057
 20
930.7696390242
 10
1543.2259470747
 20
928.6260319757
 10
1543.9651437652
 20
926.5131002219
 10
1545.04382979
 20
924.4494122829
 10
1546.4525256175
 20
922.4531039226
 10
1548.1788515782
 20
920.5417187706
 10
1550.2076366574
 20
918.7320541484
 10
1552.521051819
 20
917.0400134537
 10
1555.0987666873
 20
915.480466401
 10
1557.9181282113
 20
914.0671183459
 10
1560.9543597406
 20
912.8123898419
 10
1564.1807787634
 20
911.7273074883
 10
1567.5690313933
 20
910.8214070276
 10
1571.0893415443
 20
910.1026495458
 10
1574.7107726043
 20
909.5773515095
 10
1578.4014993069
 20
909.2501292567
 10
1582.129087413
 20
909.1238584283
 10
1585.8607787445
 20
909.1996486969
 10
1589.5637790637
 20
909.4768340149
 10
1593.2055462707
 20
909.9529784678
 10
1596.7540763842
 20
910.6238976809
 10
1600.1781847941
 20
911.4836955921
 10
1603.4477803126
 20
912.5248162665
 10
1606.5341296167
 20
913.7381102982
 10
1609.4101097576
 20
915.1129152154
 10
1612.0504465186
 20
916.6371491833
 10
1614.4319365253
 20
918.2974171789
 10
1616.5336511577
 20
920.0791287073
 10
1618.3371204722
 20
921.9666260236
 10
1619.8264955156
 20
923.9433217335
 10
1620.9886876065
 20
925.9918445641
 10
1621.8134833589
 20
928.0941920229
 10
1622.2936344381
 20
930.231888605
 10
1622.4249212593
 20
932.386148156
 10
1622.206190069
 20
934.5380389654
 10
1621.6393630849
 20
936.6686501395
 10
1620.7294216028
 20
938.7592577905
 10
1619.4843622213
 20
940.7914895835
 10
1617.9151265669
 20
942.7474861921
 10
1616.035505139
 20
944.610058248
 10
1613.8620161183
 20
946.362837401
 10
1611.4137602045
 20
947.9904201647
 10
1608.9219474809
 20
949.3726383839
  0
LWPOLYLINE
  5
1B7
330
1F
100
AcDbEntity
  8
0
  6
Continuous
 62
     7
370
    15
100
AcDbPolyline
 90
       41
 70
   128
 43
0.0
 10
1551.0959978048
 20
938.5390944652
 10
1550.6621323648
 20
937.9406449735
 10
1549.5354762729
 20
936.0378225528
 10
1548.74806587
 20
934.0789625448
 10
1548.3079810523
 20
932.0841655037
 10
1548.2197376856
 20
930.0739007468
 10
1548.4842412663
 20
928.0687963106
 10
1549.0987776296
 20
926.0894272801
 10
1550.0570408009
 20
924.15610466
 10
1551.3491977033
 20
922.2886669566
 10
1552.9619890584
 20
920.5062766078
 10
1554.8788654444
 20
918.8272233506
 10
1557.0801571158
 20
917.2687365434
 10
1559.5432758411
 20
915.8468083699
 10
1562.242946689
 20
914.5760297373
 10
1565.1514673835
 20
913.469440554
 10
1568.2389925663
 20
912.5383959226
 10
1571.473840051
 20
911.7924496207
 10
1574.8228159249
 20
911.239256067
 10
1578.2515551637
 20
910.8844917758
 10
1581.724874263
 20
910.7317971089
 10
1585.2071322686
 20
910.7827389202
 10
1588.6625965012
 20
911.0367944777
 10
1592.0558092218
 20
911.4913568277
 10
1595.351951476
 20
912.1417615453
 10
1598.5172003841
 20
912.9813345979
 10
1601.5190762088
 20
914.00146083
 10
1604.3267756421
 20
915.1916723659
 10
1606.9114878883
 20
916.5397560246
 10
1609.2466903022
 20
918.0318786436
 10
1611.3084205469
 20
919.6527290257
 10
1613.0755224801
 20
921.3856750525
 10
1614.5298632448
 20
923.2129343528
 10
1615.6565193367
 20
925.1157567735
 10
1616.4439297396
 20
927.0746167816
 10
1616.8840145573
 20
929.0694138226
 10
1616.972257924
 20
931.0796785796
 10
1616.7077543433
 20
933.0847830157
 10
1616.09321798
 20
935.0641520463
 10
1615.1349548087
 20
936.9974746663
 10
1614.0959978048
 20
938.5390944652
  0
ARC
  5
1B8
330
1F
100
AcDbEntity
  8
0
  6
Continuous
 62
     7
370
    15
100
AcDbCircle
 10
1715.1785192773
 20
790.769226386
 30
0.0
 40
5.379576677691881
100
AcDbArc
 50
242.6096722366
 51
297.3903277634
  0
ARC
  5
1B9
330
1F
100
AcDbEntity
  8
0
  6
Continuous
 62
     7
370
    15
100
AcDbCircle
 10
1716.4112290312
 20
784.0508290085
 30
0.0
 40
2.305207211358424
100
AcDbArc
 50
2.6054784857
 51
57.39452166
  0
ARC
  5
1BA
330
1F
100
AcDbEntity
  8
0
  6
Continuous
 62
     7
370
    15
100
AcDbCircle
 10
1715.1785192773
 20
790.9791757117
 30
0.0
 40
7.685109539557798
100
AcDbArc
 50
242.6096722366
 51
297.3903277634
  0
ARC
  5
1BB
330
1F
100
AcDbEntity
  8
0
  6
Continuous
 62
     7
370
    15
100
AcDbCircle
 10
1713.9458095234
 20
784.0508290085
 30
0.0
 40
2.305207211358355
100
AcDbArc
 50
122.60547834
 51
177.3945215143
  0
ARC
  5
1BC
330
1F
100
AcDbEntity
  8
0
  6
Continuous
 62
     7
370
    15
100
AcDbCircle
 10
1715.1785192773
 20
714.6326098004
 30
0.0
 40
7.685109539558808
100
AcDbArc
 50
242.6096722366
 51
297.3903277634
  0
LINE
  5
1BD
330
1F
100
AcDbEntity
  8
0
  6
Continuous
 62
     7
370
    15
100
AcDbLine
 10
1717.6533930114
 20
785.9927375886
 30
0.0
 11
1975.7473681445
 21
934.9872179963
 31
0.0
  0
ARC
  5
1BE
330
1F
100
AcDbEntity
  8
0
  6
Continuous
 62
     7
370
    15
100
AcDbCircle
 10
1974.5052041642
 20
933.0453094162
 30
0.0
 40
2.30520721135744
100
AcDbArc
 50
2.6054784856
 51
57.39452166
  0
LINE
  5
1BF
330
1F
100
AcDbEntity
  8
0
  6
Continuous
 62
     7
370
    15
100
AcDbLine
 10
1976.8080283163
 20
933.1501006946
 30
0.0
 11
1718.7140531832
 21
784.1556202869
 31
0.0
  0
ARC
  5
1C0
330
1F
100
AcDbEntity
  8
0
  6
Continuous
 62
     7
370
    15
100
AcDbCircle
 10
1190.6867914454
 20
1086.1218303829
 30
0.0
 40
2.305207211358074
100
AcDbArc
 50
122.60547834
 51
177.3945215144
  0
LINE
  5
1C1
330
1F
100
AcDbEntity
  8
0
  6
Continuous
 62
     7
370
    15
100
AcDbLine
 10
1189.4446274651
 20
1088.063738963
 30
0.0
 11
1712.7036455431
 21
785.9927375886
 31
0.0
  0
LINE
  5
1C2
330
1F
100
AcDbEntity
  8
0
  6
Continuous
 62
     7
370
    15
100
AcDbLine
 10
1711.6429853713
 20
784.1556202869
 30
0.0
 11
1188.3839672933
 21
1086.2266216613
 31
0.0
  0
LINE
  5
1C3
330
1F
100
AcDbEntity
  8
0
  6
Continuous
 62
     7
370
    15
100
AcDbLine
 10
1718.7140531832
 20
707.8090543756
 30
0.0
 11
1976.8080283163
 21
856.8035347832
 31
0.0
  0
LINE
  5
1C4
330
1F
100
AcDbEntity
  8
0
  6
Continuous
 62
     7
370
    15
100
AcDbLine
 10
1188.3839672933
 20
1009.88005575
 30
0.0
 11
1711.6429853713
 21
707.8090543756
 31
0.0
  0
SPLINE
  5
1C5
330
1F
100
AcDbEntity
  8
0
  6
Continuous
 62
     7
370
    15
100
AcDbSpline
210
0.0
220
0.0
230
1.0
 70
     8
 71
     3
 72
    15
 73
    11
 74
     0
 42
0.00000001
 43
0.00000001
 12
1.0
 22
0.0
 32
0.0
 13
1.0
 23
0.0
 33
0.0
 40
0.0
 40
0.0
 40
0.0
 40
0.0
 40
0.125
 40
0.25
 40
0.375
 40
0.5
 40
0.6250000000000001
 40
0.75
 40
0.875
 40
1.0
 40
1.0
 40
1.0
 40
1.0
 10
1620.289221249971
 20
924.6510162254175
 30
0.0
 10
1619.752034262256
 20
923.8354549230473
 30
0.0
 10
1618.677660286827
 20
922.2043323183071
 30
0.0
 10
1616.469469935349
 20
919.9115735210513
 30
0.0
 10
1613.858695275058
 20
917.7694626287207
 30
0.0
 10
1610.83444270721
 20
915.8149450480671
 30
0.0
 10
1607.448752106603
 20
914.0690812024052
 30
0.0
 10
1603.738105149314
 20
912.5619130719949
 30
0.0
 10
1599.766500091287
 20
911.2871519161407
 30
0.0
 10
1596.941006718411
 20
910.666929021941
 30
0.0
 10
1595.528260031973
 20
910.3568175748412
 30
0.0
  0
SPLINE
  5
1C6
330
1F
100
AcDbEntity
  8
0
  6
Continuous
 62
     7
370
    15
100
AcDbSpline
210
0.0
220
0.0
230
1.0
 70
     8
 71
     3
 72
    21
 73
    17
 74
     0
 42
0.00000001
 43
0.00000001
 12
1.0
 22
0.0
 32
0.0
 13
1.0
 23
0.0
 33
0.0
 40
0.0
 40
0.0
 40
0.0
 40
0.0
 40
0.0744837334053018
 40
0.1511277102282247
 40
0.2256116303540643
 40
0.3022564390306362
 40
0.3767165192882293
 40
0.4533306010003126
 40
0.5278728952945785
 40
0.6045727597206382
 40
0.6791785671357436
 40
0.7559532402574605
 40
0.8304770102279233
 40
0.9071658553650813
 40
0.9533336718040393
 40
1.0
 40
1.0
 40
1.0
 40
1.0
 10
1544.910470184096
 20
939.5807631041174
 30
0.0
 10
1544.295192708445
 20
938.3554705009469
 30
0.0
 10
1543.046792933099
 20
935.8693482698138
 30
0.0
 10
1542.581480755782
 20
931.9947714660026
 30
0.0
 10
1543.175652332038
 20
928.1037966914242
 30
0.0
 10
1544.898405354549
 20
924.3579807605495
 30
0.0
 10
1547.705176335213
 20
920.8010336403825
 30
0.0
 10
1551.473345958233
 20
917.5946256884525
 30
0.0
 10
1556.163291991206
 20
914.771698846112
 30
0.0
 10
1561.561324260741
 20
912.4625700212201
 30
0.0
 10
1567.611310443532
 20
910.6926511091779
 30
0.0
 10
1574.031176854702
 20
909.5463113247229
 30
0.0
 10
1580.75303247911
 20
909.032275967207
 30
0.0
 10
1586.618768992382
 20
909.1662821128791
 30
0.0
 10
1591.577081461419
 20
909.6557280499915
 30
0.0
 10
1594.204735660817
 20
910.125242451857
 30
0.0
 10
1595.525617904487
 20
910.3612602797409
 30
0.0
  0
SPLINE
  5
1C7
330
1F
100
AcDbEntity
  8
0
  6
Continuous
 62
     7
370
    15
100
AcDbSpline
210
0.0
220
0.0
230
1.0
 70
     8
 71
     3
 72
    16
 73
    12
 74
     0
 42
0.00000001
 43
0.00000001
 12
1.0
 22
0.0
 32
0.0
 13
1.0
 23
0.0
 33
0.0
 40
0.0
 40
0.0
 40
0.0
 40
0.0
 40
0.0597160770534837
 40
0.1772515674217987
 40
0.294787057790113
 40
0.4123225481584272
 40
0.5298580385267422
 40
0.6473935288950565
 40
0.7649290192633708
 40
0.8824645096316857
 40
1.0
 40
1.0
 40
1.0
 40
1.0
 10
1608.644642979711
 20
949.452406984444
 30
0.0
 10
1609.367629970757
 20
949.104174805846
 30
0.0
 10
1611.513627894795
 20
948.0705385971593
 30
0.0
 10
1614.505309184784
 20
945.9979810545257
 30
0.0
 10
1617.561789485054
 20
943.3143824781695
 30
0.0
 10
1619.913072425297
 20
940.3957641492116
 30
0.0
 10
1621.545474687713
 20
937.3211950779895
 30
0.0
 10
1622.423156221603
 20
934.1435253957485
 30
0.0
 10
1622.51359588398
 20
930.9296082213451
 30
0.0
 10
1621.881053892723
 20
927.7282482413895
 30
0.0
 10
1620.819832130888
 20
925.6767602307414
 30
0.0
 10
1620.289221249971
 20
924.6510162254175
 30
0.0
  0
ARC
  5
1C8
330
1F
100
AcDbEntity
  8
0
  6
Continuous
 62
     7
370
    15
100
AcDbCircle
 10
1975.2051235507
 20
936.4159321919
 30
0.0
 40
1.52815360892016
100
AcDbArc
 50
290.7834207995
 51
69.2165792005
  0
ARC
  5
1C9
330
1F
100
AcDbEntity
  8
0
  6
Continuous
 62
     7
370
    15
100
AcDbCircle
 10
1976.9895321248
 20
935.9027378075
 30
0.0
 40
2.30520721135811
100
AcDbArc
 50
122.60547834
 51
177.3945215143
  0
LINE
  5
1CA
330
1F
100
AcDbEntity
  8
0
  6
Continuous
 62
     7
370
    15
100
AcDbLine
 10
1974.6867079727
 20
936.0075290859
 30
0.0
 11
1451.4276898947
 21
1238.0785304603
 31
0.0
  0
ARC
  5
1CB
330
1F
100
AcDbEntity
  8
0
  6
Continuous
 62
     7
370
    15
100
AcDbCircle
 10
1453.7305140467
 20
1237.9737391819
 30
0.0
 40
2.305207211358302
100
AcDbArc
 50
122.60547834
 51
177.3945215144
  0
LINE
  5
1CC
330
1F
100
AcDbEntity
  8
0
  6
Continuous
 62
     7
370
    15
100
AcDbLine
 10
1975.7473681445
 20
937.8446463876
 30
0.0
 11
1452.4883500665
 21
1239.915647762
 31
0.0
  0
LINE
  5
1CD
330
1F
100
AcDbEntity
  8
0
  6
Continuous
 62
     7
370
    15
100
AcDbLine
 10
1451.4276898947
 20
1238.0785304603
 30
0.0
 11
1451.4276898947
 21
1161.731964549
 31
0.0
  0
ARC
  5
1CE
330
1F
100
AcDbEntity
  8
0
  6
Continuous
 62
     7
370
    15
100
AcDbCircle
 10
1448.357257692
 20
1161.8716862535
 30
0.0
 40
3.073609615145036
100
AcDbArc
 50
302.60547834
 51
357.3945215143
  0
SPLINE
  5
1CF
330
1F
100
AcDbEntity
  8
0
  6
Continuous
 62
     7
370
    15
100
AcDbSpline
210
0.0
220
0.0
230
1.0
 70
     8
 71
     3
 72
    12
 73
     8
 74
     0
 42
0.00000001
 43
0.00000001
 12
1.0
 22
0.0
 32
0.0
 13
1.0
 23
0.0
 33
0.0
 40
0.0
 40
0.0
 40
0.0
 40
0.0
 40
0.2140250133085072
 40
0.4280500266170145
 40
0.6420750399255208
 40
0.8561000532340283
 40
1.0
 40
1.0
 40
1.0
 40
1.0
 10
1544.902774359628
 20
939.5822883718489
 30
0.0
 10
1545.440142489763
 20
940.3977286260384
 30
0.0
 10
1546.514878750032
 20
942.0286091344173
 30
0.0
 10
1548.720351965211
 20
944.3231836543835
 30
0.0
 10
1551.341451743438
 20
946.4583948004148
 30
0.0
 10
1554.00103719968
 20
948.2224144929664
 30
0.0
 10
1555.918986106702
 20
949.1721997638274
 30
0.0
 10
1556.690077191165
 20
949.5540508923085
 30
0.0
  0
ARC
  5
1D0
330
1F
100
AcDbEntity
  8
0
  6
Continuous
 62
     7
370
    15
100
AcDbCircle
 10
1189.9868720589
 20
1089.4924531587
 30
0.0
 40
1.528153608919892
100
AcDbArc
 50
110.7834207995
 51
249.2165792005
  0
ARC
  5
1D1
330
1F
100
AcDbEntity
  8
0
  6
Continuous
 62
     7
370
    15
100
AcDbCircle
 10
1188.2024634848
 20
1088.9792587743
 30
0.0
 40
2.305207211358074
100
AcDbArc
 50
2.6054784856
 51
57.39452166
  0
LINE
  5
1D2
330
1F
100
AcDbEntity
  8
0
  6
Continuous
 62
     7
370
    15
100
AcDbLine
 10
1447.5386025982
 20
1239.915647762
 30
0.0
 11
1189.4446274651
 21
1090.9211673544
 31
0.0
  0
ARC
  5
1D3
330
1F
100
AcDbEntity
  8
0
  6
Continuous
 62
     7
370
    15
100
AcDbCircle
 10
1446.2964386179
 20
1237.9737391819
 30
0.0
 40
2.305207211357482
100
AcDbArc
 50
2.6054784856
 51
57.39452166
  0
LINE
  5
1D4
330
1F
100
AcDbEntity
  8
0
  6
Continuous
 62
     7
370
    15
100
AcDbLine
 10
1448.5992627699
 20
1238.0785304603
 30
0.0
 11
1190.5052876369
 21
1089.0840500527
 31
0.0
  0
LINE
  5
1D5
330
1F
100
AcDbEntity
  8
0
  6
Continuous
 62
     7
370
    15
100
AcDbLine
 10
1448.5992627699
 20
1238.0785304603
 30
0.0
 11
1448.5992627699
 21
1161.731964549
 31
0.0
  0
ARC
  5
1D6
330
1F
100
AcDbEntity
  8
0
  6
Continuous
 62
     7
370
    15
100
AcDbCircle
 10
1451.6696949727
 20
1161.8716862535
 30
0.0
 40
3.073609615145766
100
AcDbArc
 50
182.6054784857
 51
237.39452166
  0
ARC
  5
1D7
330
1F
100
AcDbEntity
  8
0
  6
Continuous
 62
     7
370
    15
100
AcDbCircle
 10
1450.0134763323
 20
1235.1391589647
 30
0.0
 40
5.379576677690972
100
AcDbArc
 50
62.6096722366
 51
117.3903277634
  0
ARC
  5
1D8
330
1F
100
AcDbEntity
  8
0
  6
Continuous
 62
     7
370
    15
100
AcDbCircle
 10
1450.0134763323
 20
1235.3491082904
 30
0.0
 40
3.074043815825068
100
AcDbArc
 50
62.6096722366
 51
117.3903277634
  0
ARC
  5
1D9
330
1F
100
AcDbEntity
  8
0
  6
Continuous
 62
     7
370
    15
100
AcDbCircle
 10
1450.0134763323
 20
1159.0025423791
 30
0.0
 40
3.074043815824455
100
AcDbArc
 50
62.6096722366
 51
117.3903277634
  0
LWPOLYLINE
  5
1DA
330
1F
100
AcDbEntity
  8
0
  6
Continuous
 62
     8
370
    15
100
AcDbPolyline
 90
       23
 70
   128
 43
0.0
 10
1556.0047153416
 20
929.2070524773
 10
1557.9502846316
 20
927.6305866864
 10
1560.1750996998
 20
926.1824357625
 10
1562.6539525025
 20
924.879007834
 10
1565.3587566469
 20
923.7350712603
 10
1568.2588656213
 20
922.7635872999
 10
1571.3214200321
 20
921.9755632542
 10
1574.5117199142
 20
921.3799277505
 10
1577.7936178951
 20
920.983429577
 10
1581.1299287594
 20
920.7905612167
 10
1584.4828507717
 20
920.8035079449
 10
1587.8143939859
 20
921.0221230701
 10
1591.0868106863
 20
921.4439295956
 10
1594.2630230839
 20
922.064148285
 10
1597.3070434233
 20
922.8757518125
 10
1600.1843817375
 20
923.869544386
 10
1602.8624366338
 20
925.0342659385
 10
1605.3108646802
 20
926.3567197095
 10
1607.5019242084
 20
927.8219217692
 10
1609.4107896386
 20
929.4132707928
 10
1611.0158327626
 20
931.1127361602
 10
1612.2988678006
 20
932.9010622494
 10
1613.0208676066
 20
934.2450442217
  0
ARC
  5
1DB
330
1F
100
AcDbEntity
  8
0
  6
Continuous
 62
     8
370
    15
100
AcDbCircle
 10
1566.5273844381
 20
941.1893968166
 30
0.0
 40
15.94688498674338
100
AcDbArc
 50
205.6520049265
 51
228.7110064202
  0
LINE
  5
1DC
330
1F
100
AcDbEntity
  8
0
  6
Continuous
 62
     8
370
    15
100
AcDbLine
 10
1595.9443696585
 20
919.1121798627
 30
0.0
 11
1595.9443696585
 21
918.3176390769
 31
0.0
  0
LINE
  5
1DD
330
1F
100
AcDbEntity
  8
0
  6
Continuous
 62
     8
370
    15
100
AcDbLine
 10
1594.5641227703
 20
918.4954947858
 30
0.0
 11
1594.5641227703
 21
918.7623922268
 31
0.0
  0
ARC
  5
1DE
330
1F
100
AcDbEntity
  8
0
  6
Continuous
 62
     8
370
    15
100
AcDbCircle
 10
1595.832682529
 20
918.8884446985
 30
0.0
 40
0.5816296696600307
100
AcDbArc
 50
281.0709536285
 51
351.7481668049
  0
LWPOLYLINE
  5
1DF
330
1F
100
AcDbEntity
  8
0
  6
Continuous
 62
     8
370
    15
100
AcDbPolyline
 90
        6
 70
   128
 43
0.0
 10
1595.9443696585
 20
918.3176390769
 10
1595.9134678245
 20
917.8678330389
 10
1595.8219498626
 20
917.4914959782
 10
1595.6733327568
 20
917.2030903171
 10
1595.4733277792
 20
917.0136993233
 10
1595.3701463235
 20
916.9634535041
  0
ARC
  5
1E0
330
1F
100
AcDbEntity
  8
0
  6
Continuous
 62
     8
370
    15
100
AcDbCircle
 10
1563.0988912231
 20
922.5536974179
 30
0.0
 40
1.491280045378925
100
AcDbArc
 50
203.455331683
 51
227.473159862
  0
ARC
  5
1E1
330
1F
100
AcDbEntity
  8
0
  6
Continuous
 62
     8
370
    15
100
AcDbCircle
 10
1590.5269673132
 20
933.5381247989
 30
0.0
 40
16.98399889528656
100
AcDbArc
 50
299.2369669293
 51
314.7962912023
  0
LWPOLYLINE
  5
1E2
330
1F
100
AcDbEntity
  8
0
  6
Continuous
 62
     8
370
    15
100
AcDbPolyline
 90
       15
 70
   128
 43
0.0
 10
1563.2905712107
 20
920.9236684608
 10
1563.6165566176
 20
920.6389371782
 10
1565.382815229
 20
919.3244259939
 10
1567.4205360122
 20
918.1480748251
 10
1569.6975828933
 20
917.1284354324
 10
1572.1780454827
 20
916.2815881381
 10
1574.8228054036
 20
915.6208882301
 10
1577.5901532121
 20
915.1567553403
 10
1580.4364461802
 20
914.896509122
 10
1583.3167965675
 20
914.8442538132
 10
1586.1857795277
 20
915.0008135116
 10
1588.9981494857
 20
915.3637191771
 10
1591.7095536872
 20
915.9272475705
 10
1594.2772316683
 20
916.6825115126
 10
1594.6797811296
 20
916.8231804663
  0
LWPOLYLINE
  5
1E3
330
1F
100
AcDbEntity
  8
0
  6
Continuous
 62
     8
370
    15
100
AcDbPolyline
 90
        3
 70
   128
 43
0.0
 10
1596.0141724635
 20
917.3384715098
 10
1596.6606896134
 20
917.6176000397
 10
1598.8223389667
 20
918.7177662471
  0
LINE
  5
1E4
330
1F
100
AcDbEntity
  8
0
  6
Continuous
 62
     8
370
    15
100
AcDbLine
 10
1711.6429853713
 20
784.1556202869
 30
0.0
 11
1711.6429853713
 21
739.6541460391
 31
0.0
  0
LINE
  5
1E5
330
1F
100
AcDbEntity
  8
0
  6
Continuous
 62
     8
370
    15
100
AcDbLine
 10
1711.6429853713
 20
730.8302016864
 30
0.0
 11
1711.6429853713
 21
707.8090543756
 31
0.0
  0
LINE
  5
1E6
330
1F
100
AcDbEntity
  8
0
  6
Continuous
 62
     8
370
    15
100
AcDbLine
 10
1718.7140531832
 20
784.1556202869
 30
0.0
 11
1718.7140531832
 21
739.6541460391
 31
0.0
  0
LINE
  5
1E7
330
1F
100
AcDbEntity
  8
0
  6
Continuous
 62
     8
370
    15
100
AcDbLine
 10
1718.7140531832
 20
730.8302016864
 30
0.0
 11
1718.7140531832
 21
707.8090543756
 31
0.0
  0
ARC
  5
1E8
330
1F
100
AcDbEntity
  8
0
  6
Continuous
 62
     8
370
    15
100
AcDbCircle
 10
1717.2130504036
 20
785.3767348575
 30
0.0
 40
0.757206033369352
100
AcDbArc
 50
54.4413469101
 51
113.6336213939
  0
ARC
  5
1E9
330
1F
100
AcDbEntity
  8
0
  6
Continuous
 62
     8
370
    15
100
AcDbCircle
 10
1713.1430848508
 20
785.3792506888
 30
0.0
 40
0.7546344024863055
100
AcDbArc
 50
65.7346130375
 51
125.6139413273
  0
LINE
  5
1EA
330
1F
100
AcDbEntity
  8
0
  6
Continuous
 62
     8
370
    15
100
AcDbLine
 10
1976.8080283163
 20
933.1501006946
 30
0.0
 11
1976.8080283163
 21
888.6486264468
 31
0.0
  0
LINE
  5
1EB
330
1F
100
AcDbEntity
  8
0
  6
Continuous
 62
     8
370
    15
100
AcDbLine
 10
1976.8080283163
 20
878.0349228929
 30
0.0
 11
1976.8080283163
 21
856.8035347832
 31
0.0
  0
LINE
  5
1EC
330
1F
100
AcDbEntity
  8
0
  6
Continuous
 62
     8
370
    15
100
AcDbLine
 10
1188.3839672933
 20
1086.2266216613
 30
0.0
 11
1188.3839672933
 21
1041.7251474135
 31
0.0
  0
LINE
  5
1ED
330
1F
100
AcDbEntity
  8
0
  6
Continuous
 62
     8
370
    15
100
AcDbLine
 10
1188.3839672933
 20
1031.1114438597
 30
0.0
 11
1188.3839672933
 21
1009.88005575
 31
0.0
  0
ARC
  5
1EE
330
1F
100
AcDbEntity
  8
0
  6
Continuous
 62
     8
370
    15
100
AcDbCircle
 10
1189.8840075474
 20
1087.4504169693
 30
0.0
 40
0.7544658538530288
100
AcDbArc
 50
65.6928809539
 51
125.6175774752
  0
ARC
  5
1EF
330
1F
100
AcDbEntity
  8
0
  6
Continuous
 62
     8
370
    15
100
AcDbCircle
 10
1975.3079880622
 20
934.3738960026
 30
0.0
 40
0.7544658538531906
100
AcDbArc
 50
54.3824225248
 51
114.3071190461
  0
ARC
  5
1F0
330
1F
100
AcDbEntity
  8
0
  6
Continuous
 62
     8
370
    15
100
AcDbCircle
 10
1716.3356254035
 20
707.5062342327
 30
0.0
 40
2.397627732206139
100
AcDbArc
 50
304.0563508335
 51
7.2558295599
  0
ARC
  5
1F1
330
1F
100
AcDbEntity
  8
0
  6
Continuous
 62
     8
370
    15
100
AcDbCircle
 10
1714.0214131516
 20
707.5062342329
 30
0.0
 40
2.397627732714748
100
AcDbArc
 50
172.7441704476
 51
235.943649159
  0
ARC
  5
1F2
330
1F
100
AcDbEntity
  8
0
  6
Continuous
 62
     8
370
    15
100
AcDbCircle
 10
1974.4296005366
 20
856.5007146403
 30
0.0
 40
2.397627732205927
100
AcDbArc
 50
304.0563508335
 51
7.2558295599
  0
ARC
  5
1F3
330
1F
100
AcDbEntity
  8
0
  6
Continuous
 62
     8
370
    15
100
AcDbCircle
 10
1190.7623950735
 20
1009.5772356073
 30
0.0
 40
2.397627732647031
100
AcDbArc
 50
172.7441704466
 51
235.94364916
  0
LWPOLYLINE
  5
1F4
330
1F
100
AcDbEntity
  8
0
  6
Continuous
 62
     8
370
    15
100
AcDbPolyline
 90
        5
 70
   128
 43
0.0
 10
1450.0131908153
 20
1156.8182959461
 10
1580.406649865
 20
1081.5421739408
 10
1710.8007522466
 20
1006.2664233158
 10
1839.9020415793
 20
931.738687584
 10
1904.5724801134
 20
894.4060224006
  0
LINE
  5
1F5
330
1F
100
AcDbEntity
  8
0
  6
Continuous
 62
     8
370
    15
100
AcDbLine
 10
1260.6057435275
 20
1047.4904937557
 30
0.0
 11
1450.0134763323
 21
1156.833250478
 31
0.0
  0
LINE
  5
1F6
330
1F
100
AcDbEntity
  8
0
  6
Continuous
 62
     8
370
    15
100
AcDbLine
 10
1450.0134763323
 20
1159.2824748134
 30
0.0
 11
1258.4844231839
 21
1048.7151059235
 31
0.0
  0
LINE
  5
1F7
330
1F
100
AcDbEntity
  8
0
  6
Continuous
 62
     8
370
    15
100
AcDbLine
 10
1906.7075724257
 20
895.6385849567
 30
0.0
 11
1450.0134763323
 21
1159.2824748134
 31
0.0
  0
LWPOLYLINE
  5
1F8
330
1F
100
AcDbEntity
  8
0
  6
Continuous
 62
     8
370
    15
100
AcDbPolyline
 90
        3
 70
   128
 43
0.0
 10
1595.5282584255
 20
910.3568534423
 10
1595.6677633709
 20
910.1241052177
 10
1647.0351588319
 20
824.409540712
  0
LWPOLYLINE
  5
1F9
330
1F
100
AcDbEntity
  8
0
  6
Continuous
 62
     8
370
    15
100
AcDbPolyline
 90
        5
 70
   128
 43
0.0
 10
1872.474974256
 20
875.8765266806
 10
1794.8470617143
 20
890.8889391713
 10
1707.7707411691
 20
907.7296123167
 10
1620.6956942982
 20
924.572422201
 10
1620.2892215478
 20
924.6510531922
  0
LWPOLYLINE
  5
1FA
330
1F
100
AcDbEntity
  8
0
  6
Continuous
 62
     8
370
    15
100
AcDbPolyline
 90
        4
 70
   128
 43
0.0
 10
1394.8030047836
 20
970.020063837
 10
1457.4212544405
 20
957.3231347859
 10
1544.4963013114
 20
939.6647614741
 10
1544.9027740618
 20
939.5823234839
  0
LWPOLYLINE
  5
1FB
330
1F
100
AcDbEntity
  8
0
  6
Continuous
 62
     8
370
    15
100
AcDbPolyline
 90
        4
 70
   128
 43
0.0
 10
1450.0100583495
 20
1156.8164429869
 10
1509.7636663706
 20
1055.4640802228
 10
1539.6420933383
 20
1004.788214759
 10
1568.6285013319
 20
955.632089059
  0
ARC
  5
1FC
330
1F
100
AcDbEntity
  8
0
  6
Continuous
 62
     8
370
    15
100
AcDbCircle
 10
1976.1826816795
 20
937.272258692
 30
0.0
 40
0.7191144191514093
100
AcDbArc
 50
64.039591586
 51
127.2537937113
  0
ARC
  5
1FD
330
1F
100
AcDbEntity
  8
0
  6
Continuous
 62
     8
370
    15
100
AcDbCircle
 10
1975.7671594125
 20
935.4442565761
 30
0.0
 40
2.519237837885643
100
AcDbArc
 50
294.404010697
 51
353.9691408764
  0
ARC
  5
1FE
330
1F
100
AcDbEntity
  8
0
  6
Continuous
 62
     8
370
    15
100
AcDbCircle
 10
1975.7702090979
 20
859.0940869473
 30
0.0
 40
2.514696392468714
100
AcDbArc
 50
294.3746582936
 51
354.3052007488
  0
ARC
  5
1FF
330
1F
100
AcDbEntity
  8
0
  6
Continuous
 62
     8
370
    15
100
AcDbCircle
 10
1974.2909462433
 20
935.1053681094
 30
0.0
 40
0.9851506352314191
100
AcDbArc
 50
4.9026264284
 51
66.3138062962
  0
LINE
  5
200
330
1F
100
AcDbEntity
  8
0
  6
Continuous
 62
     8
370
    15
100
AcDbLine
 10
1974.6867079727
 20
936.0075290859
 30
0.0
 11
1974.6867079727
 21
934.8821045862
 31
0.0
  0
LINE
  5
201
330
1F
100
AcDbEntity
  8
0
  6
Continuous
 62
     8
370
    15
100
AcDbLine
 10
1451.4276898947
 20
1161.731964549
 30
0.0
 11
1909.5362294186
 21
897.2715338804
 31
0.0
  0
ARC
  5
202
330
1F
100
AcDbEntity
  8
0
  6
Continuous
 62
     8
370
    15
100
AcDbCircle
 10
1452.9277301488
 20
1239.3023257684
 30
0.0
 40
0.7544658538526143
100
AcDbArc
 50
65.6928809539
 51
125.6175774752
  0
ARC
  5
203
330
1F
100
AcDbEntity
  8
0
  6
Continuous
 62
     8
370
    15
100
AcDbCircle
 10
1189.0052269266
 20
1090.3077884035
 30
0.0
 40
0.7545240689453597
100
AcDbArc
 50
54.3836785896
 51
114.292700602
  0
ARC
  5
204
330
1F
100
AcDbEntity
  8
0
  6
Continuous
 62
     8
370
    15
100
AcDbCircle
 10
1189.3077225803
 20
1088.4343737203
 30
0.0
 40
2.393218123008635
100
AcDbArc
 50
183.7178987972
 51
247.2948628082
  0
ARC
  5
205
330
1F
100
AcDbEntity
  8
0
  6
Continuous
 62
     8
370
    15
100
AcDbCircle
 10
1189.4217865117
 20
1012.1706079141
 30
0.0
 40
2.514696392468996
100
AcDbArc
 50
185.6947992512
 51
245.6253417064
  0
ARC
  5
206
330
1F
100
AcDbEntity
  8
0
  6
Continuous
 62
     8
370
    15
100
AcDbCircle
 10
1190.920826381
 20
1088.1673434255
 30
0.0
 40
1.006490679682213
100
AcDbArc
 50
114.3845602314
 51
174.1916671732
  0
LINE
  5
207
330
1F
100
AcDbEntity
  8
0
  6
Continuous
 62
     8
370
    15
100
AcDbLine
 10
1190.5052876369
 20
1089.0840500527
 30
0.0
 11
1190.5052876369
 21
1087.958625553
 31
0.0
  0
LINE
  5
208
330
1F
100
AcDbEntity
  8
0
  6
Continuous
 62
     8
370
    15
100
AcDbLine
 10
1255.655766191
 20
1050.3480548472
 30
0.0
 11
1448.5992627699
 21
1161.731964549
 31
0.0
  0
ARC
  5
209
330
1F
100
AcDbEntity
  8
0
  6
Continuous
 62
     8
370
    15
100
AcDbCircle
 10
1447.0992225159
 20
1239.3023257684
 30
0.0
 40
0.7544658538528216
100
AcDbArc
 50
54.3824225248
 51
114.3071190461
  0
ENDSEC
  0
SECTION
  2
OBJECTS
  0
DICTIONARY
  5
C
330
0
100
AcDbDictionary
281
     1
  3
ACAD_GROUP
350
D
  3
ACAD_LAYOUT
350
1A
  3
ACAD_MLINESTYLE
350
17
  3
ACAD_PLOTSETTINGS
350
19
  3
ACAD_PLOTSTYLENAME
350
E
  0
DICTIONARY
  5
D
102
{ACAD_REACTORS
330
C
102
}
330
C
100
AcDbDictionary
281
     1
  0
DICTIONARY
  5
1A
102
{ACAD_REACTORS
330
C
102
}
330
C
100
AcDbDictionary
281
     1
  3
Layout1
350
1E
  3
Layout2
350
26
  3
Model
350
22
  0
DICTIONARY
  5
17
102
{ACAD_REACTORS
330
C
102
}
330
C
100
AcDbDictionary
281
     1
  3
Standard
350
18
  0
DICTIONARY
  5
19
102
{ACAD_REACTORS
330
C
102
}
330
C
100
AcDbDictionary
281
     1
  0
ACDBDICTIONARYWDFLT
  5
E
102
{ACAD_REACTORS
330
C
102
}
330
C
100
AcDbDictionary
281
     1
  3
Normal
350
F
100
AcDbDictionaryWithDefault
340
F
  0
LAYOUT
  5
1E
102
{ACAD_REACTORS
330
1A
102
}
330
1A
100
AcDbPlotSettings
  1

  2
none_device
  4

  6

 40
0.0
 41
0.0
 42
0.0
 43
0.0
 44
0.0
 45
0.0
 46
0.0
 47
0.0
 48
0.0
 49
0.0
140
0.0
141
0.0
142
1.0
143
1.0
 70
   688
 72
     0
 73
     0
 74
     5
  7

 75
    16
147
1.0
148
0.0
149
0.0
100
AcDbLayout
  1
Layout1
 70
     1
 71
     1
 10
0.0
 20
0.0
 11
420.0
 21
297.0
 12
0.0
 22
0.0
 32
0.0
 14
1.0000000000E+20
 24
1.0000000000E+20
 34
1.0000000000E+20
 15
-1.0000000000E+20
 25
-1.0000000000E+20
 35
-1.0000000000E+20
146
0.0
 13
0.0
 23
0.0
 33
0.0
 16
1.0
 26
0.0
 36
0.0
 17
0.0
 27
1.0
 37
0.0
 76
     0
330
1B
  0
LAYOUT
  5
26
102
{ACAD_REACTORS
330
1A
102
}
330
1A
100
AcDbPlotSettings
  1

  2
none_device
  4

  6

 40
0.0
 41
0.0
 42
0.0
 43
0.0
 44
0.0
 45
0.0
 46
0.0
 47
0.0
 48
0.0
 49
0.0
140
0.0
141
0.0
142
1.0
143
1.0
 70
   688
 72
     0
 73
     0
 74
     5
  7

 75
    16
147
1.0
148
0.0
149
0.0
100
AcDbLayout
  1
Layout2
 70
     1
 71
     2
 10
0.0
 20
0.0
 11
0.0
 21
0.0
 12
0.0
 22
0.0
 32
0.0
 14
0.0
 24
0.0
 34
0.0
 15
0.0
 25
0.0
 35
0.0
146
0.0
 13
0.0
 23
0.0
 33
0.0
 16
1.0
 26
0.0
 36
0.0
 17
0.0
 27
1.0
 37
0.0
 76
     0
330
23
  0
LAYOUT
  5
22
102
{ACAD_REACTORS
330
1A
102
}
330
1A
100
AcDbPlotSettings
  1

  2
none_device
  4

  6

 40
0.0
 41
0.0
 42
0.0
 43
0.0
 44
0.0
 45
0.0
 46
0.0
 47
0.0
 48
0.0
 49
0.0
140
0.0
141
0.0
142
1.0
143
1.0
 70
  1712
 72
     0
 73
     0
 74
     0
  7

 75
     0
147
1.0
148
0.0
149
0.0
100
AcDbLayout
  1
Model
 70
     1
 71
     0
 10
0.0
 20
0.0
 11
2100.0
 21
2970.0
 12
0.0
 22
0.0
 32
0.0
 14
0.0
 24
0.0
 34
0.0
 15
2100.0
 25
2970.0
 35
0.0
146
0.0
 13
0.0
 23
0.0
 33
0.0
 16
1.0
 26
0.0
 36
0.0
 17
0.0
 27
1.0
 37
0.0
 76
     0
330
1F
331
29
  0
MLINESTYLE
  5
18
102
{ACAD_REACTORS
330
17
102
}
330
17
100
AcDbMlineStyle
  2
Standard
 70
     0
  3

 62
   256
 51
90.0
 52
90.0
 71
     2
 49
0.5
 62
   256
  6
BYLAYER
 49
-0.5
 62
   256
  6
BYLAYER
  0
ACDBPLACEHOLDER
  5
F
102
{ACAD_REACTORS
330
E
102
}
330
E
  0
ENDSEC
  0
EOF
