  0
SECTION
  2
HEADER
  9
$ACADVER
  1
AC1027
  9
$ACADMAINTVER
 70
   125
  9
$DWGCODEPAGE
  3
ANSI_1252
  9
$LASTSAVEDBY
  1
fleminab
  9
$REQUIREDVERSIONS
160
                 0
  9
$INSBASE
 10
0.0
 20
0.0
 30
0.0
  9
$EXTMIN
 10
128.2582469365836
 20
82.8360440071267
 30
-0.0000000000112498
  9
$EXTMAX
 10
454.0481343273322
 20
362.2250042173924
 30
0.0000000000002956
  9
$LIMMIN
 10
0.0
 20
0.0
  9
$LIMMAX
 10
594.0
 20
420.0
  9
$ORTHOMODE
 70
     0
  9
$REGENMODE
 70
     1
  9
$FILLMODE
 70
     1
  9
$QTEXTMODE
 70
     0
  9
$MIRRTEXT
 70
     0
  9
$LTSCALE
 40
32.67
  9
$ATTMODE
 70
     1
  9
$TEXTSIZE
 40
0.2
  9
$TRACEWID
 40
0.05
  9
$TEXTSTYLE
  7
STANDARD
  9
$CLAYER
  8
0
  9
$CELTYPE
  6
BYLAYER
  9
$CECOLOR
 62
   256
  9
$CELTSCALE
 40
1.0
  9
$DISPSILH
 70
     0
  9
$DIMSCALE
 40
1.0
  9
$DIMASZ
 40
4.0
  9
$DIMEXO
 40
1.0
  9
$DIMDLI
 40
22.572
  9
$DIMRND
 40
0.0
  9
$DIMDLE
 40
0.0
  9
$DIMEXE
 40
1.5
  9
$DIMTP
 40
0.01
  9
$DIMTM
 40
0.01
  9
$DIMTXT
 40
5.0
  9
$DIMCEN
 40
5.346
  9
$DIMTSZ
 40
0.0
  9
$DIMTOL
 70
     1
  9
$DIMLIM
 70
     0
  9
$DIMTIH
 70
     1
  9
$DIMTOH
 70
     1
  9
$DIMSE1
 70
     0
  9
$DIMSE2
 70
     0
  9
$DIMTAD
 70
     0
  9
$DIMZIN
 70
     0
  9
$DIMBLK
  1
_FILLED
  9
$DIMASO
 70
     1
  9
$DIMSHO
 70
     1
  9
$DIMPOST
  1

  9
$DIMAPOST
  1

  9
$DIMALT
 70
     0
  9
$DIMALTD
 70
     2
  9
$DIMALTF
 40
25.4
  9
$DIMLFAC
 40
1.0
  9
$DIMTOFL
 70
     0
  9
$DIMTVP
 40
0.0
  9
$DIMTIX
 70
     0
  9
$DIMSOXD
 70
     0
  9
$DIMSAH
 70
     0
  9
$DIMBLK1
  1

  9
$DIMBLK2
  1

  9
$DIMSTYLE
  2
STANDARD
  9
$DIMCLRD
 70
     0
  9
$DIMCLRE
 70
     0
  9
$DIMCLRT
 70
     0
  9
$DIMTFAC
 40
1.0
  9
$DIMGAP
 40
0.625
  9
$DIMJUST
 70
     0
  9
$DIMSD1
 70
     0
  9
$DIMSD2
 70
     0
  9
$DIMTOLJ
 70
     1
  9
$DIMTZIN
 70
     0
  9
$DIMALTZ
 70
     0
  9
$DIMALTTZ
 70
     0
  9
$DIMUPT
 70
     0
  9
$DIMDEC
 70
     4
  9
$DIMTDEC
 70
     4
  9
$DIMALTU
 70
     2
  9
$DIMALTTD
 70
     2
  9
$DIMTXSTY
  7
STANDARD
  9
$DIMAUNIT
 70
     0
  9
$DIMADEC
 70
     0
  9
$DIMALTRND
 40
0.0
  9
$DIMAZIN
 70
     0
  9
$DIMDSEP
 70
    46
  9
$DIMATFIT
 70
     3
  9
$DIMFRAC
 70
     0
  9
$DIMLDRBLK
  1

  9
$DIMLUNIT
 70
     2
  9
$DIMLWD
 70
    -2
  9
$DIMLWE
 70
    -2
  9
$DIMTMOVE
 70
     0
  9
$DIMFXL
 40
1.0
  9
$DIMFXLON
 70
     0
  9
$DIMJOGANG
 40
0.7853981633974483
  9
$DIMTFILL
 70
     0
  9
$DIMTFILLCLR
 70
     0
  9
$DIMARCSYM
 70
     0
  9
$DIMLTYPE
  6

  9
$DIMLTEX1
  6

  9
$DIMLTEX2
  6

  9
$DIMTXTDIRECTION
 70
     0
  9
$LUNITS
 70
     2
  9
$LUPREC
 70
     4
  9
$SKETCHINC
 40
0.1
  9
$FILLETRAD
 40
0.0
  9
$AUNITS
 70
     0
  9
$AUPREC
 70
     0
  9
$MENU
  1
.
  9
$ELEVATION
 40
0.0
  9
$PELEVATION
 40
0.0
  9
$THICKNESS
 40
0.0
  9
$LIMCHECK
 70
     0
  9
$CHAMFERA
 40
0.0
  9
$CHAMFERB
 40
0.0
  9
$CHAMFERC
 40
0.0
  9
$CHAMFERD
 40
0.0
  9
$SKPOLY
 70
     0
  9
$TDCREATE
 40
2458081.828379630
  9
$TDUCREATE
 40
2458081.370051354
  9
$TDUPDATE
 40
2458141.454641204
  9
$TDUUPDATE
 40
2458140.996307871
  9
$TDINDWG
 40
0.7217744444
  9
$TDUSRTIMER
 40
0.7217744444
  9
$USRTIMER
 70
     1
  9
$ANGBASE
 50
0.0
  9
$ANGDIR
 70
     0
  9
$PDMODE
 70
     3
  9
$PDSIZE
 40
8.0
  9
$PLINEWID
 40
0.0
  9
$SPLFRAME
 70
     0
  9
$SPLINETYPE
 70
     6
  9
$SPLINESEGS
 70
     8
  9
$HANDSEED
  5
1B8B
  9
$SURFTAB1
 70
     6
  9
$SURFTAB2
 70
     6
  9
$SURFTYPE
 70
     6
  9
$SURFU
 70
     6
  9
$SURFV
 70
     6
  9
$UCSBASE
  2

  9
$UCSNAME
  2

  9
$UCSORG
 10
0.0
 20
0.0
 30
0.0
  9
$UCSXDIR
 10
1.0
 20
0.0
 30
0.0
  9
$UCSYDIR
 10
0.0
 20
1.0
 30
0.0
  9
$UCSORTHOREF
  2

  9
$UCSORTHOVIEW
 70
     0
  9
$UCSORGTOP
 10
0.0
 20
0.0
 30
0.0
  9
$UCSORGBOTTOM
 10
0.0
 20
0.0
 30
0.0
  9
$UCSORGLEFT
 10
0.0
 20
0.0
 30
0.0
  9
$UCSORGRIGHT
 10
0.0
 20
0.0
 30
0.0
  9
$UCSORGFRONT
 10
0.0
 20
0.0
 30
0.0
  9
$UCSORGBACK
 10
0.0
 20
0.0
 30
0.0
  9
$PUCSBASE
  2

  9
$PUCSNAME
  2

  9
$PUCSORG
 10
0.0
 20
0.0
 30
0.0
  9
$PUCSXDIR
 10
1.0
 20
0.0
 30
0.0
  9
$PUCSYDIR
 10
0.0
 20
1.0
 30
0.0
  9
$PUCSORTHOREF
  2

  9
$PUCSORTHOVIEW
 70
     0
  9
$PUCSORGTOP
 10
0.0
 20
0.0
 30
0.0
  9
$PUCSORGBOTTOM
 10
0.0
 20
0.0
 30
0.0
  9
$PUCSORGLEFT
 10
0.0
 20
0.0
 30
0.0
  9
$PUCSORGRIGHT
 10
0.0
 20
0.0
 30
0.0
  9
$PUCSORGFRONT
 10
0.0
 20
0.0
 30
0.0
  9
$PUCSORGBACK
 10
0.0
 20
0.0
 30
0.0
  9
$USERI1
 70
     0
  9
$USERI2
 70
     0
  9
$USERI3
 70
     0
  9
$USERI4
 70
     0
  9
$USERI5
 70
     0
  9
$USERR1
 40
0.0
  9
$USERR2
 40
0.0
  9
$USERR3
 40
0.0
  9
$USERR4
 40
0.0
  9
$USERR5
 40
0.0
  9
$WORLDVIEW
 70
     1
  9
$SHADEDGE
 70
     3
  9
$SHADEDIF
 70
    70
  9
$TILEMODE
 70
     1
  9
$MAXACTVP
 70
    64
  9
$PINSBASE
 10
0.0
 20
0.0
 30
0.0
  9
$PLIMCHECK
 70
     0
  9
$PEXTMIN
 10
1.000000000000000E+20
 20
1.000000000000000E+20
 30
1.000000000000000E+20
  9
$PEXTMAX
 10
-1.000000000000000E+20
 20
-1.000000000000000E+20
 30
-1.000000000000000E+20
  9
$PLIMMIN
 10
0.0
 20
0.0
  9
$PLIMMAX
 10
12.0
 20
9.0
  9
$UNITMODE
 70
     0
  9
$VISRETAIN
 70
     1
  9
$PLINEGEN
 70
     0
  9
$PSLTSCALE
 70
     1
  9
$TREEDEPTH
 70
  3020
  9
$CMLSTYLE
  2
Standard
  9
$CMLJUST
 70
     0
  9
$CMLSCALE
 40
1.0
  9
$PROXYGRAPHICS
 70
     1
  9
$MEASUREMENT
 70
     1
  9
$CELWEIGHT
370
    -1
  9
$ENDCAPS
280
     0
  9
$JOINSTYLE
280
     0
  9
$LWDISPLAY
290
     0
  9
$INSUNITS
 70
     4
  9
$HYPERLINKBASE
  1

  9
$STYLESHEET
  1
monochrome.ctb
  9
$XEDIT
290
     1
  9
$CEPSNTYPE
380
     0
  9
$PSTYLEMODE
290
     1
  9
$FINGERPRINTGUID
  2
{BAAD5FFC-9A2B-4E00-82CE-87C5A7EBCD66}
  9
$VERSIONGUID
  2
{827A3FFE-5013-D14C-8222-C050CA93563E}
  9
$EXTNAMES
290
     1
  9
$PSVPSCALE
 40
0.0
  9
$OLESTARTUP
290
     0
  9
$SORTENTS
280
   127
  9
$INDEXCTL
280
     0
  9
$HIDETEXT
280
     1
  9
$XCLIPFRAME
280
     0
  9
$HALOGAP
280
     0
  9
$OBSCOLOR
 70
   257
  9
$OBSLTYPE
280
     0
  9
$INTERSECTIONDISPLAY
280
     0
  9
$INTERSECTIONCOLOR
 70
   257
  9
$DIMASSOC
280
     2
  9
$PROJECTNAME
  1

  9
$CAMERADISPLAY
290
     0
  9
$LENSLENGTH
 40
50.0
  9
$CAMERAHEIGHT
 40
0.0
  9
$STEPSPERSEC
 40
2.0
  9
$STEPSIZE
 40
6.0
  9
$3DDWFPREC
 40
2.0
  9
$PSOLWIDTH
 40
0.25
  9
$PSOLHEIGHT
 40
4.0
  9
$LOFTANG1
 40
1.570796326794896
  9
$LOFTANG2
 40
1.570796326794896
  9
$LOFTMAG1
 40
0.0
  9
$LOFTMAG2
 40
0.0
  9
$LOFTPARAM
 70
     7
  9
$LOFTNORMALS
280
     1
  9
$LATITUDE
 40
37.795
  9
$LONGITUDE
 40
-122.394
  9
$NORTHDIRECTION
 40
0.0
  9
$TIMEZONE
 70
 -8000
  9
$LIGHTGLYPHDISPLAY
280
     1
  9
$TILEMODELIGHTSYNCH
280
     1
  9
$CMATERIAL
347
53F
  9
$SOLIDHIST
280
     1
  9
$SHOWHIST
280
     1
  9
$DWFFRAME
280
     2
  9
$DGNFRAME
280
     0
  9
$REALWORLDSCALE
290
     1
  9
$INTERFERECOLOR
 62
     1
  9
$INTERFEREOBJVS
345
54C
  9
$INTERFEREVPVS
346
549
  9
$CSHADOW
280
     0
  9
$SHADOWPLANELOCATION
 40
0.0
  0
ENDSEC
  0
SECTION
  2
CLASSES
  0
CLASS
  1
ACDBDICTIONARYWDFLT
  2
AcDbDictionaryWithDefault
  3
ObjectDBX Classes
 90
        0
 91
        1
280
     0
281
     0
  0
CLASS
  1
TABLESTYLE
  2
AcDbTableStyle
  3
ObjectDBX Classes
 90
     4095
 91
        2
280
     0
281
     0
  0
CLASS
  1
ACAD_TABLE
  2
AcDbTable
  3
ObjectDBX Classes
 90
     1025
 91
        2
280
     0
281
     1
  0
CLASS
  1
MATERIAL
  2
AcDbMaterial
  3
ObjectDBX Classes
 90
     1153
 91
        3
280
     0
281
     0
  0
CLASS
  1
VISUALSTYLE
  2
AcDbVisualStyle
  3
ObjectDBX Classes
 90
     4095
 91
       26
280
     0
281
     0
  0
CLASS
  1
SORTENTSTABLE
  2
AcDbSortentsTable
  3
ObjectDBX Classes
 90
        0
 91
        6
280
     0
281
     0
  0
CLASS
  1
DICTIONARYVAR
  2
AcDbDictionaryVar
  3
ObjectDBX Classes
 90
        0
 91
       17
280
     0
281
     0
  0
CLASS
  1
DIMASSOC
  2
AcDbDimAssoc
  3
"AcDbDimAssoc|Product Desc:     AcDim ARX App For Dimension|Company:          Autodesk, Inc.|WEB Address:      www.autodesk.com"
 90
        0
 91
        6
280
     0
281
     0
  0
CLASS
  1
SCALE
  2
AcDbScale
  3
ObjectDBX Classes
 90
     1153
 91
       17
280
     0
281
     0
  0
CLASS
  1
MLEADERSTYLE
  2
AcDbMLeaderStyle
  3
ACDB_MLEADERSTYLE_CLASS
 90
     4095
 91
        1
280
     0
281
     0
  0
CLASS
  1
ACDBSECTIONVIEWSTYLE
  2
AcDbSectionViewStyle
  3
ObjectDBX Classes
 90
     1025
 91
        1
280
     0
281
     0
  0
CLASS
  1
ACDBDETAILVIEWSTYLE
  2
AcDbDetailViewStyle
  3
ObjectDBX Classes
 90
     1025
 91
        1
280
     0
281
     0
  0
CLASS
  1
CELLSTYLEMAP
  2
AcDbCellStyleMap
  3
ObjectDBX Classes
 90
     1152
 91
        2
280
     0
281
     0
  0
ENDSEC
  0
SECTION
  2
TABLES
  0
TABLE
  2
VPORT
  5
8
330
0
100
AcDbSymbolTable
 70
     1
1001
ACAD
1000
DbSaveVer
1071
        5
  0
VPORT
  5
1F4
330
8
100
AcDbSymbolTableRecord
100
AcDbViewportTableRecord
  2
*ACTIVE
 70
     0
 10
0.0
 20
0.0
 11
1.0
 21
1.0
 12
291.1531906319579
 22
222.5305241122596
 13
0.0
 23
0.0
 14
1.0
 24
1.0
 15
0.0
 25
0.0
 16
0.0
 26
0.0
 36
1.0
 17
0.0
 27
0.0
 37
0.0
 40
281.3893584933942
 41
2.292712066905615
 42
50.0
 43
0.0
 44
0.0
 50
0.0
 51
0.0
 71
     0
 72
   100
 73
     1
 74
     1
 75
     0
 76
     0
 77
     0
 78
     0
281
     0
 65
     1
110
0.0
120
0.0
130
0.0
111
1.0
121
0.0
131
0.0
112
0.0
122
1.0
132
0.0
 79
     0
146
0.0
348
548
 60
     3
 61
     5
292
     1
282
     1
141
0.0
142
0.0
 63
   250
421
  3355443
1001
ACAD_NAV_VCDISPLAY
1070
     3
  0
ENDTAB
  0
TABLE
  2
LTYPE
  5
5
330
0
100
AcDbSymbolTable
 70
     7
  0
LTYPE
  5
14
330
5
100
AcDbSymbolTableRecord
100
AcDbLinetypeTableRecord
  2
BYBLOCK
 70
     0
  3

 72
    65
 73
     0
 40
0.0
  0
LTYPE
  5
15
330
5
100
AcDbSymbolTableRecord
100
AcDbLinetypeTableRecord
  2
BYLAYER
 70
     0
  3

 72
    65
 73
     0
 40
0.0
  0
LTYPE
  5
16
330
5
100
AcDbSymbolTableRecord
100
AcDbLinetypeTableRecord
  2
CONTINUOUS
 70
     0
  3
Solid line
 72
    65
 73
     0
 40
0.0
  0
LTYPE
  5
1F5
330
5
100
AcDbSymbolTableRecord
100
AcDbLinetypeTableRecord
  2
CENTER
 70
     0
  3
____ _ ____ _ ____ _ ____ _ ____ _ ____ _ ____
 72
    65
 73
     4
 40
0.6
 49
0.375
 74
     0
 49
-0.075
 74
     0
 49
0.075
 74
     0
 49
-0.075
 74
     0
  0
LTYPE
  5
1F6
330
5
100
AcDbSymbolTableRecord
100
AcDbLinetypeTableRecord
  2
HIDDEN
 70
     0
  3
- - - - - - - - - - - - - - - - - - - -
 72
    65
 73
     2
 40
0.2
 49
0.1
 74
     0
 49
-0.1
 74
     0
  0
LTYPE
  5
1F7
330
5
100
AcDbSymbolTableRecord
100
AcDbLinetypeTableRecord
  2
PHANTOM
 70
     0
  3
_____ _ _ _____ _ _ _____ _ _ _____
 72
    65
 73
     6
 40
0.8
 49
0.45
 74
     0
 49
-0.05
 74
     0
 49
0.1
 74
     0
 49
-0.05
 74
     0
 49
0.1
 74
     0
 49
-0.05
 74
     0
  0
LTYPE
  5
1F8
330
5
100
AcDbSymbolTableRecord
100
AcDbLinetypeTableRecord
  2
DOT
 70
     0
  3
. . . . . . . . . . . . . . . . . . . .
 72
    65
 73
     2
 40
0.2
 49
0.1
 74
     0
 49
-0.1
 74
     0
  0
LTYPE
  5
1F9
330
5
100
AcDbSymbolTableRecord
100
AcDbLinetypeTableRecord
  2
DASHED
 70
     0
  3
- - - - - - - - - - - - - - - - - - - -
 72
    65
 73
     2
 40
0.2
 49
0.1
 74
     0
 49
-0.1
 74
     0
  0
ENDTAB
  0
TABLE
  2
LAYER
  5
2
102
{ACAD_XDICTIONARY
360
769
102
}
330
0
100
AcDbSymbolTable
 70
    58
  0
LAYER
  5
10
102
{ACAD_XDICTIONARY
360
1AFD
102
}
330
2
100
AcDbSymbolTableRecord
100
AcDbLayerTableRecord
  2
0
 70
     0
 62
     7
  6
CONTINUOUS
370
    -3
390
F
347
541
348
0
  0
LAYER
  5
1FA
102
{ACAD_XDICTIONARY
360
1AFF
102
}
330
2
100
AcDbSymbolTableRecord
100
AcDbLayerTableRecord
  2
DEFAULT_1
 70
     0
 62
     7
  6
CENTER
370
    -3
390
F
347
541
348
0
  0
LAYER
  5
1FB
102
{ACAD_XDICTIONARY
360
1B01
102
}
330
2
100
AcDbSymbolTableRecord
100
AcDbLayerTableRecord
  2
DEFAULT_2
 70
     0
 62
     8
  6
HIDDEN
370
    -3
390
F
347
541
348
0
  0
LAYER
  5
1FC
102
{ACAD_XDICTIONARY
360
1B03
102
}
330
2
100
AcDbSymbolTableRecord
100
AcDbLayerTableRecord
  2
DEFAULT_3
 70
     0
 62
     7
  6
PHANTOM
370
    -3
390
F
347
541
348
0
  0
LAYER
  5
1FD
102
{ACAD_XDICTIONARY
360
1B05
102
}
330
2
100
AcDbSymbolTableRecord
100
AcDbLayerTableRecord
  2
01_ALL_DTM_PLN
 70
     0
 62
     7
  6
CONTINUOUS
370
    -3
390
F
347
541
348
0
  0
LAYER
  5
1FE
102
{ACAD_XDICTIONARY
360
1B07
102
}
330
2
100
AcDbSymbolTableRecord
100
AcDbLayerTableRecord
  2
01__ASM_ALL_DTM_PLN
 70
     0
 62
     7
  6
CONTINUOUS
370
    -3
390
F
347
541
348
0
  0
LAYER
  5
1FF
102
{ACAD_XDICTIONARY
360
1B09
102
}
330
2
100
AcDbSymbolTableRecord
100
AcDbLayerTableRecord
  2
01__ASM_DEF_DTM_PLN
 70
     0
 62
     7
  6
CONTINUOUS
370
    -3
390
F
347
541
348
0
  0
LAYER
  5
200
102
{ACAD_XDICTIONARY
360
1B0B
102
}
330
2
100
AcDbSymbolTableRecord
100
AcDbLayerTableRecord
  2
01___PRT_ALL_DTM_PLN
 70
     0
 62
     7
  6
CONTINUOUS
370
    -3
390
F
347
541
348
0
  0
LAYER
  5
201
102
{ACAD_XDICTIONARY
360
1B0D
102
}
330
2
100
AcDbSymbolTableRecord
100
AcDbLayerTableRecord
  2
01___PRT_DEF_DTM_PLN
 70
     0
 62
     7
  6
CONTINUOUS
370
    -3
390
F
347
541
348
0
  0
LAYER
  5
202
102
{ACAD_XDICTIONARY
360
1B0F
102
}
330
2
100
AcDbSymbolTableRecord
100
AcDbLayerTableRecord
  2
02_ALL_AXES
 70
     0
 62
     7
  6
CONTINUOUS
370
    -3
390
F
347
541
348
0
  0
LAYER
  5
203
102
{ACAD_XDICTIONARY
360
1B11
102
}
330
2
100
AcDbSymbolTableRecord
100
AcDbLayerTableRecord
  2
02__ASM_ALL_AXES
 70
     0
 62
     7
  6
CONTINUOUS
370
    -3
390
F
347
541
348
0
  0
LAYER
  5
204
102
{ACAD_XDICTIONARY
360
1B13
102
}
330
2
100
AcDbSymbolTableRecord
100
AcDbLayerTableRecord
  2
02___PRT_ALL_AXES
 70
     0
 62
     7
  6
CONTINUOUS
370
    -3
390
F
347
541
348
0
  0
LAYER
  5
205
102
{ACAD_XDICTIONARY
360
1B15
102
}
330
2
100
AcDbSymbolTableRecord
100
AcDbLayerTableRecord
  2
03_ALL_CURVES
 70
     0
 62
     7
  6
CONTINUOUS
370
    -3
390
F
347
541
348
0
  0
LAYER
  5
206
102
{ACAD_XDICTIONARY
360
1B17
102
}
330
2
100
AcDbSymbolTableRecord
100
AcDbLayerTableRecord
  2
03__ASM_ALL_CURVES
 70
     0
 62
     7
  6
CONTINUOUS
370
    -3
390
F
347
541
348
0
  0
LAYER
  5
207
102
{ACAD_XDICTIONARY
360
1B19
102
}
330
2
100
AcDbSymbolTableRecord
100
AcDbLayerTableRecord
  2
03___PRT_ALL_CURVES
 70
     0
 62
     7
  6
CONTINUOUS
370
    -3
390
F
347
541
348
0
  0
LAYER
  5
208
102
{ACAD_XDICTIONARY
360
1B1B
102
}
330
2
100
AcDbSymbolTableRecord
100
AcDbLayerTableRecord
  2
04_ALL_DTM_PNT
 70
     0
 62
     7
  6
CONTINUOUS
370
    -3
390
F
347
541
348
0
  0
LAYER
  5
209
102
{ACAD_XDICTIONARY
360
1B1D
102
}
330
2
100
AcDbSymbolTableRecord
100
AcDbLayerTableRecord
  2
04__ASM_ALL_DTM_PNT
 70
     0
 62
     7
  6
CONTINUOUS
370
    -3
390
F
347
541
348
0
  0
LAYER
  5
20A
102
{ACAD_XDICTIONARY
360
1B1F
102
}
330
2
100
AcDbSymbolTableRecord
100
AcDbLayerTableRecord
  2
04___PRT_ALL_DTM_PNT
 70
     0
 62
     7
  6
CONTINUOUS
370
    -3
390
F
347
541
348
0
  0
LAYER
  5
20B
102
{ACAD_XDICTIONARY
360
1B21
102
}
330
2
100
AcDbSymbolTableRecord
100
AcDbLayerTableRecord
  2
05_ALL_DTM_CSYS
 70
     0
 62
     7
  6
CONTINUOUS
370
    -3
390
F
347
541
348
0
  0
LAYER
  5
20C
102
{ACAD_XDICTIONARY
360
1B23
102
}
330
2
100
AcDbSymbolTableRecord
100
AcDbLayerTableRecord
  2
05__ASM_ALL_DTM_CSYS
 70
     0
 62
     7
  6
CONTINUOUS
370
    -3
390
F
347
541
348
0
  0
LAYER
  5
20D
102
{ACAD_XDICTIONARY
360
1B25
102
}
330
2
100
AcDbSymbolTableRecord
100
AcDbLayerTableRecord
  2
05__ASM_DEF_DTM_CSYS
 70
     0
 62
     7
  6
CONTINUOUS
370
    -3
390
F
347
541
348
0
  0
LAYER
  5
20E
102
{ACAD_XDICTIONARY
360
1B27
102
}
330
2
100
AcDbSymbolTableRecord
100
AcDbLayerTableRecord
  2
05___PRT_ALL_DTM_CSYS
 70
     0
 62
     7
  6
CONTINUOUS
370
    -3
390
F
347
541
348
0
  0
LAYER
  5
20F
102
{ACAD_XDICTIONARY
360
1B29
102
}
330
2
100
AcDbSymbolTableRecord
100
AcDbLayerTableRecord
  2
05___PRT_DEF_DTM_CSYS
 70
     0
 62
     7
  6
CONTINUOUS
370
    -3
390
F
347
541
348
0
  0
LAYER
  5
210
102
{ACAD_XDICTIONARY
360
1B2B
102
}
330
2
100
AcDbSymbolTableRecord
100
AcDbLayerTableRecord
  2
06_ALL_SURFS
 70
     0
 62
     7
  6
CONTINUOUS
370
    -3
390
F
347
541
348
0
  0
LAYER
  5
211
102
{ACAD_XDICTIONARY
360
1B2D
102
}
330
2
100
AcDbSymbolTableRecord
100
AcDbLayerTableRecord
  2
06__ASM_ALL_SURFS
 70
     0
 62
     7
  6
CONTINUOUS
370
    -3
390
F
347
541
348
0
  0
LAYER
  5
212
102
{ACAD_XDICTIONARY
360
1B2F
102
}
330
2
100
AcDbSymbolTableRecord
100
AcDbLayerTableRecord
  2
06___PRT_ALL_SURFS
 70
     0
 62
     7
  6
CONTINUOUS
370
    -3
390
F
347
541
348
0
  0
LAYER
  5
213
102
{ACAD_XDICTIONARY
360
1B31
102
}
330
2
100
AcDbSymbolTableRecord
100
AcDbLayerTableRecord
  2
06___PRT_AL_SURFS
 70
     0
 62
     7
  6
CONTINUOUS
370
    -3
390
F
347
541
348
0
  0
LAYER
  5
214
102
{ACAD_XDICTIONARY
360
1B33
102
}
330
2
100
AcDbSymbolTableRecord
100
AcDbLayerTableRecord
  2
07__ASM_ALL_SKELETONS
 70
     0
 62
     7
  6
CONTINUOUS
370
    -3
390
F
347
541
348
0
  0
LAYER
  5
215
102
{ACAD_XDICTIONARY
360
1B35
102
}
330
2
100
AcDbSymbolTableRecord
100
AcDbLayerTableRecord
  2
A
 70
     0
 62
     7
  6
CONTINUOUS
370
    -3
390
F
347
541
348
0
  0
LAYER
  5
216
102
{ACAD_XDICTIONARY
360
1B37
102
}
330
2
100
AcDbSymbolTableRecord
100
AcDbLayerTableRecord
  2
AXIS
 70
     0
 62
     7
  6
CONTINUOUS
370
    -3
390
F
347
541
348
0
  0
LAYER
  5
217
102
{ACAD_XDICTIONARY
360
1B39
102
}
330
2
100
AcDbSymbolTableRecord
100
AcDbLayerTableRecord
  2
CSYS
 70
     0
 62
     7
  6
CONTINUOUS
370
    -3
390
F
347
541
348
0
  0
LAYER
  5
218
102
{ACAD_XDICTIONARY
360
1B3B
102
}
330
2
100
AcDbSymbolTableRecord
100
AcDbLayerTableRecord
  2
CURVE
 70
     0
 62
     7
  6
CONTINUOUS
370
    -3
390
F
347
541
348
0
  0
LAYER
  5
219
102
{ACAD_XDICTIONARY
360
1B3D
102
}
330
2
100
AcDbSymbolTableRecord
100
AcDbLayerTableRecord
  2
DATUM
 70
     0
 62
     7
  6
CONTINUOUS
370
    -3
390
F
347
541
348
0
  0
LAYER
  5
21A
102
{ACAD_XDICTIONARY
360
1B3F
102
}
330
2
100
AcDbSymbolTableRecord
100
AcDbLayerTableRecord
  2
DRIVEN_DIM
 70
     0
 62
     7
  6
CONTINUOUS
370
    -3
390
F
347
541
348
0
  0
LAYER
  5
21B
102
{ACAD_XDICTIONARY
360
1B41
102
}
330
2
100
AcDbSymbolTableRecord
100
AcDbLayerTableRecord
  2
NOTE
 70
     0
 62
     7
  6
CONTINUOUS
370
    -3
390
F
347
541
348
0
  0
LAYER
  5
21C
102
{ACAD_XDICTIONARY
360
1B43
102
}
330
2
100
AcDbSymbolTableRecord
100
AcDbLayerTableRecord
  2
PARAMETER_DIM
 70
     0
 62
     7
  6
CONTINUOUS
370
    -3
390
F
347
541
348
0
  0
LAYER
  5
21D
102
{ACAD_XDICTIONARY
360
1B45
102
}
330
2
100
AcDbSymbolTableRecord
100
AcDbLayerTableRecord
  2
QUILT
 70
     0
 62
     7
  6
CONTINUOUS
370
    -3
390
F
347
541
348
0
  0
LAYER
  5
21E
102
{ACAD_XDICTIONARY
360
1B47
102
}
330
2
100
AcDbSymbolTableRecord
100
AcDbLayerTableRecord
  2
SURFACE
 70
     0
 62
     7
  6
CONTINUOUS
370
    -3
390
F
347
541
348
0
  0
LAYER
  5
21F
102
{ACAD_XDICTIONARY
360
1B49
102
}
330
2
100
AcDbSymbolTableRecord
100
AcDbLayerTableRecord
  2
SURFACE_FIN
 70
     0
 62
     7
  6
CONTINUOUS
370
    -3
390
F
347
541
348
0
  0
LAYER
  5
220
102
{ACAD_XDICTIONARY
360
1B4B
102
}
330
2
100
AcDbSymbolTableRecord
100
AcDbLayerTableRecord
  2
SYMBOL
 70
     0
 62
     7
  6
CONTINUOUS
370
    -3
390
F
347
541
348
0
  0
LAYER
  5
221
102
{ACAD_XDICTIONARY
360
1B4D
102
}
330
2
100
AcDbSymbolTableRecord
100
AcDbLayerTableRecord
  2
TEMP_AXES
 70
     0
 62
     7
  6
CONTINUOUS
370
    -3
390
F
347
541
348
0
  0
LAYER
  5
222
102
{ACAD_XDICTIONARY
360
1B4F
102
}
330
2
100
AcDbSymbolTableRecord
100
AcDbLayerTableRecord
  2
TEMP_CURVES
 70
     0
 62
     7
  6
CONTINUOUS
370
    -3
390
F
347
541
348
0
  0
LAYER
  5
223
102
{ACAD_XDICTIONARY
360
1B51
102
}
330
2
100
AcDbSymbolTableRecord
100
AcDbLayerTableRecord
  2
TEMP_NOTE
 70
     0
 62
     7
  6
CONTINUOUS
370
    -3
390
F
347
541
348
0
  0
LAYER
  5
224
102
{ACAD_XDICTIONARY
360
1B53
102
}
330
2
100
AcDbSymbolTableRecord
100
AcDbLayerTableRecord
  2
TEMP_PLN
 70
     0
 62
     7
  6
CONTINUOUS
370
    -3
390
F
347
541
348
0
  0
LAYER
  5
225
102
{ACAD_XDICTIONARY
360
1B55
102
}
330
2
100
AcDbSymbolTableRecord
100
AcDbLayerTableRecord
  2
TEMP_PNT
 70
     0
 62
     7
  6
CONTINUOUS
370
    -3
390
F
347
541
348
0
  0
LAYER
  5
226
102
{ACAD_XDICTIONARY
360
1B57
102
}
330
2
100
AcDbSymbolTableRecord
100
AcDbLayerTableRecord
  2
TEMP_SURFS
 70
     0
 62
     7
  6
CONTINUOUS
370
    -3
390
F
347
541
348
0
  0
LAYER
  5
227
102
{ACAD_XDICTIONARY
360
1B59
102
}
330
2
100
AcDbSymbolTableRecord
100
AcDbLayerTableRecord
  2
THREAD
 70
     0
 62
     7
  6
CONTINUOUS
370
    -3
390
F
347
541
348
0
  0
LAYER
  5
228
102
{ACAD_XDICTIONARY
360
1B5B
102
}
330
2
100
AcDbSymbolTableRecord
100
AcDbLayerTableRecord
  2
YC
 70
     0
 62
     7
  6
CONTINUOUS
370
    -3
390
F
347
541
348
0
  0
LAYER
  5
78F
330
2
100
AcDbSymbolTableRecord
100
AcDbLayerTableRecord
  2
Defpoints
 70
     0
 62
     7
  6
CONTINUOUS
290
     0
370
    -3
390
F
347
541
348
0
  0
LAYER
  5
8CC
102
{ACAD_XDICTIONARY
360
8CD
102
}
330
2
100
AcDbSymbolTableRecord
100
AcDbLayerTableRecord
  2
尺寸线
 70
     0
 62
     2
  6
CONTINUOUS
370
    15
390
F
347
541
348
0
1001
AcAecLayerStandard
1000

1000

1001
AcadStringInfo
1000
MIFCodePage
1070
     5
  0
LAYER
  5
8CF
102
{ACAD_XDICTIONARY
360
1B5D
102
}
330
2
100
AcDbSymbolTableRecord
100
AcDbLayerTableRecord
  2
51001-1_DXF_CONTINUOUS_LINE
 70
     0
 62
     7
  6
CONTINUOUS
370
    -3
390
F
347
541
348
0
  0
LAYER
  5
8D0
102
{ACAD_XDICTIONARY
360
1B5F
102
}
330
2
100
AcDbSymbolTableRecord
100
AcDbLayerTableRecord
  2
51001-1把手_DXF_CONTINUOUS_LINE
 70
     0
 62
     7
  6
CONTINUOUS
370
    -3
390
F
347
541
348
0
1001
AcadStringInfo
1000
MIFCodePage
1070
     5
  0
LAYER
  5
10CA
102
{ACAD_XDICTIONARY
360
1B61
102
}
330
2
100
AcDbSymbolTableRecord
100
AcDbLayerTableRecord
  2
206025831626_左边_4_BL3
 70
     0
 62
     7
  6
CONTINUOUS
370
    -3
390
F
347
541
348
0
1001
AcadStringInfo
1000
MIFCodePage
1070
     5
  0
LAYER
  5
10CB
102
{ACAD_XDICTIONARY
360
1B63
102
}
330
2
100
AcDbSymbolTableRecord
100
AcDbLayerTableRecord
  2
207030691717_左边_4_BL16
 70
     0
 62
     7
  6
CONTINUOUS
370
    -3
390
F
347
541
348
0
1001
AcadStringInfo
1000
MIFCodePage
1070
     5
  0
LAYER
  5
10CC
102
{ACAD_XDICTIONARY
360
1B65
102
}
330
2
100
AcDbSymbolTableRecord
100
AcDbLayerTableRecord
  2
202016730226_左边_4_BL18
 70
     0
 62
     7
  6
CONTINUOUS
370
    -3
390
F
347
541
348
0
1001
AcadStringInfo
1000
MIFCodePage
1070
     5
  0
LAYER
  5
10CD
102
{ACAD_XDICTIONARY
360
1B67
102
}
330
2
100
AcDbSymbolTableRecord
100
AcDbLayerTableRecord
  2
201512570111_DR_左边_4_BL19
 70
     0
 62
     7
  6
CONTINUOUS
370
    -3
390
F
347
541
348
0
1001
AcadStringInfo
1000
MIFCodePage
1070
     5
  0
LAYER
  5
10CE
102
{ACAD_XDICTIONARY
360
1B69
102
}
330
2
100
AcDbSymbolTableRecord
100
AcDbLayerTableRecord
  2
DIMENSION
 70
     0
 62
     3
  6
CONTINUOUS
370
     9
390
F
347
541
348
0
  0
LAYER
  5
10CF
102
{ACAD_XDICTIONARY
360
1B6B
102
}
330
2
100
AcDbSymbolTableRecord
100
AcDbLayerTableRecord
  2
CENTER
 70
     0
 62
     1
  6
CENTER
370
     9
390
F
347
541
348
0
  0
ENDTAB
  0
TABLE
  2
STYLE
  5
3
330
0
100
AcDbSymbolTable
 70
    10
  0
STYLE
  5
11
330
3
100
AcDbSymbolTableRecord
100
AcDbTextStyleTableRecord
  2
STANDARD
 70
     0
 40
0.0
 41
1.0
 50
0.0
 71
     0
 42
0.2
  3
simfang_0.ttf
  4

1001
ACAD
1000
FangSong
1071
    34353
  0
STYLE
  5
229
330
3
100
AcDbSymbolTableRecord
100
AcDbTextStyleTableRecord
  2
TEXTSTYLE_1
 70
     0
 40
0.0
 41
0.8
 50
0.0
 71
     0
 42
0.2
  3
gdt
  4

  0
STYLE
  5
22A
330
3
100
AcDbSymbolTableRecord
100
AcDbTextStyleTableRecord
  2
TEXTSTYLE_2
 70
     0
 40
0.0
 41
1.0
 50
0.0
 71
     0
 42
0.2
  3
simfang.ttf
  4

  0
STYLE
  5
22B
330
3
100
AcDbSymbolTableRecord
100
AcDbTextStyleTableRecord
  2
TEXTSTYLE_3
 70
     0
 40
0.0
 41
0.75
 50
0.0
 71
     0
 42
0.2
  3
gdt
  4

  0
STYLE
  5
22C
330
3
100
AcDbSymbolTableRecord
100
AcDbTextStyleTableRecord
  2
TEXTSTYLE_4
 70
     0
 40
0.0
 41
1.0
 50
0.0
 71
     0
 42
0.2
  3
simfang.ttf
  4

  0
STYLE
  5
22D
330
3
100
AcDbSymbolTableRecord
100
AcDbTextStyleTableRecord
  2
TEXTSTYLE_5
 70
     0
 40
0.0
 41
1.0
 50
0.0
 71
     0
 42
0.2
  3
shanno.ttf
  4

  0
STYLE
  5
22E
330
3
100
AcDbSymbolTableRecord
100
AcDbTextStyleTableRecord
  2
TEXTSTYLE_6
 70
     0
 40
0.0
 41
1.0
 50
0.0
 71
     0
 42
0.2
  3
simfang.ttf
  4

  0
STYLE
  5
22F
330
3
100
AcDbSymbolTableRecord
100
AcDbTextStyleTableRecord
  2
TEXTSTYLE_7
 70
     0
 40
0.0
 41
1.0
 50
0.0
 71
     0
 42
0.2
  3
simfang.ttf
  4

  0
STYLE
  5
8D1
330
3
100
AcDbSymbolTableRecord
100
AcDbTextStyleTableRecord
  2
15
 70
     0
 40
15.0
 41
1.0
 50
0.0
 71
     0
 42
15.0
  3
SimSun.ttf
  4

1001
ACAD
1000
SimSun
1071
    34306
  0
STYLE
  5
8D2
330
3
100
AcDbSymbolTableRecord
100
AcDbTextStyleTableRecord
  2
20
 70
     0
 40
30.0
 41
1.0
 50
0.0
 71
     0
 42
30.0
  3
SimSun.ttf
  4

1001
ACAD
1000
SimSun
1071
    34306
  0
ENDTAB
  0
TABLE
  2
VIEW
  5
6
330
0
100
AcDbSymbolTable
 70
     0
  0
ENDTAB
  0
TABLE
  2
UCS
  5
7
330
0
100
AcDbSymbolTable
 70
     0
  0
ENDTAB
  0
TABLE
  2
APPID
  5
9
330
0
100
AcDbSymbolTable
 70
    11
  0
APPID
  5
230
330
9
100
AcDbSymbolTableRecord
100
AcDbRegAppTableRecord
  2
ACAD
 70
     0
  0
APPID
  5
8D7
330
9
100
AcDbSymbolTableRecord
100
AcDbRegAppTableRecord
  2
ACAD_PSEXT
 70
     0
  0
APPID
  5
8D8
330
9
100
AcDbSymbolTableRecord
100
AcDbRegAppTableRecord
  2
AcAecLayerStandard
 70
     0
  0
APPID
  5
8D9
330
9
100
AcDbSymbolTableRecord
100
AcDbRegAppTableRecord
  2
ACAD_DSTYLE_DIMJAG
 70
     0
  0
APPID
  5
8DA
330
9
100
AcDbSymbolTableRecord
100
AcDbRegAppTableRecord
  2
ACAD_DSTYLE_DIMTALN
 70
     0
  0
APPID
  5
8DB
330
9
100
AcDbSymbolTableRecord
100
AcDbRegAppTableRecord
  2
ACAD_NAV_VCDISPLAY
 70
     0
  0
APPID
  5
8DC
330
9
100
AcDbSymbolTableRecord
100
AcDbRegAppTableRecord
  2
ACAD_DSTYLE_DIMBREAK
 70
     0
  0
APPID
  5
AFC
330
9
100
AcDbSymbolTableRecord
100
AcDbRegAppTableRecord
  2
ACAD_EXEMPT_FROM_CAD_STANDARDS
 70
     0
  0
APPID
  5
195F
330
9
100
AcDbSymbolTableRecord
100
AcDbRegAppTableRecord
  2
DCO15
 70
     0
  0
APPID
  5
1995
330
9
100
AcDbSymbolTableRecord
100
AcDbRegAppTableRecord
  2
AcadStringInfo
 70
     0
  0
APPID
  5
1A69
330
9
100
AcDbSymbolTableRecord
100
AcDbRegAppTableRecord
  2
AcadAnnoMonitorAlertIconDisabled
 70
     0
  0
ENDTAB
  0
TABLE
  2
DIMSTYLE
  5
A
330
0
100
AcDbSymbolTable
 70
     9
100
AcDbDimStyleTable
 71
     2
340
244
340
14A1
  0
DIMSTYLE
105
244
102
{ACAD_REACTORS
330
1080
102
}
330
A
100
AcDbSymbolTableRecord
100
AcDbDimStyleTableRecord
  2
STANDARD
 70
     0
 41
4.0
 42
1.0
 44
1.5
 47
0.01
 48
0.01
 71
     1
 73
     0
 74
     0
 77
     1
 78
     8
140
5.0
147
0.625
178
     5
271
     2
272
     2
284
     8
340
11
341
233
342
233
343
233
344
233
  0
DIMSTYLE
105
245
330
A
100
AcDbSymbolTableRecord
100
AcDbDimStyleTableRecord
  2
DIMSTYLE_1
 70
     0
 41
4.0
 42
1.0
 44
1.5
 47
0.5
 48
0.5
 78
     8
140
5.0
147
0.625
178
     5
271
     1
272
     1
284
     8
340
11
341
233
342
233
343
233
344
233
  0
DIMSTYLE
105
246
330
A
100
AcDbSymbolTableRecord
100
AcDbDimStyleTableRecord
  2
DIMSTYLE_2
 70
     0
 41
4.0
 42
1.0
 44
1.5
 47
0.01
 48
0.01
 73
     0
 74
     0
 77
     1
 78
     8
140
5.0
147
0.625
178
     5
271
     2
272
     2
284
     8
340
11
341
233
342
233
343
233
344
233
  0
DIMSTYLE
105
8D3
330
A
100
AcDbSymbolTableRecord
100
AcDbDimStyleTableRecord
  2
ISO-25
 70
     0
 41
2.5
 42
0.7
 43
3.75
 44
0.5
 73
     0
 74
     0
 77
     1
 78
     8
140
2.5
141
2.5
143
0.03937007874016
147
0.625
171
     3
172
     1
271
     2
272
     2
274
     3
283
     0
284
     8
340
11
  0
DIMSTYLE
105
8D4
330
A
100
AcDbSymbolTableRecord
100
AcDbDimStyleTableRecord
  2
10
 70
     0
 41
5.0
 42
0.7
 43
0.5
 44
0.5
 73
     0
 74
     0
 77
     1
 78
     8
140
10.0
141
2.5
143
0.03937007874016
144
2.0
147
0.625
171
     3
172
     1
271
     2
272
     2
274
     3
283
     0
284
     8
340
8D1
  0
DIMSTYLE
105
8D5
330
A
100
AcDbSymbolTableRecord
100
AcDbDimStyleTableRecord
  2
副本 ISO-25
 70
     0
 41
5.0
 42
0.7
 43
3.75
 44
0.5
 73
     0
 74
     0
 77
     1
 78
     8
140
15.0
141
2.5
143
0.03937007874016
147
0.625
171
     3
172
     1
271
     2
272
     2
274
     3
283
     0
284
     8
340
8D1
1001
ACAD_DSTYLE_DIMBREAK
1070
   391
1040
3.75
1001
ACAD_DSTYLE_DIMJAG
1070
   388
1040
1.5
1001
ACAD_DSTYLE_DIMTALN
1070
   392
1070
     0
1001
AcadStringInfo
1000
MIFCodePage
1070
     5
  0
DIMSTYLE
105
8D6
330
A
100
AcDbSymbolTableRecord
100
AcDbDimStyleTableRecord
  2
副本 (2) ISO-25
 70
     0
 41
5.0
 42
0.7
 43
3.75
 44
0.5
 73
     0
 74
     0
 77
     1
 78
     8
140
30.0
141
2.5
143
0.03937007874016
147
0.625
171
     3
172
     1
271
     2
272
     2
274
     3
283
     0
284
     8
340
8D2
1001
ACAD_DSTYLE_DIMBREAK
1070
   391
1040
3.75
1001
ACAD_DSTYLE_DIMJAG
1070
   388
1040
1.5
1001
ACAD_DSTYLE_DIMTALN
1070
   392
1070
     0
1001
AcadStringInfo
1000
MIFCodePage
1070
     5
  0
DIMSTYLE
105
10D0
330
A
100
AcDbSymbolTableRecord
100
AcDbDimStyleTableRecord
  2
DIMSTYLE_4
 70
     0
 41
2.399999999999999
 42
1.0
 43
3.25
 44
1.0
 47
0.3
 48
0.3
 73
     0
 74
     0
 77
     1
 78
     8
140
3.0
141
0.0
144
2.0
147
1.0
172
     1
271
     1
272
     1
284
     8
340
11
341
233
342
233
  0
DIMSTYLE
105
14A1
102
{ACAD_REACTORS
330
147A
330
1509
330
153E
330
16E8
330
185B
330
1778
102
}
330
A
100
AcDbSymbolTableRecord
100
AcDbDimStyleTableRecord
  2
A
 70
     0
 41
4.0
 42
1.0
 44
1.5
 47
0.01
 48
0.01
 73
     0
 74
     0
 77
     1
 78
     8
140
6.0
147
1.0
172
     1
178
     5
179
     1
271
     2
272
     2
284
     8
340
11
341
233
342
233
  0
ENDTAB
  0
TABLE
  2
BLOCK_RECORD
  5
1
330
0
100
AcDbSymbolTable
 70
    28
  0
BLOCK_RECORD
  5
231
102
{ACAD_XDICTIONARY
360
55A
102
}
330
1
100
AcDbSymbolTableRecord
100
AcDbBlockTableRecord
  2
*Model_Space
340
538
 70
     0
280
     1
281
     0
  0
BLOCK_RECORD
  5
232
330
1
100
AcDbSymbolTableRecord
100
AcDbBlockTableRecord
  2
*Paper_Space
340
539
 70
     0
280
     1
281
     0
  0
BLOCK_RECORD
  5
233
330
1
100
AcDbSymbolTableRecord
100
AcDbBlockTableRecord
  2
_FILLED
340
0
102
{BLKREFS
331
D00
331
ED9
331
EDA
331
CB4
331
CB5
331
CC0
331
CC1
331
CCD
331
CCE
331
CD9
331
CDA
331
CE6
331
CE7
331
CF3
331
CF4
331
CFF
331
1A77
331
1A78
331
1A89
331
1A8A
331
1A9F
331
1AA0
331
1AB3
331
1AB4
331
1AC7
331
1AC8
331
1AD9
331
1ADA
331
1AF7
331
1AF8
102
}
 70
     0
280
     1
281
     0
  0
BLOCK_RECORD
  5
23B
330
1
100
AcDbSymbolTableRecord
100
AcDbBlockTableRecord
  2
SYMBOL_3_BL2
340
0
 70
     0
280
     1
281
     0
  0
BLOCK_RECORD
  5
23C
330
1
100
AcDbSymbolTableRecord
100
AcDbBlockTableRecord
  2
SYMBOL_1_BL1
340
0
 70
     0
280
     1
281
     0
  0
BLOCK_RECORD
  5
23D
330
1
100
AcDbSymbolTableRecord
100
AcDbBlockTableRecord
  2
SYMBOL_0_BL0
340
0
 70
     0
280
     1
281
     0
  0
BLOCK_RECORD
  5
CAF
330
1
100
AcDbSymbolTableRecord
100
AcDbBlockTableRecord
  2
*D6
340
0
 70
     0
280
     1
281
     0
  0
BLOCK_RECORD
  5
CBB
330
1
100
AcDbSymbolTableRecord
100
AcDbBlockTableRecord
  2
*D7
340
0
 70
     0
280
     1
281
     0
  0
BLOCK_RECORD
  5
CC7
330
1
100
AcDbSymbolTableRecord
100
AcDbBlockTableRecord
  2
*D8
340
0
 70
     0
280
     1
281
     0
  0
BLOCK_RECORD
  5
CD4
330
1
100
AcDbSymbolTableRecord
100
AcDbBlockTableRecord
  2
*D9
340
0
 70
     0
280
     1
281
     0
  0
BLOCK_RECORD
  5
CE0
330
1
100
AcDbSymbolTableRecord
100
AcDbBlockTableRecord
  2
*D10
340
0
 70
     0
280
     1
281
     0
  0
BLOCK_RECORD
  5
CED
330
1
100
AcDbSymbolTableRecord
100
AcDbBlockTableRecord
  2
*D11
340
0
 70
     0
280
     1
281
     0
  0
BLOCK_RECORD
  5
CFA
330
1
100
AcDbSymbolTableRecord
100
AcDbBlockTableRecord
  2
*D12
340
0
 70
     0
280
     1
281
     0
  0
BLOCK_RECORD
  5
D06
102
{ACAD_XDICTIONARY
360
D96
102
}
330
1
100
AcDbSymbolTableRecord
100
AcDbBlockTableRecord
  2
A$C4AE13D6C
340
0
 70
     4
280
     1
281
     0
  0
BLOCK_RECORD
  5
ED4
330
1
100
AcDbSymbolTableRecord
100
AcDbBlockTableRecord
  2
*D14
340
0
 70
     0
280
     1
281
     0
  0
BLOCK_RECORD
  5
EE0
102
{ACAD_XDICTIONARY
360
F69
102
}
330
1
100
AcDbSymbolTableRecord
100
AcDbBlockTableRecord
  2
A$C69525F90
340
0
 70
     4
280
     1
281
     0
  0
BLOCK_RECORD
  5
1090
330
1
100
AcDbSymbolTableRecord
100
AcDbBlockTableRecord
  2
*D16
340
0
 70
     0
280
     1
281
     0
  0
BLOCK_RECORD
  5
10B4
330
1
100
AcDbSymbolTableRecord
100
AcDbBlockTableRecord
  2
207030691717_左边_4_BL16
340
0
 70
     0
280
     1
281
     0
1001
AcadStringInfo
1000
MIFCodePage
1070
     5
  0
BLOCK_RECORD
  5
10C1
330
1
100
AcDbSymbolTableRecord
100
AcDbBlockTableRecord
  2
201512570111_DR_左边_4_BL19
340
0
 70
     0
280
     1
281
     0
1001
AcadStringInfo
1000
MIFCodePage
1070
     5
  0
BLOCK_RECORD
  5
11CF
102
{ACAD_XDICTIONARY
360
11D1
102
}
330
1
100
AcDbSymbolTableRecord
100
AcDbBlockTableRecord
  2
A$C12DB153C
340
0
 70
     4
280
     1
281
     0
  0
BLOCK_RECORD
  5
147B
330
1
100
AcDbSymbolTableRecord
100
AcDbBlockTableRecord
  2
*D20
340
0
 70
     0
280
     1
281
     0
  0
BLOCK_RECORD
  5
150A
330
1
100
AcDbSymbolTableRecord
100
AcDbBlockTableRecord
  2
*D21
340
0
 70
     0
280
     1
281
     0
  0
BLOCK_RECORD
  5
153F
330
1
100
AcDbSymbolTableRecord
100
AcDbBlockTableRecord
  2
*D22
340
0
 70
     0
280
     1
281
     0
  0
BLOCK_RECORD
  5
16E9
330
1
100
AcDbSymbolTableRecord
100
AcDbBlockTableRecord
  2
*D23
340
0
 70
     0
280
     1
281
     0
  0
BLOCK_RECORD
  5
1779
330
1
100
AcDbSymbolTableRecord
100
AcDbBlockTableRecord
  2
*D24
340
0
 70
     0
280
     1
281
     0
  0
BLOCK_RECORD
  5
179C
102
{ACAD_XDICTIONARY
360
17A0
102
}
330
1
100
AcDbSymbolTableRecord
100
AcDbBlockTableRecord
  2
A$C072F7AC0
340
0
 70
     4
280
     1
281
     0
  0
BLOCK_RECORD
  5
1822
102
{ACAD_XDICTIONARY
360
183E
102
}
330
1
100
AcDbSymbolTableRecord
100
AcDbBlockTableRecord
  2
A$C4E661C54
340
0
 70
     4
280
     1
281
     0
  0
BLOCK_RECORD
  5
185C
330
1
100
AcDbSymbolTableRecord
100
AcDbBlockTableRecord
  2
*D27
340
0
 70
     0
280
     1
281
     0
  0
ENDTAB
  0
ENDSEC
  0
SECTION
  2
BLOCKS
  0
BLOCK
  5
20
330
231
100
AcDbEntity
  8
0
100
AcDbBlockBegin
  2
*Model_Space
 70
     0
 10
0.0
 20
0.0
 30
0.0
  3
*Model_Space
  1

  0
ENDBLK
  5
21
330
231
100
AcDbEntity
  8
0
100
AcDbBlockEnd
  0
BLOCK
  5
1C
330
232
100
AcDbEntity
 67
     1
  8
0
100
AcDbBlockBegin
  2
*Paper_Space
 70
     0
 10
0.0
 20
0.0
 30
0.0
  3
*Paper_Space
  1

  0
ENDBLK
  5
1D
330
232
100
AcDbEntity
 67
     1
  8
0
100
AcDbBlockEnd
  0
BLOCK
  5
3C3
330
233
100
AcDbEntity
  8
0
100
AcDbBlockBegin
  2
_FILLED
 70
     0
 10
0.0
 20
0.0
 30
0.0
  3
_FILLED
  1

  0
SOLID
  5
3C4
330
233
100
AcDbEntity
  8
0
  6
ByBlock
 62
     0
100
AcDbTrace
 10
0.0
 20
0.0
 30
0.0
 11
-1.0
 21
0.2
 31
0.0
 12
-1.0
 22
-0.2
 32
0.0
 13
-1.0
 23
-0.2
 33
0.0
  0
ENDBLK
  5
3C5
330
233
100
AcDbEntity
  8
0
  6
ByBlock
 62
     0
100
AcDbBlockEnd
  0
BLOCK
  5
247
330
23B
100
AcDbEntity
  8
0
  6
Continuous
 62
     5
100
AcDbBlockBegin
  2
SYMBOL_3_BL2
 70
     0
 10
473.2841042375
 20
61.65950645249999
 30
0.0
  3
SYMBOL_3_BL2
  1

  0
LINE
  5
248
330
23B
100
AcDbEntity
  8
0
  6
Continuous
 62
     5
100
AcDbLine
 10
464.5457835496999
 20
69.6595064525
 30
0.0
 11
469.2830128567999
 21
69.6595064525
 31
0.0
  0
LINE
  5
249
330
23B
100
AcDbEntity
  8
0
  6
Continuous
 62
     5
100
AcDbLine
 10
464.5457835496999
 20
69.6595064525
 30
0.0
 11
469.2830128567999
 21
69.6595064525
 31
0.0
  0
LINE
  5
24A
330
23B
100
AcDbEntity
  8
0
  6
Continuous
 62
     5
100
AcDbLine
 10
482.0224249253
 20
69.6595064525
 30
0.0
 11
482.0224249253
 21
53.65950645249999
 31
0.0
  0
LINE
  5
24B
330
23B
100
AcDbEntity
  8
0
  6
Continuous
 62
     5
100
AcDbLine
 10
482.0224249253
 20
53.65950645249999
 30
0.0
 11
477.5439986305
 21
53.65950645249999
 31
0.0
  0
LINE
  5
24C
330
23B
100
AcDbEntity
  8
0
  6
Continuous
 62
     5
100
AcDbLine
 10
464.5457835496999
 20
53.65950645249999
 30
0.0
 11
464.5457835496999
 21
69.6595064525
 31
0.0
  0
LINE
  5
24D
330
23B
100
AcDbEntity
  8
0
  6
Continuous
 62
     5
100
AcDbLine
 10
473.4609251249
 20
64.44070996189999
 30
0.0
 11
477.6388373930999
 21
69.6595064525
 31
0.0
  0
CIRCLE
  5
24E
330
23B
100
AcDbEntity
  8
0
  6
Continuous
 62
     5
100
AcDbCircle
 10
469.229129053
 20
64.8101177006
 30
0.0
 40
1.492658786899999
  0
LINE
  5
24F
330
23B
100
AcDbEntity
  8
0
  6
Continuous
 62
     5
100
AcDbLine
 10
477.5439986305
 20
61.92150365789999
 30
0.0
 11
475.6118298795
 21
61.92150365789999
 31
0.0
  0
LINE
  5
250
330
23B
100
AcDbEntity
  8
0
  6
Continuous
 62
     5
100
AcDbLine
 10
477.5439986305
 20
53.65950645249999
 30
0.0
 11
477.5439986305
 21
61.92150365789999
 31
0.0
  0
LINE
  5
251
330
23B
100
AcDbEntity
  8
0
  6
Continuous
 62
     5
100
AcDbLine
 10
475.6118298795
 20
53.65950645249999
 30
0.0
 11
475.6118298795
 21
61.92150365789999
 31
0.0
  0
LINE
  5
252
330
23B
100
AcDbEntity
  8
0
  6
Continuous
 62
     5
100
AcDbLine
 10
469.2320279046
 20
53.65950645249999
 30
0.0
 11
469.2320279046
 21
61.92150365789999
 31
0.0
  0
LINE
  5
253
330
23B
100
AcDbEntity
  8
0
  6
Continuous
 62
     5
100
AcDbLine
 10
471.3100203703
 20
53.65950645249999
 30
0.0
 11
471.3100203703
 21
61.92150365789999
 31
0.0
  0
LINE
  5
254
330
23B
100
AcDbEntity
  8
0
  6
Continuous
 62
     5
100
AcDbLine
 10
473.4609251249
 20
61.92150365789999
 30
0.0
 11
473.4609251249
 21
64.44070996189999
 31
0.0
  0
LINE
  5
255
330
23B
100
AcDbEntity
  8
0
  6
Continuous
 62
     5
100
AcDbLine
 10
473.4609251249
 20
64.44070996189999
 30
0.0
 11
469.2830128567999
 21
69.6595064525
 31
0.0
  0
LINE
  5
256
330
23B
100
AcDbEntity
  8
0
  6
Continuous
 62
     5
100
AcDbLine
 10
469.2320279046
 20
53.65950645249999
 30
0.0
 11
464.5457835496999
 21
53.65950645249999
 31
0.0
  0
LINE
  5
257
330
23B
100
AcDbEntity
  8
0
  6
Continuous
 62
     5
100
AcDbLine
 10
477.6388373930999
 20
69.6595064525
 30
0.0
 11
482.0224249253
 21
69.6595064525
 31
0.0
  0
LINE
  5
258
330
23B
100
AcDbEntity
  8
0
  6
Continuous
 62
     5
100
AcDbLine
 10
473.4609251249
 20
61.92150365789999
 30
0.0
 11
469.2320279046
 21
61.92150365789999
 31
0.0
  0
LINE
  5
259
330
23B
100
AcDbEntity
  8
0
  6
Continuous
 62
     5
100
AcDbLine
 10
475.6118298795
 20
53.65950645249999
 30
0.0
 11
471.3100203703
 21
53.65950645249999
 31
0.0
  0
LINE
  5
25A
330
23B
100
AcDbEntity
  8
0
  6
Continuous
 62
     5
100
AcDbLine
 10
469.8419496810999
 20
68.9613162202
 30
0.0
 11
469.1437594487999
 21
69.6595064525
 31
0.0
  0
LINE
  5
25B
330
23B
100
AcDbEntity
  8
0
  6
Continuous
 62
     5
100
AcDbLine
 10
470.4702315047
 20
68.17650438939999
 30
0.0
 11
468.9872294416
 21
69.6595064525
 31
0.0
  0
LINE
  5
25C
330
23B
100
AcDbEntity
  8
0
  6
Continuous
 62
     5
100
AcDbLine
 10
471.0985133282
 20
67.3916925586
 30
0.0
 11
468.8306994343999
 21
69.6595064525
 31
0.0
  0
LINE
  5
25D
330
23B
100
AcDbEntity
  8
0
  6
Continuous
 62
     5
100
AcDbLine
 10
471.7267951518
 20
66.60688072790001
 30
0.0
 11
468.6741694272
 21
69.6595064525
 31
0.0
  0
LINE
  5
25E
330
23B
100
AcDbEntity
  8
0
  6
Continuous
 62
     5
100
AcDbLine
 10
472.3550769753999
 20
65.8220688971
 30
0.0
 11
468.5176394199999
 21
69.6595064525
 31
0.0
  0
LINE
  5
25F
330
23B
100
AcDbEntity
  8
0
  6
Continuous
 62
     5
100
AcDbLine
 10
472.9833587988999
 20
65.0372570663
 30
0.0
 11
468.3611094127999
 21
69.6595064525
 31
0.0
  0
LINE
  5
260
330
23B
100
AcDbEntity
  8
0
  6
Continuous
 62
     5
100
AcDbLine
 10
473.4609251249
 20
64.4031607331
 30
0.0
 11
468.2045794056
 21
69.6595064525
 31
0.0
  0
LINE
  5
261
330
23B
100
AcDbEntity
  8
0
  6
Continuous
 62
     5
100
AcDbLine
 10
473.4609251249
 20
64.2466307259
 30
0.0
 11
468.0480493983999
 21
69.6595064525
 31
0.0
  0
LINE
  5
262
330
23B
100
AcDbEntity
  8
0
  6
Continuous
 62
     5
100
AcDbLine
 10
473.4609251249
 20
64.0901007187
 30
0.0
 11
467.8915193912
 21
69.6595064525
 31
0.0
  0
LINE
  5
263
330
23B
100
AcDbEntity
  8
0
  6
Continuous
 62
     5
100
AcDbLine
 10
473.4609251249
 20
63.93357071149999
 30
0.0
 11
467.734989384
 21
69.6595064525
 31
0.0
  0
LINE
  5
264
330
23B
100
AcDbEntity
  8
0
  6
Continuous
 62
     5
100
AcDbLine
 10
473.4609251249
 20
63.7770407044
 30
0.0
 11
467.5784593768
 21
69.6595064525
 31
0.0
  0
LINE
  5
265
330
23B
100
AcDbEntity
  8
0
  6
Continuous
 62
     5
100
AcDbLine
 10
473.4609251249
 20
63.6205106972
 30
0.0
 11
467.4219293695999
 21
69.6595064525
 31
0.0
  0
LINE
  5
266
330
23B
100
AcDbEntity
  8
0
  6
Continuous
 62
     5
100
AcDbLine
 10
473.4609251249
 20
63.46398069
 30
0.0
 11
467.2653993624
 21
69.6595064525
 31
0.0
  0
LINE
  5
267
330
23B
100
AcDbEntity
  8
0
  6
Continuous
 62
     5
100
AcDbLine
 10
473.4609251249
 20
63.30745068279999
 30
0.0
 11
467.1088693551999
 21
69.6595064525
 31
0.0
  0
LINE
  5
268
330
23B
100
AcDbEntity
  8
0
  6
Continuous
 62
     5
100
AcDbLine
 10
473.4609251249
 20
63.15092067560001
 30
0.0
 11
466.952339348
 21
69.6595064525
 31
0.0
  0
LINE
  5
269
330
23B
100
AcDbEntity
  8
0
  6
Continuous
 62
     5
100
AcDbLine
 10
473.4609251249
 20
62.9943906684
 30
0.0
 11
466.7958093408
 21
69.6595064525
 31
0.0
  0
LINE
  5
26A
330
23B
100
AcDbEntity
  8
0
  6
Continuous
 62
     5
100
AcDbLine
 10
473.4609251249
 20
62.8378606612
 30
0.0
 11
466.6392793336
 21
69.6595064525
 31
0.0
  0
LINE
  5
26B
330
23B
100
AcDbEntity
  8
0
  6
Continuous
 62
     5
100
AcDbLine
 10
473.4609251249
 20
62.68133065399999
 30
0.0
 11
470.3706386701
 21
65.7716171088
 31
0.0
  0
LINE
  5
26C
330
23B
100
AcDbEntity
  8
0
  6
Continuous
 62
     5
100
AcDbLine
 10
470.1990329837999
 20
65.9432227952
 30
0.0
 11
466.4827493264
 21
69.6595064525
 31
0.0
  0
LINE
  5
26D
330
23B
100
AcDbEntity
  8
0
  6
Continuous
 62
     5
100
AcDbLine
 10
473.4609251249
 20
62.5248006468
 30
0.0
 11
470.6087375637999
 21
65.3769882079
 31
0.0
  0
LINE
  5
26E
330
23B
100
AcDbEntity
  8
0
  6
Continuous
 62
     5
100
AcDbLine
 10
469.7983745349
 20
66.1873512368
 30
0.0
 11
466.3262193191999
 21
69.6595064525
 31
0.0
  0
LINE
  5
26F
330
23B
100
AcDbEntity
  8
0
  6
Continuous
 62
     5
100
AcDbLine
 10
473.4609251249
 20
62.36827063959999
 30
0.0
 11
470.6808486557
 21
65.14834710889999
 31
0.0
  0
LINE
  5
270
330
23B
100
AcDbEntity
  8
0
  6
Continuous
 62
     5
100
AcDbLine
 10
469.5688338544
 20
66.2603619101
 30
0.0
 11
466.1696893119999
 21
69.6595064525
 31
0.0
  0
LINE
  5
271
330
23B
100
AcDbEntity
  8
0
  6
Continuous
 62
     5
100
AcDbLine
 10
473.4609251249
 20
62.21174063239999
 30
0.0
 11
470.7143702323
 21
64.958295525
 31
0.0
  0
LINE
  5
272
330
23B
100
AcDbEntity
  8
0
  6
Continuous
 62
     5
100
AcDbLine
 10
469.3790917880999
 20
66.2935739693
 30
0.0
 11
466.0131593048999
 21
69.6595064525
 31
0.0
  0
LINE
  5
273
330
23B
100
AcDbEntity
  8
0
  6
Continuous
 62
     5
100
AcDbLine
 10
473.4609251249
 20
62.0552106252
 30
0.0
 11
470.7183221887
 21
64.79781356149999
 31
0.0
  0
LINE
  5
274
330
23B
100
AcDbEntity
  8
0
  6
Continuous
 62
     5
100
AcDbLine
 10
469.2157062691
 20
66.30042948109999
 30
0.0
 11
465.8566292976999
 21
69.6595064525
 31
0.0
  0
LINE
  5
275
330
23B
100
AcDbEntity
  8
0
  6
Continuous
 62
     5
100
AcDbLine
 10
473.438102085
 20
61.92150365789999
 30
0.0
 11
470.7092226703999
 21
64.65038307250001
 31
0.0
  0
LINE
  5
276
330
23B
100
AcDbEntity
  8
0
  6
Continuous
 62
     5
100
AcDbLine
 10
469.0696198268
 20
66.28998591609999
 30
0.0
 11
465.7000992905
 21
69.6595064525
 31
0.0
  0
LINE
  5
277
330
23B
100
AcDbEntity
  8
0
  6
Continuous
 62
     5
100
AcDbLine
 10
473.2815720777999
 20
61.92150365789999
 30
0.0
 11
470.6915680179
 21
64.5115077179
 31
0.0
  0
LINE
  5
278
330
23B
100
AcDbEntity
  8
0
  6
Continuous
 62
     5
100
AcDbLine
 10
468.9319162489
 20
66.2711594868
 30
0.0
 11
465.5435692833
 21
69.6595064525
 31
0.0
  0
LINE
  5
279
330
23B
100
AcDbEntity
  8
0
  6
Continuous
 62
     5
100
AcDbLine
 10
473.1250420705999
 20
61.92150365789999
 30
0.0
 11
470.6569960310999
 21
64.3895496975
 31
0.0
  0
LINE
  5
27A
330
23B
100
AcDbEntity
  8
0
  6
Continuous
 62
     5
100
AcDbLine
 10
468.8081632931
 20
66.2383824355
 30
0.0
 11
465.3870392761
 21
69.6595064525
 31
0.0
  0
LINE
  5
27B
330
23B
100
AcDbEntity
  8
0
  6
Continuous
 62
     5
100
AcDbLine
 10
472.9685120633999
 20
61.92150365789999
 30
0.0
 11
470.6190506323
 21
64.2709650891
 31
0.0
  0
LINE
  5
27C
330
23B
100
AcDbEntity
  8
0
  6
Continuous
 62
     5
100
AcDbLine
 10
468.6909172283999
 20
66.199098493
 30
0.0
 11
465.2305092688999
 21
69.6595064525
 31
0.0
  0
LINE
  5
27D
330
23B
100
AcDbEntity
  8
0
  6
Continuous
 62
     5
100
AcDbLine
 10
472.8119820562
 20
61.92150365789999
 30
0.0
 11
470.5701328353
 21
64.16335287889999
 31
0.0
  0
LINE
  5
27E
330
23B
100
AcDbEntity
  8
0
  6
Continuous
 62
     5
100
AcDbLine
 10
468.5817491564
 20
66.15173655779999
 30
0.0
 11
465.0739792617
 21
69.6595064525
 31
0.0
  0
LINE
  5
27F
330
23B
100
AcDbEntity
  8
0
  6
Continuous
 62
     5
100
AcDbLine
 10
472.655452049
 20
61.92150365789999
 30
0.0
 11
470.5168942131
 21
64.06006149390001
 31
0.0
  0
LINE
  5
280
330
23B
100
AcDbEntity
  8
0
  6
Continuous
 62
     5
100
AcDbLine
 10
468.4798402281
 20
66.0971154789
 30
0.0
 11
464.9174492544999
 21
69.6595064525
 31
0.0
  0
LINE
  5
281
330
23B
100
AcDbEntity
  8
0
  6
Continuous
 62
     5
100
AcDbLine
 10
472.4989220418
 20
61.92150365789999
 30
0.0
 11
470.4551735774
 21
63.96525212229999
 31
0.0
  0
LINE
  5
282
330
23B
100
AcDbEntity
  8
0
  6
Continuous
 62
     5
100
AcDbLine
 10
468.3836098858999
 20
66.0368158139
 30
0.0
 11
464.7609192473
 21
69.6595064525
 31
0.0
  0
LINE
  5
283
330
23B
100
AcDbEntity
  8
0
  6
Continuous
 62
     5
100
AcDbLine
 10
472.3423920345999
 20
61.92150365789999
 30
0.0
 11
470.3891946437999
 21
63.8747010487
 31
0.0
  0
LINE
  5
284
330
23B
100
AcDbEntity
  8
0
  6
Continuous
 62
     5
100
AcDbLine
 10
468.2944484933999
 20
65.9694471992
 30
0.0
 11
464.6043892401
 21
69.6595064525
 31
0.0
  0
LINE
  5
285
330
23B
100
AcDbEntity
  8
0
  6
Continuous
 62
     5
100
AcDbLine
 10
472.1858620274999
 20
61.92150365789999
 30
0.0
 11
470.3154661067999
 21
63.79189957859999
 31
0.0
  0
LINE
  5
286
330
23B
100
AcDbEntity
  8
0
  6
Continuous
 62
     5
100
AcDbLine
 10
468.2102858927
 20
65.89707979269999
 30
0.0
 11
464.5457835496999
 21
69.56158213569999
 31
0.0
  0
LINE
  5
287
330
23B
100
AcDbEntity
  8
0
  6
Continuous
 62
     5
100
AcDbLine
 10
472.0293320202999
 20
61.92150365789999
 30
0.0
 11
470.2378282031999
 21
63.713007475
 31
0.0
  0
LINE
  5
288
330
23B
100
AcDbEntity
  8
0
  6
Continuous
 62
     5
100
AcDbLine
 10
468.1320166462
 20
65.81881903189999
 30
0.0
 11
464.5457835496999
 21
69.4050521285
 31
0.0
  0
LINE
  5
289
330
23B
100
AcDbEntity
  8
0
  6
Continuous
 62
     5
100
AcDbLine
 10
471.8728020131
 20
61.92150365789999
 30
0.0
 11
470.1523009153
 21
63.6420047557
 31
0.0
  0
LINE
  5
28A
330
23B
100
AcDbEntity
  8
0
  6
Continuous
 62
     5
100
AcDbLine
 10
468.0583590791999
 20
65.7359465918
 30
0.0
 11
464.5457835496999
 21
69.2485221213
 31
0.0
  0
LINE
  5
28B
330
23B
100
AcDbEntity
  8
0
  6
Continuous
 62
     5
100
AcDbLine
 10
471.7162720059
 20
61.92150365789999
 30
0.0
 11
470.0629713368
 21
63.574804327
 31
0.0
  0
LINE
  5
28C
330
23B
100
AcDbEntity
  8
0
  6
Continuous
 62
     5
100
AcDbLine
 10
467.9952278373999
 20
65.6425478264
 30
0.0
 11
464.5457835496999
 21
69.09199211409999
 31
0.0
  0
LINE
  5
28D
330
23B
100
AcDbEntity
  8
0
  6
Continuous
 62
     5
100
AcDbLine
 10
471.5597419987
 20
61.92150365789999
 30
0.0
 11
469.9653086829
 21
63.5159369737
 31
0.0
  0
LINE
  5
28E
330
23B
100
AcDbEntity
  8
0
  6
Continuous
 62
     5
100
AcDbLine
 10
467.9323104973999
 20
65.54893515919999
 30
0.0
 11
464.5457835496999
 21
68.93546210689999
 31
0.0
  0
LINE
  5
28F
330
23B
100
AcDbEntity
  8
0
  6
Continuous
 62
     5
100
AcDbLine
 10
471.4032119915
 20
61.92150365789999
 30
0.0
 11
469.8631173416
 21
63.46159830779999
 31
0.0
  0
LINE
  5
290
330
23B
100
AcDbEntity
  8
0
  6
Continuous
 62
     5
100
AcDbLine
 10
467.8818569122999
 20
65.44285873709999
 30
0.0
 11
464.5457835496999
 21
68.7789320997
 31
0.0
  0
LINE
  5
291
330
23B
100
AcDbEntity
  8
0
  6
Continuous
 62
     5
100
AcDbLine
 10
471.2466819842999
 20
61.92150365789999
 30
0.0
 11
469.7523719859999
 21
63.4158136562
 31
0.0
  0
LINE
  5
292
330
23B
100
AcDbEntity
  8
0
  6
Continuous
 62
     5
100
AcDbLine
 10
467.8329167812999
 20
65.3352688609
 30
0.0
 11
464.5457835496999
 21
68.6224020925
 31
0.0
  0
LINE
  5
293
330
23B
100
AcDbEntity
  8
0
  6
Continuous
 62
     5
100
AcDbLine
 10
471.0901519771
 20
61.92150365789999
 30
0.0
 11
469.6345889043
 21
63.37706673079999
 31
0.0
  0
LINE
  5
294
330
23B
100
AcDbEntity
  8
0
  6
Continuous
 62
     5
100
AcDbLine
 10
467.7965842294999
 20
65.21507140549999
 30
0.0
 11
464.5457835496999
 21
68.46587208529999
 31
0.0
  0
LINE
  5
295
330
23B
100
AcDbEntity
  8
0
  6
Continuous
 62
     5
100
AcDbLine
 10
470.9336219698999
 20
61.92150365789999
 30
0.0
 11
469.5090045174
 21
63.3461211104
 31
0.0
  0
LINE
  5
296
330
23B
100
AcDbEntity
  8
0
  6
Continuous
 62
     5
100
AcDbLine
 10
467.7655815068
 20
65.089544121
 30
0.0
 11
464.5457835496999
 21
68.3093420781
 31
0.0
  0
LINE
  5
297
330
23B
100
AcDbEntity
  8
0
  6
Continuous
 62
     5
100
AcDbLine
 10
470.7770919626999
 20
61.92150365789999
 30
0.0
 11
469.3702247585
 21
63.3283708621
 31
0.0
  0
LINE
  5
298
330
23B
100
AcDbEntity
  8
0
  6
Continuous
 62
     5
100
AcDbLine
 10
467.7458661456999
 20
64.9527294749
 30
0.0
 11
464.5457835496999
 21
68.15281207089999
 31
0.0
  0
LINE
  5
299
330
23B
100
AcDbEntity
  8
0
  6
Continuous
 62
     5
100
AcDbLine
 10
470.6205619554999
 20
61.92150365789999
 30
0.0
 11
469.2226168423
 21
63.3194487711
 31
0.0
  0
LINE
  5
29A
330
23B
100
AcDbEntity
  8
0
  6
Continuous
 62
     5
100
AcDbLine
 10
467.7407144755999
 20
64.8013511378
 30
0.0
 11
464.5457835496999
 21
67.99628206379999
 31
0.0
  0
LINE
  5
29B
330
23B
100
AcDbEntity
  8
0
  6
Continuous
 62
     5
100
AcDbLine
 10
470.4640319483
 20
61.92150365789999
 30
0.0
 11
469.0562163068999
 21
63.32931929939999
 31
0.0
  0
LINE
  5
29C
330
23B
100
AcDbEntity
  8
0
  6
Continuous
 62
     5
100
AcDbLine
 10
467.7497008758
 20
64.6358347305
 30
0.0
 11
464.5457835496999
 21
67.8397520566
 31
0.0
  0
LINE
  5
29D
330
23B
100
AcDbEntity
  8
0
  6
Continuous
 62
     5
100
AcDbLine
 10
470.3075019411
 20
61.92150365789999
 30
0.0
 11
468.8626729077999
 21
63.3663326912
 31
0.0
  0
LINE
  5
29E
330
23B
100
AcDbEntity
  8
0
  6
Continuous
 62
     5
100
AcDbLine
 10
467.7830085087
 20
64.4459970904
 30
0.0
 11
464.5457835496999
 21
67.6832220494
 31
0.0
  0
LINE
  5
29F
330
23B
100
AcDbEntity
  8
0
  6
Continuous
 62
     5
100
AcDbLine
 10
470.1509719338999
 20
61.92150365789999
 30
0.0
 11
468.6255469254
 21
63.44692866649999
 31
0.0
  0
LINE
  5
2A0
330
23B
100
AcDbEntity
  8
0
  6
Continuous
 62
     5
100
AcDbLine
 10
467.8683609237999
 20
64.204114668
 30
0.0
 11
464.5457835496999
 21
67.5266920422
 31
0.0
  0
LINE
  5
2A1
330
23B
100
AcDbEntity
  8
0
  6
Continuous
 62
     5
100
AcDbLine
 10
469.9944419267
 20
61.92150365789999
 30
0.0
 11
464.5457835496999
 21
67.37016203500001
 31
0.0
  0
LINE
  5
2A2
330
23B
100
AcDbEntity
  8
0
  6
Continuous
 62
     5
100
AcDbLine
 10
469.8379119194999
 20
61.92150365789999
 30
0.0
 11
464.5457835496999
 21
67.2136320278
 31
0.0
  0
LINE
  5
2A3
330
23B
100
AcDbEntity
  8
0
  6
Continuous
 62
     5
100
AcDbLine
 10
469.6813819123
 20
61.92150365789999
 30
0.0
 11
464.5457835496999
 21
67.0571020206
 31
0.0
  0
LINE
  5
2A4
330
23B
100
AcDbEntity
  8
0
  6
Continuous
 62
     5
100
AcDbLine
 10
469.5248519051
 20
61.92150365789999
 30
0.0
 11
464.5457835496999
 21
66.90057201340001
 31
0.0
  0
LINE
  5
2A5
330
23B
100
AcDbEntity
  8
0
  6
Continuous
 62
     5
100
AcDbLine
 10
469.3683218979
 20
61.92150365789999
 30
0.0
 11
464.5457835496999
 21
66.7440420062
 31
0.0
  0
LINE
  5
2A6
330
23B
100
AcDbEntity
  8
0
  6
Continuous
 62
     5
100
AcDbLine
 10
469.2320279046
 20
61.90126764409999
 30
0.0
 11
464.5457835496999
 21
66.587511999
 31
0.0
  0
LINE
  5
2A7
330
23B
100
AcDbEntity
  8
0
  6
Continuous
 62
     5
100
AcDbLine
 10
469.2320279046
 20
61.7447376369
 30
0.0
 11
464.5457835496999
 21
66.43098199179999
 31
0.0
  0
LINE
  5
2A8
330
23B
100
AcDbEntity
  8
0
  6
Continuous
 62
     5
100
AcDbLine
 10
469.2320279046
 20
61.5882076297
 30
0.0
 11
464.5457835496999
 21
66.27445198460001
 31
0.0
  0
LINE
  5
2A9
330
23B
100
AcDbEntity
  8
0
  6
Continuous
 62
     5
100
AcDbLine
 10
469.2320279046
 20
61.4316776225
 30
0.0
 11
464.5457835496999
 21
66.1179219774
 31
0.0
  0
LINE
  5
2AA
330
23B
100
AcDbEntity
  8
0
  6
Continuous
 62
     5
100
AcDbLine
 10
469.2320279046
 20
61.2751476153
 30
0.0
 11
464.5457835496999
 21
65.9613919702
 31
0.0
  0
LINE
  5
2AB
330
23B
100
AcDbEntity
  8
0
  6
Continuous
 62
     5
100
AcDbLine
 10
469.2320279046
 20
61.1186176081
 30
0.0
 11
464.5457835496999
 21
65.804861963
 31
0.0
  0
LINE
  5
2AC
330
23B
100
AcDbEntity
  8
0
  6
Continuous
 62
     5
100
AcDbLine
 10
469.2320279046
 20
60.9620876009
 30
0.0
 11
464.5457835496999
 21
65.6483319558
 31
0.0
  0
LINE
  5
2AD
330
23B
100
AcDbEntity
  8
0
  6
Continuous
 62
     5
100
AcDbLine
 10
469.2320279046
 20
60.8055575937
 30
0.0
 11
464.5457835496999
 21
65.49180194859999
 31
0.0
  0
LINE
  5
2AE
330
23B
100
AcDbEntity
  8
0
  6
Continuous
 62
     5
100
AcDbLine
 10
469.2320279046
 20
60.64902758649999
 30
0.0
 11
464.5457835496999
 21
65.33527194140001
 31
0.0
  0
LINE
  5
2AF
330
23B
100
AcDbEntity
  8
0
  6
Continuous
 62
     5
100
AcDbLine
 10
469.2320279046
 20
60.4924975793
 30
0.0
 11
464.5457835496999
 21
65.1787419342
 31
0.0
  0
LINE
  5
2B0
330
23B
100
AcDbEntity
  8
0
  6
Continuous
 62
     5
100
AcDbLine
 10
469.2320279046
 20
60.3359675721
 30
0.0
 11
464.5457835496999
 21
65.022211927
 31
0.0
  0
LINE
  5
2B1
330
23B
100
AcDbEntity
  8
0
  6
Continuous
 62
     5
100
AcDbLine
 10
469.2320279046
 20
60.1794375649
 30
0.0
 11
464.5457835496999
 21
64.8656819198
 31
0.0
  0
LINE
  5
2B2
330
23B
100
AcDbEntity
  8
0
  6
Continuous
 62
     5
100
AcDbLine
 10
469.2320279046
 20
60.0229075577
 30
0.0
 11
464.5457835496999
 21
64.70915191260001
 31
0.0
  0
LINE
  5
2B3
330
23B
100
AcDbEntity
  8
0
  6
Continuous
 62
     5
100
AcDbLine
 10
469.2320279046
 20
59.86637755050001
 30
0.0
 11
464.5457835496999
 21
64.5526219054
 31
0.0
  0
LINE
  5
2B4
330
23B
100
AcDbEntity
  8
0
  6
Continuous
 62
     5
100
AcDbLine
 10
469.2320279046
 20
59.7098475433
 30
0.0
 11
464.5457835496999
 21
64.3960918983
 31
0.0
  0
LINE
  5
2B5
330
23B
100
AcDbEntity
  8
0
  6
Continuous
 62
     5
100
AcDbLine
 10
469.2320279046
 20
59.5533175361
 30
0.0
 11
464.5457835496999
 21
64.2395618911
 31
0.0
  0
LINE
  5
2B6
330
23B
100
AcDbEntity
  8
0
  6
Continuous
 62
     5
100
AcDbLine
 10
469.2320279046
 20
59.3967875289
 30
0.0
 11
464.5457835496999
 21
64.0830318839
 31
0.0
  0
LINE
  5
2B7
330
23B
100
AcDbEntity
  8
0
  6
Continuous
 62
     5
100
AcDbLine
 10
469.2320279046
 20
59.2402575217
 30
0.0
 11
464.5457835496999
 21
63.9265018767
 31
0.0
  0
LINE
  5
2B8
330
23B
100
AcDbEntity
  8
0
  6
Continuous
 62
     5
100
AcDbLine
 10
469.2320279046
 20
59.08372751449999
 30
0.0
 11
464.5457835496999
 21
63.76997186949999
 31
0.0
  0
LINE
  5
2B9
330
23B
100
AcDbEntity
  8
0
  6
Continuous
 62
     5
100
AcDbLine
 10
469.2320279046
 20
58.92719750729999
 30
0.0
 11
464.5457835496999
 21
63.61344186229999
 31
0.0
  0
LINE
  5
2BA
330
23B
100
AcDbEntity
  8
0
  6
Continuous
 62
     5
100
AcDbLine
 10
469.2320279046
 20
58.7706675001
 30
0.0
 11
464.5457835496999
 21
63.4569118551
 31
0.0
  0
LINE
  5
2BB
330
23B
100
AcDbEntity
  8
0
  6
Continuous
 62
     5
100
AcDbLine
 10
469.2320279046
 20
58.614137493
 30
0.0
 11
464.5457835496999
 21
63.3003818479
 31
0.0
  0
LINE
  5
2BC
330
23B
100
AcDbEntity
  8
0
  6
Continuous
 62
     5
100
AcDbLine
 10
469.2320279046
 20
58.4576074858
 30
0.0
 11
464.5457835496999
 21
63.14385184069999
 31
0.0
  0
LINE
  5
2BD
330
23B
100
AcDbEntity
  8
0
  6
Continuous
 62
     5
100
AcDbLine
 10
469.2320279046
 20
58.3010774786
 30
0.0
 11
464.5457835496999
 21
62.98732183350001
 31
0.0
  0
LINE
  5
2BE
330
23B
100
AcDbEntity
  8
0
  6
Continuous
 62
     5
100
AcDbLine
 10
469.2320279046
 20
58.1445474714
 30
0.0
 11
464.5457835496999
 21
62.8307918263
 31
0.0
  0
LINE
  5
2BF
330
23B
100
AcDbEntity
  8
0
  6
Continuous
 62
     5
100
AcDbLine
 10
469.2320279046
 20
57.9880174642
 30
0.0
 11
464.5457835496999
 21
62.6742618191
 31
0.0
  0
LINE
  5
2C0
330
23B
100
AcDbEntity
  8
0
  6
Continuous
 62
     5
100
AcDbLine
 10
469.2320279046
 20
57.831487457
 30
0.0
 11
464.5457835496999
 21
62.51773181189999
 31
0.0
  0
LINE
  5
2C1
330
23B
100
AcDbEntity
  8
0
  6
Continuous
 62
     5
100
AcDbLine
 10
469.2320279046
 20
57.67495744979999
 30
0.0
 11
464.5457835496999
 21
62.3612018047
 31
0.0
  0
LINE
  5
2C2
330
23B
100
AcDbEntity
  8
0
  6
Continuous
 62
     5
100
AcDbLine
 10
469.2320279046
 20
57.5184274426
 30
0.0
 11
464.5457835496999
 21
62.20467179749999
 31
0.0
  0
LINE
  5
2C3
330
23B
100
AcDbEntity
  8
0
  6
Continuous
 62
     5
100
AcDbLine
 10
469.2320279046
 20
57.3618974354
 30
0.0
 11
464.5457835496999
 21
62.0481417903
 31
0.0
  0
LINE
  5
2C4
330
23B
100
AcDbEntity
  8
0
  6
Continuous
 62
     5
100
AcDbLine
 10
469.2320279046
 20
57.2053674282
 30
0.0
 11
464.5457835496999
 21
61.8916117831
 31
0.0
  0
LINE
  5
2C5
330
23B
100
AcDbEntity
  8
0
  6
Continuous
 62
     5
100
AcDbLine
 10
469.2320279046
 20
57.048837421
 30
0.0
 11
464.5457835496999
 21
61.7350817759
 31
0.0
  0
LINE
  5
2C6
330
23B
100
AcDbEntity
  8
0
  6
Continuous
 62
     5
100
AcDbLine
 10
469.2320279046
 20
56.89230741380001
 30
0.0
 11
464.5457835496999
 21
61.5785517687
 31
0.0
  0
LINE
  5
2C7
330
23B
100
AcDbEntity
  8
0
  6
Continuous
 62
     5
100
AcDbLine
 10
469.2320279046
 20
56.7357774066
 30
0.0
 11
464.5457835496999
 21
61.4220217615
 31
0.0
  0
LINE
  5
2C8
330
23B
100
AcDbEntity
  8
0
  6
Continuous
 62
     5
100
AcDbLine
 10
469.2320279046
 20
56.5792473994
 30
0.0
 11
464.5457835496999
 21
61.2654917543
 31
0.0
  0
LINE
  5
2C9
330
23B
100
AcDbEntity
  8
0
  6
Continuous
 62
     5
100
AcDbLine
 10
469.2320279046
 20
56.42271739219999
 30
0.0
 11
464.5457835496999
 21
61.10896174709999
 31
0.0
  0
LINE
  5
2CA
330
23B
100
AcDbEntity
  8
0
  6
Continuous
 62
     5
100
AcDbLine
 10
469.2320279046
 20
56.266187385
 30
0.0
 11
464.5457835496999
 21
60.95243174
 31
0.0
  0
LINE
  5
2CB
330
23B
100
AcDbEntity
  8
0
  6
Continuous
 62
     5
100
AcDbLine
 10
469.2320279046
 20
56.10965737779999
 30
0.0
 11
464.5457835496999
 21
60.79590173279999
 31
0.0
  0
LINE
  5
2CC
330
23B
100
AcDbEntity
  8
0
  6
Continuous
 62
     5
100
AcDbLine
 10
469.2320279046
 20
55.9531273706
 30
0.0
 11
464.5457835496999
 21
60.63937172560001
 31
0.0
  0
LINE
  5
2CD
330
23B
100
AcDbEntity
  8
0
  6
Continuous
 62
     5
100
AcDbLine
 10
469.2320279046
 20
55.7965973634
 30
0.0
 11
464.5457835496999
 21
60.4828417184
 31
0.0
  0
LINE
  5
2CE
330
23B
100
AcDbEntity
  8
0
  6
Continuous
 62
     5
100
AcDbLine
 10
469.2320279046
 20
55.6400673562
 30
0.0
 11
464.5457835496999
 21
60.3263117112
 31
0.0
  0
LINE
  5
2CF
330
23B
100
AcDbEntity
  8
0
  6
Continuous
 62
     5
100
AcDbLine
 10
469.2320279046
 20
55.483537349
 30
0.0
 11
464.5457835496999
 21
60.16978170399999
 31
0.0
  0
LINE
  5
2D0
330
23B
100
AcDbEntity
  8
0
  6
Continuous
 62
     5
100
AcDbLine
 10
469.2320279046
 20
55.3270073418
 30
0.0
 11
464.5457835496999
 21
60.01325169680001
 31
0.0
  0
LINE
  5
2D1
330
23B
100
AcDbEntity
  8
0
  6
Continuous
 62
     5
100
AcDbLine
 10
469.2320279046
 20
55.1704773347
 30
0.0
 11
464.5457835496999
 21
59.8567216896
 31
0.0
  0
LINE
  5
2D2
330
23B
100
AcDbEntity
  8
0
  6
Continuous
 62
     5
100
AcDbLine
 10
469.2320279046
 20
55.0139473275
 30
0.0
 11
464.5457835496999
 21
59.7001916824
 31
0.0
  0
LINE
  5
2D3
330
23B
100
AcDbEntity
  8
0
  6
Continuous
 62
     5
100
AcDbLine
 10
469.2320279046
 20
54.8574173203
 30
0.0
 11
464.5457835496999
 21
59.5436616752
 31
0.0
  0
LINE
  5
2D4
330
23B
100
AcDbEntity
  8
0
  6
Continuous
 62
     5
100
AcDbLine
 10
469.2320279046
 20
54.7008873131
 30
0.0
 11
464.5457835496999
 21
59.387131668
 31
0.0
  0
LINE
  5
2D5
330
23B
100
AcDbEntity
  8
0
  6
Continuous
 62
     5
100
AcDbLine
 10
469.2320279046
 20
54.5443573059
 30
0.0
 11
464.5457835496999
 21
59.23060166079999
 31
0.0
  0
LINE
  5
2D6
330
23B
100
AcDbEntity
  8
0
  6
Continuous
 62
     5
100
AcDbLine
 10
469.2320279046
 20
54.38782729869999
 30
0.0
 11
464.5457835496999
 21
59.07407165359999
 31
0.0
  0
LINE
  5
2D7
330
23B
100
AcDbEntity
  8
0
  6
Continuous
 62
     5
100
AcDbLine
 10
469.2320279046
 20
54.2312972915
 30
0.0
 11
464.5457835496999
 21
58.9175416464
 31
0.0
  0
LINE
  5
2D8
330
23B
100
AcDbEntity
  8
0
  6
Continuous
 62
     5
100
AcDbLine
 10
469.2320279046
 20
54.0747672843
 30
0.0
 11
464.5457835496999
 21
58.7610116392
 31
0.0
  0
LINE
  5
2D9
330
23B
100
AcDbEntity
  8
0
  6
Continuous
 62
     5
100
AcDbLine
 10
469.2320279046
 20
53.9182372771
 30
0.0
 11
464.5457835496999
 21
58.604481632
 31
0.0
  0
LINE
  5
2DA
330
23B
100
AcDbEntity
  8
0
  6
Continuous
 62
     5
100
AcDbLine
 10
469.2320279046
 20
53.7617072699
 30
0.0
 11
464.5457835496999
 21
58.4479516248
 31
0.0
  0
LINE
  5
2DB
330
23B
100
AcDbEntity
  8
0
  6
Continuous
 62
     5
100
AcDbLine
 10
469.1776987148
 20
53.65950645249999
 30
0.0
 11
464.5457835496999
 21
58.2914216176
 31
0.0
  0
LINE
  5
2DC
330
23B
100
AcDbEntity
  8
0
  6
Continuous
 62
     5
100
AcDbLine
 10
469.0211687076
 20
53.65950645249999
 30
0.0
 11
464.5457835496999
 21
58.13489161039999
 31
0.0
  0
LINE
  5
2DD
330
23B
100
AcDbEntity
  8
0
  6
Continuous
 62
     5
100
AcDbLine
 10
468.8646387003999
 20
53.65950645249999
 30
0.0
 11
464.5457835496999
 21
57.9783616032
 31
0.0
  0
LINE
  5
2DE
330
23B
100
AcDbEntity
  8
0
  6
Continuous
 62
     5
100
AcDbLine
 10
468.7081086932
 20
53.65950645249999
 30
0.0
 11
464.5457835496999
 21
57.821831596
 31
0.0
  0
LINE
  5
2DF
330
23B
100
AcDbEntity
  8
0
  6
Continuous
 62
     5
100
AcDbLine
 10
468.5515786859999
 20
53.65950645249999
 30
0.0
 11
464.5457835496999
 21
57.6653015888
 31
0.0
  0
LINE
  5
2E0
330
23B
100
AcDbEntity
  8
0
  6
Continuous
 62
     5
100
AcDbLine
 10
468.3950486787999
 20
53.65950645249999
 30
0.0
 11
464.5457835496999
 21
57.5087715816
 31
0.0
  0
LINE
  5
2E1
330
23B
100
AcDbEntity
  8
0
  6
Continuous
 62
     5
100
AcDbLine
 10
468.2385186716
 20
53.65950645249999
 30
0.0
 11
464.5457835496999
 21
57.3522415745
 31
0.0
  0
LINE
  5
2E2
330
23B
100
AcDbEntity
  8
0
  6
Continuous
 62
     5
100
AcDbLine
 10
468.0819886644
 20
53.65950645249999
 30
0.0
 11
464.5457835496999
 21
57.19571156729999
 31
0.0
  0
LINE
  5
2E3
330
23B
100
AcDbEntity
  8
0
  6
Continuous
 62
     5
100
AcDbLine
 10
467.9254586573001
 20
53.65950645249999
 30
0.0
 11
464.5457835496999
 21
57.03918156010001
 31
0.0
  0
LINE
  5
2E4
330
23B
100
AcDbEntity
  8
0
  6
Continuous
 62
     5
100
AcDbLine
 10
467.7689286500999
 20
53.65950645249999
 30
0.0
 11
464.5457835496999
 21
56.8826515529
 31
0.0
  0
LINE
  5
2E5
330
23B
100
AcDbEntity
  8
0
  6
Continuous
 62
     5
100
AcDbLine
 10
467.6123986429
 20
53.65950645249999
 30
0.0
 11
464.5457835496999
 21
56.7261215457
 31
0.0
  0
LINE
  5
2E6
330
23B
100
AcDbEntity
  8
0
  6
Continuous
 62
     5
100
AcDbLine
 10
467.4558686356999
 20
53.65950645249999
 30
0.0
 11
464.5457835496999
 21
56.5695915385
 31
0.0
  0
LINE
  5
2E7
330
23B
100
AcDbEntity
  8
0
  6
Continuous
 62
     5
100
AcDbLine
 10
467.2993386284999
 20
53.65950645249999
 30
0.0
 11
464.5457835496999
 21
56.4130615313
 31
0.0
  0
LINE
  5
2E8
330
23B
100
AcDbEntity
  8
0
  6
Continuous
 62
     5
100
AcDbLine
 10
467.1428086212999
 20
53.65950645249999
 30
0.0
 11
464.5457835496999
 21
56.25653152409999
 31
0.0
  0
LINE
  5
2E9
330
23B
100
AcDbEntity
  8
0
  6
Continuous
 62
     5
100
AcDbLine
 10
466.9862786141
 20
53.65950645249999
 30
0.0
 11
464.5457835496999
 21
56.10000151689999
 31
0.0
  0
LINE
  5
2EA
330
23B
100
AcDbEntity
  8
0
  6
Continuous
 62
     5
100
AcDbLine
 10
466.8297486069
 20
53.65950645249999
 30
0.0
 11
464.5457835496999
 21
55.9434715097
 31
0.0
  0
LINE
  5
2EB
330
23B
100
AcDbEntity
  8
0
  6
Continuous
 62
     5
100
AcDbLine
 10
466.6732185997
 20
53.65950645249999
 30
0.0
 11
464.5457835496999
 21
55.7869415025
 31
0.0
  0
LINE
  5
2EC
330
23B
100
AcDbEntity
  8
0
  6
Continuous
 62
     5
100
AcDbLine
 10
466.5166885925
 20
53.65950645249999
 30
0.0
 11
464.5457835496999
 21
55.6304114953
 31
0.0
  0
LINE
  5
2ED
330
23B
100
AcDbEntity
  8
0
  6
Continuous
 62
     5
100
AcDbLine
 10
466.3601585852999
 20
53.65950645249999
 30
0.0
 11
464.5457835496999
 21
55.4738814881
 31
0.0
  0
LINE
  5
2EE
330
23B
100
AcDbEntity
  8
0
  6
Continuous
 62
     5
100
AcDbLine
 10
466.2036285781
 20
53.65950645249999
 30
0.0
 11
464.5457835496999
 21
55.3173514809
 31
0.0
  0
LINE
  5
2EF
330
23B
100
AcDbEntity
  8
0
  6
Continuous
 62
     5
100
AcDbLine
 10
466.0470985708999
 20
53.65950645249999
 30
0.0
 11
464.5457835496999
 21
55.16082147369999
 31
0.0
  0
LINE
  5
2F0
330
23B
100
AcDbEntity
  8
0
  6
Continuous
 62
     5
100
AcDbLine
 10
465.8905685637
 20
53.65950645249999
 30
0.0
 11
464.5457835496999
 21
55.00429146649999
 31
0.0
  0
LINE
  5
2F1
330
23B
100
AcDbEntity
  8
0
  6
Continuous
 62
     5
100
AcDbLine
 10
465.7340385564999
 20
53.65950645249999
 30
0.0
 11
464.5457835496999
 21
54.8477614593
 31
0.0
  0
LINE
  5
2F2
330
23B
100
AcDbEntity
  8
0
  6
Continuous
 62
     5
100
AcDbLine
 10
465.5775085492999
 20
53.65950645249999
 30
0.0
 11
464.5457835496999
 21
54.6912314521
 31
0.0
  0
LINE
  5
2F3
330
23B
100
AcDbEntity
  8
0
  6
Continuous
 62
     5
100
AcDbLine
 10
465.4209785421
 20
53.65950645249999
 30
0.0
 11
464.5457835496999
 21
54.53470144489999
 31
0.0
  0
LINE
  5
2F4
330
23B
100
AcDbEntity
  8
0
  6
Continuous
 62
     5
100
AcDbLine
 10
465.2644485348999
 20
53.65950645249999
 30
0.0
 11
464.5457835496999
 21
54.37817143770001
 31
0.0
  0
LINE
  5
2F5
330
23B
100
AcDbEntity
  8
0
  6
Continuous
 62
     5
100
AcDbLine
 10
465.1079185276999
 20
53.65950645249999
 30
0.0
 11
464.5457835496999
 21
54.2216414305
 31
0.0
  0
LINE
  5
2F6
330
23B
100
AcDbEntity
  8
0
  6
Continuous
 62
     5
100
AcDbLine
 10
464.9513885205
 20
53.65950645249999
 30
0.0
 11
464.5457835496999
 21
54.0651114233
 31
0.0
  0
LINE
  5
2F7
330
23B
100
AcDbEntity
  8
0
  6
Continuous
 62
     5
100
AcDbLine
 10
464.7948585133
 20
53.65950645249999
 30
0.0
 11
464.5457835496999
 21
53.9085814162
 31
0.0
  0
LINE
  5
2F8
330
23B
100
AcDbEntity
  8
0
  6
Continuous
 62
     5
100
AcDbLine
 10
464.6383285060999
 20
53.65950645249999
 30
0.0
 11
464.5457835496999
 21
53.752051409
 31
0.0
  0
LINE
  5
2F9
330
23B
100
AcDbEntity
  8
0
  6
Continuous
 62
     5
100
AcDbLine
 10
469.2292897721999
 20
53.65950645249999
 30
0.0
 11
469.2320279046
 21
53.66224458489999
 31
0.0
  0
LINE
  5
2FA
330
23B
100
AcDbEntity
  8
0
  6
Continuous
 62
     5
100
AcDbLine
 10
469.072759765
 20
53.65950645249999
 30
0.0
 11
469.2320279046
 21
53.8187745921
 31
0.0
  0
LINE
  5
2FB
330
23B
100
AcDbEntity
  8
0
  6
Continuous
 62
     5
100
AcDbLine
 10
468.9162297578
 20
53.65950645249999
 30
0.0
 11
469.2320279046
 21
53.9753045993
 31
0.0
  0
LINE
  5
2FC
330
23B
100
AcDbEntity
  8
0
  6
Continuous
 62
     5
100
AcDbLine
 10
468.7596997505999
 20
53.65950645249999
 30
0.0
 11
469.2320279046
 21
54.1318346065
 31
0.0
  0
LINE
  5
2FD
330
23B
100
AcDbEntity
  8
0
  6
Continuous
 62
     5
100
AcDbLine
 10
468.6031697434
 20
53.65950645249999
 30
0.0
 11
469.2320279046
 21
54.2883646137
 31
0.0
  0
LINE
  5
2FE
330
23B
100
AcDbEntity
  8
0
  6
Continuous
 62
     5
100
AcDbLine
 10
468.4466397362
 20
53.65950645249999
 30
0.0
 11
469.2320279046
 21
54.4448946209
 31
0.0
  0
LINE
  5
2FF
330
23B
100
AcDbEntity
  8
0
  6
Continuous
 62
     5
100
AcDbLine
 10
468.290109729
 20
53.65950645249999
 30
0.0
 11
469.2320279046
 21
54.60142462810001
 31
0.0
  0
LINE
  5
300
330
23B
100
AcDbEntity
  8
0
  6
Continuous
 62
     5
100
AcDbLine
 10
468.1335797217999
 20
53.65950645249999
 30
0.0
 11
469.2320279046
 21
54.75795463529999
 31
0.0
  0
LINE
  5
301
330
23B
100
AcDbEntity
  8
0
  6
Continuous
 62
     5
100
AcDbLine
 10
467.9770497146
 20
53.65950645249999
 30
0.0
 11
469.2320279046
 21
54.9144846424
 31
0.0
  0
LINE
  5
302
330
23B
100
AcDbEntity
  8
0
  6
Continuous
 62
     5
100
AcDbLine
 10
467.8205197075
 20
53.65950645249999
 30
0.0
 11
469.2320279046
 21
55.0710146496
 31
0.0
  0
LINE
  5
303
330
23B
100
AcDbEntity
  8
0
  6
Continuous
 62
     5
100
AcDbLine
 10
467.6639897002999
 20
53.65950645249999
 30
0.0
 11
469.2320279046
 21
55.22754465680001
 31
0.0
  0
LINE
  5
304
330
23B
100
AcDbEntity
  8
0
  6
Continuous
 62
     5
100
AcDbLine
 10
467.5074596931
 20
53.65950645249999
 30
0.0
 11
469.2320279046
 21
55.38407466399999
 31
0.0
  0
LINE
  5
305
330
23B
100
AcDbEntity
  8
0
  6
Continuous
 62
     5
100
AcDbLine
 10
467.3509296858999
 20
53.65950645249999
 30
0.0
 11
469.2320279046
 21
55.5406046712
 31
0.0
  0
LINE
  5
306
330
23B
100
AcDbEntity
  8
0
  6
Continuous
 62
     5
100
AcDbLine
 10
467.1943996787
 20
53.65950645249999
 30
0.0
 11
469.2320279046
 21
55.6971346784
 31
0.0
  0
LINE
  5
307
330
23B
100
AcDbEntity
  8
0
  6
Continuous
 62
     5
100
AcDbLine
 10
467.0378696714999
 20
53.65950645249999
 30
0.0
 11
469.2320279046
 21
55.8536646856
 31
0.0
  0
LINE
  5
308
330
23B
100
AcDbEntity
  8
0
  6
Continuous
 62
     5
100
AcDbLine
 10
466.8813396643
 20
53.65950645249999
 30
0.0
 11
469.2320279046
 21
56.0101946928
 31
0.0
  0
LINE
  5
309
330
23B
100
AcDbEntity
  8
0
  6
Continuous
 62
     5
100
AcDbLine
 10
466.7248096570999
 20
53.65950645249999
 30
0.0
 11
469.2320279046
 21
56.1667247
 31
0.0
  0
LINE
  5
30A
330
23B
100
AcDbEntity
  8
0
  6
Continuous
 62
     5
100
AcDbLine
 10
466.5682796498999
 20
53.65950645249999
 30
0.0
 11
469.2320279046
 21
56.3232547072
 31
0.0
  0
LINE
  5
30B
330
23B
100
AcDbEntity
  8
0
  6
Continuous
 62
     5
100
AcDbLine
 10
466.4117496427
 20
53.65950645249999
 30
0.0
 11
469.2320279046
 21
56.4797847144
 31
0.0
  0
LINE
  5
30C
330
23B
100
AcDbEntity
  8
0
  6
Continuous
 62
     5
100
AcDbLine
 10
466.2552196355
 20
53.65950645249999
 30
0.0
 11
469.2320279046
 21
56.6363147216
 31
0.0
  0
LINE
  5
30D
330
23B
100
AcDbEntity
  8
0
  6
Continuous
 62
     5
100
AcDbLine
 10
466.0986896283
 20
53.65950645249999
 30
0.0
 11
469.2320279046
 21
56.7928447288
 31
0.0
  0
LINE
  5
30E
330
23B
100
AcDbEntity
  8
0
  6
Continuous
 62
     5
100
AcDbLine
 10
465.9421596211
 20
53.65950645249999
 30
0.0
 11
469.2320279046
 21
56.949374736
 31
0.0
  0
LINE
  5
30F
330
23B
100
AcDbEntity
  8
0
  6
Continuous
 62
     5
100
AcDbLine
 10
465.7856296139
 20
53.65950645249999
 30
0.0
 11
469.2320279046
 21
57.10590474319999
 31
0.0
  0
LINE
  5
310
330
23B
100
AcDbEntity
  8
0
  6
Continuous
 62
     5
100
AcDbLine
 10
465.6290996066999
 20
53.65950645249999
 30
0.0
 11
469.2320279046
 21
57.2624347504
 31
0.0
  0
LINE
  5
311
330
23B
100
AcDbEntity
  8
0
  6
Continuous
 62
     5
100
AcDbLine
 10
465.4725695995
 20
53.65950645249999
 30
0.0
 11
469.2320279046
 21
57.4189647576
 31
0.0
  0
LINE
  5
312
330
23B
100
AcDbEntity
  8
0
  6
Continuous
 62
     5
100
AcDbLine
 10
465.3160395923
 20
53.65950645249999
 30
0.0
 11
469.2320279046
 21
57.5754947648
 31
0.0
  0
LINE
  5
313
330
23B
100
AcDbEntity
  8
0
  6
Continuous
 62
     5
100
AcDbLine
 10
465.1595095851
 20
53.65950645249999
 30
0.0
 11
469.2320279046
 21
57.73202477199999
 31
0.0
  0
LINE
  5
314
330
23B
100
AcDbEntity
  8
0
  6
Continuous
 62
     5
100
AcDbLine
 10
473.4215067905999
 20
61.92150365789999
 30
0.0
 11
473.4609251249
 21
61.96092199229999
 31
0.0
  0
LINE
  5
315
330
23B
100
AcDbEntity
  8
0
  6
Continuous
 62
     5
100
AcDbLine
 10
465.0029795778999
 20
53.65950645249999
 30
0.0
 11
469.2320279046
 21
57.8885547792
 31
0.0
  0
LINE
  5
316
330
23B
100
AcDbEntity
  8
0
  6
Continuous
 62
     5
100
AcDbLine
 10
473.2649767833999
 20
61.92150365789999
 30
0.0
 11
473.4609251249
 21
62.1174519995
 31
0.0
  0
LINE
  5
317
330
23B
100
AcDbEntity
  8
0
  6
Continuous
 62
     5
100
AcDbLine
 10
464.8464495706999
 20
53.65950645249999
 30
0.0
 11
469.2320279046
 21
58.0450847864
 31
0.0
  0
LINE
  5
318
330
23B
100
AcDbEntity
  8
0
  6
Continuous
 62
     5
100
AcDbLine
 10
473.1084467762
 20
61.92150365789999
 30
0.0
 11
473.4609251249
 21
62.2739820067
 31
0.0
  0
LINE
  5
319
330
23B
100
AcDbEntity
  8
0
  6
Continuous
 62
     5
100
AcDbLine
 10
464.6899195635
 20
53.65950645249999
 30
0.0
 11
469.2320279046
 21
58.20161479359999
 31
0.0
  0
LINE
  5
31A
330
23B
100
AcDbEntity
  8
0
  6
Continuous
 62
     5
100
AcDbLine
 10
472.951916769
 20
61.92150365789999
 30
0.0
 11
473.4609251249
 21
62.43051201390001
 31
0.0
  0
LINE
  5
31B
330
23B
100
AcDbEntity
  8
0
  6
Continuous
 62
     5
100
AcDbLine
 10
464.5457835496999
 20
53.6719004458
 30
0.0
 11
469.2320279046
 21
58.35814480069999
 31
0.0
  0
LINE
  5
31C
330
23B
100
AcDbEntity
  8
0
  6
Continuous
 62
     5
100
AcDbLine
 10
472.7953867617999
 20
61.92150365789999
 30
0.0
 11
473.4609251249
 21
62.58704202109999
 31
0.0
  0
LINE
  5
31D
330
23B
100
AcDbEntity
  8
0
  6
Continuous
 62
     5
100
AcDbLine
 10
464.5457835496999
 20
53.828430453
 30
0.0
 11
469.2320279046
 21
58.5146748079
 31
0.0
  0
LINE
  5
31E
330
23B
100
AcDbEntity
  8
0
  6
Continuous
 62
     5
100
AcDbLine
 10
472.6388567546
 20
61.92150365789999
 30
0.0
 11
473.4609251249
 21
62.7435720283
 31
0.0
  0
LINE
  5
31F
330
23B
100
AcDbEntity
  8
0
  6
Continuous
 62
     5
100
AcDbLine
 10
464.5457835496999
 20
53.9849604602
 30
0.0
 11
469.2320279046
 21
58.6712048151
 31
0.0
  0
LINE
  5
320
330
23B
100
AcDbEntity
  8
0
  6
Continuous
 62
     5
100
AcDbLine
 10
472.4823267474
 20
61.92150365789999
 30
0.0
 11
473.4609251249
 21
62.9001020355
 31
0.0
  0
LINE
  5
321
330
23B
100
AcDbEntity
  8
0
  6
Continuous
 62
     5
100
AcDbLine
 10
464.5457835496999
 20
54.1414904674
 30
0.0
 11
469.2320279046
 21
58.8277348223
 31
0.0
  0
LINE
  5
322
330
23B
100
AcDbEntity
  8
0
  6
Continuous
 62
     5
100
AcDbLine
 10
472.3257967401999
 20
61.92150365789999
 30
0.0
 11
473.4609251249
 21
63.0566320427
 31
0.0
  0
LINE
  5
323
330
23B
100
AcDbEntity
  8
0
  6
Continuous
 62
     5
100
AcDbLine
 10
464.5457835496999
 20
54.2980204746
 30
0.0
 11
469.2320279046
 21
58.9842648295
 31
0.0
  0
LINE
  5
324
330
23B
100
AcDbEntity
  8
0
  6
Continuous
 62
     5
100
AcDbLine
 10
472.169266733
 20
61.92150365789999
 30
0.0
 11
473.4609251249
 21
63.2131620499
 31
0.0
  0
LINE
  5
325
330
23B
100
AcDbEntity
  8
0
  6
Continuous
 62
     5
100
AcDbLine
 10
464.5457835496999
 20
54.45455048180001
 30
0.0
 11
469.2320279046
 21
59.14079483670001
 31
0.0
  0
LINE
  5
326
330
23B
100
AcDbEntity
  8
0
  6
Continuous
 62
     5
100
AcDbLine
 10
472.0127367258
 20
61.92150365789999
 30
0.0
 11
473.4609251249
 21
63.3696920571
 31
0.0
  0
LINE
  5
327
330
23B
100
AcDbEntity
  8
0
  6
Continuous
 62
     5
100
AcDbLine
 10
464.5457835496999
 20
54.61108048899999
 30
0.0
 11
469.2320279046
 21
59.2973248439
 31
0.0
  0
LINE
  5
328
330
23B
100
AcDbEntity
  8
0
  6
Continuous
 62
     5
100
AcDbLine
 10
471.8562067186
 20
61.92150365789999
 30
0.0
 11
473.4609251249
 21
63.5262220643
 31
0.0
  0
LINE
  5
329
330
23B
100
AcDbEntity
  8
0
  6
Continuous
 62
     5
100
AcDbLine
 10
464.5457835496999
 20
54.7676104962
 30
0.0
 11
469.2320279046
 21
59.4538548511
 31
0.0
  0
LINE
  5
32A
330
23B
100
AcDbEntity
  8
0
  6
Continuous
 62
     5
100
AcDbLine
 10
471.6996767113999
 20
61.92150365789999
 30
0.0
 11
473.4609251249
 21
63.68275207149999
 31
0.0
  0
LINE
  5
32B
330
23B
100
AcDbEntity
  8
0
  6
Continuous
 62
     5
100
AcDbLine
 10
464.5457835496999
 20
54.9241405034
 30
0.0
 11
469.2320279046
 21
59.6103848583
 31
0.0
  0
LINE
  5
32C
330
23B
100
AcDbEntity
  8
0
  6
Continuous
 62
     5
100
AcDbLine
 10
471.5431467041999
 20
61.92150365789999
 30
0.0
 11
473.4609251249
 21
63.83928207859999
 31
0.0
  0
LINE
  5
32D
330
23B
100
AcDbEntity
  8
0
  6
Continuous
 62
     5
100
AcDbLine
 10
464.5457835496999
 20
55.0806705106
 30
0.0
 11
469.2320279046
 21
59.7669148655
 31
0.0
  0
LINE
  5
32E
330
23B
100
AcDbEntity
  8
0
  6
Continuous
 62
     5
100
AcDbLine
 10
471.3866166969999
 20
61.92150365789999
 30
0.0
 11
473.4609251249
 21
63.99581208579999
 31
0.0
  0
LINE
  5
32F
330
23B
100
AcDbEntity
  8
0
  6
Continuous
 62
     5
100
AcDbLine
 10
464.5457835496999
 20
55.23720051779999
 30
0.0
 11
469.2320279046
 21
59.9234448727
 31
0.0
  0
LINE
  5
330
330
23B
100
AcDbEntity
  8
0
  6
Continuous
 62
     5
100
AcDbLine
 10
471.2300866898
 20
61.92150365789999
 30
0.0
 11
473.4609251249
 21
64.152342093
 31
0.0
  0
LINE
  5
331
330
23B
100
AcDbEntity
  8
0
  6
Continuous
 62
     5
100
AcDbLine
 10
464.5457835496999
 20
55.393730525
 30
0.0
 11
469.2320279046
 21
60.07997487989999
 31
0.0
  0
LINE
  5
332
330
23B
100
AcDbEntity
  8
0
  6
Continuous
 62
     5
100
AcDbLine
 10
471.0735566826
 20
61.92150365789999
 30
0.0
 11
473.4609251249
 21
64.3088721002
 31
0.0
  0
LINE
  5
333
330
23B
100
AcDbEntity
  8
0
  6
Continuous
 62
     5
100
AcDbLine
 10
464.5457835496999
 20
55.5502605322
 30
0.0
 11
469.2320279046
 21
60.2365048871
 31
0.0
  0
LINE
  5
334
330
23B
100
AcDbEntity
  8
0
  6
Continuous
 62
     5
100
AcDbLine
 10
470.9170266753999
 20
61.92150365789999
 30
0.0
 11
473.4499466408
 21
64.4544236233
 31
0.0
  0
LINE
  5
335
330
23B
100
AcDbEntity
  8
0
  6
Continuous
 62
     5
100
AcDbLine
 10
464.5457835496999
 20
55.7067905394
 30
0.0
 11
469.2320279046
 21
60.3930348943
 31
0.0
  0
LINE
  5
336
330
23B
100
AcDbEntity
  8
0
  6
Continuous
 62
     5
100
AcDbLine
 10
470.7604966682
 20
61.92150365789999
 30
0.0
 11
473.3803511416
 21
64.5413581313
 31
0.0
  0
LINE
  5
337
330
23B
100
AcDbEntity
  8
0
  6
Continuous
 62
     5
100
AcDbLine
 10
464.5457835496999
 20
55.8633205466
 30
0.0
 11
469.2320279046
 21
60.5495649015
 31
0.0
  0
LINE
  5
338
330
23B
100
AcDbEntity
  8
0
  6
Continuous
 62
     5
100
AcDbLine
 10
470.6039666610999
 20
61.92150365789999
 30
0.0
 11
473.3107556423
 21
64.62829263919999
 31
0.0
  0
LINE
  5
339
330
23B
100
AcDbEntity
  8
0
  6
Continuous
 62
     5
100
AcDbLine
 10
464.5457835496999
 20
56.0198505538
 30
0.0
 11
469.2320279046
 21
60.70609490869999
 31
0.0
  0
LINE
  5
33A
330
23B
100
AcDbEntity
  8
0
  6
Continuous
 62
     5
100
AcDbLine
 10
470.4474366539
 20
61.92150365789999
 30
0.0
 11
473.2411601431
 21
64.71522714719999
 31
0.0
  0
LINE
  5
33B
330
23B
100
AcDbEntity
  8
0
  6
Continuous
 62
     5
100
AcDbLine
 10
464.5457835496999
 20
56.1763805609
 30
0.0
 11
469.2320279046
 21
60.8626249159
 31
0.0
  0
LINE
  5
33C
330
23B
100
AcDbEntity
  8
0
  6
Continuous
 62
     5
100
AcDbLine
 10
470.2909066466999
 20
61.92150365789999
 30
0.0
 11
473.1715646437999
 21
64.8021616551
 31
0.0
  0
LINE
  5
33D
330
23B
100
AcDbEntity
  8
0
  6
Continuous
 62
     5
100
AcDbLine
 10
464.5457835496999
 20
56.3329105681
 30
0.0
 11
469.2320279046
 21
61.0191549231
 31
0.0
  0
LINE
  5
33E
330
23B
100
AcDbEntity
  8
0
  6
Continuous
 62
     5
100
AcDbLine
 10
470.1343766394999
 20
61.92150365789999
 30
0.0
 11
473.1019691445999
 21
64.889096163
 31
0.0
  0
LINE
  5
33F
330
23B
100
AcDbEntity
  8
0
  6
Continuous
 62
     5
100
AcDbLine
 10
464.5457835496999
 20
56.48944057529999
 30
0.0
 11
469.2320279046
 21
61.17568493029999
 31
0.0
  0
LINE
  5
340
330
23B
100
AcDbEntity
  8
0
  6
Continuous
 62
     5
100
AcDbLine
 10
469.9778466323
 20
61.92150365789999
 30
0.0
 11
473.0323736453
 21
64.976030671
 31
0.0
  0
LINE
  5
341
330
23B
100
AcDbEntity
  8
0
  6
Continuous
 62
     5
100
AcDbLine
 10
464.5457835496999
 20
56.6459705825
 30
0.0
 11
469.2320279046
 21
61.33221493749999
 31
0.0
  0
LINE
  5
342
330
23B
100
AcDbEntity
  8
0
  6
Continuous
 62
     5
100
AcDbLine
 10
469.8213166251
 20
61.92150365789999
 30
0.0
 11
472.9627781460999
 21
65.0629651789
 31
0.0
  0
LINE
  5
343
330
23B
100
AcDbEntity
  8
0
  6
Continuous
 62
     5
100
AcDbLine
 10
464.5457835496999
 20
56.8025005897
 30
0.0
 11
469.2320279046
 21
61.4887449447
 31
0.0
  0
LINE
  5
344
330
23B
100
AcDbEntity
  8
0
  6
Continuous
 62
     5
100
AcDbLine
 10
469.6647866179
 20
61.92150365789999
 30
0.0
 11
472.8931826468
 21
65.1498996869
 31
0.0
  0
LINE
  5
345
330
23B
100
AcDbEntity
  8
0
  6
Continuous
 62
     5
100
AcDbLine
 10
464.5457835496999
 20
56.95903059689999
 30
0.0
 11
469.2320279046
 21
61.64527495189999
 31
0.0
  0
LINE
  5
346
330
23B
100
AcDbEntity
  8
0
  6
Continuous
 62
     5
100
AcDbLine
 10
469.5082566107
 20
61.92150365789999
 30
0.0
 11
472.8235871476
 21
65.2368341948
 31
0.0
  0
LINE
  5
347
330
23B
100
AcDbEntity
  8
0
  6
Continuous
 62
     5
100
AcDbLine
 10
464.5457835496999
 20
57.1155606041
 30
0.0
 11
469.2320279046
 21
61.8018049591
 31
0.0
  0
LINE
  5
348
330
23B
100
AcDbEntity
  8
0
  6
Continuous
 62
     5
100
AcDbLine
 10
469.3517266035
 20
61.92150365789999
 30
0.0
 11
472.7539916483
 21
65.3237687028
 31
0.0
  0
LINE
  5
349
330
23B
100
AcDbEntity
  8
0
  6
Continuous
 62
     5
100
AcDbLine
 10
464.5457835496999
 20
57.2720906113
 30
0.0
 11
472.6843961491
 21
65.41070321069999
 31
0.0
  0
LINE
  5
34A
330
23B
100
AcDbEntity
  8
0
  6
Continuous
 62
     5
100
AcDbLine
 10
464.5457835496999
 20
57.42862061850001
 30
0.0
 11
472.6148006498
 21
65.4976377186
 31
0.0
  0
LINE
  5
34B
330
23B
100
AcDbEntity
  8
0
  6
Continuous
 62
     5
100
AcDbLine
 10
464.5457835496999
 20
57.58515062569999
 30
0.0
 11
472.5452051506
 21
65.5845722266
 31
0.0
  0
LINE
  5
34C
330
23B
100
AcDbEntity
  8
0
  6
Continuous
 62
     5
100
AcDbLine
 10
464.5457835496999
 20
57.7416806329
 30
0.0
 11
472.4756096512999
 21
65.6715067345
 31
0.0
  0
LINE
  5
34D
330
23B
100
AcDbEntity
  8
0
  6
Continuous
 62
     5
100
AcDbLine
 10
464.5457835496999
 20
57.8982106401
 30
0.0
 11
472.4060141519999
 21
65.7584412425
 31
0.0
  0
LINE
  5
34E
330
23B
100
AcDbEntity
  8
0
  6
Continuous
 62
     5
100
AcDbLine
 10
464.5457835496999
 20
58.05474064729999
 30
0.0
 11
470.0785986487999
 21
63.5875557464
 31
0.0
  0
LINE
  5
34F
330
23B
100
AcDbEntity
  8
0
  6
Continuous
 62
     5
100
AcDbLine
 10
470.4552672673
 20
63.96422436489999
 30
0.0
 11
472.3364186528
 21
65.84537575039999
 31
0.0
  0
LINE
  5
350
330
23B
100
AcDbEntity
  8
0
  6
Continuous
 62
     5
100
AcDbLine
 10
464.5457835496999
 20
58.21127065449999
 30
0.0
 11
469.7492432321999
 21
63.41473033699999
 31
0.0
  0
LINE
  5
351
330
23B
100
AcDbEntity
  8
0
  6
Continuous
 62
     5
100
AcDbLine
 10
470.6235519243
 20
64.2890390291
 30
0.0
 11
472.2668231534999
 21
65.93231025840001
 31
0.0
  0
LINE
  5
352
330
23B
100
AcDbEntity
  8
0
  6
Continuous
 62
     5
100
AcDbLine
 10
464.5457835496999
 20
58.3678006617
 30
0.0
 11
469.5297254020999
 21
63.35174251409999
 31
0.0
  0
LINE
  5
353
330
23B
100
AcDbEntity
  8
0
  6
Continuous
 62
     5
100
AcDbLine
 10
470.6868659801
 20
64.50888309220001
 30
0.0
 11
472.1972276543
 21
66.0192447663
 31
0.0
  0
LINE
  5
354
330
23B
100
AcDbEntity
  8
0
  6
Continuous
 62
     5
100
AcDbLine
 10
464.5457835496999
 20
58.5243306689
 30
0.0
 11
469.3455473051999
 21
63.32409442439999
 31
0.0
  0
LINE
  5
355
330
23B
100
AcDbEntity
  8
0
  6
Continuous
 62
     5
100
AcDbLine
 10
470.7139420356999
 20
64.6924891549
 30
0.0
 11
472.127632155
 21
66.1061792742
 31
0.0
  0
LINE
  5
356
330
23B
100
AcDbEntity
  8
0
  6
Continuous
 62
     5
100
AcDbLine
 10
464.5457835496999
 20
58.6808606761
 30
0.0
 11
469.1850653416
 21
63.320142468
 31
0.0
  0
LINE
  5
357
330
23B
100
AcDbEntity
  8
0
  6
Continuous
 62
     5
100
AcDbLine
 10
470.7207975474999
 20
64.85587467390001
 30
0.0
 11
472.0580366558
 21
66.1931137822
 31
0.0
  0
LINE
  5
358
330
23B
100
AcDbEntity
  8
0
  6
Continuous
 62
     5
100
AcDbLine
 10
464.5457835496999
 20
58.8373906833
 30
0.0
 11
469.0418948596
 21
63.33350199319999
 31
0.0
  0
LINE
  5
359
330
23B
100
AcDbEntity
  8
0
  6
Continuous
 62
     5
100
AcDbLine
 10
470.7059546775
 20
64.9975618111
 30
0.0
 11
471.9884411565
 21
66.28004829009999
 31
0.0
  0
LINE
  5
35A
330
23B
100
AcDbEntity
  8
0
  6
Continuous
 62
     5
100
AcDbLine
 10
464.5457835496999
 20
58.99392069050001
 30
0.0
 11
468.9063834324
 21
63.3545205732
 31
0.0
  0
LINE
  5
35B
330
23B
100
AcDbEntity
  8
0
  6
Continuous
 62
     5
100
AcDbLine
 10
470.6836842216
 20
65.13182136240001
 30
0.0
 11
471.9188456573
 21
66.36698279810001
 31
0.0
  0
LINE
  5
35C
330
23B
100
AcDbEntity
  8
0
  6
Continuous
 62
     5
100
AcDbLine
 10
464.5457835496999
 20
59.1504506977
 30
0.0
 11
468.7844254119999
 21
63.38909255989999
 31
0.0
  0
LINE
  5
35D
330
23B
100
AcDbEntity
  8
0
  6
Continuous
 62
     5
100
AcDbLine
 10
470.6509071703
 20
65.25557431830001
 30
0.0
 11
471.849250158
 21
66.453917306
 31
0.0
  0
LINE
  5
35E
330
23B
100
AcDbEntity
  8
0
  6
Continuous
 62
     5
100
AcDbLine
 10
464.5457835496999
 20
59.3069807049
 30
0.0
 11
468.6686798565
 21
63.4298770117
 31
0.0
  0
LINE
  5
35F
330
23B
100
AcDbEntity
  8
0
  6
Continuous
 62
     5
100
AcDbLine
 10
470.6087368618
 20
65.36993401699999
 30
0.0
 11
471.7796546587999
 21
66.54085181399999
 31
0.0
  0
LINE
  5
360
330
23B
100
AcDbEntity
  8
0
  6
Continuous
 62
     5
100
AcDbLine
 10
464.5457835496999
 20
59.4635107121
 30
0.0
 11
468.5610676462999
 21
63.4787948087
 31
0.0
  0
LINE
  5
361
330
23B
100
AcDbEntity
  8
0
  6
Continuous
 62
     5
100
AcDbLine
 10
470.5613749267
 20
65.47910208899999
 30
0.0
 11
471.7100591594999
 21
66.62778632189999
 31
0.0
  0
LINE
  5
362
330
23B
100
AcDbEntity
  8
0
  6
Continuous
 62
     5
100
AcDbLine
 10
464.5457835496999
 20
59.6200407193
 30
0.0
 11
468.4603099583999
 21
63.53456712799999
 31
0.0
  0
LINE
  5
363
330
23B
100
AcDbEntity
  8
0
  6
Continuous
 62
     5
100
AcDbLine
 10
470.5041934556
 20
65.57845062510001
 30
0.0
 11
471.6404636603
 21
66.7147208298
 31
0.0
  0
LINE
  5
364
330
23B
100
AcDbEntity
  8
0
  6
Continuous
 62
     5
100
AcDbLine
 10
464.5457835496999
 20
59.7765707264
 30
0.0
 11
468.3655005869
 21
63.5962877636
 31
0.0
  0
LINE
  5
365
330
23B
100
AcDbEntity
  8
0
  6
Continuous
 62
     5
100
AcDbLine
 10
470.4438937905999
 20
65.67468096739999
 30
0.0
 11
471.5708681609999
 21
66.8016553378
 31
0.0
  0
LINE
  5
366
330
23B
100
AcDbEntity
  8
0
  6
Continuous
 62
     5
100
AcDbLine
 10
464.5457835496999
 20
59.93310073359999
 30
0.0
 11
468.2773258913
 21
63.6646430753
 31
0.0
  0
LINE
  5
367
330
23B
100
AcDbEntity
  8
0
  6
Continuous
 62
     5
100
AcDbLine
 10
470.3741369553999
 20
65.7614541394
 30
0.0
 11
471.5012726618
 21
66.8885898457
 31
0.0
  0
LINE
  5
368
330
23B
100
AcDbEntity
  8
0
  6
Continuous
 62
     5
100
AcDbLine
 10
464.5457835496999
 20
60.0896307408
 30
0.0
 11
468.1945244212
 21
63.73837161229999
 31
0.0
  0
LINE
  5
369
330
23B
100
AcDbEntity
  8
0
  6
Continuous
 62
     5
100
AcDbLine
 10
470.3017695488999
 20
65.8456167401
 30
0.0
 11
471.4316771625
 21
66.97552435369999
 31
0.0
  0
LINE
  5
36A
330
23B
100
AcDbEntity
  8
0
  6
Continuous
 62
     5
100
AcDbLine
 10
464.5457835496999
 20
60.246160748
 30
0.0
 11
468.1179673044
 21
63.81834450279999
 31
0.0
  0
LINE
  5
36B
330
23B
100
AcDbEntity
  8
0
  6
Continuous
 62
     5
100
AcDbLine
 10
470.2214438745
 20
65.9218210729
 30
0.0
 11
471.3620816633
 21
67.06245886159999
 31
0.0
  0
LINE
  5
36C
330
23B
100
AcDbEntity
  8
0
  6
Continuous
 62
     5
100
AcDbLine
 10
464.5457835496999
 20
60.40269075520001
 30
0.0
 11
468.0469645851999
 21
63.9038717907
 31
0.0
  0
LINE
  5
36D
330
23B
100
AcDbEntity
  8
0
  6
Continuous
 62
     5
100
AcDbLine
 10
470.1364742169999
 20
65.99338142249999
 30
0.0
 11
471.292486164
 21
67.1493933696
 31
0.0
  0
LINE
  5
36E
330
23B
100
AcDbEntity
  8
0
  6
Continuous
 62
     5
100
AcDbLine
 10
464.5457835496999
 20
60.55922076239999
 30
0.0
 11
467.9821657598999
 21
63.9956029726
 31
0.0
  0
LINE
  5
36F
330
23B
100
AcDbEntity
  8
0
  6
Continuous
 62
     5
100
AcDbLine
 10
470.0430754516
 20
66.0565126643
 30
0.0
 11
471.2228906648
 21
67.2363278775
 31
0.0
  0
LINE
  5
370
330
23B
100
AcDbEntity
  8
0
  6
Continuous
 62
     5
100
AcDbLine
 10
464.5457835496999
 20
60.7157507696
 30
0.0
 11
467.9232984066
 21
64.0932656265
 31
0.0
  0
LINE
  5
371
330
23B
100
AcDbEntity
  8
0
  6
Continuous
 62
     5
100
AcDbLine
 10
469.9469538609999
 20
66.1169210809
 30
0.0
 11
471.1532951655
 21
67.3232623854
 31
0.0
  0
LINE
  5
372
330
23B
100
AcDbEntity
  8
0
  6
Continuous
 62
     5
100
AcDbLine
 10
464.5457835496999
 20
60.8722807768
 30
0.0
 11
467.8715488229999
 21
64.1980460501
 31
0.0
  0
LINE
  5
373
330
23B
100
AcDbEntity
  8
0
  6
Continuous
 62
     5
100
AcDbLine
 10
469.8408774389
 20
66.167374666
 30
0.0
 11
471.0836996662
 21
67.41019689339999
 31
0.0
  0
LINE
  5
374
330
23B
100
AcDbEntity
  8
0
  6
Continuous
 62
     5
100
AcDbLine
 10
464.5457835496999
 20
61.02881078399999
 30
0.0
 11
467.8257641712999
 21
64.30879140569999
 31
0.0
  0
LINE
  5
375
330
23B
100
AcDbEntity
  8
0
  6
Continuous
 62
     5
100
AcDbLine
 10
469.7304929932999
 20
66.2135202276
 30
0.0
 11
471.014104167
 21
67.49713140129999
 31
0.0
  0
LINE
  5
376
330
23B
100
AcDbEntity
  8
0
  6
Continuous
 62
     5
100
AcDbLine
 10
464.5457835496999
 20
61.18534079119999
 30
0.0
 11
467.7899539079
 21
64.4295111495
 31
0.0
  0
LINE
  5
377
330
23B
100
AcDbEntity
  8
0
  6
Continuous
 62
     5
100
AcDbLine
 10
469.6102955379
 20
66.2498527794
 30
0.0
 11
470.9445086676999
 21
67.5840659093
 31
0.0
  0
LINE
  5
378
330
23B
100
AcDbEntity
  8
0
  6
Continuous
 62
     5
100
AcDbLine
 10
464.5457835496999
 20
61.3418707984
 30
0.0
 11
467.7590082876
 21
64.5550955363
 31
0.0
  0
LINE
  5
379
330
23B
100
AcDbEntity
  8
0
  6
Continuous
 62
     5
100
AcDbLine
 10
469.4814796914999
 20
66.2775669402
 30
0.0
 11
470.8749131684999
 21
67.6710004172
 31
0.0
  0
LINE
  5
37A
330
23B
100
AcDbEntity
  8
0
  6
Continuous
 62
     5
100
AcDbLine
 10
464.5457835496999
 20
61.4984008056
 30
0.0
 11
467.7447872276999
 21
64.69740448359999
 31
0.0
  0
LINE
  5
37B
330
23B
100
AcDbEntity
  8
0
  6
Continuous
 62
     5
100
AcDbLine
 10
469.3446650453999
 20
66.2972823013
 30
0.0
 11
470.8053176692
 21
67.7579349252
 31
0.0
  0
LINE
  5
37C
330
23B
100
AcDbEntity
  8
0
  6
Continuous
 62
     5
100
AcDbLine
 10
464.5457835496999
 20
61.6549308128
 30
0.0
 11
467.7404135129
 21
64.849560776
 31
0.0
  0
LINE
  5
37D
330
23B
100
AcDbEntity
  8
0
  6
Continuous
 62
     5
100
AcDbLine
 10
469.1891570037999
 20
66.29830426699999
 30
0.0
 11
470.7357221699999
 21
67.8448694331
 31
0.0
  0
LINE
  5
37E
330
23B
100
AcDbEntity
  8
0
  6
Continuous
 62
     5
100
AcDbLine
 10
464.5457835496999
 20
61.81146082
 30
0.0
 11
467.7514039935999
 21
65.017081264
 31
0.0
  0
LINE
  5
37F
330
23B
100
AcDbEntity
  8
0
  6
Continuous
 62
     5
100
AcDbLine
 10
469.0180097101
 20
66.2836869804
 30
0.0
 11
470.6661266707
 21
67.931803941
 31
0.0
  0
LINE
  5
380
330
23B
100
AcDbEntity
  8
0
  6
Continuous
 62
     5
100
AcDbLine
 10
464.5457835496999
 20
61.96799082720001
 30
0.0
 11
467.7937180448999
 21
65.2159253225
 31
0.0
  0
LINE
  5
381
330
23B
100
AcDbEntity
  8
0
  6
Continuous
 62
     5
100
AcDbLine
 10
468.8195673187999
 20
66.24177459630001
 30
0.0
 11
470.5965311715
 21
68.018738449
 31
0.0
  0
LINE
  5
382
330
23B
100
AcDbEntity
  8
0
  6
Continuous
 62
     5
100
AcDbLine
 10
464.5457835496999
 20
62.12452083439999
 30
0.0
 11
467.8945860975
 21
65.47332338220001
 31
0.0
  0
LINE
  5
383
330
23B
100
AcDbEntity
  8
0
  6
Continuous
 62
     5
100
AcDbLine
 10
468.561944381
 20
66.1406816657
 30
0.0
 11
470.5269356721999
 21
68.10567295689999
 31
0.0
  0
LINE
  5
384
330
23B
100
AcDbEntity
  8
0
  6
Continuous
 62
     5
100
AcDbLine
 10
464.5457835496999
 20
62.2810508416
 30
0.0
 11
470.457340173
 21
68.19260746489999
 31
0.0
  0
LINE
  5
385
330
23B
100
AcDbEntity
  8
0
  6
Continuous
 62
     5
100
AcDbLine
 10
464.5457835496999
 20
62.4375808488
 30
0.0
 11
470.3877446737
 21
68.2795419728
 31
0.0
  0
LINE
  5
386
330
23B
100
AcDbEntity
  8
0
  6
Continuous
 62
     5
100
AcDbLine
 10
464.5457835496999
 20
62.594110856
 30
0.0
 11
470.3181491745
 21
68.3664764808
 31
0.0
  0
LINE
  5
387
330
23B
100
AcDbEntity
  8
0
  6
Continuous
 62
     5
100
AcDbLine
 10
464.5457835496999
 20
62.7506408632
 30
0.0
 11
470.2485536751999
 21
68.4534109887
 31
0.0
  0
LINE
  5
388
330
23B
100
AcDbEntity
  8
0
  6
Continuous
 62
     5
100
AcDbLine
 10
464.5457835496999
 20
62.9071708704
 30
0.0
 11
470.1789581759999
 21
68.54034549659999
 31
0.0
  0
LINE
  5
389
330
23B
100
AcDbEntity
  8
0
  6
Continuous
 62
     5
100
AcDbLine
 10
464.5457835496999
 20
63.0637008776
 30
0.0
 11
470.1093626766999
 21
68.62728000459999
 31
0.0
  0
LINE
  5
38A
330
23B
100
AcDbEntity
  8
0
  6
Continuous
 62
     5
100
AcDbLine
 10
464.5457835496999
 20
63.2202308847
 30
0.0
 11
470.0397671774999
 21
68.7142145125
 31
0.0
  0
LINE
  5
38B
330
23B
100
AcDbEntity
  8
0
  6
Continuous
 62
     5
100
AcDbLine
 10
464.5457835496999
 20
63.3767608919
 30
0.0
 11
469.9701716782
 21
68.8011490205
 31
0.0
  0
LINE
  5
38C
330
23B
100
AcDbEntity
  8
0
  6
Continuous
 62
     5
100
AcDbLine
 10
464.5457835496999
 20
63.53329089909999
 30
0.0
 11
469.9005761789
 21
68.8880835284
 31
0.0
  0
LINE
  5
38D
330
23B
100
AcDbEntity
  8
0
  6
Continuous
 62
     5
100
AcDbLine
 10
464.5457835496999
 20
63.6898209063
 30
0.0
 11
469.8309806796999
 21
68.9750180364
 31
0.0
  0
LINE
  5
38E
330
23B
100
AcDbEntity
  8
0
  6
Continuous
 62
     5
100
AcDbLine
 10
464.5457835496999
 20
63.8463509135
 30
0.0
 11
469.7613851804
 21
69.0619525443
 31
0.0
  0
LINE
  5
38F
330
23B
100
AcDbEntity
  8
0
  6
Continuous
 62
     5
100
AcDbLine
 10
464.5457835496999
 20
64.00288092069999
 30
0.0
 11
469.6917896812
 21
69.1488870522
 31
0.0
  0
LINE
  5
390
330
23B
100
AcDbEntity
  8
0
  6
Continuous
 62
     5
100
AcDbLine
 10
464.5457835496999
 20
64.15941092789999
 30
0.0
 11
469.6221941819
 21
69.23582156020001
 31
0.0
  0
LINE
  5
391
330
23B
100
AcDbEntity
  8
0
  6
Continuous
 62
     5
100
AcDbLine
 10
464.5457835496999
 20
64.3159409351
 30
0.0
 11
469.5525986826999
 21
69.32275606810001
 31
0.0
  0
LINE
  5
392
330
23B
100
AcDbEntity
  8
0
  6
Continuous
 62
     5
100
AcDbLine
 10
464.5457835496999
 20
64.47247094229999
 30
0.0
 11
469.4830031833999
 21
69.40969057609999
 31
0.0
  0
LINE
  5
393
330
23B
100
AcDbEntity
  8
0
  6
Continuous
 62
     5
100
AcDbLine
 10
464.5457835496999
 20
64.6290009495
 30
0.0
 11
469.4134076841999
 21
69.496625084
 31
0.0
  0
LINE
  5
394
330
23B
100
AcDbEntity
  8
0
  6
Continuous
 62
     5
100
AcDbLine
 10
464.5457835496999
 20
64.7855309567
 30
0.0
 11
469.3438121848999
 21
69.583559592
 31
0.0
  0
LINE
  5
395
330
23B
100
AcDbEntity
  8
0
  6
Continuous
 62
     5
100
AcDbLine
 10
464.5457835496999
 20
64.94206096390001
 30
0.0
 11
469.2632290383
 21
69.6595064525
 31
0.0
  0
LINE
  5
396
330
23B
100
AcDbEntity
  8
0
  6
Continuous
 62
     5
100
AcDbLine
 10
464.5457835496999
 20
65.09859097109999
 30
0.0
 11
469.1066990310999
 21
69.6595064525
 31
0.0
  0
LINE
  5
397
330
23B
100
AcDbEntity
  8
0
  6
Continuous
 62
     5
100
AcDbLine
 10
464.5457835496999
 20
65.2551209783
 30
0.0
 11
468.9501690239
 21
69.6595064525
 31
0.0
  0
LINE
  5
398
330
23B
100
AcDbEntity
  8
0
  6
Continuous
 62
     5
100
AcDbLine
 10
464.5457835496999
 20
65.4116509855
 30
0.0
 11
468.7936390166999
 21
69.6595064525
 31
0.0
  0
LINE
  5
399
330
23B
100
AcDbEntity
  8
0
  6
Continuous
 62
     5
100
AcDbLine
 10
464.5457835496999
 20
65.5681809927
 30
0.0
 11
468.6371090095
 21
69.6595064525
 31
0.0
  0
LINE
  5
39A
330
23B
100
AcDbEntity
  8
0
  6
Continuous
 62
     5
100
AcDbLine
 10
464.5457835496999
 20
65.7247109999
 30
0.0
 11
468.4805790023
 21
69.6595064525
 31
0.0
  0
LINE
  5
39B
330
23B
100
AcDbEntity
  8
0
  6
Continuous
 62
     5
100
AcDbLine
 10
464.5457835496999
 20
65.8812410071
 30
0.0
 11
468.3240489951
 21
69.6595064525
 31
0.0
  0
LINE
  5
39C
330
23B
100
AcDbEntity
  8
0
  6
Continuous
 62
     5
100
AcDbLine
 10
464.5457835496999
 20
66.03777101430001
 30
0.0
 11
468.1675189878999
 21
69.6595064525
 31
0.0
  0
LINE
  5
39D
330
23B
100
AcDbEntity
  8
0
  6
Continuous
 62
     5
100
AcDbLine
 10
464.5457835496999
 20
66.19430102149999
 30
0.0
 11
468.0109889807
 21
69.6595064525
 31
0.0
  0
LINE
  5
39E
330
23B
100
AcDbEntity
  8
0
  6
Continuous
 62
     5
100
AcDbLine
 10
464.5457835496999
 20
66.3508310287
 30
0.0
 11
467.8544589734999
 21
69.6595064525
 31
0.0
  0
LINE
  5
39F
330
23B
100
AcDbEntity
  8
0
  6
Continuous
 62
     5
100
AcDbLine
 10
464.5457835496999
 20
66.5073610359
 30
0.0
 11
467.6979289662999
 21
69.6595064525
 31
0.0
  0
LINE
  5
3A0
330
23B
100
AcDbEntity
  8
0
  6
Continuous
 62
     5
100
AcDbLine
 10
464.5457835496999
 20
66.66389104300001
 30
0.0
 11
467.5413989591
 21
69.6595064525
 31
0.0
  0
LINE
  5
3A1
330
23B
100
AcDbEntity
  8
0
  6
Continuous
 62
     5
100
AcDbLine
 10
464.5457835496999
 20
66.82042105020001
 30
0.0
 11
467.3848689519
 21
69.6595064525
 31
0.0
  0
LINE
  5
3A2
330
23B
100
AcDbEntity
  8
0
  6
Continuous
 62
     5
100
AcDbLine
 10
464.5457835496999
 20
66.9769510574
 30
0.0
 11
467.2283389447
 21
69.6595064525
 31
0.0
  0
LINE
  5
3A3
330
23B
100
AcDbEntity
  8
0
  6
Continuous
 62
     5
100
AcDbLine
 10
464.5457835496999
 20
67.1334810646
 30
0.0
 11
467.0718089374999
 21
69.6595064525
 31
0.0
  0
LINE
  5
3A4
330
23B
100
AcDbEntity
  8
0
  6
Continuous
 62
     5
100
AcDbLine
 10
464.5457835496999
 20
67.29001107180001
 30
0.0
 11
466.9152789302999
 21
69.6595064525
 31
0.0
  0
LINE
  5
3A5
330
23B
100
AcDbEntity
  8
0
  6
Continuous
 62
     5
100
AcDbLine
 10
464.5457835496999
 20
67.446541079
 30
0.0
 11
466.7587489230999
 21
69.6595064525
 31
0.0
  0
LINE
  5
3A6
330
23B
100
AcDbEntity
  8
0
  6
Continuous
 62
     5
100
AcDbLine
 10
464.5457835496999
 20
67.60307108620001
 30
0.0
 11
466.6022189159
 21
69.6595064525
 31
0.0
  0
LINE
  5
3A7
330
23B
100
AcDbEntity
  8
0
  6
Continuous
 62
     5
100
AcDbLine
 10
464.5457835496999
 20
67.75960109340001
 30
0.0
 11
466.4456889087
 21
69.6595064525
 31
0.0
  0
LINE
  5
3A8
330
23B
100
AcDbEntity
  8
0
  6
Continuous
 62
     5
100
AcDbLine
 10
464.5457835496999
 20
67.9161311006
 30
0.0
 11
466.2891589015
 21
69.6595064525
 31
0.0
  0
LINE
  5
3A9
330
23B
100
AcDbEntity
  8
0
  6
Continuous
 62
     5
100
AcDbLine
 10
464.5457835496999
 20
68.0726611078
 30
0.0
 11
466.1326288944
 21
69.6595064525
 31
0.0
  0
LINE
  5
3AA
330
23B
100
AcDbEntity
  8
0
  6
Continuous
 62
     5
100
AcDbLine
 10
464.5457835496999
 20
68.229191115
 30
0.0
 11
465.9760988872
 21
69.6595064525
 31
0.0
  0
LINE
  5
3AB
330
23B
100
AcDbEntity
  8
0
  6
Continuous
 62
     5
100
AcDbLine
 10
464.5457835496999
 20
68.38572112219999
 30
0.0
 11
465.81956888
 21
69.6595064525
 31
0.0
  0
LINE
  5
3AC
330
23B
100
AcDbEntity
  8
0
  6
Continuous
 62
     5
100
AcDbLine
 10
464.5457835496999
 20
68.5422511294
 30
0.0
 11
465.6630388727999
 21
69.6595064525
 31
0.0
  0
LINE
  5
3AD
330
23B
100
AcDbEntity
  8
0
  6
Continuous
 62
     5
100
AcDbLine
 10
464.5457835496999
 20
68.6987811366
 30
0.0
 11
465.5065088656
 21
69.6595064525
 31
0.0
  0
LINE
  5
3AE
330
23B
100
AcDbEntity
  8
0
  6
Continuous
 62
     5
100
AcDbLine
 10
464.5457835496999
 20
68.85531114379999
 30
0.0
 11
465.3499788583999
 21
69.6595064525
 31
0.0
  0
LINE
  5
3AF
330
23B
100
AcDbEntity
  8
0
  6
Continuous
 62
     5
100
AcDbLine
 10
464.5457835496999
 20
69.011841151
 30
0.0
 11
465.1934488512
 21
69.6595064525
 31
0.0
  0
LINE
  5
3B0
330
23B
100
AcDbEntity
  8
0
  6
Continuous
 62
     5
100
AcDbLine
 10
464.5457835496999
 20
69.1683711582
 30
0.0
 11
465.036918844
 21
69.6595064525
 31
0.0
  0
LINE
  5
3B1
330
23B
100
AcDbEntity
  8
0
  6
Continuous
 62
     5
100
AcDbLine
 10
464.5457835496999
 20
69.32490116539999
 30
0.0
 11
464.8803888368
 21
69.6595064525
 31
0.0
  0
LINE
  5
3B2
330
23B
100
AcDbEntity
  8
0
  6
Continuous
 62
     5
100
AcDbLine
 10
464.5457835496999
 20
69.48143117259999
 30
0.0
 11
464.7238588296
 21
69.6595064525
 31
0.0
  0
LINE
  5
3B3
330
23B
100
AcDbEntity
  8
0
  6
Continuous
 62
     5
100
AcDbLine
 10
464.5457835496999
 20
69.6379611798
 30
0.0
 11
464.5673288223999
 21
69.6595064525
 31
0.0
  0
ENDBLK
  5
3B4
330
23B
100
AcDbEntity
  8
0
  6
ByBlock
 62
     0
100
AcDbBlockEnd
  0
BLOCK
  5
3B5
330
23C
100
AcDbEntity
  8
0
  6
Continuous
 62
     2
100
AcDbBlockBegin
  2
SYMBOL_1_BL1
 70
     0
 10
39.399089529
 20
378.9292127546
 30
0.0
  3
SYMBOL_1_BL1
  1

  0
LINE
  5
3B6
330
23C
100
AcDbEntity
  8
0
  6
Continuous
 62
     2
100
AcDbLine
 10
37.338945908
 20
381.3080617028
 30
0.0
 11
37.338945908
 21
376.5503638063
 31
0.0
  0
LINE
  5
3B7
330
23C
100
AcDbEntity
  8
0
  6
Continuous
 62
     2
100
AcDbLine
 10
37.338945908
 20
376.5503638063
 30
0.0
 11
41.45923315
 21
378.9292127546
 31
0.0
  0
LINE
  5
3B8
330
23C
100
AcDbEntity
  8
0
  6
Continuous
 62
     2
100
AcDbLine
 10
41.45923315
 20
378.9292127546
 30
0.0
 11
37.338945908
 21
381.3080617028
 31
0.0
  0
SOLID
  5
3B9
330
23C
100
AcDbEntity
  8
0
  6
Continuous
 62
     2
100
AcDbTrace
 10
37.338945908
 20
381.3080617028
 30
0.0
 11
41.45923315
 21
378.9292127546
 31
0.0
 12
37.338945908
 22
376.5503638063
 32
0.0
 13
37.338945908
 23
376.5503638063
 33
0.0
  0
ENDBLK
  5
3BA
330
23C
100
AcDbEntity
  8
0
  6
ByBlock
 62
     0
100
AcDbBlockEnd
  0
BLOCK
  5
3BB
330
23D
100
AcDbEntity
  8
0
  6
Continuous
 62
     2
100
AcDbBlockBegin
  2
SYMBOL_0_BL0
 70
     0
 10
39.5565478765
 20
386.6571841609
 30
0.0
  3
SYMBOL_0_BL0
  1

  0
LINE
  5
3BC
330
23D
100
AcDbEntity
  8
0
  6
Continuous
 62
     2
100
AcDbLine
 10
37.4964017433
 20
384.2782963609
 30
0.0
 11
37.4964788545
 21
389.0360719609
 31
0.0
  0
LINE
  5
3BD
330
23D
100
AcDbEntity
  8
0
  6
Continuous
 62
     2
100
AcDbLine
 10
41.61412680809999
 20
386.6585769562
 30
0.0
 11
39.55526427570001
 21
387.8472885078
 31
0.0
  0
LINE
  5
3BE
330
23D
100
AcDbEntity
  8
0
  6
Continuous
 62
     2
100
AcDbLine
 10
41.6166940098
 20
386.6571482103
 30
0.0
 11
37.4964017433
 21
384.2782963611
 31
0.0
  0
LINE
  5
3BF
330
23D
100
AcDbEntity
  8
0
  6
Continuous
 62
     2
100
AcDbLine
 10
37.4964017433
 20
384.2782963609
 30
0.0
 11
39.55526427570001
 21
387.8472885078
 31
0.0
  0
LINE
  5
3C0
330
23D
100
AcDbEntity
  8
0
  6
Continuous
 62
     2
100
AcDbLine
 10
39.55526427570001
 20
387.8472885078
 30
0.0
 11
37.4964017433
 21
389.0360000595
 31
0.0
  0
SOLID
  5
3C1
330
23D
100
AcDbEntity
  8
0
  6
Continuous
 62
     2
100
AcDbTrace
 10
41.6166940098
 20
386.6571482103
 30
0.0
 11
37.4964017433
 21
384.2782963611
 31
0.0
 12
39.55526427570001
 22
387.8472885078
 32
0.0
 13
39.55526427570001
 23
387.8472885078
 33
0.0
  0
ENDBLK
  5
3C2
330
23D
100
AcDbEntity
  8
0
  6
ByBlock
 62
     0
100
AcDbBlockEnd
  0
BLOCK
  5
CB0
330
CAF
100
AcDbEntity
  8
0
100
AcDbBlockBegin
  2
*D6
 70
     1
 10
0.0
 20
0.0
 30
0.0
  3
*D6
  1

  0
LINE
  5
CB1
330
CAF
100
AcDbEntity
  8
尺寸线
 62
     0
 48
0.5
370
    -2
100
AcDbLine
 10
1646.849761918207
 20
413.3909841485772
 30
0.0
 11
1646.849761918207
 21
390.2726970020613
 31
0.0
  0
LINE
  5
CB2
330
CAF
100
AcDbEntity
  8
尺寸线
 62
     0
 48
0.5
370
    -2
100
AcDbLine
 10
1756.849761918207
 20
392.7726970020613
 30
0.0
 11
1756.849761918207
 21
393.2726970020613
 31
0.0
  0
LINE
  5
CB3
330
CAF
100
AcDbEntity
  8
尺寸线
 62
     0
 48
0.5
370
    -2
100
AcDbLine
 10
1650.849761918207
 20
391.7726970020613
 30
0.0
 11
1752.849761918207
 21
391.7726970020613
 31
0.0
  0
INSERT
  5
CB4
330
CAF
100
AcDbEntity
  8
尺寸线
 62
     0
 48
0.5
370
    -2
100
AcDbBlockReference
  2
_FILLED
 10
1646.849761918207
 20
391.7726970020613
 30
0.0
 41
4.0
 42
4.0
 43
4.0
 50
180.0
  0
INSERT
  5
CB5
330
CAF
100
AcDbEntity
  8
尺寸线
 62
     0
 48
0.5
370
    -2
100
AcDbBlockReference
  2
_FILLED
 10
1756.849761918207
 20
391.7726970020613
 30
0.0
 41
4.0
 42
4.0
 43
4.0
  0
MTEXT
  5
CB6
330
CAF
100
AcDbEntity
  8
尺寸线
 62
     5
 48
0.5
370
    13
100
AcDbMText
 10
1701.099761918207
 20
394.9262684306327
 30
0.0
 40
5.0
 41
0.0
 46
0.0
 71
     5
 72
     1
  1
\A1;220
 73
     1
 44
1.0
  0
POINT
  5
CB7
330
CAF
100
AcDbEntity
  8
Defpoints
 62
     0
 48
0.5
100
AcDbPoint
 10
1646.849761918207
 20
414.3909841485772
 30
0.0
  0
POINT
  5
CB8
330
CAF
100
AcDbEntity
  8
Defpoints
 62
     0
 48
0.5
100
AcDbPoint
 10
1756.849761918207
 20
391.7726970020613
 30
0.0
  0
POINT
  5
CB9
330
CAF
100
AcDbEntity
  8
Defpoints
 62
     0
 48
0.5
100
AcDbPoint
 10
1756.849761918207
 20
391.7726970020613
 30
0.0
  0
ENDBLK
  5
CBA
330
CAF
100
AcDbEntity
  8
0
100
AcDbBlockEnd
  0
BLOCK
  5
CBC
330
CBB
100
AcDbEntity
  8
0
100
AcDbBlockBegin
  2
*D7
 70
     1
 10
0.0
 20
0.0
 30
0.0
  3
*D7
  1

  0
LINE
  5
CBD
330
CBB
100
AcDbEntity
  8
尺寸线
 62
     0
 48
0.5
370
    -2
100
AcDbLine
 10
1645.849761918207
 20
414.3909841485772
 30
0.0
 11
1620.793179190052
 21
414.3909841485772
 31
0.0
  0
LINE
  5
CBE
330
CBB
100
AcDbEntity
  8
尺寸线
 62
     0
 48
0.5
370
    -2
100
AcDbLine
 10
1722.820189282891
 20
-14.60901585142272
 30
0.0
 11
1620.793179190052
 21
-14.60901585142269
 31
0.0
  0
LINE
  5
CBF
330
CBB
100
AcDbEntity
  8
尺寸线
 62
     0
 48
0.5
370
    -2
100
AcDbLine
 10
1622.293179190052
 20
410.3909841485772
 30
0.0
 11
1622.293179190052
 21
-10.6090158514227
 31
0.0
  0
INSERT
  5
CC0
330
CBB
100
AcDbEntity
  8
尺寸线
 62
     0
 48
0.5
370
    -2
100
AcDbBlockReference
  2
_FILLED
 10
1622.293179190052
 20
414.3909841485772
 30
0.0
 41
4.0
 42
4.0
 43
4.0
 50
90.0
  0
INSERT
  5
CC1
330
CBB
100
AcDbEntity
  8
尺寸线
 62
     0
 48
0.5
370
    -2
100
AcDbBlockReference
  2
_FILLED
 10
1622.293179190052
 20
-14.6090158514227
 30
0.0
 41
4.0
 42
4.0
 43
4.0
 50
270.0
  0
MTEXT
  5
CC2
330
CBB
100
AcDbEntity
  8
尺寸线
 62
     5
 48
0.5
370
    13
100
AcDbMText
 10
1618.911036332909
 20
199.8909841485775
 30
0.0
 40
5.0
 41
0.0
 46
0.0
 71
     5
 72
     1
  1
\A1;858%%P5
 11
0.0000000000000001
 21
1.0
 31
0.0
 73
     1
 44
1.0
  0
POINT
  5
CC3
330
CBB
100
AcDbEntity
  8
Defpoints
 62
     0
 48
0.5
100
AcDbPoint
 10
1646.849761918207
 20
414.3909841485772
 30
0.0
  0
POINT
  5
CC4
330
CBB
100
AcDbEntity
  8
Defpoints
 62
     0
 48
0.5
100
AcDbPoint
 10
1723.820189282891
 20
-14.60901585142272
 30
0.0
  0
POINT
  5
CC5
330
CBB
100
AcDbEntity
  8
Defpoints
 62
     0
 48
0.5
100
AcDbPoint
 10
1622.293179190052
 20
-14.6090158514227
 30
0.0
  0
ENDBLK
  5
CC6
330
CBB
100
AcDbEntity
  8
0
100
AcDbBlockEnd
  0
BLOCK
  5
CC8
330
CC7
100
AcDbEntity
  8
0
100
AcDbBlockBegin
  2
*D8
 70
     1
 10
0.0
 20
0.0
 30
0.0
  3
*D8
  1

  0
LINE
  5
CC9
330
CC7
100
AcDbEntity
  8
尺寸线
 62
     0
 48
0.5
370
    -2
100
AcDbLine
 10
1746.349761918207
 20
36.06806309157054
 30
0.0
 11
1746.349761918207
 21
43.17336373915913
 31
0.0
  0
LINE
  5
CCA
330
CC7
100
AcDbEntity
  8
尺寸线
 62
     0
 48
0.5
370
    -2
100
AcDbLine
 10
1767.349761918208
 20
36.06806309157054
 30
0.0
 11
1767.349761918208
 21
43.17336373915913
 31
0.0
  0
LINE
  5
CCB
330
CC7
100
AcDbEntity
  8
尺寸线
 62
     0
 48
0.5
370
    -2
100
AcDbLine
 10
1750.349761918207
 20
41.67336373915913
 30
0.0
 11
1763.349761918208
 21
41.67336373915913
 31
0.0
  0
LINE
  5
CCC
330
CC7
100
AcDbEntity
  8
尺寸线
 62
     0
 48
0.5
370
    -2
100
AcDbLine
 10
1767.349761918208
 20
41.67336373915913
 30
0.0
 11
1800.742619061065
 21
41.67336373915913
 31
0.0
  0
INSERT
  5
CCD
330
CC7
100
AcDbEntity
  8
尺寸线
 62
     0
 48
0.5
370
    -2
100
AcDbBlockReference
  2
_FILLED
 10
1746.349761918207
 20
41.67336373915913
 30
0.0
 41
4.0
 42
4.0
 43
4.0
 50
180.0
  0
INSERT
  5
CCE
330
CC7
100
AcDbEntity
  8
尺寸线
 62
     0
 48
0.5
370
    -2
100
AcDbBlockReference
  2
_FILLED
 10
1767.349761918208
 20
41.67336373915913
 30
0.0
 41
4.0
 42
4.0
 43
4.0
  0
MTEXT
  5
CCF
330
CC7
100
AcDbEntity
  8
尺寸线
 62
     5
 48
0.5
370
    13
100
AcDbMText
 10
1786.046190489637
 20
45.05550659630198
 30
0.0
 40
5.0
 41
0.0
 46
0.0
 71
     5
 72
     1
  1
\A1;21\U+00B10.01
 73
     1
 44
1.0
  0
POINT
  5
CD0
330
CC7
100
AcDbEntity
  8
Defpoints
 62
     0
 48
0.5
100
AcDbPoint
 10
1746.349761918207
 20
35.06806309157054
 30
0.0
  0
POINT
  5
CD1
330
CC7
100
AcDbEntity
  8
Defpoints
 62
     0
 48
0.5
100
AcDbPoint
 10
1767.349761918208
 20
35.06806309157054
 30
0.0
  0
POINT
  5
CD2
330
CC7
100
AcDbEntity
  8
Defpoints
 62
     0
 48
0.5
100
AcDbPoint
 10
1767.349761918208
 20
41.67336373915913
 30
0.0
  0
ENDBLK
  5
CD3
330
CC7
100
AcDbEntity
  8
0
100
AcDbBlockEnd
  0
BLOCK
  5
CD5
330
CD4
100
AcDbEntity
  8
0
100
AcDbBlockBegin
  2
*D9
 70
     1
 10
0.0
 20
0.0
 30
0.0
  3
*D9
  1

  0
LINE
  5
CD6
330
CD4
100
AcDbEntity
  8
尺寸线
 62
     0
 48
0.5
370
    -2
100
AcDbLine
 10
1719.349761918207
 20
-15.60901585142272
 30
0.0
 11
1719.349761918207
 21
-40.62392577755912
 31
0.0
  0
LINE
  5
CD7
330
CD4
100
AcDbEntity
  8
尺寸线
 62
     0
 48
0.5
370
    -2
100
AcDbLine
 10
1794.349761918207
 20
-12.73401585142272
 30
0.0
 11
1794.349761918207
 21
-40.62392577755912
 31
0.0
  0
LINE
  5
CD8
330
CD4
100
AcDbEntity
  8
尺寸线
 62
     0
 48
0.5
370
    -2
100
AcDbLine
 10
1723.349761918207
 20
-39.12392577755912
 30
0.0
 11
1790.349761918207
 21
-39.12392577755912
 31
0.0
  0
INSERT
  5
CD9
330
CD4
100
AcDbEntity
  8
尺寸线
 62
     0
 48
0.5
370
    -2
100
AcDbBlockReference
  2
_FILLED
 10
1719.349761918207
 20
-39.12392577755912
 30
0.0
 41
4.0
 42
4.0
 43
4.0
 50
180.0
  0
INSERT
  5
CDA
330
CD4
100
AcDbEntity
  8
尺寸线
 62
     0
 48
0.5
370
    -2
100
AcDbBlockReference
  2
_FILLED
 10
1794.349761918207
 20
-39.12392577755912
 30
0.0
 41
4.0
 42
4.0
 43
4.0
  0
MTEXT
  5
CDB
330
CD4
100
AcDbEntity
  8
尺寸线
 62
     5
 48
0.5
370
    13
100
AcDbMText
 10
1756.849761918207
 20
-35.9703543489877
 30
0.0
 40
5.0
 41
0.0
 46
0.0
 71
     5
 72
     1
  1
\A1;152
 73
     1
 44
1.0
  0
POINT
  5
CDC
330
CD4
100
AcDbEntity
  8
Defpoints
 62
     0
 48
0.5
100
AcDbPoint
 10
1719.349761918207
 20
-14.60901585142272
 30
0.0
  0
POINT
  5
CDD
330
CD4
100
AcDbEntity
  8
Defpoints
 62
     0
 48
0.5
100
AcDbPoint
 10
1794.349761918207
 20
-11.73401585142272
 30
0.0
  0
POINT
  5
CDE
330
CD4
100
AcDbEntity
  8
Defpoints
 62
     0
 48
0.5
100
AcDbPoint
 10
1794.349761918207
 20
-39.12392577755912
 30
0.0
  0
ENDBLK
  5
CDF
330
CD4
100
AcDbEntity
  8
0
100
AcDbBlockEnd
  0
BLOCK
  5
CE1
330
CE0
100
AcDbEntity
  8
0
100
AcDbBlockBegin
  2
*D10
 70
     1
 10
0.0
 20
0.0
 30
0.0
  3
*D10
  1

  0
LINE
  5
CE2
330
CE0
100
AcDbEntity
  8
尺寸线
 62
     0
 48
0.5
370
    -2
100
AcDbLine
 10
1724.042963578002
 20
-8.109015851422725
 30
0.0
 11
1707.641531536486
 21
-8.109015851422718
 31
0.0
  0
LINE
  5
CE3
330
CE0
100
AcDbEntity
  8
尺寸线
 62
     0
 48
0.5
370
    -2
100
AcDbLine
 10
1722.820189282891
 20
-14.60901585142272
 30
0.0
 11
1707.641531536486
 21
-14.60901585142272
 31
0.0
  0
LINE
  5
CE4
330
CE0
100
AcDbEntity
  8
尺寸线
 62
     0
 48
0.5
370
    -2
100
AcDbLine
 10
1709.141531536486
 20
-18.60901585142272
 30
0.0
 11
1709.141531536486
 21
-22.60901585142272
 31
0.0
  0
LINE
  5
CE5
330
CE0
100
AcDbEntity
  8
尺寸线
 62
     0
 48
0.5
370
    -2
100
AcDbLine
 10
1709.141531536486
 20
-4.109015851422719
 30
0.0
 11
1709.141531536486
 21
32.9695555771487
 31
0.0
  0
INSERT
  5
CE6
330
CE0
100
AcDbEntity
  8
尺寸线
 62
     0
 48
0.5
370
    -2
100
AcDbBlockReference
  2
_FILLED
 10
1709.141531536486
 20
-14.60901585142272
 30
0.0
 41
4.0
 42
4.0
 43
4.0
 50
90.0
  0
INSERT
  5
CE7
330
CE0
100
AcDbEntity
  8
尺寸线
 62
     0
 48
0.5
370
    -2
100
AcDbBlockReference
  2
_FILLED
 10
1709.141531536486
 20
-8.10901585142272
 30
0.0
 41
4.0
 42
4.0
 43
4.0
 50
270.0
  0
MTEXT
  5
CE8
330
CE0
100
AcDbEntity
  8
尺寸线
 62
     5
 48
0.5
370
    13
100
AcDbMText
 10
1705.759388679344
 20
16.43026986286326
 30
0.0
 40
5.0
 41
0.0
 46
0.0
 71
     5
 72
     1
  1
\A1;6.5\U+00B10.01
 11
0.0000000000000001
 21
1.0
 31
0.0
 73
     1
 44
1.0
  0
POINT
  5
CE9
330
CE0
100
AcDbEntity
  8
Defpoints
 62
     0
 48
0.5
100
AcDbPoint
 10
1725.042963578002
 20
-8.109015851422725
 30
0.0
  0
POINT
  5
CEA
330
CE0
100
AcDbEntity
  8
Defpoints
 62
     0
 48
0.5
100
AcDbPoint
 10
1723.820189282891
 20
-14.60901585142272
 30
0.0
  0
POINT
  5
CEB
330
CE0
100
AcDbEntity
  8
Defpoints
 62
     0
 48
0.5
100
AcDbPoint
 10
1709.141531536486
 20
-14.60901585142272
 30
0.0
  0
ENDBLK
  5
CEC
330
CE0
100
AcDbEntity
  8
0
100
AcDbBlockEnd
  0
BLOCK
  5
CEE
330
CED
100
AcDbEntity
  8
0
100
AcDbBlockBegin
  2
*D11
 70
     1
 10
0.0
 20
0.0
 30
0.0
  3
*D11
  1

  0
LINE
  5
CEF
330
CED
100
AcDbEntity
  8
尺寸线
 62
     0
 48
0.5
370
    -2
100
AcDbLine
 10
1872.626281848712
 20
36.06806309157054
 30
0.0
 11
1872.626281848712
 21
43.17336373915913
 31
0.0
  0
LINE
  5
CF0
330
CED
100
AcDbEntity
  8
尺寸线
 62
     0
 48
0.5
370
    -2
100
AcDbLine
 10
1893.626281848713
 20
36.06806309157054
 30
0.0
 11
1893.626281848713
 21
43.17336373915913
 31
0.0
  0
LINE
  5
CF1
330
CED
100
AcDbEntity
  8
尺寸线
 62
     0
 48
0.5
370
    -2
100
AcDbLine
 10
1876.626281848712
 20
41.67336373915913
 30
0.0
 11
1889.626281848713
 21
41.67336373915913
 31
0.0
  0
LINE
  5
CF2
330
CED
100
AcDbEntity
  8
尺寸线
 62
     0
 48
0.5
370
    -2
100
AcDbLine
 10
1893.626281848713
 20
41.67336373915913
 30
0.0
 11
1927.01913899157
 21
41.67336373915913
 31
0.0
  0
INSERT
  5
CF3
330
CED
100
AcDbEntity
  8
尺寸线
 62
     0
 48
0.5
370
    -2
100
AcDbBlockReference
  2
_FILLED
 10
1872.626281848712
 20
41.67336373915913
 30
0.0
 41
4.0
 42
4.0
 43
4.0
 50
180.0
  0
INSERT
  5
CF4
330
CED
100
AcDbEntity
  8
尺寸线
 62
     0
 48
0.5
370
    -2
100
AcDbBlockReference
  2
_FILLED
 10
1893.626281848713
 20
41.67336373915913
 30
0.0
 41
4.0
 42
4.0
 43
4.0
  0
MTEXT
  5
CF5
330
CED
100
AcDbEntity
  8
尺寸线
 62
     5
 48
0.5
370
    13
100
AcDbMText
 10
1912.322710420141
 20
45.05550659630198
 30
0.0
 40
5.0
 41
0.0
 46
0.0
 71
     5
 72
     1
  1
\A1;21\U+00B10.01
 73
     1
 44
1.0
  0
POINT
  5
CF6
330
CED
100
AcDbEntity
  8
Defpoints
 62
     0
 48
0.5
100
AcDbPoint
 10
1872.626281848712
 20
35.06806309157054
 30
0.0
  0
POINT
  5
CF7
330
CED
100
AcDbEntity
  8
Defpoints
 62
     0
 48
0.5
100
AcDbPoint
 10
1893.626281848713
 20
35.06806309157054
 30
0.0
  0
POINT
  5
CF8
330
CED
100
AcDbEntity
  8
Defpoints
 62
     0
 48
0.5
100
AcDbPoint
 10
1893.626281848713
 20
41.67336373915913
 30
0.0
  0
ENDBLK
  5
CF9
330
CED
100
AcDbEntity
  8
0
100
AcDbBlockEnd
  0
BLOCK
  5
CFB
330
CFA
100
AcDbEntity
  8
0
100
AcDbBlockBegin
  2
*D12
 70
     1
 10
0.0
 20
0.0
 30
0.0
  3
*D12
  1

  0
LINE
  5
CFC
330
CFA
100
AcDbEntity
  8
尺寸线
 62
     0
 48
0.5
370
    -2
100
AcDbLine
 10
1845.626281848712
 20
-15.60901585142272
 30
0.0
 11
1845.626281848712
 21
-40.62392577755912
 31
0.0
  0
LINE
  5
CFD
330
CFA
100
AcDbEntity
  8
尺寸线
 62
     0
 48
0.5
370
    -2
100
AcDbLine
 10
1920.626281848712
 20
-12.73401585142272
 30
0.0
 11
1920.626281848712
 21
-40.62392577755912
 31
0.0
  0
LINE
  5
CFE
330
CFA
100
AcDbEntity
  8
尺寸线
 62
     0
 48
0.5
370
    -2
100
AcDbLine
 10
1849.626281848712
 20
-39.12392577755912
 30
0.0
 11
1916.626281848712
 21
-39.12392577755912
 31
0.0
  0
INSERT
  5
CFF
330
CFA
100
AcDbEntity
  8
尺寸线
 62
     0
 48
0.5
370
    -2
100
AcDbBlockReference
  2
_FILLED
 10
1845.626281848712
 20
-39.12392577755912
 30
0.0
 41
4.0
 42
4.0
 43
4.0
 50
180.0
  0
INSERT
  5
D00
330
CFA
100
AcDbEntity
  8
尺寸线
 62
     0
 48
0.5
370
    -2
100
AcDbBlockReference
  2
_FILLED
 10
1920.626281848712
 20
-39.12392577755912
 30
0.0
 41
4.0
 42
4.0
 43
4.0
  0
MTEXT
  5
D01
330
CFA
100
AcDbEntity
  8
尺寸线
 62
     5
 48
0.5
370
    13
100
AcDbMText
 10
1883.126281848712
 20
-35.9703543489877
 30
0.0
 40
5.0
 41
0.0
 46
0.0
 71
     5
 72
     1
  1
\A1;152
 73
     1
 44
1.0
  0
POINT
  5
D02
330
CFA
100
AcDbEntity
  8
Defpoints
 62
     0
 48
0.5
100
AcDbPoint
 10
1845.626281848712
 20
-14.60901585142272
 30
0.0
  0
POINT
  5
D03
330
CFA
100
AcDbEntity
  8
Defpoints
 62
     0
 48
0.5
100
AcDbPoint
 10
1920.626281848712
 20
-11.73401585142272
 30
0.0
  0
POINT
  5
D04
330
CFA
100
AcDbEntity
  8
Defpoints
 62
     0
 48
0.5
100
AcDbPoint
 10
1920.626281848712
 20
-39.12392577755912
 30
0.0
  0
ENDBLK
  5
D05
330
CFA
100
AcDbEntity
  8
0
100
AcDbBlockEnd
  0
BLOCK
  5
D98
330
D06
100
AcDbEntity
  8
0
100
AcDbBlockBegin
  2
A$C4AE13D6C
 70
     0
 10
0.0
 20
0.0
 30
0.0
  3
A$C4AE13D6C
  1

  0
LINE
  5
D07
330
D06
100
AcDbEntity
  8
51001-1_DXF_CONTINUOUS_LINE
  6
Continuous
 62
     7
100
AcDbLine
 10
305.7758202311543
 20
26.01490937720638
 30
0.0
 11
230.7758202311543
 21
26.01490937720638
 31
0.0
  0
LINE
  5
D08
330
D06
100
AcDbEntity
  8
51001-1_DXF_CONTINUOUS_LINE
  6
Continuous
 62
     7
100
AcDbLine
 10
231.5258202311543
 20
32.51490937720638
 30
0.0
 11
305.0258202311543
 21
32.51490937720638
 31
0.0
  0
LINE
  5
D09
330
D06
100
AcDbEntity
  8
51001-1_DXF_CONTINUOUS_LINE
  6
Continuous
 62
     7
100
AcDbLine
 10
230.7758202311543
 20
26.01490937720638
 30
0.0
 11
230.7758202311543
 21
31.76490937720638
 31
0.0
  0
LINE
  5
D0A
330
D06
100
AcDbEntity
  8
51001-1_DXF_CONTINUOUS_LINE
  6
Continuous
 62
     7
100
AcDbLine
 10
257.7758202311543
 20
32.51490937720638
 30
0.0
 11
257.7758202311543
 21
468.5149093772063
 31
0.0
  0
LINE
  5
D0B
330
D06
100
AcDbEntity
  8
51001-1_DXF_CONTINUOUS_LINE
  6
Continuous
 62
     7
100
AcDbLine
 10
262.2758202311543
 20
458.5149093772064
 30
0.0
 11
262.2758202311543
 21
457.0149093772063
 31
0.0
  0
LINE
  5
D0C
330
D06
100
AcDbEntity
  8
51001-1_DXF_CONTINUOUS_LINE
  6
Continuous
 62
     7
100
AcDbLine
 10
262.7758202311543
 20
455.0149093772064
 30
0.0
 11
262.7758202311543
 21
457.0149093772063
 31
0.0
  0
LINE
  5
D0D
330
D06
100
AcDbEntity
  8
51001-1_DXF_CONTINUOUS_LINE
  6
Continuous
 62
     7
100
AcDbLine
 10
273.7758202311543
 20
457.0149093772063
 30
0.0
 11
273.7758202311543
 21
455.0149093772064
 31
0.0
  0
LINE
  5
D0E
330
D06
100
AcDbEntity
  8
51001-1_DXF_CONTINUOUS_LINE
  6
Continuous
 62
     7
100
AcDbLine
 10
274.2758202311543
 20
458.5149093772064
 30
0.0
 11
274.2758202311543
 21
457.0149093772063
 31
0.0
  0
LINE
  5
D0F
330
D06
100
AcDbEntity
  8
51001-1_DXF_CONTINUOUS_LINE
  6
Continuous
 62
     7
100
AcDbLine
 10
278.7758202311543
 20
32.51490937720638
 30
0.0
 11
278.7758202311543
 21
402.5149093772063
 31
0.0
  0
LINE
  5
D10
330
D06
100
AcDbEntity
  8
51001-1_DXF_CONTINUOUS_LINE
  6
Continuous
 62
     7
100
AcDbLine
 10
278.7758202311543
 20
423.5149093772063
 30
0.0
 11
278.7758202311543
 21
468.5149093772063
 31
0.0
  0
LINE
  5
D11
330
D06
100
AcDbEntity
  8
51001-1_DXF_CONTINUOUS_LINE
  6
Continuous
 62
     7
100
AcDbLine
 10
285.7758202311543
 20
423.5149093772063
 30
0.0
 11
285.7758202311543
 21
402.5149093772063
 31
0.0
  0
LINE
  5
D12
330
D06
100
AcDbEntity
  8
51001-1_DXF_CONTINUOUS_LINE
  6
Continuous
 62
     7
100
AcDbLine
 10
305.7758202311543
 20
26.01490937720638
 30
0.0
 11
305.7758202311543
 21
31.76490937720638
 31
0.0
  0
LINE
  5
D13
330
D06
100
AcDbEntity
  8
51001-1_DXF_CONTINUOUS_LINE
  6
Continuous
 62
     7
100
AcDbLine
 10
278.7758202311543
 20
402.5149093772063
 30
0.0
 11
285.7758202311543
 21
402.5149093772063
 31
0.0
  0
LINE
  5
D14
330
D06
100
AcDbEntity
  8
51001-1_DXF_CONTINUOUS_LINE
  6
Continuous
 62
     7
100
AcDbLine
 10
278.7758202311543
 20
423.5149093772063
 30
0.0
 11
285.7758202311543
 21
423.5149093772063
 31
0.0
  0
LINE
  5
D15
330
D06
100
AcDbEntity
  8
51001-1_DXF_CONTINUOUS_LINE
  6
Continuous
 62
     7
100
AcDbLine
 10
273.7758202311543
 20
455.0149093772064
 30
0.0
 11
262.7758202311543
 21
455.0149093772064
 31
0.0
  0
LINE
  5
D16
330
D06
100
AcDbEntity
  8
51001-1_DXF_CONTINUOUS_LINE
  6
Continuous
 62
     7
100
AcDbLine
 10
273.7758202311543
 20
455.5149093772064
 30
0.0
 11
262.7758202311543
 21
455.5149093772064
 31
0.0
  0
LINE
  5
D17
330
D06
100
AcDbEntity
  8
51001-1_DXF_CONTINUOUS_LINE
  6
Continuous
 62
     7
100
AcDbLine
 10
274.2750513915535
 20
457.0149093772063
 30
0.0
 11
273.7758202311543
 21
457.0149093772063
 31
0.0
  0
LINE
  5
D18
330
D06
100
AcDbEntity
  8
51001-1_DXF_CONTINUOUS_LINE
  6
Continuous
 62
     7
100
AcDbLine
 10
262.7758202311543
 20
457.0149093772063
 30
0.0
 11
262.2765890707542
 21
457.0149093772063
 31
0.0
  0
LINE
  5
D19
330
D06
100
AcDbEntity
  8
51001-1_DXF_CONTINUOUS_LINE
  6
Continuous
 62
     7
100
AcDbLine
 10
257.7758202311543
 20
458.5149093772064
 30
0.0
 11
278.7758202311543
 21
458.5149093772064
 31
0.0
  0
LINE
  5
D1A
330
D06
100
AcDbEntity
  8
51001-1_DXF_CONTINUOUS_LINE
  6
Continuous
 62
     7
100
AcDbLine
 10
257.7758202311543
 20
468.5149093772063
 30
0.0
 11
278.7758202311543
 21
468.5149093772063
 31
0.0
  0
LINE
  5
D1B
330
D06
100
AcDbEntity
  8
51001-1_DXF_CONTINUOUS_LINE
  6
Continuous
 62
     7
100
AcDbLine
 10
179.4993003006493
 20
26.01490937720638
 30
0.0
 11
104.4993003006493
 21
26.01490937720638
 31
0.0
  0
LINE
  5
D1C
330
D06
100
AcDbEntity
  8
51001-1_DXF_CONTINUOUS_LINE
  6
Continuous
 62
     7
100
AcDbLine
 10
105.2493003006493
 20
32.51490937720638
 30
0.0
 11
178.7493003006493
 21
32.51490937720638
 31
0.0
  0
LINE
  5
D1D
330
D06
100
AcDbEntity
  8
51001-1_DXF_CONTINUOUS_LINE
  6
Continuous
 62
     7
100
AcDbLine
 10
37.49930030064934
 20
455.0149093772064
 30
0.0
 11
37.99930030064934
 21
455.5149093772064
 31
0.0
  0
LINE
  5
D1E
330
D06
100
AcDbEntity
  8
51001-1_DXF_CONTINUOUS_LINE
  6
Continuous
 62
     7
100
AcDbLine
 10
19.99930030064934
 20
458.5149093772064
 30
0.0
 11
19.99930030064934
 21
468.5149093772063
 31
0.0
  0
LINE
  5
D1F
330
D06
100
AcDbEntity
  8
51001-1_DXF_CONTINUOUS_LINE
  6
Continuous
 62
     7
100
AcDbLine
 10
25.99930030064934
 20
458.5149093772064
 30
0.0
 11
25.99930030064934
 21
455.5149093772064
 31
0.0
  0
LINE
  5
D20
330
D06
100
AcDbEntity
  8
51001-1_DXF_CONTINUOUS_LINE
  6
Continuous
 62
     7
100
AcDbLine
 10
29.60138453899981
 20
457.0149093772063
 30
0.0
 11
29.60138453899981
 21
455.5149093772064
 31
0.0
  0
LINE
  5
D21
330
D06
100
AcDbEntity
  8
51001-1_DXF_CONTINUOUS_LINE
  6
Continuous
 62
     7
100
AcDbLine
 10
34.39721606229978
 20
457.0149093772063
 30
0.0
 11
34.39721606229978
 21
455.5149093772064
 31
0.0
  0
LINE
  5
D22
330
D06
100
AcDbEntity
  8
51001-1_DXF_CONTINUOUS_LINE
  6
Continuous
 62
     7
100
AcDbLine
 10
37.99930030064934
 20
458.5149093772064
 30
0.0
 11
37.99930030064934
 21
455.5149093772064
 31
0.0
  0
LINE
  5
D23
330
D06
100
AcDbEntity
  8
51001-1_DXF_CONTINUOUS_LINE
  6
Continuous
 62
     7
100
AcDbLine
 10
104.4993003006493
 20
26.01490937720638
 30
0.0
 11
104.4993003006493
 21
31.76490937720638
 31
0.0
  0
LINE
  5
D24
330
D06
100
AcDbEntity
  8
51001-1把手_DXF_CONTINUOUS_LINE
  6
Continuous
 62
     7
100
AcDbLine
 10
131.3743003006493
 20
423.5399093772064
 30
0.0
 11
131.3743003006493
 21
402.4899093772065
 31
0.0
  0
LINE
  5
D25
330
D06
100
AcDbEntity
  8
51001-1_DXF_CONTINUOUS_LINE
  6
Continuous
 62
     7
100
AcDbLine
 10
131.4993003006493
 20
32.51490937720638
 30
0.0
 11
131.4993003006493
 21
402.3899093772064
 31
0.0
  0
LINE
  5
D26
330
D06
100
AcDbEntity
  8
51001-1_DXF_CONTINUOUS_LINE
  6
Continuous
 62
     7
100
AcDbLine
 10
131.4993003006493
 20
423.6399093772063
 30
0.0
 11
131.4993003006493
 21
458.5149093772064
 31
0.0
  0
LINE
  5
D27
330
D06
100
AcDbEntity
  8
51001-1把手_DXF_CONTINUOUS_LINE
  6
Continuous
 62
     7
100
AcDbLine
 10
132.3743003006493
 20
421.3899093772063
 30
0.0
 11
132.3743003006493
 21
420.4708070439565
 31
0.0
  0
LINE
  5
D28
330
D06
100
AcDbEntity
  8
51001-1把手_DXF_CONTINUOUS_LINE
  6
Continuous
 62
     7
100
AcDbLine
 10
135.1243003006493
 20
420.4708070439565
 30
0.0
 11
135.1243003006493
 21
421.3899093772063
 31
0.0
  0
LINE
  5
D29
330
D06
100
AcDbEntity
  8
51001-1把手_DXF_CONTINUOUS_LINE
  6
Continuous
 62
     7
100
AcDbLine
 10
136.1243003006493
 20
454.6397513609063
 30
0.0
 11
136.1243003006493
 21
400.1399093772064
 31
0.0
  0
LINE
  5
D2A
330
D06
100
AcDbEntity
  8
51001-1把手_DXF_CONTINUOUS_LINE
  6
Continuous
 62
     7
100
AcDbLine
 10
137.4993003006493
 20
413.8899093772064
 30
0.0
 11
137.4993003006493
 21
412.1399093772064
 31
0.0
  0
LINE
  5
D2B
330
D06
100
AcDbEntity
  8
51001-1把手_DXF_CONTINUOUS_LINE
  6
Continuous
 62
     7
100
AcDbLine
 10
137.7743003006498
 20
412.1399093772064
 30
0.0
 11
137.7743003006498
 21
413.6298310694065
 31
0.0
  0
LINE
  5
D2C
330
D06
100
AcDbEntity
  8
51001-1把手_DXF_CONTINUOUS_LINE
  6
Continuous
 62
     7
100
AcDbLine
 10
143.0343003006492
 20
413.8699093772063
 30
0.0
 11
143.0343003006492
 21
412.1599093772063
 31
0.0
  0
LINE
  5
D2D
330
D06
100
AcDbEntity
  8
51001-1把手_DXF_CONTINUOUS_LINE
  6
Continuous
 62
     7
100
AcDbLine
 10
143.2893003006493
 20
413.1399093772063
 30
0.0
 11
143.2893003006493
 21
413.6099093772064
 31
0.0
  0
LINE
  5
D2E
330
D06
100
AcDbEntity
  8
51001-1把手_DXF_CONTINUOUS_LINE
  6
Continuous
 62
     7
100
AcDbLine
 10
143.2893003006493
 20
412.4199093772063
 30
0.0
 11
143.2893003006493
 21
412.8899093772063
 31
0.0
  0
LINE
  5
D2F
330
D06
100
AcDbEntity
  8
51001-1把手_DXF_CONTINUOUS_LINE
  6
Continuous
 62
     7
100
AcDbLine
 10
144.0643003006498
 20
412.8899093772063
 30
0.0
 11
144.0643003006498
 21
413.1399093772063
 31
0.0
  0
LINE
  5
D30
330
D06
100
AcDbEntity
  8
51001-1把手_DXF_CONTINUOUS_LINE
  6
Continuous
 62
     7
100
AcDbLine
 10
144.109300300649
 20
412.1599093772063
 30
0.0
 11
144.109300300649
 21
412.4199093772063
 31
0.0
  0
LINE
  5
D31
330
D06
100
AcDbEntity
  8
51001-1把手_DXF_CONTINUOUS_LINE
  6
Continuous
 62
     7
100
AcDbLine
 10
144.109300300649
 20
413.6099093772064
 30
0.0
 11
144.109300300649
 21
413.8699093772063
 31
0.0
  0
LINE
  5
D32
330
D06
100
AcDbEntity
  8
51001-1把手_DXF_CONTINUOUS_LINE
  6
Continuous
 62
     7
100
AcDbLine
 10
144.3343003006494
 20
413.8699093772063
 30
0.0
 11
144.3343003006494
 21
412.1599093772063
 31
0.0
  0
LINE
  5
D33
330
D06
100
AcDbEntity
  8
51001-1把手_DXF_CONTINUOUS_LINE
  6
Continuous
 62
     7
100
AcDbLine
 10
144.609300300649
 20
412.4199093772063
 30
0.0
 11
144.609300300649
 21
413.8699093772063
 31
0.0
  0
LINE
  5
D34
330
D06
100
AcDbEntity
  8
51001-1把手_DXF_CONTINUOUS_LINE
  6
Continuous
 62
     7
100
AcDbLine
 10
145.359300300649
 20
412.1599093772063
 30
0.0
 11
145.359300300649
 21
412.4199093772063
 31
0.0
  0
LINE
  5
D35
330
D06
100
AcDbEntity
  8
51001-1把手_DXF_CONTINUOUS_LINE
  6
Continuous
 62
     7
100
AcDbLine
 10
145.4179051177998
 20
413.8699093772063
 30
0.0
 11
145.4179051177998
 21
412.1599093772063
 31
0.0
  0
LINE
  5
D36
330
D06
100
AcDbEntity
  8
51001-1把手_DXF_CONTINUOUS_LINE
  6
Continuous
 62
     7
100
AcDbLine
 10
145.7043003006492
 20
412.4199093772063
 30
0.0
 11
145.7043003006492
 21
413.8699093772063
 31
0.0
  0
LINE
  5
D37
330
D06
100
AcDbEntity
  8
51001-1把手_DXF_CONTINUOUS_LINE
  6
Continuous
 62
     7
100
AcDbLine
 10
146.4289970909494
 20
412.1599093772063
 30
0.0
 11
146.4289970909494
 21
412.4199093772063
 31
0.0
  0
LINE
  5
D38
330
D06
100
AcDbEntity
  8
51001-1把手_DXF_CONTINUOUS_LINE
  6
Continuous
 62
     7
100
AcDbLine
 10
147.8743003006493
 20
400.1399093772064
 30
0.0
 11
147.8743003006493
 21
454.6399093772063
 31
0.0
  0
LINE
  5
D39
330
D06
100
AcDbEntity
  8
51001-1把手_DXF_CONTINUOUS_LINE
  6
Continuous
 62
     7
100
AcDbLine
 10
148.8743003006493
 20
421.3899093772063
 30
0.0
 11
148.8743003006493
 21
420.4708070439565
 31
0.0
  0
LINE
  5
D3A
330
D06
100
AcDbEntity
  8
51001-1把手_DXF_CONTINUOUS_LINE
  6
Continuous
 62
     7
100
AcDbLine
 10
151.6243003006493
 20
420.4708070439565
 30
0.0
 11
151.6243003006493
 21
421.3899093772063
 31
0.0
  0
LINE
  5
D3B
330
D06
100
AcDbEntity
  8
51001-1_DXF_CONTINUOUS_LINE
  6
Continuous
 62
     7
100
AcDbLine
 10
152.4993003006493
 20
32.51490937720638
 30
0.0
 11
152.4993003006493
 21
402.3899093772064
 31
0.0
  0
LINE
  5
D3C
330
D06
100
AcDbEntity
  8
51001-1_DXF_CONTINUOUS_LINE
  6
Continuous
 62
     7
100
AcDbLine
 10
152.4993003006493
 20
423.6399093772063
 30
0.0
 11
152.4993003006493
 21
468.5149093772063
 31
0.0
  0
LINE
  5
D3D
330
D06
100
AcDbEntity
  8
51001-1把手_DXF_CONTINUOUS_LINE
  6
Continuous
 62
     7
100
AcDbLine
 10
152.6243003006493
 20
402.4899093772065
 30
0.0
 11
152.6243003006493
 21
423.5399093772064
 31
0.0
  0
LINE
  5
D3E
330
D06
100
AcDbEntity
  8
51001-1_DXF_CONTINUOUS_LINE
  6
Continuous
 62
     7
100
AcDbLine
 10
179.4993003006493
 20
26.01490937720638
 30
0.0
 11
179.4993003006493
 21
31.76490937720638
 31
0.0
  0
LINE
  5
D3F
330
D06
100
AcDbEntity
  8
51001-1_DXF_CONTINUOUS_LINE
  6
Continuous
 62
     7
100
AcDbLine
 10
26.49930030064934
 20
455.0149093772064
 30
0.0
 11
25.99930030064934
 21
455.5149093772064
 31
0.0
  0
LINE
  5
D40
330
D06
100
AcDbEntity
  8
51001-1把手_DXF_CONTINUOUS_LINE
  6
Continuous
 62
     7
100
AcDbLine
 10
137.8243003006491
 20
413.0149093772064
 30
0.0
 11
138.5189647109992
 21
412.1399093772064
 31
0.0
  0
LINE
  5
D41
330
D06
100
AcDbEntity
  8
51001-1把手_DXF_CONTINUOUS_LINE
  6
Continuous
 62
     7
100
AcDbLine
 10
138.8252299625492
 20
412.1399093772064
 30
0.0
 11
138.3272627995493
 21
412.7671493237563
 31
0.0
  0
LINE
  5
D42
330
D06
100
AcDbEntity
  8
51001-1把手_DXF_CONTINUOUS_LINE
  6
Continuous
 62
     7
100
AcDbLine
 10
136.3743003006493
 20
399.8899093772064
 30
0.0
 11
147.6243003006493
 21
399.8899093772064
 31
0.0
  0
LINE
  5
D43
330
D06
100
AcDbEntity
  8
51001-1把手_DXF_CONTINUOUS_LINE
  6
Continuous
 62
     7
100
AcDbLine
 10
131.4743003006497
 20
402.3899093772064
 30
0.0
 11
136.1243003006493
 21
402.3899093772064
 31
0.0
  0
LINE
  5
D44
330
D06
100
AcDbEntity
  8
51001-1把手_DXF_CONTINUOUS_LINE
  6
Continuous
 62
     7
100
AcDbLine
 10
147.8743003006493
 20
402.3899093772064
 30
0.0
 11
152.5243003006499
 21
402.3899093772064
 31
0.0
  0
LINE
  5
D45
330
D06
100
AcDbEntity
  8
51001-1把手_DXF_CONTINUOUS_LINE
  6
Continuous
 62
     7
100
AcDbLine
 10
137.4993003006493
 20
412.1399093772064
 30
0.0
 11
137.7743003006498
 21
412.1399093772064
 31
0.0
  0
LINE
  5
D46
330
D06
100
AcDbEntity
  8
51001-1把手_DXF_CONTINUOUS_LINE
  6
Continuous
 62
     7
100
AcDbLine
 10
138.5189647109992
 20
412.1399093772064
 30
0.0
 11
138.8252299625492
 21
412.1399093772064
 31
0.0
  0
LINE
  5
D47
330
D06
100
AcDbEntity
  8
51001-1把手_DXF_CONTINUOUS_LINE
  6
Continuous
 62
     7
100
AcDbLine
 10
143.0343003006492
 20
412.1599093772063
 30
0.0
 11
144.109300300649
 21
412.1599093772063
 31
0.0
  0
LINE
  5
D48
330
D06
100
AcDbEntity
  8
51001-1把手_DXF_CONTINUOUS_LINE
  6
Continuous
 62
     7
100
AcDbLine
 10
145.4179051177998
 20
412.1599093772063
 30
0.0
 11
146.4289970909494
 21
412.1599093772063
 31
0.0
  0
LINE
  5
D49
330
D06
100
AcDbEntity
  8
51001-1把手_DXF_CONTINUOUS_LINE
  6
Continuous
 62
     7
100
AcDbLine
 10
144.3343003006494
 20
412.1599093772063
 30
0.0
 11
145.359300300649
 21
412.1599093772063
 31
0.0
  0
LINE
  5
D4A
330
D06
100
AcDbEntity
  8
51001-1把手_DXF_CONTINUOUS_LINE
  6
Continuous
 62
     7
100
AcDbLine
 10
146.4289970909494
 20
412.4199093772063
 30
0.0
 11
145.7043003006492
 21
412.4199093772063
 31
0.0
  0
LINE
  5
D4B
330
D06
100
AcDbEntity
  8
51001-1把手_DXF_CONTINUOUS_LINE
  6
Continuous
 62
     7
100
AcDbLine
 10
145.359300300649
 20
412.4199093772063
 30
0.0
 11
144.609300300649
 21
412.4199093772063
 31
0.0
  0
LINE
  5
D4C
330
D06
100
AcDbEntity
  8
51001-1把手_DXF_CONTINUOUS_LINE
  6
Continuous
 62
     7
100
AcDbLine
 10
144.109300300649
 20
412.4199093772063
 30
0.0
 11
143.2893003006493
 21
412.4199093772063
 31
0.0
  0
LINE
  5
D4D
330
D06
100
AcDbEntity
  8
51001-1把手_DXF_CONTINUOUS_LINE
  6
Continuous
 62
     7
100
AcDbLine
 10
142.924168334699
 20
412.6821571970063
 30
0.0
 11
142.6341683346991
 21
412.6821571970063
 31
0.0
  0
LINE
  5
D4E
330
D06
100
AcDbEntity
  8
51001-1把手_DXF_CONTINUOUS_LINE
  6
Continuous
 62
     7
100
AcDbLine
 10
143.2893003006493
 20
412.8899093772063
 30
0.0
 11
144.0643003006498
 21
412.8899093772063
 31
0.0
  0
LINE
  5
D4F
330
D06
100
AcDbEntity
  8
51001-1把手_DXF_CONTINUOUS_LINE
  6
Continuous
 62
     7
100
AcDbLine
 10
138.2096598918497
 20
413.0149093772064
 30
0.0
 11
137.8243003006491
 21
413.0149093772064
 31
0.0
  0
LINE
  5
D50
330
D06
100
AcDbEntity
  8
51001-1把手_DXF_CONTINUOUS_LINE
  6
Continuous
 62
     7
100
AcDbLine
 10
144.0643003006498
 20
413.1399093772063
 30
0.0
 11
143.2893003006493
 21
413.1399093772063
 31
0.0
  0
LINE
  5
D51
330
D06
100
AcDbEntity
  8
51001-1把手_DXF_CONTINUOUS_LINE
  6
Continuous
 62
     7
100
AcDbLine
 10
142.6341683346991
 20
413.3476615574064
 30
0.0
 11
142.924168334699
 21
413.3476615574064
 31
0.0
  0
LINE
  5
D52
330
D06
100
AcDbEntity
  8
51001-1把手_DXF_CONTINUOUS_LINE
  6
Continuous
 62
     7
100
AcDbLine
 10
143.2893003006493
 20
413.6099093772064
 30
0.0
 11
144.109300300649
 21
413.6099093772064
 31
0.0
  0
LINE
  5
D53
330
D06
100
AcDbEntity
  8
51001-1把手_DXF_CONTINUOUS_LINE
  6
Continuous
 62
     7
100
AcDbLine
 10
137.7743003006498
 20
413.6298310694065
 30
0.0
 11
138.2096598918497
 21
413.6298310694065
 31
0.0
  0
LINE
  5
D54
330
D06
100
AcDbEntity
  8
51001-1把手_DXF_CONTINUOUS_LINE
  6
Continuous
 62
     7
100
AcDbLine
 10
145.7043003006492
 20
413.8699093772063
 30
0.0
 11
145.4179051177998
 21
413.8699093772063
 31
0.0
  0
LINE
  5
D55
330
D06
100
AcDbEntity
  8
51001-1把手_DXF_CONTINUOUS_LINE
  6
Continuous
 62
     7
100
AcDbLine
 10
144.609300300649
 20
413.8699093772063
 30
0.0
 11
144.3343003006494
 21
413.8699093772063
 31
0.0
  0
LINE
  5
D56
330
D06
100
AcDbEntity
  8
51001-1把手_DXF_CONTINUOUS_LINE
  6
Continuous
 62
     7
100
AcDbLine
 10
144.109300300649
 20
413.8699093772063
 30
0.0
 11
143.0343003006492
 21
413.8699093772063
 31
0.0
  0
LINE
  5
D57
330
D06
100
AcDbEntity
  8
51001-1把手_DXF_CONTINUOUS_LINE
  6
Continuous
 62
     7
100
AcDbLine
 10
138.2096598918497
 20
413.8899093772064
 30
0.0
 11
137.4993003006493
 21
413.8899093772064
 31
0.0
  0
LINE
  5
D58
330
D06
100
AcDbEntity
  8
51001-1把手_DXF_CONTINUOUS_LINE
  6
Continuous
 62
     7
100
AcDbLine
 10
132.3743003006493
 20
420.4708070439565
 30
0.0
 11
135.1243003006493
 21
420.4708070439565
 31
0.0
  0
LINE
  5
D59
330
D06
100
AcDbEntity
  8
51001-1把手_DXF_CONTINUOUS_LINE
  6
Continuous
 62
     7
100
AcDbLine
 10
148.8743003006493
 20
420.4708070439565
 30
0.0
 11
151.6243003006493
 21
420.4708070439565
 31
0.0
  0
LINE
  5
D5A
330
D06
100
AcDbEntity
  8
51001-1把手_DXF_CONTINUOUS_LINE
  6
Continuous
 62
     7
100
AcDbLine
 10
151.6243003006493
 20
421.3899093772063
 30
0.0
 11
148.8743003006493
 21
421.3899093772063
 31
0.0
  0
LINE
  5
D5B
330
D06
100
AcDbEntity
  8
51001-1把手_DXF_CONTINUOUS_LINE
  6
Continuous
 62
     7
100
AcDbLine
 10
135.1243003006493
 20
421.3899093772063
 30
0.0
 11
132.3743003006493
 21
421.3899093772063
 31
0.0
  0
LINE
  5
D5C
330
D06
100
AcDbEntity
  8
51001-1把手_DXF_CONTINUOUS_LINE
  6
Continuous
 62
     7
100
AcDbLine
 10
152.5243003006499
 20
423.6399093772063
 30
0.0
 11
147.8743003006493
 21
423.6399093772063
 31
0.0
  0
LINE
  5
D5D
330
D06
100
AcDbEntity
  8
51001-1把手_DXF_CONTINUOUS_LINE
  6
Continuous
 62
     7
100
AcDbLine
 10
136.1243003006493
 20
423.6399093772063
 30
0.0
 11
131.4743003006497
 21
423.6399093772063
 31
0.0
  0
LINE
  5
D5E
330
D06
100
AcDbEntity
  8
51001-1把手_DXF_CONTINUOUS_LINE
  6
Continuous
 62
     7
100
AcDbLine
 10
136.3743003006493
 20
454.8899093772063
 30
0.0
 11
147.6243003006493
 21
454.8899093772063
 31
0.0
  0
LINE
  5
D5F
330
D06
100
AcDbEntity
  8
51001-1_DXF_CONTINUOUS_LINE
  6
Continuous
 62
     7
100
AcDbLine
 10
37.49929886454902
 20
455.0149093772064
 30
0.0
 11
26.49930173674966
 21
455.0149093772064
 31
0.0
  0
LINE
  5
D60
330
D06
100
AcDbEntity
  8
51001-1_DXF_CONTINUOUS_LINE
  6
Continuous
 62
     7
100
AcDbLine
 10
37.99930030064934
 20
455.5149093772064
 30
0.0
 11
34.39721606229978
 21
455.5149093772064
 31
0.0
  0
LINE
  5
D61
330
D06
100
AcDbEntity
  8
51001-1_DXF_CONTINUOUS_LINE
  6
Continuous
 62
     7
100
AcDbLine
 10
29.60138453899981
 20
455.5149093772064
 30
0.0
 11
25.99930030064934
 21
455.5149093772064
 31
0.0
  0
LINE
  5
D62
330
D06
100
AcDbEntity
  8
51001-1_DXF_CONTINUOUS_LINE
  6
Continuous
 62
     7
100
AcDbLine
 10
34.39721606229978
 20
457.0149093772063
 30
0.0
 11
29.60138453899981
 21
457.0149093772063
 31
0.0
  0
LINE
  5
D63
330
D06
100
AcDbEntity
  8
51001-1_DXF_CONTINUOUS_LINE
  6
Continuous
 62
     7
100
AcDbLine
 10
19.99930030064934
 20
458.5149093772064
 30
0.0
 11
131.4993003006493
 21
458.5149093772064
 31
0.0
  0
LINE
  5
D64
330
D06
100
AcDbEntity
  8
51001-1_DXF_CONTINUOUS_LINE
  6
Continuous
 62
     7
100
AcDbLine
 10
19.99930030064934
 20
468.5149093772063
 30
0.0
 11
152.4993003006493
 21
468.5149093772063
 31
0.0
  0
ARC
  5
D65
330
D06
100
AcDbEntity
  8
51001-1_DXF_CONTINUOUS_LINE
  6
Continuous
 62
     7
100
AcDbCircle
 10
285.7758202311543
 20
404.2649093772063
 30
0.0
 40
18.5
100
AcDbArc
 50
85.39152784822492
 51
90.0
  0
ARC
  5
D66
330
D06
100
AcDbEntity
  8
51001-1_DXF_CONTINUOUS_LINE
  6
Continuous
 62
     7
100
AcDbCircle
 10
285.7758202311543
 20
421.7649093772063
 30
0.0
 40
18.5
100
AcDbArc
 50
270.0
 51
287.6997737406828
  0
ARC
  5
D67
330
D06
100
AcDbEntity
  8
51001-1_DXF_CONTINUOUS_LINE
  6
Continuous
 62
     7
100
AcDbCircle
 10
231.5258202311543
 20
31.76490937720638
 30
0.0
 40
0.75
100
AcDbArc
 50
90.0
 51
180.0
  0
ARC
  5
D68
330
D06
100
AcDbEntity
  8
51001-1_DXF_CONTINUOUS_LINE
  6
Continuous
 62
     7
100
AcDbCircle
 10
305.0258202311543
 20
31.76490937720638
 30
0.0
 40
0.75
100
AcDbArc
 50
0.0
 51
90.0
  0
ARC
  5
D69
330
D06
100
AcDbEntity
  8
51001-1_DXF_CONTINUOUS_LINE
  6
Continuous
 62
     7
100
AcDbCircle
 10
105.2493003006493
 20
31.76490937720638
 30
0.0
 40
0.75
100
AcDbArc
 50
90.0
 51
180.0
  0
ARC
  5
D6A
330
D06
100
AcDbEntity
  8
51001-1_DXF_CONTINUOUS_LINE
  6
Continuous
 62
     7
100
AcDbCircle
 10
178.7493003006493
 20
31.76490937720638
 30
0.0
 40
0.75
100
AcDbArc
 50
0.0
 51
90.0
  0
ARC
  5
D6B
330
D06
100
AcDbEntity
  8
51001-1把手_DXF_CONTINUOUS_LINE
  6
Continuous
 62
     7
100
AcDbCircle
 10
138.2096598918497
 20
413.3223702233063
 30
0.0
 40
0.5675391539
100
AcDbArc
 50
281.9592229547018
 51
90.0
  0
ARC
  5
D6C
330
D06
100
AcDbEntity
  8
51001-1把手_DXF_CONTINUOUS_LINE
  6
Continuous
 62
     7
100
AcDbCircle
 10
138.2096598918497
 20
413.3223702233063
 30
0.0
 40
0.3074608461
100
AcDbArc
 50
270.0
 51
90.0
  0
ARC
  5
D6D
330
D06
100
AcDbEntity
  8
51001-1把手_DXF_CONTINUOUS_LINE
  6
Continuous
 62
     7
100
AcDbCircle
 10
136.3743003006493
 20
454.6399093772063
 30
0.0
 40
0.25
100
AcDbArc
 50
90.0
 51
180.0
  0
ARC
  5
D6E
330
D06
100
AcDbEntity
  8
51001-1把手_DXF_CONTINUOUS_LINE
  6
Continuous
 62
     7
100
AcDbCircle
 10
147.6243003006493
 20
454.6399093772063
 30
0.0
 40
0.25
100
AcDbArc
 50
0.0
 51
90.0
  0
ARC
  5
D6F
330
D06
100
AcDbEntity
  8
51001-1把手_DXF_CONTINUOUS_LINE
  6
Continuous
 62
     7
100
AcDbCircle
 10
147.6243003006493
 20
400.1399093772064
 30
0.0
 40
0.25
100
AcDbArc
 50
270.0
 51
0.0
  0
ARC
  5
D70
330
D06
100
AcDbEntity
  8
51001-1把手_DXF_CONTINUOUS_LINE
  6
Continuous
 62
     7
100
AcDbCircle
 10
136.3743003006493
 20
400.1399093772064
 30
0.0
 40
0.25
100
AcDbArc
 50
180.0
 51
270.0
  0
ARC
  5
D71
330
D06
100
AcDbEntity
  8
51001-1把手_DXF_CONTINUOUS_LINE
  6
Continuous
 62
     7
100
AcDbCircle
 10
131.4743003006497
 20
402.4899093772065
 30
0.0
 40
0.1
100
AcDbArc
 50
180.0
 51
270.0
  0
ARC
  5
D72
330
D06
100
AcDbEntity
  8
51001-1把手_DXF_CONTINUOUS_LINE
  6
Continuous
 62
     7
100
AcDbCircle
 10
152.5243003006499
 20
402.4899093772065
 30
0.0
 40
0.1
100
AcDbArc
 50
270.0
 51
0.0
  0
ARC
  5
D73
330
D06
100
AcDbEntity
  8
51001-1把手_DXF_CONTINUOUS_LINE
  6
Continuous
 62
     7
100
AcDbCircle
 10
152.5243003006499
 20
423.5399093772064
 30
0.0
 40
0.1
100
AcDbArc
 50
0.0
 51
90.0
  0
ARC
  5
D74
330
D06
100
AcDbEntity
  8
51001-1把手_DXF_CONTINUOUS_LINE
  6
Continuous
 62
     7
100
AcDbCircle
 10
131.4743003006497
 20
423.5399093772064
 30
0.0
 40
0.1
100
AcDbArc
 50
90.0
 51
180.0
  0
SPLINE
  5
D75
330
D06
100
AcDbEntity
  8
51001-1_DXF_CONTINUOUS_LINE
  6
Continuous
 62
     7
100
AcDbSpline
210
0.0
220
0.0
230
1.0
 70
     8
 71
     3
 72
     8
 73
     4
 74
     0
 42
0.000000001
 43
0.0000000001
 40
0.0
 40
0.0
 40
0.0
 40
0.0
 40
1.0
 40
1.0
 40
1.0
 40
1.0
 10
29.60138453899981
 20
455.5149093772063
 30
0.0
 10
30.35957336729917
 20
455.2118972202563
 30
0.0
 10
31.18280371969922
 20
455.0149093772063
 30
0.0
 10
31.99930030064934
 20
455.0149093772063
 30
0.0
  0
SPLINE
  5
D76
330
D06
100
AcDbEntity
  8
51001-1_DXF_CONTINUOUS_LINE
  6
Continuous
 62
     7
100
AcDbSpline
210
0.0
220
0.0
230
1.0
 70
     8
 71
     3
 72
     8
 73
     4
 74
     0
 42
0.000000001
 43
0.0000000001
 40
0.0
 40
0.0
 40
0.0
 40
0.0
 40
1.0
 40
1.0
 40
1.0
 40
1.0
 10
31.99930030064934
 20
455.0149093772063
 30
0.0
 10
32.81579688159946
 20
455.0149093772063
 30
0.0
 10
33.63902723399951
 20
455.2118972202563
 30
0.0
 10
34.39721606229978
 20
455.5149093772063
 30
0.0
  0
ELLIPSE
  5
D77
330
D06
100
AcDbEntity
  8
51001-1把手_DXF_CONTINUOUS_LINE
  6
Continuous
 62
     7
100
AcDbEllipse
 10
139.8780953925998
 20
413.0149093772063
 30
0.0
 11
0.725
 21
0.0
 31
0.0
210
0.0
220
0.0
230
1.0
 40
0.8620689654999999
 41
0.0
 42
6.283185307179586
  0
ELLIPSE
  5
D78
330
D06
100
AcDbEntity
  8
51001-1把手_DXF_CONTINUOUS_LINE
  6
Continuous
 62
     7
100
AcDbEllipse
 10
139.8780953925998
 20
413.0149093772063
 30
0.0
 11
0.9987613645499999
 21
0.0
 31
0.0
210
0.0
220
0.0
230
1.0
 40
0.8860975518
 41
0.0
 42
6.283185307179586
  0
ELLIPSE
  5
D79
330
D06
100
AcDbEntity
  8
51001-1把手_DXF_CONTINUOUS_LINE
  6
Continuous
 62
     7
100
AcDbEllipse
 10
141.9993003006493
 20
413.0149093772063
 30
0.0
 11
1.0
 21
0.0
 31
0.0
210
0.0
220
0.0
230
1.0
 40
0.875
 41
0.390107895
 42
5.8930774122
  0
ELLIPSE
  5
D7A
330
D06
100
AcDbEntity
  8
51001-1把手_DXF_CONTINUOUS_LINE
  6
Continuous
 62
     7
100
AcDbEllipse
 10
141.9993003006493
 20
413.0149093772063
 30
0.0
 11
-0.75
 21
0.0
 31
0.0
210
0.0
220
0.0
230
1.0
 40
0.8333333333
 41
3.703030047699999
 42
8.863340566599999
  0
DIMENSION
  5
D7B
330
D06
100
AcDbEntity
  8
尺寸线
 48
0.5
370
    13
100
AcDbDimension
280
     0
  2
*D6
 10
141.9993003006493
 20
432.3966222306903
 30
0.0
 11
86.24930030064934
 21
432.3966222306903
 31
0.0
 12
-1614.850461617558
 22
40.6239252286291
 32
0.0
 70
   128
  1
220
 71
     5
 42
110.0
 73
     0
 74
     0
 75
     0
  3
STANDARD
100
AcDbAlignedDimension
 13
31.99930030064934
 23
455.0149093772064
 33
0.0
 14
141.9993003006493
 24
432.3966222306903
 34
0.0
100
AcDbRotatedDimension
  0
DIMENSION
  5
D7C
330
D06
100
AcDbEntity
  8
尺寸线
 48
0.5
370
    13
100
AcDbDimension
280
     0
  2
*D7
 10
7.442717572494075
 20
26.01490937720641
 30
0.0
 11
4.060574715351322
 21
240.5149093772067
 31
0.0
 12
-1614.850461617558
 22
40.6239252286291
 32
0.0
  1
858%%P5
 71
     5
 42
428.9999999999999
 73
     0
 74
     0
 75
     0
  3
STANDARD
100
AcDbAlignedDimension
 13
31.99930030064934
 23
455.0149093772064
 33
0.0
 14
108.9697276653332
 24
26.01490937720638
 34
0.0
 50
90.0
100
AcDbRotatedDimension
  0
DIMENSION
  5
D7D
330
D06
100
AcDbEntity
  8
尺寸线
 48
0.5
370
    13
100
AcDbDimension
280
     0
  2
*D8
 10
152.4993003006502
 20
82.29728896778823
 30
0.0
 11
171.1957288720789
 21
82.29728896778823
 31
0.0
 12
-1614.850461617558
 22
40.6239252286291
 32
0.0
 70
   128
 71
     5
 42
21.00000000000091
 73
     0
 74
     0
 75
     0
  3
STANDARD
100
AcDbAlignedDimension
 13
131.4993003006493
 23
75.69198832019964
 33
0.0
 14
152.4993003006502
 24
75.69198832019964
 34
0.0
100
AcDbRotatedDimension
  0
DIMENSION
  5
D7E
330
D06
100
AcDbEntity
  8
尺寸线
 48
0.5
370
    13
100
AcDbDimension
280
     0
  2
*D9
 10
179.4993003006493
 20
1.499999451069982
 30
0.0
 11
141.9993003006493
 21
1.499999451069982
 31
0.0
 12
-1614.850461617558
 22
40.6239252286291
 32
0.0
 70
   128
  1
152
 71
     5
 42
75.0
 73
     0
 74
     0
 75
     0
  3
STANDARD
100
AcDbAlignedDimension
 13
104.4993003006493
 23
26.01490937720638
 33
0.0
 14
179.4993003006493
 24
28.88990937720638
 34
0.0
100
AcDbRotatedDimension
  0
DIMENSION
  5
D7F
330
D06
100
AcDbEntity
  8
尺寸线
 48
0.5
370
    13
100
AcDbDimension
280
     0
  2
*D10
 10
94.29106991892878
 20
26.01490937720638
 30
0.0
 11
94.29106991892878
 21
57.05419509149237
 31
0.0
 12
-1614.850461617558
 22
40.6239252286291
 32
0.0
 70
   128
 71
     5
 42
6.500000000000001
 73
     0
 74
     0
 75
     0
  3
STANDARD
100
AcDbAlignedDimension
 13
110.1925019604441
 23
32.51490937720638
 33
0.0
 14
108.9697276653332
 24
26.01490937720638
 34
0.0
 50
90.0
100
AcDbRotatedDimension
  0
DIMENSION
  5
D80
330
D06
100
AcDbEntity
  8
尺寸线
 48
0.5
370
    13
100
AcDbDimension
280
     0
  2
*D11
 10
278.7758202311552
 20
82.29728896778823
 30
0.0
 11
297.4722488025839
 21
82.29728896778823
 31
0.0
 12
-1614.850461617558
 22
40.6239252286291
 32
0.0
 70
   128
 71
     5
 42
21.00000000000091
 73
     0
 74
     0
 75
     0
  3
STANDARD
100
AcDbAlignedDimension
 13
257.7758202311543
 23
75.69198832019964
 33
0.0
 14
278.7758202311552
 24
75.69198832019964
 34
0.0
100
AcDbRotatedDimension
  0
DIMENSION
  5
D81
330
D06
100
AcDbEntity
  8
尺寸线
 48
0.5
370
    13
100
AcDbDimension
280
     0
  2
*D12
 10
305.7758202311543
 20
1.499999451069982
 30
0.0
 11
268.2758202311543
 21
1.499999451069982
 31
0.0
 12
-1614.850461617558
 22
40.6239252286291
 32
0.0
 70
   128
  1
152
 71
     5
 42
75.0
 73
     0
 74
     0
 75
     0
  3
STANDARD
100
AcDbAlignedDimension
 13
230.7758202311543
 23
26.01490937720638
 33
0.0
 14
305.7758202311543
 24
28.88990937720638
 34
0.0
100
AcDbRotatedDimension
  0
LINE
  5
D82
330
D06
100
AcDbEntity
  8
0
  6
Continuous
 62
     7
100
AcDbLine
 10
292.2167459098555
 20
402.3899093772064
 30
0.0
 11
303.2622270419556
 21
402.3899093772064
 31
0.0
  0
LINE
  5
D83
330
D06
100
AcDbEntity
  8
0
  6
Continuous
 62
     7
100
AcDbLine
 10
287.2622270419556
 20
423.6399093772063
 30
0.0
 11
298.7884156676555
 21
423.6399093772063
 31
0.0
  0
LINE
  5
D84
330
D06
100
AcDbEntity
  8
0
  6
Continuous
 62
     9
100
AcDbLine
 10
297.2622270419556
 20
423.8794292043063
 30
0.0
 11
292.7622270419556
 21
423.8794292043063
 31
0.0
  0
LINE
  5
D85
330
D06
100
AcDbEntity
  8
0
  6
Continuous
 62
     9
100
AcDbLine
 10
297.1556325537556
 20
424.0230117991564
 30
0.0
 11
292.8688215301556
 21
424.0230117991564
 31
0.0
  0
LINE
  5
D86
330
D06
100
AcDbEntity
  8
0
  6
Continuous
 62
     7
100
AcDbLine
 10
287.2622270419556
 20
413.0149093772064
 30
0.0
 11
292.2167459098555
 21
402.3899093772064
 31
0.0
  0
LINE
  5
D87
330
D06
100
AcDbEntity
  8
0
  6
Continuous
 62
     7
100
AcDbLine
 10
301.2621889599557
 20
452.7649093772064
 30
0.0
 11
303.2622270419556
 21
452.7649093772064
 31
0.0
  0
LINE
  5
D88
330
D06
100
AcDbEntity
  8
0
  6
Continuous
 62
     7
100
AcDbLine
 10
287.2622270419556
 20
413.0149093772064
 30
0.0
 11
287.2622270419556
 21
423.6399093772063
 31
0.0
  0
LINE
  5
D89
330
D06
100
AcDbEntity
  8
0
  6
Continuous
 62
     7
100
AcDbLine
 10
292.7622270419556
 20
423.6399093772063
 30
0.0
 11
292.7622270419556
 21
423.8794292043063
 31
0.0
  0
LINE
  5
D8A
330
D06
100
AcDbEntity
  8
0
  6
Continuous
 62
     7
100
AcDbLine
 10
297.2622270419556
 20
423.6399093772063
 30
0.0
 11
297.2622270419556
 21
423.8794292043063
 31
0.0
  0
LINE
  5
D8B
330
D06
100
AcDbEntity
  8
0
  6
Continuous
 62
     7
100
AcDbLine
 10
301.2621889599557
 20
452.7649093772064
 30
0.0
 11
300.7881110580056
 21
425.6050045643063
 31
0.0
  0
LINE
  5
D8C
330
D06
100
AcDbEntity
  8
0
  6
Continuous
 62
     7
100
AcDbLine
 10
303.2622270419556
 20
452.7649093772064
 30
0.0
 11
303.2622270419556
 21
402.3899093772064
 31
0.0
  0
ARC
  5
D8D
330
D06
100
AcDbEntity
  8
0
  6
Continuous
 62
     7
100
AcDbCircle
 10
295.0122270419556
 20
416.9327665200563
 30
0.0
 40
7.40714285715
100
AcDbArc
 50
73.17975268059543
 51
106.8202473194046
  0
ARC
  5
D8E
330
D06
100
AcDbEntity
  8
0
  6
Continuous
 62
     7
100
AcDbCircle
 10
298.7884156676555
 20
425.6399093772063
 30
0.0
 40
2.0
100
AcDbArc
 50
270.0
 51
358.9999999992035
  0
ARC
  5
D8F
330
D06
100
AcDbEntity
  8
0
  6
Continuous
 62
     7
100
AcDbCircle
 10
297.1122270419555
 20
423.8794292043063
 30
0.0
 40
0.15
100
AcDbArc
 50
0.0
 51
73.17975268070425
  0
ARC
  5
D90
330
D06
100
AcDbEntity
  8
0
  6
Continuous
 62
     7
100
AcDbCircle
 10
292.9122270419557
 20
423.8794292043063
 30
0.0
 40
0.15
100
AcDbArc
 50
106.8202473192957
 51
180.0
  0
LINE
  5
D91
330
D06
100
AcDbEntity
  8
0
  6
Continuous
 62
     7
100
AcDbLine
 10
205.7311176131361
 20
398.9601643851927
 30
0.0
 11
184.4811176131361
 21
398.9601643851927
 31
0.0
  0
LINE
  5
D92
330
D06
100
AcDbEntity
  8
0
  6
Continuous
 62
     7
100
AcDbLine
 10
205.7311176131361
 20
449.3351643851926
 30
0.0
 11
205.7311176131361
 21
398.9601643851927
 31
0.0
  0
LINE
  5
D93
330
D06
100
AcDbEntity
  8
0
  6
Continuous
 62
     7
100
AcDbLine
 10
184.4811176131361
 20
449.3351643851926
 30
0.0
 11
184.4811176131361
 21
398.9601643851927
 31
0.0
  0
LINE
  5
D94
330
D06
100
AcDbEntity
  8
0
  6
Continuous
 62
     7
100
AcDbLine
 10
205.7311176131361
 20
449.3351643851926
 30
0.0
 11
184.4811176131361
 21
449.3351643851926
 31
0.0
  0
LINE
  5
D95
330
D06
100
AcDbEntity
  8
0
100
AcDbLine
 10
195.1061176131361
 20
390.0429489848568
 30
0.0
 11
195.1061176131361
 21
426.7385636904298
 31
0.0
  0
ENDBLK
  5
D99
330
D06
100
AcDbEntity
  8
0
100
AcDbBlockEnd
  0
BLOCK
  5
ED5
330
ED4
100
AcDbEntity
  8
0
100
AcDbBlockBegin
  2
*D14
 70
     1
 10
0.0
 20
0.0
 30
0.0
  3
*D14
  1

  0
LINE
  5
ED6
330
ED4
100
AcDbEntity
  8
尺寸线
 62
     0
 48
0.5
370
    -2
100
AcDbLine
 10
1646.849761918207
 20
413.3909841485772
 30
0.0
 11
1646.849761918207
 21
390.2726970020613
 31
0.0
  0
LINE
  5
ED7
330
ED4
100
AcDbEntity
  8
尺寸线
 62
     0
 48
0.5
370
    -2
100
AcDbLine
 10
1756.849761918207
 20
392.7726970020613
 30
0.0
 11
1756.849761918207
 21
393.2726970020613
 31
0.0
  0
LINE
  5
ED8
330
ED4
100
AcDbEntity
  8
尺寸线
 62
     0
 48
0.5
370
    -2
100
AcDbLine
 10
1650.849761918207
 20
391.7726970020613
 30
0.0
 11
1752.849761918207
 21
391.7726970020613
 31
0.0
  0
INSERT
  5
ED9
330
ED4
100
AcDbEntity
  8
尺寸线
 62
     0
 48
0.5
370
    -2
100
AcDbBlockReference
  2
_FILLED
 10
1646.849761918207
 20
391.7726970020613
 30
0.0
 41
4.0
 42
4.0
 43
4.0
 50
180.0
  0
INSERT
  5
EDA
330
ED4
100
AcDbEntity
  8
尺寸线
 62
     0
 48
0.5
370
    -2
100
AcDbBlockReference
  2
_FILLED
 10
1756.849761918207
 20
391.7726970020613
 30
0.0
 41
4.0
 42
4.0
 43
4.0
  0
MTEXT
  5
EDB
330
ED4
100
AcDbEntity
  8
尺寸线
 62
     5
 48
0.5
370
    13
100
AcDbMText
 10
1701.099761918207
 20
394.9262684306327
 30
0.0
 40
5.0
 41
0.0
 46
0.0
 71
     5
 72
     1
  1
\A1;220
 73
     1
 44
1.0
  0
POINT
  5
EDC
330
ED4
100
AcDbEntity
  8
Defpoints
 62
     0
 48
0.5
100
AcDbPoint
 10
1646.849761918207
 20
414.3909841485772
 30
0.0
  0
POINT
  5
EDD
330
ED4
100
AcDbEntity
  8
Defpoints
 62
     0
 48
0.5
100
AcDbPoint
 10
1756.849761918207
 20
391.7726970020613
 30
0.0
  0
POINT
  5
EDE
330
ED4
100
AcDbEntity
  8
Defpoints
 62
     0
 48
0.5
100
AcDbPoint
 10
1756.849761918207
 20
391.7726970020613
 30
0.0
  0
ENDBLK
  5
EDF
330
ED4
100
AcDbEntity
  8
0
100
AcDbBlockEnd
  0
BLOCK
  5
F6B
330
EE0
100
AcDbEntity
  8
0
100
AcDbBlockBegin
  2
A$C69525F90
 70
     0
 10
0.0
 20
0.0
 30
0.0
  3
A$C69525F90
  1

  0
LINE
  5
EE1
330
EE0
100
AcDbEntity
  8
51001-1_DXF_CONTINUOUS_LINE
  6
Continuous
 62
     7
100
AcDbLine
 10
285.7765181285922
 20
0.0000008286090747
 30
0.0
 11
210.7765181285922
 21
0.0000008286090747
 31
0.0
  0
LINE
  5
EE2
330
EE0
100
AcDbEntity
  8
51001-1_DXF_CONTINUOUS_LINE
  6
Continuous
 62
     7
100
AcDbLine
 10
211.5265181285922
 20
6.500000828609074
 30
0.0
 11
285.0265181285922
 21
6.500000828609074
 31
0.0
  0
LINE
  5
EE3
330
EE0
100
AcDbEntity
  8
51001-1_DXF_CONTINUOUS_LINE
  6
Continuous
 62
     7
100
AcDbLine
 10
210.7765181285922
 20
0.0000008286090747
 30
0.0
 11
210.7765181285922
 21
5.750000828609074
 31
0.0
  0
LINE
  5
EE4
330
EE0
100
AcDbEntity
  8
51001-1_DXF_CONTINUOUS_LINE
  6
Continuous
 62
     7
100
AcDbLine
 10
237.7765181285922
 20
6.500000828609074
 30
0.0
 11
237.7765181285922
 21
100.8682850830291
 31
0.0
  0
LINE
  5
EE5
330
EE0
100
AcDbEntity
  8
51001-1_DXF_CONTINUOUS_LINE
  6
Continuous
 62
     7
100
AcDbLine
 10
237.776518128592
 20
109.718343618249
 30
0.0
 11
237.7765181285922
 21
300.6631675031442
 31
0.0
  0
LINE
  5
EE6
330
EE0
100
AcDbEntity
  8
51001-1_DXF_CONTINUOUS_LINE
  6
Continuous
 62
     7
100
AcDbLine
 10
242.2765181285922
 20
290.6631675031443
 30
0.0
 11
242.2765181285922
 21
289.1631675031443
 31
0.0
  0
LINE
  5
EE7
330
EE0
100
AcDbEntity
  8
51001-1_DXF_CONTINUOUS_LINE
  6
Continuous
 62
     7
100
AcDbLine
 10
242.7765181285922
 20
287.1631675031443
 30
0.0
 11
242.7765181285922
 21
289.1631675031443
 31
0.0
  0
LINE
  5
EE8
330
EE0
100
AcDbEntity
  8
51001-1_DXF_CONTINUOUS_LINE
  6
Continuous
 62
     7
100
AcDbLine
 10
253.7765181285922
 20
289.1631675031443
 30
0.0
 11
253.7765181285922
 21
287.1631675031443
 31
0.0
  0
LINE
  5
EE9
330
EE0
100
AcDbEntity
  8
51001-1_DXF_CONTINUOUS_LINE
  6
Continuous
 62
     7
100
AcDbLine
 10
254.2765181285922
 20
290.6631675031443
 30
0.0
 11
254.2765181285922
 21
289.1631675031443
 31
0.0
  0
LINE
  5
EEA
330
EE0
100
AcDbEntity
  8
51001-1_DXF_CONTINUOUS_LINE
  6
Continuous
 62
     7
100
AcDbLine
 10
258.7765181285922
 20
6.500000828609074
 30
0.0
 11
258.7765181285925
 21
100.8682850830291
 31
0.0
  0
LINE
  5
EEB
330
EE0
100
AcDbEntity
  8
51001-1_DXF_CONTINUOUS_LINE
  6
Continuous
 62
     7
100
AcDbLine
 10
258.7765181285922
 20
109.718343618249
 30
0.0
 11
258.7765181285922
 21
234.6631675031443
 31
0.0
  0
LINE
  5
EEC
330
EE0
100
AcDbEntity
  8
51001-1_DXF_CONTINUOUS_LINE
  6
Continuous
 62
     7
100
AcDbLine
 10
258.7765181285922
 20
255.6631675031443
 30
0.0
 11
258.7765181285922
 21
300.6631675031442
 31
0.0
  0
LINE
  5
EED
330
EE0
100
AcDbEntity
  8
51001-1_DXF_CONTINUOUS_LINE
  6
Continuous
 62
     7
100
AcDbLine
 10
265.7765181285922
 20
255.6631675031443
 30
0.0
 11
265.7765181285922
 21
234.6631675031443
 31
0.0
  0
LINE
  5
EEE
330
EE0
100
AcDbEntity
  8
51001-1_DXF_CONTINUOUS_LINE
  6
Continuous
 62
     7
100
AcDbLine
 10
285.7765181285922
 20
0.0000008286090747
 30
0.0
 11
285.7765181285922
 21
5.750000828609074
 31
0.0
  0
LINE
  5
EEF
330
EE0
100
AcDbEntity
  8
51001-1_DXF_CONTINUOUS_LINE
  6
Continuous
 62
     7
100
AcDbLine
 10
258.7765181285922
 20
234.6631675031443
 30
0.0
 11
265.7765181285922
 21
234.6631675031443
 31
0.0
  0
LINE
  5
EF0
330
EE0
100
AcDbEntity
  8
51001-1_DXF_CONTINUOUS_LINE
  6
Continuous
 62
     7
100
AcDbLine
 10
258.7765181285922
 20
255.6631675031443
 30
0.0
 11
265.7765181285922
 21
255.6631675031443
 31
0.0
  0
LINE
  5
EF1
330
EE0
100
AcDbEntity
  8
51001-1_DXF_CONTINUOUS_LINE
  6
Continuous
 62
     7
100
AcDbLine
 10
253.7765181285922
 20
287.1631675031443
 30
0.0
 11
242.7765181285922
 21
287.1631675031443
 31
0.0
  0
LINE
  5
EF2
330
EE0
100
AcDbEntity
  8
51001-1_DXF_CONTINUOUS_LINE
  6
Continuous
 62
     7
100
AcDbLine
 10
253.7765181285922
 20
287.6631675031443
 30
0.0
 11
242.7765181285922
 21
287.6631675031443
 31
0.0
  0
LINE
  5
EF3
330
EE0
100
AcDbEntity
  8
51001-1_DXF_CONTINUOUS_LINE
  6
Continuous
 62
     7
100
AcDbLine
 10
254.2757492889914
 20
289.1631675031443
 30
0.0
 11
253.7765181285922
 21
289.1631675031443
 31
0.0
  0
LINE
  5
EF4
330
EE0
100
AcDbEntity
  8
51001-1_DXF_CONTINUOUS_LINE
  6
Continuous
 62
     7
100
AcDbLine
 10
242.7765181285922
 20
289.1631675031443
 30
0.0
 11
242.2772869681921
 21
289.1631675031443
 31
0.0
  0
LINE
  5
EF5
330
EE0
100
AcDbEntity
  8
51001-1_DXF_CONTINUOUS_LINE
  6
Continuous
 62
     7
100
AcDbLine
 10
237.7765181285922
 20
290.6631675031443
 30
0.0
 11
258.7765181285922
 21
290.6631675031443
 31
0.0
  0
LINE
  5
EF6
330
EE0
100
AcDbEntity
  8
51001-1_DXF_CONTINUOUS_LINE
  6
Continuous
 62
     7
100
AcDbLine
 10
237.7765181285922
 20
300.6631675031442
 30
0.0
 11
258.7765181285922
 21
300.6631675031442
 31
0.0
  0
LINE
  5
EF7
330
EE0
100
AcDbEntity
  8
51001-1_DXF_CONTINUOUS_LINE
  6
Continuous
 62
     7
100
AcDbLine
 10
159.4999981980872
 20
0.0000008286090747
 30
0.0
 11
84.49999819808727
 21
0.0000008286090747
 31
0.0
  0
LINE
  5
EF8
330
EE0
100
AcDbEntity
  8
51001-1_DXF_CONTINUOUS_LINE
  6
Continuous
 62
     7
100
AcDbLine
 10
85.24999819808726
 20
6.500000828609074
 30
0.0
 11
158.7499981980873
 21
6.500000828609074
 31
0.0
  0
LINE
  5
EF9
330
EE0
100
AcDbEntity
  8
51001-1_DXF_CONTINUOUS_LINE
  6
Continuous
 62
     7
100
AcDbLine
 10
17.49999819808727
 20
287.1631675031443
 30
0.0
 11
17.99999819808727
 21
287.6631675031443
 31
0.0
  0
LINE
  5
EFA
330
EE0
100
AcDbEntity
  8
51001-1_DXF_CONTINUOUS_LINE
  6
Continuous
 62
     7
100
AcDbLine
 10
-0.000001801912731
 20
290.6631675031443
 30
0.0
 11
-0.000001801912731
 21
300.6631675031442
 31
0.0
  0
LINE
  5
EFB
330
EE0
100
AcDbEntity
  8
51001-1_DXF_CONTINUOUS_LINE
  6
Continuous
 62
     7
100
AcDbLine
 10
5.999998198087268
 20
290.6631675031443
 30
0.0
 11
5.999998198087268
 21
287.6631675031443
 31
0.0
  0
LINE
  5
EFC
330
EE0
100
AcDbEntity
  8
51001-1_DXF_CONTINUOUS_LINE
  6
Continuous
 62
     7
100
AcDbLine
 10
9.60208243643774
 20
289.1631675031443
 30
0.0
 11
9.60208243643774
 21
287.6631675031443
 31
0.0
  0
LINE
  5
EFD
330
EE0
100
AcDbEntity
  8
51001-1_DXF_CONTINUOUS_LINE
  6
Continuous
 62
     7
100
AcDbLine
 10
14.3979139597377
 20
289.1631675031443
 30
0.0
 11
14.3979139597377
 21
287.6631675031443
 31
0.0
  0
LINE
  5
EFE
330
EE0
100
AcDbEntity
  8
51001-1_DXF_CONTINUOUS_LINE
  6
Continuous
 62
     7
100
AcDbLine
 10
17.99999819808727
 20
290.6631675031443
 30
0.0
 11
17.99999819808727
 21
287.6631675031443
 31
0.0
  0
LINE
  5
EFF
330
EE0
100
AcDbEntity
  8
51001-1_DXF_CONTINUOUS_LINE
  6
Continuous
 62
     7
100
AcDbLine
 10
84.49999819808727
 20
0.0000008286090747
 30
0.0
 11
84.49999819808727
 21
5.750000828609074
 31
0.0
  0
LINE
  5
F00
330
EE0
100
AcDbEntity
  8
51001-1把手_DXF_CONTINUOUS_LINE
  6
Continuous
 62
     7
100
AcDbLine
 10
111.3749981980872
 20
255.6881675031444
 30
0.0
 11
111.3749981980872
 21
234.6381675031444
 31
0.0
  0
LINE
  5
F01
330
EE0
100
AcDbEntity
  8
51001-1_DXF_CONTINUOUS_LINE
  6
Continuous
 62
     7
100
AcDbLine
 10
111.4999981980872
 20
6.500000828609074
 30
0.0
 11
111.4999981980875
 21
100.8682850830291
 31
0.0
  0
LINE
  5
F02
330
EE0
100
AcDbEntity
  8
51001-1_DXF_CONTINUOUS_LINE
  6
Continuous
 62
     7
100
AcDbLine
 10
111.4999981980872
 20
109.718343618249
 30
0.0
 11
111.4999981980872
 21
234.5381675031443
 31
0.0
  0
LINE
  5
F03
330
EE0
100
AcDbEntity
  8
51001-1_DXF_CONTINUOUS_LINE
  6
Continuous
 62
     7
100
AcDbLine
 10
111.4999981980872
 20
255.7881675031443
 30
0.0
 11
111.4999981980872
 21
290.6631675031443
 31
0.0
  0
LINE
  5
F04
330
EE0
100
AcDbEntity
  8
51001-1把手_DXF_CONTINUOUS_LINE
  6
Continuous
 62
     7
100
AcDbLine
 10
112.3749981980872
 20
253.5381675031443
 30
0.0
 11
112.3749981980872
 21
252.6190651698944
 31
0.0
  0
LINE
  5
F05
330
EE0
100
AcDbEntity
  8
51001-1把手_DXF_CONTINUOUS_LINE
  6
Continuous
 62
     7
100
AcDbLine
 10
115.1249981980873
 20
252.6190651698944
 30
0.0
 11
115.1249981980873
 21
253.5381675031443
 31
0.0
  0
LINE
  5
F06
330
EE0
100
AcDbEntity
  8
51001-1把手_DXF_CONTINUOUS_LINE
  6
Continuous
 62
     7
100
AcDbLine
 10
116.1249981980873
 20
286.7880094868443
 30
0.0
 11
116.1249981980873
 21
232.2881675031443
 31
0.0
  0
LINE
  5
F07
330
EE0
100
AcDbEntity
  8
51001-1把手_DXF_CONTINUOUS_LINE
  6
Continuous
 62
     7
100
AcDbLine
 10
117.4999981980872
 20
246.0381675031443
 30
0.0
 11
117.4999981980872
 21
244.2881675031443
 31
0.0
  0
LINE
  5
F08
330
EE0
100
AcDbEntity
  8
51001-1把手_DXF_CONTINUOUS_LINE
  6
Continuous
 62
     7
100
AcDbLine
 10
117.7749981980878
 20
244.2881675031443
 30
0.0
 11
117.7749981980878
 21
245.7780891953444
 31
0.0
  0
LINE
  5
F09
330
EE0
100
AcDbEntity
  8
51001-1把手_DXF_CONTINUOUS_LINE
  6
Continuous
 62
     7
100
AcDbLine
 10
123.0349981980871
 20
246.0181675031443
 30
0.0
 11
123.0349981980871
 21
244.3081675031443
 31
0.0
  0
LINE
  5
F0A
330
EE0
100
AcDbEntity
  8
51001-1把手_DXF_CONTINUOUS_LINE
  6
Continuous
 62
     7
100
AcDbLine
 10
123.2899981980872
 20
245.2881675031443
 30
0.0
 11
123.2899981980872
 21
245.7581675031443
 31
0.0
  0
LINE
  5
F0B
330
EE0
100
AcDbEntity
  8
51001-1把手_DXF_CONTINUOUS_LINE
  6
Continuous
 62
     7
100
AcDbLine
 10
123.2899981980872
 20
244.5681675031443
 30
0.0
 11
123.2899981980872
 21
245.0381675031443
 31
0.0
  0
LINE
  5
F0C
330
EE0
100
AcDbEntity
  8
51001-1把手_DXF_CONTINUOUS_LINE
  6
Continuous
 62
     7
100
AcDbLine
 10
124.0649981980878
 20
245.0381675031443
 30
0.0
 11
124.0649981980878
 21
245.2881675031443
 31
0.0
  0
LINE
  5
F0D
330
EE0
100
AcDbEntity
  8
51001-1把手_DXF_CONTINUOUS_LINE
  6
Continuous
 62
     7
100
AcDbLine
 10
124.1099981980869
 20
244.3081675031443
 30
0.0
 11
124.1099981980869
 21
244.5681675031443
 31
0.0
  0
LINE
  5
F0E
330
EE0
100
AcDbEntity
  8
51001-1把手_DXF_CONTINUOUS_LINE
  6
Continuous
 62
     7
100
AcDbLine
 10
124.1099981980869
 20
245.7581675031443
 30
0.0
 11
124.1099981980869
 21
246.0181675031443
 31
0.0
  0
LINE
  5
F0F
330
EE0
100
AcDbEntity
  8
51001-1把手_DXF_CONTINUOUS_LINE
  6
Continuous
 62
     7
100
AcDbLine
 10
124.3349981980873
 20
246.0181675031443
 30
0.0
 11
124.3349981980873
 21
244.3081675031443
 31
0.0
  0
LINE
  5
F10
330
EE0
100
AcDbEntity
  8
51001-1把手_DXF_CONTINUOUS_LINE
  6
Continuous
 62
     7
100
AcDbLine
 10
124.6099981980869
 20
244.5681675031443
 30
0.0
 11
124.6099981980869
 21
246.0181675031443
 31
0.0
  0
LINE
  5
F11
330
EE0
100
AcDbEntity
  8
51001-1把手_DXF_CONTINUOUS_LINE
  6
Continuous
 62
     7
100
AcDbLine
 10
125.3599981980869
 20
244.3081675031443
 30
0.0
 11
125.3599981980869
 21
244.5681675031443
 31
0.0
  0
LINE
  5
F12
330
EE0
100
AcDbEntity
  8
51001-1把手_DXF_CONTINUOUS_LINE
  6
Continuous
 62
     7
100
AcDbLine
 10
125.4186030152377
 20
246.0181675031443
 30
0.0
 11
125.4186030152377
 21
244.3081675031443
 31
0.0
  0
LINE
  5
F13
330
EE0
100
AcDbEntity
  8
51001-1把手_DXF_CONTINUOUS_LINE
  6
Continuous
 62
     7
100
AcDbLine
 10
125.7049981980872
 20
244.5681675031443
 30
0.0
 11
125.7049981980872
 21
246.0181675031443
 31
0.0
  0
LINE
  5
F14
330
EE0
100
AcDbEntity
  8
51001-1把手_DXF_CONTINUOUS_LINE
  6
Continuous
 62
     7
100
AcDbLine
 10
126.4296949883874
 20
244.3081675031443
 30
0.0
 11
126.4296949883874
 21
244.5681675031443
 31
0.0
  0
LINE
  5
F15
330
EE0
100
AcDbEntity
  8
51001-1把手_DXF_CONTINUOUS_LINE
  6
Continuous
 62
     7
100
AcDbLine
 10
127.8749981980872
 20
232.2881675031443
 30
0.0
 11
127.8749981980872
 21
286.7881675031443
 31
0.0
  0
LINE
  5
F16
330
EE0
100
AcDbEntity
  8
51001-1把手_DXF_CONTINUOUS_LINE
  6
Continuous
 62
     7
100
AcDbLine
 10
128.8749981980872
 20
253.5381675031443
 30
0.0
 11
128.8749981980872
 21
252.6190651698944
 31
0.0
  0
LINE
  5
F17
330
EE0
100
AcDbEntity
  8
51001-1把手_DXF_CONTINUOUS_LINE
  6
Continuous
 62
     7
100
AcDbLine
 10
131.6249981980872
 20
252.6190651698944
 30
0.0
 11
131.6249981980872
 21
253.5381675031443
 31
0.0
  0
LINE
  5
F18
330
EE0
100
AcDbEntity
  8
51001-1_DXF_CONTINUOUS_LINE
  6
Continuous
 62
     7
100
AcDbLine
 10
132.4999981980872
 20
6.500000828609074
 30
0.0
 11
132.4999981980875
 21
100.8682850830291
 31
0.0
  0
LINE
  5
F19
330
EE0
100
AcDbEntity
  8
51001-1_DXF_CONTINUOUS_LINE
  6
Continuous
 62
     7
100
AcDbLine
 10
132.4999981980875
 20
109.718343618249
 30
0.0
 11
132.4999981980872
 21
234.5381675031443
 31
0.0
  0
LINE
  5
F1A
330
EE0
100
AcDbEntity
  8
51001-1_DXF_CONTINUOUS_LINE
  6
Continuous
 62
     7
100
AcDbLine
 10
132.4999981980872
 20
255.7881675031443
 30
0.0
 11
132.4999981980872
 21
300.6631675031442
 31
0.0
  0
LINE
  5
F1B
330
EE0
100
AcDbEntity
  8
51001-1把手_DXF_CONTINUOUS_LINE
  6
Continuous
 62
     7
100
AcDbLine
 10
132.6249981980872
 20
234.6381675031444
 30
0.0
 11
132.6249981980872
 21
255.6881675031444
 31
0.0
  0
LINE
  5
F1C
330
EE0
100
AcDbEntity
  8
51001-1_DXF_CONTINUOUS_LINE
  6
Continuous
 62
     7
100
AcDbLine
 10
159.4999981980872
 20
0.0000008286090747
 30
0.0
 11
159.4999981980872
 21
5.750000828609074
 31
0.0
  0
LINE
  5
F1D
330
EE0
100
AcDbEntity
  8
51001-1_DXF_CONTINUOUS_LINE
  6
Continuous
 62
     7
100
AcDbLine
 10
6.499998198087268
 20
287.1631675031443
 30
0.0
 11
5.999998198087268
 21
287.6631675031443
 31
0.0
  0
LINE
  5
F1E
330
EE0
100
AcDbEntity
  8
51001-1把手_DXF_CONTINUOUS_LINE
  6
Continuous
 62
     7
100
AcDbLine
 10
117.8249981980871
 20
245.1631675031443
 30
0.0
 11
118.5196626084371
 21
244.2881675031443
 31
0.0
  0
LINE
  5
F1F
330
EE0
100
AcDbEntity
  8
51001-1把手_DXF_CONTINUOUS_LINE
  6
Continuous
 62
     7
100
AcDbLine
 10
118.8259278599871
 20
244.2881675031443
 30
0.0
 11
118.3279606969872
 21
244.9154074496942
 31
0.0
  0
LINE
  5
F20
330
EE0
100
AcDbEntity
  8
51001-1把手_DXF_CONTINUOUS_LINE
  6
Continuous
 62
     7
100
AcDbLine
 10
116.3749981980872
 20
232.0381675031443
 30
0.0
 11
127.6249981980873
 21
232.0381675031443
 31
0.0
  0
LINE
  5
F21
330
EE0
100
AcDbEntity
  8
51001-1把手_DXF_CONTINUOUS_LINE
  6
Continuous
 62
     7
100
AcDbLine
 10
111.4749981980876
 20
234.5381675031443
 30
0.0
 11
116.1249981980873
 21
234.5381675031443
 31
0.0
  0
LINE
  5
F22
330
EE0
100
AcDbEntity
  8
51001-1把手_DXF_CONTINUOUS_LINE
  6
Continuous
 62
     7
100
AcDbLine
 10
127.8749981980872
 20
234.5381675031443
 30
0.0
 11
132.5249981980878
 21
234.5381675031443
 31
0.0
  0
LINE
  5
F23
330
EE0
100
AcDbEntity
  8
51001-1把手_DXF_CONTINUOUS_LINE
  6
Continuous
 62
     7
100
AcDbLine
 10
117.4999981980872
 20
244.2881675031443
 30
0.0
 11
117.7749981980878
 21
244.2881675031443
 31
0.0
  0
LINE
  5
F24
330
EE0
100
AcDbEntity
  8
51001-1把手_DXF_CONTINUOUS_LINE
  6
Continuous
 62
     7
100
AcDbLine
 10
118.5196626084371
 20
244.2881675031443
 30
0.0
 11
118.8259278599871
 21
244.2881675031443
 31
0.0
  0
LINE
  5
F25
330
EE0
100
AcDbEntity
  8
51001-1把手_DXF_CONTINUOUS_LINE
  6
Continuous
 62
     7
100
AcDbLine
 10
123.0349981980871
 20
244.3081675031443
 30
0.0
 11
124.1099981980869
 21
244.3081675031443
 31
0.0
  0
LINE
  5
F26
330
EE0
100
AcDbEntity
  8
51001-1把手_DXF_CONTINUOUS_LINE
  6
Continuous
 62
     7
100
AcDbLine
 10
125.4186030152377
 20
244.3081675031443
 30
0.0
 11
126.4296949883874
 21
244.3081675031443
 31
0.0
  0
LINE
  5
F27
330
EE0
100
AcDbEntity
  8
51001-1把手_DXF_CONTINUOUS_LINE
  6
Continuous
 62
     7
100
AcDbLine
 10
124.3349981980873
 20
244.3081675031443
 30
0.0
 11
125.3599981980869
 21
244.3081675031443
 31
0.0
  0
LINE
  5
F28
330
EE0
100
AcDbEntity
  8
51001-1把手_DXF_CONTINUOUS_LINE
  6
Continuous
 62
     7
100
AcDbLine
 10
126.4296949883874
 20
244.5681675031443
 30
0.0
 11
125.7049981980872
 21
244.5681675031443
 31
0.0
  0
LINE
  5
F29
330
EE0
100
AcDbEntity
  8
51001-1把手_DXF_CONTINUOUS_LINE
  6
Continuous
 62
     7
100
AcDbLine
 10
125.3599981980869
 20
244.5681675031443
 30
0.0
 11
124.6099981980869
 21
244.5681675031443
 31
0.0
  0
LINE
  5
F2A
330
EE0
100
AcDbEntity
  8
51001-1把手_DXF_CONTINUOUS_LINE
  6
Continuous
 62
     7
100
AcDbLine
 10
124.1099981980869
 20
244.5681675031443
 30
0.0
 11
123.2899981980872
 21
244.5681675031443
 31
0.0
  0
LINE
  5
F2B
330
EE0
100
AcDbEntity
  8
51001-1把手_DXF_CONTINUOUS_LINE
  6
Continuous
 62
     7
100
AcDbLine
 10
122.924866232137
 20
244.8304153229443
 30
0.0
 11
122.634866232137
 21
244.8304153229443
 31
0.0
  0
LINE
  5
F2C
330
EE0
100
AcDbEntity
  8
51001-1把手_DXF_CONTINUOUS_LINE
  6
Continuous
 62
     7
100
AcDbLine
 10
123.2899981980872
 20
245.0381675031443
 30
0.0
 11
124.0649981980878
 21
245.0381675031443
 31
0.0
  0
LINE
  5
F2D
330
EE0
100
AcDbEntity
  8
51001-1把手_DXF_CONTINUOUS_LINE
  6
Continuous
 62
     7
100
AcDbLine
 10
118.2103577892876
 20
245.1631675031443
 30
0.0
 11
117.8249981980871
 21
245.1631675031443
 31
0.0
  0
LINE
  5
F2E
330
EE0
100
AcDbEntity
  8
51001-1把手_DXF_CONTINUOUS_LINE
  6
Continuous
 62
     7
100
AcDbLine
 10
124.0649981980878
 20
245.2881675031443
 30
0.0
 11
123.2899981980872
 21
245.2881675031443
 31
0.0
  0
LINE
  5
F2F
330
EE0
100
AcDbEntity
  8
51001-1把手_DXF_CONTINUOUS_LINE
  6
Continuous
 62
     7
100
AcDbLine
 10
122.634866232137
 20
245.4959196833443
 30
0.0
 11
122.924866232137
 21
245.4959196833443
 31
0.0
  0
LINE
  5
F30
330
EE0
100
AcDbEntity
  8
51001-1把手_DXF_CONTINUOUS_LINE
  6
Continuous
 62
     7
100
AcDbLine
 10
123.2899981980872
 20
245.7581675031443
 30
0.0
 11
124.1099981980869
 21
245.7581675031443
 31
0.0
  0
LINE
  5
F31
330
EE0
100
AcDbEntity
  8
51001-1把手_DXF_CONTINUOUS_LINE
  6
Continuous
 62
     7
100
AcDbLine
 10
117.7749981980878
 20
245.7780891953444
 30
0.0
 11
118.2103577892876
 21
245.7780891953444
 31
0.0
  0
LINE
  5
F32
330
EE0
100
AcDbEntity
  8
51001-1把手_DXF_CONTINUOUS_LINE
  6
Continuous
 62
     7
100
AcDbLine
 10
125.7049981980872
 20
246.0181675031443
 30
0.0
 11
125.4186030152377
 21
246.0181675031443
 31
0.0
  0
LINE
  5
F33
330
EE0
100
AcDbEntity
  8
51001-1把手_DXF_CONTINUOUS_LINE
  6
Continuous
 62
     7
100
AcDbLine
 10
124.6099981980869
 20
246.0181675031443
 30
0.0
 11
124.3349981980873
 21
246.0181675031443
 31
0.0
  0
LINE
  5
F34
330
EE0
100
AcDbEntity
  8
51001-1把手_DXF_CONTINUOUS_LINE
  6
Continuous
 62
     7
100
AcDbLine
 10
124.1099981980869
 20
246.0181675031443
 30
0.0
 11
123.0349981980871
 21
246.0181675031443
 31
0.0
  0
LINE
  5
F35
330
EE0
100
AcDbEntity
  8
51001-1把手_DXF_CONTINUOUS_LINE
  6
Continuous
 62
     7
100
AcDbLine
 10
118.2103577892876
 20
246.0381675031443
 30
0.0
 11
117.4999981980872
 21
246.0381675031443
 31
0.0
  0
LINE
  5
F36
330
EE0
100
AcDbEntity
  8
51001-1把手_DXF_CONTINUOUS_LINE
  6
Continuous
 62
     7
100
AcDbLine
 10
112.3749981980872
 20
252.6190651698944
 30
0.0
 11
115.1249981980873
 21
252.6190651698944
 31
0.0
  0
LINE
  5
F37
330
EE0
100
AcDbEntity
  8
51001-1把手_DXF_CONTINUOUS_LINE
  6
Continuous
 62
     7
100
AcDbLine
 10
128.8749981980872
 20
252.6190651698944
 30
0.0
 11
131.6249981980872
 21
252.6190651698944
 31
0.0
  0
LINE
  5
F38
330
EE0
100
AcDbEntity
  8
51001-1把手_DXF_CONTINUOUS_LINE
  6
Continuous
 62
     7
100
AcDbLine
 10
131.6249981980872
 20
253.5381675031443
 30
0.0
 11
128.8749981980872
 21
253.5381675031443
 31
0.0
  0
LINE
  5
F39
330
EE0
100
AcDbEntity
  8
51001-1把手_DXF_CONTINUOUS_LINE
  6
Continuous
 62
     7
100
AcDbLine
 10
115.1249981980873
 20
253.5381675031443
 30
0.0
 11
112.3749981980872
 21
253.5381675031443
 31
0.0
  0
LINE
  5
F3A
330
EE0
100
AcDbEntity
  8
51001-1把手_DXF_CONTINUOUS_LINE
  6
Continuous
 62
     7
100
AcDbLine
 10
132.5249981980878
 20
255.7881675031443
 30
0.0
 11
127.8749981980872
 21
255.7881675031443
 31
0.0
  0
LINE
  5
F3B
330
EE0
100
AcDbEntity
  8
51001-1把手_DXF_CONTINUOUS_LINE
  6
Continuous
 62
     7
100
AcDbLine
 10
116.1249981980873
 20
255.7881675031443
 30
0.0
 11
111.4749981980876
 21
255.7881675031443
 31
0.0
  0
LINE
  5
F3C
330
EE0
100
AcDbEntity
  8
51001-1把手_DXF_CONTINUOUS_LINE
  6
Continuous
 62
     7
100
AcDbLine
 10
116.3749981980872
 20
287.0381675031443
 30
0.0
 11
127.6249981980873
 21
287.0381675031443
 31
0.0
  0
LINE
  5
F3D
330
EE0
100
AcDbEntity
  8
51001-1_DXF_CONTINUOUS_LINE
  6
Continuous
 62
     7
100
AcDbLine
 10
17.49999676198695
 20
287.1631675031443
 30
0.0
 11
6.499999634187588
 21
287.1631675031443
 31
0.0
  0
LINE
  5
F3E
330
EE0
100
AcDbEntity
  8
51001-1_DXF_CONTINUOUS_LINE
  6
Continuous
 62
     7
100
AcDbLine
 10
17.99999819808727
 20
287.6631675031443
 30
0.0
 11
14.3979139597377
 21
287.6631675031443
 31
0.0
  0
LINE
  5
F3F
330
EE0
100
AcDbEntity
  8
51001-1_DXF_CONTINUOUS_LINE
  6
Continuous
 62
     7
100
AcDbLine
 10
9.60208243643774
 20
287.6631675031443
 30
0.0
 11
5.999998198087268
 21
287.6631675031443
 31
0.0
  0
LINE
  5
F40
330
EE0
100
AcDbEntity
  8
51001-1_DXF_CONTINUOUS_LINE
  6
Continuous
 62
     7
100
AcDbLine
 10
14.3979139597377
 20
289.1631675031443
 30
0.0
 11
9.60208243643774
 21
289.1631675031443
 31
0.0
  0
LINE
  5
F41
330
EE0
100
AcDbEntity
  8
51001-1_DXF_CONTINUOUS_LINE
  6
Continuous
 62
     7
100
AcDbLine
 10
-0.000001801912731
 20
290.6631675031443
 30
0.0
 11
111.4999981980872
 21
290.6631675031443
 31
0.0
  0
LINE
  5
F42
330
EE0
100
AcDbEntity
  8
51001-1_DXF_CONTINUOUS_LINE
  6
Continuous
 62
     7
100
AcDbLine
 10
-0.000001801912731
 20
300.6631675031442
 30
0.0
 11
132.4999981980872
 21
300.6631675031442
 31
0.0
  0
ARC
  5
F43
330
EE0
100
AcDbEntity
  8
51001-1_DXF_CONTINUOUS_LINE
  6
Continuous
 62
     7
100
AcDbCircle
 10
265.7765181285922
 20
236.4131675031443
 30
0.0
 40
18.5
100
AcDbArc
 50
85.39152784822496
 51
90.0
  0
ARC
  5
F44
330
EE0
100
AcDbEntity
  8
51001-1_DXF_CONTINUOUS_LINE
  6
Continuous
 62
     7
100
AcDbCircle
 10
265.7765181285922
 20
253.9131675031443
 30
0.0
 40
18.5
100
AcDbArc
 50
270.0
 51
287.6997737406828
  0
ARC
  5
F45
330
EE0
100
AcDbEntity
  8
51001-1_DXF_CONTINUOUS_LINE
  6
Continuous
 62
     7
100
AcDbCircle
 10
211.5265181285922
 20
5.750000828609074
 30
0.0
 40
0.75
100
AcDbArc
 50
90.0
 51
180.0
  0
ARC
  5
F46
330
EE0
100
AcDbEntity
  8
51001-1_DXF_CONTINUOUS_LINE
  6
Continuous
 62
     7
100
AcDbCircle
 10
285.0265181285922
 20
5.750000828609074
 30
0.0
 40
0.75
100
AcDbArc
 50
0.0
 51
90.0
  0
ARC
  5
F47
330
EE0
100
AcDbEntity
  8
51001-1_DXF_CONTINUOUS_LINE
  6
Continuous
 62
     7
100
AcDbCircle
 10
85.24999819808726
 20
5.750000828609074
 30
0.0
 40
0.75
100
AcDbArc
 50
90.0
 51
180.0
  0
ARC
  5
F48
330
EE0
100
AcDbEntity
  8
51001-1_DXF_CONTINUOUS_LINE
  6
Continuous
 62
     7
100
AcDbCircle
 10
158.7499981980873
 20
5.750000828609074
 30
0.0
 40
0.75
100
AcDbArc
 50
0.0
 51
90.0
  0
ARC
  5
F49
330
EE0
100
AcDbEntity
  8
51001-1把手_DXF_CONTINUOUS_LINE
  6
Continuous
 62
     7
100
AcDbCircle
 10
118.2103577892876
 20
245.4706283492442
 30
0.0
 40
0.5675391539
100
AcDbArc
 50
281.9592229547018
 51
90.0
  0
ARC
  5
F4A
330
EE0
100
AcDbEntity
  8
51001-1把手_DXF_CONTINUOUS_LINE
  6
Continuous
 62
     7
100
AcDbCircle
 10
118.2103577892876
 20
245.4706283492442
 30
0.0
 40
0.3074608461
100
AcDbArc
 50
270.0
 51
90.0
  0
ARC
  5
F4B
330
EE0
100
AcDbEntity
  8
51001-1把手_DXF_CONTINUOUS_LINE
  6
Continuous
 62
     7
100
AcDbCircle
 10
116.3749981980872
 20
286.7881675031443
 30
0.0
 40
0.25
100
AcDbArc
 50
90.0
 51
180.0
  0
ARC
  5
F4C
330
EE0
100
AcDbEntity
  8
51001-1把手_DXF_CONTINUOUS_LINE
  6
Continuous
 62
     7
100
AcDbCircle
 10
127.6249981980873
 20
286.7881675031443
 30
0.0
 40
0.25
100
AcDbArc
 50
0.0
 51
90.0
  0
ARC
  5
F4D
330
EE0
100
AcDbEntity
  8
51001-1把手_DXF_CONTINUOUS_LINE
  6
Continuous
 62
     7
100
AcDbCircle
 10
127.6249981980873
 20
232.2881675031443
 30
0.0
 40
0.25
100
AcDbArc
 50
270.0
 51
0.0
  0
ARC
  5
F4E
330
EE0
100
AcDbEntity
  8
51001-1把手_DXF_CONTINUOUS_LINE
  6
Continuous
 62
     7
100
AcDbCircle
 10
116.3749981980872
 20
232.2881675031443
 30
0.0
 40
0.25
100
AcDbArc
 50
180.0
 51
270.0
  0
ARC
  5
F4F
330
EE0
100
AcDbEntity
  8
51001-1把手_DXF_CONTINUOUS_LINE
  6
Continuous
 62
     7
100
AcDbCircle
 10
111.4749981980876
 20
234.6381675031444
 30
0.0
 40
0.1
100
AcDbArc
 50
180.0
 51
270.0
  0
ARC
  5
F50
330
EE0
100
AcDbEntity
  8
51001-1把手_DXF_CONTINUOUS_LINE
  6
Continuous
 62
     7
100
AcDbCircle
 10
132.5249981980878
 20
234.6381675031444
 30
0.0
 40
0.1
100
AcDbArc
 50
270.0
 51
0.0
  0
ARC
  5
F51
330
EE0
100
AcDbEntity
  8
51001-1把手_DXF_CONTINUOUS_LINE
  6
Continuous
 62
     7
100
AcDbCircle
 10
132.5249981980878
 20
255.6881675031444
 30
0.0
 40
0.1
100
AcDbArc
 50
0.0
 51
90.0
  0
ARC
  5
F52
330
EE0
100
AcDbEntity
  8
51001-1把手_DXF_CONTINUOUS_LINE
  6
Continuous
 62
     7
100
AcDbCircle
 10
111.4749981980876
 20
255.6881675031444
 30
0.0
 40
0.1
100
AcDbArc
 50
90.0
 51
180.0
  0
SPLINE
  5
F53
330
EE0
100
AcDbEntity
  8
51001-1_DXF_CONTINUOUS_LINE
  6
Continuous
 62
     7
100
AcDbSpline
210
0.0
220
0.0
230
1.0
 70
     8
 71
     3
 72
     8
 73
     4
 74
     0
 42
0.000000001
 43
0.0000000001
 40
0.0
 40
0.0
 40
0.0
 40
0.0
 40
1.0
 40
1.0
 40
1.0
 40
1.0
 10
9.60208243643774
 20
287.6631675031442
 30
0.0
 10
10.36027126473709
 20
287.3601553461942
 30
0.0
 10
11.18350161713715
 20
287.1631675031442
 30
0.0
 10
11.99999819808727
 20
287.1631675031442
 30
0.0
  0
SPLINE
  5
F54
330
EE0
100
AcDbEntity
  8
51001-1_DXF_CONTINUOUS_LINE
  6
Continuous
 62
     7
100
AcDbSpline
210
0.0
220
0.0
230
1.0
 70
     8
 71
     3
 72
     8
 73
     4
 74
     0
 42
0.000000001
 43
0.0000000001
 40
0.0
 40
0.0
 40
0.0
 40
0.0
 40
1.0
 40
1.0
 40
1.0
 40
1.0
 10
11.99999819808727
 20
287.1631675031442
 30
0.0
 10
12.81649477903738
 20
287.1631675031442
 30
0.0
 10
13.63972513143744
 20
287.3601553461942
 30
0.0
 10
14.3979139597377
 20
287.6631675031442
 30
0.0
  0
ELLIPSE
  5
F55
330
EE0
100
AcDbEntity
  8
51001-1把手_DXF_CONTINUOUS_LINE
  6
Continuous
 62
     7
100
AcDbEllipse
 10
119.8787932900377
 20
245.1631675031442
 30
0.0
 11
0.725
 21
0.0
 31
0.0
210
0.0
220
0.0
230
1.0
 40
0.8620689654999999
 41
0.0
 42
6.283185307179586
  0
ELLIPSE
  5
F56
330
EE0
100
AcDbEntity
  8
51001-1把手_DXF_CONTINUOUS_LINE
  6
Continuous
 62
     7
100
AcDbEllipse
 10
119.8787932900377
 20
245.1631675031442
 30
0.0
 11
0.9987613645499999
 21
0.0
 31
0.0
210
0.0
220
0.0
230
1.0
 40
0.8860975518
 41
0.0
 42
6.283185307179586
  0
ELLIPSE
  5
F57
330
EE0
100
AcDbEntity
  8
51001-1把手_DXF_CONTINUOUS_LINE
  6
Continuous
 62
     7
100
AcDbEllipse
 10
121.9999981980872
 20
245.1631675031442
 30
0.0
 11
1.0
 21
0.0
 31
0.0
210
0.0
220
0.0
230
1.0
 40
0.875
 41
0.390107895
 42
5.8930774122
  0
ELLIPSE
  5
F58
330
EE0
100
AcDbEntity
  8
51001-1把手_DXF_CONTINUOUS_LINE
  6
Continuous
 62
     7
100
AcDbEllipse
 10
121.9999981980872
 20
245.1631675031442
 30
0.0
 11
-0.75
 21
0.0
 31
0.0
210
0.0
220
0.0
230
1.0
 40
0.8333333333
 41
3.703030047699999
 42
8.863340566599999
  0
DIMENSION
  5
F59
330
EE0
100
AcDbEntity
  8
尺寸线
 48
0.5
370
    13
100
AcDbDimension
280
     0
  2
*D14
 10
121.9999981980872
 20
264.5448803566283
 30
0.0
 11
66.24999819808727
 21
264.5448803566283
 31
0.0
 12
-1634.84976372012
 22
-127.227816645433
 32
0.0
 70
   128
  1
220
 71
     5
 42
110.0
 73
     0
 74
     0
 75
     0
  3
STANDARD
100
AcDbAlignedDimension
 13
11.99999819808727
 23
287.1631675031443
 33
0.0
 14
121.9999981980872
 24
264.5448803566283
 34
0.0
100
AcDbRotatedDimension
  0
LINE
  5
F5A
330
EE0
100
AcDbEntity
  8
0
  6
Continuous
 62
     7
100
AcDbLine
 10
272.2174438072934
 20
234.5381675031443
 30
0.0
 11
283.2629249393935
 21
234.5381675031443
 31
0.0
  0
LINE
  5
F5B
330
EE0
100
AcDbEntity
  8
0
  6
Continuous
 62
     7
100
AcDbLine
 10
267.2629249393935
 20
255.7881675031443
 30
0.0
 11
278.7891135650934
 21
255.7881675031443
 31
0.0
  0
LINE
  5
F5C
330
EE0
100
AcDbEntity
  8
0
  6
Continuous
 62
     9
100
AcDbLine
 10
277.2629249393935
 20
256.0276873302443
 30
0.0
 11
272.7629249393936
 21
256.0276873302443
 31
0.0
  0
LINE
  5
F5D
330
EE0
100
AcDbEntity
  8
0
  6
Continuous
 62
     9
100
AcDbLine
 10
277.1563304511935
 20
256.1712699250943
 30
0.0
 11
272.8695194275935
 21
256.1712699250943
 31
0.0
  0
LINE
  5
F5E
330
EE0
100
AcDbEntity
  8
0
  6
Continuous
 62
     7
100
AcDbLine
 10
267.2629249393935
 20
245.1631675031443
 30
0.0
 11
272.2174438072934
 21
234.5381675031443
 31
0.0
  0
LINE
  5
F5F
330
EE0
100
AcDbEntity
  8
0
  6
Continuous
 62
     7
100
AcDbLine
 10
281.2628868573936
 20
284.9131675031443
 30
0.0
 11
283.2629249393935
 21
284.9131675031443
 31
0.0
  0
LINE
  5
F60
330
EE0
100
AcDbEntity
  8
0
  6
Continuous
 62
     7
100
AcDbLine
 10
267.2629249393935
 20
245.1631675031443
 30
0.0
 11
267.2629249393935
 21
255.7881675031443
 31
0.0
  0
LINE
  5
F61
330
EE0
100
AcDbEntity
  8
0
  6
Continuous
 62
     7
100
AcDbLine
 10
272.7629249393936
 20
255.7881675031443
 30
0.0
 11
272.7629249393936
 21
256.0276873302443
 31
0.0
  0
LINE
  5
F62
330
EE0
100
AcDbEntity
  8
0
  6
Continuous
 62
     7
100
AcDbLine
 10
277.2629249393935
 20
255.7881675031443
 30
0.0
 11
277.2629249393935
 21
256.0276873302443
 31
0.0
  0
LINE
  5
F63
330
EE0
100
AcDbEntity
  8
0
  6
Continuous
 62
     7
100
AcDbLine
 10
281.2628868573936
 20
284.9131675031443
 30
0.0
 11
280.7888089554435
 21
257.7532626902443
 31
0.0
  0
LINE
  5
F64
330
EE0
100
AcDbEntity
  8
0
  6
Continuous
 62
     7
100
AcDbLine
 10
283.2629249393935
 20
284.9131675031443
 30
0.0
 11
283.2629249393935
 21
234.5381675031443
 31
0.0
  0
ARC
  5
F65
330
EE0
100
AcDbEntity
  8
0
  6
Continuous
 62
     7
100
AcDbCircle
 10
275.0129249393935
 20
249.0810246459943
 30
0.0
 40
7.40714285715
100
AcDbArc
 50
73.17975268059531
 51
106.8202473194047
  0
ARC
  5
F66
330
EE0
100
AcDbEntity
  8
0
  6
Continuous
 62
     7
100
AcDbCircle
 10
278.7891135650934
 20
257.7881675031443
 30
0.0
 40
2.0
100
AcDbArc
 50
270.0
 51
358.9999999992035
  0
ARC
  5
F67
330
EE0
100
AcDbEntity
  8
0
  6
Continuous
 62
     7
100
AcDbCircle
 10
277.1129249393935
 20
256.0276873302443
 30
0.0
 40
0.15
100
AcDbArc
 50
0.0
 51
73.17975268070425
  0
ARC
  5
F68
330
EE0
100
AcDbEntity
  8
0
  6
Continuous
 62
     7
100
AcDbCircle
 10
272.9129249393936
 20
256.0276873302443
 30
0.0
 40
0.15
100
AcDbArc
 50
106.8202473192957
 51
180.0
  0
ENDBLK
  5
F6C
330
EE0
100
AcDbEntity
  8
0
100
AcDbBlockEnd
  0
BLOCK
  5
109A
330
1090
100
AcDbEntity
  8
0
100
AcDbBlockBegin
  2
*D16
 70
     1
 10
0.0
 20
0.0
 30
0.0
  3
*D16
  1

  0
LINE
  5
1A74
330
1090
100
AcDbEntity
  8
尺寸线
 62
     0
440
 16777216
 48
0.5
370
    -2
100
AcDbLine
 10
160.5077591838949
 20
339.57774525188
 30
0.0
 11
160.5077591838949
 21
316.459458105364
 31
0.0
  0
LINE
  5
1A75
330
1090
100
AcDbEntity
  8
尺寸线
 62
     0
440
 16777216
 48
0.5
370
    -2
100
AcDbLine
 10
270.5077591838949
 20
318.959458105364
 30
0.0
 11
270.5077591838949
 21
319.459458105364
 31
0.0
  0
LINE
  5
1A76
330
1090
100
AcDbEntity
  8
尺寸线
 62
     0
440
 16777216
 48
0.5
370
    -2
100
AcDbLine
 10
164.5077591838949
 20
317.9594581053641
 30
0.0
 11
266.5077591838949
 21
317.9594581053641
 31
0.0
  0
INSERT
  5
1A77
330
1090
100
AcDbEntity
  8
尺寸线
 62
     0
440
 16777216
 48
0.5
370
    -2
100
AcDbBlockReference
  2
_FILLED
 10
160.5077591838949
 20
317.9594581053641
 30
0.0
 41
4.0
 42
4.0
 43
4.0
 50
180.0
  0
INSERT
  5
1A78
330
1090
100
AcDbEntity
  8
尺寸线
 62
     0
440
 16777216
 48
0.5
370
    -2
100
AcDbBlockReference
  2
_FILLED
 10
270.5077591838949
 20
317.9594581053641
 30
0.0
 41
4.0
 42
4.0
 43
4.0
  0
MTEXT
  5
1A79
330
1090
100
AcDbEntity
  8
尺寸线
 62
     5
440
 16777216
 48
0.5
370
    13
100
AcDbMText
 10
214.7577591838949
 20
321.0844581053641
 30
0.0
 40
5.0
 41
0.0
 46
0.0
 71
     5
 72
     1
  1
\A1;{\fFangSong|b0|i0|c134|p49;\C0;220}
 73
     1
 44
1.0
  0
POINT
  5
1A7A
330
1090
100
AcDbEntity
  8
Defpoints
 62
     0
440
 16777216
 48
0.5
100
AcDbPoint
 10
160.5077591838949
 20
340.57774525188
 30
0.0
  0
POINT
  5
1A7B
330
1090
100
AcDbEntity
  8
Defpoints
 62
     0
440
 16777216
 48
0.5
100
AcDbPoint
 10
270.5077591838949
 20
317.9594581053641
 30
0.0
  0
POINT
  5
1A7C
330
1090
100
AcDbEntity
  8
Defpoints
 62
     0
440
 16777216
 48
0.5
100
AcDbPoint
 10
270.5077591838949
 20
317.9594581053641
 30
0.0
  0
ENDBLK
  5
109B
330
1090
100
AcDbEntity
  8
0
100
AcDbBlockEnd
  0
BLOCK
  5
10B5
330
10B4
100
AcDbEntity
  8
207030691717_左边_4_BL16
100
AcDbBlockBegin
  2
207030691717_左边_4_BL16
 70
     0
 10
333.3306953567
 20
286.9187932559
 30
0.0
  3
207030691717_左边_4_BL16
  1

1001
AcadStringInfo
1000
MIFCodePage
1070
     5
  0
LINE
  5
10B6
330
10B4
100
AcDbEntity
  8
207030691717_左边_4_BL16
  6
Continuous
 62
     7
100
AcDbLine
 10
278.3306953567
 20
340.9187932559
 30
0.0
 11
278.3306953567
 21
340.4187932886
 31
0.0
  0
LINE
  5
10B7
330
10B4
100
AcDbEntity
  8
207030691717_左边_4_BL16
  6
Continuous
 62
     7
100
AcDbLine
 10
278.3306953567
 20
233.4187932626
 30
0.0
 11
278.3306953567
 21
232.9187932559
 31
0.0
  0
LINE
  5
10B8
330
10B4
100
AcDbEntity
  8
207030691717_左边_4_BL16
  6
Continuous
 62
     7
100
AcDbLine
 10
279.3306953567
 20
231.9187932559
 30
0.0
 11
279.8306953241
 21
231.9187932559
 31
0.0
  0
LINE
  5
10B9
330
10B4
100
AcDbEntity
  8
207030691717_左边_4_BL16
  6
Continuous
 62
     7
100
AcDbLine
 10
386.83069535
 20
231.9187932559
 30
0.0
 11
388.3306953567
 21
231.9187932559
 31
0.0
  0
LINE
  5
10BA
330
10B4
100
AcDbEntity
  8
207030691717_左边_4_BL16
  6
Continuous
 62
     7
100
AcDbLine
 10
388.3306953567
 20
231.9187932559
 30
0.0
 11
388.3306953567
 21
233.4187932233
 31
0.0
  0
LINE
  5
10BB
330
10B4
100
AcDbEntity
  8
207030691717_左边_4_BL16
  6
Continuous
 62
     7
100
AcDbLine
 10
388.3306953567
 20
340.4187932492
 30
0.0
 11
388.3306953567
 21
341.9187932559
 31
0.0
  0
LINE
  5
10BC
330
10B4
100
AcDbEntity
  8
207030691717_左边_4_BL16
  6
Continuous
 62
     7
100
AcDbLine
 10
388.3306953567
 20
341.9187932559
 30
0.0
 11
386.8306953894
 21
341.9187932559
 31
0.0
  0
LINE
  5
10BD
330
10B4
100
AcDbEntity
  8
207030691717_左边_4_BL16
  6
Continuous
 62
     7
100
AcDbLine
 10
279.8306953634
 20
341.9187932559
 30
0.0
 11
279.3306953567
 21
341.9187932559
 31
0.0
  0
ARC
  5
10BE
330
10B4
100
AcDbEntity
  8
207030691717_左边_4_BL16
  6
Continuous
 62
     7
100
AcDbCircle
 10
279.3306953567
 20
232.9187932559
 30
0.0
 40
1.0
100
AcDbArc
 50
180.0
 51
270.0
  0
ARC
  5
10BF
330
10B4
100
AcDbEntity
  8
207030691717_左边_4_BL16
  6
Continuous
 62
     7
100
AcDbCircle
 10
279.3306953567
 20
340.9187932559
 30
0.0
 40
1.0
100
AcDbArc
 50
90.0
 51
180.0
  0
ENDBLK
  5
10C0
330
10B4
100
AcDbEntity
  8
0
  6
ByBlock
 62
     0
100
AcDbBlockEnd
  0
BLOCK
  5
10C2
330
10C1
100
AcDbEntity
  8
201512570111_DR_左边_4_BL19
100
AcDbBlockBegin
  2
201512570111_DR_左边_4_BL19
 70
     0
 10
351.9615866108
 20
285.721402763
 30
0.0
  3
201512570111_DR_左边_4_BL19
  1

1001
AcadStringInfo
1000
MIFCodePage
1070
     5
  0
LINE
  5
10C3
330
10C1
100
AcDbEntity
  8
201512570111_DR_左边_4_BL19
  6
Continuous
 62
     7
100
AcDbLine
 10
333.3306953567
 20
288.4037932559
 30
0.0
 11
333.3306953567
 21
285.4337932559
 31
0.0
  0
LINE
  5
10C4
330
10C1
100
AcDbEntity
  8
201512570111_DR_左边_4_BL19
  6
CENTER
 62
     7
100
AcDbLine
 10
333.3306953567
 20
279.4937932559
 30
0.0
 11
333.3306953567
 21
226.3350688754
 31
0.0
  0
LINE
  5
10C5
330
10C1
100
AcDbEntity
  8
201512570111_DR_左边_4_BL19
  6
CENTER
 62
     7
100
AcDbLine
 10
333.3306953567
 20
294.3437932559
 30
0.0
 11
333.3306953567
 21
345.1077366506
 31
0.0
  0
LINE
  5
10C6
330
10C1
100
AcDbEntity
  8
201512570111_DR_左边_4_BL19
  6
Continuous
 62
     7
100
AcDbLine
 10
334.8156953566999
 20
286.9187932559
 30
0.0
 11
331.8456953567
 21
286.9187932559
 31
0.0
  0
LINE
  5
10C7
330
10C1
100
AcDbEntity
  8
201512570111_DR_左边_4_BL19
  6
CENTER
 62
     7
100
AcDbLine
 10
325.9056953567
 20
286.9187932559
 30
0.0
 11
275.141751962
 21
286.9187932559
 31
0.0
  0
LINE
  5
10C8
330
10C1
100
AcDbEntity
  8
201512570111_DR_左边_4_BL19
  6
CENTER
 62
     7
100
AcDbLine
 10
340.7556953567
 20
286.9187932559
 30
0.0
 11
428.7814212594999
 21
286.9187932559
 31
0.0
  0
ENDBLK
  5
10C9
330
10C1
100
AcDbEntity
  8
0
  6
ByBlock
 62
     0
100
AcDbBlockEnd
  0
BLOCK
  5
11D3
330
11CF
100
AcDbEntity
  8
0
100
AcDbBlockBegin
  2
A$C12DB153C
 70
     0
 10
0.0
 20
0.0
 30
0.0
  3
A$C12DB153C
  1

  0
LEADER
  5
11D0
330
11CF
100
AcDbEntity
  8
0
370
    13
100
AcDbLeader
  3
STANDARD
 72
     1
 76
     3
 10
0.0000020811998525
 20
-0.000000762962145
 30
0.0
 10
5.37993390985946
 20
4.630809286987869
 30
0.0
 10
9.302831511221825
 20
6.514600396426658
 30
0.0
211
-1.0
221
-0.0000000000000122
231
0.0
210
0.0
220
0.0
230
-1.0
213
-0.6086990475736
223
-1.869865069743135
233
0.0
1001
ACAD
1000
DSTYLE
1002
{
1070
    41
1040
3.0
1070
    42
1040
1.85625
1070
    43
1040
11.286
1070
    44
1040
5.346
1070
    73
1070
     1
1070
    74
1070
     1
1070
    77
1070
     0
1070
    78
1070
     0
1070
   141
1040
2.673
1070
   144
1040
4.0
1070
   147
1040
0.09
1070
   271
1070
     4
1070
   272
1070
     4
1070
   284
1070
     0
1002
}
  0
ENDBLK
  5
11D4
330
11CF
100
AcDbEntity
  8
0
100
AcDbBlockEnd
  0
BLOCK
  5
1486
330
147B
100
AcDbEntity
  8
0
100
AcDbBlockBegin
  2
*D20
 70
     1
 10
0.0
 20
0.0
 30
0.0
  3
*D20
  1

  0
LINE
  5
1AAF
330
147B
100
AcDbEntity
  8
0
 62
     0
440
 16777216
370
    -2
100
AcDbLine
 10
260.007759183895
 20
170.4947889756587
 30
0.0
 11
260.007759183895
 21
174.1486714999124
 31
0.0
  0
LINE
  5
1AB0
330
147B
100
AcDbEntity
  8
0
 62
     0
440
 16777216
370
    -2
100
AcDbLine
 10
281.007759183895
 20
170.4947889756587
 30
0.0
 11
281.007759183895
 21
174.1486714999124
 31
0.0
  0
LINE
  5
1AB1
330
147B
100
AcDbEntity
  8
0
 62
     0
440
 16777216
370
    -2
100
AcDbLine
 10
264.007759183895
 20
172.6486714999124
 30
0.0
 11
277.007759183895
 21
172.6486714999124
 31
0.0
  0
LINE
  5
1AB2
330
147B
100
AcDbEntity
  8
0
 62
     0
440
 16777216
370
    -2
100
AcDbLine
 10
281.007759183895
 20
172.6486714999124
 30
0.0
 11
309.0650996144152
 21
172.6486714999124
 31
0.0
  0
INSERT
  5
1AB3
330
147B
100
AcDbEntity
  8
0
 62
     0
440
 16777216
370
    -2
100
AcDbBlockReference
  2
_FILLED
 10
260.007759183895
 20
172.6486714999124
 30
0.0
 41
4.0
 42
4.0
 43
4.0
 50
180.0
  0
INSERT
  5
1AB4
330
147B
100
AcDbEntity
  8
0
 62
     0
440
 16777216
370
    -2
100
AcDbBlockReference
  2
_FILLED
 10
281.007759183895
 20
172.6486714999124
 30
0.0
 41
4.0
 42
4.0
 43
4.0
  0
MTEXT
  5
1AB5
330
147B
100
AcDbEntity
  8
0
 62
     5
440
 16777216
100
AcDbMText
 10
303.2079567572723
 20
176.6486714999124
 30
0.0
 40
6.0
 41
0.0
 46
0.0
 71
     5
 72
     1
  1
\A1;{\fFangSong|b0|i0|c134|p49;\C256;42}
 73
     1
 44
1.0
  0
POINT
  5
1AB6
330
147B
100
AcDbEntity
  8
Defpoints
 62
     0
440
 16777216
100
AcDbPoint
 10
260.007759183895
 20
169.4947889756587
 30
0.0
  0
POINT
  5
1AB7
330
147B
100
AcDbEntity
  8
Defpoints
 62
     0
440
 16777216
100
AcDbPoint
 10
281.007759183895
 20
169.4947889756587
 30
0.0
  0
POINT
  5
1AB8
330
147B
100
AcDbEntity
  8
Defpoints
 62
     0
440
 16777216
100
AcDbPoint
 10
281.007759183895
 20
172.6486714999124
 30
0.0
  0
ENDBLK
  5
1487
330
147B
100
AcDbEntity
  8
0
100
AcDbBlockEnd
  0
BLOCK
  5
1515
330
150A
100
AcDbEntity
  8
0
100
AcDbBlockBegin
  2
*D21
 70
     1
 10
0.0
 20
0.0
 30
0.0
  3
*D21
  1

  0
LINE
  5
1AC3
330
150A
100
AcDbEntity
  8
0
 62
     0
440
 16777216
370
    -2
100
AcDbLine
 10
233.0077591838949
 20
121.629378745514
 30
0.0
 11
233.0077591838949
 21
144.1520004709006
 31
0.0
  0
LINE
  5
1AC4
330
150A
100
AcDbEntity
  8
0
 62
     0
440
 16777216
370
    -2
100
AcDbLine
 10
308.0077591838949
 20
121.629378745514
 30
0.0
 11
308.0077591838949
 21
144.1520004709006
 31
0.0
  0
LINE
  5
1AC5
330
150A
100
AcDbEntity
  8
0
 62
     0
440
 16777216
370
    -2
100
AcDbLine
 10
237.0077591838949
 20
142.6520004709006
 30
0.0
 11
304.0077591838949
 21
142.6520004709006
 31
0.0
  0
LINE
  5
1AC6
330
150A
100
AcDbEntity
  8
0
 62
     0
440
 16777216
370
    -2
100
AcDbLine
 10
308.0077591838949
 20
142.6520004709006
 30
0.0
 11
351.9326877325166
 21
142.6520004709006
 31
0.0
  0
INSERT
  5
1AC7
330
150A
100
AcDbEntity
  8
0
 62
     0
440
 16777216
370
    -2
100
AcDbBlockReference
  2
_FILLED
 10
233.0077591838949
 20
142.6520004709006
 30
0.0
 41
4.0
 42
4.0
 43
4.0
 50
180.0
  0
INSERT
  5
1AC8
330
150A
100
AcDbEntity
  8
0
 62
     0
440
 16777216
370
    -2
100
AcDbBlockReference
  2
_FILLED
 10
308.0077591838949
 20
142.6520004709006
 30
0.0
 41
4.0
 42
4.0
 43
4.0
  0
MTEXT
  5
1AC9
330
150A
100
AcDbEntity
  8
0
 62
     5
440
 16777216
100
AcDbMText
 10
332.9326877325166
 20
146.6520004709006
 30
0.0
 40
6.0
 41
0.0
 46
0.0
 71
     5
 72
     1
  1
\A1;{\fFangSong|b0|i0|c134|p49;\C256;152X152}
 73
     1
 44
1.0
  0
POINT
  5
1ACA
330
150A
100
AcDbEntity
  8
Defpoints
 62
     0
440
 16777216
100
AcDbPoint
 10
233.0077591838949
 20
120.629378745514
 30
0.0
  0
POINT
  5
1ACB
330
150A
100
AcDbEntity
  8
Defpoints
 62
     0
440
 16777216
100
AcDbPoint
 10
308.0077591838949
 20
120.629378745514
 30
0.0
  0
POINT
  5
1ACC
330
150A
100
AcDbEntity
  8
Defpoints
 62
     0
440
 16777216
100
AcDbPoint
 10
308.0077591838949
 20
142.6520004709006
 30
0.0
  0
ENDBLK
  5
1516
330
150A
100
AcDbEntity
  8
0
100
AcDbBlockEnd
  0
BLOCK
  5
154B
330
153F
100
AcDbEntity
  8
0
100
AcDbBlockBegin
  2
*D22
 70
     1
 10
0.0
 20
0.0
 30
0.0
  3
*D22
  1

  0
LINE
  5
1A9A
330
153F
100
AcDbEntity
  8
0
 62
     0
440
 16777216
370
    -2
100
AcDbLine
 10
232.007759183895
 20
120.629378745514
 30
0.0
 11
212.490761166016
 21
120.629378745514
 31
0.0
  0
LINE
  5
1A9B
330
153F
100
AcDbEntity
  8
0
 62
     0
440
 16777216
370
    -2
100
AcDbLine
 10
238.8810140244237
 20
127.129378745514
 30
0.0
 11
212.490761166016
 21
127.129378745514
 31
0.0
  0
LINE
  5
1A9C
330
153F
100
AcDbEntity
  8
0
 62
     0
440
 16777216
370
    -2
100
AcDbLine
 10
213.990761166016
 20
116.629378745514
 30
0.0
 11
213.990761166016
 21
112.629378745514
 31
0.0
  0
LINE
  5
1A9D
330
153F
100
AcDbEntity
  8
0
 62
     0
440
 16777216
370
    -2
100
AcDbLine
 10
213.990761166016
 20
131.129378745514
 30
0.0
 11
213.990761166016
 21
147.5179501740855
 31
0.0
  0
LINE
  5
1A9E
330
153F
100
AcDbEntity
  8
0
 62
     0
440
 16777216
370
    -2
100
AcDbLine
 10
213.990761166016
 20
120.629378745514
 30
0.0
 11
213.990761166016
 21
127.129378745514
 31
0.0
  0
INSERT
  5
1A9F
330
153F
100
AcDbEntity
  8
0
 62
     0
440
 16777216
370
    -2
100
AcDbBlockReference
  2
_FILLED
 10
213.990761166016
 20
120.629378745514
 30
0.0
 41
4.0
 42
4.0
 43
4.0
 50
90.0
  0
INSERT
  5
1AA0
330
153F
100
AcDbEntity
  8
0
 62
     0
440
 16777216
370
    -2
100
AcDbBlockReference
  2
_FILLED
 10
213.990761166016
 20
127.129378745514
 30
0.0
 41
4.0
 42
4.0
 43
4.0
 50
270.0
  0
MTEXT
  5
1AA1
330
153F
100
AcDbEntity
  8
0
 62
     5
440
 16777216
100
AcDbMText
 10
209.990761166016
 20
142.2322358883711
 30
0.0
 40
6.0
 41
0.0
 46
0.0
 71
     5
 72
     1
  1
\A1;{\fFangSong|b0|i0|c134|p49;\C256;13}
 11
0.0000000000000001
 21
1.0
 31
0.0
 73
     1
 44
1.0
  0
POINT
  5
1AA2
330
153F
100
AcDbEntity
  8
Defpoints
 62
     0
440
 16777216
100
AcDbPoint
 10
233.007759183895
 20
120.629378745514
 30
0.0
  0
POINT
  5
1AA3
330
153F
100
AcDbEntity
  8
Defpoints
 62
     0
440
 16777216
100
AcDbPoint
 10
239.8810140244237
 20
127.129378745514
 30
0.0
  0
POINT
  5
1AA4
330
153F
100
AcDbEntity
  8
Defpoints
 62
     0
440
 16777216
100
AcDbPoint
 10
213.990761166016
 20
127.129378745514
 30
0.0
  0
ENDBLK
  5
154C
330
153F
100
AcDbEntity
  8
0
100
AcDbBlockEnd
  0
BLOCK
  5
16F4
330
16E9
100
AcDbEntity
  8
0
100
AcDbBlockBegin
  2
*D23
 70
     1
 10
0.0
 20
0.0
 30
0.0
  3
*D23
  1

  0
LINE
  5
1AD6
330
16E9
100
AcDbEntity
  8
0
 62
     0
440
 16777216
370
    -2
100
AcDbLine
 10
432.7706859252014
 20
343.0777452518801
 30
0.0
 11
453.7480179828112
 21
343.0777452518801
 31
0.0
  0
LINE
  5
1AD7
330
16E9
100
AcDbEntity
  8
0
 62
     0
440
 16777216
370
    -2
100
AcDbLine
 10
432.7706859252014
 20
287.9527452518801
 30
0.0
 11
453.7480179828112
 21
287.9527452518801
 31
0.0
  0
LINE
  5
1AD8
330
16E9
100
AcDbEntity
  8
0
 62
     0
440
 16777216
370
    -2
100
AcDbLine
 10
452.2480179828113
 20
339.0777452518801
 30
0.0
 11
452.2480179828113
 21
291.9527452518801
 31
0.0
  0
INSERT
  5
1AD9
330
16E9
100
AcDbEntity
  8
0
 62
     0
440
 16777216
370
    -2
100
AcDbBlockReference
  2
_FILLED
 10
452.2480179828113
 20
343.0777452518801
 30
0.0
 41
4.0
 42
4.0
 43
4.0
 50
90.0
  0
INSERT
  5
1ADA
330
16E9
100
AcDbEntity
  8
0
 62
     0
440
 16777216
370
    -2
100
AcDbBlockReference
  2
_FILLED
 10
452.2480179828113
 20
287.9527452518801
 30
0.0
 41
4.0
 42
4.0
 43
4.0
 50
270.0
  0
MTEXT
  5
1ADB
330
16E9
100
AcDbEntity
  8
0
 62
     5
440
 16777216
100
AcDbMText
 10
448.2480179828112
 20
315.5152452518801
 30
0.0
 40
6.0
 41
0.0
 46
0.0
 71
     5
 72
     1
  1
\A1;{\fFangSong|b0|i0|c134|p49;\C256;110}
 11
0.0000000000000001
 21
1.0
 31
0.0
 73
     1
 44
1.0
  0
POINT
  5
1ADC
330
16E9
100
AcDbEntity
  8
Defpoints
 62
     0
440
 16777216
100
AcDbPoint
 10
431.7706859252014
 20
343.0777452518801
 30
0.0
  0
POINT
  5
1ADD
330
16E9
100
AcDbEntity
  8
Defpoints
 62
     0
440
 16777216
100
AcDbPoint
 10
431.7706859252013
 20
287.9527452518801
 30
0.0
  0
POINT
  5
1ADE
330
16E9
100
AcDbEntity
  8
Defpoints
 62
     0
440
 16777216
100
AcDbPoint
 10
452.2480179828113
 20
287.9527452518801
 30
0.0
  0
ENDBLK
  5
16F5
330
16E9
100
AcDbEntity
  8
0
100
AcDbBlockEnd
  0
BLOCK
  5
1784
330
1779
100
AcDbEntity
  8
0
100
AcDbBlockBegin
  2
*D24
 70
     1
 10
0.0
 20
0.0
 30
0.0
  3
*D24
  1

  0
LINE
  5
1A86
330
1779
100
AcDbEntity
  8
0
 62
     0
440
 16777216
370
    -2
100
AcDbLine
 10
147.5077591838949
 20
344.0777452518801
 30
0.0
 11
133.7799699219098
 21
344.0777452518801
 31
0.0
  0
LINE
  5
1A87
330
1779
100
AcDbEntity
  8
0
 62
     0
440
 16777216
370
    -2
100
AcDbLine
 10
232.007759183895
 20
120.629378745514
 30
0.0
 11
133.7799699219099
 21
120.629378745514
 31
0.0
  0
LINE
  5
1A88
330
1779
100
AcDbEntity
  8
0
 62
     0
440
 16777216
370
    -2
100
AcDbLine
 10
135.2799699219098
 20
340.0777452518801
 30
0.0
 11
135.2799699219099
 21
124.629378745514
 31
0.0
  0
INSERT
  5
1A89
330
1779
100
AcDbEntity
  8
0
 62
     0
440
 16777216
370
    -2
100
AcDbBlockReference
  2
_FILLED
 10
135.2799699219098
 20
344.0777452518801
 30
0.0
 41
4.0
 42
4.0
 43
4.0
 50
90.0
  0
INSERT
  5
1A8A
330
1779
100
AcDbEntity
  8
0
 62
     0
440
 16777216
370
    -2
100
AcDbBlockReference
  2
_FILLED
 10
135.2799699219099
 20
120.629378745514
 30
0.0
 41
4.0
 42
4.0
 43
4.0
 50
270.0
  0
MTEXT
  5
1A8B
330
1779
100
AcDbEntity
  8
0
 62
     5
440
 16777216
100
AcDbMText
 10
131.2799699219099
 20
232.353561998697
 30
0.0
 40
6.0
 41
0.0
 46
0.0
 71
     5
 72
     1
  1
\A1;{\fFangSong|b0|i0|c134|p49;\C256;858}
 11
0.0000000000000001
 21
1.0
 31
0.0
 73
     1
 44
1.0
  0
POINT
  5
1A8C
330
1779
100
AcDbEntity
  8
Defpoints
 62
     0
440
 16777216
100
AcDbPoint
 10
148.5077591838949
 20
344.0777452518801
 30
0.0
  0
POINT
  5
1A8D
330
1779
100
AcDbEntity
  8
Defpoints
 62
     0
440
 16777216
100
AcDbPoint
 10
233.007759183895
 20
120.629378745514
 30
0.0
  0
POINT
  5
1A8E
330
1779
100
AcDbEntity
  8
Defpoints
 62
     0
440
 16777216
100
AcDbPoint
 10
135.2799699219099
 20
120.629378745514
 30
0.0
  0
ENDBLK
  5
1785
330
1779
100
AcDbEntity
  8
0
100
AcDbBlockEnd
  0
BLOCK
  5
17A2
330
179C
100
AcDbEntity
  8
0
100
AcDbBlockBegin
  2
A$C072F7AC0
 70
     0
 10
0.0
 20
0.0
 30
0.0
  3
A$C072F7AC0
  1

  0
LINE
  5
179D
330
179C
100
AcDbEntity
  8
0
100
AcDbLine
 10
-0.0000018782366169
 20
16.5
 30
0.0
 11
-0.0000018782366169
 21
0.0
 31
0.0
  0
LINE
  5
179E
330
179C
100
AcDbEntity
  8
0
100
AcDbLine
 10
-0.0000018782366169
 20
0.0
 30
0.0
 11
49.99999812176338
 21
0.0
 31
0.0
  0
LINE
  5
179F
330
179C
100
AcDbEntity
  8
0
100
AcDbLine
 10
49.99999812176338
 20
16.5
 30
0.0
 11
49.99999812176338
 21
0.0
 31
0.0
  0
ENDBLK
  5
17A3
330
179C
100
AcDbEntity
  8
0
100
AcDbBlockEnd
  0
BLOCK
  5
1840
330
1822
100
AcDbEntity
  8
0
100
AcDbBlockBegin
  2
A$C4E661C54
 70
     0
 10
0.0
 20
0.0
 30
0.0
  3
A$C4E661C54
  1

  0
LINE
  5
1823
330
1822
100
AcDbEntity
  8
0
  6
Continuous
 62
     7
100
AcDbLine
 10
14.98349573750488
 20
1.000000179830237
 30
0.0
 11
14.98349573750488
 21
2.500000179830237
 31
0.0
  0
LINE
  5
1824
330
1822
100
AcDbEntity
  8
0
  6
Continuous
 62
     7
100
AcDbLine
 10
15.42283556570487
 20
1.000000179830237
 30
0.0
 11
15.42283556570487
 21
2.500000179830237
 31
0.0
  0
LINE
  5
1825
330
1822
100
AcDbEntity
  8
0
  6
Continuous
 62
     7
100
AcDbLine
 10
17.54415590925487
 20
1.000000179830237
 30
0.0
 11
17.54415590925487
 21
2.500000179830237
 31
0.0
  0
LINE
  5
1826
330
1822
100
AcDbEntity
  8
02___PRT_ALL_AXES
  6
Continuous
 62
     7
100
AcDbLine
 10
18.00000003195487
 20
22.50000017983024
 30
0.0
 11
18.00000003195487
 21
13.00000017983024
 31
0.0
  0
LINE
  5
1827
330
1822
100
AcDbEntity
  8
0
  6
Continuous
 62
     7
100
AcDbLine
 10
19.66547625280486
 20
1.000000179830237
 30
0.0
 11
19.66547625280486
 21
2.500000179830237
 31
0.0
  0
LINE
  5
1828
330
1822
100
AcDbEntity
  8
0
  6
Continuous
 62
     7
100
AcDbLine
 10
27.57139160075485
 20
2.500000179830237
 30
0.0
 11
27.57139160075485
 21
1.000000179830237
 31
0.0
  0
LINE
  5
1829
330
1822
100
AcDbEntity
  8
0
  6
Continuous
 62
     7
100
AcDbLine
 10
71.01650432645488
 20
1.000000179830237
 30
0.0
 11
14.98349573750488
 21
1.000000179830237
 31
0.0
  0
LINE
  5
182A
330
1822
100
AcDbEntity
  8
02___PRT_ALL_AXES
  6
Continuous
 62
     7
100
AcDbLine
 10
5.500000031954868
 20
2.000000179830237
 30
0.0
 11
14.98349573750488
 21
2.000000179830237
 31
0.0
  0
LINE
  5
182B
330
1822
100
AcDbEntity
  8
02___PRT_ALL_AXES
  6
Continuous
 62
     7
100
AcDbLine
 10
71.01650432645488
 20
2.000000179830237
 30
0.0
 11
80.50000003195487
 21
2.000000179830237
 31
0.0
  0
LINE
  5
182C
330
1822
100
AcDbEntity
  8
0
  6
Continuous
 62
     7
100
AcDbLine
 10
14.98349573750488
 20
2.500000179830237
 30
0.0
 11
27.57139160075485
 21
2.500000179830237
 31
0.0
  0
LINE
  5
182D
330
1822
100
AcDbEntity
  8
0
  6
Continuous
 62
     7
100
AcDbLine
 10
58.4286084632049
 20
2.500000179830237
 30
0.0
 11
71.01650432645488
 21
2.500000179830237
 31
0.0
  0
LINE
  5
182E
330
1822
100
AcDbEntity
  8
02___PRT_ALL_AXES
  6
CENTER
 62
     7
100
AcDbLine
 10
43.00000003195487
 20
0.0000001798302378
 30
0.0
 11
43.00000003195487
 21
23.50000017983024
 31
0.0
  0
LINE
  5
182F
330
1822
100
AcDbEntity
  8
02___PRT_ALL_AXES
  6
Continuous
 62
     7
100
AcDbLine
 10
5.500000031954868
 20
13.00000017983024
 30
0.0
 11
18.00000003195487
 21
13.00000017983024
 31
0.0
  0
LINE
  5
1830
330
1822
100
AcDbEntity
  8
02___PRT_ALL_AXES
  6
Continuous
 62
     7
100
AcDbLine
 10
68.00000003195487
 20
13.00000017983024
 30
0.0
 11
80.50000003195487
 21
13.00000017983024
 31
0.0
  0
LINE
  5
1831
330
1822
100
AcDbEntity
  8
02___PRT_ALL_AXES
  6
Continuous
 62
     7
100
AcDbLine
 10
67.99993963770487
 20
22.50000017983024
 30
0.0
 11
18.00006042625489
 21
22.50000017983024
 31
0.0
  0
LINE
  5
1832
330
1822
100
AcDbEntity
  8
0
  6
Continuous
 62
     7
100
AcDbLine
 10
58.4286084632049
 20
2.500000179830237
 30
0.0
 11
58.4286084632049
 21
1.000000179830237
 31
0.0
  0
LINE
  5
1833
330
1822
100
AcDbEntity
  8
0
  6
Continuous
 62
     7
100
AcDbLine
 10
66.33452381115489
 20
1.000000179830237
 30
0.0
 11
66.33452381115489
 21
2.500000179830237
 31
0.0
  0
LINE
  5
1834
330
1822
100
AcDbEntity
  8
02___PRT_ALL_AXES
  6
Continuous
 62
     7
100
AcDbLine
 10
68.00000003195487
 20
22.50000017983024
 30
0.0
 11
68.00000003195487
 21
13.00000017983024
 31
0.0
  0
LINE
  5
1835
330
1822
100
AcDbEntity
  8
0
  6
Continuous
 62
     7
100
AcDbLine
 10
68.45584415470489
 20
1.000000179830237
 30
0.0
 11
68.45584415470489
 21
2.500000179830237
 31
0.0
  0
LINE
  5
1836
330
1822
100
AcDbEntity
  8
0
  6
Continuous
 62
     7
100
AcDbLine
 10
70.57716449825488
 20
1.000000179830237
 30
0.0
 11
70.57716449825488
 21
2.500000179830237
 31
0.0
  0
LINE
  5
1837
330
1822
100
AcDbEntity
  8
0
  6
Continuous
 62
     7
100
AcDbLine
 10
71.01650432645488
 20
1.000000179830237
 30
0.0
 11
71.01650432645488
 21
2.500000179830237
 31
0.0
  0
CIRCLE
  5
1838
330
1822
100
AcDbEntity
  8
02___PRT_ALL_AXES
  6
Continuous
 62
     7
100
AcDbCircle
 10
80.50000003195487
 20
7.500000179830237
 30
0.0
 40
5.5
  0
CIRCLE
  5
1839
330
1822
100
AcDbEntity
  8
02___PRT_ALL_AXES
  6
Continuous
 62
     7
100
AcDbCircle
 10
5.500000031954868
 20
7.500000179830237
 30
0.0
 40
5.5
  0
CIRCLE
  5
183A
330
1822
100
AcDbEntity
  8
02___PRT_ALL_AXES
  6
Continuous
 62
     7
100
AcDbCircle
 10
80.50000003195487
 20
7.500000179830237
 30
0.0
 40
4.0
  0
CIRCLE
  5
183B
330
1822
100
AcDbEntity
  8
02___PRT_ALL_AXES
  6
Continuous
 62
     7
100
AcDbCircle
 10
5.500000031954868
 20
7.500000179830237
 30
0.0
 40
4.0
  0
SPLINE
  5
183C
330
1822
100
AcDbEntity
  8
02___PRT_ALL_AXES
  6
Continuous
 62
     7
100
AcDbSpline
210
0.0
220
0.0
230
1.0
 70
     8
 71
     3
 72
    12
 73
     8
 74
     0
 42
0.000000001
 43
0.0000000001
 40
0.0
 40
0.0
 40
0.0
 40
0.0
 40
0.1174375991
 40
0.4132211223
 40
0.5890726348
 40
0.7575355386
 40
1.0
 40
1.0
 40
1.0
 40
1.0
 10
68.00000003195487
 20
13.00000017983024
 30
0.0
 10
67.91090684805488
 20
12.59585870423024
 30
0.0
 10
67.62943711545495
 20
11.16580620048023
 30
0.0
 10
67.39613082225492
 20
9.096162873030237
 30
0.0
 10
67.37385163700492
 20
6.837606691380244
 30
0.0
 10
67.50764431075481
 20
4.771657812530236
 30
0.0
 10
67.72671800300486
 20
3.336645154230239
 30
0.0
 10
67.89506159435484
 20
2.498587661580245
 30
0.0
  0
SPLINE
  5
183D
330
1822
100
AcDbEntity
  8
02___PRT_ALL_AXES
  6
Continuous
 62
     7
100
AcDbSpline
210
0.0
220
0.0
230
1.0
 70
     8
 71
     3
 72
    12
 73
     8
 74
     0
 42
0.000000001
 43
0.0000000001
 40
0.0
 40
0.0
 40
0.0
 40
0.0
 40
0.2424481544
 40
0.4109094451
 40
0.5867628077
 40
0.8825552529999999
 40
1.0
 40
1.0
 40
1.0
 40
1.0
 10
18.10490061530481
 20
2.498397784330236
 30
0.0
 10
18.27323976180491
 20
3.336413476230248
 30
0.0
 10
18.49232447510485
 20
4.771386769530252
 30
0.0
 10
18.62614114740495
 20
6.837315365780256
 30
0.0
 10
18.60388740445489
 20
9.095945490880239
 30
0.0
 10
18.37058351770486
 20
11.16569184083025
 30
0.0
 10
18.08910025625482
 20
12.59582674098024
 30
0.0
 10
18.00000003195487
 20
13.00000017983024
 30
0.0
  0
ENDBLK
  5
1841
330
1822
100
AcDbEntity
  8
0
100
AcDbBlockEnd
  0
BLOCK
  5
1868
330
185C
100
AcDbEntity
  8
0
100
AcDbBlockBegin
  2
*D27
 70
     1
 10
0.0
 20
0.0
 30
0.0
  3
*D27
  1

  0
LINE
  5
1AF3
330
185C
100
AcDbEntity
  8
0
 62
     0
440
 16777216
370
    -2
100
AcDbLine
 10
412.7842791144001
 20
111.129378745514
 30
0.0
 11
454.0391766891844
 21
111.129378745514
 31
0.0
  0
LINE
  5
1AF4
330
185C
100
AcDbEntity
  8
0
 62
     0
440
 16777216
370
    -2
100
AcDbLine
 10
412.7842791144001
 20
100.129378745514
 30
0.0
 11
454.0391766891844
 21
100.129378745514
 31
0.0
  0
LINE
  5
1AF5
330
185C
100
AcDbEntity
  8
0
 62
     0
440
 16777216
370
    -2
100
AcDbLine
 10
452.5391766891845
 20
104.129378745514
 30
0.0
 11
452.5391766891845
 21
107.129378745514
 31
0.0
  0
LINE
  5
1AF6
330
185C
100
AcDbEntity
  8
0
 62
     0
440
 16777216
370
    -2
100
AcDbLine
 10
452.5391766891845
 20
111.129378745514
 30
0.0
 11
452.5391766891844
 21
141.9865216026569
 31
0.0
  0
INSERT
  5
1AF7
330
185C
100
AcDbEntity
  8
0
 62
     0
440
 16777216
370
    -2
100
AcDbBlockReference
  2
_FILLED
 10
452.5391766891845
 20
100.129378745514
 30
0.0
 41
4.0
 42
4.0
 43
4.0
 50
270.0
  0
INSERT
  5
1AF8
330
185C
100
AcDbEntity
  8
0
 62
     0
440
 16777216
370
    -2
100
AcDbBlockReference
  2
_FILLED
 10
452.5391766891845
 20
111.129378745514
 30
0.0
 41
4.0
 42
4.0
 43
4.0
 50
90.0
  0
MTEXT
  5
1AF9
330
185C
100
AcDbEntity
  8
0
 62
     5
440
 16777216
100
AcDbMText
 10
446.9677481177558
 20
128.5579501740853
 30
0.0
 40
6.0
 41
0.0
 46
0.0
 71
     5
 72
     1
  1
\A1;{\fFangSong|b0|i0|c134|p49;\C256;G1/2"}
 11
0.0000000000000001
 21
1.0
 31
0.0
 73
     1
 44
1.0
  0
POINT
  5
1AFA
330
185C
100
AcDbEntity
  8
Defpoints
 62
     0
440
 16777216
100
AcDbPoint
 10
411.7842791144
 20
111.129378745514
 30
0.0
  0
POINT
  5
1AFB
330
185C
100
AcDbEntity
  8
Defpoints
 62
     0
440
 16777216
100
AcDbPoint
 10
411.7842791144
 20
100.129378745514
 30
0.0
  0
POINT
  5
1AFC
330
185C
100
AcDbEntity
  8
Defpoints
 62
     0
440
 16777216
100
AcDbPoint
 10
452.5391766891845
 20
100.129378745514
 30
0.0
  0
ENDBLK
  5
1869
330
185C
100
AcDbEntity
  8
0
100
AcDbBlockEnd
  0
ENDSEC
  0
SECTION
  2
ENTITIES
  0
LINE
  5
1008
330
231
100
AcDbEntity
  8
51001-1_DXF_CONTINUOUS_LINE
  6
Continuous
 62
     7
420
 16777215
100
AcDbLine
 10
434.2842791143998
 20
120.629378745514
 30
0.0
 11
359.2842791143998
 21
120.629378745514
 31
0.0
  0
LINE
  5
1009
330
231
100
AcDbEntity
  8
51001-1_DXF_CONTINUOUS_LINE
  6
Continuous
 62
     7
420
 16777215
100
AcDbLine
 10
360.0342791143999
 20
127.1293787455139
 30
0.0
 11
433.5342791143999
 21
127.1293787455139
 31
0.0
  0
LINE
  5
100A
330
231
100
AcDbEntity
  8
51001-1_DXF_CONTINUOUS_LINE
  6
Continuous
 62
     7
420
 16777215
100
AcDbLine
 10
359.2842791143998
 20
120.629378745514
 30
0.0
 11
359.2842791143998
 21
126.3793787455139
 31
0.0
  0
LINE
  5
100B
330
231
100
AcDbEntity
  8
51001-1_DXF_CONTINUOUS_LINE
  6
Continuous
 62
     7
420
 16777215
100
AcDbLine
 10
386.2842791143998
 20
127.1293787455139
 30
0.0
 11
386.2842791143998
 21
222.8898363281231
 31
0.0
  0
LINE
  5
100C
330
231
100
AcDbEntity
  8
51001-1_DXF_CONTINUOUS_LINE
  6
Continuous
 62
     7
420
 16777215
100
AcDbLine
 10
386.2842791143997
 20
228.5275854482573
 30
0.0
 11
386.2842791143998
 21
354.07774525188
 31
0.0
  0
LINE
  5
100D
330
231
100
AcDbEntity
  8
51001-1_DXF_CONTINUOUS_LINE
  6
Continuous
 62
     7
420
 16777215
100
AcDbLine
 10
390.7842791143999
 20
344.07774525188
 30
0.0
 11
390.7842791143999
 21
342.57774525188
 31
0.0
  0
LINE
  5
100E
330
231
100
AcDbEntity
  8
51001-1_DXF_CONTINUOUS_LINE
  6
Continuous
 62
     7
420
 16777215
100
AcDbLine
 10
391.2842791143999
 20
340.57774525188
 30
0.0
 11
391.2842791143999
 21
342.57774525188
 31
0.0
  0
LINE
  5
100F
330
231
100
AcDbEntity
  8
51001-1_DXF_CONTINUOUS_LINE
  6
Continuous
 62
     7
420
 16777215
100
AcDbLine
 10
402.2842791143999
 20
342.57774525188
 30
0.0
 11
402.2842791143999
 21
340.57774525188
 31
0.0
  0
LINE
  5
1010
330
231
100
AcDbEntity
  8
51001-1_DXF_CONTINUOUS_LINE
  6
Continuous
 62
     7
420
 16777215
100
AcDbLine
 10
402.7842791143998
 20
344.07774525188
 30
0.0
 11
402.7842791143998
 21
342.57774525188
 31
0.0
  0
LINE
  5
1011
330
231
100
AcDbEntity
  8
51001-1_DXF_CONTINUOUS_LINE
  6
Continuous
 62
     7
420
 16777215
100
AcDbLine
 10
407.2842791143998
 20
127.1293787455139
 30
0.0
 11
407.2842791144
 21
221.9855113739111
 31
0.0
  0
LINE
  5
1012
330
231
100
AcDbEntity
  8
51001-1_DXF_CONTINUOUS_LINE
  6
Continuous
 62
     7
420
 16777215
100
AcDbLine
 10
407.2842791143997
 20
228.5275854482573
 30
0.0
 11
407.2842791143998
 21
288.07774525188
 31
0.0
  0
LINE
  5
1013
330
231
100
AcDbEntity
  8
51001-1_DXF_CONTINUOUS_LINE
  6
Continuous
 62
     7
420
 16777215
100
AcDbLine
 10
407.2842791143998
 20
309.07774525188
 30
0.0
 11
407.2842791143998
 21
354.07774525188
 31
0.0
  0
LINE
  5
1014
330
231
100
AcDbEntity
  8
51001-1_DXF_CONTINUOUS_LINE
  6
Continuous
 62
     7
420
 16777215
100
AcDbLine
 10
414.2842791143998
 20
309.07774525188
 30
0.0
 11
414.2842791143998
 21
288.07774525188
 31
0.0
  0
LINE
  5
1015
330
231
100
AcDbEntity
  8
51001-1_DXF_CONTINUOUS_LINE
  6
Continuous
 62
     7
420
 16777215
100
AcDbLine
 10
434.2842791143998
 20
120.629378745514
 30
0.0
 11
434.2842791143998
 21
126.3793787455139
 31
0.0
  0
LINE
  5
1016
330
231
100
AcDbEntity
  8
51001-1_DXF_CONTINUOUS_LINE
  6
Continuous
 62
     7
420
 16777215
100
AcDbLine
 10
407.2842791143998
 20
288.07774525188
 30
0.0
 11
414.2842791143998
 21
288.07774525188
 31
0.0
  0
LINE
  5
1017
330
231
100
AcDbEntity
  8
51001-1_DXF_CONTINUOUS_LINE
  6
Continuous
 62
     7
420
 16777215
100
AcDbLine
 10
407.2842791143998
 20
309.07774525188
 30
0.0
 11
414.2842791143998
 21
309.07774525188
 31
0.0
  0
LINE
  5
1018
330
231
100
AcDbEntity
  8
51001-1_DXF_CONTINUOUS_LINE
  6
Continuous
 62
     7
420
 16777215
100
AcDbLine
 10
402.2842791143999
 20
340.57774525188
 30
0.0
 11
391.2842791143999
 21
340.57774525188
 31
0.0
  0
LINE
  5
1019
330
231
100
AcDbEntity
  8
51001-1_DXF_CONTINUOUS_LINE
  6
Continuous
 62
     7
420
 16777215
100
AcDbLine
 10
402.2842791143999
 20
341.07774525188
 30
0.0
 11
391.2842791143999
 21
341.07774525188
 31
0.0
  0
LINE
  5
101A
330
231
100
AcDbEntity
  8
51001-1_DXF_CONTINUOUS_LINE
  6
Continuous
 62
     7
420
 16777215
100
AcDbLine
 10
402.783510274799
 20
342.57774525188
 30
0.0
 11
402.2842791143999
 21
342.57774525188
 31
0.0
  0
LINE
  5
101B
330
231
100
AcDbEntity
  8
51001-1_DXF_CONTINUOUS_LINE
  6
Continuous
 62
     7
420
 16777215
100
AcDbLine
 10
391.2842791143999
 20
342.57774525188
 30
0.0
 11
390.7850479539998
 21
342.57774525188
 31
0.0
  0
LINE
  5
101C
330
231
100
AcDbEntity
  8
51001-1_DXF_CONTINUOUS_LINE
  6
Continuous
 62
     7
420
 16777215
100
AcDbLine
 10
386.2842791143998
 20
344.07774525188
 30
0.0
 11
407.2842791143998
 21
344.07774525188
 31
0.0
  0
LINE
  5
101D
330
231
100
AcDbEntity
  8
51001-1_DXF_CONTINUOUS_LINE
  6
Continuous
 62
     7
420
 16777215
100
AcDbLine
 10
386.2842791143998
 20
354.07774525188
 30
0.0
 11
407.2842791143998
 21
354.07774525188
 31
0.0
  0
LINE
  5
101E
330
231
100
AcDbEntity
  8
51001-1_DXF_CONTINUOUS_LINE
  6
Continuous
 62
     7
420
 16777215
100
AcDbLine
 10
308.0077591838949
 20
120.629378745514
 30
0.0
 11
233.0077591838949
 21
120.629378745514
 31
0.0
  0
LINE
  5
101F
102
{ACAD_REACTORS
330
1559
102
}
330
231
100
AcDbEntity
  8
51001-1_DXF_CONTINUOUS_LINE
  6
Continuous
 62
     7
420
 16777215
100
AcDbLine
 10
233.7577591838949
 20
127.1293787455139
 30
0.0
 11
307.2577591838949
 21
127.1293787455139
 31
0.0
  0
LINE
  5
1020
330
231
100
AcDbEntity
  8
51001-1_DXF_CONTINUOUS_LINE
  6
Continuous
 62
     7
420
 16777215
100
AcDbLine
 10
166.0077591838949
 20
340.57774525188
 30
0.0
 11
166.5077591838949
 21
341.07774525188
 31
0.0
  0
LINE
  5
1021
330
231
100
AcDbEntity
  8
51001-1_DXF_CONTINUOUS_LINE
  6
Continuous
 62
     7
420
 16777215
100
AcDbLine
 10
148.5077591838949
 20
344.07774525188
 30
0.0
 11
148.5077591838949
 21
354.07774525188
 31
0.0
  0
LINE
  5
1022
330
231
100
AcDbEntity
  8
51001-1_DXF_CONTINUOUS_LINE
  6
Continuous
 62
     7
420
 16777215
100
AcDbLine
 10
154.5077591838949
 20
344.07774525188
 30
0.0
 11
154.5077591838949
 21
341.07774525188
 31
0.0
  0
LINE
  5
1023
330
231
100
AcDbEntity
  8
51001-1_DXF_CONTINUOUS_LINE
  6
Continuous
 62
     7
420
 16777215
100
AcDbLine
 10
158.1098434222454
 20
342.57774525188
 30
0.0
 11
158.1098434222454
 21
341.07774525188
 31
0.0
  0
LINE
  5
1024
330
231
100
AcDbEntity
  8
51001-1_DXF_CONTINUOUS_LINE
  6
Continuous
 62
     7
420
 16777215
100
AcDbLine
 10
162.9056749455453
 20
342.57774525188
 30
0.0
 11
162.9056749455453
 21
341.07774525188
 31
0.0
  0
LINE
  5
1025
330
231
100
AcDbEntity
  8
51001-1_DXF_CONTINUOUS_LINE
  6
Continuous
 62
     7
420
 16777215
100
AcDbLine
 10
166.5077591838949
 20
344.07774525188
 30
0.0
 11
166.5077591838949
 21
341.07774525188
 31
0.0
  0
LINE
  5
1026
102
{ACAD_REACTORS
330
1522
330
1559
330
1791
102
}
330
231
100
AcDbEntity
  8
51001-1_DXF_CONTINUOUS_LINE
  6
Continuous
 62
     7
420
 16777215
100
AcDbLine
 10
233.0077591838949
 20
120.629378745514
 30
0.0
 11
233.0077591838949
 21
126.3793787455139
 31
0.0
  0
LINE
  5
1028
102
{ACAD_REACTORS
330
1493
102
}
330
231
100
AcDbEntity
  8
51001-1_DXF_CONTINUOUS_LINE
  6
Continuous
 62
     7
420
 16777215
100
AcDbLine
 10
260.0077591838949
 20
127.1293787455139
 30
0.0
 11
260.0077591838951
 21
222.9311423637562
 31
0.0
  0
LINE
  5
1029
330
231
100
AcDbEntity
  8
51001-1_DXF_CONTINUOUS_LINE
  6
Continuous
 62
     7
420
 16777215
100
AcDbLine
 10
260.0077591838949
 20
228.5275854482573
 30
0.0
 11
260.0077591838949
 21
287.95274525188
 31
0.0
  0
LINE
  5
102A
330
231
100
AcDbEntity
  8
51001-1_DXF_CONTINUOUS_LINE
  6
Continuous
 62
     7
420
 16777215
100
AcDbLine
 10
260.0077591838949
 20
337.9923233506744
 30
0.0
 11
260.0077591838949
 21
344.07774525188
 31
0.0
  0
LINE
  5
103F
102
{ACAD_REACTORS
330
1493
102
}
330
231
100
AcDbEntity
  8
51001-1_DXF_CONTINUOUS_LINE
  6
Continuous
 62
     7
420
 16777215
100
AcDbLine
 10
281.0077591838949
 20
127.1293787455139
 30
0.0
 11
281.0077591838951
 21
222.0024920760821
 31
0.0
  0
LINE
  5
1040
330
231
100
AcDbEntity
  8
51001-1_DXF_CONTINUOUS_LINE
  6
Continuous
 62
     7
420
 16777215
100
AcDbLine
 10
281.0077591838951
 20
228.5275854482573
 30
0.0
 11
281.0077591838949
 21
287.95274525188
 31
0.0
  0
LINE
  5
1041
330
231
100
AcDbEntity
  8
51001-1_DXF_CONTINUOUS_LINE
  6
Continuous
 62
     7
420
 16777215
100
AcDbLine
 10
281.0077591838949
 20
337.9923233506744
 30
0.0
 11
281.0077591838949
 21
354.07774525188
 31
0.0
  0
LINE
  5
1043
102
{ACAD_REACTORS
330
1522
102
}
330
231
100
AcDbEntity
  8
51001-1_DXF_CONTINUOUS_LINE
  6
Continuous
 62
     7
420
 16777215
100
AcDbLine
 10
308.0077591838949
 20
120.629378745514
 30
0.0
 11
308.0077591838949
 21
126.3793787455139
 31
0.0
  0
LINE
  5
1044
330
231
100
AcDbEntity
  8
51001-1_DXF_CONTINUOUS_LINE
  6
Continuous
 62
     7
420
 16777215
100
AcDbLine
 10
155.0077591838949
 20
340.57774525188
 30
0.0
 11
154.5077591838949
 21
341.07774525188
 31
0.0
  0
LINE
  5
1064
330
231
100
AcDbEntity
  8
51001-1_DXF_CONTINUOUS_LINE
  6
Continuous
 62
     7
420
 16777215
100
AcDbLine
 10
166.0077577477946
 20
340.57774525188
 30
0.0
 11
155.0077606199952
 21
340.57774525188
 31
0.0
  0
LINE
  5
1065
330
231
100
AcDbEntity
  8
51001-1_DXF_CONTINUOUS_LINE
  6
Continuous
 62
     7
420
 16777215
100
AcDbLine
 10
166.5077591838949
 20
341.07774525188
 30
0.0
 11
162.9056749455453
 21
341.07774525188
 31
0.0
  0
LINE
  5
1066
330
231
100
AcDbEntity
  8
51001-1_DXF_CONTINUOUS_LINE
  6
Continuous
 62
     7
420
 16777215
100
AcDbLine
 10
158.1098434222454
 20
341.07774525188
 30
0.0
 11
154.5077591838949
 21
341.07774525188
 31
0.0
  0
LINE
  5
1067
330
231
100
AcDbEntity
  8
51001-1_DXF_CONTINUOUS_LINE
  6
Continuous
 62
     7
420
 16777215
100
AcDbLine
 10
162.9056749455453
 20
342.57774525188
 30
0.0
 11
158.1098434222454
 21
342.57774525188
 31
0.0
  0
LINE
  5
1068
102
{ACAD_REACTORS
330
1791
102
}
330
231
100
AcDbEntity
  8
51001-1_DXF_CONTINUOUS_LINE
  6
Continuous
 62
     7
420
 16777215
100
AcDbLine
 10
148.5077591838949
 20
344.07774525188
 30
0.0
 11
260.0077591838949
 21
344.07774525188
 31
0.0
  0
LINE
  5
1069
330
231
100
AcDbEntity
  8
51001-1_DXF_CONTINUOUS_LINE
  6
Continuous
 62
     7
420
 16777215
100
AcDbLine
 10
148.5077591838949
 20
354.07774525188
 30
0.0
 11
281.0077591838949
 21
354.07774525188
 31
0.0
  0
ARC
  5
106A
330
231
100
AcDbEntity
  8
51001-1_DXF_CONTINUOUS_LINE
  6
Continuous
 62
     7
420
 16777215
100
AcDbCircle
 10
414.2842791143998
 20
289.82774525188
 30
0.0
 40
18.5
100
AcDbArc
 50
85.39152784822494
 51
90.0
  0
ARC
  5
106B
330
231
100
AcDbEntity
  8
51001-1_DXF_CONTINUOUS_LINE
  6
Continuous
 62
     7
420
 16777215
100
AcDbCircle
 10
414.2842791143998
 20
307.32774525188
 30
0.0
 40
18.5
100
AcDbArc
 50
270.0
 51
287.6997737406828
  0
ARC
  5
106C
330
231
100
AcDbEntity
  8
51001-1_DXF_CONTINUOUS_LINE
  6
Continuous
 62
     7
420
 16777215
100
AcDbCircle
 10
360.0342791143999
 20
126.3793787455139
 30
0.0
 40
0.75
100
AcDbArc
 50
90.0
 51
180.0
  0
ARC
  5
106D
330
231
100
AcDbEntity
  8
51001-1_DXF_CONTINUOUS_LINE
  6
Continuous
 62
     7
420
 16777215
100
AcDbCircle
 10
433.5342791143999
 20
126.3793787455139
 30
0.0
 40
0.75
100
AcDbArc
 50
0.0
 51
90.0
  0
ARC
  5
106E
330
231
100
AcDbEntity
  8
51001-1_DXF_CONTINUOUS_LINE
  6
Continuous
 62
     7
420
 16777215
100
AcDbCircle
 10
233.7577591838949
 20
126.3793787455139
 30
0.0
 40
0.75
100
AcDbArc
 50
90.0
 51
180.0
  0
ARC
  5
106F
330
231
100
AcDbEntity
  8
51001-1_DXF_CONTINUOUS_LINE
  6
Continuous
 62
     7
420
 16777215
100
AcDbCircle
 10
307.2577591838949
 20
126.3793787455139
 30
0.0
 40
0.75
100
AcDbArc
 50
0.0
 51
90.0
  0
SPLINE
  5
107A
330
231
100
AcDbEntity
  8
51001-1_DXF_CONTINUOUS_LINE
  6
Continuous
 62
     7
420
 16777215
100
AcDbSpline
210
0.0
220
0.0
230
1.0
 70
     8
 71
     3
 72
     8
 73
     4
 74
     0
 42
0.000000001
 43
0.0000000001
 40
0.0
 40
0.0
 40
0.0
 40
0.0
 40
1.0
 40
1.0
 40
1.0
 40
1.0
 10
158.1098434222454
 20
341.07774525188
 30
0.0
 10
158.8680322505447
 20
340.77473309493
 30
0.0
 10
159.6912626029448
 20
340.5777452518799
 30
0.0
 10
160.5077591838949
 20
340.5777452518799
 30
0.0
  0
SPLINE
  5
107B
330
231
100
AcDbEntity
  8
51001-1_DXF_CONTINUOUS_LINE
  6
Continuous
 62
     7
420
 16777215
100
AcDbSpline
210
0.0
220
0.0
230
1.0
 70
     8
 71
     3
 72
     8
 73
     4
 74
     0
 42
0.000000001
 43
0.0000000001
 40
0.0
 40
0.0
 40
0.0
 40
0.0
 40
1.0
 40
1.0
 40
1.0
 40
1.0
 10
160.5077591838949
 20
340.5777452518799
 30
0.0
 10
161.324255764845
 20
340.5777452518799
 30
0.0
 10
162.147486117245
 20
340.77473309493
 30
0.0
 10
162.9056749455453
 20
341.07774525188
 30
0.0
  0
DIMENSION
  5
1080
330
231
100
AcDbEntity
  8
尺寸线
 62
     7
420
 16777215
 48
0.5
370
    13
100
AcDbDimension
280
     0
  2
*D16
 10
270.5077591838949
 20
317.9594581053641
 30
0.0
 11
214.7577591838949
 21
317.9594581053641
 31
0.0
 70
   160
  1
{\fFangSong|b0|i0|c134|p49;\C0;220}
 71
     5
 42
110.0
 73
     0
 74
     0
 75
     0
  3
STANDARD
100
AcDbAlignedDimension
 13
160.5077591838949
 23
340.57774525188
 33
0.0
 14
270.5077591838949
 24
317.9594581053641
 34
0.0
100
AcDbRotatedDimension
  0
LINE
  5
1081
330
231
100
AcDbEntity
  8
0
  6
Continuous
 62
     7
420
 16777215
100
AcDbLine
 10
420.725204793101
 20
287.95274525188
 30
0.0
 11
431.7706859252012
 21
287.95274525188
 31
0.0
  0
LINE
  5
1082
330
231
100
AcDbEntity
  8
0
  6
Continuous
 62
     7
420
 16777215
100
AcDbLine
 10
415.7706859252011
 20
309.20274525188
 30
0.0
 11
427.296874550901
 21
309.20274525188
 31
0.0
  0
LINE
  5
1083
330
231
100
AcDbEntity
  8
0
  6
Continuous
 62
     7
420
 16777215
100
AcDbLine
 10
425.7706859252011
 20
309.44226507898
 30
0.0
 11
421.2706859252011
 21
309.44226507898
 31
0.0
  0
LINE
  5
1084
330
231
100
AcDbEntity
  8
0
  6
Continuous
 62
     7
420
 16777215
100
AcDbLine
 10
425.6640914370011
 20
309.5858476738301
 30
0.0
 11
421.3772804134012
 21
309.5858476738301
 31
0.0
  0
LINE
  5
1085
330
231
100
AcDbEntity
  8
0
  6
Continuous
 62
     7
420
 16777215
100
AcDbLine
 10
415.7706859252011
 20
298.57774525188
 30
0.0
 11
420.725204793101
 21
287.95274525188
 31
0.0
  0
LINE
  5
1087
330
231
100
AcDbEntity
  8
0
  6
Continuous
 62
     7
420
 16777215
100
AcDbLine
 10
415.7706859252011
 20
298.57774525188
 30
0.0
 11
415.7706859252011
 21
309.20274525188
 31
0.0
  0
LINE
  5
1088
330
231
100
AcDbEntity
  8
0
  6
Continuous
 62
     7
420
 16777215
100
AcDbLine
 10
421.2706859252011
 20
309.20274525188
 30
0.0
 11
421.2706859252011
 21
309.44226507898
 31
0.0
  0
LINE
  5
1089
330
231
100
AcDbEntity
  8
0
  6
Continuous
 62
     7
420
 16777215
100
AcDbLine
 10
425.7706859252011
 20
309.20274525188
 30
0.0
 11
425.7706859252011
 21
309.44226507898
 31
0.0
  0
LINE
  5
108A
330
231
100
AcDbEntity
  8
0
  6
Continuous
 62
     7
420
 16777215
100
AcDbLine
 10
429.8535594016096
 20
343.07774525188
 30
0.0
 11
429.2965699412511
 21
311.16784043898
 31
0.0
  0
LINE
  5
108B
102
{ACAD_REACTORS
330
1701
102
}
330
231
100
AcDbEntity
  8
0
  6
Continuous
 62
     7
420
 16777215
100
AcDbLine
 10
431.7706859252012
 20
343.07774525188
 30
0.0
 11
431.7706859252012
 21
287.95274525188
 31
0.0
  0
ARC
  5
108C
330
231
100
AcDbEntity
  8
0
  6
Continuous
 62
     7
420
 16777215
100
AcDbCircle
 10
423.5206859252011
 20
302.4956023947301
 30
0.0
 40
7.40714285715
100
AcDbArc
 50
73.17975268059534
 51
106.8202473194046
  0
ARC
  5
108D
330
231
100
AcDbEntity
  8
0
  6
Continuous
 62
     7
420
 16777215
100
AcDbCircle
 10
427.296874550901
 20
311.20274525188
 30
0.0
 40
2.0
100
AcDbArc
 50
270.0
 51
358.9999999992035
  0
ARC
  5
108E
330
231
100
AcDbEntity
  8
0
  6
Continuous
 62
     7
420
 16777215
100
AcDbCircle
 10
425.620685925201
 20
309.44226507898
 30
0.0
 40
0.15
100
AcDbArc
 50
0.0
 51
73.17975268070425
  0
ARC
  5
108F
330
231
100
AcDbEntity
  8
0
  6
Continuous
 62
     7
420
 16777215
100
AcDbCircle
 10
421.4206859252012
 20
309.44226507898
 30
0.0
 40
0.15
100
AcDbArc
 50
106.8202473192957
 51
180.0
  0
SPLINE
  5
10A5
330
231
100
AcDbEntity
  8
0
 62
     7
420
 16777215
100
AcDbSpline
210
0.0
220
0.0
230
1.0
 70
     8
 71
     3
 72
    11
 73
     7
 74
     0
 42
0.000000001
 43
0.0000000001
 40
5.190964555567305
 40
5.190964555567305
 40
5.190964555567305
 40
5.190964555567305
 40
7.402994948308532
 40
13.96671244813711
 40
21.01506230205695
 40
26.58352783377898
 40
26.58352783377898
 40
26.58352783377898
 40
26.58352783377898
 10
260.0077591838949
 20
228.5275854482573
 30
0.0
 10
260.7438980925571
 20
228.5954985314648
 30
0.0
 10
263.6684676522514
 20
228.9375797549586
 30
0.0
 10
268.9837601589506
 20
230.2955953587472
 30
0.0
 10
275.0079169642851
 20
226.9881909174781
 30
0.0
 10
279.1590220434894
 20
227.2988998977281
 30
0.0
 10
281.0077591838951
 20
228.5275854482573
 30
0.0
  0
SPLINE
  5
10A6
330
231
100
AcDbEntity
  8
0
 62
     7
420
 16777215
100
AcDbSpline
210
0.0
220
0.0
230
1.0
 70
     8
 71
     3
 72
    40
 73
    36
 74
     0
 42
0.000000001
 43
0.0000000001
 40
4.77502715654476
 40
4.77502715654476
 40
4.77502715654476
 40
4.77502715654476
 40
6.736273188201895
 40
6.736273188201895
 40
7.500622046564002
 40
7.500622046564002
 40
8.264970904926109
 40
8.264970904926109
 40
9.793668621650322
 40
9.793668621650322
 40
11.90738940540108
 40
11.90738940540108
 40
13.12993673529806
 40
13.12993673529806
 40
13.74686739318378
 40
13.74686739318378
 40
14.24008639313588
 40
14.24008639313588
 40
14.73330539308798
 40
14.73330539308798
 40
15.71974339299217
 40
15.71974339299217
 40
17.65931814319527
 40
17.65931814319527
 40
19.59889289339838
 40
19.59889289339838
 40
20.47419887108043
 40
20.47419887108043
 40
21.49704053001417
 40
21.49704053001417
 40
22.51988218894791
 40
22.51988218894791
 40
24.56556550681538
 40
24.56556550681538
 40
25.80286575203511
 40
25.80286575203511
 40
25.80286575203511
 40
25.80286575203511
 10
260.0077591838951
 20
222.9311423637562
 30
0.0
 10
260.7267704593981
 20
222.9910416947109
 30
0.0
 10
261.4597675908179
 20
223.0666096340473
 30
0.0
 10
262.4968123511097
 20
223.2033845304534
 30
0.0
 10
262.7921733473455
 20
223.2456432079905
 30
0.0
 10
263.3753608200316
 20
223.3360842361902
 30
0.0
 10
263.6566059130985
 20
223.3829575622212
 30
0.0
 10
264.4697795227986
 20
223.5222135628059
 30
0.0
 10
264.9714148023235
 20
223.6128927728431
 30
0.0
 10
266.0662773773558
 20
223.7937995972557
 30
0.0
 10
266.6207964024634
 20
223.8692187298597
 30
0.0
 10
267.3481212497455
 20
223.9213879689234
 30
0.0
 10
267.5830116052774
 20
223.926873342953
 30
0.0
 10
267.8888673981415
 20
223.9179618465592
 30
0.0
 10
267.9834617616809
 20
223.9121274065441
 30
0.0
 10
268.1404368821754
 20
223.8974211595075
 30
0.0
 10
268.2035557383878
 20
223.8897340525109
 30
0.0
 10
268.3487213459706
 20
223.8679423479659
 30
0.0
 10
268.4276095083764
 20
223.8541187159515
 30
0.0
 10
268.6832290049447
 20
223.8027695202507
 30
0.0
 10
268.8789660710607
 20
223.7551792940803
 30
0.0
 10
269.530029902317
 20
223.5723223989236
 30
0.0
 10
270.0519618072064
 20
223.395210181373
 30
0.0
 10
271.2584646549316
 20
222.9718637608341
 30
0.0
 10
271.9428145727336
 20
222.7258152877909
 30
0.0
 10
273.0710444197796
 20
222.3845786894118
 30
0.0
 10
273.4411409660307
 20
222.2810100479577
 30
0.0
 10
274.2895934974846
 20
222.075517852805
 30
0.0
 10
274.785582193817
 20
221.9769251950602
 30
0.0
 10
275.7545004705461
 20
221.8342310685626
 30
0.0
 10
276.2340184063449
 20
221.7866792815795
 30
0.0
 10
277.6512324764772
 20
221.7048236022232
 30
0.0
 10
278.5668103078994
 20
221.7310314718005
 30
0.0
 10
279.9799105391699
 20
221.8564308295564
 30
0.0
 10
280.499883512254
 20
221.9226167343526
 30
0.0
 10
281.0077591838951
 20
222.0024920760821
 30
0.0
  0
SPLINE
  5
10AF
330
231
100
AcDbEntity
  8
0
 62
     7
420
 16777215
100
AcDbSpline
210
0.0
220
0.0
230
1.0
 70
     8
 71
     3
 72
    11
 73
     7
 74
     0
 42
0.000000001
 43
0.0000000001
 40
5.50641180626104
 40
5.50641180626104
 40
5.50641180626104
 40
5.50641180626104
 40
7.402994948308532
 40
13.96671244813711
 40
21.01506230205695
 40
26.8996302066839
 40
26.8996302066839
 40
26.8996302066839
 40
26.8996302066839
 10
386.2842791143995
 20
228.4892868546653
 30
0.0
 10
386.915701053965
 20
228.552129341807
 30
0.0
 10
389.735949642134
 20
228.8961585243747
 30
0.0
 10
394.9452838544183
 20
230.2271026138516
 30
0.0
 10
401.0687210224148
 20
226.8651909074151
 30
0.0
 10
405.3286680562965
 20
227.2475368536511
 30
0.0
 10
407.2842791143997
 20
228.5275854482573
 30
0.0
  0
SPLINE
  5
10B0
330
231
100
AcDbEntity
  8
0
 62
     7
420
 16777215
100
AcDbSpline
210
0.0
220
0.0
230
1.0
 70
     8
 71
     3
 72
    40
 73
    36
 74
     0
 42
0.000000001
 43
0.0000000001
 40
5.060625250208424
 40
5.060625250208424
 40
5.060625250208424
 40
5.060625250208424
 40
6.736273188201895
 40
6.736273188201895
 40
7.500622046564002
 40
7.500622046564002
 40
8.264970904926109
 40
8.264970904926109
 40
9.793668621650322
 40
9.793668621650322
 40
11.90738940540108
 40
11.90738940540108
 40
13.12993673529806
 40
13.12993673529806
 40
13.74686739318378
 40
13.74686739318378
 40
14.24008639313588
 40
14.24008639313588
 40
14.73330539308798
 40
14.73330539308798
 40
15.71974339299217
 40
15.71974339299217
 40
17.65931814319527
 40
17.65931814319527
 40
19.59889289339838
 40
19.59889289339838
 40
20.47419887108043
 40
20.47419887108043
 40
21.49704053001417
 40
21.49704053001417
 40
22.51988218894791
 40
22.51988218894791
 40
24.56556550681538
 40
24.56556550681538
 40
26.05993503214102
 40
26.05993503214102
 40
26.05993503214102
 40
26.05993503214102
 10
386.2842791143945
 20
222.8898363281834
 30
0.0
 10
386.9020537674698
 20
222.9450420252395
 30
0.0
 10
387.5299567404469
 20
223.0124486777156
 30
0.0
 10
388.4583360465775
 20
223.1348917855578
 30
0.0
 10
388.7536970428133
 20
223.1771504630949
 30
0.0
 10
389.3368845154995
 20
223.2675914912946
 30
0.0
 10
389.6181296085663
 20
223.3144648173256
 30
0.0
 10
390.4313032182664
 20
223.4537208179103
 30
0.0
 10
390.9329384977913
 20
223.5444000279475
 30
0.0
 10
392.0278010728236
 20
223.7253068523601
 30
0.0
 10
392.5823200979312
 20
223.8007259849641
 30
0.0
 10
393.3096449452134
 20
223.8528952240278
 30
0.0
 10
393.5445353007452
 20
223.8583805980574
 30
0.0
 10
393.8503910936093
 20
223.8494691016637
 30
0.0
 10
393.9449854571487
 20
223.8436346616485
 30
0.0
 10
394.1019605776432
 20
223.8289284146119
 30
0.0
 10
394.1650794338556
 20
223.8212413076153
 30
0.0
 10
394.3102450414384
 20
223.7994496030704
 30
0.0
 10
394.3891332038443
 20
223.785625971056
 30
0.0
 10
394.6447527004125
 20
223.7342767753551
 30
0.0
 10
394.8404897665286
 20
223.6866865491847
 30
0.0
 10
395.4915535977848
 20
223.503829654028
 30
0.0
 10
396.0134855026741
 20
223.3267174364774
 30
0.0
 10
397.2199883503994
 20
222.9033710159385
 30
0.0
 10
397.9043382682014
 20
222.6573225428953
 30
0.0
 10
399.0325681152474
 20
222.3160859445162
 30
0.0
 10
399.4026646614985
 20
222.2125173030621
 30
0.0
 10
400.2511171929524
 20
222.0070251079094
 30
0.0
 10
400.7471058892847
 20
221.9084324501646
 30
0.0
 10
401.7160241660139
 20
221.765738323667
 30
0.0
 10
402.1955421018127
 20
221.7181865366839
 30
0.0
 10
403.612756171945
 20
221.6363308573277
 30
0.0
 10
404.5283340033671
 20
221.6625387269049
 30
0.0
 10
406.0520850046429
 20
221.7977573000192
 30
0.0
 10
406.676929003026
 20
221.8824433228982
 30
0.0
 10
407.2842791143999
 20
221.985511373911
 30
0.0
  0
LINE
  5
10B2
330
231
100
AcDbEntity
  8
0
  6
CENTER
 62
     7
420
 16777215
100
AcDbLine
 10
396.7842791143998
 20
82.85461849960972
 30
0.0
 11
396.7842791143998
 21
362.2233317822589
 31
0.0
  0
LINE
  5
11D5
330
231
100
AcDbEntity
  8
0
  6
CENTER
 62
     7
420
 16777215
100
AcDbLine
 10
270.5077591838949
 20
359.3730059041271
 30
0.0
 11
270.507759183895
 21
83.56828104943804
 31
0.0
  0
DIMENSION
  5
147A
102
{ACAD_XDICTIONARY
360
1488
102
}
102
{ACAD_REACTORS
330
1493
102
}
330
231
100
AcDbEntity
  8
0
 62
     7
420
 16777215
100
AcDbDimension
280
     0
  2
*D20
 10
281.007759183895
 20
172.6486714999124
 30
0.0
 11
303.2079567572723
 21
172.6486714999124
 31
0.0
 70
   160
  1
{\fFangSong|b0|i0|c134|p49;\C256;42}
 71
     5
 42
21.0
 73
     0
 74
     0
 75
     0
  3
A
100
AcDbAlignedDimension
 13
260.007759183895
 23
169.4947889756587
 33
0.0
 14
281.007759183895
 24
169.4947889756587
 34
0.0
100
AcDbRotatedDimension
  0
DIMENSION
  5
1509
102
{ACAD_XDICTIONARY
360
1517
102
}
102
{ACAD_REACTORS
330
1522
102
}
330
231
100
AcDbEntity
  8
0
 62
     7
420
 16777215
100
AcDbDimension
280
     0
  2
*D21
 10
308.0077591838949
 20
142.6520004709006
 30
0.0
 11
332.9326877325166
 21
142.6520004709006
 31
0.0
 70
   160
  1
{\fFangSong|b0|i0|c134|p49;\C256;152X152}
 71
     5
 42
75.0
 73
     0
 74
     0
 75
     0
  3
A
100
AcDbAlignedDimension
 13
233.0077591838949
 23
120.629378745514
 33
0.0
 14
308.0077591838949
 24
120.629378745514
 34
0.0
100
AcDbRotatedDimension
  0
DIMENSION
  5
153E
102
{ACAD_XDICTIONARY
360
154D
102
}
102
{ACAD_REACTORS
330
1559
102
}
330
231
100
AcDbEntity
  8
0
 62
     7
420
 16777215
100
AcDbDimension
280
     0
  2
*D22
 10
213.990761166016
 20
127.129378745514
 30
0.0
 11
213.990761166016
 21
142.2322358883711
 31
0.0
 70
   160
  1
{\fFangSong|b0|i0|c134|p49;\C256;13}
 71
     5
 42
6.5
 73
     0
 74
     0
 75
     0
  3
A
100
AcDbAlignedDimension
 13
233.0077591838949
 23
120.629378745514
 33
0.0
 14
239.8810140244236
 24
127.1293787455139
 34
0.0
 50
90.0
100
AcDbRotatedDimension
  0
LINE
  5
168A
330
231
100
AcDbEntity
  8
202016730226_左边_4_BL18
  6
Continuous
 62
     7
420
 16777215
370
    30
100
AcDbLine
 10
260.6327591838949
 20
288.0777452518799
 30
0.0
 11
280.3827591838949
 21
288.0777452518799
 31
0.0
  0
LINE
  5
168B
330
231
100
AcDbEntity
  8
202016730226_左边_4_BL18
  6
Continuous
 62
     7
420
 16777215
370
    30
100
AcDbLine
 10
260.6327591838949
 20
288.5777452518799
 30
0.0
 11
280.3827591838949
 21
288.5777452518799
 31
0.0
  0
LINE
  5
168C
330
231
100
AcDbEntity
  8
202016730226_左边_4_BL18
  6
Continuous
 62
     7
420
 16777215
370
    30
100
AcDbLine
 10
280.6327591838949
 20
288.8277452518799
 30
0.0
 11
281.1327591838949
 21
288.8277452518799
 31
0.0
  0
LINE
  5
168D
330
231
100
AcDbEntity
  8
202016730226_左边_4_BL18
  6
Continuous
 62
     7
420
 16777215
370
    30
100
AcDbLine
 10
260.3827591838949
 20
288.8277452518799
 30
0.0
 11
259.8827591838949
 21
288.8277452484799
 31
0.0
  0
LINE
  5
168E
330
231
100
AcDbEntity
  8
202016730226_左边_4_BL18
  6
Continuous
 62
     7
420
 16777215
370
    30
100
AcDbLine
 10
281.1327591838949
 20
288.8277452518799
 30
0.0
 11
281.1327591838949
 21
342.3277452518799
 31
0.0
  0
LINE
  5
168F
330
231
100
AcDbEntity
  8
202016730226_左边_4_BL18
  6
Continuous
 62
     7
420
 16777215
370
    30
100
AcDbLine
 10
280.6327591838949
 20
288.8277452518799
 30
0.0
 11
280.6327591838949
 21
342.3277452518799
 31
0.0
  0
LINE
  5
1690
330
231
100
AcDbEntity
  8
202016730226_左边_4_BL18
  6
Continuous
 62
     7
420
 16777215
370
    30
100
AcDbLine
 10
280.3827591838949
 20
342.5777452518799
 30
0.0
 11
280.3827591838949
 21
343.07774525188
 31
0.0
  0
LINE
  5
1691
330
231
100
AcDbEntity
  8
202016730226_左边_4_BL18
  6
Continuous
 62
     7
420
 16777215
370
    30
100
AcDbLine
 10
280.3827591838949
 20
288.5777452518799
 30
0.0
 11
280.3827591872948
 21
288.0777452518799
 31
0.0
  0
LINE
  5
1692
330
231
100
AcDbEntity
  8
202016730226_左边_4_BL18
  6
Continuous
 62
     7
420
 16777215
370
    30
100
AcDbLine
 10
260.6327591838949
 20
288.5777452518799
 30
0.0
 11
260.6327591838949
 21
288.0777452518799
 31
0.0
  0
LINE
  5
1693
330
231
100
AcDbEntity
  8
202016730226_左边_4_BL18
  6
Continuous
 62
     7
420
 16777215
370
    30
100
AcDbLine
 10
260.6327591838949
 20
342.5777452518799
 30
0.0
 11
260.6327591804949
 21
343.07774525188
 31
0.0
  0
LINE
  5
1694
330
231
100
AcDbEntity
  8
202016730226_左边_4_BL18
  6
Continuous
 62
     7
420
 16777215
370
    30
100
AcDbLine
 10
260.3827591838949
 20
342.3277452518799
 30
0.0
 11
260.3827591838949
 21
288.8277452518799
 31
0.0
  0
LINE
  5
1695
330
231
100
AcDbEntity
  8
202016730226_左边_4_BL18
  6
Continuous
 62
     7
420
 16777215
370
    30
100
AcDbLine
 10
259.8827591838949
 20
342.3277452518799
 30
0.0
 11
259.8827591838949
 21
288.8277452518799
 31
0.0
  0
LINE
  5
1696
330
231
100
AcDbEntity
  8
202016730226_左边_4_BL18
  6
Continuous
 62
     7
420
 16777215
370
    30
100
AcDbLine
 10
280.6327591838949
 20
342.3277452518799
 30
0.0
 11
281.1327591838949
 21
342.3277452552799
 31
0.0
  0
LINE
  5
1697
330
231
100
AcDbEntity
  8
202016730226_左边_4_BL18
  6
Continuous
 62
     7
420
 16777215
370
    30
100
AcDbLine
 10
260.3827591838949
 20
342.3277452518799
 30
0.0
 11
259.8827591838949
 21
342.3277452518799
 31
0.0
  0
LINE
  5
1698
330
231
100
AcDbEntity
  8
202016730226_左边_4_BL18
  6
Continuous
 62
     7
420
 16777215
370
    30
100
AcDbLine
 10
280.3827591838949
 20
342.5777452518799
 30
0.0
 11
260.6327591838949
 21
342.5777452518799
 31
0.0
  0
LINE
  5
1699
330
231
100
AcDbEntity
  8
202016730226_左边_4_BL18
  6
Continuous
 62
     7
420
 16777215
370
    30
100
AcDbLine
 10
280.3827591838949
 20
343.07774525188
 30
0.0
 11
260.6327591838949
 21
343.07774525188
 31
0.0
  0
ARC
  5
169A
330
231
100
AcDbEntity
  8
202016730226_左边_4_BL18
  6
Continuous
 62
     7
420
 16777215
370
    30
100
AcDbCircle
 10
280.3827591838949
 20
342.3277452518799
 30
0.0
 40
0.75
100
AcDbArc
 50
0.0
 51
90.0
  0
ARC
  5
169B
330
231
100
AcDbEntity
  8
202016730226_左边_4_BL18
  6
Continuous
 62
     7
420
 16777215
370
    30
100
AcDbCircle
 10
260.6327591838949
 20
342.3277452518799
 30
0.0
 40
0.75
100
AcDbArc
 50
90.0
 51
180.0
  0
ARC
  5
169C
330
231
100
AcDbEntity
  8
202016730226_左边_4_BL18
  6
Continuous
 62
     7
420
 16777215
370
    30
100
AcDbCircle
 10
280.3827591838949
 20
288.8277452518799
 30
0.0
 40
0.75
100
AcDbArc
 50
270.0
 51
0.0
  0
ARC
  5
169D
330
231
100
AcDbEntity
  8
202016730226_左边_4_BL18
  6
Continuous
 62
     7
420
 16777215
370
    30
100
AcDbCircle
 10
260.6327591838949
 20
288.8277452518799
 30
0.0
 40
0.75
100
AcDbArc
 50
180.0
 51
270.0
  0
ARC
  5
169E
330
231
100
AcDbEntity
  8
202016730226_左边_4_BL18
  6
Continuous
 62
     7
420
 16777215
370
    30
100
AcDbCircle
 10
280.3827591838949
 20
342.3277452518799
 30
0.0
 40
0.25
100
AcDbArc
 50
0.0
 51
90.0
  0
ARC
  5
169F
330
231
100
AcDbEntity
  8
202016730226_左边_4_BL18
  6
Continuous
 62
     7
420
 16777215
370
    30
100
AcDbCircle
 10
280.3827591838949
 20
288.8277452518799
 30
0.0
 40
0.25
100
AcDbArc
 50
270.0
 51
0.0
  0
ARC
  5
16A0
330
231
100
AcDbEntity
  8
202016730226_左边_4_BL18
  6
Continuous
 62
     7
420
 16777215
370
    30
100
AcDbCircle
 10
260.6327591838949
 20
288.8277452518799
 30
0.0
 40
0.25
100
AcDbArc
 50
180.0
 51
270.0
  0
ARC
  5
16A1
330
231
100
AcDbEntity
  8
202016730226_左边_4_BL18
  6
Continuous
 62
     7
420
 16777215
370
    30
100
AcDbCircle
 10
260.6327591838949
 20
342.3277452518799
 30
0.0
 40
0.25
100
AcDbArc
 50
90.0
 51
180.0
  0
LINE
  5
16A6
330
231
100
AcDbEntity
  8
206025831626_左边_4_BL3
  6
Continuous
 62
     7
420
 16777215
370
    30
100
AcDbLine
 10
259.8077591838948
 20
287.8777452518799
 30
0.0
 11
281.2077591838948
 21
287.8777452518799
 31
0.0
  0
LINE
  5
16AB
330
231
100
AcDbEntity
  8
206025831626_左边_4_BL3
  6
Continuous
 62
     7
420
 16777215
370
    30
100
AcDbLine
 10
281.2077591838948
 20
287.8777452518799
 30
0.0
 11
281.2077591838948
 21
309.2777452518799
 31
0.0
  0
LINE
  5
16AC
330
231
100
AcDbEntity
  8
206025831626_左边_4_BL3
  6
Continuous
 62
     7
420
 16777215
370
    30
100
AcDbLine
 10
281.2077591838948
 20
309.2777452518799
 30
0.0
 11
281.1327591838949
 21
309.2777452518799
 31
0.0
  0
LINE
  5
16AD
330
231
100
AcDbEntity
  8
206025831626_左边_4_BL3
  6
Continuous
 62
     7
420
 16777215
370
    30
100
AcDbLine
 10
259.8827591838949
 20
309.2777452518799
 30
0.0
 11
259.8077591838948
 21
309.2777452518799
 31
0.0
  0
LINE
  5
16B4
330
231
100
AcDbEntity
  8
206025831626_左边_4_BL3
  6
Continuous
 62
     7
420
 16777215
370
    30
100
AcDbLine
 10
259.8077591838948
 20
309.2777452518799
 30
0.0
 11
259.8077591838948
 21
287.8777452518799
 31
0.0
  0
MTEXT
  5
16C3
330
231
100
AcDbEntity
  8
DIMENSION
 62
     7
420
 16777215
100
AcDbMText
 10
277.6276621213886
 20
299.5830505035078
 30
0.0
 40
2.0
 41
1.849306035732979
 46
0.0
 71
     1
 72
     5
  1
{\fArial|b0|i0|c0|p34;C}
 73
     1
 44
1.0
  0
MTEXT
  5
16C4
330
231
100
AcDbEntity
  8
DIMENSION
 62
     7
420
 16777215
100
AcDbMText
 10
261.7042274767614
 20
299.5285405424109
 30
0.0
 40
2.0
 41
1.870249314510829
 46
0.0
 71
     1
 72
     5
  1
{\fArial|b0|i0|c0|p34;H}
 73
     1
 44
1.0
  0
CIRCLE
  5
16C5
330
231
100
AcDbEntity
  8
0
 62
     7
420
 16777215
100
AcDbCircle
 10
270.5077591838949
 20
298.5777452518801
 30
0.0
 40
12.70779340406338
  0
LINE
  5
16C8
330
231
100
AcDbEntity
  8
202016730226_左边_4_BL18
  6
DASHED
 62
     7
420
 16777215
370
     9
100
AcDbLine
 10
270.9497009221362
 20
284.1704445852042
 30
0.0
 11
284.9150598505705
 21
298.1358035136384
 31
0.0
  0
LINE
  5
16C9
330
231
100
AcDbEntity
  8
202016730226_左边_4_BL18
  6
DASHED
 62
     7
420
 16777215
370
     9
100
AcDbLine
 10
284.9150598505705
 20
299.1964636854182
 30
0.0
 11
247.0848470570902
 21
337.0266764788985
 31
0.0
  0
LINE
  5
16CA
330
231
100
AcDbEntity
  8
202016730226_左边_4_BL18
  6
DASHED
 62
     7
420
 16777215
370
     9
100
AcDbLine
 10
232.0588279568761
 20
322.0006573786845
 30
0.0
 11
269.8890407503565
 21
284.1704445852042
 31
0.0
  0
LINE
  5
16CB
330
231
100
AcDbEntity
  8
202016730226_左边_4_BL18
  6
DASHED
 62
     7
420
 16777215
370
     9
100
AcDbLine
 10
246.0241868853104
 20
337.0266764788985
 30
0.0
 11
232.0588279568761
 21
323.0613175504641
 31
0.0
  0
ARC
  5
16CC
330
231
100
AcDbEntity
  8
202016730226_左边_4_BL18
  6
DASHED
 62
     7
420
 16777215
370
     9
100
AcDbCircle
 10
246.5545169712003
 20
336.4963463930087
 30
0.0
 40
0.75
100
AcDbArc
 50
44.99999999999055
 51
135.0000000000094
  0
ARC
  5
16CD
330
231
100
AcDbEntity
  8
202016730226_左边_4_BL18
  6
DASHED
 62
     7
420
 16777215
370
     9
100
AcDbCircle
 10
232.5891580427659
 20
322.5309874645743
 30
0.0
 40
0.75
100
AcDbArc
 50
135.0000000000094
 51
224.9999999999906
  0
ARC
  5
16CE
330
231
100
AcDbEntity
  8
202016730226_左边_4_BL18
  6
DASHED
 62
     7
420
 16777215
370
     9
100
AcDbCircle
 10
284.3847297646806
 20
298.6661335995284
 30
0.0
 40
0.75
100
AcDbArc
 50
315.0000000000094
 51
44.99999999999055
  0
ARC
  5
16CF
330
231
100
AcDbEntity
  8
202016730226_左边_4_BL18
  6
DASHED
 62
     7
420
 16777215
370
     9
100
AcDbCircle
 10
270.4193708362462
 20
284.700774671094
 30
0.0
 40
0.75
100
AcDbArc
 50
224.9999999999906
 51
315.0000000000094
  0
LINE
  5
16D0
330
231
100
AcDbEntity
  8
202016730226_左边_4_BL18
  6
DASHED
 62
     7
420
 16777215
370
     9
100
AcDbLine
 10
256.1004585172188
 20
298.1358035136386
 30
0.0
 11
270.0658174456531
 21
284.1704445852045
 31
0.0
  0
LINE
  5
16D1
330
231
100
AcDbEntity
  8
202016730226_左边_4_BL18
  6
DASHED
 62
     7
420
 16777215
370
     9
100
AcDbLine
 10
271.126477617433
 20
284.1704445852045
 30
0.0
 11
308.9566904109133
 21
322.0006573786847
 31
0.0
  0
LINE
  5
16D2
330
231
100
AcDbEntity
  8
202016730226_左边_4_BL18
  6
DASHED
 62
     7
420
 16777215
370
     9
100
AcDbLine
 10
293.9306713106991
 20
337.0266764788987
 30
0.0
 11
256.1004585172188
 21
299.1964636854184
 31
0.0
  0
LINE
  5
16D3
330
231
100
AcDbEntity
  8
202016730226_左边_4_BL18
  6
DASHED
 62
     7
420
 16777215
370
     9
100
AcDbLine
 10
308.9566904109132
 20
323.0613175504643
 30
0.0
 11
294.9913314824789
 21
337.0266764788987
 31
0.0
  0
ARC
  5
16D4
330
231
100
AcDbEntity
  8
202016730226_左边_4_BL18
  6
DASHED
 62
     7
420
 16777215
370
     9
100
AcDbCircle
 10
308.4263603250235
 20
322.5309874645743
 30
0.0
 40
0.75
100
AcDbArc
 50
315.0000000000094
 51
44.99999999999055
  0
ARC
  5
16D5
330
231
100
AcDbEntity
  8
202016730226_左边_4_BL18
  6
DASHED
 62
     7
420
 16777215
370
     9
100
AcDbCircle
 10
294.4610013965892
 20
336.4963463930087
 30
0.0
 40
0.75
100
AcDbArc
 50
44.99999999999055
 51
135.0000000000094
  0
ARC
  5
16D6
330
231
100
AcDbEntity
  8
202016730226_左边_4_BL18
  6
DASHED
 62
     7
420
 16777215
370
     9
100
AcDbCircle
 10
270.596147531543
 20
284.7007746710943
 30
0.0
 40
0.75
100
AcDbArc
 50
224.9999999999906
 51
315.0000000000094
  0
ARC
  5
16D7
330
231
100
AcDbEntity
  8
202016730226_左边_4_BL18
  6
DASHED
 62
     7
420
 16777215
370
     9
100
AcDbCircle
 10
256.6307886031087
 20
298.6661335995284
 30
0.0
 40
0.75
100
AcDbArc
 50
135.0000000000094
 51
224.9999999999906
  0
MTEXT
  5
16D8
330
231
100
AcDbEntity
  8
NOTE
  6
Continuous
 62
     7
420
 16777215
370
     0
100
AcDbMText
 10
315.9166992336823
 20
341.8678155800072
 30
0.0
 40
4.0
 41
0.0
 46
0.0
 71
     1
 72
     1
  1
Hot
 73
     1
 44
1.0
  0
MTEXT
  5
16D9
330
231
100
AcDbEntity
  8
NOTE
  6
Continuous
 62
     7
420
 16777215
370
     0
100
AcDbMText
 10
217.1658015403536
 20
339.3358091880781
 30
0.0
 40
4.0
 41
0.0
 46
0.0
 71
     1
 72
     1
  1
Cold
 73
     1
 44
1.0
  0
LEADER
  5
16DA
330
231
100
AcDbEntity
  8
0
 62
     7
420
 16777215
370
    13
100
AcDbLeader
  3
STANDARD
 72
     1
 76
     3
 10
227.0137528611402
 20
329.1093068993275
 30
0.0
 10
232.3936846897998
 20
333.7401169492775
 30
0.0
 10
236.3165822911621
 20
335.6239080587163
 30
0.0
211
-1.0
221
-0.0000000000000142
231
0.0
210
0.0
220
0.0
230
-1.0
213
-0.6086990475735963
223
-1.869865069743136
233
0.0
1001
ACAD
1000
DSTYLE
1002
{
1070
    41
1040
3.0
1070
    42
1040
1.85625
1070
    43
1040
11.286
1070
    44
1040
5.346
1070
    73
1070
     1
1070
    74
1070
     1
1070
    77
1070
     0
1070
    78
1070
     0
1070
   141
1040
2.673
1070
   144
1040
4.0
1070
   147
1040
0.09
1070
   271
1070
     4
1070
   272
1070
     4
1070
   284
1070
     0
1002
}
  0
LEADER
  5
16DB
330
231
100
AcDbEntity
  8
0
 62
     7
420
 16777215
370
    13
100
AcDbLeader
  3
STANDARD
 72
     1
 76
     3
 10
313.0745403241873
 20
333.8672413960371
 30
0.0
 10
307.6946084955269
 20
338.4980514459865
 30
0.0
 10
303.771710894164
 20
340.3818425554243
 30
0.0
211
1.0
221
0.0000000000001548
231
0.0
213
0.6086990475739123
223
-1.869865069743033
233
0.0
1001
ACAD
1000
DSTYLE
1002
{
1070
    41
1040
3.0
1070
   147
1040
0.09
1070
    42
1040
1.85625
1070
    43
1040
11.286
1070
    44
1040
5.346
1070
    73
1070
     1
1070
    74
1070
     1
1070
    77
1070
     0
1070
    78
1070
     0
1070
   141
1040
2.673
1070
   144
1040
4.0
1070
   271
1070
     4
1070
   272
1070
     4
1070
   284
1070
     0
1002
}
  0
LINE
  5
16DD
330
231
100
AcDbEntity
  8
0
 62
     7
420
 16777215
100
AcDbLine
 10
429.8535594016096
 20
343.07774525188
 30
0.0
 11
431.7706859252012
 21
343.07774525188
 31
0.0
  0
DIMENSION
  5
16E8
102
{ACAD_XDICTIONARY
360
16F6
102
}
102
{ACAD_REACTORS
330
1701
102
}
330
231
100
AcDbEntity
  8
0
 62
     7
420
 16777215
100
AcDbDimension
280
     0
  2
*D23
 10
452.2480179828113
 20
287.9527452518801
 30
0.0
 11
452.2480179828112
 21
315.5152452518801
 31
0.0
 70
   160
  1
{\fFangSong|b0|i0|c134|p49;\C256;110}
 71
     5
 42
55.125
 73
     0
 74
     0
 75
     0
  3
A
100
AcDbAlignedDimension
 13
431.7706859252012
 23
343.07774525188
 33
0.0
 14
431.7706859252012
 24
287.95274525188
 34
0.0
 50
90.0
100
AcDbRotatedDimension
  0
DIMENSION
  5
1778
102
{ACAD_XDICTIONARY
360
1786
102
}
102
{ACAD_REACTORS
330
1791
102
}
330
231
100
AcDbEntity
  8
0
 62
     7
420
 16777215
100
AcDbDimension
280
     0
  2
*D24
 10
135.2799699219099
 20
120.629378745514
 30
0.0
 11
135.2799699219099
 21
232.353561998697
 31
0.0
 70
   160
  1
{\fFangSong|b0|i0|c134|p49;\C256;858}
 71
     5
 42
223.4483665063661
 73
     0
 74
     0
 75
     0
  3
A
100
AcDbAlignedDimension
 13
148.5077591838949
 23
344.07774525188
 33
0.0
 14
233.0077591838949
 24
120.629378745514
 34
0.0
 50
90.0
100
AcDbRotatedDimension
  0
LINE
  5
17E7
330
231
100
AcDbEntity
  8
0
  6
Continuous
 62
     7
420
 16777215
100
AcDbLine
 10
242.4912548894449
 20
99.12937874551397
 30
0.0
 11
242.4912548894449
 21
100.629378745514
 31
0.0
  0
LINE
  5
17E8
330
231
100
AcDbEntity
  8
0
  6
Continuous
 62
     7
420
 16777215
100
AcDbLine
 10
242.9305947176449
 20
99.12937874551397
 30
0.0
 11
242.9305947176449
 21
100.629378745514
 31
0.0
  0
LINE
  5
17E9
330
231
100
AcDbEntity
  8
0
  6
Continuous
 62
     7
420
 16777215
100
AcDbLine
 10
245.0519150611949
 20
99.12937874551397
 30
0.0
 11
245.0519150611949
 21
100.629378745514
 31
0.0
  0
LINE
  5
17EA
330
231
100
AcDbEntity
  8
02___PRT_ALL_AXES
  6
Continuous
 62
     7
420
 16777215
100
AcDbLine
 10
245.5077591838949
 20
120.629378745514
 30
0.0
 11
245.5077591838949
 21
111.129378745514
 31
0.0
  0
LINE
  5
17EB
330
231
100
AcDbEntity
  8
0
  6
Continuous
 62
     7
420
 16777215
100
AcDbLine
 10
247.1732354047449
 20
99.12937874551397
 30
0.0
 11
247.1732354047449
 21
100.629378745514
 31
0.0
  0
LINE
  5
17EC
330
231
100
AcDbEntity
  8
0
  6
Continuous
 62
     7
420
 16777215
100
AcDbLine
 10
255.0791507526949
 20
100.629378745514
 30
0.0
 11
255.0791507526949
 21
99.12937874551397
 31
0.0
  0
LINE
  5
17ED
330
231
100
AcDbEntity
  8
0
  6
Continuous
 62
     7
420
 16777215
100
AcDbLine
 10
298.5242634783949
 20
99.12937874551397
 30
0.0
 11
242.4912548894449
 21
99.12937874551397
 31
0.0
  0
LINE
  5
17EE
330
231
100
AcDbEntity
  8
02___PRT_ALL_AXES
  6
Continuous
 62
     7
420
 16777215
100
AcDbLine
 10
233.0077591838949
 20
100.1293787455139
 30
0.0
 11
242.4912548894449
 21
100.1293787455139
 31
0.0
  0
LINE
  5
17EF
330
231
100
AcDbEntity
  8
02___PRT_ALL_AXES
  6
Continuous
 62
     7
420
 16777215
100
AcDbLine
 10
298.5242634783949
 20
100.1293787455139
 30
0.0
 11
308.0077591838949
 21
100.1293787455139
 31
0.0
  0
LINE
  5
17F0
330
231
100
AcDbEntity
  8
0
  6
Continuous
 62
     7
420
 16777215
100
AcDbLine
 10
242.4912548894449
 20
100.629378745514
 30
0.0
 11
255.0791507526949
 21
100.629378745514
 31
0.0
  0
LINE
  5
17F1
330
231
100
AcDbEntity
  8
0
  6
Continuous
 62
     7
420
 16777215
100
AcDbLine
 10
285.9363676151449
 20
100.629378745514
 30
0.0
 11
298.5242634783949
 21
100.629378745514
 31
0.0
  0
LINE
  5
17F3
330
231
100
AcDbEntity
  8
02___PRT_ALL_AXES
  6
Continuous
 62
     7
420
 16777215
100
AcDbLine
 10
233.0077591838949
 20
111.129378745514
 30
0.0
 11
245.5077591838949
 21
111.129378745514
 31
0.0
  0
LINE
  5
17F4
330
231
100
AcDbEntity
  8
02___PRT_ALL_AXES
  6
Continuous
 62
     7
420
 16777215
100
AcDbLine
 10
295.5077591838949
 20
111.129378745514
 30
0.0
 11
308.0077591838949
 21
111.129378745514
 31
0.0
  0
LINE
  5
17F5
330
231
100
AcDbEntity
  8
02___PRT_ALL_AXES
  6
Continuous
 62
     7
420
 16777215
100
AcDbLine
 10
295.5076987896449
 20
120.629378745514
 30
0.0
 11
245.5078195781949
 21
120.629378745514
 31
0.0
  0
LINE
  5
17F6
330
231
100
AcDbEntity
  8
0
  6
Continuous
 62
     7
420
 16777215
100
AcDbLine
 10
285.9363676151449
 20
100.629378745514
 30
0.0
 11
285.9363676151449
 21
99.12937874551397
 31
0.0
  0
LINE
  5
17F7
330
231
100
AcDbEntity
  8
0
  6
Continuous
 62
     7
420
 16777215
100
AcDbLine
 10
293.8422829630949
 20
99.12937874551397
 30
0.0
 11
293.8422829630949
 21
100.629378745514
 31
0.0
  0
LINE
  5
17F8
330
231
100
AcDbEntity
  8
02___PRT_ALL_AXES
  6
Continuous
 62
     7
420
 16777215
100
AcDbLine
 10
295.5077591838949
 20
120.629378745514
 30
0.0
 11
295.5077591838949
 21
111.129378745514
 31
0.0
  0
LINE
  5
17F9
330
231
100
AcDbEntity
  8
0
  6
Continuous
 62
     7
420
 16777215
100
AcDbLine
 10
295.9636033066449
 20
99.12937874551397
 30
0.0
 11
295.9636033066449
 21
100.629378745514
 31
0.0
  0
LINE
  5
17FA
330
231
100
AcDbEntity
  8
0
  6
Continuous
 62
     7
420
 16777215
100
AcDbLine
 10
298.0849236501949
 20
99.12937874551397
 30
0.0
 11
298.0849236501949
 21
100.629378745514
 31
0.0
  0
LINE
  5
17FB
330
231
100
AcDbEntity
  8
0
  6
Continuous
 62
     7
420
 16777215
100
AcDbLine
 10
298.5242634783949
 20
99.12937874551397
 30
0.0
 11
298.5242634783949
 21
100.629378745514
 31
0.0
  0
LINE
  5
17FC
330
231
100
AcDbEntity
  8
0
  6
Continuous
 62
     7
420
 16777215
100
AcDbLine
 10
368.7677748198999
 20
99.12937874551397
 30
0.0
 11
368.7677748198999
 21
100.629378745514
 31
0.0
  0
LINE
  5
17FD
330
231
100
AcDbEntity
  8
0
  6
Continuous
 62
     7
420
 16777215
100
AcDbLine
 10
369.2071146480998
 20
99.12937874551397
 30
0.0
 11
369.2071146480998
 21
100.629378745514
 31
0.0
  0
LINE
  5
17FE
330
231
100
AcDbEntity
  8
0
  6
Continuous
 62
     7
420
 16777215
100
AcDbLine
 10
371.3284349916498
 20
99.12937874551397
 30
0.0
 11
371.3284349916498
 21
100.629378745514
 31
0.0
  0
LINE
  5
17FF
330
231
100
AcDbEntity
  8
02___PRT_ALL_AXES
  6
Continuous
 62
     7
420
 16777215
100
AcDbLine
 10
371.7842791143998
 20
120.629378745514
 30
0.0
 11
371.7842791143998
 21
100.629378745514
 31
0.0
  0
LINE
  5
1800
330
231
100
AcDbEntity
  8
0
  6
Continuous
 62
     7
420
 16777215
100
AcDbLine
 10
373.4497553351998
 20
99.12937874551397
 30
0.0
 11
373.4497553351998
 21
100.629378745514
 31
0.0
  0
LINE
  5
1801
330
231
100
AcDbEntity
  8
0
  6
Continuous
 62
     7
420
 16777215
100
AcDbLine
 10
381.3556706831499
 20
100.629378745514
 30
0.0
 11
381.3556706831499
 21
99.12937874551397
 31
0.0
  0
LINE
  5
1802
330
231
100
AcDbEntity
  8
0
  6
Continuous
 62
     7
420
 16777215
100
AcDbLine
 10
424.8007834088498
 20
99.12937874551397
 30
0.0
 11
368.7677748198999
 21
99.12937874551397
 31
0.0
  0
LINE
  5
1803
330
231
100
AcDbEntity
  8
02___PRT_ALL_AXES
  6
Continuous
 62
     7
420
 16777215
100
AcDbLine
 10
396.7842791143998
 20
100.1293787455139
 30
0.0
 11
410.8040836235669
 21
100.1293787455139
 31
0.0
  0
LINE
  5
1804
330
231
100
AcDbEntity
  8
0
  6
Continuous
 62
     7
420
 16777215
100
AcDbLine
 10
368.7677748198999
 20
100.629378745514
 30
0.0
 11
381.3556706831499
 21
100.629378745514
 31
0.0
  0
LINE
  5
1805
330
231
100
AcDbEntity
  8
0
  6
Continuous
 62
     7
420
 16777215
100
AcDbLine
 10
412.2128875455998
 20
100.629378745514
 30
0.0
 11
424.8007834088498
 21
100.629378745514
 31
0.0
  0
LINE
  5
1807
330
231
100
AcDbEntity
  8
02___PRT_ALL_AXES
  6
CENTER
 62
     7
420
 16777215
100
AcDbLine
 10
396.7842791143998
 20
98.12937874551398
 30
0.0
 11
396.7842791143998
 21
100.1293787455139
 31
0.0
  0
LINE
  5
1809
330
231
100
AcDbEntity
  8
02___PRT_ALL_AXES
  6
Continuous
 62
     7
420
 16777215
100
AcDbLine
 10
396.7842791143998
 20
111.129378745514
 30
0.0
 11
410.8040836235669
 21
111.129378745514
 31
0.0
  0
LINE
  5
180A
330
231
100
AcDbEntity
  8
02___PRT_ALL_AXES
  6
Continuous
 62
     7
420
 16777215
100
AcDbLine
 10
421.7842187200998
 20
120.629378745514
 30
0.0
 11
371.7843395086498
 21
120.629378745514
 31
0.0
  0
LINE
  5
180B
330
231
100
AcDbEntity
  8
02___PRT_ALL_AXES
  6
Continuous
 62
     7
420
 16777215
100
AcDbLine
 10
411.7842791143998
 20
110.4918501484133
 30
0.0
 11
411.7842791143998
 21
100.7669073426146
 31
0.0
  0
LINE
  5
180C
330
231
100
AcDbEntity
  8
0
  6
Continuous
 62
     7
420
 16777215
100
AcDbLine
 10
412.2128875455998
 20
100.629378745514
 30
0.0
 11
412.2128875455998
 21
99.12937874551397
 31
0.0
  0
LINE
  5
180D
330
231
100
AcDbEntity
  8
0
  6
Continuous
 62
     7
420
 16777215
100
AcDbLine
 10
420.1188028935498
 20
99.12937874551397
 30
0.0
 11
420.1188028935498
 21
100.629378745514
 31
0.0
  0
LINE
  5
180E
330
231
100
AcDbEntity
  8
02___PRT_ALL_AXES
  6
Continuous
 62
     7
420
 16777215
100
AcDbLine
 10
421.7842791143998
 20
120.629378745514
 30
0.0
 11
421.7842791143998
 21
100.629378745514
 31
0.0
  0
LINE
  5
180F
330
231
100
AcDbEntity
  8
0
  6
Continuous
 62
     7
420
 16777215
100
AcDbLine
 10
422.2401232370998
 20
99.12937874551397
 30
0.0
 11
422.2401232370998
 21
100.629378745514
 31
0.0
  0
LINE
  5
1810
330
231
100
AcDbEntity
  8
0
  6
Continuous
 62
     7
420
 16777215
100
AcDbLine
 10
424.3614435806498
 20
99.12937874551397
 30
0.0
 11
424.3614435806498
 21
100.629378745514
 31
0.0
  0
LINE
  5
1811
330
231
100
AcDbEntity
  8
0
  6
Continuous
 62
     7
420
 16777215
100
AcDbLine
 10
424.8007834088498
 20
99.12937874551397
 30
0.0
 11
424.8007834088498
 21
100.629378745514
 31
0.0
  0
CIRCLE
  5
1812
330
231
100
AcDbEntity
  8
02___PRT_ALL_AXES
  6
Continuous
 62
     7
420
 16777215
100
AcDbCircle
 10
308.0077591838949
 20
105.6293787455139
 30
0.0
 40
5.5
  0
CIRCLE
  5
1813
330
231
100
AcDbEntity
  8
02___PRT_ALL_AXES
  6
Continuous
 62
     7
420
 16777215
100
AcDbCircle
 10
233.0077591838949
 20
105.6293787455139
 30
0.0
 40
5.5
  0
CIRCLE
  5
1814
330
231
100
AcDbEntity
  8
02___PRT_ALL_AXES
  6
Continuous
 62
     7
420
 16777215
100
AcDbCircle
 10
308.0077591838949
 20
105.6293787455139
 30
0.0
 40
4.0
  0
CIRCLE
  5
1815
330
231
100
AcDbEntity
  8
02___PRT_ALL_AXES
  6
Continuous
 62
     7
420
 16777215
100
AcDbCircle
 10
233.0077591838949
 20
105.6293787455139
 30
0.0
 40
4.0
  0
ARC
  5
1816
330
231
100
AcDbEntity
  8
02___PRT_ALL_AXES
  6
Continuous
 62
     7
420
 16777215
100
AcDbCircle
 10
396.7842791143998
 20
105.6293787455139
 30
0.0
 40
5.5
100
AcDbArc
 50
90.0
 51
270.0
  0
SPLINE
  5
1817
330
231
100
AcDbEntity
  8
02___PRT_ALL_AXES
  6
Continuous
 62
     7
420
 16777215
100
AcDbSpline
210
0.0
220
0.0
230
1.0
 70
     8
 71
     3
 72
    12
 73
     8
 74
     0
 42
0.000000001
 43
0.0000000001
 40
0.0
 40
0.0
 40
0.0
 40
0.0
 40
0.1174375991
 40
0.4132211223
 40
0.5890726348
 40
0.7575355386
 40
1.0
 40
1.0
 40
1.0
 40
1.0
 10
295.5077591838949
 20
111.129378745514
 30
0.0
 10
295.4186659999949
 20
110.7252372699139
 30
0.0
 10
295.137196267395
 20
109.2951847661639
 30
0.0
 10
294.903889974195
 20
107.2255414387139
 30
0.0
 10
294.881610788945
 20
104.966985257064
 30
0.0
 10
295.0154034626948
 20
102.9010363782139
 30
0.0
 10
295.2344771549449
 20
101.466023719914
 30
0.0
 10
295.4028207462949
 20
100.6279662272639
 30
0.0
  0
SPLINE
  5
1818
330
231
100
AcDbEntity
  8
02___PRT_ALL_AXES
  6
Continuous
 62
     7
420
 16777215
100
AcDbSpline
210
0.0
220
0.0
230
1.0
 70
     8
 71
     3
 72
    12
 73
     8
 74
     0
 42
0.000000001
 43
0.0000000001
 40
0.0
 40
0.0
 40
0.0
 40
0.0
 40
0.2424481544
 40
0.4109094451
 40
0.5867628077
 40
0.8825552529999999
 40
1.0
 40
1.0
 40
1.0
 40
1.0
 10
245.6126597672449
 20
100.627776350014
 30
0.0
 10
245.7809989137449
 20
101.465792041914
 30
0.0
 10
246.0000836270449
 20
102.900765335214
 30
0.0
 10
246.133900299345
 20
104.966693931464
 30
0.0
 10
246.1116465563949
 20
107.2253240565639
 30
0.0
 10
245.8783426696449
 20
109.295070406514
 30
0.0
 10
245.5968594081948
 20
110.725205306664
 30
0.0
 10
245.5077591838949
 20
111.129378745514
 30
0.0
  0
LINE
  5
1852
330
231
100
AcDbEntity
  8
02___PRT_ALL_AXES
  6
Continuous
 62
     7
420
 16777215
100
AcDbLine
 10
401.617580436869
 20
109.929378745514
 30
0.0
 11
411.7842791143998
 21
109.929378745514
 31
0.0
  0
LINE
  5
1853
330
231
100
AcDbEntity
  8
02___PRT_ALL_AXES
  6
Continuous
 62
     7
420
 16777215
100
AcDbLine
 10
401.617580436869
 20
101.3293787455139
 30
0.0
 11
411.7842791143998
 21
101.3293787455139
 31
0.0
  0
LINE
  5
1856
330
231
100
AcDbEntity
  8
0
 62
     7
420
 16777215
100
AcDbLine
 10
401.617580436869
 20
111.129378745514
 30
0.0
 11
401.617580436869
 21
109.9293787455139
 31
0.0
  0
LINE
  5
1857
330
231
100
AcDbEntity
  8
0
 62
     7
420
 16777215
100
AcDbLine
 10
401.617580436869
 20
101.3293787455139
 30
0.0
 11
401.617580436869
 21
100.1293787455139
 31
0.0
  0
DIMENSION
  5
185B
330
231
100
AcDbEntity
  8
0
 62
     7
420
 16777215
100
AcDbDimension
280
     0
  2
*D27
 10
452.5391766891845
 20
100.129378745514
 30
0.0
 11
452.5391766891844
 21
128.5579501740853
 31
0.0
 70
   160
  1
{\fFangSong|b0|i0|c134|p49;\C256;G1/2"}
 71
     5
 42
11.0
 73
     0
 74
     0
 75
     0
  3
A
100
AcDbAlignedDimension
 13
411.7842791143998
 23
111.129378745514
 33
0.0
 14
411.7842791143998
 24
100.1293787455139
 34
0.0
 50
90.0
100
AcDbRotatedDimension
  0
LINE
  5
191A
330
231
100
AcDbEntity
  8
0
 62
     7
420
 16777215
100
AcDbLine
 10
401.617580436869
 20
109.929378745514
 30
0.0
 11
401.617580436869
 21
101.3293787455139
 31
0.0
  0
LINE
  5
191B
330
231
100
AcDbEntity
  8
0
 62
     7
420
 16777215
100
AcDbLine
 10
411.7842791143998
 20
110.4918501484132
 30
0.0
 11
410.8040836235669
 21
111.129378745514
 31
0.0
  0
LINE
  5
191D
330
231
100
AcDbEntity
  8
0
 62
     7
420
 16777215
100
AcDbLine
 10
411.7842791143998
 20
100.7669073426146
 30
0.0
 11
410.8040836235669
 21
100.1293787455139
 31
0.0
  0
LINE
  5
194B
330
231
100
AcDbEntity
  8
51001-1_DXF_CONTINUOUS_LINE
  6
Continuous
 62
     7
420
 16777215
100
AcDbLine
 10
407.2842791143998
 20
309.07774525188
 30
0.0
 11
407.2842791143998
 21
288.07774525188
 31
0.0
  0
ENDSEC
  0
SECTION
  2
OBJECTS
  0
DICTIONARY
  5
C
330
0
100
AcDbDictionary
281
     1
  3
ACAD_CIP_PREVIOUS_PRODUCT_INFO
350
199C
  3
ACAD_COLOR
350
553
  3
ACAD_DETAILVIEWSTYLE
350
1993
  3
ACAD_GROUP
350
D
  3
ACAD_LAYOUT
350
1A
  3
ACAD_MATERIAL
350
53E
  3
ACAD_MLEADERSTYLE
350
198F
  3
ACAD_MLINESTYLE
350
17
  3
ACAD_PLOTSETTINGS
350
19
  3
ACAD_PLOTSTYLENAME
350
E
  3
ACAD_SCALELIST
350
197D
  3
ACAD_SECTIONVIEWSTYLE
350
1991
  3
ACAD_TABLESTYLE
350
537
  3
ACAD_VISUALSTYLE
350
542
  3
ACDB_RECOMPOSE_DATA
350
1B8A
  3
AcDbVariableDictionary
350
744
  3
ASE_INDEX_DICTIONARY
350
195E
  0
DICTIONARY
  5
769
330
2
100
AcDbDictionary
280
     1
281
     1
  3
ACAD_LAYERSTATES
360
76A
  0
DICTIONARY
  5
1AFD
330
10
100
AcDbDictionary
280
     1
281
     1
  3
ADSK_XREC_LAYER_RECONCILED
360
1AFE
  0
DICTIONARY
  5
1AFF
330
1FA
100
AcDbDictionary
280
     1
281
     1
  3
ADSK_XREC_LAYER_RECONCILED
360
1B00
  0
DICTIONARY
  5
1B01
330
1FB
100
AcDbDictionary
280
     1
281
     1
  3
ADSK_XREC_LAYER_RECONCILED
360
1B02
  0
DICTIONARY
  5
1B03
330
1FC
100
AcDbDictionary
280
     1
281
     1
  3
ADSK_XREC_LAYER_RECONCILED
360
1B04
  0
DICTIONARY
  5
1B05
330
1FD
100
AcDbDictionary
280
     1
281
     1
  3
ADSK_XREC_LAYER_RECONCILED
360
1B06
  0
DICTIONARY
  5
1B07
330
1FE
100
AcDbDictionary
280
     1
281
     1
  3
ADSK_XREC_LAYER_RECONCILED
360
1B08
  0
DICTIONARY
  5
1B09
330
1FF
100
AcDbDictionary
280
     1
281
     1
  3
ADSK_XREC_LAYER_RECONCILED
360
1B0A
  0
DICTIONARY
  5
1B0B
330
200
100
AcDbDictionary
280
     1
281
     1
  3
ADSK_XREC_LAYER_RECONCILED
360
1B0C
  0
DICTIONARY
  5
1B0D
330
201
100
AcDbDictionary
280
     1
281
     1
  3
ADSK_XREC_LAYER_RECONCILED
360
1B0E
  0
DICTIONARY
  5
1B0F
330
202
100
AcDbDictionary
280
     1
281
     1
  3
ADSK_XREC_LAYER_RECONCILED
360
1B10
  0
DICTIONARY
  5
1B11
330
203
100
AcDbDictionary
280
     1
281
     1
  3
ADSK_XREC_LAYER_RECONCILED
360
1B12
  0
DICTIONARY
  5
1B13
330
204
100
AcDbDictionary
280
     1
281
     1
  3
ADSK_XREC_LAYER_RECONCILED
360
1B14
  0
DICTIONARY
  5
1B15
330
205
100
AcDbDictionary
280
     1
281
     1
  3
ADSK_XREC_LAYER_RECONCILED
360
1B16
  0
DICTIONARY
  5
1B17
330
206
100
AcDbDictionary
280
     1
281
     1
  3
ADSK_XREC_LAYER_RECONCILED
360
1B18
  0
DICTIONARY
  5
1B19
330
207
100
AcDbDictionary
280
     1
281
     1
  3
ADSK_XREC_LAYER_RECONCILED
360
1B1A
  0
DICTIONARY
  5
1B1B
330
208
100
AcDbDictionary
280
     1
281
     1
  3
ADSK_XREC_LAYER_RECONCILED
360
1B1C
  0
DICTIONARY
  5
1B1D
330
209
100
AcDbDictionary
280
     1
281
     1
  3
ADSK_XREC_LAYER_RECONCILED
360
1B1E
  0
DICTIONARY
  5
1B1F
330
20A
100
AcDbDictionary
280
     1
281
     1
  3
ADSK_XREC_LAYER_RECONCILED
360
1B20
  0
DICTIONARY
  5
1B21
330
20B
100
AcDbDictionary
280
     1
281
     1
  3
ADSK_XREC_LAYER_RECONCILED
360
1B22
  0
DICTIONARY
  5
1B23
330
20C
100
AcDbDictionary
280
     1
281
     1
  3
ADSK_XREC_LAYER_RECONCILED
360
1B24
  0
DICTIONARY
  5
1B25
330
20D
100
AcDbDictionary
280
     1
281
     1
  3
ADSK_XREC_LAYER_RECONCILED
360
1B26
  0
DICTIONARY
  5
1B27
330
20E
100
AcDbDictionary
280
     1
281
     1
  3
ADSK_XREC_LAYER_RECONCILED
360
1B28
  0
DICTIONARY
  5
1B29
330
20F
100
AcDbDictionary
280
     1
281
     1
  3
ADSK_XREC_LAYER_RECONCILED
360
1B2A
  0
DICTIONARY
  5
1B2B
330
210
100
AcDbDictionary
280
     1
281
     1
  3
ADSK_XREC_LAYER_RECONCILED
360
1B2C
  0
DICTIONARY
  5
1B2D
330
211
100
AcDbDictionary
280
     1
281
     1
  3
ADSK_XREC_LAYER_RECONCILED
360
1B2E
  0
DICTIONARY
  5
1B2F
330
212
100
AcDbDictionary
280
     1
281
     1
  3
ADSK_XREC_LAYER_RECONCILED
360
1B30
  0
DICTIONARY
  5
1B31
330
213
100
AcDbDictionary
280
     1
281
     1
  3
ADSK_XREC_LAYER_RECONCILED
360
1B32
  0
DICTIONARY
  5
1B33
330
214
100
AcDbDictionary
280
     1
281
     1
  3
ADSK_XREC_LAYER_RECONCILED
360
1B34
  0
DICTIONARY
  5
1B35
330
215
100
AcDbDictionary
280
     1
281
     1
  3
ADSK_XREC_LAYER_RECONCILED
360
1B36
  0
DICTIONARY
  5
1B37
330
216
100
AcDbDictionary
280
     1
281
     1
  3
ADSK_XREC_LAYER_RECONCILED
360
1B38
  0
DICTIONARY
  5
1B39
330
217
100
AcDbDictionary
280
     1
281
     1
  3
ADSK_XREC_LAYER_RECONCILED
360
1B3A
  0
DICTIONARY
  5
1B3B
330
218
100
AcDbDictionary
280
     1
281
     1
  3
ADSK_XREC_LAYER_RECONCILED
360
1B3C
  0
DICTIONARY
  5
1B3D
330
219
100
AcDbDictionary
280
     1
281
     1
  3
ADSK_XREC_LAYER_RECONCILED
360
1B3E
  0
DICTIONARY
  5
1B3F
330
21A
100
AcDbDictionary
280
     1
281
     1
  3
ADSK_XREC_LAYER_RECONCILED
360
1B40
  0
DICTIONARY
  5
1B41
330
21B
100
AcDbDictionary
280
     1
281
     1
  3
ADSK_XREC_LAYER_RECONCILED
360
1B42
  0
DICTIONARY
  5
1B43
330
21C
100
AcDbDictionary
280
     1
281
     1
  3
ADSK_XREC_LAYER_RECONCILED
360
1B44
  0
DICTIONARY
  5
1B45
330
21D
100
AcDbDictionary
280
     1
281
     1
  3
ADSK_XREC_LAYER_RECONCILED
360
1B46
  0
DICTIONARY
  5
1B47
330
21E
100
AcDbDictionary
280
     1
281
     1
  3
ADSK_XREC_LAYER_RECONCILED
360
1B48
  0
DICTIONARY
  5
1B49
330
21F
100
AcDbDictionary
280
     1
281
     1
  3
ADSK_XREC_LAYER_RECONCILED
360
1B4A
  0
DICTIONARY
  5
1B4B
330
220
100
AcDbDictionary
280
     1
281
     1
  3
ADSK_XREC_LAYER_RECONCILED
360
1B4C
  0
DICTIONARY
  5
1B4D
330
221
100
AcDbDictionary
280
     1
281
     1
  3
ADSK_XREC_LAYER_RECONCILED
360
1B4E
  0
DICTIONARY
  5
1B4F
330
222
100
AcDbDictionary
280
     1
281
     1
  3
ADSK_XREC_LAYER_RECONCILED
360
1B50
  0
DICTIONARY
  5
1B51
330
223
100
AcDbDictionary
280
     1
281
     1
  3
ADSK_XREC_LAYER_RECONCILED
360
1B52
  0
DICTIONARY
  5
1B53
330
224
100
AcDbDictionary
280
     1
281
     1
  3
ADSK_XREC_LAYER_RECONCILED
360
1B54
  0
DICTIONARY
  5
1B55
330
225
100
AcDbDictionary
280
     1
281
     1
  3
ADSK_XREC_LAYER_RECONCILED
360
1B56
  0
DICTIONARY
  5
1B57
330
226
100
AcDbDictionary
280
     1
281
     1
  3
ADSK_XREC_LAYER_RECONCILED
360
1B58
  0
DICTIONARY
  5
1B59
330
227
100
AcDbDictionary
280
     1
281
     1
  3
ADSK_XREC_LAYER_RECONCILED
360
1B5A
  0
DICTIONARY
  5
1B5B
330
228
100
AcDbDictionary
280
     1
281
     1
  3
ADSK_XREC_LAYER_RECONCILED
360
1B5C
  0
DICTIONARY
  5
8CD
330
8CC
100
AcDbDictionary
280
     1
281
     1
  3
ADSK_XREC_LAYER_RECONCILED
360
8CE
  0
DICTIONARY
  5
1B5D
330
8CF
100
AcDbDictionary
280
     1
281
     1
  3
ADSK_XREC_LAYER_RECONCILED
360
1B5E
  0
DICTIONARY
  5
1B5F
330
8D0
100
AcDbDictionary
280
     1
281
     1
  3
ADSK_XREC_LAYER_RECONCILED
360
1B60
  0
DICTIONARY
  5
1B61
330
10CA
100
AcDbDictionary
280
     1
281
     1
  3
ADSK_XREC_LAYER_RECONCILED
360
1B62
  0
DICTIONARY
  5
1B63
330
10CB
100
AcDbDictionary
280
     1
281
     1
  3
ADSK_XREC_LAYER_RECONCILED
360
1B64
  0
DICTIONARY
  5
1B65
330
10CC
100
AcDbDictionary
280
     1
281
     1
  3
ADSK_XREC_LAYER_RECONCILED
360
1B66
  0
DICTIONARY
  5
1B67
330
10CD
100
AcDbDictionary
280
     1
281
     1
  3
ADSK_XREC_LAYER_RECONCILED
360
1B68
  0
DICTIONARY
  5
1B69
330
10CE
100
AcDbDictionary
280
     1
281
     1
  3
ADSK_XREC_LAYER_RECONCILED
360
1B6A
  0
DICTIONARY
  5
1B6B
330
10CF
100
AcDbDictionary
280
     1
281
     1
  3
ADSK_XREC_LAYER_RECONCILED
360
1B6C
  0
DICTIONARY
  5
55A
330
231
100
AcDbDictionary
280
     1
281
     1
  3
ACAD_SORTENTS
360
55B
  0
DICTIONARY
  5
D96
330
D06
100
AcDbDictionary
280
     1
281
     1
  3
ACAD_SORTENTS
360
D97
  0
DICTIONARY
  5
F69
330
EE0
100
AcDbDictionary
280
     1
281
     1
  3
ACAD_SORTENTS
360
F6A
  0
DICTIONARY
  5
11D1
330
11CF
100
AcDbDictionary
280
     1
281
     1
  3
ACAD_SORTENTS
360
11D2
  0
DICTIONARY
  5
17A0
330
179C
100
AcDbDictionary
280
     1
281
     1
  3
ACAD_SORTENTS
360
17A1
  0
DICTIONARY
  5
183E
330
1822
100
AcDbDictionary
280
     1
281
     1
  3
ACAD_SORTENTS
360
183F
  0
DICTIONARY
  5
1488
330
147A
100
AcDbDictionary
280
     1
281
     1
  3
ACAD_DIMASSOC
360
1493
  0
DICTIONARY
  5
1517
330
1509
100
AcDbDictionary
280
     1
281
     1
  3
ACAD_DIMASSOC
360
1522
  0
DICTIONARY
  5
154D
330
153E
100
AcDbDictionary
280
     1
281
     1
  3
ACAD_DIMASSOC
360
1559
  0
DICTIONARY
  5
16F6
330
16E8
100
AcDbDictionary
280
     1
281
     1
  3
ACAD_DIMASSOC
360
1701
  0
DICTIONARY
  5
1786
330
1778
100
AcDbDictionary
280
     1
281
     1
  3
ACAD_DIMASSOC
360
1791
  0
XRECORD
  5
199C
102
{ACAD_REACTORS
330
C
102
}
330
C
100
AcDbXrecord
280
     1
300
ACD
300
2017
300
ACD_F_S
  0
DICTIONARY
  5
553
102
{ACAD_REACTORS
330
C
102
}
330
C
100
AcDbDictionary
281
     1
  0
DICTIONARY
  5
1993
102
{ACAD_REACTORS
330
C
102
}
330
C
100
AcDbDictionary
281
     1
  3
Metric50
350
1994
  0
DICTIONARY
  5
D
102
{ACAD_REACTORS
330
C
102
}
330
C
100
AcDbDictionary
281
     1
  0
DICTIONARY
  5
1A
102
{ACAD_REACTORS
330
C
102
}
330
C
100
AcDbDictionary
281
     1
  3
Layout1
350
539
  3
Model
350
538
  0
DICTIONARY
  5
53E
102
{ACAD_REACTORS
330
C
102
}
330
C
100
AcDbDictionary
281
     1
  3
ByBlock
350
540
  3
ByLayer
350
53F
  3
Global
350
541
  0
DICTIONARY
  5
198F
102
{ACAD_REACTORS
330
C
102
}
330
C
100
AcDbDictionary
281
     1
  3
Standard
350
1990
  0
DICTIONARY
  5
17
102
{ACAD_REACTORS
330
C
102
}
330
C
100
AcDbDictionary
281
     1
  3
Standard
350
18
  0
DICTIONARY
  5
19
102
{ACAD_REACTORS
330
C
102
}
330
C
100
AcDbDictionary
281
     1
  0
ACDBDICTIONARYWDFLT
  5
E
102
{ACAD_REACTORS
330
C
102
}
330
C
100
AcDbDictionary
281
     1
  3
Normal
350
F
100
AcDbDictionaryWithDefault
340
F
  0
DICTIONARY
  5
197D
102
{ACAD_REACTORS
330
C
102
}
330
C
100
AcDbDictionary
281
     1
  3
A0
350
197E
  3
A1
350
197F
  3
A2
350
1980
  3
A3
350
1981
  3
A4
350
1982
  3
A5
350
1983
  3
A6
350
1984
  3
A7
350
1985
  3
A8
350
1986
  3
A9
350
1987
  3
B0
350
1988
  3
B1
350
1989
  3
B2
350
198A
  3
B3
350
198B
  3
B4
350
198C
  3
B5
350
198D
  3
B6
350
198E
  0
DICTIONARY
  5
1991
102
{ACAD_REACTORS
330
C
102
}
330
C
100
AcDbDictionary
281
     1
  3
Metric50
350
1992
  0
DICTIONARY
  5
537
330
C
100
AcDbDictionary
281
     1
  3
Standard
350
53A
  3
Standard1
350
53B
  0
DICTIONARY
  5
542
102
{ACAD_REACTORS
330
C
102
}
330
C
100
AcDbDictionary
281
     1
  3
2dWireframe
350
548
  3
3D Hidden
350
54A
  3
3dWireframe
350
549
  3
Basic
350
547
  3
Brighten
350
54E
  3
ColorChange
350
552
  3
Conceptual
350
54B
  3
Dim
350
54D
  3
EdgeColorOff
350
197C
  3
Facepattern
350
551
  3
Flat
350
543
  3
FlatWithEdges
350
544
  3
Gouraud
350
545
  3
GouraudWithEdges
350
546
  3
Hidden
350
1974
  3
JitterOff
350
197A
  3
Linepattern
350
550
  3
OverhangOff
350
197B
  3
Realistic
350
54C
  3
Shaded
350
1979
  3
Shaded with edges
350
1978
  3
Shades of Gray
350
1975
  3
Sketchy
350
1976
  3
Thicken
350
54F
  3
Wireframe
350
1973
  3
X-Ray
350
1977
  0
XRECORD
  5
1B8A
102
{ACAD_REACTORS
330
C
102
}
330
C
100
AcDbXrecord
280
     1
 90
        1
330
53A
330
53B
330
1992
330
1994
  0
DICTIONARY
  5
744
102
{ACAD_REACTORS
330
C
102
}
330
C
100
AcDbDictionary
281
     1
  3
CANNOSCALE
350
1B7E
  3
CMLEADERSTYLE
350
1B7A
  3
CTABLESTYLE
350
745
  3
CVIEWDETAILSTYLE
350
1B7B
  3
CVIEWSECTIONSTYLE
350
1B7C
  3
LAYEREVAL
350
1B80
  3
LAYERNOTIFY
350
1B81
  3
LIGHTINGUNITS
350
1B7F
  3
MSLTSCALE
350
1B7D
  0
DICTIONARY
  5
195E
102
{ACAD_REACTORS
330
C
102
}
330
C
100
AcDbDictionary
281
     1
  3
ASEBlockHierarchyIndexRecord
350
1960
1001
DCO15
1040
1926673215.865999
  0
DICTIONARY
  5
76A
102
{ACAD_REACTORS
330
769
102
}
330
769
100
AcDbDictionary
281
     1
  0
XRECORD
  5
1AFE
102
{ACAD_REACTORS
330
1AFD
102
}
330
1AFD
100
AcDbXrecord
280
     1
290
     1
  0
XRECORD
  5
1B00
102
{ACAD_REACTORS
330
1AFF
102
}
330
1AFF
100
AcDbXrecord
280
     1
290
     1
  0
XRECORD
  5
1B02
102
{ACAD_REACTORS
330
1B01
102
}
330
1B01
100
AcDbXrecord
280
     1
290
     1
  0
XRECORD
  5
1B04
102
{ACAD_REACTORS
330
1B03
102
}
330
1B03
100
AcDbXrecord
280
     1
290
     1
  0
XRECORD
  5
1B06
102
{ACAD_REACTORS
330
1B05
102
}
330
1B05
100
AcDbXrecord
280
     1
290
     1
  0
XRECORD
  5
1B08
102
{ACAD_REACTORS
330
1B07
102
}
330
1B07
100
AcDbXrecord
280
     1
290
     1
  0
XRECORD
  5
1B0A
102
{ACAD_REACTORS
330
1B09
102
}
330
1B09
100
AcDbXrecord
280
     1
290
     1
  0
XRECORD
  5
1B0C
102
{ACAD_REACTORS
330
1B0B
102
}
330
1B0B
100
AcDbXrecord
280
     1
290
     1
  0
XRECORD
  5
1B0E
102
{ACAD_REACTORS
330
1B0D
102
}
330
1B0D
100
AcDbXrecord
280
     1
290
     1
  0
XRECORD
  5
1B10
102
{ACAD_REACTORS
330
1B0F
102
}
330
1B0F
100
AcDbXrecord
280
     1
290
     1
  0
XRECORD
  5
1B12
102
{ACAD_REACTORS
330
1B11
102
}
330
1B11
100
AcDbXrecord
280
     1
290
     1
  0
XRECORD
  5
1B14
102
{ACAD_REACTORS
330
1B13
102
}
330
1B13
100
AcDbXrecord
280
     1
290
     1
  0
XRECORD
  5
1B16
102
{ACAD_REACTORS
330
1B15
102
}
330
1B15
100
AcDbXrecord
280
     1
290
     1
  0
XRECORD
  5
1B18
102
{ACAD_REACTORS
330
1B17
102
}
330
1B17
100
AcDbXrecord
280
     1
290
     1
  0
XRECORD
  5
1B1A
102
{ACAD_REACTORS
330
1B19
102
}
330
1B19
100
AcDbXrecord
280
     1
290
     1
  0
XRECORD
  5
1B1C
102
{ACAD_REACTORS
330
1B1B
102
}
330
1B1B
100
AcDbXrecord
280
     1
290
     1
  0
XRECORD
  5
1B1E
102
{ACAD_REACTORS
330
1B1D
102
}
330
1B1D
100
AcDbXrecord
280
     1
290
     1
  0
XRECORD
  5
1B20
102
{ACAD_REACTORS
330
1B1F
102
}
330
1B1F
100
AcDbXrecord
280
     1
290
     1
  0
XRECORD
  5
1B22
102
{ACAD_REACTORS
330
1B21
102
}
330
1B21
100
AcDbXrecord
280
     1
290
     1
  0
XRECORD
  5
1B24
102
{ACAD_REACTORS
330
1B23
102
}
330
1B23
100
AcDbXrecord
280
     1
290
     1
  0
XRECORD
  5
1B26
102
{ACAD_REACTORS
330
1B25
102
}
330
1B25
100
AcDbXrecord
280
     1
290
     1
  0
XRECORD
  5
1B28
102
{ACAD_REACTORS
330
1B27
102
}
330
1B27
100
AcDbXrecord
280
     1
290
     1
  0
XRECORD
  5
1B2A
102
{ACAD_REACTORS
330
1B29
102
}
330
1B29
100
AcDbXrecord
280
     1
290
     1
  0
XRECORD
  5
1B2C
102
{ACAD_REACTORS
330
1B2B
102
}
330
1B2B
100
AcDbXrecord
280
     1
290
     1
  0
XRECORD
  5
1B2E
102
{ACAD_REACTORS
330
1B2D
102
}
330
1B2D
100
AcDbXrecord
280
     1
290
     1
  0
XRECORD
  5
1B30
102
{ACAD_REACTORS
330
1B2F
102
}
330
1B2F
100
AcDbXrecord
280
     1
290
     1
  0
XRECORD
  5
1B32
102
{ACAD_REACTORS
330
1B31
102
}
330
1B31
100
AcDbXrecord
280
     1
290
     1
  0
XRECORD
  5
1B34
102
{ACAD_REACTORS
330
1B33
102
}
330
1B33
100
AcDbXrecord
280
     1
290
     1
  0
XRECORD
  5
1B36
102
{ACAD_REACTORS
330
1B35
102
}
330
1B35
100
AcDbXrecord
280
     1
290
     1
  0
XRECORD
  5
1B38
102
{ACAD_REACTORS
330
1B37
102
}
330
1B37
100
AcDbXrecord
280
     1
290
     1
  0
XRECORD
  5
1B3A
102
{ACAD_REACTORS
330
1B39
102
}
330
1B39
100
AcDbXrecord
280
     1
290
     1
  0
XRECORD
  5
1B3C
102
{ACAD_REACTORS
330
1B3B
102
}
330
1B3B
100
AcDbXrecord
280
     1
290
     1
  0
XRECORD
  5
1B3E
102
{ACAD_REACTORS
330
1B3D
102
}
330
1B3D
100
AcDbXrecord
280
     1
290
     1
  0
XRECORD
  5
1B40
102
{ACAD_REACTORS
330
1B3F
102
}
330
1B3F
100
AcDbXrecord
280
     1
290
     1
  0
XRECORD
  5
1B42
102
{ACAD_REACTORS
330
1B41
102
}
330
1B41
100
AcDbXrecord
280
     1
290
     1
  0
XRECORD
  5
1B44
102
{ACAD_REACTORS
330
1B43
102
}
330
1B43
100
AcDbXrecord
280
     1
290
     1
  0
XRECORD
  5
1B46
102
{ACAD_REACTORS
330
1B45
102
}
330
1B45
100
AcDbXrecord
280
     1
290
     1
  0
XRECORD
  5
1B48
102
{ACAD_REACTORS
330
1B47
102
}
330
1B47
100
AcDbXrecord
280
     1
290
     1
  0
XRECORD
  5
1B4A
102
{ACAD_REACTORS
330
1B49
102
}
330
1B49
100
AcDbXrecord
280
     1
290
     1
  0
XRECORD
  5
1B4C
102
{ACAD_REACTORS
330
1B4B
102
}
330
1B4B
100
AcDbXrecord
280
     1
290
     1
  0
XRECORD
  5
1B4E
102
{ACAD_REACTORS
330
1B4D
102
}
330
1B4D
100
AcDbXrecord
280
     1
290
     1
  0
XRECORD
  5
1B50
102
{ACAD_REACTORS
330
1B4F
102
}
330
1B4F
100
AcDbXrecord
280
     1
290
     1
  0
XRECORD
  5
1B52
102
{ACAD_REACTORS
330
1B51
102
}
330
1B51
100
AcDbXrecord
280
     1
290
     1
  0
XRECORD
  5
1B54
102
{ACAD_REACTORS
330
1B53
102
}
330
1B53
100
AcDbXrecord
280
     1
290
     1
  0
XRECORD
  5
1B56
102
{ACAD_REACTORS
330
1B55
102
}
330
1B55
100
AcDbXrecord
280
     1
290
     1
  0
XRECORD
  5
1B58
102
{ACAD_REACTORS
330
1B57
102
}
330
1B57
100
AcDbXrecord
280
     1
290
     1
  0
XRECORD
  5
1B5A
102
{ACAD_REACTORS
330
1B59
102
}
330
1B59
100
AcDbXrecord
280
     1
290
     1
  0
XRECORD
  5
1B5C
102
{ACAD_REACTORS
330
1B5B
102
}
330
1B5B
100
AcDbXrecord
280
     1
290
     1
  0
XRECORD
  5
8CE
102
{ACAD_REACTORS
330
8CD
102
}
330
8CD
100
AcDbXrecord
280
     1
290
     1
  0
XRECORD
  5
1B5E
102
{ACAD_REACTORS
330
1B5D
102
}
330
1B5D
100
AcDbXrecord
280
     1
290
     1
  0
XRECORD
  5
1B60
102
{ACAD_REACTORS
330
1B5F
102
}
330
1B5F
100
AcDbXrecord
280
     1
290
     1
  0
XRECORD
  5
1B62
102
{ACAD_REACTORS
330
1B61
102
}
330
1B61
100
AcDbXrecord
280
     1
290
     1
  0
XRECORD
  5
1B64
102
{ACAD_REACTORS
330
1B63
102
}
330
1B63
100
AcDbXrecord
280
     1
290
     1
  0
XRECORD
  5
1B66
102
{ACAD_REACTORS
330
1B65
102
}
330
1B65
100
AcDbXrecord
280
     1
290
     1
  0
XRECORD
  5
1B68
102
{ACAD_REACTORS
330
1B67
102
}
330
1B67
100
AcDbXrecord
280
     1
290
     1
  0
XRECORD
  5
1B6A
102
{ACAD_REACTORS
330
1B69
102
}
330
1B69
100
AcDbXrecord
280
     1
290
     1
  0
XRECORD
  5
1B6C
102
{ACAD_REACTORS
330
1B6B
102
}
330
1B6B
100
AcDbXrecord
280
     1
290
     1
  0
SORTENTSTABLE
  5
55B
102
{ACAD_REACTORS
330
55A
102
}
330
55A
100
AcDbSortentsTable
330
231
331
101A
  5
101A
331
101E
  5
101E
331
1022
  5
1022
331
1026
  5
1026
331
1081
  5
1081
331
1085
  5
1085
331
16A1
  5
16A1
331
17E9
  5
17E9
331
17ED
  5
17ED
331
16AD
  5
16AD
331
1009
  5
1009
331
100D
  5
100D
331
1011
  5
1011
331
1015
  5
1015
331
1064
  5
1064
331
1068
  5
1068
331
106C
  5
106C
331
1812
  5
1814
331
16DA
  5
16DA
331
1816
  5
1818
331
1691
  5
1691
331
1695
  5
1695
331
1699
  5
1699
331
169D
  5
169D
331
11D5
  5
11D5
331
153E
  5
153E
331
1040
  5
1040
331
10A5
  5
10A5
331
1044
  5
1044
331
1801
  5
1801
331
16C9
  5
16C9
331
1805
  5
1806
331
16CD
  5
16CD
331
1809
  5
180A
331
16D1
  5
16D1
331
180D
  5
180F
331
16D5
  5
16D5
331
1029
  5
1029
331
1088
  5
1088
331
108C
  5
108C
331
17F1
  5
17F1
331
17F5
  5
17F5
331
17F9
  5
17F9
331
17FD
  5
17FD
331
16C5
  5
16C5
331
168A
  5
168A
331
168E
  5
168E
331
1019
  5
1019
331
101D
  5
101D
331
1021
  5
1021
331
1025
  5
1025
331
1080
  5
1080
331
1084
  5
1084
331
16A0
  5
16A0
331
17E8
  5
17E8
331
17EC
  5
17EC
331
16AC
  5
16AC
331
1008
  5
1008
331
100C
  5
100C
331
1010
  5
1010
331
1014
  5
1014
331
1067
  5
1067
331
106B
  5
106B
331
10B0
  5
10B0
331
106F
  5
106F
331
1811
  5
1813
331
16D9
  5
16D9
331
1815
  5
1817
331
1690
  5
1690
331
16DD
  5
16DD
331
1694
  5
1694
331
1698
  5
1698
331
169C
  5
169C
331
103F
  5
103F
331
1043
  5
1043
331
1800
  5
1800
331
1804
  5
1805
331
16C8
  5
16C8
331
16CC
  5
16CC
331
180C
  5
180E
331
16D0
  5
16D0
331
16D4
  5
16D4
331
1509
  5
1509
331
1028
  5
1028
331
108B
  5
108B
331
108F
  5
108F
331
17F0
  5
17F0
331
17F4
  5
17F4
331
16B4
  5
16B4
331
17F8
  5
17F8
331
17FC
  5
17FC
331
16C4
  5
16C4
331
168D
  5
168D
331
1018
  5
1018
331
101C
  5
101C
331
1020
  5
1020
331
107B
  5
107B
331
1024
  5
1024
331
1083
  5
1083
331
1087
  5
1087
331
17E7
  5
17E7
331
17EB
  5
17EB
331
16AB
  5
16AB
331
17EF
  5
17EF
331
100B
  5
100B
331
100F
  5
100F
331
1013
  5
1013
331
1017
  5
1017
331
10AF
  5
10AF
331
1066
  5
1066
331
106A
  5
106A
331
106E
  5
106E
331
1853
  5
1804
331
1857
  5
1857
331
1693
  5
1693
331
1810
  5
1812
331
1697
  5
1697
331
1814
  5
1816
331
16D8
  5
16D8
331
169B
  5
169B
331
1818
  5
1853
331
169F
  5
169F
331
16E8
  5
16E8
331
1803
  5
1803
331
16CB
  5
16CB
331
1807
  5
1808
331
180B
  5
180D
331
16CF
  5
16CF
331
16D3
  5
16D3
331
180F
  5
1811
331
16D7
  5
16D7
331
108A
  5
108A
331
108E
  5
108E
331
17F3
  5
17F3
331
17F7
  5
17F7
331
17FB
  5
17FB
331
1778
  5
1778
331
16C3
  5
16C3
331
17FF
  5
17FF
331
168C
  5
168C
331
101B
  5
101B
331
101F
  5
101F
331
1023
  5
1023
331
107A
  5
107A
331
1082
  5
1082
331
16A6
  5
16A6
331
17EA
  5
17EA
331
17EE
  5
17EE
331
100A
  5
100A
331
100E
  5
100E
331
1012
  5
1012
331
1016
  5
1016
331
1065
  5
1065
331
10B2
  5
10B2
331
1069
  5
1069
331
106D
  5
106D
331
1852
  5
180B
331
1813
  5
1815
331
1856
  5
1856
331
16DB
  5
16DB
331
1817
  5
1852
331
1692
  5
1692
331
1696
  5
1696
331
169A
  5
169A
331
169E
  5
169E
331
147A
  5
147A
331
1041
  5
1041
331
10A6
  5
10A6
331
1802
  5
1802
331
16CA
  5
16CA
331
16CE
  5
16CE
331
180A
  5
180C
331
16D2
  5
16D2
331
180E
  5
1810
331
16D6
  5
16D6
331
102A
  5
102A
331
1089
  5
1089
331
108D
  5
108D
331
17F6
  5
17F6
331
17FA
  5
17FA
331
17FE
  5
17FE
331
168B
  5
168B
331
168F
  5
168F
  0
SORTENTSTABLE
  5
D97
102
{ACAD_REACTORS
330
D96
102
}
330
D96
100
AcDbSortentsTable
330
D06
  0
SORTENTSTABLE
  5
F6A
102
{ACAD_REACTORS
330
F69
102
}
330
F69
100
AcDbSortentsTable
330
EE0
  0
SORTENTSTABLE
  5
11D2
102
{ACAD_REACTORS
330
11D1
102
}
330
11D1
100
AcDbSortentsTable
330
11CF
  0
SORTENTSTABLE
  5
17A1
102
{ACAD_REACTORS
330
17A0
102
}
330
17A0
100
AcDbSortentsTable
330
179C
  0
SORTENTSTABLE
  5
183F
102
{ACAD_REACTORS
330
183E
102
}
330
183E
100
AcDbSortentsTable
330
1822
  0
DIMASSOC
  5
1493
102
{ACAD_REACTORS
330
1488
102
}
330
1488
100
AcDbDimAssoc
330
147A
 90
        3
 70
     0
 71
     0
  1
AcDbOsnapPointRef
 72
    10
331
1028
 73
     2
 91
        0
 40
0.4422195232121768
 10
0.0
 20
0.0
 30
0.0
 75
     0
  1
AcDbOsnapPointRef
 72
    10
331
103F
 73
     2
 91
        0
 40
0.4465481182485301
 10
0.0
 20
0.0
 30
0.0
 75
     0
  0
DIMASSOC
  5
1522
102
{ACAD_REACTORS
330
1517
102
}
330
1517
100
AcDbDimAssoc
330
1509
 90
        3
 70
     0
 71
     0
  1
AcDbOsnapPointRef
 72
    13
331
1026
 73
     2
 91
        0
 40
0.0
 10
0.0
 20
0.0
 30
2.000000000000000E+50
 75
     0
  1
AcDbOsnapPointRef
 72
    13
331
1043
 73
     2
 91
        0
 40
0.0
 10
0.0
 20
0.0
 30
2.000000000000000E+50
 75
     0
  0
DIMASSOC
  5
1559
102
{ACAD_REACTORS
330
154D
102
}
330
154D
100
AcDbDimAssoc
330
153E
 90
        3
 70
     0
 71
     0
  1
AcDbOsnapPointRef
 72
    13
331
1026
 73
     2
 91
        0
 40
0.0
 10
0.0
 20
0.0
 30
2.000000000000000E+50
 75
     0
  1
AcDbOsnapPointRef
 72
    10
331
101F
 73
     2
 91
        0
 40
0.0833095896670574
 10
0.0
 20
0.0
 30
0.0
 75
     0
  0
DIMASSOC
  5
1701
102
{ACAD_REACTORS
330
16F6
102
}
330
16F6
100
AcDbDimAssoc
330
16E8
 90
        3
 70
     0
 71
     0
  1
AcDbOsnapPointRef
 72
    13
331
108B
 73
     2
 91
        0
 40
0.0
 10
0.0
 20
0.0
 30
2.000000000000000E+50
 75
     0
  1
AcDbOsnapPointRef
 72
     1
331
108B
 73
     2
 91
        0
 40
1.0
 10
0.0
 20
0.0
 30
2.000000000000000E+50
 75
     0
  0
DIMASSOC
  5
1791
102
{ACAD_REACTORS
330
1786
102
}
330
1786
100
AcDbDimAssoc
330
1778
 90
        3
 70
     0
 71
     0
  1
AcDbOsnapPointRef
 72
    13
331
1068
 73
     2
 91
        0
 40
0.0
 10
0.0
 20
0.0
 30
2.000000000000000E+50
 75
     0
  1
AcDbOsnapPointRef
 72
    13
331
1026
 73
     2
 91
        0
 40
0.0
 10
0.0
 20
0.0
 30
2.000000000000000E+50
 75
     0
  0
ACDBDETAILVIEWSTYLE
  5
1994
102
{ACAD_XDICTIONARY
360
1B88
102
}
102
{ACAD_REACTORS
330
1993
102
}
330
1993
100
AcDbModelDocViewStyle
 70
     0
  3
Metric50
290
     0
100
AcDbDetailViewStyle
 70
     0
 71
     0
 90
        3
 71
     1
340
11
 62
   256
 40
5.0
340
0
 62
   256
 40
5.0
300

 40
0.0
280
     1
 71
     2
340
16
 90
       25
 62
   256
 71
     3
340
11
 62
   256
 40
5.0
 90
        0
 40
15.0
 90
        1
300
%<\AcVar ViewDetailId>% (%<\AcVar ViewScale \f "%sn">%)
 71
     4
340
16
 90
       25
 62
   256
340
16
 90
       25
 62
   256
280
     0
  0
LAYOUT
  5
539
102
{ACAD_REACTORS
330
1A
102
}
330
1A
100
AcDbPlotSettings
  1

  2
none_device
  4
ISO_A4_(297.00_x_210.00_MM)
  6

 40
0.0
 41
0.0
 42
0.0
 43
0.0
 44
297.0
 45
210.0
 46
0.0
 47
0.0
 48
0.0
 49
0.0
140
0.0
141
0.0
142
1.0
143
1.0
 70
     0
 72
     1
 73
     0
 74
     0
  7

 75
     0
147
1.0
 76
     0
 77
     2
 78
   300
148
0.0
149
0.0
100
AcDbLayout
  1
Layout1
 70
     1
 71
     1
 10
0.0
 20
0.0
 11
12.0
 21
9.0
 12
0.0
 22
0.0
 32
0.0
 14
1.000000000000000E+20
 24
1.000000000000000E+20
 34
1.000000000000000E+20
 15
-1.000000000000000E+20
 25
-1.000000000000000E+20
 35
-1.000000000000000E+20
146
0.0
 13
0.0
 23
0.0
 33
0.0
 16
1.0
 26
0.0
 36
0.0
 17
0.0
 27
1.0
 37
0.0
 76
     0
330
232
  0
LAYOUT
  5
538
102
{ACAD_REACTORS
330
1A
102
}
330
1A
100
AcDbPlotSettings
  1

  2
none_device
  4
ISO_A4_(297.00_x_210.00_MM)
  6

 40
0.0
 41
0.0
 42
0.0
 43
0.0
 44
297.0
 45
210.0
 46
0.0
 47
0.0
 48
0.0
 49
0.0
140
0.0
141
0.0
142
1.0
143
1.0
 70
  1024
 72
     1
 73
     0
 74
     0
  7

 75
     0
147
1.0
 76
     0
 77
     2
 78
   300
148
0.0
149
0.0
100
AcDbLayout
  1
Model
 70
     0
 71
     0
 10
0.0
 20
0.0
 11
297.0
 21
210.0
 12
0.0
 22
0.0
 32
0.0
 14
0.0
 24
0.0
 34
0.0
 15
0.0
 25
0.0
 35
0.0
146
0.0
 13
0.0
 23
0.0
 33
0.0
 16
1.0
 26
0.0
 36
0.0
 17
0.0
 27
1.0
 37
0.0
 76
     0
330
231
331
1F4
  0
MATERIAL
  5
540
102
{ACAD_REACTORS
330
53E
102
}
330
53E
100
AcDbMaterial
  1
ByBlock
 73
     1
 78
     1
172
     1
176
     1
270
     1
274
     1
 94
       63
  0
MATERIAL
  5
53F
102
{ACAD_REACTORS
330
53E
102
}
330
53E
100
AcDbMaterial
  1
ByLayer
 73
     1
 78
     1
172
     1
176
     1
270
     1
274
     1
 94
       63
  0
MATERIAL
  5
541
102
{ACAD_REACTORS
330
53E
102
}
330
53E
100
AcDbMaterial
  1
Global
 73
     1
 78
     1
172
     1
176
     1
270
     1
274
     1
 94
       63
  0
MLEADERSTYLE
  5
1990
102
{ACAD_REACTORS
330
198F
102
}
330
198F
100
AcDbMLeaderStyle
179
     2
170
     2
171
     1
172
     0
 90
        2
 40
0.0
 41
0.0
173
     1
 91
-1056964608
340
14
 92
       -2
290
     1
 42
2.0
291
     1
 43
0.36
  3
Standard
 44
4.0
300

342
11
174
     1
178
     6
175
     1
176
     0
 93
-1056964608
 45
4.0
292
     0
297
     0
 46
4.0
 94
-1056964608
 47
1.0
 49
1.0
140
1.0
293
     1
141
0.0
294
     1
177
     0
142
1.0
295
     1
296
     0
143
0.125
271
     0
272
     9
273
     9
298
     1
  0
MLINESTYLE
  5
18
102
{ACAD_REACTORS
330
17
102
}
330
17
100
AcDbMlineStyle
  2
STANDARD
 70
     0
  3

 62
   256
 51
90.0
 52
90.0
 71
     2
 49
0.5
 62
   256
  6
BYLAYER
 49
-0.5
 62
   256
  6
BYLAYER
  0
ACDBPLACEHOLDER
  5
F
102
{ACAD_REACTORS
330
E
102
}
330
E
  0
SCALE
  5
197E
102
{ACAD_REACTORS
330
197D
102
}
330
197D
100
AcDbScale
 70
     0
300
1:1
140
1.0
141
1.0
290
     1
  0
SCALE
  5
197F
102
{ACAD_REACTORS
330
197D
102
}
330
197D
100
AcDbScale
 70
     0
300
1:2
140
1.0
141
2.0
290
     0
  0
SCALE
  5
1980
102
{ACAD_REACTORS
330
197D
102
}
330
197D
100
AcDbScale
 70
     0
300
1:4
140
1.0
141
4.0
290
     0
  0
SCALE
  5
1981
102
{ACAD_REACTORS
330
197D
102
}
330
197D
100
AcDbScale
 70
     0
300
1:5
140
1.0
141
5.0
290
     0
  0
SCALE
  5
1982
102
{ACAD_REACTORS
330
197D
102
}
330
197D
100
AcDbScale
 70
     0
300
1:8
140
1.0
141
8.0
290
     0
  0
SCALE
  5
1983
102
{ACAD_REACTORS
330
197D
102
}
330
197D
100
AcDbScale
 70
     0
300
1:10
140
1.0
141
10.0
290
     0
  0
SCALE
  5
1984
102
{ACAD_REACTORS
330
197D
102
}
330
197D
100
AcDbScale
 70
     0
300
1:16
140
1.0
141
16.0
290
     0
  0
SCALE
  5
1985
102
{ACAD_REACTORS
330
197D
102
}
330
197D
100
AcDbScale
 70
     0
300
1:20
140
1.0
141
20.0
290
     0
  0
SCALE
  5
1986
102
{ACAD_REACTORS
330
197D
102
}
330
197D
100
AcDbScale
 70
     0
300
1:30
140
1.0
141
30.0
290
     0
  0
SCALE
  5
1987
102
{ACAD_REACTORS
330
197D
102
}
330
197D
100
AcDbScale
 70
     0
300
1:40
140
1.0
141
40.0
290
     0
  0
SCALE
  5
1988
102
{ACAD_REACTORS
330
197D
102
}
330
197D
100
AcDbScale
 70
     0
300
1:50
140
1.0
141
50.0
290
     0
  0
SCALE
  5
1989
102
{ACAD_REACTORS
330
197D
102
}
330
197D
100
AcDbScale
 70
     0
300
1:100
140
1.0
141
100.0
290
     0
  0
SCALE
  5
198A
102
{ACAD_REACTORS
330
197D
102
}
330
197D
100
AcDbScale
 70
     0
300
2:1
140
2.0
141
1.0
290
     0
  0
SCALE
  5
198B
102
{ACAD_REACTORS
330
197D
102
}
330
197D
100
AcDbScale
 70
     0
300
4:1
140
4.0
141
1.0
290
     0
  0
SCALE
  5
198C
102
{ACAD_REACTORS
330
197D
102
}
330
197D
100
AcDbScale
 70
     0
300
8:1
140
8.0
141
1.0
290
     0
  0
SCALE
  5
198D
102
{ACAD_REACTORS
330
197D
102
}
330
197D
100
AcDbScale
 70
     0
300
10:1
140
10.0
141
1.0
290
     0
  0
SCALE
  5
198E
102
{ACAD_REACTORS
330
197D
102
}
330
197D
100
AcDbScale
 70
     0
300
100:1
140
100.0
141
1.0
290
     0
  0
ACDBSECTIONVIEWSTYLE
  5
1992
102
{ACAD_XDICTIONARY
360
1B86
102
}
102
{ACAD_REACTORS
330
1991
102
}
330
1991
100
AcDbModelDocViewStyle
 70
     0
  3
Metric50
290
     0
100
AcDbSectionViewStyle
 70
     0
 71
     0
 90
      102
 71
     1
340
11
 62
   256
 40
5.0
340
0
340
0
 62
   256
 40
5.0
300
I, O, Q, S, X, Z
 40
10.0
 90
        0
 40
2.5
 90
        0
 71
     2
340
16
 90
       25
 62
   256
340
16
 90
       50
 62
   256
 40
5.0
 40
2.5
 40
5.0
 71
     3
340
11
 62
   256
 40
5.0
 90
        0
 40
15.0
 90
        1
300
%<\AcVar ViewSectionStartId>%-%<\AcVar ViewSectionEndId>% (%<\AcVar ViewScale \f "%sn">%)
 71
     4
 62
   256
 62
   257
300
ANSI31
 40
1.0
 90
        0
290
     0
290
     0
 90
        6
 40
0.0
 40
1.570796326794896
 40
0.2617993877991494
 40
1.308996938995747
 40
-0.2617993877991494
 40
1.832595714594046
  0
TABLESTYLE
  5
53A
102
{ACAD_XDICTIONARY
360
1B82
102
}
102
{ACAD_REACTORS
330
537
102
}
330
537
100
AcDbTableStyle
280
     0
  3
Standard
 70
     0
 71
     0
 40
0.06
 41
0.06
280
     1
281
     1
  7
STANDARD
140
0.18
170
     1
 62
     0
 63
     7
283
     0
 90
      512
 91
        0
  1

274
    -2
284
     1
 64
     0
275
    -2
285
     1
 65
     0
276
    -2
286
     1
 66
     0
277
    -2
287
     1
 67
     0
278
    -2
288
     1
 68
     0
279
    -2
289
     1
 69
     0
  7
STANDARD
140
0.18
170
     1
 62
     0
 63
     7
283
     0
 90
      512
 91
        0
  1

274
    -2
284
     1
 64
     0
275
    -2
285
     1
 65
     0
276
    -2
286
     1
 66
     0
277
    -2
287
     1
 67
     0
278
    -2
288
     1
 68
     0
279
    -2
289
     1
 69
     0
  7
STANDARD
140
0.18
170
     1
 62
     0
 63
     7
283
     0
 90
      512
 91
        0
  1

274
    -2
284
     1
 64
     0
275
    -2
285
     1
 65
     0
276
    -2
286
     1
 66
     0
277
    -2
287
     1
 67
     0
278
    -2
288
     1
 68
     0
279
    -2
289
     1
 69
     0
  0
TABLESTYLE
  5
53B
102
{ACAD_XDICTIONARY
360
1B84
102
}
102
{ACAD_REACTORS
330
537
102
}
330
537
100
AcDbTableStyle
280
     0
  3
Standard1
 70
     1
 71
     0
 40
0.06
 41
0.06
280
     1
281
     1
  7
STANDARD
140
0.18
170
     1
 62
     0
 63
     7
283
     0
 90
      512
 91
        0
  1

274
    -2
284
     1
 64
     0
275
    -2
285
     1
 65
     0
276
    -2
286
     1
 66
     0
277
    -2
287
     1
 67
     0
278
    -2
288
     1
 68
     0
279
    -2
289
     1
 69
     0
  7
STANDARD
140
0.18
170
     1
 62
     0
 63
     7
283
     0
 90
      512
 91
        0
  1

274
    -2
284
     1
 64
     0
275
    -2
285
     1
 65
     0
276
    -2
286
     1
 66
     0
277
    -2
287
     1
 67
     0
278
    -2
288
     1
 68
     0
279
    -2
289
     1
 69
     0
  7
STANDARD
140
0.18
170
     1
 62
     0
 63
     7
283
     0
 90
      512
 91
        0
  1

274
    -2
284
     1
 64
     0
275
    -2
285
     1
 65
     0
276
    -2
286
     1
 66
     0
277
    -2
287
     1
 67
     0
278
    -2
288
     1
 68
     0
279
    -2
289
     1
 69
     0
  0
VISUALSTYLE
  5
548
102
{ACAD_REACTORS
330
542
102
}
330
542
100
AcDbVisualStyle
  2
2dWireframe
 70
     4
177
     3
291
     0
 70
    58
 90
        0
176
     1
 90
        2
176
     1
 90
        0
176
     1
 90
        0
176
     1
 40
0.6
176
     1
 40
30.0
176
     1
 62
     7
420
 16777215
176
     1
 90
        1
176
     1
 90
        4
176
     1
 62
     7
176
     1
 62
   257
176
     1
 90
        1
176
     1
 90
        1
176
     1
 40
1.0
176
     1
 90
        0
176
     1
 62
   257
176
     1
 40
1.0
176
     1
 90
        1
176
     1
 90
        6
176
     1
 90
        2
176
     1
 62
     7
176
     1
 90
        5
176
     1
 90
        0
176
     1
 90
        0
176
     1
290
     0
176
     1
 90
        1
176
     1
 40
0.0
176
     1
 90
        0
176
     1
290
     1
176
     1
290
     1
176
     1
290
     0
176
     1
290
     0
176
     1
290
     0
176
     1
290
     0
176
     1
290
     0
176
     1
290
     0
176
     1
290
     0
176
     1
 90
       50
176
     1
 40
0.0
176
     1
 40
1.0
176
     1
 90
        0
176
     1
 62
    18
420
        0
176
     1
 90
       50
176
     1
 90
        3
176
     1
 62
     5
420
      255
176
     1
290
     0
176
     1
 90
       50
176
     1
 90
       50
176
     1
 90
       50
176
     1
290
     0
176
     1
 90
       50
176
     1
 62
   256
176
     0
 40
1.0
176
     0
 90
        2
176
     1
  1
strokes_ogs.tif
176
     1
290
     0
176
     1
 40
1.0
176
     1
 40
1.0
176
     1
  0
VISUALSTYLE
  5
54A
102
{ACAD_REACTORS
330
542
102
}
330
542
100
AcDbVisualStyle
  2
3D Hidden
 70
     6
177
     3
291
     0
 70
    58
 90
        1
176
     1
 90
        2
176
     1
 90
        2
176
     1
 90
        0
176
     1
 40
0.6
176
     1
 40
30.0
176
     1
 62
     7
420
 16777215
176
     1
 90
        2
176
     1
 90
        2
176
     1
 62
     7
176
     1
 62
   257
176
     1
 90
        2
176
     1
 90
        1
176
     1
 40
40.0
176
     1
 90
        0
176
     1
 62
   257
176
     1
 40
1.0
176
     1
 90
        1
176
     1
 90
        6
176
     1
 90
        2
176
     1
 62
     7
176
     1
 90
        3
176
     1
 90
        0
176
     1
 90
        0
176
     1
290
     0
176
     1
 90
        1
176
     1
 40
0.0
176
     1
 90
        0
176
     1
290
     0
176
     1
290
     1
176
     1
290
     1
176
     1
290
     0
176
     1
290
     0
176
     1
290
     0
176
     1
290
     0
176
     1
290
     0
176
     1
290
     0
176
     1
 90
       50
176
     1
 40
0.0
176
     1
 40
1.0
176
     1
 90
        0
176
     1
 62
    18
420
        0
176
     1
 90
       50
176
     1
 90
        3
176
     1
 62
     5
420
      255
176
     1
290
     0
176
     1
 90
       50
176
     1
 90
       50
176
     1
 90
       50
176
     1
290
     0
176
     1
 90
       50
176
     1
 62
   256
176
     0
 40
1.0
176
     0
 90
        2
176
     1
  1
strokes_ogs.tif
176
     1
290
     0
176
     1
 40
1.0
176
     1
 40
1.0
176
     1
  0
VISUALSTYLE
  5
549
102
{ACAD_REACTORS
330
542
102
}
330
542
100
AcDbVisualStyle
  2
3dWireframe
 70
     5
177
     3
291
     0
 70
    58
 90
        0
176
     1
 90
        2
176
     1
 90
        0
176
     1
 90
        0
176
     1
 40
0.6
176
     1
 40
30.0
176
     1
 62
     7
420
 16777215
176
     1
 90
        1
176
     1
 90
        4
176
     1
 62
     7
176
     1
 62
   257
176
     1
 90
        1
176
     1
 90
        1
176
     1
 40
1.0
176
     1
 90
        0
176
     1
 62
   257
176
     1
 40
1.0
176
     1
 90
        1
176
     1
 90
        6
176
     1
 90
        2
176
     1
 62
     7
176
     1
 90
        5
176
     1
 90
        0
176
     1
 90
        0
176
     1
290
     0
176
     1
 90
        1
176
     1
 40
0.0
176
     1
 90
        0
176
     1
290
     0
176
     1
290
     1
176
     1
290
     1
176
     1
290
     0
176
     1
290
     0
176
     1
290
     0
176
     1
290
     0
176
     1
290
     0
176
     1
290
     0
176
     1
 90
       50
176
     1
 40
0.0
176
     1
 40
1.0
176
     1
 90
        0
176
     1
 62
    18
420
        0
176
     1
 90
       50
176
     1
 90
        3
176
     1
 62
     5
420
      255
176
     1
290
     0
176
     1
 90
       50
176
     1
 90
       50
176
     1
 90
       50
176
     1
290
     0
176
     1
 90
       50
176
     1
 62
   256
176
     0
 40
1.0
176
     0
 90
        2
176
     1
  1
strokes_ogs.tif
176
     1
290
     0
176
     1
 40
1.0
176
     1
 40
1.0
176
     1
  0
VISUALSTYLE
  5
547
102
{ACAD_REACTORS
330
542
102
}
330
542
100
AcDbVisualStyle
  2
Basic
 70
     7
177
     3
291
     1
 70
    58
 90
        1
176
     1
 90
        0
176
     1
 90
        1
176
     1
 90
        0
176
     1
 40
0.6
176
     1
 40
30.0
176
     1
 62
     7
420
 16777215
176
     1
 90
        0
176
     1
 90
        4
176
     1
 62
     7
176
     1
 62
   257
176
     1
 90
        1
176
     1
 90
        1
176
     1
 40
1.0
176
     1
 90
        8
176
     1
 62
     7
176
     1
 40
1.0
176
     1
 90
        1
176
     1
 90
        6
176
     1
 90
        2
176
     1
 62
     7
176
     1
 90
        5
176
     1
 90
        0
176
     1
 90
        0
176
     1
290
     0
176
     1
 90
        1
176
     1
 40
0.0
176
     1
 90
        0
176
     1
290
     0
176
     1
290
     1
176
     1
290
     1
176
     1
290
     0
176
     1
290
     0
176
     1
290
     0
176
     1
290
     0
176
     1
290
     0
176
     1
290
     0
176
     1
 90
       50
176
     1
 40
0.0
176
     1
 40
1.0
176
     1
 90
        0
176
     1
 62
    18
420
        0
176
     1
 90
       50
176
     1
 90
        3
176
     1
 62
     5
420
      255
176
     1
290
     0
176
     1
 90
       50
176
     1
 90
       50
176
     1
 90
       50
176
     1
290
     0
176
     1
 90
       50
176
     1
 62
   256
176
     0
 40
1.0
176
     0
 90
        2
176
     1
  1
strokes_ogs.tif
176
     1
290
     0
176
     1
 40
1.0
176
     1
 40
1.0
176
     1
  0
VISUALSTYLE
  5
54E
102
{ACAD_REACTORS
330
542
102
}
330
542
100
AcDbVisualStyle
  2
Brighten
 70
    12
177
     3
291
     1
 70
    58
 90
        2
176
     1
 90
        2
176
     1
 90
        0
176
     1
 90
        0
176
     1
 40
0.6
176
     1
 40
30.0
176
     1
 62
     7
420
 16777215
176
     1
 90
        1
176
     1
 90
        4
176
     1
 62
     7
176
     1
 62
   257
176
     1
 90
        1
176
     1
 90
        1
176
     1
 40
1.0
176
     1
 90
        8
176
     1
 62
     7
176
     1
 40
1.0
176
     1
 90
        1
176
     1
 90
        6
176
     1
 90
        2
176
     1
 62
     7
176
     1
 90
        5
176
     1
 90
        0
176
     1
 90
        0
176
     1
290
     0
176
     1
 90
        1
176
     1
 40
50.0
176
     1
 90
        0
176
     1
290
     0
176
     1
290
     1
176
     1
290
     1
176
     1
290
     0
176
     1
290
     0
176
     1
290
     0
176
     1
290
     0
176
     1
290
     0
176
     1
290
     0
176
     1
 90
       50
176
     1
 40
0.0
176
     1
 40
1.0
176
     1
 90
        0
176
     1
 62
    18
420
        0
176
     1
 90
       50
176
     1
 90
        3
176
     1
 62
     5
420
      255
176
     1
290
     0
176
     1
 90
       50
176
     1
 90
       50
176
     1
 90
       50
176
     1
290
     0
176
     1
 90
       50
176
     1
 62
   256
176
     0
 40
1.0
176
     0
 90
        2
176
     1
  1
strokes_ogs.tif
176
     1
290
     0
176
     1
 40
1.0
176
     1
 40
1.0
176
     1
  0
VISUALSTYLE
  5
552
102
{ACAD_REACTORS
330
542
102
}
330
542
100
AcDbVisualStyle
  2
ColorChange
 70
    16
177
     3
291
     1
 70
    58
 90
        2
176
     1
 90
        2
176
     1
 90
        3
176
     1
 90
        0
176
     1
 40
0.6
176
     1
 40
30.0
176
     1
 62
     8
420
  8421504
176
     1
 90
        1
176
     1
 90
        4
176
     1
 62
     7
176
     1
 62
   257
176
     1
 90
        1
176
     1
 90
        1
176
     1
 40
1.0
176
     1
 90
        8
176
     1
 62
     8
420
  8421504
176
     1
 40
1.0
176
     1
 90
        1
176
     1
 90
        6
176
     1
 90
        2
176
     1
 62
     7
176
     1
 90
        5
176
     1
 90
        0
176
     1
 90
        0
176
     1
290
     0
176
     1
 90
        1
176
     1
 40
0.0
176
     1
 90
        0
176
     1
290
     0
176
     1
290
     1
176
     1
290
     1
176
     1
290
     0
176
     1
290
     0
176
     1
290
     0
176
     1
290
     0
176
     1
290
     0
176
     1
290
     0
176
     1
 90
       50
176
     1
 40
0.0
176
     1
 40
1.0
176
     1
 90
        0
176
     1
 62
    18
420
        0
176
     1
 90
       50
176
     1
 90
        3
176
     1
 62
     5
420
      255
176
     1
290
     0
176
     1
 90
       50
176
     1
 90
       50
176
     1
 90
       50
176
     1
290
     0
176
     1
 90
       50
176
     1
 62
   256
176
     0
 40
1.0
176
     0
 90
        2
176
     1
  1
strokes_ogs.tif
176
     1
290
     0
176
     1
 40
1.0
176
     1
 40
1.0
176
     1
  0
VISUALSTYLE
  5
54B
102
{ACAD_REACTORS
330
542
102
}
330
542
100
AcDbVisualStyle
  2
Conceptual
 70
     9
177
     3
291
     0
 70
    58
 90
        3
176
     1
 90
        2
176
     1
 90
        0
176
     1
 90
        0
176
     1
 40
0.6
176
     1
 40
30.0
176
     1
 62
     7
420
 16777215
176
     1
 90
        2
176
     1
 90
        2
176
     1
 62
     7
176
     1
 62
   257
176
     1
 90
        1
176
     1
 90
        1
176
     1
 40
40.0
176
     1
 90
        8
176
     1
 62
     7
176
     1
 40
1.0
176
     1
 90
        1
176
     1
 90
        6
176
     1
 90
        2
176
     1
 62
     7
176
     1
 90
        3
176
     1
 90
        0
176
     1
 90
        0
176
     1
290
     0
176
     1
 90
        1
176
     1
 40
0.0
176
     1
 90
        0
176
     1
290
     0
176
     1
290
     1
176
     1
290
     1
176
     1
290
     0
176
     1
290
     0
176
     1
290
     0
176
     1
290
     0
176
     1
290
     0
176
     1
290
     0
176
     1
 90
       50
176
     1
 40
0.0
176
     1
 40
1.0
176
     1
 90
        0
176
     1
 62
    18
420
        0
176
     1
 90
       50
176
     1
 90
        3
176
     1
 62
     5
420
      255
176
     1
290
     0
176
     1
 90
       50
176
     1
 90
       50
176
     1
 90
       50
176
     1
290
     0
176
     1
 90
       50
176
     1
 62
   256
176
     0
 40
1.0
176
     0
 90
        2
176
     1
  1
strokes_ogs.tif
176
     1
290
     0
176
     1
 40
1.0
176
     1
 40
1.0
176
     1
  0
VISUALSTYLE
  5
54D
102
{ACAD_REACTORS
330
542
102
}
330
542
100
AcDbVisualStyle
  2
Dim
 70
    11
177
     3
291
     1
 70
    58
 90
        2
176
     1
 90
        2
176
     1
 90
        0
176
     1
 90
        0
176
     1
 40
0.6
176
     1
 40
30.0
176
     1
 62
     7
420
 16777215
176
     1
 90
        1
176
     1
 90
        4
176
     1
 62
     7
176
     1
 62
   257
176
     1
 90
        1
176
     1
 90
        1
176
     1
 40
1.0
176
     1
 90
        8
176
     1
 62
     7
176
     1
 40
1.0
176
     1
 90
        1
176
     1
 90
        6
176
     1
 90
        2
176
     1
 62
     7
176
     1
 90
        5
176
     1
 90
        0
176
     1
 90
        0
176
     1
290
     0
176
     1
 90
        1
176
     1
 40
-50.0
176
     1
 90
        0
176
     1
290
     0
176
     1
290
     1
176
     1
290
     1
176
     1
290
     0
176
     1
290
     0
176
     1
290
     0
176
     1
290
     0
176
     1
290
     0
176
     1
290
     0
176
     1
 90
       50
176
     1
 40
0.0
176
     1
 40
1.0
176
     1
 90
        0
176
     1
 62
    18
420
        0
176
     1
 90
       50
176
     1
 90
        3
176
     1
 62
     5
420
      255
176
     1
290
     0
176
     1
 90
       50
176
     1
 90
       50
176
     1
 90
       50
176
     1
290
     0
176
     1
 90
       50
176
     1
 62
   256
176
     0
 40
1.0
176
     0
 90
        2
176
     1
  1
strokes_ogs.tif
176
     1
290
     0
176
     1
 40
1.0
176
     1
 40
1.0
176
     1
  0
VISUALSTYLE
  5
197C
102
{ACAD_REACTORS
330
542
102
}
330
542
100
AcDbVisualStyle
  2
EdgeColorOff
 70
    22
177
     3
291
     1
 70
    58
 90
        2
176
     0
 90
        2
176
     0
 90
        0
176
     0
 90
        0
176
     0
 40
0.6
176
     0
 40
30.0
176
     0
 62
     7
420
 16777215
176
     0
 90
        1
176
     0
 90
        4
176
     0
 62
     7
176
     0
 62
   257
176
     0
 90
        1
176
     0
 90
        1
176
     0
 40
1.0
176
     0
 90
        8
176
     2
 62
     7
176
     0
 40
1.0
176
     0
 90
        1
176
     0
 90
        6
176
     0
 90
        2
176
     0
 62
     7
176
     0
 90
        5
176
     0
 90
        0
176
     0
 90
        0
176
     0
290
     0
176
     0
 90
        1
176
     0
 40
0.0
176
     0
 90
        0
176
     0
290
     0
176
     0
290
     1
176
     0
290
     1
176
     0
290
     0
176
     0
290
     0
176
     0
290
     0
176
     0
290
     0
176
     0
290
     0
176
     0
290
     0
176
     0
 90
       50
176
     0
 40
0.0
176
     0
 40
1.0
176
     0
 90
        0
176
     0
 62
    18
420
        0
176
     0
 90
       50
176
     0
 90
        3
176
     0
 62
     5
420
      255
176
     0
290
     0
176
     0
 90
       50
176
     0
 90
       50
176
     0
 90
       50
176
     0
290
     0
176
     0
 90
       50
176
     0
 62
   256
176
     0
 40
1.0
176
     0
 90
        2
176
     0
  1
strokes_ogs.tif
176
     0
290
     0
176
     0
 40
1.0
176
     0
 40
1.0
176
     0
  0
VISUALSTYLE
  5
551
102
{ACAD_REACTORS
330
542
102
}
330
542
100
AcDbVisualStyle
  2
Facepattern
 70
    15
177
     3
291
     1
 70
    58
 90
        2
176
     1
 90
        2
176
     1
 90
        0
176
     1
 90
        0
176
     1
 40
0.6
176
     1
 40
30.0
176
     1
 62
     7
420
 16777215
176
     1
 90
        1
176
     1
 90
        4
176
     1
 62
     7
176
     1
 62
   257
176
     1
 90
        1
176
     1
 90
        1
176
     1
 40
1.0
176
     1
 90
        8
176
     1
 62
     7
176
     1
 40
1.0
176
     1
 90
        1
176
     1
 90
        6
176
     1
 90
        2
176
     1
 62
     7
176
     1
 90
        5
176
     1
 90
        0
176
     1
 90
        0
176
     1
290
     0
176
     1
 90
        1
176
     1
 40
0.0
176
     1
 90
        0
176
     1
290
     0
176
     1
290
     1
176
     1
290
     1
176
     1
290
     0
176
     1
290
     0
176
     1
290
     0
176
     1
290
     0
176
     1
290
     0
176
     1
290
     0
176
     1
 90
       50
176
     1
 40
0.0
176
     1
 40
1.0
176
     1
 90
        0
176
     1
 62
    18
420
        0
176
     1
 90
       50
176
     1
 90
        3
176
     1
 62
     5
420
      255
176
     1
290
     0
176
     1
 90
       50
176
     1
 90
       50
176
     1
 90
       50
176
     1
290
     0
176
     1
 90
       50
176
     1
 62
   256
176
     0
 40
1.0
176
     0
 90
        2
176
     1
  1
strokes_ogs.tif
176
     1
290
     0
176
     1
 40
1.0
176
     1
 40
1.0
176
     1
  0
VISUALSTYLE
  5
543
102
{ACAD_REACTORS
330
542
102
}
330
542
100
AcDbVisualStyle
  2
Flat
 70
     0
177
     3
291
     1
 70
    58
 90
        2
176
     1
 90
        1
176
     1
 90
        1
176
     1
 90
        2
176
     1
 40
0.6
176
     1
 40
30.0
176
     1
 62
     7
420
 16777215
176
     1
 90
        0
176
     1
 90
        4
176
     1
 62
     7
176
     1
 62
   257
176
     1
 90
        1
176
     1
 90
        1
176
     1
 40
1.0
176
     1
 90
        8
176
     1
 62
     7
176
     1
 40
1.0
176
     1
 90
        1
176
     1
 90
        6
176
     1
 90
        2
176
     1
 62
     7
176
     1
 90
        5
176
     1
 90
        0
176
     1
 90
        0
176
     1
290
     0
176
     1
 90
       13
176
     1
 40
0.0
176
     1
 90
        0
176
     1
290
     0
176
     1
290
     1
176
     1
290
     1
176
     1
290
     0
176
     1
290
     0
176
     1
290
     0
176
     1
290
     0
176
     1
290
     0
176
     1
290
     0
176
     1
 90
       50
176
     1
 40
0.0
176
     1
 40
1.0
176
     1
 90
        0
176
     1
 62
    18
420
        0
176
     1
 90
       50
176
     1
 90
        3
176
     1
 62
     5
420
      255
176
     1
290
     0
176
     1
 90
       50
176
     1
 90
       50
176
     1
 90
       50
176
     1
290
     0
176
     1
 90
       50
176
     1
 62
   256
176
     0
 40
1.0
176
     0
 90
        2
176
     1
  1
strokes_ogs.tif
176
     1
290
     0
176
     1
 40
1.0
176
     1
 40
1.0
176
     1
  0
VISUALSTYLE
  5
544
102
{ACAD_REACTORS
330
542
102
}
330
542
100
AcDbVisualStyle
  2
FlatWithEdges
 70
     1
177
     3
291
     1
 70
    58
 90
        2
176
     1
 90
        1
176
     1
 90
        1
176
     1
 90
        2
176
     1
 40
0.6
176
     1
 40
30.0
176
     1
 62
     7
420
 16777215
176
     1
 90
        1
176
     1
 90
        4
176
     1
 62
     7
176
     1
 62
   257
176
     1
 90
        1
176
     1
 90
        1
176
     1
 40
1.0
176
     1
 90
        0
176
     1
 62
   257
176
     1
 40
1.0
176
     1
 90
        1
176
     1
 90
        6
176
     1
 90
        2
176
     1
 62
     7
176
     1
 90
        5
176
     1
 90
        0
176
     1
 90
        0
176
     1
290
     0
176
     1
 90
       13
176
     1
 40
0.0
176
     1
 90
        0
176
     1
290
     0
176
     1
290
     1
176
     1
290
     1
176
     1
290
     0
176
     1
290
     0
176
     1
290
     0
176
     1
290
     0
176
     1
290
     0
176
     1
290
     0
176
     1
 90
       50
176
     1
 40
0.0
176
     1
 40
1.0
176
     1
 90
        0
176
     1
 62
    18
420
        0
176
     1
 90
       50
176
     1
 90
        3
176
     1
 62
     5
420
      255
176
     1
290
     0
176
     1
 90
       50
176
     1
 90
       50
176
     1
 90
       50
176
     1
290
     0
176
     1
 90
       50
176
     1
 62
   256
176
     0
 40
1.0
176
     0
 90
        2
176
     1
  1
strokes_ogs.tif
176
     1
290
     0
176
     1
 40
1.0
176
     1
 40
1.0
176
     1
  0
VISUALSTYLE
  5
545
102
{ACAD_REACTORS
330
542
102
}
330
542
100
AcDbVisualStyle
  2
Gouraud
 70
     2
177
     3
291
     1
 70
    58
 90
        2
176
     1
 90
        2
176
     1
 90
        1
176
     1
 90
        2
176
     1
 40
0.6
176
     1
 40
30.0
176
     1
 62
     7
420
 16777215
176
     1
 90
        0
176
     1
 90
        4
176
     1
 62
     7
176
     1
 62
   257
176
     1
 90
        1
176
     1
 90
        1
176
     1
 40
1.0
176
     1
 90
        0
176
     1
 62
     7
176
     1
 40
1.0
176
     1
 90
        1
176
     1
 90
        6
176
     1
 90
        2
176
     1
 62
     7
176
     1
 90
        5
176
     1
 90
        0
176
     1
 90
        0
176
     1
290
     0
176
     1
 90
       13
176
     1
 40
0.0
176
     1
 90
        0
176
     1
290
     0
176
     1
290
     1
176
     1
290
     1
176
     1
290
     0
176
     1
290
     0
176
     1
290
     0
176
     1
290
     0
176
     1
290
     0
176
     1
290
     0
176
     1
 90
       50
176
     1
 40
0.0
176
     1
 40
1.0
176
     1
 90
        0
176
     1
 62
    18
420
        0
176
     1
 90
       50
176
     1
 90
        3
176
     1
 62
     5
420
      255
176
     1
290
     0
176
     1
 90
       50
176
     1
 90
       50
176
     1
 90
       50
176
     1
290
     0
176
     1
 90
       50
176
     1
 62
   256
176
     0
 40
1.0
176
     0
 90
        2
176
     1
  1
strokes_ogs.tif
176
     1
290
     0
176
     1
 40
1.0
176
     1
 40
1.0
176
     1
  0
VISUALSTYLE
  5
546
102
{ACAD_REACTORS
330
542
102
}
330
542
100
AcDbVisualStyle
  2
GouraudWithEdges
 70
     3
177
     3
291
     1
 70
    58
 90
        2
176
     1
 90
        2
176
     1
 90
        1
176
     1
 90
        2
176
     1
 40
0.6
176
     1
 40
30.0
176
     1
 62
     7
420
 16777215
176
     1
 90
        1
176
     1
 90
        4
176
     1
 62
     7
176
     1
 62
   257
176
     1
 90
        1
176
     1
 90
        1
176
     1
 40
1.0
176
     1
 90
        0
176
     1
 62
   257
176
     1
 40
1.0
176
     1
 90
        1
176
     1
 90
        6
176
     1
 90
        2
176
     1
 62
     7
176
     1
 90
        5
176
     1
 90
        0
176
     1
 90
        0
176
     1
290
     0
176
     1
 90
       13
176
     1
 40
0.0
176
     1
 90
        0
176
     1
290
     0
176
     1
290
     1
176
     1
290
     1
176
     1
290
     0
176
     1
290
     0
176
     1
290
     0
176
     1
290
     0
176
     1
290
     0
176
     1
290
     0
176
     1
 90
       50
176
     1
 40
0.0
176
     1
 40
1.0
176
     1
 90
        0
176
     1
 62
    18
420
        0
176
     1
 90
       50
176
     1
 90
        3
176
     1
 62
     5
420
      255
176
     1
290
     0
176
     1
 90
       50
176
     1
 90
       50
176
     1
 90
       50
176
     1
290
     0
176
     1
 90
       50
176
     1
 62
   256
176
     0
 40
1.0
176
     0
 90
        2
176
     1
  1
strokes_ogs.tif
176
     1
290
     0
176
     1
 40
1.0
176
     1
 40
1.0
176
     1
  0
VISUALSTYLE
  5
1974
102
{ACAD_REACTORS
330
542
102
}
330
542
100
AcDbVisualStyle
  2
Hidden
 70
     6
177
     3
291
     0
 70
    58
 90
        1
176
     1
 90
        2
176
     1
 90
        2
176
     1
 90
        0
176
     1
 40
0.6
176
     1
 40
30.0
176
     1
 62
     7
420
 16777215
176
     1
 90
        2
176
     1
 90
        2
176
     1
 62
     7
176
     1
 62
   257
176
     1
 90
        2
176
     1
 90
        1
176
     1
 40
40.0
176
     1
 90
        0
176
     1
 62
   257
176
     1
 40
1.0
176
     1
 90
        1
176
     1
 90
        6
176
     1
 90
        2
176
     1
 62
     7
176
     1
 90
        3
176
     1
 90
        0
176
     1
 90
        0
176
     1
290
     0
176
     1
 90
        1
176
     1
 40
0.0
176
     1
 90
        0
176
     1
290
     0
176
     1
290
     1
176
     1
290
     1
176
     1
290
     0
176
     1
290
     0
176
     1
290
     0
176
     1
290
     0
176
     1
290
     0
176
     1
290
     0
176
     1
 90
       50
176
     1
 40
0.0
176
     1
 40
1.0
176
     1
 90
        0
176
     1
 62
    18
420
        0
176
     1
 90
       50
176
     1
 90
        3
176
     1
 62
     5
420
      255
176
     1
290
     0
176
     1
 90
       50
176
     1
 90
       50
176
     1
 90
       50
176
     1
290
     0
176
     1
 90
       50
176
     1
 62
   256
176
     0
 40
1.0
176
     0
 90
        2
176
     1
  1
strokes_ogs.tif
176
     1
290
     0
176
     1
 40
1.0
176
     1
 40
1.0
176
     1
  0
VISUALSTYLE
  5
197A
102
{ACAD_REACTORS
330
542
102
}
330
542
100
AcDbVisualStyle
  2
JitterOff
 70
    20
177
     3
291
     1
 70
    58
 90
        2
176
     0
 90
        2
176
     0
 90
        0
176
     0
 90
        0
176
     0
 40
0.6
176
     0
 40
30.0
176
     0
 62
     7
420
 16777215
176
     0
 90
        1
176
     0
 90
        4
176
     0
 62
     7
176
     0
 62
   257
176
     0
 90
        1
176
     0
 90
        1
176
     0
 40
1.0
176
     0
 90
       10
176
     2
 62
     7
176
     0
 40
1.0
176
     0
 90
        1
176
     0
 90
        6
176
     0
 90
        2
176
     0
 62
     7
176
     0
 90
        5
176
     0
 90
        0
176
     0
 90
        0
176
     0
290
     0
176
     0
 90
        1
176
     0
 40
0.0
176
     0
 90
        0
176
     0
290
     0
176
     0
290
     1
176
     0
290
     1
176
     0
290
     0
176
     0
290
     0
176
     0
290
     0
176
     0
290
     0
176
     0
290
     0
176
     0
290
     0
176
     0
 90
       50
176
     0
 40
0.0
176
     0
 40
1.0
176
     0
 90
        0
176
     0
 62
    18
420
        0
176
     0
 90
       50
176
     0
 90
        3
176
     0
 62
     5
420
      255
176
     0
290
     0
176
     0
 90
       50
176
     0
 90
       50
176
     0
 90
       50
176
     0
290
     0
176
     0
 90
       50
176
     0
 62
   256
176
     0
 40
1.0
176
     0
 90
        2
176
     0
  1
strokes_ogs.tif
176
     0
290
     0
176
     0
 40
1.0
176
     0
 40
1.0
176
     0
  0
VISUALSTYLE
  5
550
102
{ACAD_REACTORS
330
542
102
}
330
542
100
AcDbVisualStyle
  2
Linepattern
 70
    14
177
     3
291
     1
 70
    58
 90
        2
176
     1
 90
        2
176
     1
 90
        0
176
     1
 90
        0
176
     1
 40
0.6
176
     1
 40
30.0
176
     1
 62
     7
420
 16777215
176
     1
 90
        1
176
     1
 90
        4
176
     1
 62
     7
176
     1
 62
   257
176
     1
 90
        7
176
     1
 90
        7
176
     1
 40
1.0
176
     1
 90
        8
176
     1
 62
     7
176
     1
 40
1.0
176
     1
 90
        1
176
     1
 90
        6
176
     1
 90
        2
176
     1
 62
     7
176
     1
 90
        5
176
     1
 90
        0
176
     1
 90
        0
176
     1
290
     0
176
     1
 90
        1
176
     1
 40
0.0
176
     1
 90
        0
176
     1
290
     0
176
     1
290
     1
176
     1
290
     1
176
     1
290
     0
176
     1
290
     0
176
     1
290
     0
176
     1
290
     0
176
     1
290
     0
176
     1
290
     0
176
     1
 90
       50
176
     1
 40
0.0
176
     1
 40
1.0
176
     1
 90
        0
176
     1
 62
    18
420
        0
176
     1
 90
       50
176
     1
 90
        3
176
     1
 62
     5
420
      255
176
     1
290
     0
176
     1
 90
       50
176
     1
 90
       50
176
     1
 90
       50
176
     1
290
     0
176
     1
 90
       50
176
     1
 62
   256
176
     0
 40
1.0
176
     0
 90
        2
176
     1
  1
strokes_ogs.tif
176
     1
290
     0
176
     1
 40
1.0
176
     1
 40
1.0
176
     1
  0
VISUALSTYLE
  5
197B
102
{ACAD_REACTORS
330
542
102
}
330
542
100
AcDbVisualStyle
  2
OverhangOff
 70
    21
177
     3
291
     1
 70
    58
 90
        2
176
     0
 90
        2
176
     0
 90
        0
176
     0
 90
        0
176
     0
 40
0.6
176
     0
 40
30.0
176
     0
 62
     7
420
 16777215
176
     0
 90
        1
176
     0
 90
        4
176
     0
 62
     7
176
     0
 62
   257
176
     0
 90
        1
176
     0
 90
        1
176
     0
 40
1.0
176
     0
 90
        9
176
     2
 62
     7
176
     0
 40
1.0
176
     0
 90
        1
176
     0
 90
        6
176
     0
 90
        2
176
     0
 62
     7
176
     0
 90
        5
176
     0
 90
        0
176
     0
 90
        0
176
     0
290
     0
176
     0
 90
        1
176
     0
 40
0.0
176
     0
 90
        0
176
     0
290
     0
176
     0
290
     1
176
     0
290
     1
176
     0
290
     0
176
     0
290
     0
176
     0
290
     0
176
     0
290
     0
176
     0
290
     0
176
     0
290
     0
176
     0
 90
       50
176
     0
 40
0.0
176
     0
 40
1.0
176
     0
 90
        0
176
     0
 62
    18
420
        0
176
     0
 90
       50
176
     0
 90
        3
176
     0
 62
     5
420
      255
176
     0
290
     0
176
     0
 90
       50
176
     0
 90
       50
176
     0
 90
       50
176
     0
290
     0
176
     0
 90
       50
176
     0
 62
   256
176
     0
 40
1.0
176
     0
 90
        2
176
     0
  1
strokes_ogs.tif
176
     0
290
     0
176
     0
 40
1.0
176
     0
 40
1.0
176
     0
  0
VISUALSTYLE
  5
54C
102
{ACAD_REACTORS
330
542
102
}
330
542
100
AcDbVisualStyle
  2
Realistic
 70
     8
177
     3
291
     0
 70
    58
 90
        2
176
     1
 90
        2
176
     1
 90
        0
176
     1
 90
        0
176
     1
 40
0.6
176
     1
 40
30.0
176
     1
 62
     7
420
 16777215
176
     1
 90
        1
176
     1
 90
        0
176
     1
 62
     7
176
     1
 62
   257
176
     1
 90
        1
176
     1
 90
        1
176
     1
 40
1.0
176
     1
 90
        8
176
     1
 62
     8
420
  7895160
176
     1
 40
1.0
176
     1
 90
        1
176
     1
 90
        6
176
     1
 90
        2
176
     1
 62
     7
176
     1
 90
        5
176
     1
 90
        0
176
     1
 90
        0
176
     1
290
     0
176
     1
 90
       13
176
     1
 40
0.0
176
     1
 90
        0
176
     1
290
     0
176
     1
290
     1
176
     1
290
     1
176
     1
290
     0
176
     1
290
     0
176
     1
290
     0
176
     1
290
     0
176
     1
290
     0
176
     1
290
     0
176
     1
 90
       50
176
     1
 40
0.0
176
     1
 40
1.0
176
     1
 90
        0
176
     1
 62
    18
420
        0
176
     1
 90
       50
176
     1
 90
        3
176
     1
 62
     5
420
      255
176
     1
290
     0
176
     1
 90
       50
176
     1
 90
       50
176
     1
 90
       50
176
     1
290
     0
176
     1
 90
       50
176
     1
 62
   256
176
     0
 40
1.0
176
     0
 90
        2
176
     1
  1
strokes_ogs.tif
176
     1
290
     0
176
     1
 40
1.0
176
     1
 40
1.0
176
     1
  0
VISUALSTYLE
  5
1979
102
{ACAD_REACTORS
330
542
102
}
330
542
100
AcDbVisualStyle
  2
Shaded
 70
    27
177
     3
291
     0
 70
    58
 90
        2
176
     1
 90
        2
176
     1
 90
        1
176
     1
 90
        2
176
     1
 40
0.6
176
     1
 40
30.0
176
     1
 62
     7
420
 16777215
176
     1
 90
        0
176
     1
 90
        4
176
     1
 62
     7
176
     1
 62
   257
176
     1
 90
        1
176
     1
 90
        1
176
     1
 40
1.0
176
     1
 90
        8
176
     1
 62
   257
176
     1
 40
1.0
176
     1
 90
        1
176
     1
 90
        6
176
     1
 90
        2
176
     1
 62
     8
420
  7895160
176
     1
 90
        3
176
     1
 90
        0
176
     1
 90
        0
176
     1
290
     0
176
     1
 90
        5
176
     1
 40
0.0
176
     1
 90
        0
176
     1
290
     0
176
     1
290
     1
176
     1
290
     1
176
     1
290
     0
176
     1
290
     0
176
     1
290
     0
176
     1
290
     0
176
     1
290
     0
176
     1
290
     0
176
     1
 90
       50
176
     1
 40
0.0
176
     1
 40
1.0
176
     1
 90
        0
176
     1
 62
    18
420
        0
176
     1
 90
       50
176
     1
 90
        3
176
     1
 62
     5
420
      255
176
     1
290
     0
176
     1
 90
       50
176
     1
 90
       50
176
     1
 90
       50
176
     1
290
     0
176
     1
 90
       50
176
     1
 62
   256
176
     0
 40
1.0
176
     0
 90
        2
176
     1
  1
strokes_ogs.tif
176
     1
290
     0
176
     1
 40
1.0
176
     1
 40
1.0
176
     1
  0
VISUALSTYLE
  5
1978
102
{ACAD_REACTORS
330
542
102
}
330
542
100
AcDbVisualStyle
  2
Shaded with edges
 70
    26
177
     3
291
     0
 70
    58
 90
        2
176
     1
 90
        2
176
     1
 90
        1
176
     1
 90
        2
176
     1
 40
0.6
176
     1
 40
30.0
176
     1
 62
     7
420
 16777215
176
     1
 90
        1
176
     1
 90
        2
176
     1
 62
     7
176
     1
 62
   257
176
     1
 90
        2
176
     1
 90
        1
176
     1
 40
1.0
176
     1
 90
        8
176
     1
 62
   257
176
     1
 40
1.0
176
     1
 90
        1
176
     1
 90
        6
176
     1
 90
        2
176
     1
 62
     7
176
     1
 90
        3
176
     1
 90
        0
176
     1
 90
        0
176
     1
290
     0
176
     1
 90
        5
176
     1
 40
0.0
176
     1
 90
        0
176
     1
290
     0
176
     1
290
     1
176
     1
290
     1
176
     1
290
     0
176
     1
290
     0
176
     1
290
     0
176
     1
290
     0
176
     1
290
     0
176
     1
290
     0
176
     1
 90
       50
176
     1
 40
0.0
176
     1
 40
1.0
176
     1
 90
        0
176
     1
 62
    18
420
        0
176
     1
 90
       50
176
     1
 90
        3
176
     1
 62
     5
420
      255
176
     1
290
     0
176
     1
 90
       50
176
     1
 90
       50
176
     1
 90
       50
176
     1
290
     0
176
     1
 90
       50
176
     1
 62
   256
176
     0
 40
1.0
176
     0
 90
        2
176
     1
  1
strokes_ogs.tif
176
     1
290
     0
176
     1
 40
1.0
176
     1
 40
1.0
176
     1
  0
VISUALSTYLE
  5
1975
102
{ACAD_REACTORS
330
542
102
}
330
542
100
AcDbVisualStyle
  2
Shades of Gray
 70
    23
177
     3
291
     0
 70
    58
 90
        2
176
     1
 90
        2
176
     1
 90
        3
176
     1
 90
        0
176
     1
 40
0.6
176
     1
 40
30.0
176
     1
 62
     7
420
 16777215
176
     1
 90
        2
176
     1
 90
        2
176
     1
 62
     7
176
     1
 62
     7
176
     1
 90
        1
176
     1
 90
        1
176
     1
 40
40.0
176
     1
 90
        8
176
     1
 62
     7
176
     1
 40
1.0
176
     1
 90
        1
176
     1
 90
        6
176
     1
 90
        2
176
     1
 62
     7
176
     1
 90
        3
176
     1
 90
        0
176
     1
 90
        0
176
     1
290
     0
176
     1
 90
        1
176
     1
 40
0.0
176
     1
 90
        0
176
     1
290
     0
176
     1
290
     1
176
     1
290
     1
176
     1
290
     0
176
     1
290
     0
176
     1
290
     0
176
     1
290
     0
176
     1
290
     0
176
     1
290
     0
176
     1
 90
       50
176
     1
 40
0.0
176
     1
 40
1.0
176
     1
 90
        0
176
     1
 62
    18
420
        0
176
     1
 90
       50
176
     1
 90
        3
176
     1
 62
     5
420
      255
176
     1
290
     0
176
     1
 90
       50
176
     1
 90
       50
176
     1
 90
       50
176
     1
290
     0
176
     1
 90
       50
176
     1
 62
   256
176
     0
 40
1.0
176
     0
 90
        2
176
     1
  1
strokes_ogs.tif
176
     1
290
     0
176
     1
 40
1.0
176
     1
 40
1.0
176
     1
  0
VISUALSTYLE
  5
1976
102
{ACAD_REACTORS
330
542
102
}
330
542
100
AcDbVisualStyle
  2
Sketchy
 70
    24
177
     3
291
     0
 70
    58
 90
        1
176
     1
 90
        2
176
     1
 90
        2
176
     1
 90
        0
176
     1
 40
0.6
176
     1
 40
30.0
176
     1
 62
     7
420
 16777215
176
     1
 90
        2
176
     1
 90
        2
176
     1
 62
     7
176
     1
 62
     7
176
     1
 90
        1
176
     1
 90
        1
176
     1
 40
40.0
176
     1
 90
       11
176
     1
 62
     7
176
     1
 40
1.0
176
     1
 90
        1
176
     1
 90
        6
176
     1
 90
        2
176
     1
 62
     7
176
     1
 90
        6
176
     1
 90
        0
176
     1
 90
        0
176
     1
290
     0
176
     1
 90
        1
176
     1
 40
0.0
176
     1
 90
        0
176
     1
290
     0
176
     1
290
     1
176
     1
290
     1
176
     1
290
     0
176
     1
290
     0
176
     1
290
     0
176
     1
290
     0
176
     1
290
     0
176
     1
290
     0
176
     1
 90
       50
176
     1
 40
0.0
176
     1
 40
1.0
176
     1
 90
        0
176
     1
 62
    18
420
        0
176
     1
 90
       50
176
     1
 90
        3
176
     1
 62
     5
420
      255
176
     1
290
     0
176
     1
 90
       50
176
     1
 90
       50
176
     1
 90
       50
176
     1
290
     0
176
     1
 90
       50
176
     1
 62
   256
176
     0
 40
1.0
176
     0
 90
        2
176
     1
  1
strokes_ogs.tif
176
     1
290
     0
176
     1
 40
1.0
176
     1
 40
1.0
176
     1
  0
VISUALSTYLE
  5
54F
102
{ACAD_REACTORS
330
542
102
}
330
542
100
AcDbVisualStyle
  2
Thicken
 70
    13
177
     3
291
     1
 70
    58
 90
        2
176
     1
 90
        2
176
     1
 90
        0
176
     1
 90
        0
176
     1
 40
0.6
176
     1
 40
30.0
176
     1
 62
     7
420
 16777215
176
     1
 90
        1
176
     1
 90
        4
176
     1
 62
     7
176
     1
 62
   257
176
     1
 90
        1
176
     1
 90
        1
176
     1
 40
1.0
176
     1
 90
       12
176
     1
 62
     7
176
     1
 40
1.0
176
     1
 90
        1
176
     1
 90
        6
176
     1
 90
        2
176
     1
 62
     7
176
     1
 90
        5
176
     1
 90
        0
176
     1
 90
        0
176
     1
290
     0
176
     1
 90
        1
176
     1
 40
0.0
176
     1
 90
        0
176
     1
290
     0
176
     1
290
     1
176
     1
290
     1
176
     1
290
     0
176
     1
290
     0
176
     1
290
     0
176
     1
290
     0
176
     1
290
     0
176
     1
290
     0
176
     1
 90
       50
176
     1
 40
0.0
176
     1
 40
1.0
176
     1
 90
        0
176
     1
 62
    18
420
        0
176
     1
 90
       50
176
     1
 90
        3
176
     1
 62
     5
420
      255
176
     1
290
     0
176
     1
 90
       50
176
     1
 90
       50
176
     1
 90
       50
176
     1
290
     0
176
     1
 90
       50
176
     1
 62
   256
176
     0
 40
1.0
176
     0
 90
        2
176
     1
  1
strokes_ogs.tif
176
     1
290
     0
176
     1
 40
1.0
176
     1
 40
1.0
176
     1
  0
VISUALSTYLE
  5
1973
102
{ACAD_REACTORS
330
542
102
}
330
542
100
AcDbVisualStyle
  2
Wireframe
 70
     5
177
     3
291
     0
 70
    58
 90
        0
176
     1
 90
        2
176
     1
 90
        0
176
     1
 90
        0
176
     1
 40
0.6
176
     1
 40
30.0
176
     1
 62
     7
420
 16777215
176
     1
 90
        1
176
     1
 90
        4
176
     1
 62
     7
176
     1
 62
   257
176
     1
 90
        1
176
     1
 90
        1
176
     1
 40
1.0
176
     1
 90
        0
176
     1
 62
   257
176
     1
 40
1.0
176
     1
 90
        1
176
     1
 90
        6
176
     1
 90
        2
176
     1
 62
     7
176
     1
 90
        3
176
     1
 90
        0
176
     1
 90
        0
176
     1
290
     0
176
     1
 90
        1
176
     1
 40
0.0
176
     1
 90
        0
176
     1
290
     0
176
     1
290
     1
176
     1
290
     1
176
     1
290
     0
176
     1
290
     0
176
     1
290
     0
176
     1
290
     0
176
     1
290
     0
176
     1
290
     0
176
     1
 90
       50
176
     1
 40
0.0
176
     1
 40
1.0
176
     1
 90
        0
176
     1
 62
    18
420
        0
176
     1
 90
       50
176
     1
 90
        3
176
     1
 62
     5
420
      255
176
     1
290
     0
176
     1
 90
       50
176
     1
 90
       50
176
     1
 90
       50
176
     1
290
     0
176
     1
 90
       50
176
     1
 62
   256
176
     0
 40
1.0
176
     0
 90
        2
176
     1
  1
strokes_ogs.tif
176
     1
290
     0
176
     1
 40
1.0
176
     1
 40
1.0
176
     1
  0
VISUALSTYLE
  5
1977
102
{ACAD_REACTORS
330
542
102
}
330
542
100
AcDbVisualStyle
  2
X-Ray
 70
    25
177
     3
291
     0
 70
    58
 90
        2
176
     1
 90
        2
176
     1
 90
        1
176
     1
 90
        1
176
     1
 40
0.5
176
     1
 40
30.0
176
     1
 62
     7
420
 16777215
176
     1
 90
        1
176
     1
 90
        0
176
     1
 62
     7
176
     1
 62
   257
176
     1
 90
        1
176
     1
 90
        1
176
     1
 40
1.0
176
     1
 90
        8
176
     1
 62
     7
176
     1
 40
1.0
176
     1
 90
        1
176
     1
 90
        6
176
     1
 90
        2
176
     1
 62
     7
176
     1
 90
        3
176
     1
 90
        0
176
     1
 90
        0
176
     1
290
     0
176
     1
 90
       13
176
     1
 40
0.0
176
     1
 90
        0
176
     1
290
     0
176
     1
290
     1
176
     1
290
     1
176
     1
290
     0
176
     1
290
     0
176
     1
290
     0
176
     1
290
     0
176
     1
290
     0
176
     1
290
     0
176
     1
 90
       50
176
     1
 40
0.0
176
     1
 40
1.0
176
     1
 90
        0
176
     1
 62
    18
420
        0
176
     1
 90
       50
176
     1
 90
        3
176
     1
 62
     5
420
      255
176
     1
290
     0
176
     1
 90
       50
176
     1
 90
       50
176
     1
 90
       50
176
     1
290
     0
176
     1
 90
       50
176
     1
 62
   256
176
     0
 40
1.0
176
     0
 90
        2
176
     1
  1
strokes_ogs.tif
176
     1
290
     0
176
     1
 40
1.0
176
     1
 40
1.0
176
     1
  0
DICTIONARYVAR
  5
1B7E
102
{ACAD_REACTORS
330
744
102
}
330
744
100
DictionaryVariables
280
     0
  1
1:1
  0
DICTIONARYVAR
  5
1B7A
102
{ACAD_REACTORS
330
744
102
}
330
744
100
DictionaryVariables
280
     0
  1
STANDARD
  0
DICTIONARYVAR
  5
745
102
{ACAD_REACTORS
330
744
102
}
330
744
100
DictionaryVariables
280
     0
  1
STANDARD
  0
DICTIONARYVAR
  5
1B7B
102
{ACAD_REACTORS
330
744
102
}
330
744
100
DictionaryVariables
280
     0
  1
Metric50
  0
DICTIONARYVAR
  5
1B7C
102
{ACAD_REACTORS
330
744
102
}
330
744
100
DictionaryVariables
280
     0
  1
Metric50
  0
DICTIONARYVAR
  5
1B80
102
{ACAD_REACTORS
330
744
102
}
330
744
100
DictionaryVariables
280
     0
  1
1
  0
DICTIONARYVAR
  5
1B81
102
{ACAD_REACTORS
330
744
102
}
330
744
100
DictionaryVariables
280
     0
  1
15
  0
DICTIONARYVAR
  5
1B7F
102
{ACAD_REACTORS
330
744
102
}
330
744
100
DictionaryVariables
280
     0
  1
0
  0
DICTIONARYVAR
  5
1B7D
102
{ACAD_REACTORS
330
744
102
}
330
744
100
DictionaryVariables
280
     0
  1
0
  0
XRECORD
  5
1960
102
{ACAD_REACTORS
330
195E
102
}
330
195E
100
AcDbXrecord
280
     1
330
483
330
484
330
491
330
492
330
CB4
330
CB5
330
CC0
330
CC1
330
CCD
330
CCE
330
CD9
330
CDA
330
CE6
330
CE7
330
CF3
330
CF4
330
CFF
330
D00
330
ED9
330
EDA
330
18A8
330
18A9
330
18B2
330
18B3
330
18F8
330
18F9
330
18C7
330
18C8
330
18D0
330
18D1
330
192B
330
192C
330
1922
330
1923
  0
DICTIONARY
  5
1B88
330
1994
100
AcDbDictionary
280
     1
281
     1
  3
ACAD_XREC_ROUNDTRIP
360
1B89
  0
DICTIONARY
  5
1B86
330
1992
100
AcDbDictionary
280
     1
281
     1
  3
ACAD_XREC_ROUNDTRIP
360
1B87
  0
DICTIONARY
  5
1B82
330
53A
100
AcDbDictionary
280
     1
281
     1
  3
ACAD_ROUNDTRIP_2008_TABLESTYLE_CELLSTYLEMAP
360
1B83
  0
DICTIONARY
  5
1B84
330
53B
100
AcDbDictionary
280
     1
281
     1
  3
ACAD_ROUNDTRIP_2008_TABLESTYLE_CELLSTYLEMAP
360
1B85
  0
XRECORD
  5
1B89
102
{ACAD_REACTORS
330
1B88
102
}
330
1B88
100
AcDbXrecord
280
     1
102
DISPLAYNAME
  1
Metric50
102
FLAGS
 90
        0
  0
XRECORD
  5
1B87
102
{ACAD_REACTORS
330
1B86
102
}
330
1B86
100
AcDbXrecord
280
     1
102
DISPLAYNAME
  1
Metric50
102
FLAGS
 90
        0
  0
CELLSTYLEMAP
  5
1B83
102
{ACAD_REACTORS
330
1B82
102
}
330
1B82
100
AcDbCellStyleMap
 90
        3
300
CELLSTYLE
  1
TABLEFORMAT_BEGIN
 90
        5
170
     1
 91
        0
 92
    32768
 62
   257
 93
        1
300
CONTENTFORMAT
  1
CONTENTFORMAT_BEGIN
 90
        0
 91
        0
 92
      512
 93
        0
300

 40
0.0
140
1.0
 94
        1
 62
     0
340
11
144
0.18
309
CONTENTFORMAT_END
171
     0
 94
        6
 95
        1
302
GRIDFORMAT
  1
GRIDFORMAT_BEGIN
 90
        0
 91
        1
 62
     0
 92
       -2
340
0
 93
        0
 40
0.045
309
GRIDFORMAT_END
 95
        2
302
GRIDFORMAT
  1
GRIDFORMAT_BEGIN
 90
        0
 91
        1
 62
     0
 92
       -2
340
0
 93
        0
 40
0.045
309
GRIDFORMAT_END
 95
        4
302
GRIDFORMAT
  1
GRIDFORMAT_BEGIN
 90
        0
 91
        1
 62
     0
 92
       -2
340
0
 93
        0
 40
0.045
309
GRIDFORMAT_END
 95
        8
302
GRIDFORMAT
  1
GRIDFORMAT_BEGIN
 90
        0
 91
        1
 62
     0
 92
       -2
340
0
 93
        0
 40
0.045
309
GRIDFORMAT_END
 95
       16
302
GRIDFORMAT
  1
GRIDFORMAT_BEGIN
 90
        0
 91
        1
 62
     0
 92
       -2
340
0
 93
        0
 40
0.045
309
GRIDFORMAT_END
 95
       32
302
GRIDFORMAT
  1
GRIDFORMAT_BEGIN
 90
        0
 91
        1
 62
     0
 92
       -2
340
0
 93
        0
 40
0.045
309
GRIDFORMAT_END
309
TABLEFORMAT_END
  1
CELLSTYLE_BEGIN
 90
        1
 91
        1
300
_TITLE
309
CELLSTYLE_END
300
CELLSTYLE
  1
TABLEFORMAT_BEGIN
 90
        5
170
     1
 91
        0
 92
        0
 62
   257
 93
        1
300
CONTENTFORMAT
  1
CONTENTFORMAT_BEGIN
 90
        0
 91
        0
 92
      512
 93
        0
300

 40
0.0
140
1.0
 94
        1
 62
     0
340
11
144
0.18
309
CONTENTFORMAT_END
171
     0
 94
        6
 95
        1
302
GRIDFORMAT
  1
GRIDFORMAT_BEGIN
 90
        0
 91
        1
 62
     0
 92
       -2
340
0
 93
        0
 40
0.045
309
GRIDFORMAT_END
 95
        2
302
GRIDFORMAT
  1
GRIDFORMAT_BEGIN
 90
        0
 91
        1
 62
     0
 92
       -2
340
0
 93
        0
 40
0.045
309
GRIDFORMAT_END
 95
        4
302
GRIDFORMAT
  1
GRIDFORMAT_BEGIN
 90
        0
 91
        1
 62
     0
 92
       -2
340
0
 93
        0
 40
0.045
309
GRIDFORMAT_END
 95
        8
302
GRIDFORMAT
  1
GRIDFORMAT_BEGIN
 90
        0
 91
        1
 62
     0
 92
       -2
340
0
 93
        0
 40
0.045
309
GRIDFORMAT_END
 95
       16
302
GRIDFORMAT
  1
GRIDFORMAT_BEGIN
 90
        0
 91
        1
 62
     0
 92
       -2
340
0
 93
        0
 40
0.045
309
GRIDFORMAT_END
 95
       32
302
GRIDFORMAT
  1
GRIDFORMAT_BEGIN
 90
        0
 91
        1
 62
     0
 92
       -2
340
0
 93
        0
 40
0.045
309
GRIDFORMAT_END
309
TABLEFORMAT_END
  1
CELLSTYLE_BEGIN
 90
        2
 91
        1
300
_HEADER
309
CELLSTYLE_END
300
CELLSTYLE
  1
TABLEFORMAT_BEGIN
 90
        5
170
     1
 91
        0
 92
        0
 62
   257
 93
        1
300
CONTENTFORMAT
  1
CONTENTFORMAT_BEGIN
 90
        0
 91
        0
 92
      512
 93
        0
300

 40
0.0
140
1.0
 94
        1
 62
     0
340
11
144
0.18
309
CONTENTFORMAT_END
171
     0
 94
        6
 95
        1
302
GRIDFORMAT
  1
GRIDFORMAT_BEGIN
 90
        0
 91
        1
 62
     0
 92
       -2
340
0
 93
        0
 40
0.045
309
GRIDFORMAT_END
 95
        2
302
GRIDFORMAT
  1
GRIDFORMAT_BEGIN
 90
        0
 91
        1
 62
     0
 92
       -2
340
0
 93
        0
 40
0.045
309
GRIDFORMAT_END
 95
        4
302
GRIDFORMAT
  1
GRIDFORMAT_BEGIN
 90
        0
 91
        1
 62
     0
 92
       -2
340
0
 93
        0
 40
0.045
309
GRIDFORMAT_END
 95
        8
302
GRIDFORMAT
  1
GRIDFORMAT_BEGIN
 90
        0
 91
        1
 62
     0
 92
       -2
340
0
 93
        0
 40
0.045
309
GRIDFORMAT_END
 95
       16
302
GRIDFORMAT
  1
GRIDFORMAT_BEGIN
 90
        0
 91
        1
 62
     0
 92
       -2
340
0
 93
        0
 40
0.045
309
GRIDFORMAT_END
 95
       32
302
GRIDFORMAT
  1
GRIDFORMAT_BEGIN
 90
        0
 91
        1
 62
     0
 92
       -2
340
0
 93
        0
 40
0.045
309
GRIDFORMAT_END
309
TABLEFORMAT_END
  1
CELLSTYLE_BEGIN
 90
        3
 91
        2
300
_DATA
309
CELLSTYLE_END
  0
CELLSTYLEMAP
  5
1B85
102
{ACAD_REACTORS
330
1B84
102
}
330
1B84
100
AcDbCellStyleMap
 90
        3
300
CELLSTYLE
  1
TABLEFORMAT_BEGIN
 90
        5
170
     1
 91
        0
 92
    32768
 62
   257
 93
        1
300
CONTENTFORMAT
  1
CONTENTFORMAT_BEGIN
 90
        0
 91
        0
 92
      512
 93
        0
300

 40
0.0
140
1.0
 94
        1
 62
     0
340
11
144
0.18
309
CONTENTFORMAT_END
171
     0
 94
        6
 95
        1
302
GRIDFORMAT
  1
GRIDFORMAT_BEGIN
 90
        0
 91
        1
 62
     0
 92
       -2
340
0
 93
        0
 40
0.045
309
GRIDFORMAT_END
 95
        2
302
GRIDFORMAT
  1
GRIDFORMAT_BEGIN
 90
        0
 91
        1
 62
     0
 92
       -2
340
0
 93
        0
 40
0.045
309
GRIDFORMAT_END
 95
        4
302
GRIDFORMAT
  1
GRIDFORMAT_BEGIN
 90
        0
 91
        1
 62
     0
 92
       -2
340
0
 93
        0
 40
0.045
309
GRIDFORMAT_END
 95
        8
302
GRIDFORMAT
  1
GRIDFORMAT_BEGIN
 90
        0
 91
        1
 62
     0
 92
       -2
340
0
 93
        0
 40
0.045
309
GRIDFORMAT_END
 95
       16
302
GRIDFORMAT
  1
GRIDFORMAT_BEGIN
 90
        0
 91
        1
 62
     0
 92
       -2
340
0
 93
        0
 40
0.045
309
GRIDFORMAT_END
 95
       32
302
GRIDFORMAT
  1
GRIDFORMAT_BEGIN
 90
        0
 91
        1
 62
     0
 92
       -2
340
0
 93
        0
 40
0.045
309
GRIDFORMAT_END
309
TABLEFORMAT_END
  1
CELLSTYLE_BEGIN
 90
        1
 91
        1
300
_TITLE
309
CELLSTYLE_END
300
CELLSTYLE
  1
TABLEFORMAT_BEGIN
 90
        5
170
     1
 91
        0
 92
        0
 62
   257
 93
        1
300
CONTENTFORMAT
  1
CONTENTFORMAT_BEGIN
 90
        0
 91
        0
 92
      512
 93
        0
300

 40
0.0
140
1.0
 94
        1
 62
     0
340
11
144
0.18
309
CONTENTFORMAT_END
171
     0
 94
        6
 95
        1
302
GRIDFORMAT
  1
GRIDFORMAT_BEGIN
 90
        0
 91
        1
 62
     0
 92
       -2
340
0
 93
        0
 40
0.045
309
GRIDFORMAT_END
 95
        2
302
GRIDFORMAT
  1
GRIDFORMAT_BEGIN
 90
        0
 91
        1
 62
     0
 92
       -2
340
0
 93
        0
 40
0.045
309
GRIDFORMAT_END
 95
        4
302
GRIDFORMAT
  1
GRIDFORMAT_BEGIN
 90
        0
 91
        1
 62
     0
 92
       -2
340
0
 93
        0
 40
0.045
309
GRIDFORMAT_END
 95
        8
302
GRIDFORMAT
  1
GRIDFORMAT_BEGIN
 90
        0
 91
        1
 62
     0
 92
       -2
340
0
 93
        0
 40
0.045
309
GRIDFORMAT_END
 95
       16
302
GRIDFORMAT
  1
GRIDFORMAT_BEGIN
 90
        0
 91
        1
 62
     0
 92
       -2
340
0
 93
        0
 40
0.045
309
GRIDFORMAT_END
 95
       32
302
GRIDFORMAT
  1
GRIDFORMAT_BEGIN
 90
        0
 91
        1
 62
     0
 92
       -2
340
0
 93
        0
 40
0.045
309
GRIDFORMAT_END
309
TABLEFORMAT_END
  1
CELLSTYLE_BEGIN
 90
        2
 91
        1
300
_HEADER
309
CELLSTYLE_END
300
CELLSTYLE
  1
TABLEFORMAT_BEGIN
 90
        5
170
     1
 91
        0
 92
        0
 62
   257
 93
        1
300
CONTENTFORMAT
  1
CONTENTFORMAT_BEGIN
 90
        0
 91
        0
 92
      512
 93
        0
300

 40
0.0
140
1.0
 94
        1
 62
     0
340
11
144
0.18
309
CONTENTFORMAT_END
171
     0
 94
        6
 95
        1
302
GRIDFORMAT
  1
GRIDFORMAT_BEGIN
 90
        0
 91
        1
 62
     0
 92
       -2
340
0
 93
        0
 40
0.045
309
GRIDFORMAT_END
 95
        2
302
GRIDFORMAT
  1
GRIDFORMAT_BEGIN
 90
        0
 91
        1
 62
     0
 92
       -2
340
0
 93
        0
 40
0.045
309
GRIDFORMAT_END
 95
        4
302
GRIDFORMAT
  1
GRIDFORMAT_BEGIN
 90
        0
 91
        1
 62
     0
 92
       -2
340
0
 93
        0
 40
0.045
309
GRIDFORMAT_END
 95
        8
302
GRIDFORMAT
  1
GRIDFORMAT_BEGIN
 90
        0
 91
        1
 62
     0
 92
       -2
340
0
 93
        0
 40
0.045
309
GRIDFORMAT_END
 95
       16
302
GRIDFORMAT
  1
GRIDFORMAT_BEGIN
 90
        0
 91
        1
 62
     0
 92
       -2
340
0
 93
        0
 40
0.045
309
GRIDFORMAT_END
 95
       32
302
GRIDFORMAT
  1
GRIDFORMAT_BEGIN
 90
        0
 91
        1
 62
     0
 92
       -2
340
0
 93
        0
 40
0.045
309
GRIDFORMAT_END
309
TABLEFORMAT_END
  1
CELLSTYLE_BEGIN
 90
        3
 91
        2
300
_DATA
309
CELLSTYLE_END
  0
ENDSEC
  0
EOF
