  0
SECTION
  2
HEADER
  9
$ACADVER
  1
AC1027
  9
$ACADMAINTVER
 70
   125
  9
$DWGCODEPAGE
  3
ANSI_1252
  9
$LASTSAVEDBY
  1
fleminab
  9
$REQUIREDVERSIONS
160
                 0
  9
$INSBASE
 10
8.0
 20
5.0
 30
0.0
  9
$EXTMIN
 10
807.9637528631646
 20
340.3827697704183
 30
0.0
  9
$EXTMAX
 10
6389.07082762971
 20
4529.725682817736
 30
0.0
  9
$LIMMIN
 10
0.0
 20
0.0
  9
$LIMMAX
 10
420.0
 20
297.0
  9
$ORTHOMODE
 70
     1
  9
$REGENMODE
 70
     1
  9
$FILLMODE
 70
     1
  9
$QTEXTMODE
 70
     0
  9
$MIRRTEXT
 70
     1
  9
$LTSCALE
 40
0.5
  9
$ATTMODE
 70
     1
  9
$TEXTSIZE
 40
6.0
  9
$TRACEWID
 40
1.0
  9
$TEXTSTYLE
  7
黑体
  9
$CLAYER
  8
标注
  9
$CELTYPE
  6
ByLayer
  9
$CECOLOR
 62
   256
  9
$CELTSCALE
 40
1.0
  9
$DISPSILH
 70
     1
  9
$DIMSCALE
 40
1.0
  9
$DIMASZ
 40
12.0
  9
$DIMEXO
 40
0.625
  9
$DIMDLI
 40
3.75
  9
$DIMRND
 40
0.0
  9
$DIMDLE
 40
0.0
  9
$DIMEXE
 40
8.0
  9
$DIMTP
 40
0.0
  9
$DIMTM
 40
0.0
  9
$DIMTXT
 40
30.0
  9
$DIMCEN
 40
2.5
  9
$DIMTSZ
 40
0.0
  9
$DIMTOL
 70
     0
  9
$DIMLIM
 70
     0
  9
$DIMTIH
 70
     0
  9
$DIMTOH
 70
     0
  9
$DIMSE1
 70
     0
  9
$DIMSE2
 70
     0
  9
$DIMTAD
 70
     1
  9
$DIMZIN
 70
     8
  9
$DIMBLK
  1

  9
$DIMASO
 70
     1
  9
$DIMSHO
 70
     1
  9
$DIMPOST
  1

  9
$DIMAPOST
  1

  9
$DIMALT
 70
     0
  9
$DIMALTD
 70
     3
  9
$DIMALTF
 40
0.03937007874016
  9
$DIMLFAC
 40
1.0
  9
$DIMTOFL
 70
     1
  9
$DIMTVP
 40
0.0
  9
$DIMTIX
 70
     0
  9
$DIMSOXD
 70
     0
  9
$DIMSAH
 70
     0
  9
$DIMBLK1
  1

  9
$DIMBLK2
  1

  9
$DIMSTYLE
  2
线性标注
  9
$DIMCLRD
 70
     0
  9
$DIMCLRE
 70
     0
  9
$DIMCLRT
 70
     0
  9
$DIMTFAC
 40
1.0
  9
$DIMGAP
 40
0.625
  9
$DIMJUST
 70
     0
  9
$DIMSD1
 70
     0
  9
$DIMSD2
 70
     0
  9
$DIMTOLJ
 70
     0
  9
$DIMTZIN
 70
     8
  9
$DIMALTZ
 70
     0
  9
$DIMALTTZ
 70
     0
  9
$DIMUPT
 70
     0
  9
$DIMDEC
 70
     1
  9
$DIMTDEC
 70
     1
  9
$DIMALTU
 70
     2
  9
$DIMALTTD
 70
     3
  9
$DIMTXSTY
  7
样式 1
  9
$DIMAUNIT
 70
     0
  9
$DIMADEC
 70
     0
  9
$DIMALTRND
 40
0.0
  9
$DIMAZIN
 70
     0
  9
$DIMDSEP
 70
    46
  9
$DIMATFIT
 70
     3
  9
$DIMFRAC
 70
     0
  9
$DIMLDRBLK
  1

  9
$DIMLUNIT
 70
     2
  9
$DIMLWD
 70
    -2
  9
$DIMLWE
 70
    -2
  9
$DIMTMOVE
 70
     0
  9
$DIMFXL
 40
1.25
  9
$DIMFXLON
 70
     0
  9
$DIMJOGANG
 40
1.570796326794896
  9
$DIMTFILL
 70
     0
  9
$DIMTFILLCLR
 70
     0
  9
$DIMARCSYM
 70
     0
  9
$DIMLTYPE
  6

  9
$DIMLTEX1
  6

  9
$DIMLTEX2
  6

  9
$DIMTXTDIRECTION
 70
     0
  9
$LUNITS
 70
     2
  9
$LUPREC
 70
     4
  9
$SKETCHINC
 40
1.0
  9
$FILLETRAD
 40
55.0
  9
$AUNITS
 70
     0
  9
$AUPREC
 70
     0
  9
$MENU
  1
.
  9
$ELEVATION
 40
0.0
  9
$PELEVATION
 40
0.0
  9
$THICKNESS
 40
0.0
  9
$LIMCHECK
 70
     0
  9
$CHAMFERA
 40
1.0
  9
$CHAMFERB
 40
1.0
  9
$CHAMFERC
 40
0.5
  9
$CHAMFERD
 40
0.7853981633974483
  9
$SKPOLY
 70
     0
  9
$TDCREATE
 40
2454593.406203704
  9
$TDUCREATE
 40
2454592.989546620
  9
$TDUPDATE
 40
2458015.655069444
  9
$TDUUPDATE
 40
2458015.238402778
  9
$TDINDWG
 40
8.3213812847
  9
$TDUSRTIMER
 40
8.3213754977
  9
$USRTIMER
 70
     1
  9
$ANGBASE
 50
0.0
  9
$ANGDIR
 70
     0
  9
$PDMODE
 70
    34
  9
$PDSIZE
 40
-2.0
  9
$PLINEWID
 40
0.0
  9
$SPLFRAME
 70
     0
  9
$SPLINETYPE
 70
     6
  9
$SPLINESEGS
 70
     8
  9
$HANDSEED
  5
6063D1C
  9
$SURFTAB1
 70
     6
  9
$SURFTAB2
 70
     6
  9
$SURFTYPE
 70
     6
  9
$SURFU
 70
     6
  9
$SURFV
 70
     6
  9
$UCSBASE
  2

  9
$UCSNAME
  2

  9
$UCSORG
 10
0.0
 20
0.0
 30
0.0
  9
$UCSXDIR
 10
1.0
 20
0.0
 30
0.0
  9
$UCSYDIR
 10
0.0
 20
1.0
 30
0.0
  9
$UCSORTHOREF
  2

  9
$UCSORTHOVIEW
 70
     1
  9
$UCSORGTOP
 10
0.0
 20
0.0
 30
0.0
  9
$UCSORGBOTTOM
 10
0.0
 20
0.0
 30
0.0
  9
$UCSORGLEFT
 10
0.0
 20
0.0
 30
0.0
  9
$UCSORGRIGHT
 10
0.0
 20
0.0
 30
0.0
  9
$UCSORGFRONT
 10
0.0
 20
0.0
 30
0.0
  9
$UCSORGBACK
 10
0.0
 20
0.0
 30
0.0
  9
$PUCSBASE
  2

  9
$PUCSNAME
  2

  9
$PUCSORG
 10
0.0
 20
0.0
 30
0.0
  9
$PUCSXDIR
 10
1.0
 20
0.0
 30
0.0
  9
$PUCSYDIR
 10
0.0
 20
1.0
 30
0.0
  9
$PUCSORTHOREF
  2

  9
$PUCSORTHOVIEW
 70
     0
  9
$PUCSORGTOP
 10
0.0
 20
0.0
 30
0.0
  9
$PUCSORGBOTTOM
 10
0.0
 20
0.0
 30
0.0
  9
$PUCSORGLEFT
 10
0.0
 20
0.0
 30
0.0
  9
$PUCSORGRIGHT
 10
0.0
 20
0.0
 30
0.0
  9
$PUCSORGFRONT
 10
0.0
 20
0.0
 30
0.0
  9
$PUCSORGBACK
 10
0.0
 20
0.0
 30
0.0
  9
$USERI1
 70
     0
  9
$USERI2
 70
     0
  9
$USERI3
 70
     0
  9
$USERI4
 70
     0
  9
$USERI5
 70
     0
  9
$USERR1
 40
0.0
  9
$USERR2
 40
0.0
  9
$USERR3
 40
0.0
  9
$USERR4
 40
0.0
  9
$USERR5
 40
0.0
  9
$WORLDVIEW
 70
     1
  9
$SHADEDGE
 70
     3
  9
$SHADEDIF
 70
    70
  9
$TILEMODE
 70
     1
  9
$MAXACTVP
 70
    64
  9
$PINSBASE
 10
0.0
 20
0.0
 30
0.0
  9
$PLIMCHECK
 70
     0
  9
$PEXTMIN
 10
0.0451739414299368
 20
0.0000025706221436
 30
0.0
  9
$PEXTMAX
 10
287.29517394143
 20
200.4000025706222
 30
0.0
  9
$PLIMMIN
 10
-4.7730712890625
 20
-4.773083209991455
  9
$PLIMMAX
 10
292.2375793457031
 20
205.2425875663757
  9
$UNITMODE
 70
     0
  9
$VISRETAIN
 70
     1
  9
$PLINEGEN
 70
     0
  9
$PSLTSCALE
 70
     0
  9
$TREEDEPTH
 70
  3020
  9
$CMLSTYLE
  2
Standard
  9
$CMLJUST
 70
     0
  9
$CMLSCALE
 40
20.0
  9
$PROXYGRAPHICS
 70
     1
  9
$MEASUREMENT
 70
     1
  9
$CELWEIGHT
370
    -1
  9
$ENDCAPS
280
     0
  9
$JOINSTYLE
280
     0
  9
$LWDISPLAY
290
     0
  9
$INSUNITS
 70
     4
  9
$HYPERLINKBASE
  1

  9
$STYLESHEET
  1
grayscaleDS.ctb
  9
$XEDIT
290
     1
  9
$CEPSNTYPE
380
     0
  9
$PSTYLEMODE
290
     1
  9
$FINGERPRINTGUID
  2
{FDEAD578-A652-11D2-9A35-0060089B3A3F}
  9
$VERSIONGUID
  2
{2A020BD1-CCB4-654D-8F67-E6D9811CD56A}
  9
$EXTNAMES
290
     1
  9
$PSVPSCALE
 40
1.0
  9
$OLESTARTUP
290
     0
  9
$SORTENTS
280
   127
  9
$INDEXCTL
280
     0
  9
$HIDETEXT
280
     1
  9
$XCLIPFRAME
280
     2
  9
$HALOGAP
280
     0
  9
$OBSCOLOR
 70
   257
  9
$OBSLTYPE
280
     0
  9
$INTERSECTIONDISPLAY
280
     0
  9
$INTERSECTIONCOLOR
 70
   257
  9
$DIMASSOC
280
     1
  9
$PROJECTNAME
  1

  9
$CAMERADISPLAY
290
     0
  9
$LENSLENGTH
 40
50.0
  9
$CAMERAHEIGHT
 40
0.0
  9
$STEPSPERSEC
 40
2.0
  9
$STEPSIZE
 40
6.0
  9
$3DDWFPREC
 40
2.0
  9
$PSOLWIDTH
 40
0.25
  9
$PSOLHEIGHT
 40
4.0
  9
$LOFTANG1
 40
1.570795999999999
  9
$LOFTANG2
 40
1.570795999999999
  9
$LOFTMAG1
 40
0.0
  9
$LOFTMAG2
 40
0.0
  9
$LOFTPARAM
 70
     7
  9
$LOFTNORMALS
280
     1
  9
$LATITUDE
 40
37.795
  9
$LONGITUDE
 40
-122.394
  9
$NORTHDIRECTION
 40
0.0
  9
$TIMEZONE
 70
 -8000
  9
$LIGHTGLYPHDISPLAY
280
     1
  9
$TILEMODELIGHTSYNCH
280
     1
  9
$CMATERIAL
347
982F
  9
$SOLIDHIST
280
     0
  9
$SHOWHIST
280
     1
  9
$DWFFRAME
280
     2
  9
$DGNFRAME
280
     2
  9
$REALWORLDSCALE
290
     1
  9
$INTERFERECOLOR
 62
   256
  9
$INTERFEREOBJVS
345
9851
  9
$INTERFEREVPVS
346
6377B
  9
$CSHADOW
280
     0
  9
$SHADOWPLANELOCATION
 40
0.0
  0
ENDSEC
  0
SECTION
  2
CLASSES
  0
CLASS
  1
ACDBDICTIONARYWDFLT
  2
AcDbDictionaryWithDefault
  3
ObjectDBX Classes
 90
        0
 91
        1
280
     0
281
     0
  0
CLASS
  1
ACDBPLACEHOLDER
  2
AcDbPlaceHolder
  3
ObjectDBX Classes
 90
        0
 91
        1
280
     0
281
     0
  0
CLASS
  1
LAYOUT
  2
AcDbLayout
  3
ObjectDBX Classes
 90
        0
 91
        2
280
     0
281
     0
  0
CLASS
  1
PLOTSETTINGS
  2
AcDbPlotSettings
  3
ObjectDBX Classes
 90
        0
 91
        1
280
     0
281
     0
  0
CLASS
  1
DICTIONARYVAR
  2
AcDbDictionaryVar
  3
ObjectDBX Classes
 90
        0
 91
       20
280
     0
281
     0
  0
CLASS
  1
WIPEOUT
  2
AcDbWipeout
  3
WipeOut|Product Desc: Object Enabler for WipeOut entity | Company: Autodesk, Inc. | WEB Address: www.autodesk.com
 90
     2175
 91
        0
280
     0
281
     1
  0
CLASS
  1
WIPEOUTVARIABLES
  2
AcDbWipeoutVariables
  3
"WipeOut|Product Desc:     WipeOut Dbx Application|Company:          Autodesk, Inc.|WEB Address:      www.autodesk.com"
 90
        0
 91
        0
280
     0
281
     0
  0
CLASS
  1
DIMASSOC
  2
AcDbDimAssoc
  3
"AcDbDimAssoc|Product Desc:     AcDim ARX App For Dimension|Company:          Autodesk, Inc.|WEB Address:      www.autodesk.com"
 90
        0
 91
        0
280
     0
281
     0
  0
CLASS
  1
RASTERVARIABLES
  2
AcDbRasterVariables
  3
ISM
 90
        0
 91
        3
280
     0
281
     0
  0
CLASS
  1
IMAGEDEF
  2
AcDbRasterImageDef
  3
ISM
 90
        0
 91
        1
280
     0
281
     0
  0
CLASS
  1
IMAGEDEF_REACTOR
  2
AcDbRasterImageDefReactor
  3
ISM
 90
        1
 91
        0
280
     0
281
     0
  0
CLASS
  1
IMAGE
  2
AcDbRasterImage
  3
ISM
 90
     2175
 91
        0
280
     0
281
     1
  0
CLASS
  1
MATERIAL
  2
AcDbMaterial
  3
ObjectDBX Classes
 90
     1153
 91
        3
280
     0
281
     0
  0
CLASS
  1
VISUALSTYLE
  2
AcDbVisualStyle
  3
ObjectDBX Classes
 90
     4095
 91
       26
280
     0
281
     0
  0
CLASS
  1
TABLESTYLE
  2
AcDbTableStyle
  3
ObjectDBX Classes
 90
     4095
 91
        1
280
     0
281
     0
  0
CLASS
  1
SCALE
  2
AcDbScale
  3
ObjectDBX Classes
 90
     1153
 91
       33
280
     0
281
     0
  0
CLASS
  1
MLEADERSTYLE
  2
AcDbMLeaderStyle
  3
ACDB_MLEADERSTYLE_CLASS
 90
     4095
 91
        1
280
     0
281
     0
  0
CLASS
  1
CELLSTYLEMAP
  2
AcDbCellStyleMap
  3
ObjectDBX Classes
 90
     1152
 91
        2
280
     0
281
     0
  0
CLASS
  1
SORTENTSTABLE
  2
AcDbSortentsTable
  3
ObjectDBX Classes
 90
        0
 91
        1
280
     0
281
     0
  0
CLASS
  1
ACDBSECTIONVIEWSTYLE
  2
AcDbSectionViewStyle
  3
ObjectDBX Classes
 90
     1025
 91
        1
280
     0
281
     0
  0
CLASS
  1
ACDBDETAILVIEWSTYLE
  2
AcDbDetailViewStyle
  3
ObjectDBX Classes
 90
     1025
 91
        1
280
     0
281
     0
  0
ENDSEC
  0
SECTION
  2
TABLES
  0
TABLE
  2
VPORT
  5
1A
102
{ACAD_XDICTIONARY
360
62567
102
}
330
0
100
AcDbSymbolTable
 70
     1
1001
ACAD
1000
DbSaveVer
1071
        5
  0
VPORT
  5
6376C
330
1A
100
AcDbSymbolTableRecord
100
AcDbViewportTableRecord
  2
*Active
 70
     0
 10
0.0
 20
0.0
 11
1.0
 21
1.0
 12
5066.74817245032
 22
3507.302446582385
 13
0.0
 23
0.0
 14
10.0
 24
10.0
 15
10.0
 25
10.0
 16
0.0
 26
0.0
 36
1.0
 17
0.0
 27
0.0
 37
0.0
 40
2455.282944165605
 41
2.292712066905615
 42
50.0
 43
0.0
 44
0.0
 50
0.0
 51
0.0
 71
    16
 72
 20000
 73
     1
 74
     1
 75
     0
 76
     0
 77
     0
 78
     0
281
     0
 65
     1
110
0.0
120
0.0
130
0.0
111
1.0
121
0.0
131
0.0
112
0.0
122
1.0
132
0.0
 79
     0
146
0.0
348
984D
 60
     3
 61
     5
292
     1
282
     1
141
0.0
142
0.0
 63
   250
421
  3355443
1001
ACAD_NAV_VCDISPLAY
1070
     3
  0
ENDTAB
  0
TABLE
  2
LTYPE
  5
15
330
0
100
AcDbSymbolTable
 70
     3
  0
LTYPE
  5
16
330
15
100
AcDbSymbolTableRecord
100
AcDbLinetypeTableRecord
  2
ByBlock
 70
     0
  3

 72
    65
 73
     0
 40
0.0
  0
LTYPE
  5
17
330
15
100
AcDbSymbolTableRecord
100
AcDbLinetypeTableRecord
  2
ByLayer
 70
     0
  3

 72
    65
 73
     0
 40
0.0
  0
LTYPE
  5
8
330
15
100
AcDbSymbolTableRecord
100
AcDbLinetypeTableRecord
  2
Continuous
 70
     0
  3
Solid line
 72
    65
 73
     0
 40
0.0
  0
LTYPE
  5
3FE
330
15
100
AcDbSymbolTableRecord
100
AcDbLinetypeTableRecord
  2
CENTER
 70
     0
  3
Center ____ _ ____ _ ____ _ ____ _ ____ _ ____
 72
    65
 73
     4
 40
50.8
 49
31.75
 74
     0
 49
-6.349999999999998
 74
     0
 49
6.349999999999998
 74
     0
 49
-6.349999999999998
 74
     0
  0
LTYPE
  5
63BD9
330
15
100
AcDbSymbolTableRecord
100
AcDbLinetypeTableRecord
  2
ACAD_ISO02W100
 70
     0
  3
ISO dash __ __ __ __ __ __ __ __ __ __ __ __ __
 72
    65
 73
     2
 40
15.0
 49
12.0
 74
     0
 49
-3.0
 74
     0
  0
ENDTAB
  0
TABLE
  2
LAYER
  5
10
102
{ACAD_XDICTIONARY
360
3FD7
102
}
330
0
100
AcDbSymbolTable
 70
     8
  0
LAYER
  5
4
102
{ACAD_XDICTIONARY
360
9891
102
}
330
10
100
AcDbSymbolTableRecord
100
AcDbLayerTableRecord
  2
0
 70
     0
 62
     7
  6
Continuous
370
    30
390
5
347
983F
348
0
  0
LAYER
  5
400
102
{ACAD_XDICTIONARY
360
9893
102
}
330
10
100
AcDbSymbolTableRecord
100
AcDbLayerTableRecord
  2
标注
 70
     0
 62
     3
  6
Continuous
370
     9
390
5
347
983F
348
0
1001
AcadStringInfo
1000
MIFCodePage
1070
     5
  0
LAYER
  5
401
330
10
100
AcDbSymbolTableRecord
100
AcDbLayerTableRecord
  2
Defpoints
 70
     0
 62
     7
  6
Continuous
290
     0
370
    -3
390
5
347
983F
348
0
  0
LAYER
  5
403
102
{ACAD_XDICTIONARY
360
9897
102
}
330
10
100
AcDbSymbolTableRecord
100
AcDbLayerTableRecord
  2
中心线
 70
     0
 62
     1
  6
CENTER
370
     9
390
5
347
983F
348
0
1001
AcadStringInfo
1000
MIFCodePage
1070
     5
  0
LAYER
  5
405
102
{ACAD_XDICTIONARY
360
989B
102
}
330
10
100
AcDbSymbolTableRecord
100
AcDbLayerTableRecord
  2
剖面线
 70
     0
 62
    50
  6
Continuous
370
     9
390
5
347
983F
348
0
1001
AcadStringInfo
1000
MIFCodePage
1070
     5
  0
LAYER
  5
92F
102
{ACAD_XDICTIONARY
360
989F
102
}
330
10
100
AcDbSymbolTableRecord
100
AcDbLayerTableRecord
  2
ASHADE
 70
     4
 62
    -7
  6
Continuous
370
    -3
390
5
347
983F
348
0
  0
LAYER
  5
4563
102
{ACAD_XDICTIONARY
360
98A9
102
}
330
10
100
AcDbSymbolTableRecord
100
AcDbLayerTableRecord
  2
图层1
 70
     0
 62
     7
  6
Continuous
370
    13
390
5
347
983F
348
0
1001
AcadStringInfo
1000
MIFCodePage
1070
     5
  0
LAYER
  5
63BDA
330
10
100
AcDbSymbolTableRecord
100
AcDbLayerTableRecord
  2
Hidden
 70
     0
 62
     2
  6
ACAD_ISO02W100
370
    30
390
5
347
983F
348
0
1001
AcAecLayerStandard
1000

1000

1001
AcCmTransparency
1071
        0
  0
ENDTAB
  0
TABLE
  2
STYLE
  5
11
330
0
100
AcDbSymbolTable
 70
     5
  0
STYLE
  5
12
330
11
100
AcDbSymbolTableRecord
100
AcDbTextStyleTableRecord
  2
Standard
 70
     0
 40
0.0
 41
1.0
 50
0.0
 71
     0
 42
4.5
  3
simhei.ttf
  4

1001
ACAD
1000
SimHei
1071
    34306
  0
STYLE
  5
406
330
11
100
AcDbSymbolTableRecord
100
AcDbTextStyleTableRecord
  2
样式 1
 70
     0
 40
0.0
 41
1.0
 50
0.0
 71
     0
 42
4.5
  3

  4

1001
ACAD
1000
LiSu
1071
    34353
1001
AcadStringInfo
1000
MIFCodePage
1070
     5
  0
STYLE
  5
3FD6
330
11
100
AcDbSymbolTableRecord
100
AcDbTextStyleTableRecord
  2
黑体
 70
     0
 40
0.0
 41
1.0
 50
0.0
 71
     0
 42
6.0
  3
simhei.ttf
  4

1001
ACAD
1000
SimHei
1071
    34306
1001
AcadStringInfo
1000
MIFCodePage
1070
     5
  0
STYLE
  5
63686
330
11
100
AcDbSymbolTableRecord
100
AcDbTextStyleTableRecord
  2
GN3
 70
     0
 40
0.156
 41
1.0
 50
0.0
 71
     0
 42
0.2
  3
ROMANK
  4

  0
STYLE
  5
63687
330
11
100
AcDbSymbolTableRecord
100
AcDbTextStyleTableRecord
  2
GN4
 70
     0
 40
0.188
 41
1.0
 50
0.0
 71
     0
 42
0.2
  3
ROMAND
  4

  0
ENDTAB
  0
TABLE
  2
VIEW
  5
18
330
0
100
AcDbSymbolTable
 70
     0
  0
ENDTAB
  0
TABLE
  2
UCS
  5
19
330
0
100
AcDbSymbolTable
 70
     0
  0
ENDTAB
  0
TABLE
  2
APPID
  5
1C
330
0
100
AcDbSymbolTable
 70
    22
  0
APPID
  5
13
330
1C
100
AcDbSymbolTableRecord
100
AcDbRegAppTableRecord
  2
ACAD
 70
     0
  0
APPID
  5
2BE8
330
1C
100
AcDbSymbolTableRecord
100
AcDbRegAppTableRecord
  2
DCO15
 70
     0
  0
APPID
  5
987D
330
1C
100
AcDbSymbolTableRecord
100
AcDbRegAppTableRecord
  2
ACAD_MLEADERVER
 70
     0
  0
APPID
  5
988A
330
1C
100
AcDbSymbolTableRecord
100
AcDbRegAppTableRecord
  2
ACAD_EXEMPT_FROM_CAD_STANDARDS
 70
     0
  0
APPID
  5
A534
330
1C
100
AcDbSymbolTableRecord
100
AcDbRegAppTableRecord
  2
ACAD_DSTYLE_DIMRADIAL_EXTENSION
 70
     0
  0
APPID
  5
30A41
330
1C
100
AcDbSymbolTableRecord
100
AcDbRegAppTableRecord
  2
ACAD_PSEXT
 70
     0
  0
APPID
  5
46FFE
330
1C
100
AcDbSymbolTableRecord
100
AcDbRegAppTableRecord
  2
ACAD_DSTYLE_DIMJAG
 70
     0
  0
APPID
  5
46FFF
330
1C
100
AcDbSymbolTableRecord
100
AcDbRegAppTableRecord
  2
ACAD_DSTYLE_DIMTALN
 70
     0
  0
APPID
  5
63252
330
1C
100
AcDbSymbolTableRecord
100
AcDbRegAppTableRecord
  2
ACAD_DSTYLE_DIMTEXT_FILL
 70
     0
  0
APPID
  5
63253
330
1C
100
AcDbSymbolTableRecord
100
AcDbRegAppTableRecord
  2
ACAD_DSTYLE_DIMEXT_LENGTH
 70
     0
  0
APPID
  5
63254
330
1C
100
AcDbSymbolTableRecord
100
AcDbRegAppTableRecord
  2
ACAD_DSTYLE_DIMEXT_ENABLED
 70
     0
  0
APPID
  5
63255
330
1C
100
AcDbSymbolTableRecord
100
AcDbRegAppTableRecord
  2
ACAD_DSTYLE_DIM_LINETYPE
 70
     0
  0
APPID
  5
63256
330
1C
100
AcDbSymbolTableRecord
100
AcDbRegAppTableRecord
  2
ACAD_DSTYLE_DIM_EXT1_LINETYPE
 70
     0
  0
APPID
  5
63257
330
1C
100
AcDbSymbolTableRecord
100
AcDbRegAppTableRecord
  2
ACAD_DSTYLE_DIM_EXT2_LINETYPE
 70
     0
  0
APPID
  5
63313
330
1C
100
AcDbSymbolTableRecord
100
AcDbRegAppTableRecord
  2
ACAD_DSTYLE_DIMJOGGED_JOGANGLE_SYMBOL
 70
     0
  0
APPID
  5
63527
330
1C
100
AcDbSymbolTableRecord
100
AcDbRegAppTableRecord
  2
ACAD_DSTYLE_DIMARC_LENGTH_SYMBOL
 70
     0
  0
APPID
  5
63688
330
1C
100
AcDbSymbolTableRecord
100
AcDbRegAppTableRecord
  2
PSP
 70
     0
  0
APPID
  5
63785
330
1C
100
AcDbSymbolTableRecord
100
AcDbRegAppTableRecord
  2
AcadStringInfo
 70
     0
  0
APPID
  5
637D2
330
1C
100
AcDbSymbolTableRecord
100
AcDbRegAppTableRecord
  2
AcadAnnotative
 70
     0
  0
APPID
  5
63BDB
330
1C
100
AcDbSymbolTableRecord
100
AcDbRegAppTableRecord
  2
AcAecLayerStandard
 70
     0
  0
APPID
  5
63BDC
330
1C
100
AcDbSymbolTableRecord
100
AcDbRegAppTableRecord
  2
AcCmTransparency
 70
     0
  0
APPID
  5
6063D0C
330
1C
100
AcDbSymbolTableRecord
100
AcDbRegAppTableRecord
  2
ACAD_NAV_VCDISPLAY
 70
     0
  0
ENDTAB
  0
TABLE
  2
DIMSTYLE
  5
1D
330
0
100
AcDbSymbolTable
 70
     5
100
AcDbDimStyleTable
 71
     1
340
18F2E
  0
DIMSTYLE
105
4564
330
1D
100
AcDbSymbolTableRecord
100
AcDbDimStyleTableRecord
  2
STANDARD
 70
     0
 41
15.0
 42
6.0
 44
5.0
140
15.0
271
     0
272
     0
340
12
  0
DIMSTYLE
105
18F2E
102
{ACAD_REACTORS
330
62A49
330
62A3C
330
62E3B
330
62E3C
330
62E19
330
62E1A
330
62F04
330
62EFF
330
62F00
330
62F01
330
635E2
330
6394E
330
63960
330
63961
330
63962
330
63970
330
63971
330
63B37
102
}
330
1D
100
AcDbSymbolTableRecord
100
AcDbDimStyleTableRecord
  2
线性标注
 70
     0
 41
12.0
 42
0.625
 43
3.75
 44
8.0
 49
1.25
 50
90.0
 73
     0
 74
     0
 77
     1
 78
     8
140
30.0
141
2.5
143
0.03937007874016
147
0.625
171
     3
172
     1
271
     1
272
     1
274
     3
283
     0
284
     8
340
406
1001
ACAD_DSTYLE_DIMJAG
1070
   388
1040
1.5
1001
ACAD_DSTYLE_DIMTALN
1070
   392
1070
     0
1001
ACAD_DSTYLE_DIMJOGGED_JOGANGLE_SYMBOL
1070
   384
1040
1.570796326794896
1001
AcadStringInfo
1000
MIFCodePage
1070
     5
  0
DIMSTYLE
105
637D0
330
1D
100
AcDbSymbolTableRecord
100
AcDbDimStyleTableRecord
  2
ISO-25
 70
     0
 41
2.5
 42
0.625
 43
3.75
 44
1.25
 73
     0
 74
     0
 77
     1
 78
     8
140
2.5
141
2.5
143
0.03937007874016
147
0.625
171
     3
172
     1
271
     2
272
     2
274
     3
278
    44
283
     0
284
     8
340
12
  0
DIMSTYLE
105
637D1
330
1D
100
AcDbSymbolTableRecord
100
AcDbDimStyleTableRecord
  2
Annotative
 70
     0
 40
0.0
 41
2.5
 42
0.625
 43
3.75
 44
1.25
 73
     0
 74
     0
 77
     1
 78
     8
140
2.5
141
2.5
143
0.03937007874016
147
0.625
171
     3
172
     1
271
     2
272
     2
274
     3
278
    44
283
     0
284
     8
340
12
1001
AcadAnnotative
1000
AnnotativeData
1002
{
1070
     1
1070
     1
1002
}
1001
ACAD_DSTYLE_DIMJAG
1070
   388
1040
1.5
1001
ACAD_DSTYLE_DIMTALN
1070
   392
1070
     0
  0
DIMSTYLE
105
638F3
330
1D
100
AcDbSymbolTableRecord
100
AcDbDimStyleTableRecord
  2
线性标注$3
 70
     0
 41
12.0
 42
0.625
 43
3.75
 44
1.25
 49
1.25
 50
90.0
 73
     0
 74
     0
 77
     1
 78
     8
140
30.0
141
2.5
143
0.03937007874016
147
0.625
171
     3
172
     1
271
     1
272
     1
274
     3
283
     0
284
     8
340
406
1001
ACAD_DSTYLE_DIMJOGGED_JOGANGLE_SYMBOL
1070
   384
1040
1.570796326794896
1001
AcadStringInfo
1000
MIFCodePage
1070
     5
  0
ENDTAB
  0
TABLE
  2
BLOCK_RECORD
  5
1
330
0
100
AcDbSymbolTable
 70
    19
  0
BLOCK_RECORD
  5
2
102
{ACAD_XDICTIONARY
360
98C5
102
}
330
1
100
AcDbSymbolTableRecord
100
AcDbBlockTableRecord
  2
*Model_Space
340
A
 70
     0
280
     1
281
     0
  0
BLOCK_RECORD
  5
C
330
1
100
AcDbSymbolTableRecord
100
AcDbBlockTableRecord
  2
*Paper_Space
340
F
 70
     0
280
     1
281
     0
  0
BLOCK_RECORD
  5
18F26
330
1
100
AcDbSymbolTableRecord
100
AcDbBlockTableRecord
  2
_ClosedBlank
340
0
 70
     0
280
     1
281
     0
  0
BLOCK_RECORD
  5
62A3D
330
1
100
AcDbSymbolTableRecord
100
AcDbBlockTableRecord
  2
*D1
340
0
 70
     0
280
     1
281
     0
  0
BLOCK_RECORD
  5
62A4A
330
1
100
AcDbSymbolTableRecord
100
AcDbBlockTableRecord
  2
*D2
340
0
 70
     0
280
     1
281
     0
  0
BLOCK_RECORD
  5
62E53
330
1
100
AcDbSymbolTableRecord
100
AcDbBlockTableRecord
  2
*D3
340
0
 70
     0
280
     1
281
     0
  0
BLOCK_RECORD
  5
62E5F
330
1
100
AcDbSymbolTableRecord
100
AcDbBlockTableRecord
  2
*D4
340
0
 70
     0
280
     1
281
     0
  0
BLOCK_RECORD
  5
62E6C
330
1
100
AcDbSymbolTableRecord
100
AcDbBlockTableRecord
  2
*D5
340
0
 70
     0
280
     1
281
     0
  0
BLOCK_RECORD
  5
62E78
330
1
100
AcDbSymbolTableRecord
100
AcDbBlockTableRecord
  2
*D6
340
0
 70
     0
280
     1
281
     0
  0
BLOCK_RECORD
  5
62F05
330
1
100
AcDbSymbolTableRecord
100
AcDbBlockTableRecord
  2
*D7
340
0
 70
     0
280
     1
281
     0
  0
BLOCK_RECORD
  5
62F1C
330
1
100
AcDbSymbolTableRecord
100
AcDbBlockTableRecord
  2
*D8
340
0
 70
     0
280
     1
281
     0
  0
BLOCK_RECORD
  5
62F29
330
1
100
AcDbSymbolTableRecord
100
AcDbBlockTableRecord
  2
*D9
340
0
 70
     0
280
     1
281
     0
  0
BLOCK_RECORD
  5
62F35
330
1
100
AcDbSymbolTableRecord
100
AcDbBlockTableRecord
  2
*D10
340
0
 70
     0
280
     1
281
     0
  0
BLOCK_RECORD
  5
635E3
330
1
100
AcDbSymbolTableRecord
100
AcDbBlockTableRecord
  2
*D11
340
0
 70
     0
280
     1
281
     0
  0
BLOCK_RECORD
  5
6398D
330
1
100
AcDbSymbolTableRecord
100
AcDbBlockTableRecord
  2
*D12
340
0
 70
     0
280
     1
281
     0
  0
BLOCK_RECORD
  5
63998
330
1
100
AcDbSymbolTableRecord
100
AcDbBlockTableRecord
  2
*D13
340
0
 70
     0
280
     1
281
     0
  0
BLOCK_RECORD
  5
639A6
330
1
100
AcDbSymbolTableRecord
100
AcDbBlockTableRecord
  2
*D14
340
0
 70
     0
280
     1
281
     0
  0
BLOCK_RECORD
  5
639B1
330
1
100
AcDbSymbolTableRecord
100
AcDbBlockTableRecord
  2
*D15
340
0
 70
     0
280
     1
281
     0
  0
BLOCK_RECORD
  5
639BC
330
1
100
AcDbSymbolTableRecord
100
AcDbBlockTableRecord
  2
*D16
340
0
 70
     0
280
     1
281
     0
  0
BLOCK_RECORD
  5
639C5
330
1
100
AcDbSymbolTableRecord
100
AcDbBlockTableRecord
  2
*D17
340
0
 70
     0
280
     1
281
     0
  0
BLOCK_RECORD
  5
63B38
330
1
100
AcDbSymbolTableRecord
100
AcDbBlockTableRecord
  2
*D18
340
0
 70
     0
280
     1
281
     0
  0
ENDTAB
  0
ENDSEC
  0
SECTION
  2
BLOCKS
  0
BLOCK
  5
3
330
2
100
AcDbEntity
  8
0
100
AcDbBlockBegin
  2
*Model_Space
 70
     2
 10
0.0
 20
0.0
 30
0.0
  3
*Model_Space
  1

  0
ENDBLK
  5
9
330
2
100
AcDbEntity
  8
0
100
AcDbBlockEnd
  0
BLOCK
  5
D
330
C
100
AcDbEntity
 67
     1
  8
0
100
AcDbBlockBegin
  2
*Paper_Space
 70
     0
 10
0.0
 20
0.0
 30
0.0
  3
*Paper_Space
  1

  0
ENDBLK
  5
E
330
C
100
AcDbEntity
 67
     1
  8
0
100
AcDbBlockEnd
  0
BLOCK
  5
18F27
330
18F26
100
AcDbEntity
  8
0
 48
0.2
100
AcDbBlockBegin
  2
_ClosedBlank
 70
     0
 10
0.0
 20
0.0
 30
0.0
  3
_ClosedBlank
  1

  0
LINE
  5
18F28
330
18F26
100
AcDbEntity
  8
0
  6
ByBlock
 62
     0
370
    -2
100
AcDbLine
 10
-1.0
 20
0.1666666666666666
 30
0.0
 11
0.0
 21
0.0
 31
0.0
  0
LINE
  5
18F29
330
18F26
100
AcDbEntity
  8
0
  6
ByBlock
 62
     0
370
    -2
100
AcDbLine
 10
0.0
 20
0.0
 30
0.0
 11
-1.0
 21
-0.1666666666666666
 31
0.0
  0
LINE
  5
18F2A
330
18F26
100
AcDbEntity
  8
0
  6
ByBlock
 62
     0
370
    -2
100
AcDbLine
 10
-1.0
 20
0.1666666666666666
 30
0.0
 11
-1.0
 21
-0.1666666666666666
 31
0.0
  0
ENDBLK
  5
18F2B
330
18F26
100
AcDbEntity
  8
0
 48
0.2
100
AcDbBlockEnd
  0
BLOCK
  5
62A3E
330
62A3D
100
AcDbEntity
  8
0
100
AcDbBlockBegin
  2
*D1
 70
     1
 10
0.0
 20
0.0
 30
0.0
  3
*D1
  1

  0
LINE
  5
63535
330
62A3D
100
AcDbEntity
  8
标注
 62
     0
440
 16777216
370
    -2
100
AcDbLine
 10
5470.33266687062
 20
3832.14212511773
 30
0.0
 11
5548.9665713229
 21
3804.613445056727
 31
0.0
  0
LINE
  5
63536
330
62A3D
100
AcDbEntity
  8
标注
 62
     0
440
 16777216
370
    -2
100
AcDbLine
 10
5468.575254887971
 20
3481.882451953171
 30
0.0
 11
5548.9665713229
 21
3453.738525421289
 31
0.0
  0
LINE
  5
63537
330
62A3D
100
AcDbEntity
  8
标注
 62
     0
440
 16777216
370
    -2
100
AcDbLine
 10
5540.9665713229
 20
3795.414138243998
 30
0.0
 11
5540.9665713229
 21
3468.53921860856
 31
0.0
  0
SOLID
  5
63538
330
62A3D
100
AcDbEntity
  8
标注
 62
     0
440
 16777216
100
AcDbTrace
 10
5538.9665713229
 20
3795.414138243998
 30
0.0
 11
5542.966571322899
 21
3795.414138243998
 31
0.0
 12
5540.9665713229
 22
3807.414138243998
 32
0.0
 13
5540.9665713229
 23
3807.414138243998
 33
0.0
  0
SOLID
  5
63539
330
62A3D
100
AcDbEntity
  8
标注
 62
     0
440
 16777216
100
AcDbTrace
 10
5538.9665713229
 20
3468.53921860856
 30
0.0
 11
5542.966571322899
 21
3468.53921860856
 31
0.0
 12
5540.9665713229
 22
3456.53921860856
 32
0.0
 13
5540.9665713229
 23
3456.53921860856
 33
0.0
  0
MTEXT
  5
6353A
330
62A3D
100
AcDbEntity
  8
标注
 62
     0
440
 16777216
100
AcDbMText
 10
5525.341571322899
 20
3631.97667842628
 30
0.0
 40
30.0
 41
0.0
 46
0.0
 71
     5
 72
     1
  1
600
  7
样式 1
 11
0.0000000000000001
 21
1.0
 31
0.0
 73
     1
 44
1.0
  0
POINT
  5
6353B
330
62A3D
100
AcDbEntity
  8
Defpoints
 62
     0
440
 16777216
100
AcDbPoint
 10
5469.707666870619
 20
3832.360929272986
 30
0.0
  0
POINT
  5
6353C
330
62A3D
100
AcDbEntity
  8
Defpoints
 62
     0
440
 16777216
100
AcDbPoint
 10
5467.950254887971
 20
3482.101256108427
 30
0.0
  0
POINT
  5
6353D
330
62A3D
100
AcDbEntity
  8
Defpoints
 62
     0
440
 16777216
100
AcDbPoint
 10
5540.9665713229
 20
3456.53921860856
 30
0.0
  0
ENDBLK
  5
62A3F
330
62A3D
100
AcDbEntity
  8
0
100
AcDbBlockEnd
  0
BLOCK
  5
62A4B
330
62A4A
100
AcDbEntity
  8
0
100
AcDbBlockBegin
  2
*D2
 70
     1
 10
0.0
 20
0.0
 30
0.0
  3
*D2
  1

  0
LINE
  5
637C7
330
62A4A
100
AcDbEntity
  8
标注
 62
     0
440
 16777216
370
    -2
100
AcDbLine
 10
5396.390796718246
 20
3479.090615488024
 30
0.0
 11
5167.785228425399
 21
3345.017523796675
 31
0.0
  0
LINE
  5
637C8
330
62A4A
100
AcDbEntity
  8
标注
 62
     0
440
 16777216
370
    -2
100
AcDbLine
 10
5867.44762609188
 20
3303.279548635938
 30
0.0
 11
5638.842057799036
 21
3169.206456944589
 31
0.0
  0
LINE
  5
637C9
330
62A4A
100
AcDbEntity
  8
标注
 62
     0
440
 16777216
370
    -2
100
AcDbLine
 10
5187.925241765814
 20
3346.039762999977
 30
0.0
 11
5636.497090526047
 21
3178.620695123996
 31
0.0
  0
SOLID
  5
637CA
330
62A4A
100
AcDbEntity
  8
标注
 62
     0
440
 16777216
100
AcDbTrace
 10
5188.624575013822
 20
3347.913511384426
 30
0.0
 11
5187.225908517805
 21
3344.166014615526
 31
0.0
 12
5176.682751459112
 22
3350.23576248803
 32
0.0
 13
5176.682751459112
 23
3350.23576248803
 33
0.0
  0
SOLID
  5
637CB
330
62A4A
100
AcDbEntity
  8
标注
 62
     0
440
 16777216
100
AcDbTrace
 10
5637.196423774056
 20
3180.494443508446
 30
0.0
 11
5635.797757278038
 21
3176.746946739545
 31
0.0
 12
5647.739580832748
 22
3174.424695635944
 32
0.0
 13
5647.739580832748
 23
3174.424695635944
 33
0.0
  0
MTEXT
  5
637CC
330
62A4A
100
AcDbEntity
  8
标注
 62
     0
440
 16777216
100
AcDbMText
 10
5401.667365791192
 20
3282.94325825468
 30
0.0
 40
30.0
 41
0.0
 46
0.0
 71
     5
 72
     1
  1
1000
  7
样式 1
 11
0.9368741922250787
 21
-0.3496666240043602
 31
0.0
 73
     1
 44
1.0
  0
POINT
  5
637CD
330
62A4A
100
AcDbEntity
  8
Defpoints
 62
     0
440
 16777216
100
AcDbPoint
 10
5397.085915705254
 20
3479.498290385786
 30
0.0
  0
POINT
  5
637CE
330
62A4A
100
AcDbEntity
  8
Defpoints
 62
     0
440
 16777216
100
AcDbPoint
 10
5868.142745078889
 20
3303.687223533701
 30
0.0
  0
POINT
  5
637CF
330
62A4A
100
AcDbEntity
  8
Defpoints
 62
     0
440
 16777216
100
AcDbPoint
 10
5647.739580832748
 20
3174.424695635944
 30
0.0
  0
ENDBLK
  5
62A4C
330
62A4A
100
AcDbEntity
  8
0
100
AcDbBlockEnd
  0
BLOCK
  5
62E54
330
62E53
100
AcDbEntity
  8
0
100
AcDbBlockBegin
  2
*D3
 70
     1
 10
0.0
 20
0.0
 30
0.0
  3
*D3
  1

  0
LINE
  5
63B5E
330
62E53
100
AcDbEntity
  8
标注
 62
     0
440
 16777216
370
    -2
100
AcDbLine
 10
4841.870108652672
 20
3247.559951877671
 30
0.0
 11
4841.870108652672
 21
2958.318873898755
 31
0.0
  0
LINE
  5
63B5F
330
62E53
100
AcDbEntity
  8
标注
 62
     0
440
 16777216
370
    -2
100
AcDbLine
 10
3888.554386527048
 20
3376.059951877671
 30
0.0
 11
3888.554386527048
 21
2958.318873898755
 31
0.0
  0
LINE
  5
63B60
330
62E53
100
AcDbEntity
  8
标注
 62
     0
440
 16777216
370
    -2
100
AcDbLine
 10
4829.870108652673
 20
2966.318873898755
 30
0.0
 11
3900.554386527048
 21
2966.318873898755
 31
0.0
  0
SOLID
  5
63B61
330
62E53
100
AcDbEntity
  8
标注
 62
     0
440
 16777216
100
AcDbTrace
 10
4829.870108652673
 20
2968.318873898755
 30
0.0
 11
4829.870108652673
 21
2964.318873898755
 31
0.0
 12
4841.870108652672
 22
2966.318873898755
 32
0.0
 13
4841.870108652672
 23
2966.318873898755
 33
0.0
  0
SOLID
  5
63B62
330
62E53
100
AcDbEntity
  8
标注
 62
     0
440
 16777216
100
AcDbTrace
 10
3900.554386527048
 20
2968.318873898755
 30
0.0
 11
3900.554386527048
 21
2964.318873898755
 31
0.0
 12
3888.554386527048
 22
2966.318873898755
 32
0.0
 13
3888.554386527048
 23
2966.318873898755
 33
0.0
  0
MTEXT
  5
63B63
330
62E53
100
AcDbEntity
  8
标注
 62
     0
440
 16777216
100
AcDbMText
 10
4365.212247589859
 20
2981.943873898755
 30
0.0
 40
30.0
 41
0.0
 46
0.0
 71
     5
 72
     1
  1
1000
  7
样式 1
 73
     1
 44
1.0
  0
POINT
  5
63B64
330
62E53
100
AcDbEntity
  8
Defpoints
 62
     0
440
 16777216
100
AcDbPoint
 10
4841.870108652672
 20
3248.184951877671
 30
0.0
  0
POINT
  5
63B65
330
62E53
100
AcDbEntity
  8
Defpoints
 62
     0
440
 16777216
100
AcDbPoint
 10
3888.554386527048
 20
3376.684951877671
 30
0.0
  0
POINT
  5
63B66
330
62E53
100
AcDbEntity
  8
Defpoints
 62
     0
440
 16777216
100
AcDbPoint
 10
3888.554386527048
 20
2966.318873898755
 30
0.0
  0
ENDBLK
  5
62E55
330
62E53
100
AcDbEntity
  8
0
100
AcDbBlockEnd
  0
BLOCK
  5
62E60
330
62E5F
100
AcDbEntity
  8
0
100
AcDbBlockBegin
  2
*D4
 70
     1
 10
0.0
 20
0.0
 30
0.0
  3
*D4
  1

  0
LINE
  5
63B67
330
62E5F
100
AcDbEntity
  8
标注
 62
     0
440
 16777216
370
    -2
100
AcDbLine
 10
4841.870108652672
 20
3247.559951877671
 30
0.0
 11
4841.870108652672
 21
3199.404988025586
 31
0.0
  0
LINE
  5
63B68
330
62E5F
100
AcDbEntity
  8
标注
 62
     0
440
 16777216
370
    -2
100
AcDbLine
 10
4828.870108652672
 20
3247.559951877671
 30
0.0
 11
4828.870108652672
 21
3199.404988025586
 31
0.0
  0
LINE
  5
63B69
330
62E5F
100
AcDbEntity
  8
标注
 62
     0
440
 16777216
370
    -2
100
AcDbLine
 10
4853.870108652673
 20
3207.404988025587
 30
0.0
 11
4865.870108652672
 21
3207.404988025587
 31
0.0
  0
LINE
  5
63B6A
330
62E5F
100
AcDbEntity
  8
标注
 62
     0
440
 16777216
370
    -2
100
AcDbLine
 10
4816.870108652672
 20
3207.404988025587
 30
0.0
 11
4760.762965795529
 21
3207.404988025587
 31
0.0
  0
LINE
  5
63B6B
330
62E5F
100
AcDbEntity
  8
标注
 62
     0
440
 16777216
370
    -2
100
AcDbLine
 10
4841.870108652672
 20
3207.404988025587
 30
0.0
 11
4828.870108652672
 21
3207.404988025587
 31
0.0
  0
SOLID
  5
63B6C
330
62E5F
100
AcDbEntity
  8
标注
 62
     0
440
 16777216
100
AcDbTrace
 10
4853.870108652673
 20
3209.404988025586
 30
0.0
 11
4853.870108652673
 21
3205.404988025586
 31
0.0
 12
4841.870108652672
 22
3207.404988025587
 32
0.0
 13
4841.870108652672
 23
3207.404988025587
 33
0.0
  0
SOLID
  5
63B6D
330
62E5F
100
AcDbEntity
  8
标注
 62
     0
440
 16777216
100
AcDbTrace
 10
4816.870108652672
 20
3209.404988025586
 30
0.0
 11
4816.870108652672
 21
3205.404988025586
 31
0.0
 12
4828.870108652672
 22
3207.404988025587
 32
0.0
 13
4828.870108652672
 23
3207.404988025587
 33
0.0
  0
MTEXT
  5
63B6E
330
62E5F
100
AcDbEntity
  8
标注
 62
     0
440
 16777216
100
AcDbMText
 10
4782.816537224101
 20
3223.029988025587
 30
0.0
 40
30.0
 41
0.0
 46
0.0
 71
     5
 72
     1
  1
13
  7
样式 1
 73
     1
 44
1.0
  0
POINT
  5
63B6F
330
62E5F
100
AcDbEntity
  8
Defpoints
 62
     0
440
 16777216
100
AcDbPoint
 10
4841.870108652672
 20
3248.184951877671
 30
0.0
  0
POINT
  5
63B70
330
62E5F
100
AcDbEntity
  8
Defpoints
 62
     0
440
 16777216
100
AcDbPoint
 10
4828.870108652672
 20
3248.184951877671
 30
0.0
  0
POINT
  5
63B71
330
62E5F
100
AcDbEntity
  8
Defpoints
 62
     0
440
 16777216
100
AcDbPoint
 10
4828.870108652672
 20
3207.404988025587
 30
0.0
  0
ENDBLK
  5
62E61
330
62E5F
100
AcDbEntity
  8
0
100
AcDbBlockEnd
  0
BLOCK
  5
62E6D
330
62E6C
100
AcDbEntity
  8
0
100
AcDbBlockBegin
  2
*D5
 70
     1
 10
0.0
 20
0.0
 30
0.0
  3
*D5
  1

  0
LINE
  5
63B4E
330
62E6C
100
AcDbEntity
  8
标注
 62
     0
440
 16777216
370
    -2
100
AcDbLine
 10
3859.745108652672
 20
3876.684951877671
 30
0.0
 11
3736.766518503347
 21
3876.684951877671
 31
0.0
  0
LINE
  5
63B4F
330
62E6C
100
AcDbEntity
  8
标注
 62
     0
440
 16777216
370
    -2
100
AcDbLine
 10
3956.471776845137
 20
3276.684951877671
 30
0.0
 11
3736.766518503347
 21
3276.684951877671
 31
0.0
  0
LINE
  5
63B50
330
62E6C
100
AcDbEntity
  8
标注
 62
     0
440
 16777216
370
    -2
100
AcDbLine
 10
3744.766518503347
 20
3864.684951877671
 30
0.0
 11
3744.766518503347
 21
3288.684951877671
 31
0.0
  0
SOLID
  5
63B51
330
62E6C
100
AcDbEntity
  8
标注
 62
     0
440
 16777216
100
AcDbTrace
 10
3742.766518503347
 20
3864.684951877671
 30
0.0
 11
3746.766518503347
 21
3864.684951877671
 31
0.0
 12
3744.766518503347
 22
3876.684951877671
 32
0.0
 13
3744.766518503347
 23
3876.684951877671
 33
0.0
  0
SOLID
  5
63B52
330
62E6C
100
AcDbEntity
  8
标注
 62
     0
440
 16777216
100
AcDbTrace
 10
3742.766518503347
 20
3288.684951877671
 30
0.0
 11
3746.766518503347
 21
3288.684951877671
 31
0.0
 12
3744.766518503347
 22
3276.684951877671
 32
0.0
 13
3744.766518503347
 23
3276.684951877671
 33
0.0
  0
MTEXT
  5
63B53
330
62E6C
100
AcDbEntity
  8
标注
 62
     0
440
 16777216
100
AcDbMText
 10
3729.141518503346
 20
3576.684951877672
 30
0.0
 40
30.0
 41
0.0
 46
0.0
 71
     5
 72
     1
  1
600
  7
样式 1
 11
0.0000000000000001
 21
1.0
 31
0.0
 73
     1
 44
1.0
  0
POINT
  5
63B54
330
62E6C
100
AcDbEntity
  8
Defpoints
 62
     0
440
 16777216
100
AcDbPoint
 10
3860.370108652672
 20
3876.684951877671
 30
0.0
  0
POINT
  5
63B55
330
62E6C
100
AcDbEntity
  8
Defpoints
 62
     0
440
 16777216
100
AcDbPoint
 10
3957.096776845137
 20
3276.684951877671
 30
0.0
  0
POINT
  5
63B56
330
62E6C
100
AcDbEntity
  8
Defpoints
 62
     0
440
 16777216
100
AcDbPoint
 10
3744.766518503347
 20
3276.684951877671
 30
0.0
  0
ENDBLK
  5
62E6E
330
62E6C
100
AcDbEntity
  8
0
100
AcDbBlockEnd
  0
BLOCK
  5
62E79
330
62E78
100
AcDbEntity
  8
0
100
AcDbBlockBegin
  2
*D6
 70
     1
 10
0.0
 20
0.0
 30
0.0
  3
*D6
  1

  0
LINE
  5
63B57
330
62E78
100
AcDbEntity
  8
标注
 62
     0
440
 16777216
370
    -2
100
AcDbLine
 10
3801.679413126612
 20
3193.733670404603
 30
0.0
 11
3895.782512620266
 21
3285.031087002142
 31
0.0
  0
MTEXT
  5
63B58
330
62E78
100
AcDbEntity
  8
标注
 62
     0
440
 16777216
100
AcDbMText
 10
3819.444243981183
 20
3232.73901009681
 30
0.0
 40
30.0
 41
0.0
 46
0.0
 71
     5
 72
     1
  1
R55
  7
样式 1
 11
0.717725313916561
 21
0.6963263414257528
 31
0.0
 73
     1
 44
1.0
  0
LINE
  5
63B59
330
62E78
100
AcDbEntity
  8
标注
 62
     0
440
 16777216
370
    -2
100
AcDbLine
 10
3943.870108652671
 20
3331.684951877665
 30
0.0
 11
3904.395216387264
 21
3293.387003099251
 31
0.0
  0
SOLID
  5
63B5A
330
62E78
100
AcDbEntity
  8
标注
 62
     0
440
 16777216
100
AcDbTrace
 10
3894.389859937414
 20
3286.466537629975
 30
0.0
 11
3897.175165303117
 21
3283.595636374309
 31
0.0
 12
3904.395216387264
 22
3293.387003099251
 32
0.0
 13
3904.395216387264
 23
3293.387003099251
 33
0.0
  0
ARC
  5
63B5B
330
62E78
100
AcDbEntity
  8
标注
 62
     0
440
 16777216
370
    -2
100
AcDbCircle
 10
3943.870108652671
 20
3331.684951877665
 30
0.0
 40
54.99999999999545
100
AcDbArc
 50
215.7990723643203
 51
269.3489115964422
  0
POINT
  5
63B5C
330
62E78
100
AcDbEntity
  8
Defpoints
 62
     0
440
 16777216
100
AcDbPoint
 10
3904.395216387264
 20
3293.387003099251
 30
0.0
  0
POINT
  5
63B5D
330
62E78
100
AcDbEntity
  8
Defpoints
 62
     0
440
 16777216
100
AcDbPoint
 10
3943.870108652671
 20
3331.684951877665
 30
0.0
  0
ENDBLK
  5
62E7A
330
62E78
100
AcDbEntity
  8
0
100
AcDbBlockEnd
  0
BLOCK
  5
62F06
330
62F05
100
AcDbEntity
  8
0
100
AcDbBlockBegin
  2
*D7
 70
     1
 10
0.0
 20
0.0
 30
0.0
  3
*D7
  1

  0
LINE
  5
63B8C
330
62F05
100
AcDbEntity
  8
标注
 62
     0
440
 16777216
370
    -2
100
AcDbLine
 10
3680.844980710607
 20
3180.273408918809
 30
0.0
 11
3560.35042148468
 21
3255.281743802134
 31
0.0
  0
LINE
  5
63B8D
330
62F05
100
AcDbEntity
  8
标注
 62
     0
440
 16777216
370
    -2
100
AcDbLine
 10
3491.585526834128
 20
3298.088159953208
 30
0.0
 11
3481.398135034047
 21
3304.429851234848
 31
0.0
  0
MTEXT
  5
63B8E
102
{ACAD_XDICTIONARY
360
63CF3
102
}
330
62F05
100
AcDbEntity
  8
标注
 62
     0
440
 16777216
100
AcDbMText
 10
3656.433002350875
 20
3213.875064479829
 30
0.0
 40
30.0
 41
0.0
 46
0.0
 71
     5
 72
     1
  1
∅57
  7
样式 1
 11
0.8489493166734565
 21
-0.5284742734700254
 31
0.0
 73
     1
 44
1.0
  0
LINE
  5
63B8F
330
62F05
100
AcDbEntity
  8
标注
 62
     0
440
 16777216
370
    -2
100
AcDbLine
 10
3501.772918634209
 20
3291.746468671567
 30
0.0
 11
3550.163029684598
 21
3261.623435083774
 31
0.0
  0
SOLID
  5
63B90
330
62F05
100
AcDbEntity
  8
标注
 62
     0
440
 16777216
100
AcDbTrace
 10
3492.642475381068
 20
3299.786058586555
 30
0.0
 11
3490.528578287188
 21
3296.390261319861
 31
0.0
 12
3501.772918634209
 22
3291.746468671567
 32
0.0
 13
3501.772918634209
 23
3291.746468671567
 33
0.0
  0
SOLID
  5
63B91
330
62F05
100
AcDbEntity
  8
标注
 62
     0
440
 16777216
100
AcDbTrace
 10
3561.40737003162
 20
3256.979642435481
 30
0.0
 11
3559.29347293774
 21
3253.583845168787
 31
0.0
 12
3550.163029684598
 22
3261.623435083774
 32
0.0
 13
3550.163029684598
 23
3261.623435083774
 33
0.0
  0
POINT
  5
63B92
330
62F05
100
AcDbEntity
  8
Defpoints
 62
     0
440
 16777216
100
AcDbPoint
 10
3550.163029684598
 20
3261.623435083774
 30
0.0
  0
POINT
  5
63B93
330
62F05
100
AcDbEntity
  8
Defpoints
 62
     0
440
 16777216
100
AcDbPoint
 10
3501.772918634209
 20
3291.746468671567
 30
0.0
  0
ENDBLK
  5
62F07
330
62F05
100
AcDbEntity
  8
0
100
AcDbBlockEnd
  0
BLOCK
  5
62F1D
330
62F1C
100
AcDbEntity
  8
0
100
AcDbBlockBegin
  2
*D8
 70
     1
 10
0.0
 20
0.0
 30
0.0
  3
*D8
  1

  0
LINE
  5
63B72
330
62F1C
100
AcDbEntity
  8
标注
 62
     0
440
 16777216
370
    -2
100
AcDbLine
 10
3450.967974159402
 20
3847.55995187767
 30
0.0
 11
3450.967974159402
 21
3787.403557085449
 31
0.0
  0
LINE
  5
63B73
330
62F1C
100
AcDbEntity
  8
标注
 62
     0
440
 16777216
370
    -2
100
AcDbLine
 10
3437.967974159402
 20
3847.55995187767
 30
0.0
 11
3437.967974159402
 21
3787.403557085449
 31
0.0
  0
LINE
  5
63B74
330
62F1C
100
AcDbEntity
  8
标注
 62
     0
440
 16777216
370
    -2
100
AcDbLine
 10
3462.967974159402
 20
3795.403557085449
 30
0.0
 11
3474.967974159402
 21
3795.403557085449
 31
0.0
  0
LINE
  5
63B75
330
62F1C
100
AcDbEntity
  8
标注
 62
     0
440
 16777216
370
    -2
100
AcDbLine
 10
3425.967974159402
 20
3795.403557085449
 30
0.0
 11
3369.860831302259
 21
3795.403557085449
 31
0.0
  0
LINE
  5
63B76
330
62F1C
100
AcDbEntity
  8
标注
 62
     0
440
 16777216
370
    -2
100
AcDbLine
 10
3450.967974159402
 20
3795.403557085449
 30
0.0
 11
3437.967974159402
 21
3795.403557085449
 31
0.0
  0
SOLID
  5
63B77
330
62F1C
100
AcDbEntity
  8
标注
 62
     0
440
 16777216
100
AcDbTrace
 10
3462.967974159402
 20
3797.403557085448
 30
0.0
 11
3462.967974159402
 21
3793.403557085448
 31
0.0
 12
3450.967974159402
 22
3795.403557085449
 32
0.0
 13
3450.967974159402
 23
3795.403557085449
 33
0.0
  0
SOLID
  5
63B78
330
62F1C
100
AcDbEntity
  8
标注
 62
     0
440
 16777216
100
AcDbTrace
 10
3425.967974159402
 20
3797.403557085448
 30
0.0
 11
3425.967974159402
 21
3793.403557085448
 31
0.0
 12
3437.967974159402
 22
3795.403557085449
 32
0.0
 13
3437.967974159402
 23
3795.403557085449
 33
0.0
  0
MTEXT
  5
63B79
330
62F1C
100
AcDbEntity
  8
标注
 62
     0
440
 16777216
100
AcDbMText
 10
3391.914402730831
 20
3811.028557085449
 30
0.0
 40
30.0
 41
0.0
 46
0.0
 71
     5
 72
     1
  1
13
  7
样式 1
 73
     1
 44
1.0
  0
POINT
  5
63B7A
330
62F1C
100
AcDbEntity
  8
Defpoints
 62
     0
440
 16777216
100
AcDbPoint
 10
3450.967974159402
 20
3848.18495187767
 30
0.0
  0
POINT
  5
63B7B
330
62F1C
100
AcDbEntity
  8
Defpoints
 62
     0
440
 16777216
100
AcDbPoint
 10
3437.967974159402
 20
3848.184951877669
 30
0.0
  0
POINT
  5
63B7C
330
62F1C
100
AcDbEntity
  8
Defpoints
 62
     0
440
 16777216
100
AcDbPoint
 10
3437.967974159402
 20
3795.403557085449
 30
0.0
  0
ENDBLK
  5
62F1E
330
62F1C
100
AcDbEntity
  8
0
100
AcDbBlockEnd
  0
BLOCK
  5
62F2A
330
62F29
100
AcDbEntity
  8
0
100
AcDbBlockBegin
  2
*D9
 70
     1
 10
0.0
 20
0.0
 30
0.0
  3
*D9
  1

  0
LINE
  5
63B7D
330
62F29
100
AcDbEntity
  8
标注
 62
     0
440
 16777216
370
    -2
100
AcDbLine
 10
3437.967974159402
 20
3905.809951877671
 30
0.0
 11
3437.967974159402
 21
3934.888507895951
 31
0.0
  0
LINE
  5
63B7E
330
62F29
100
AcDbEntity
  8
标注
 62
     0
440
 16777216
370
    -2
100
AcDbLine
 10
3541.867974159401
 20
3822.30995187767
 30
0.0
 11
3541.867974159401
 21
3934.888507895951
 31
0.0
  0
LINE
  5
63B7F
330
62F29
100
AcDbEntity
  8
标注
 62
     0
440
 16777216
370
    -2
100
AcDbLine
 10
3449.967974159402
 20
3926.88850789595
 30
0.0
 11
3529.867974159401
 21
3926.88850789595
 31
0.0
  0
SOLID
  5
63B80
330
62F29
100
AcDbEntity
  8
标注
 62
     0
440
 16777216
100
AcDbTrace
 10
3449.967974159402
 20
3928.88850789595
 30
0.0
 11
3449.967974159402
 21
3924.88850789595
 31
0.0
 12
3437.967974159402
 22
3926.88850789595
 32
0.0
 13
3437.967974159402
 23
3926.88850789595
 33
0.0
  0
SOLID
  5
63B81
330
62F29
100
AcDbEntity
  8
标注
 62
     0
440
 16777216
100
AcDbTrace
 10
3529.867974159401
 20
3928.88850789595
 30
0.0
 11
3529.867974159401
 21
3924.88850789595
 31
0.0
 12
3541.867974159401
 22
3926.88850789595
 32
0.0
 13
3541.867974159401
 23
3926.88850789595
 33
0.0
  0
MTEXT
  5
63B82
330
62F29
100
AcDbEntity
  8
标注
 62
     0
440
 16777216
100
AcDbMText
 10
3489.917974159402
 20
3942.51350789595
 30
0.0
 40
30.0
 41
0.0
 46
0.0
 71
     5
 72
     1
  1
88
  7
样式 1
 73
     1
 44
1.0
  0
POINT
  5
63B83
330
62F29
100
AcDbEntity
  8
Defpoints
 62
     0
440
 16777216
100
AcDbPoint
 10
3437.967974159402
 20
3905.184951877671
 30
0.0
  0
POINT
  5
63B84
330
62F29
100
AcDbEntity
  8
Defpoints
 62
     0
440
 16777216
100
AcDbPoint
 10
3541.867974159401
 20
3821.684951877671
 30
0.0
  0
POINT
  5
63B85
330
62F29
100
AcDbEntity
  8
Defpoints
 62
     0
440
 16777216
100
AcDbPoint
 10
3541.867974159401
 20
3926.88850789595
 30
0.0
  0
ENDBLK
  5
62F2B
330
62F29
100
AcDbEntity
  8
0
100
AcDbBlockEnd
  0
BLOCK
  5
62F36
330
62F35
100
AcDbEntity
  8
0
100
AcDbBlockBegin
  2
*D10
 70
     1
 10
0.0
 20
0.0
 30
0.0
  3
*D10
  1

  0
LINE
  5
63B86
330
62F35
100
AcDbEntity
  8
标注
 62
     0
440
 16777216
370
    -2
100
AcDbLine
 10
3642.286761849413
 20
3903.650581590432
 30
0.0
 11
3531.406770391242
 21
3850.601243307349
 31
0.0
  0
MTEXT
  5
63B87
330
62F35
100
AcDbEntity
  8
标注
 62
     0
440
 16777216
100
AcDbMText
 10
3599.540902420006
 20
3900.520527048192
 30
0.0
 40
30.0
 41
0.0
 46
0.0
 71
     5
 72
     1
  1
R55
  7
样式 1
 11
0.9020715855498313
 21
0.4315864392489798
 31
0.0
 73
     1
 44
1.0
  0
LINE
  5
63B88
330
62F35
100
AcDbEntity
  8
标注
 62
     0
440
 16777216
370
    -2
100
AcDbLine
 10
3470.967974159408
 20
3821.684951877669
 30
0.0
 11
3520.581911364644
 21
3845.422206036361
 31
0.0
  0
SOLID
  5
63B89
330
62F35
100
AcDbEntity
  8
标注
 62
     0
440
 16777216
100
AcDbTrace
 10
3530.543597512745
 20
3852.405386478448
 30
0.0
 11
3532.269943269741
 21
3848.797100136249
 31
0.0
 12
3520.581911364644
 22
3845.422206036361
 32
0.0
 13
3520.581911364644
 23
3845.422206036361
 33
0.0
  0
POINT
  5
63B8A
330
62F35
100
AcDbEntity
  8
Defpoints
 62
     0
440
 16777216
100
AcDbPoint
 10
3520.581911364644
 20
3845.422206036361
 30
0.0
  0
POINT
  5
63B8B
330
62F35
100
AcDbEntity
  8
Defpoints
 62
     0
440
 16777216
100
AcDbPoint
 10
3470.967974159408
 20
3821.684951877669
 30
0.0
  0
ENDBLK
  5
62F37
330
62F35
100
AcDbEntity
  8
0
100
AcDbBlockEnd
  0
BLOCK
  5
635ED
330
635E3
100
AcDbEntity
  8
0
100
AcDbBlockBegin
  2
*D11
 70
     1
 10
0.0
 20
0.0
 30
0.0
  3
*D11
  1

  0
LINE
  5
63601
330
635E3
100
AcDbEntity
  8
标注
 62
     0
440
 16777216
370
    -2
100
AcDbLine
 10
5469.705227373772
 20
3833.091182894369
 30
0.0
 11
5469.513680777972
 21
3890.429890008091
 31
0.0
  0
LINE
  5
63602
330
635E3
100
AcDbEntity
  8
标注
 62
     0
440
 16777216
370
    -2
100
AcDbLine
 10
5405.893250521594
 20
3794.237530842462
 30
0.0
 11
5405.701703925794
 21
3851.576237956185
 31
0.0
  0
LINE
  5
63603
330
635E3
100
AcDbEntity
  8
标注
 62
     0
440
 16777216
370
    -2
100
AcDbLine
 10
5459.295349795648
 20
3874.841923287895
 30
0.0
 11
5415.982486027417
 21
3848.469711968994
 31
0.0
  0
SOLID
  5
63604
330
635E3
100
AcDbEntity
  8
标注
 62
     0
440
 16777216
100
AcDbTrace
 10
5458.255229734564
 20
3876.550182711557
 30
0.0
 11
5460.335469856731
 21
3873.133663864232
 31
0.0
 12
5469.544906337621
 22
3881.082643654398
 32
0.0
 13
5469.544906337621
 23
3881.082643654398
 33
0.0
  0
SOLID
  5
63605
330
635E3
100
AcDbEntity
  8
标注
 62
     0
440
 16777216
100
AcDbTrace
 10
5414.942365966332
 20
3850.177971392656
 30
0.0
 11
5417.0226060885
 21
3846.761452545331
 31
0.0
 12
5405.732929485443
 22
3842.22899160249
 32
0.0
 13
5405.732929485443
 23
3842.22899160249
 33
0.0
  0
MTEXT
  5
63606
330
635E3
100
AcDbEntity
  8
标注
 62
     0
440
 16777216
100
AcDbMText
 10
5431.597017683678
 20
3876.270517257859
 30
0.0
 40
30.0
 41
0.0
 46
0.0
 71
     5
 72
     1
  1
88
  7
样式 1
 11
0.8541297118311462
 21
0.5200600305419013
 31
0.0
 73
     1
 44
1.0
  0
POINT
  5
63607
330
635E3
100
AcDbEntity
  8
Defpoints
 62
     0
440
 16777216
100
AcDbPoint
 10
5469.707666870619
 20
3832.360929272987
 30
0.0
  0
POINT
  5
63608
330
635E3
100
AcDbEntity
  8
Defpoints
 62
     0
440
 16777216
100
AcDbPoint
 10
5405.895690018441
 20
3793.50727722108
 30
0.0
  0
POINT
  5
63609
330
635E3
100
AcDbEntity
  8
Defpoints
 62
     0
440
 16777216
100
AcDbPoint
 10
5405.732929485443
 20
3842.22899160249
 30
0.0
  0
ENDBLK
  5
635EE
330
635E3
100
AcDbEntity
  8
0
100
AcDbBlockEnd
  0
BLOCK
  5
6398E
330
6398D
100
AcDbEntity
  8
0
100
AcDbBlockBegin
  2
*D12
 70
     1
 10
0.0
 20
0.0
 30
0.0
  3
*D12
  1

  0
LINE
  5
63B94
330
6398D
100
AcDbEntity
  8
标注
 62
     0
440
 16777216
370
    -2
100
AcDbLine
 10
4087.23660910557
 20
3093.267723611997
 30
0.0
 11
4004.237031364516
 21
3178.301246430164
 31
0.0
  0
LINE
  5
63B95
330
6398D
100
AcDbEntity
  8
标注
 62
     0
440
 16777216
370
    -2
100
AcDbLine
 10
3973.503185940827
 20
3209.788239704743
 30
0.0
 11
3965.121228098004
 21
3218.375601506899
 31
0.0
  0
MTEXT
  5
63B96
102
{ACAD_XDICTIONARY
360
63CF5
102
}
330
6398D
100
AcDbEntity
  8
标注
 62
     0
440
 16777216
100
AcDbMText
 10
4071.538428191288
 20
3131.720071522886
 30
0.0
 40
30.0
 41
0.0
 46
0.0
 71
     5
 72
     1
  1
∅20
  7
样式 1
 11
0.6984964869019393
 21
-0.7156134835130268
 31
0.0
 73
     1
 44
1.0
  0
LINE
  5
63B97
330
6398D
100
AcDbEntity
  8
标注
 62
     0
440
 16777216
370
    -2
100
AcDbLine
 10
3981.885143783649
 20
3201.200877902586
 30
0.0
 11
3995.855073521692
 21
3186.888608232321
 31
0.0
  0
SOLID
  5
63B98
330
6398D
100
AcDbEntity
  8
标注
 62
     0
440
 16777216
100
AcDbTrace
 10
3974.934412907853
 20
3211.185232678547
 30
0.0
 11
3972.071958973801
 21
3208.391246730939
 31
0.0
 12
3981.885143783649
 22
3201.200877902586
 32
0.0
 13
3981.885143783649
 23
3201.200877902586
 33
0.0
  0
SOLID
  5
63B99
330
6398D
100
AcDbEntity
  8
标注
 62
     0
440
 16777216
100
AcDbTrace
 10
4005.668258331541
 20
3179.698239403969
 30
0.0
 11
4002.80580439749
 21
3176.904253456361
 31
0.0
 12
3995.855073521692
 22
3186.888608232321
 32
0.0
 13
3995.855073521692
 23
3186.888608232321
 33
0.0
  0
POINT
  5
63B9A
330
6398D
100
AcDbEntity
  8
Defpoints
 62
     0
440
 16777216
100
AcDbPoint
 10
3995.855073521692
 20
3186.888608232321
 30
0.0
  0
POINT
  5
63B9B
330
6398D
100
AcDbEntity
  8
Defpoints
 62
     0
440
 16777216
100
AcDbPoint
 10
3981.885143783649
 20
3201.200877902586
 30
0.0
  0
ENDBLK
  5
6398F
330
6398D
100
AcDbEntity
  8
0
100
AcDbBlockEnd
  0
BLOCK
  5
63999
330
63998
100
AcDbEntity
  8
0
100
AcDbBlockBegin
  2
*D13
 70
     1
 10
0.0
 20
0.0
 30
0.0
  3
*D13
  1

  0
LINE
  5
63B9C
330
63998
100
AcDbEntity
  8
标注
 62
     0
440
 16777216
370
    -2
100
AcDbLine
 10
4515.843301105365
 20
3527.317200946659
 30
0.0
 11
4515.843301105365
 21
3496.188143815827
 31
0.0
  0
LINE
  5
63B9D
330
63998
100
AcDbEntity
  8
标注
 62
     0
440
 16777216
370
    -2
100
AcDbLine
 10
4502.843301105365
 20
3527.317200946659
 30
0.0
 11
4502.843301105365
 21
3496.188143815827
 31
0.0
  0
LINE
  5
63B9E
330
63998
100
AcDbEntity
  8
标注
 62
     0
440
 16777216
370
    -2
100
AcDbLine
 10
4527.843301105365
 20
3504.188143815827
 30
0.0
 11
4539.843301105364
 21
3504.188143815827
 31
0.0
  0
LINE
  5
63B9F
330
63998
100
AcDbEntity
  8
标注
 62
     0
440
 16777216
370
    -2
100
AcDbLine
 10
4490.843301105366
 20
3504.188143815827
 30
0.0
 11
4434.736158248223
 21
3504.188143815827
 31
0.0
  0
LINE
  5
63BA0
330
63998
100
AcDbEntity
  8
标注
 62
     0
440
 16777216
370
    -2
100
AcDbLine
 10
4515.843301105365
 20
3504.188143815827
 30
0.0
 11
4502.843301105365
 21
3504.188143815827
 31
0.0
  0
SOLID
  5
63BA1
330
63998
100
AcDbEntity
  8
标注
 62
     0
440
 16777216
100
AcDbTrace
 10
4527.843301105365
 20
3506.188143815827
 30
0.0
 11
4527.843301105365
 21
3502.188143815827
 31
0.0
 12
4515.843301105365
 22
3504.188143815827
 32
0.0
 13
4515.843301105365
 23
3504.188143815827
 33
0.0
  0
SOLID
  5
63BA2
330
63998
100
AcDbEntity
  8
标注
 62
     0
440
 16777216
100
AcDbTrace
 10
4490.843301105366
 20
3506.188143815827
 30
0.0
 11
4490.843301105366
 21
3502.188143815827
 31
0.0
 12
4502.843301105365
 22
3504.188143815827
 32
0.0
 13
4502.843301105365
 23
3504.188143815827
 33
0.0
  0
MTEXT
  5
63BA3
330
63998
100
AcDbEntity
  8
标注
 62
     0
440
 16777216
100
AcDbMText
 10
4456.789729676795
 20
3519.813143815827
 30
0.0
 40
30.0
 41
0.0
 46
0.0
 71
     5
 72
     1
  1
13
  7
样式 1
 73
     1
 44
1.0
  0
POINT
  5
63BA4
330
63998
100
AcDbEntity
  8
Defpoints
 62
     0
440
 16777216
100
AcDbPoint
 10
4515.843301105365
 20
3527.94220094666
 30
0.0
  0
POINT
  5
63BA5
330
63998
100
AcDbEntity
  8
Defpoints
 62
     0
440
 16777216
100
AcDbPoint
 10
4502.843301105365
 20
3527.94220094666
 30
0.0
  0
POINT
  5
63BA6
330
63998
100
AcDbEntity
  8
Defpoints
 62
     0
440
 16777216
100
AcDbPoint
 10
4502.843301105365
 20
3504.188143815827
 30
0.0
  0
ENDBLK
  5
6399A
330
63998
100
AcDbEntity
  8
0
100
AcDbBlockEnd
  0
BLOCK
  5
639A7
330
639A6
100
AcDbEntity
  8
0
100
AcDbBlockBegin
  2
*D14
 70
     1
 10
0.0
 20
0.0
 30
0.0
  3
*D14
  1

  0
LINE
  5
63BA7
330
639A6
100
AcDbEntity
  8
标注
 62
     0
440
 16777216
370
    -2
100
AcDbLine
 10
4743.403545802364
 20
3790.238643923628
 30
0.0
 11
4596.248646762061
 21
3665.81918666061
 31
0.0
  0
LINE
  5
63BA8
330
639A6
100
AcDbEntity
  8
标注
 62
     0
440
 16777216
370
    -2
100
AcDbLine
 10
4553.637955448668
 20
3629.791850014739
 30
0.0
 11
4544.474365918906
 21
3622.044035682293
 31
0.0
  0
MTEXT
  5
63BA9
102
{ACAD_XDICTIONARY
360
63CF7
102
}
330
639A6
100
AcDbEntity
  8
标注
 62
     0
440
 16777216
100
AcDbMText
 10
4689.74728674213
 20
3765.333694587881
 30
0.0
 40
30.0
 41
0.0
 46
0.0
 71
     5
 72
     1
  1
∅31.8
  7
样式 1
 11
0.7636324608134603
 21
0.6456511943704426
 31
0.0
 73
     1
 44
1.0
  0
LINE
  5
63BAA
330
639A6
100
AcDbEntity
  8
标注
 62
     0
440
 16777216
370
    -2
100
AcDbLine
 10
4562.801544978429
 20
3637.539664347183
 30
0.0
 11
4587.085057232299
 21
3658.071372328163
 31
0.0
  0
SOLID
  5
63BAB
330
639A6
100
AcDbEntity
  8
标注
 62
     0
440
 16777216
100
AcDbTrace
 10
4552.346653059927
 20
3631.319114936366
 30
0.0
 11
4554.92925783741
 21
3628.264585093111
 31
0.0
 12
4562.801544978429
 22
3637.539664347183
 32
0.0
 13
4562.801544978429
 23
3637.539664347183
 33
0.0
  0
SOLID
  5
63BAC
330
639A6
100
AcDbEntity
  8
标注
 62
     0
440
 16777216
100
AcDbTrace
 10
4594.95734437332
 20
3667.346451582236
 30
0.0
 11
4597.539949150801
 21
3664.291921738982
 31
0.0
 12
4587.085057232299
 22
3658.071372328163
 32
0.0
 13
4587.085057232299
 23
3658.071372328163
 33
0.0
  0
POINT
  5
63BAD
330
639A6
100
AcDbEntity
  8
Defpoints
 62
     0
440
 16777216
100
AcDbPoint
 10
4587.085057232299
 20
3658.071372328163
 30
0.0
  0
POINT
  5
63BAE
330
639A6
100
AcDbEntity
  8
Defpoints
 62
     0
440
 16777216
100
AcDbPoint
 10
4562.801544978429
 20
3637.539664347183
 30
0.0
  0
ENDBLK
  5
639A8
330
639A6
100
AcDbEntity
  8
0
100
AcDbBlockEnd
  0
BLOCK
  5
639B2
330
639B1
100
AcDbEntity
  8
0
100
AcDbBlockBegin
  2
*D15
 70
     1
 10
0.0
 20
0.0
 30
0.0
  3
*D15
  1

  0
LINE
  5
63BAF
330
639B1
100
AcDbEntity
  8
标注
 62
     0
440
 16777216
370
    -2
100
AcDbLine
 10
4787.155129256649
 20
3562.897710409914
 30
0.0
 11
4599.825543283032
 21
3637.849915683297
 31
0.0
  0
LINE
  5
63BB0
330
639B1
100
AcDbEntity
  8
标注
 62
     0
440
 16777216
370
    -2
100
AcDbLine
 10
4550.061058927695
 20
3657.761120992054
 30
0.0
 11
4538.919756460082
 21
3662.218853523866
 31
0.0
  0
MTEXT
  5
63BB1
102
{ACAD_XDICTIONARY
360
63CF9
102
}
330
639B1
100
AcDbEntity
  8
标注
 62
     0
440
 16777216
100
AcDbMText
 10
4737.999025514386
 20
3599.394768448777
 30
0.0
 40
30.0
 41
0.0
 46
0.0
 71
     5
 72
     1
  1
∅29.6
  7
样式 1
 11
0.9284418723010501
 21
-0.3714777109842801
 31
0.0
 73
     1
 44
1.0
  0
LINE
  5
63BB2
330
639B1
100
AcDbEntity
  8
标注
 62
     0
440
 16777216
370
    -2
100
AcDbLine
 10
4561.202361395308
 20
3653.303388460243
 30
0.0
 11
4588.68424081542
 21
3642.307648215108
 31
0.0
  0
SOLID
  5
63BB3
330
639B1
100
AcDbEntity
  8
标注
 62
     0
440
 16777216
100
AcDbTrace
 10
4550.804014349663
 20
3659.618004736656
 30
0.0
 11
4549.318103505727
 21
3655.904237247451
 31
0.0
 12
4561.202361395308
 22
3653.303388460243
 32
0.0
 13
4561.202361395308
 23
3653.303388460243
 33
0.0
  0
SOLID
  5
63BB4
330
639B1
100
AcDbEntity
  8
标注
 62
     0
440
 16777216
100
AcDbTrace
 10
4600.568498705001
 20
3639.706799427898
 30
0.0
 11
4599.082587861064
 21
3635.993031938694
 31
0.0
 12
4588.68424081542
 22
3642.307648215108
 32
0.0
 13
4588.68424081542
 23
3642.307648215108
 33
0.0
  0
POINT
  5
63BB5
330
639B1
100
AcDbEntity
  8
Defpoints
 62
     0
440
 16777216
100
AcDbPoint
 10
4588.68424081542
 20
3642.307648215108
 30
0.0
  0
POINT
  5
63BB6
330
639B1
100
AcDbEntity
  8
Defpoints
 62
     0
440
 16777216
100
AcDbPoint
 10
4561.202361395308
 20
3653.303388460243
 30
0.0
  0
ENDBLK
  5
639B3
330
639B1
100
AcDbEntity
  8
0
100
AcDbBlockEnd
  0
BLOCK
  5
639BD
330
639BC
100
AcDbEntity
  8
0
100
AcDbBlockBegin
  2
*D16
 70
     1
 10
0.0
 20
0.0
 30
0.0
  3
*D16
  1

  0
LINE
  5
63BB7
330
639BC
100
AcDbEntity
  8
标注
 62
     0
440
 16777216
370
    -2
100
AcDbLine
 10
4668.467612419057
 20
3563.274274503201
 30
0.0
 11
4583.476991014735
 21
3594.055159736671
 31
0.0
  0
MTEXT
  5
63BB8
330
639BC
100
AcDbEntity
  8
标注
 62
     0
440
 16777216
100
AcDbMText
 10
4636.934396416845
 20
3591.312764589382
 30
0.0
 40
30.0
 41
0.0
 46
0.0
 71
     5
 72
     1
  1
R46
  7
样式 1
 11
0.9402360329202043
 21
-0.3405234241553384
 31
0.0
 73
     1
 44
1.0
  0
LINE
  5
63BB9
330
639BC
100
AcDbEntity
  8
标注
 62
     0
440
 16777216
370
    -2
100
AcDbLine
 10
4528.943301105369
 20
3613.805518337679
 30
0.0
 11
4572.194158619693
 21
3598.141440826536
 31
0.0
  0
SOLID
  5
63BBA
330
639BC
100
AcDbEntity
  8
标注
 62
     0
440
 16777216
100
AcDbTrace
 10
4584.158037863046
 20
3595.935631802512
 30
0.0
 11
4582.795944166424
 21
3592.174687670831
 31
0.0
 12
4572.194158619693
 22
3598.141440826536
 32
0.0
 13
4572.194158619693
 23
3598.141440826536
 33
0.0
  0
ARC
  5
63BBB
330
639BC
100
AcDbEntity
  8
标注
 62
     0
440
 16777216
370
    -2
100
AcDbCircle
 10
4528.943301105369
 20
3613.805518337679
 30
0.0
 40
45.99999999999318
100
AcDbArc
 50
270.7784752651236
 51
350.0557162957324
  0
POINT
  5
63BBC
330
639BC
100
AcDbEntity
  8
Defpoints
 62
     0
440
 16777216
100
AcDbPoint
 10
4572.194158619693
 20
3598.141440826536
 30
0.0
  0
POINT
  5
63BBD
330
639BC
100
AcDbEntity
  8
Defpoints
 62
     0
440
 16777216
100
AcDbPoint
 10
4528.943301105369
 20
3613.805518337679
 30
0.0
  0
ENDBLK
  5
639BE
330
639BC
100
AcDbEntity
  8
0
100
AcDbBlockEnd
  0
BLOCK
  5
639C6
330
639C5
100
AcDbEntity
  8
0
100
AcDbBlockBegin
  2
*D17
 70
     1
 10
0.0
 20
0.0
 30
0.0
  3
*D17
  1

  0
LINE
  5
63BBE
330
639C5
100
AcDbEntity
  8
标注
 62
     0
440
 16777216
370
    -2
100
AcDbLine
 10
4502.218301105364
 20
3647.805518337675
 30
0.0
 11
4455.439901149383
 21
3647.805518337675
 31
0.0
  0
LINE
  5
63BBF
330
639C5
100
AcDbEntity
  8
标注
 62
     0
440
 16777216
370
    -2
100
AcDbLine
 10
4502.218301105364
 20
3567.805518337676
 30
0.0
 11
4455.439901149383
 21
3567.805518337676
 31
0.0
  0
LINE
  5
63BC0
330
639C5
100
AcDbEntity
  8
标注
 62
     0
440
 16777216
370
    -2
100
AcDbLine
 10
4463.439901149383
 20
3635.805518337676
 30
0.0
 11
4463.439901149383
 21
3579.805518337675
 31
0.0
  0
SOLID
  5
63BC1
330
639C5
100
AcDbEntity
  8
标注
 62
     0
440
 16777216
100
AcDbTrace
 10
4461.439901149383
 20
3635.805518337676
 30
0.0
 11
4465.439901149383
 21
3635.805518337676
 31
0.0
 12
4463.439901149383
 22
3647.805518337675
 32
0.0
 13
4463.439901149383
 23
3647.805518337675
 33
0.0
  0
SOLID
  5
63BC2
330
639C5
100
AcDbEntity
  8
标注
 62
     0
440
 16777216
100
AcDbTrace
 10
4461.439901149383
 20
3579.805518337675
 30
0.0
 11
4465.439901149383
 21
3579.805518337675
 31
0.0
 12
4463.439901149383
 22
3567.805518337676
 32
0.0
 13
4463.439901149383
 23
3567.805518337676
 33
0.0
  0
MTEXT
  5
63BC3
330
639C5
100
AcDbEntity
  8
标注
 62
     0
440
 16777216
100
AcDbMText
 10
4447.814901149382
 20
3607.805518337676
 30
0.0
 40
30.0
 41
0.0
 46
0.0
 71
     5
 72
     1
  1
80
  7
样式 1
 11
0.0000000000000001
 21
1.0
 31
0.0
 73
     1
 44
1.0
  0
POINT
  5
63BC4
330
639C5
100
AcDbEntity
  8
Defpoints
 62
     0
440
 16777216
100
AcDbPoint
 10
4502.843301105364
 20
3647.805518337675
 30
0.0
  0
POINT
  5
63BC5
330
639C5
100
AcDbEntity
  8
Defpoints
 62
     0
440
 16777216
100
AcDbPoint
 10
4502.843301105364
 20
3567.805518337676
 30
0.0
  0
POINT
  5
63BC6
330
639C5
100
AcDbEntity
  8
Defpoints
 62
     0
440
 16777216
100
AcDbPoint
 10
4463.439901149383
 20
3567.805518337676
 30
0.0
  0
ENDBLK
  5
639C7
330
639C5
100
AcDbEntity
  8
0
100
AcDbBlockEnd
  0
BLOCK
  5
63B39
330
63B38
100
AcDbEntity
  8
0
100
AcDbBlockBegin
  2
*D18
 70
     1
 10
0.0
 20
0.0
 30
0.0
  3
*D18
  1

  0
LINE
  5
63BC7
330
63B38
100
AcDbEntity
  8
标注
 62
     0
440
 16777216
370
    -2
100
AcDbLine
 10
3888.870108652674
 20
3108.712886540305
 30
0.0
 11
3888.870108652674
 21
3047.222581902064
 31
0.0
  0
LINE
  5
63BC8
330
63B38
100
AcDbEntity
  8
标注
 62
     0
440
 16777216
370
    -2
100
AcDbLine
 10
3988.870108652674
 20
3128.039775984327
 30
0.0
 11
3988.870108652674
 21
3047.222581902064
 31
0.0
  0
LINE
  5
63BC9
330
63B38
100
AcDbEntity
  8
标注
 62
     0
440
 16777216
370
    -2
100
AcDbLine
 10
3900.870108652674
 20
3055.222581902064
 30
0.0
 11
3976.870108652673
 21
3055.222581902064
 31
0.0
  0
SOLID
  5
63BCA
330
63B38
100
AcDbEntity
  8
标注
 62
     0
440
 16777216
100
AcDbTrace
 10
3900.870108652674
 20
3057.222581902064
 30
0.0
 11
3900.870108652674
 21
3053.222581902064
 31
0.0
 12
3888.870108652674
 22
3055.222581902064
 32
0.0
 13
3888.870108652674
 23
3055.222581902064
 33
0.0
  0
SOLID
  5
63BCB
330
63B38
100
AcDbEntity
  8
标注
 62
     0
440
 16777216
100
AcDbTrace
 10
3976.870108652673
 20
3057.222581902064
 30
0.0
 11
3976.870108652673
 21
3053.222581902064
 31
0.0
 12
3988.870108652674
 22
3055.222581902064
 32
0.0
 13
3988.870108652674
 23
3055.222581902064
 33
0.0
  0
MTEXT
  5
63BCC
330
63B38
100
AcDbEntity
  8
标注
 62
     0
440
 16777216
100
AcDbMText
 10
3938.870108652674
 20
3070.847581902064
 30
0.0
 40
30.0
 41
0.0
 46
0.0
 71
     5
 72
     1
  1
100
  7
样式 1
 73
     1
 44
1.0
  0
POINT
  5
63BCD
330
63B38
100
AcDbEntity
  8
Defpoints
 62
     0
440
 16777216
100
AcDbPoint
 10
3888.870108652674
 20
3109.337886540305
 30
0.0
  0
POINT
  5
63BCE
330
63B38
100
AcDbEntity
  8
Defpoints
 62
     0
440
 16777216
100
AcDbPoint
 10
3988.870108652674
 20
3128.664775984326
 30
0.0
  0
POINT
  5
63BCF
330
63B38
100
AcDbEntity
  8
Defpoints
 62
     0
440
 16777216
100
AcDbPoint
 10
3988.870108652674
 20
3055.222581902064
 30
0.0
  0
ENDBLK
  5
63B3A
330
63B38
100
AcDbEntity
  8
0
100
AcDbBlockEnd
  0
ENDSEC
  0
SECTION
  2
ENTITIES
  0
HATCH
  5
47A0
330
2
100
AcDbEntity
  8
标注
100
AcDbHatch
 10
0.0
 20
0.0
 30
0.0
210
0.0
220
0.0
230
1.0
  2
ANSI31
 70
     0
 71
     0
 91
        1
 92
        7
 72
     0
 73
     1
 93
        6
 10
808.9637528631646
 20
341.4077636669027
 10
807.9637528631646
 20
340.4077636669027
 10
807.9637528631646
 20
340.3827697704183
 10
808.9637528631646
 20
340.3827697704183
 10
817.9637528631646
 20
340.3827697704183
 10
817.9637528631646
 20
341.4077636669027
 97
        0
 75
     0
 76
     1
 52
0.0
 41
1.0
 77
     0
 78
     1
 53
45.0
 43
0.0
 44
0.0
 45
-57.02462636878911
 46
57.02462636878912
 79
     0
 47
0.0
 98
        2
 10
811.6304195298312
 20
290.00483008513
 10
814.540916511757
 20
290.1885128832553
  0
HATCH
  5
47AF
330
2
100
AcDbEntity
  8
标注
100
AcDbHatch
 10
0.0
 20
0.0
 30
0.0
210
0.0
220
0.0
230
1.0
  2
ANSI31
 70
     0
 71
     0
 91
        1
 92
        7
 72
     0
 73
     1
 93
        6
 10
807.9637528631646
 20
340.4077636669027
 10
807.9637528631646
 20
340.3827697704183
 10
808.9637528631646
 20
340.3827697704183
 10
817.9637528631646
 20
340.3827697704183
 10
817.9637528631646
 20
341.4077636669027
 10
808.9637528631646
 20
341.4077636669027
 97
        0
 75
     0
 76
     1
 52
0.0
 41
1.0
 77
     0
 78
     1
 53
45.0
 43
0.0
 44
0.0
 45
-57.02462636878911
 46
57.02462636878912
 79
     0
 47
0.0
 98
        2
 10
811.6304195298312
 20
290.00483008513
 10
815.1155934479202
 20
290.0208102015142
  0
HATCH
  5
47C4
330
2
100
AcDbEntity
  8
标注
100
AcDbHatch
 10
0.0
 20
0.0
 30
0.0
210
0.0
220
0.0
230
1.0
  2
ANSI31
 70
     0
 71
     0
 91
        1
 92
        7
 72
     0
 73
     1
 93
        6
 10
807.9637528631646
 20
340.4077636669027
 10
807.9637528631646
 20
340.3827697704183
 10
808.9637528631646
 20
340.3827697704183
 10
817.9637528631646
 20
340.3827697704183
 10
817.9637528631646
 20
341.4077636669027
 10
808.9637528631646
 20
341.4077636669027
 97
        0
 75
     0
 76
     1
 52
0.0
 41
1.0
 77
     0
 78
     1
 53
45.0
 43
0.0
 44
0.0
 45
-57.02462636878911
 46
57.02462636878912
 79
     0
 47
0.0
 98
        2
 10
811.6304195298312
 20
290.00483008513
 10
811.6304195298312
 20
290.00483008513
  0
HATCH
  5
7FDE
330
2
100
AcDbEntity
  8
剖面线
100
AcDbHatch
 10
0.0
 20
0.0
 30
0.0
210
0.0
220
0.0
230
1.0
  2
ANSI31
 70
     0
 71
     1
 91
        0
 75
     0
 76
     1
 52
0.0
 41
0.25
 77
     0
 78
     1
 53
45.0
 43
0.0
 44
0.0
 45
-0.5612660075668221
 46
0.5612660075668221
 79
     0
 98
        1
 10
267.1978866720704
 20
1009.396111914461
  0
HATCH
  5
807B
330
2
100
AcDbEntity
  8
剖面线
100
AcDbHatch
 10
0.0
 20
0.0
 30
0.0
210
0.0
220
0.0
230
1.0
  2
ANSI31
 70
     0
 71
     1
 91
        0
 75
     0
 76
     1
 52
0.0
 41
0.25
 77
     0
 78
     1
 53
45.0
 43
0.0
 44
0.0
 45
-0.5612660075668221
 46
0.5612660075668221
 79
     0
 98
        1
 10
260.9063311437414
 20
1015.611866868925
  0
HATCH
  5
80BB
330
2
100
AcDbEntity
  8
0
100
AcDbHatch
 10
0.0
 20
0.0
 30
0.0
210
0.0
220
0.0
230
1.0
  2
ANSI31
 70
     0
 71
     1
 91
        0
 75
     0
 76
     1
 52
0.0
 41
0.25
 77
     0
 78
     1
 53
45.0
 43
0.0
 44
0.0
 45
-0.5612660075668221
 46
0.5612660075668221
 79
     0
 98
        1
 10
0.0
 20
0.0
  0
HATCH
  5
8127
330
2
100
AcDbEntity
  8
0
100
AcDbHatch
 10
0.0
 20
0.0
 30
0.0
210
0.0
220
0.0
230
1.0
  2
ANSI31
 70
     0
 71
     1
 91
        0
 75
     0
 76
     1
 52
0.0
 41
0.25
 77
     0
 78
     1
 53
45.0
 43
0.0
 44
0.0
 45
-0.5612660075668221
 46
0.5612660075668221
 79
     0
 98
        1
 10
0.0
 20
0.0
  0
HATCH
  5
8151
330
2
100
AcDbEntity
  8
0
100
AcDbHatch
 10
0.0
 20
0.0
 30
0.0
210
0.0
220
0.0
230
1.0
  2
ANSI31
 70
     0
 71
     1
 91
        0
 75
     0
 76
     1
 52
0.0
 41
0.25
 77
     0
 78
     1
 53
45.0
 43
0.0
 44
0.0
 45
-0.5612660075668221
 46
0.5612660075668221
 79
     0
 98
        1
 10
0.0
 20
0.0
  0
HATCH
  5
8184
330
2
100
AcDbEntity
  8
剖面线
100
AcDbHatch
 10
0.0
 20
0.0
 30
0.0
210
0.0
220
0.0
230
1.0
  2
ANSI31
 70
     0
 71
     0
 91
        0
 75
     0
 76
     1
 52
0.0
 41
0.25
 77
     0
 78
     1
 53
45.00000000000436
 43
1662.819978524104
 44
0.3206117319112991
 45
-0.5612660075669284
 46
0.5612660075668221
 79
     0
 98
        2
 10
2060.042234542995
 20
923.3992186555811
 10
2042.482776698473
 20
923.3050660666023
  0
HATCH
  5
81A8
330
2
100
AcDbEntity
  8
0
100
AcDbHatch
 10
0.0
 20
0.0
 30
0.0
210
0.0
220
0.0
230
1.0
  2
ANSI31
 70
     0
 71
     1
 91
        0
 75
     0
 76
     1
 52
0.0
 41
0.1
 77
     0
 78
     1
 53
45.0
 43
0.0
 44
0.0
 45
-0.2245064030267288
 46
0.2245064030267288
 79
     0
 98
        1
 10
0.0
 20
0.0
  0
HATCH
  5
81BF
330
2
100
AcDbEntity
  8
0
100
AcDbHatch
 10
0.0
 20
0.0
 30
0.0
210
0.0
220
0.0
230
1.0
  2
ANSI31
 70
     0
 71
     1
 91
        0
 75
     0
 76
     1
 52
0.0
 41
0.1
 77
     0
 78
     1
 53
45.0
 43
0.0
 44
0.0
 45
-0.2245064030267288
 46
0.2245064030267288
 79
     0
 98
        1
 10
0.0
 20
0.0
  0
HATCH
  5
81C7
330
2
100
AcDbEntity
  8
0
100
AcDbHatch
 10
0.0
 20
0.0
 30
0.0
210
0.0
220
0.0
230
1.0
  2
ANSI31
 70
     0
 71
     1
 91
        0
 75
     0
 76
     1
 52
0.0
 41
0.25
 77
     0
 78
     1
 53
45.0
 43
0.0
 44
0.0
 45
-0.5612660075668221
 46
0.5612660075668221
 79
     0
 98
        1
 10
0.0
 20
0.0
  0
HATCH
  5
8D7A
330
2
100
AcDbEntity
  8
标注
100
AcDbHatch
 10
0.0
 20
0.0
 30
0.0
210
0.0
220
0.0
230
1.0
  2
ANSI31
 70
     0
 71
     0
 91
        1
 92
       10
 72
     0
 73
     1
 93
        4
 10
2048.785847868912
 20
971.5216843808956
 10
2048.785847868912
 20
966.6558651718558
 10
2053.651667077952
 20
966.6558651718558
 10
2053.651667077952
 20
971.5216843808956
 97
        0
 75
     0
 76
     1
 52
0.0
 41
0.25
 77
     0
 78
     1
 53
45.0
 43
0.0
 44
0.0
 45
-0.5612660075668221
 46
0.5612660075668221
 79
     0
 98
        1
 10
0.0
 20
0.0
  0
HATCH
  5
8ED7
330
2
100
AcDbEntity
  8
标注
100
AcDbHatch
 10
0.0
 20
0.0
 30
0.0
210
0.0
220
0.0
230
1.0
  2
ANSI31
 70
     0
 71
     1
 91
        0
 75
     0
 76
     1
 52
0.0
 41
0.25
 77
     0
 78
     1
 53
45.0
 43
0.0
 44
0.0
 45
-0.5612660075668221
 46
0.5612660075668221
 79
     0
 98
        1
 10
0.0
 20
0.0
  0
MTEXT
  5
47027
330
2
100
AcDbEntity
  8
标注
100
AcDbMText
 10
851.2901663856801
 20
335.199601009439
 30
0.0
 40
6.0
 41
13.70396488517739
 46
0.0
 71
     1
 72
     1
  1

 73
     1
 44
1.0
  0
LINE
  5
6265F
330
2
100
AcDbEntity
  8
0
  6
Continuous
 62
     7
100
AcDbLine
 10
5413.722897466028
 20
3481.759545966677
 30
0.0
 11
5871.042168683886
 21
3321.65817503775
 31
0.0
  0
LINE
  5
62660
330
2
100
AcDbEntity
  8
0
  6
Continuous
 62
     7
100
AcDbLine
 10
5431.715779756014
 20
3497.127620430102
 30
0.0
 11
5879.74977066413
 21
3340.276902179822
 31
0.0
  0
LINE
  5
6266A
330
2
100
AcDbEntity
  8
0
  6
Continuous
 62
     7
100
AcDbLine
 10
5398.967022368446
 20
3509.093253825137
 30
0.0
 11
5398.780604916407
 21
3569.279942973093
 31
0.0
  0
LINE
  5
6266B
330
2
100
AcDbEntity
  8
0
  6
Continuous
 62
     7
100
AcDbLine
 10
5398.780604916407
 20
3569.279942973093
 30
0.0
 11
5398.050327469144
 21
3787.885575122461
 31
0.0
  0
LINE
  5
6266C
330
2
100
AcDbEntity
  8
0
  6
Continuous
 62
     7
100
AcDbLine
 10
5419.352458936529
 20
3517.431633961519
 30
0.0
 11
5418.59517592623
 21
3774.517956422845
 31
0.0
  0
LINE
  5
62968
330
2
100
AcDbEntity
  8
0
100
AcDbLine
 10
5433.912098174978
 20
3840.02751049521
 30
0.0
 11
5445.170428424177
 21
3846.52751049521
 31
0.0
  0
LINE
  5
62969
330
2
100
AcDbEntity
  8
0
100
AcDbLine
 10
5458.449336621421
 20
3797.527766828539
 30
0.0
 11
5469.707666870619
 21
3804.027766828539
 31
0.0
  0
ELLIPSE
  5
6296A
330
2
100
AcDbEntity
  8
0
100
AcDbEllipse
 10
5446.180717398199
 20
3818.777638661874
 30
0.0
 11
6.078269692176275
 21
-10.52787192895713
 31
0.0
210
0.0
220
0.0
230
1.0
 40
0.5773502691896783
 41
0.0
 42
3.141592653589793
  0
ELLIPSE
  5
62974
330
2
100
AcDbEntity
  8
0
100
AcDbEllipse
 10
5446.180717398199
 20
3818.777638661874
 30
0.0
 11
12.268619223221
 21
-21.24987183333511
 31
0.0
210
0.0
220
0.0
230
1.0
 40
0.5773502691896376
 41
5.230721360831676
 42
10.47724190711717
  0
ELLIPSE
  5
62975
330
2
100
AcDbEntity
  8
0
100
AcDbEllipse
 10
5457.439047647397
 20
3825.277638661874
 30
0.0
 11
12.268619223221
 21
-21.24987183333511
 31
0.0
210
0.0
220
0.0
230
1.0
 40
0.5773502691896376
 41
4.194056599937738
 42
4.196703976948741
  0
LINE
  5
629B1
330
2
100
AcDbEntity
  8
0
100
AcDbLine
 10
5440.102447706024
 20
3829.305510590831
 30
0.0
 11
5410.657767753289
 21
3813.115002012125
 31
0.0
  0
LINE
  5
629B2
330
2
100
AcDbEntity
  8
0
100
AcDbLine
 10
5452.258987090376
 20
3808.249766732917
 30
0.0
 11
5428.017218961691
 21
3794.25377537819
 31
0.0
  0
ELLIPSE
  5
629B3
330
2
100
AcDbEntity
  8
0
100
AcDbEllipse
 10
5457.439047647397
 20
3825.277638661874
 30
0.0
 11
12.268619223221
 21
-21.24987183333511
 31
0.0
210
0.0
220
0.0
230
1.0
 40
0.5773502691896376
 41
6.283185307179586
 42
9.424777960769379
  0
ELLIPSE
  5
629B4
330
2
100
AcDbEntity
  8
0
100
AcDbEllipse
 10
5457.439047647397
 20
3825.277638661874
 30
0.0
 11
12.268619223221
 21
-21.24987183333511
 31
0.0
210
0.0
220
0.0
230
1.0
 40
0.5773502691896376
 41
5.22807398382054
 42
5.230721360831616
  0
SPLINE
  5
629B7
330
2
100
AcDbEntity
  8
0
  6
Continuous
 62
     7
100
AcDbSpline
210
0.0
220
0.0
230
1.0
 70
     8
 71
     3
 72
    12
 73
     8
 74
     0
 42
0.000000001
 43
0.0000000001
 40
1.892943626519044
 40
1.892943626519044
 40
1.892943626519044
 40
1.892943626519044
 40
3.4283783625319
 40
9.168425102064686
 40
15.67019058777546
 40
23.25644959119882
 40
31.58258975943196
 40
31.58258975943196
 40
31.58258975943196
 40
31.58258975943196
 10
5410.657767753288
 20
3813.115002012125
 30
0.0
 10
5410.194407361014
 20
3812.895522975892
 30
0.0
 10
5408.042016560368
 20
3811.761364367508
 30
0.0
 10
5404.433689625569
 20
3808.79924290518
 30
0.0
 10
5400.767962779625
 20
3803.186754551012
 30
0.0
 10
5398.510804243109
 20
3795.982996568173
 30
0.0
 10
5398.058923669173
 20
3790.660941865978
 30
0.0
 10
5398.050327469144
 20
3787.885575122461
 30
0.0
  0
SPLINE
  5
629B8
330
2
100
AcDbEntity
  8
0
  6
Continuous
 62
     7
100
AcDbSpline
210
0.0
220
0.0
230
1.0
 70
     8
 71
     3
 72
    12
 73
     8
 74
     0
 42
0.000000001
 43
0.0000000001
 40
1.892943626519044
 40
1.892943626519044
 40
1.892943626519044
 40
1.892943626519044
 40
3.4283783625319
 40
9.168425102064686
 40
15.67019058777546
 40
23.25644959119882
 40
31.58258975943196
 40
31.58258975943196
 40
31.58258975943196
 40
31.58258975943196
 10
5430.548209112367
 20
3795.715043223
 30
0.0
 10
5430.084848720093
 20
3795.495564186766
 30
0.0
 10
5427.932457919447
 20
3794.361405578382
 30
0.0
 10
5424.324130984647
 20
3791.399284116053
 30
0.0
 10
5420.658404138703
 20
3785.786795761886
 30
0.0
 10
5418.401245602188
 20
3778.583037779048
 30
0.0
 10
5418.59906294241
 20
3773.262995399353
 30
0.0
 10
5418.608604130664
 20
3770.182529865785
 30
0.0
  0
ARC
  5
629B9
330
2
100
AcDbEntity
  8
0
100
AcDbCircle
 10
5409.147863638751
 20
3749.618844523813
 30
0.0
 40
35.41340331324262
100
AcDbArc
 50
72.14666093330343
 51
108.2361440250642
  0
ARC
  5
629BC
330
2
100
AcDbEntity
  8
0
100
AcDbCircle
 10
5377.413007532688
 20
3765.09802948128
 30
0.0
 40
58.40242917170888
100
AcDbArc
 50
29.94850549140312
 51
55.30303903018592
  0
DIMENSION
  5
62A3C
330
2
100
AcDbEntity
  8
标注
100
AcDbDimension
280
     0
  2
*D1
 10
5540.9665713229
 20
3456.53921860856
 30
0.0
 11
5525.341571322899
 21
3631.97667842628
 31
0.0
 70
    32
  1
600
 71
     5
 42
350.2596731645599
 73
     0
 74
     0
 75
     0
  3
线性标注
100
AcDbAlignedDimension
 13
5469.707666870619
 23
3832.360929272986
 33
0.0
 14
5467.950254887971
 24
3482.101256108427
 34
0.0
 50
90.0
100
AcDbRotatedDimension
  0
DIMENSION
  5
62A49
330
2
100
AcDbEntity
  8
标注
100
AcDbDimension
280
     0
  2
*D2
 10
5647.739580832748
 20
3174.424695635944
 30
0.0
 11
5396.203824791125
 21
3268.304599001164
 31
0.0
 70
   161
  1
1000
 71
     5
 42
502.7962487203053
 73
     0
 74
     0
 75
     0
  3
线性标注
100
AcDbAlignedDimension
 13
5397.085915705254
 23
3479.498290385786
 33
0.0
 14
5868.142745078891
 24
3303.687223533701
 34
0.0
  0
LINE
  5
62DFF
330
2
100
AcDbEntity
  8
中心线
100
AcDbLine
 10
4860.771775053233
 20
3276.684951877671
 30
0.0
 11
3943.870108652673
 21
3276.684951877671
 31
0.0
  0
LINE
  5
62E00
330
2
100
AcDbEntity
  8
中心线
100
AcDbLine
 10
3888.870108652674
 20
3331.684951877671
 30
0.0
 11
3888.870108652671
 21
3912.779205290592
 31
0.0
  0
LINE
  5
62E01
330
2
100
AcDbEntity
  8
0
100
AcDbLine
 10
3872.970108652674
 20
3331.684951877671
 30
0.0
 11
3872.970108652673
 21
3876.684951877671
 31
0.0
  0
LINE
  5
62E02
330
2
100
AcDbEntity
  8
0
100
AcDbLine
 10
3904.770108652673
 20
3331.684951877671
 30
0.0
 11
3904.770108652672
 21
3876.684951877671
 31
0.0
  0
ARC
  5
62E03
330
2
100
AcDbEntity
  8
中心线
100
AcDbCircle
 10
3943.870108652673
 20
3331.684951877671
 30
0.0
 40
55.0
100
AcDbArc
 50
180.0
 51
270.0
  0
ARC
  5
62E04
330
2
100
AcDbEntity
  8
0
100
AcDbCircle
 10
3943.870108652673
 20
3331.684951877671
 30
0.0
 40
70.9
100
AcDbArc
 50
180.0
 51
270.0
  0
ARC
  5
62E05
330
2
100
AcDbEntity
  8
0
100
AcDbCircle
 10
3943.870108652673
 20
3331.684951877671
 30
0.0
 40
39.1
100
AcDbArc
 50
180.0
 51
270.0
  0
LINE
  5
62E06
330
2
100
AcDbEntity
  8
0
100
AcDbLine
 10
4828.870108652672
 20
3292.584951877671
 30
0.0
 11
3943.870108652673
 21
3292.584951877671
 31
0.0
  0
LINE
  5
62E07
330
2
100
AcDbEntity
  8
0
100
AcDbLine
 10
4828.870108652672
 20
3260.784951877671
 30
0.0
 11
3998.741770391607
 21
3260.784951877671
 31
0.0
  0
ARC
  5
62E08
330
2
100
AcDbEntity
  8
0
100
AcDbCircle
 10
3888.870108652671
 20
3876.684951877671
 30
0.0
 40
15.89999999999963
100
AcDbArc
 50
0.0
 51
180.0
  0
ARC
  5
62E09
330
2
100
AcDbEntity
  8
0
100
AcDbCircle
 10
3888.870108652671
 20
3876.684951877671
 30
0.0
 40
28.5
100
AcDbArc
 50
303.9103294427574
 51
236.0896705572439
  0
LINE
  5
62E0C
330
2
100
AcDbEntity
  8
中心线
100
AcDbLine
 10
3888.870108652674
 20
4253.430890714372
 30
0.0
 11
3888.870108652674
 21
4126.917483357218
 31
0.0
  0
LINE
  5
62E0D
330
2
100
AcDbEntity
  8
中心线
100
AcDbLine
 10
4890.036528665214
 20
4149.703788163281
 30
0.0
 11
3863.720096326193
 21
4149.703788163281
 31
0.0
  0
LINE
  5
62E0E
330
2
100
AcDbEntity
  8
0
100
AcDbLine
 10
4828.870108652671
 20
4133.803788163279
 30
0.0
 11
3888.870108652675
 21
4133.80378816328
 31
0.0
  0
LINE
  5
62E0F
330
2
100
AcDbEntity
  8
0
100
AcDbLine
 10
4828.870108652671
 20
4165.60378816328
 30
0.0
 11
3904.679544082124
 21
4165.60378816328
 31
0.0
  0
LINE
  5
62E10
330
2
100
AcDbEntity
  8
0
100
AcDbLine
 10
3917.370108652677
 20
4237.703788163281
 30
0.0
 11
3888.870108652679
 21
4237.703788163281
 31
0.0
  0
LINE
  5
62E11
330
2
100
AcDbEntity
  8
0
100
AcDbLine
 10
3860.370108652679
 20
4237.703788163281
 30
0.0
 11
3888.870108652677
 21
4237.703788163281
 31
0.0
  0
LINE
  5
62E12
330
2
100
AcDbEntity
  8
0
100
AcDbLine
 10
3917.370108652677
 20
4237.703788163281
 30
0.0
 11
3917.370108652677
 21
4224.703788163281
 31
0.0
  0
LINE
  5
62E13
330
2
100
AcDbEntity
  8
0
100
AcDbLine
 10
3860.370108652679
 20
4224.379122721687
 30
0.0
 11
3860.294212891458
 21
4237.703788163281
 31
0.0
  0
LINE
  5
62E14
330
2
100
AcDbEntity
  8
0
100
AcDbLine
 10
3917.370108652677
 20
4224.703788163281
 30
0.0
 11
3860.370108652679
 21
4224.379122721687
 31
0.0
  0
ARC
  5
62E15
330
2
100
AcDbEntity
  8
0
100
AcDbCircle
 10
3888.870108652674
 20
4149.703788163281
 30
0.0
 40
15.90000000000009
100
AcDbArc
 50
180.0
 51
0.6526932771456553
  0
LINE
  5
62E16
330
2
100
AcDbEntity
  8
0
100
AcDbLine
 10
3904.770108652673
 20
4149.703788163281
 30
0.0
 11
3904.343339910985
 21
4224.629589187385
 31
0.0
  0
LINE
  5
62E17
330
2
100
AcDbEntity
  8
0
100
AcDbLine
 10
3872.970108652674
 20
4149.703788163281
 30
0.0
 11
3872.544371568262
 21
4224.448465922487
 31
0.0
  0
LINE
  5
62E18
330
2
100
AcDbEntity
  8
中心线
100
AcDbLine
 10
3922.602344588816
 20
3876.684951877671
 30
0.0
 11
3853.170559800353
 21
3876.684951877671
 31
0.0
  0
DIMENSION
  5
62E19
330
2
100
AcDbEntity
  8
标注
100
AcDbDimension
280
     0
  2
*D5
 10
3744.766518503347
 20
3276.684951877671
 30
0.0
 11
3729.141518503346
 21
3576.684951877672
 31
0.0
 70
    32
 71
     5
 42
600.0
 73
     0
 74
     0
 75
     0
  3
线性标注
100
AcDbAlignedDimension
 13
3860.370108652672
 23
3876.684951877671
 33
0.0
 14
3957.096776845137
 24
3276.684951877671
 34
0.0
 50
90.0
100
AcDbRotatedDimension
  0
DIMENSION
  5
62E1A
330
2
100
AcDbEntity
  8
标注
100
AcDbDimension
280
     0
  2
*D6
 10
3943.870108652671
 20
3331.684951877665
 30
0.0
 11
3830.324343065962
 21
3221.524552066863
 31
0.0
 70
   164
 71
     5
 42
54.99999999999545
 73
     0
 74
     0
 75
     0
  3
线性标注
100
AcDbRadialDimension
 15
3904.395216387264
 25
3293.387003099251
 35
0.0
 40
0.0
1001
ACAD
1000
DSTYLE
1002
{
1070
   288
1070
     1
1002
}
1001
ACAD_DSTYLE_DIMRADIAL_EXTENSION
1070
   387
1070
     1
1070
   388
1040
4.712388980384689
1070
   390
1040
0.0
  0
LINE
  5
62E33
330
2
100
AcDbEntity
  8
0
100
AcDbLine
 10
4828.870108652672
 20
3305.184951877671
 30
0.0
 11
4828.870108652672
 21
3248.184951877671
 31
0.0
  0
LINE
  5
62E34
330
2
100
AcDbEntity
  8
0
100
AcDbLine
 10
4828.870108652672
 20
3248.184951877671
 30
0.0
 11
4841.870108652672
 21
3248.184951877671
 31
0.0
  0
LINE
  5
62E35
330
2
100
AcDbEntity
  8
0
100
AcDbLine
 10
4828.870108652672
 20
3305.184951877671
 30
0.0
 11
4841.870108652672
 21
3305.184951877671
 31
0.0
  0
LINE
  5
62E36
330
2
100
AcDbEntity
  8
0
100
AcDbLine
 10
4841.870108652672
 20
3305.184951877671
 30
0.0
 11
4841.870108652672
 21
3248.184951877671
 31
0.0
  0
LINE
  5
62E37
330
2
100
AcDbEntity
  8
0
100
AcDbLine
 10
4841.87010865267
 20
4178.20378816328
 30
0.0
 11
4841.87010865267
 21
4121.20378816328
 31
0.0
  0
LINE
  5
62E38
330
2
100
AcDbEntity
  8
0
100
AcDbLine
 10
4828.870108652671
 20
4178.20378816328
 30
0.0
 11
4828.870108652671
 21
4121.20378816328
 31
0.0
  0
LINE
  5
62E39
330
2
100
AcDbEntity
  8
0
100
AcDbLine
 10
4841.87010865267
 20
4178.20378816328
 30
0.0
 11
4828.870108652671
 21
4178.20378816328
 31
0.0
  0
LINE
  5
62E3A
330
2
100
AcDbEntity
  8
0
100
AcDbLine
 10
4841.87010865267
 20
4121.20378816328
 30
0.0
 11
4828.870108652671
 21
4121.20378816328
 31
0.0
  0
DIMENSION
  5
62E3B
330
2
100
AcDbEntity
  8
标注
100
AcDbDimension
280
     0
  2
*D3
 10
3888.554386527048
 20
2966.318873898755
 30
0.0
 11
4365.212247589859
 21
2981.943873898755
 31
0.0
 70
    32
  1
1000
 71
     5
 42
953.3157221256251
 73
     0
 74
     0
 75
     0
  3
线性标注
100
AcDbAlignedDimension
 13
4841.870108652672
 23
3248.184951877671
 33
0.0
 14
3888.554386527048
 24
3376.684951877671
 34
0.0
 50
180.0
100
AcDbRotatedDimension
  0
DIMENSION
  5
62E3C
330
2
100
AcDbEntity
  8
标注
100
AcDbDimension
280
     0
  2
*D4
 10
4828.870108652672
 20
3207.404988025587
 30
0.0
 11
4782.816537224101
 21
3223.029988025587
 31
0.0
 70
    32
 71
     5
 42
13.0
 73
     0
 74
     0
 75
     0
  3
线性标注
100
AcDbAlignedDimension
 13
4841.870108652672
 23
3248.184951877671
 33
0.0
 14
4828.870108652672
 24
3248.184951877671
 34
0.0
 50
180.0
100
AcDbRotatedDimension
  0
LINE
  5
62EE2
330
2
100
AcDbEntity
  8
中心线
100
AcDbLine
 10
3417.581856270253
 20
3876.68495187767
 30
0.0
 11
3470.967974159402
 21
3876.68495187767
 31
0.0
  0
LINE
  5
62EE3
330
2
100
AcDbEntity
  8
0
100
AcDbLine
 10
3450.967974159402
 20
3892.58495187767
 30
0.0
 11
3470.967974159402
 21
3892.584951877671
 31
0.0
  0
LINE
  5
62EE4
330
2
100
AcDbEntity
  8
0
100
AcDbLine
 10
3450.967974159402
 20
3860.784951877671
 30
0.0
 11
3470.967974159402
 21
3860.784951877671
 31
0.0
  0
LINE
  5
62EE5
330
2
100
AcDbEntity
  8
中心线
100
AcDbLine
 10
3491.77566547184
 20
3276.684951877671
 30
0.0
 11
3555.156470528478
 21
3276.684951877671
 31
0.0
  0
LINE
  5
62EE7
330
2
100
AcDbEntity
  8
中心线
100
AcDbLine
 10
3525.967974159402
 20
3821.684951877671
 30
0.0
 11
3525.967974159402
 21
3227.207664967222
 31
0.0
  0
LINE
  5
62EE8
330
2
100
AcDbEntity
  8
0
100
AcDbLine
 10
3541.867974159401
 20
3821.684951877671
 30
0.0
 11
3541.867974159401
 21
3276.68495187767
 31
0.0
  0
LINE
  5
62EE9
330
2
100
AcDbEntity
  8
0
100
AcDbLine
 10
3510.067974159402
 20
3821.684951877671
 30
0.0
 11
3510.067974159399
 21
3276.684951877671
 31
0.0
  0
ARC
  5
62EEB
330
2
100
AcDbEntity
  8
中心线
100
AcDbCircle
 10
3470.967974159402
 20
3821.684951877671
 30
0.0
 40
55.0
100
AcDbArc
 50
0.0
 51
90.0
  0
ARC
  5
62EEC
330
2
100
AcDbEntity
  8
0
100
AcDbCircle
 10
3470.967974159402
 20
3821.684951877671
 30
0.0
 40
70.9
100
AcDbArc
 50
0.0
 51
90.0
  0
ARC
  5
62EED
330
2
100
AcDbEntity
  8
0
100
AcDbCircle
 10
3470.967974159402
 20
3821.684951877671
 30
0.0
 40
39.1
100
AcDbArc
 50
0.0
 51
90.0
  0
LINE
  5
62EEE
330
2
100
AcDbEntity
  8
0
100
AcDbLine
 10
3437.967974159402
 20
3876.68495187767
 30
0.0
 11
3437.967974159402
 21
3905.184951877671
 31
0.0
  0
LINE
  5
62EEF
330
2
100
AcDbEntity
  8
0
100
AcDbLine
 10
3450.967974159402
 20
3876.68495187767
 30
0.0
 11
3450.967974159402
 21
3905.184951877671
 31
0.0
  0
LINE
  5
62EF0
330
2
100
AcDbEntity
  8
0
100
AcDbLine
 10
3437.967974159401
 20
3905.184951877671
 30
0.0
 11
3450.967974159402
 21
3905.184951877671
 31
0.0
  0
LINE
  5
62EF1
330
2
100
AcDbEntity
  8
0
100
AcDbLine
 10
3437.967974159402
 20
3876.68495187767
 30
0.0
 11
3437.967974159402
 21
3848.18495187767
 31
0.0
  0
LINE
  5
62EF2
330
2
100
AcDbEntity
  8
0
100
AcDbLine
 10
3450.967974159402
 20
3876.68495187767
 30
0.0
 11
3450.967974159402
 21
3848.18495187767
 31
0.0
  0
LINE
  5
62EF3
330
2
100
AcDbEntity
  8
0
100
AcDbLine
 10
3437.967974159401
 20
3848.18495187767
 30
0.0
 11
3450.967974159402
 21
3848.18495187767
 31
0.0
  0
LINE
  5
62EF4
330
2
100
AcDbEntity
  8
中心线
100
AcDbLine
 10
3437.967974159401
 20
3848.18495187767
 30
0.0
 11
3437.967974159401
 21
3155.064526524928
 31
0.0
  0
DIMENSION
  5
62EFF
330
2
100
AcDbEntity
  8
标注
100
AcDbDimension
280
     0
  2
*D8
 10
3437.967974159402
 20
3795.403557085449
 30
0.0
 11
3391.914402730831
 21
3795.403557085449
 31
0.0
 70
   160
 71
     5
 42
13.0
 73
     0
 74
     0
 75
     0
  3
线性标注
100
AcDbAlignedDimension
 13
3450.967974159402
 23
3848.18495187767
 33
0.0
 14
3437.967974159402
 24
3848.184951877669
 34
0.0
100
AcDbRotatedDimension
  0
DIMENSION
  5
62F00
330
2
100
AcDbEntity
  8
标注
100
AcDbDimension
280
     0
  2
*D9
 10
3541.867974159401
 20
3926.88850789595
 30
0.0
 11
3489.917974159402
 21
3942.51350789595
 31
0.0
 70
    32
  1
88
 71
     5
 42
103.8999999999996
 73
     0
 74
     0
 75
     0
  3
线性标注
100
AcDbAlignedDimension
 13
3437.967974159402
 23
3905.184951877671
 33
0.0
 14
3541.867974159401
 24
3821.684951877671
 34
0.0
100
AcDbRotatedDimension
  0
DIMENSION
  5
62F01
330
2
100
AcDbEntity
  8
标注
100
AcDbDimension
280
     0
  2
*D10
 10
3470.967974159408
 20
3821.684951877669
 30
0.0
 11
3606.284440533272
 21
3886.425658523977
 31
0.0
 70
   164
 71
     5
 42
54.99999999999454
 73
     0
 74
     0
 75
     0
  3
线性标注
100
AcDbRadialDimension
 15
3520.581911364644
 25
3845.422206036361
 35
0.0
 40
0.0
1001
ACAD
1000
DSTYLE
1002
{
1070
   288
1070
     1
1002
}
1001
ACAD_DSTYLE_DIMRADIAL_EXTENSION
1070
   387
1070
     1
1070
   388
1040
0.0
1070
   390
1040
1.570796326794896
  0
ARC
  5
62F02
330
2
100
AcDbEntity
  8
0
100
AcDbCircle
 10
3525.967974159402
 20
3276.68495187767
 30
0.0
 40
15.89999999999963
100
AcDbArc
 50
179.9999999999967
 51
0.0000000000032569
  0
ARC
  5
62F03
330
2
100
AcDbEntity
  8
0
100
AcDbCircle
 10
3525.967974159402
 20
3276.68495187767
 30
0.0
 40
28.5
100
AcDbArc
 50
123.910329442813
 51
56.08967055729945
  0
DIMENSION
  5
62F04
330
2
100
AcDbEntity
  8
标注
100
AcDbDimension
280
     0
  2
*D7
 10
3501.772918634209
 20
3291.746468671567
 30
0.0
 11
3648.175591827905
 21
3200.610231406807
 31
0.0
 70
   163
 71
     5
 42
57.0000000000025
 73
     0
 74
     0
 75
     0
  3
线性标注
100
AcDbDiametricDimension
 15
3550.163029684598
 25
3261.623435083774
 35
0.0
 40
0.0
1001
ACAD
1000
DSTYLE
1002
{
1070
   288
1070
     1
1002
}
1001
ACAD_DSTYLE_DIMRADIAL_EXTENSION
1070
   387
1070
     1
1070
   388
1040
2.162643226007038
1070
   390
1040
0.9789494275829406
  0
ELLIPSE
  5
6314F
330
2
100
AcDbEntity
  8
0
100
AcDbEllipse
 10
5890.182753952497
 20
3325.291501506083
 30
0.0
 11
-8.514687648449818
 21
-14.74787161769427
 31
0.0
210
0.0
220
0.0
230
1.0
 40
0.5773502691896088
 41
0.0
 42
6.283185307179586
  0
LINE
  5
63151
330
2
100
AcDbEntity
  8
0
100
AcDbLine
 10
5891.596795745632
 20
3343.587295656876
 30
0.0
 11
5898.389146382992
 21
3340.204920789282
 31
0.0
  0
LINE
  5
63152
330
2
100
AcDbEntity
  8
0
100
AcDbLine
 10
5873.382835875842
 20
3314.99948755987
 30
0.0
 11
5879.116270551289
 21
3313.421053200135
 31
0.0
  0
ELLIPSE
  5
63153
330
2
100
AcDbEntity
  8
0
100
AcDbEllipse
 10
5883.082108097183
 20
3328.839424039182
 30
0.0
 11
-8.514687648449816
 21
-14.74787161769427
 31
0.0
210
0.0
220
0.0
230
1.0
 40
0.5773502691896088
 41
3.141592653589793
 42
6.132096397717354
  0
ELLIPSE
  5
63157
330
2
100
AcDbEntity
  8
0
100
AcDbEllipse
 10
5430.888330539993
 20
3510.892062719235
 30
0.0
 11
8.157427722805635
 21
-14.12907927496981
 31
0.0
210
0.0
220
0.0
230
1.0
 40
0.5773502691896376
 41
3.848072788745788
 42
5.814664522443948
  0
ELLIPSE
  5
63158
330
2
100
AcDbEntity
  8
0
100
AcDbEllipse
 10
5409.590711828256
 20
3496.582428976311
 30
0.0
 11
8.157427722805635
 21
-14.12907927496981
 31
0.0
210
0.0
220
0.0
230
1.0
 40
0.5773502691896376
 41
3.464409794653464
 42
5.86411403604241
  0
ARC
  5
63161
330
2
100
AcDbEntity
  8
0
100
AcDbCircle
 10
5435.699458690259
 20
3474.246508688428
 30
0.0
 40
23.22530887601111
100
AcDbArc
 50
99.87639202312825
 51
161.126190184597
  0
ARC
  5
63162
330
2
100
AcDbEntity
  8
0
100
AcDbCircle
 10
5396.171573177788
 20
3545.015549396032
 30
0.0
 40
36.03090139394708
100
AcDbArc
 50
274.4497516383368
 51
310.0429185325543
  0
DIMENSION
  5
635E2
330
2
100
AcDbEntity
  8
标注
100
AcDbDimension
280
     0
  2
*D11
 10
5405.732929485443
 20
3842.22899160249
 30
0.0
 11
5439.722955660895
 21
3862.924740510497
 31
0.0
 70
   161
  1
88
 71
     5
 42
74.70993687290593
 73
     0
 74
     0
 75
     0
  3
线性标注
100
AcDbAlignedDimension
 13
5469.707666870619
 23
3832.360929272986
 33
0.0
 14
5405.895690018442
 24
3793.50727722108
 34
0.0
  0
LINE
  5
6388D
330
2
100
AcDbEntity
  8
0
  6
Continuous
 62
     7
100
AcDbLine
 10
5464.026748526265
 20
3456.251686982654
 30
0.0
 11
5447.780181432499
 21
3441.853209275797
 31
0.0
  0
LINE
  5
6388E
330
2
100
AcDbEntity
  8
0
  6
Continuous
 62
     7
100
AcDbLine
 10
5476.24301590433
 20
3442.165177346029
 30
0.0
 11
5457.839560682486
 21
3425.855163162016
 31
0.0
  0
LINE
  5
6388F
330
2
100
AcDbEntity
  8
0
  6
Continuous
 62
     7
100
AcDbLine
 10
5484.719231335043
 20
3437.014150480291
 30
0.0
 11
5488.828625422528
 21
3440.65609027076
 31
0.0
  0
SPLINE
  5
63890
330
2
100
AcDbEntity
  8
0
  6
Continuous
 62
     7
100
AcDbSpline
210
0.0
220
0.0
230
1.0
 70
  1064
 71
     3
 72
    16
 73
    12
 74
    10
 42
0.000000001
 43
0.0000000001
 44
0.0000000001
 12
-0.0083516934319136
 22
0.7359526134316119
 32
0.0
 13
-0.5463231774740495
 23
-0.4931804799002676
 33
0.0
 40
0.0
 40
0.0
 40
0.0
 40
0.0
 40
2.144006954642136
 40
4.700160065718977
 40
7.525338939253641
 40
10.42135995190851
 40
13.17726518300477
 40
15.60797519019344
 40
17.60076173630644
 40
19.18930868194669
 40
19.67420477865319
 40
19.67420477865319
 40
19.67420477865319
 40
19.67420477865319
 10
5477.23240026232
 20
3444.844406207383
 30
0.0
 10
5477.226431566052
 20
3445.370368714544
 30
0.0
 10
5476.90545410062
 20
3447.224903716084
 30
0.0
 10
5475.868094020338
 20
3449.382500012863
 30
0.0
 10
5474.30981313243
 20
3451.718625009364
 30
0.0
 10
5472.376412997712
 20
3453.781791555932
 30
0.0
 10
5470.240570712656
 20
3455.448942785892
 30
0.0
 10
5468.109766815619
 20
3456.566440273432
 30
0.0
 10
5466.101302335777
 20
3457.000594532907
 30
0.0
 10
5464.767330864724
 20
3456.81361077132
 30
0.0
 10
5464.124694881038
 20
3456.324677390447
 30
0.0
 10
5464.036391555606
 20
3456.244963627221
 30
0.0
 11
5477.23240026232
 21
3444.844406207383
 31
0.0
 11
5476.86557181546
 21
3446.956798858413
 31
0.0
 11
5475.843972723089
 21
3449.299927967475
 31
0.0
 11
5474.267604202105
 21
3451.644431743015
 31
0.0
 11
5472.290772210826
 21
3453.76081379359
 31
0.0
 11
5470.106982798645
 21
3455.441907915293
 31
0.0
 11
5467.93000053667
 21
3456.523156901462
 31
0.0
 11
5465.972923593004
 21
3456.898720551119
 31
0.0
 11
5464.427324289791
 21
3456.531836110991
 31
0.0
 11
5464.036391555606
 21
3456.244963627221
 31
0.0
  0
SPLINE
  5
63891
330
2
100
AcDbEntity
  8
0
  6
Continuous
 62
     7
100
AcDbSpline
210
0.0
220
0.0
230
1.0
 70
  1064
 71
     3
 72
     9
 73
     5
 74
     3
 42
0.000000001
 43
0.0000000001
 44
0.0000000001
 12
0.5938295406089549
 22
0.5360657391590679
 32
0.0
 13
-0.0090779298442213
 23
0.7999484928354722
 33
0.0
 40
0.0
 40
0.0
 40
0.0
 40
0.0
 40
1.069973618826679
 40
2.924215505902547
 40
2.924215505902547
 40
2.924215505902547
 40
2.924215505902547
 10
5476.237025435405
 20
3442.168941669439
 30
0.0
 10
5476.448819416249
 20
3442.360133735725
 30
0.0
 10
5477.15115922063
 20
3443.216412470539
 30
0.0
 10
5477.238011154907
 20
3444.349973539743
 30
0.0
 10
5477.23240026232
 20
3444.844406207383
 30
0.0
 11
5476.237025435405
 21
3442.168941669439
 31
0.0
 11
5476.880389472435
 21
3443.023883925291
 31
0.0
 11
5477.23240026232
 21
3444.844406207383
 31
0.0
  0
LINE
  5
63892
330
2
100
AcDbEntity
  8
0
  6
Continuous
 62
     7
100
AcDbLine
 10
5447.555785606869
 20
3470.238840838829
 30
0.0
 11
5447.270729382838
 21
3445.424786175129
 31
0.0
  0
LINE
  5
63893
330
2
100
AcDbEntity
  8
0
  6
Continuous
 62
     7
100
AcDbLine
 10
5430.903989049535
 20
3476.068412486137
 30
0.0
 11
5430.313258809911
 21
3433.612179613936
 31
0.0
  0
ELLIPSE
  5
63894
330
2
100
AcDbEntity
  8
0
  6
Continuous
 62
     7
100
AcDbEllipse
 10
5450.881321641011
 20
3442.325981152748
 30
0.0
 11
16.23161231558849
 21
17.55334680127456
 31
0.0
210
0.0
220
0.0
230
0.9999999999999998
 40
0.7162904960709221
 41
2.58250557657622
 42
4.399066609072685
  0
ELLIPSE
  5
63895
330
2
100
AcDbEntity
  8
0
  6
Continuous
 62
     7
100
AcDbEllipse
 10
5452.964426320934
 20
3445.97248800812
 30
0.0
 11
4.544851448364777
 21
4.914937104356874
 31
0.0
210
0.0
220
0.0
230
1.0
 40
0.7162904960709221
 41
2.248847230708955
 42
3.617773749082075
  0
ELLIPSE
  5
63896
330
2
100
AcDbEntity
  8
0
100
AcDbEllipse
 10
5469.998750598974
 20
3450.444586101036
 30
0.0
 11
14.26298565091456
 21
-13.96291233933748
 31
0.0
210
0.0
220
0.0
230
1.0
 40
0.5196627661609142
 41
2.775589971888935
 42
4.245434620995201
  0
ELLIPSE
  5
63897
330
2
100
AcDbEntity
  8
0
100
AcDbEllipse
 10
5469.998750598974
 20
3450.444586101036
 30
0.0
 11
14.26298565091456
 21
-13.96291233933748
 31
0.0
210
0.0
220
0.0
230
1.0
 40
0.5196627661609142
 41
5.221058242784377
 42
8.116224645356709
  0
ELLIPSE
  5
63898
330
2
100
AcDbEntity
  8
0
100
AcDbEllipse
 10
5474.623151964933
 20
3454.676868208912
 30
0.0
 11
14.26298565091456
 21
-13.96291233933748
 31
0.0
210
0.0
220
0.0
230
1.0
 40
0.5196627661609142
 41
6.217309779923252
 42
7.488243468212921
  0
LINE
  5
63938
330
2
100
AcDbEntity
  8
中心线
100
AcDbLine
 10
3988.870108652672
 20
3331.684951877672
 30
0.0
 11
3988.870108652674
 21
3128.664775984326
 31
0.0
  0
MTEXT
  5
6393D
330
2
100
AcDbEntity
  8
0
100
AcDbMText
 10
3963.648703340657
 20
2925.419099503025
 30
0.0
 40
30.0
 41
201.7942574699391
 46
0.0
 71
     1
 72
     5
  1
A
  7
黑体
 73
     1
 44
1.0
  0
LINE
  5
6393E
330
2
100
AcDbEntity
  8
0
100
AcDbLine
 10
3988.416171160177
 20
3413.001739534756
 30
0.0
 11
3988.416171160177
 21
3441.381901543154
 31
0.0
  0
LWPOLYLINE
  5
6393F
330
2
100
AcDbEntity
  8
0
100
AcDbPolyline
 90
        2
 70
     0
 10
3988.416171160177
 20
3441.381901543154
 40
2.0
 41
0.0
 10
4057.330532533864
 20
3441.381901543154
 40
0.0
 41
0.0
  0
LINE
  5
63940
330
2
100
AcDbEntity
  8
0
100
AcDbLine
 10
3987.762382471959
 20
2936.368016060583
 30
0.0
 11
3988.475757619175
 21
2907.996821310938
 31
0.0
  0
LWPOLYLINE
  5
63941
330
2
100
AcDbEntity
  8
0
100
AcDbPolyline
 90
        2
 70
     0
 10
3988.475757619175
 20
2907.996821310938
 40
1.999999999999999
 41
0.0
 10
4057.36834417318
 20
2909.729080368361
 40
0.0
 41
0.0
  0
MTEXT
  5
63942
330
2
100
AcDbEntity
  8
0
100
AcDbMText
 10
3961.37517203897
 20
3456.163856207628
 30
0.0
 40
30.0
 41
201.7942574699391
 46
0.0
 71
     1
 72
     5
  1
A
  7
黑体
 73
     1
 44
1.0
  0
LINE
  5
63943
330
2
100
AcDbEntity
  8
中心线
100
AcDbLine
 10
3988.870108652672
 20
3161.416407716409
 30
0.0
 11
3988.870108652672
 21
3311.226442073336
 31
0.0
  0
LINE
  5
63945
330
2
100
AcDbEntity
  8
中心线
100
AcDbLine
 10
3925.398740494517
 20
3194.044743067454
 30
0.0
 11
4052.160350607791
 21
3194.044743067454
 31
0.0
  0
MTEXT
  5
63946
330
2
100
AcDbEntity
  8
标注
100
AcDbMText
 10
3925.03838619468
 20
3029.374335859531
 30
0.0
 40
21.0
 41
81.096921757764
 46
0.0
 71
     1
 72
     5
  1
{\fSimHei|b0|i0|c134|p2; B}
  7
黑体
 73
     1
 44
1.0
1001
ACAD
1000
ACAD_MTEXT_COLUMN_INFO_BEGIN
1070
    75
1070
     2
1070
    79
1070
     0
1070
    76
1070
     1
1070
    78
1070
     0
1070
    48
1040
81.096921757764
1070
    49
1040
30.0
1070
    50
1070
     1
1040
0.0
1000
ACAD_MTEXT_COLUMN_INFO_END
  0
LWPOLYLINE
  5
63947
330
2
100
AcDbEntity
  8
标注
100
AcDbPolyline
 90
        3
 70
     1
 43
0.0
 10
3970.118735477289
 20
3002.668657898357
 10
3946.620135467033
 20
3042.941254793602
 10
3923.492343484509
 20
3002.454571783729
  0
LINE
  5
63948
330
2
100
AcDbEntity
  8
中心线
100
AcDbLine
 10
3988.870108652672
 20
3307.359888461468
 30
0.0
 11
3988.870108652672
 21
3160.09392159673
 31
0.0
  0
LINE
  5
63949
330
2
100
AcDbEntity
  8
0
100
AcDbLine
 10
3998.870108652672
 20
3260.744743067454
 30
0.0
 11
3998.870108652672
 21
3194.044743067454
 31
0.0
  0
LINE
  5
6394A
330
2
100
AcDbEntity
  8
0
100
AcDbLine
 10
3978.870108652671
 20
3260.744743067454
 30
0.0
 11
3978.870108652671
 21
3194.044743067454
 31
0.0
  0
ARC
  5
6394B
330
2
100
AcDbEntity
  8
0
100
AcDbCircle
 10
3988.870108652672
 20
3194.044743067454
 30
0.0
 40
10.00000000000091
100
AcDbArc
 50
180.0
 51
0.0
  0
ARC
  5
6394C
330
2
100
AcDbEntity
  8
0
100
AcDbCircle
 10
3988.870108652672
 20
3194.044743067454
 30
0.0
 40
28.5
100
AcDbArc
 50
110.5409775375138
 51
69.45902246248619
  0
ARC
  5
6394D
330
2
100
AcDbEntity
  8
0
100
AcDbCircle
 10
3988.870108652672
 20
3229.051716715026
 30
0.0
 40
33.23323516264469
100
AcDbArc
 50
72.48811667166336
 51
107.5118833283366
  0
DIMENSION
  5
6394E
330
2
100
AcDbEntity
  8
标注
100
AcDbDimension
280
     0
  2
*D12
 10
3981.885143783649
 20
3201.200877902586
 30
0.0
 11
4060.356967511398
 21
3120.806063915043
 31
0.0
 70
   163
 71
     5
 42
20.00000000000637
 73
     0
 74
     0
 75
     0
  3
线性标注
100
AcDbDiametricDimension
 15
3995.855073521692
 25
3186.888608232321
 35
0.0
 40
0.0
1001
ACAD
1000
DSTYLE
1002
{
1070
   288
1070
     1
1002
}
1001
ACAD_DSTYLE_DIMRADIAL_EXTENSION
1070
   387
1070
     1
1070
   388
1040
3.141592653589793
1070
   390
1040
0.0
  0
ARC
  5
6394F
330
2
100
AcDbEntity
  8
中心线
100
AcDbCircle
 10
3479.967974159402
 20
3240.08495187767
 30
0.0
 40
46.0
100
AcDbArc
 50
270.0
 51
0.0
  0
ARC
  5
63950
330
2
100
AcDbEntity
  8
0
100
AcDbCircle
 10
3479.967974159402
 20
3240.08495187767
 30
0.0
 40
36.0
100
AcDbArc
 50
270.0
 51
0.0
  0
ARC
  5
63951
330
2
100
AcDbEntity
  8
0
100
AcDbCircle
 10
3479.967974159402
 20
3240.08495187767
 30
0.0
 40
56.0
100
AcDbArc
 50
270.0
 51
0.0
  0
LINE
  5
63952
330
2
100
AcDbEntity
  8
0
100
AcDbLine
 10
3437.967974159401
 20
3165.584951877669
 30
0.0
 11
3437.967974159401
 21
3222.58495187767
 31
0.0
  0
LINE
  5
63953
330
2
100
AcDbEntity
  8
0
100
AcDbLine
 10
3450.9679741594
 20
3165.58495187767
 30
0.0
 11
3450.9679741594
 21
3222.58495187767
 31
0.0
  0
LINE
  5
63954
330
2
100
AcDbEntity
  8
0
100
AcDbLine
 10
3450.9679741594
 20
3222.58495187767
 30
0.0
 11
3437.967974159401
 21
3222.58495187767
 31
0.0
  0
LINE
  5
63955
330
2
100
AcDbEntity
  8
0
100
AcDbLine
 10
3450.9679741594
 20
3165.58495187767
 30
0.0
 11
3437.967974159401
 21
3165.584951877669
 31
0.0
  0
LINE
  5
63956
330
2
100
AcDbEntity
  8
0
100
AcDbLine
 10
3515.967974159402
 20
3249.996939587506
 30
0.0
 11
3515.967974159402
 21
3240.08495187767
 31
0.0
  0
LINE
  5
63957
330
2
100
AcDbEntity
  8
0
100
AcDbLine
 10
3535.967974159402
 20
3249.996939587505
 30
0.0
 11
3535.967974159402
 21
3240.08495187767
 31
0.0
  0
LINE
  5
63958
330
2
100
AcDbEntity
  8
中心线
100
AcDbLine
 10
3479.967974159402
 20
3194.084951877671
 30
0.0
 11
3428.57052732471
 21
3194.08495187767
 31
0.0
  0
LINE
  5
63959
330
2
100
AcDbEntity
  8
0
100
AcDbLine
 10
3479.967974159402
 20
3204.08495187767
 30
0.0
 11
3450.9679741594
 21
3204.08495187767
 31
0.0
  0
LINE
  5
6395A
330
2
100
AcDbEntity
  8
0
100
AcDbLine
 10
3479.967974159402
 20
3184.08495187767
 30
0.0
 11
3450.9679741594
 21
3184.08495187767
 31
0.0
  0
MTEXT
  5
6395B
330
2
100
AcDbEntity
  8
标注
100
AcDbMText
 10
4546.625072466571
 20
3465.862408736452
 30
0.0
 40
21.0
 41
81.096921757764
 46
0.0
 71
     1
 72
     5
  1
{\fSimHei|b0|i0|c134|p2; B}
  7
黑体
210
0.0
220
0.0
230
-1.0
 11
-1.0
 21
0.0
 31
0.0
 73
     1
 44
1.0
1001
ACAD
1000
ACAD_MTEXT_COLUMN_INFO_BEGIN
1070
    75
1070
     2
1070
    79
1070
     0
1070
    76
1070
     1
1070
    78
1070
     0
1070
    48
1040
81.096921757764
1070
    49
1040
30.0
1070
    50
1070
     1
1040
0.0
1000
ACAD_MTEXT_COLUMN_INFO_END
  0
LWPOLYLINE
  5
6395C
330
2
100
AcDbEntity
  8
标注
100
AcDbPolyline
 90
        3
 70
     1
 43
0.0
 10
4501.544723183964
 20
3439.156730775279
 10
4525.043323194219
 20
3479.429327670523
 10
4548.171115176743
 20
3438.942644660651
  0
LINE
  5
6395D
330
2
100
AcDbEntity
  8
中心线
100
AcDbLine
 10
4502.843301105364
 20
3647.805518337675
 30
0.0
 11
4590.843301105364
 21
3647.805518337676
 31
0.0
  0
ARC
  5
6395E
330
2
100
AcDbEntity
  8
0
100
AcDbCircle
 10
4574.943301105364
 20
3647.805518337676
 30
0.0
 40
14.8
100
AcDbArc
 50
270.0
 51
90.0
  0
ARC
  5
6395F
330
2
100
AcDbEntity
  8
0
100
AcDbCircle
 10
4574.943301105364
 20
3647.805518337676
 30
0.0
 40
15.9
100
AcDbArc
 50
270.0
 51
90.0
  0
DIMENSION
  5
63960
330
2
100
AcDbEntity
  8
标注
100
AcDbDimension
280
     0
  2
*D13
 10
4502.843301105365
 20
3504.188143815827
 30
0.0
 11
4456.789729676795
 21
3519.813143815827
 31
0.0
 70
    32
 71
     5
 42
12.99999999999909
 73
     0
 74
     0
 75
     0
  3
线性标注
100
AcDbAlignedDimension
 13
4515.843301105365
 23
3527.94220094666
 33
0.0
 14
4502.843301105365
 24
3527.94220094666
 34
0.0
 50
180.0
100
AcDbRotatedDimension
  0
DIMENSION
  5
63961
330
2
100
AcDbEntity
  8
标注
100
AcDbDimension
280
     0
  2
*D14
 10
4562.801544978429
 20
3637.539664347183
 30
0.0
 11
4699.835586654169
 21
3753.401937387671
 31
0.0
 70
   163
 71
     5
 42
31.80000000000109
 73
     0
 74
     0
 75
     0
  3
线性标注
100
AcDbDiametricDimension
 15
4587.085057232299
 25
3658.071372328163
 35
0.0
 40
0.0
1001
ACAD
1000
DSTYLE
1002
{
1070
   288
1070
     1
1002
}
1001
ACAD_DSTYLE_DIMRADIAL_EXTENSION
1070
   387
1070
     1
1070
   388
1040
0.0
1070
   390
1040
0.0
  0
DIMENSION
  5
63962
330
2
100
AcDbEntity
  8
标注
100
AcDbDimension
280
     0
  2
*D15
 10
4561.202361395308
 20
3653.303388460243
 30
0.0
 11
4732.194686280256
 21
3584.887864194073
 31
0.0
 70
   163
 71
     5
 42
29.60000000000127
 73
     0
 74
     0
 75
     0
  3
线性标注
100
AcDbDiametricDimension
 15
4588.68424081542
 25
3642.307648215108
 35
0.0
 40
0.0
1001
ACAD
1000
DSTYLE
1002
{
1070
   288
1070
     1
1002
}
1001
ACAD_DSTYLE_DIMRADIAL_EXTENSION
1070
   387
1070
     1
1070
   388
1040
0.0
1070
   390
1040
0.0
  0
ARC
  5
63963
330
2
100
AcDbEntity
  8
中心线
100
AcDbCircle
 10
4528.943301105365
 20
3613.805518337676
 30
0.0
 40
46.0
100
AcDbArc
 50
270.0
 51
0.0
  0
ARC
  5
63964
330
2
100
AcDbEntity
  8
0
100
AcDbCircle
 10
4528.943301105365
 20
3613.805518337676
 30
0.0
 40
36.0
100
AcDbArc
 50
270.0
 51
0.0
  0
ARC
  5
63965
330
2
100
AcDbEntity
  8
0
100
AcDbCircle
 10
4528.943301105365
 20
3613.805518337676
 30
0.0
 40
56.0
100
AcDbArc
 50
270.0
 51
0.0
  0
LINE
  5
63966
330
2
100
AcDbEntity
  8
0
100
AcDbLine
 10
4502.843301105364
 20
3539.305518337676
 30
0.0
 11
4502.843301105364
 21
3596.305518337675
 31
0.0
  0
LINE
  5
63967
330
2
100
AcDbEntity
  8
0
100
AcDbLine
 10
4515.843301105364
 20
3539.305518337676
 30
0.0
 11
4515.843301105364
 21
3596.305518337676
 31
0.0
  0
LINE
  5
63968
330
2
100
AcDbEntity
  8
0
100
AcDbLine
 10
4515.843301105364
 20
3596.305518337676
 30
0.0
 11
4502.843301105364
 21
3596.305518337675
 31
0.0
  0
LINE
  5
63969
330
2
100
AcDbEntity
  8
0
100
AcDbLine
 10
4515.843301105364
 20
3539.305518337676
 30
0.0
 11
4502.843301105364
 21
3539.305518337676
 31
0.0
  0
LINE
  5
6396A
330
2
100
AcDbEntity
  8
中心线
100
AcDbLine
 10
4574.943301105365
 20
3668.45537640291
 30
0.0
 11
4574.943301105365
 21
3613.805518337676
 31
0.0
  0
LINE
  5
6396B
330
2
100
AcDbEntity
  8
0
100
AcDbLine
 10
4564.943301105365
 20
3635.443884141502
 30
0.0
 11
4564.943301105365
 21
3613.805518337676
 31
0.0
  0
LINE
  5
6396C
330
2
100
AcDbEntity
  8
0
100
AcDbLine
 10
4584.943301105365
 20
3635.443884141503
 30
0.0
 11
4584.943301105365
 21
3613.805518337676
 31
0.0
  0
LINE
  5
6396D
330
2
100
AcDbEntity
  8
中心线
100
AcDbLine
 10
4528.943301105365
 20
3567.805518337677
 30
0.0
 11
4493.445854270674
 21
3567.805518337677
 31
0.0
  0
LINE
  5
6396E
330
2
100
AcDbEntity
  8
0
100
AcDbLine
 10
4528.943301105365
 20
3577.805518337676
 30
0.0
 11
4515.843301105364
 21
3577.805518337676
 31
0.0
  0
LINE
  5
6396F
330
2
100
AcDbEntity
  8
0
100
AcDbLine
 10
4528.943301105365
 20
3557.805518337676
 30
0.0
 11
4515.843301105364
 21
3557.805518337676
 31
0.0
  0
DIMENSION
  5
63970
330
2
100
AcDbEntity
  8
标注
100
AcDbDimension
280
     0
  2
*D16
 10
4528.943301105369
 20
3613.805518337679
 30
0.0
 11
4636.934396416845
 21
3591.312764589382
 31
0.0
 70
    36
 71
     5
 42
45.99999999999318
 73
     0
 74
     0
 75
     0
  3
线性标注
100
AcDbRadialDimension
 15
4572.194158619693
 25
3598.141440826536
 35
0.0
 40
0.0
1001
ACAD
1000
DSTYLE
1002
{
1070
   288
1070
     1
1002
}
1001
ACAD_DSTYLE_DIMRADIAL_EXTENSION
1070
   387
1070
     1
1070
   388
1040
3.141592653589793
1070
   390
1040
4.712388980384689
  0
DIMENSION
  5
63971
330
2
100
AcDbEntity
  8
标注
100
AcDbDimension
280
     0
  2
*D17
 10
4463.439901149383
 20
3567.805518337676
 30
0.0
 11
4447.814901149382
 21
3607.805518337676
 31
0.0
 70
    32
 71
     5
 42
80.0
 73
     0
 74
     0
 75
     0
  3
线性标注
100
AcDbAlignedDimension
 13
4502.843301105364
 23
3647.805518337675
 33
0.0
 14
4502.843301105364
 24
3567.805518337676
 34
0.0
 50
90.0
100
AcDbRotatedDimension
  0
MTEXT
  5
63972
330
2
100
AcDbEntity
  8
0
100
AcDbMText
 10
4596.407075325801
 20
3496.169022376099
 30
0.0
 40
25.0
 41
173.5631402998115
 46
0.0
 71
     1
 72
     5
  1
A-A
  7
黑体
210
0.0
220
0.0
230
-1.0
 11
-1.0
 21
-0.0000000000000011
 31
0.0
 73
     1
 44
1.0
  0
ARC
  5
63973
330
2
100
AcDbEntity
  8
0
100
AcDbCircle
 10
4574.943301105366
 20
3647.805518337676
 30
0.0
 40
14.8
100
AcDbArc
 50
90.0
 51
270.0
  0
ARC
  5
63974
330
2
100
AcDbEntity
  8
0
100
AcDbCircle
 10
4574.943301105366
 20
3647.805518337676
 30
0.0
 40
15.9
100
AcDbArc
 50
90.0
 51
270.0
  0
ARC
  5
63975
330
2
100
AcDbEntity
  8
0
100
AcDbCircle
 10
4574.943301105366
 20
3647.805518337676
 30
0.0
 40
28.5
100
AcDbArc
 50
290.540977537565
 51
249.4590224624349
  0
LINE
  5
63B25
330
2
100
AcDbEntity
  8
0
100
AcDbLine
 10
3978.998446913737
 20
3260.784951877671
 30
0.0
 11
3943.870108652673
 21
3260.784951877671
 31
0.0
  0
DIMENSION
  5
63B37
330
2
100
AcDbEntity
  8
标注
100
AcDbDimension
280
     0
  2
*D18
 10
3988.870108652674
 20
3055.222581902064
 30
0.0
 11
3938.870108652674
 21
3070.847581902064
 31
0.0
 70
    32
 71
     5
 42
100.0
 73
     0
 74
     0
 75
     0
  3
线性标注
100
AcDbAlignedDimension
 13
3888.870108652674
 23
3109.337886540305
 33
0.0
 14
3988.870108652674
 24
3128.664775984326
 34
0.0
100
AcDbRotatedDimension
  0
LINE
  5
63BEF
330
2
100
AcDbEntity
  8
中心线
100
AcDbLine
 10
3988.870108652672
 20
4253.43089071437
 30
0.0
 11
3988.870108652672
 21
4126.917483357218
 31
0.0
  0
LINE
  5
63BF0
330
2
100
AcDbEntity
  8
中心线
100
AcDbLine
 10
3988.870108652672
 20
4252.671095102158
 30
0.0
 11
3988.870108652672
 21
4144.95233773216
 31
0.0
  0
LINE
  5
63BF1
330
2
100
AcDbEntity
  8
0
100
AcDbLine
 10
3978.870108652674
 20
4224.703788163281
 30
0.0
 11
3978.870108652671
 21
4165.633200910867
 31
0.0
  0
LINE
  5
63BF2
330
2
100
AcDbEntity
  8
0
100
AcDbLine
 10
3998.870108652672
 20
4224.703788163281
 30
0.0
 11
3998.870108652672
 21
4165.633200910867
 31
0.0
  0
LINE
  5
63BF3
330
2
100
AcDbEntity
  8
0
100
AcDbLine
 10
3960.370108652672
 20
4237.703788163281
 30
0.0
 11
4017.370108652672
 21
4237.703788163281
 31
0.0
  0
LINE
  5
63BF4
330
2
100
AcDbEntity
  8
0
100
AcDbLine
 10
3960.370108652672
 20
4237.703788163281
 30
0.0
 11
4017.370108652672
 21
4237.703788163281
 31
0.0
  0
LINE
  5
63BF5
330
2
100
AcDbEntity
  8
0
100
AcDbLine
 10
3960.370108652672
 20
4224.703788163281
 30
0.0
 11
4017.370108652672
 21
4224.703788163281
 31
0.0
  0
LINE
  5
63BF6
330
2
100
AcDbEntity
  8
0
100
AcDbLine
 10
3960.370108652672
 20
4237.703788163281
 30
0.0
 11
3960.370108652672
 21
4224.703788163281
 31
0.0
  0
LINE
  5
63BF7
330
2
100
AcDbEntity
  8
0
100
AcDbLine
 10
4017.370108652672
 20
4237.703788163281
 30
0.0
 11
4017.370108652672
 21
4224.703788163281
 31
0.0
  0
CIRCLE
  5
63BF8
330
2
100
AcDbEntity
  8
Hidden
100
AcDbCircle
 10
3988.870108652672
 20
4149.703788163281
 30
0.0
 40
9.999999999998181
  0
LINE
  5
63BF9
330
2
100
AcDbEntity
  8
Hidden
100
AcDbLine
 10
3998.870108652672
 20
4165.633200910867
 30
0.0
 11
3998.87010865267
 21
4149.703788163281
 31
0.0
  0
LINE
  5
63BFA
330
2
100
AcDbEntity
  8
Hidden
100
AcDbLine
 10
3978.971134525415
 20
4165.603788163281
 30
0.0
 11
3978.870108652674
 21
4149.703788163281
 31
0.0
  0
VIEWPORT
  5
99
330
C
100
AcDbEntity
 67
     1
  8
0
100
AcDbViewport
 10
143.6764787904317
 20
100.2046656547372
 30
0.0
 40
390.1005202556985
 41
202.9375384062431
 68
     1
 69
     1
 12
116.7325519153533
 22
100.551332739372
 13
0.0
 23
0.0
 14
10.0
 24
10.0
 15
10.0
 25
10.0
 16
0.0
 26
0.0
 36
1.0
 17
0.0
 27
0.0
 37
0.0
 42
50.0
 43
0.0
 44
0.0
 45
831.2321573119717
 50
0.0
 51
0.0
 72
   100
 90
    38944
  1

281
     0
 71
     1
 74
     0
110
0.0
120
0.0
130
0.0
111
1.0
121
0.0
131
0.0
112
0.0
122
1.0
132
0.0
 79
     0
146
0.0
170
     2
 61
     5
348
984D
292
     1
282
     1
141
0.0
142
0.0
 63
   250
421
  3355443
  0
MTEXT
  5
2C09
102
{ACAD_XDICTIONARY
360
63CB9
102
}
330
C
100
AcDbEntity
 67
     1
  8
ASHADE
 62
     5
100
AcDbMText
 10
231.8996211309493
 20
125.8491204523215
 30
0.0
 40
2.5
 41
66.6875
 46
0.0
 71
     1
 72
     5
  3
\pt24;技术要求:\P\ptz;1.注："☆"号为特注受控处.\P2.所注尺寸为电镀后尺寸.{\fSimSun|b0|i0|c134|p0;\P}3.未注公差为%%p0.1.\P4.未注缧纹倒角为{\fArial|b0|i0|c0|p32;C0.5}.\P5.无毛刺.\P6.壁厚为2.5{\fArial|b0|i0|c134|p32;mm.\P\fSimSun|b0|i0|c134|p0;7\fArial|b0|i0|c134|p32;.}未注铸造圆角{\fArial|b0|i0|c134|
  1
p32;R1\fSimSun|b0|i0|c134|p0;～\fArial|b0|i0|c134|p32;R3.}\P8.表面抛光电镀铬.
 73
     1
 44
1.0
  0
ENDSEC
  0
SECTION
  2
OBJECTS
  0
DICTIONARY
  5
7
330
0
100
AcDbDictionary
281
     1
  3
ACAD_CIP_PREVIOUS_PRODUCT_INFO
350
6063D0B
  3
ACAD_COLOR
350
29
  3
ACAD_DETAILVIEWSTYLE
350
6063D01
  3
ACAD_GROUP
350
25
  3
ACAD_IMAGE_DICT
350
2BE1
  3
ACAD_IMAGE_VARS
350
2BE2
  3
ACAD_LAYOUT
350
B
  3
ACAD_MATERIAL
350
28
  3
ACAD_MLEADERSTYLE
350
987B
  3
ACAD_MLINESTYLE
350
26
  3
ACAD_PLOTSETTINGS
350
27
  3
ACAD_PLOTSTYLENAME
350
6
  3
ACAD_SCALELIST
350
9859
  3
ACAD_SECTIONVIEWSTYLE
350
6063CFF
  3
ACAD_TABLESTYLE
350
46A6
  3
ACAD_VISUALSTYLE
350
9847
  3
AcadDim
350
61415
  3
ACDB_RECOMPOSE_DATA
350
6063D1B
  3
ACDBHEADERROUNDTRIPXREC
350
6376E
  3
ACDBVARIABLEDICTIONARY
350
4557
  3
ASE_INDEX_DICTIONARY
350
6360A
  0
DICTIONARY
  5
62567
330
1A
100
AcDbDictionary
280
     1
281
     1
  0
DICTIONARY
  5
3FD7
330
10
100
AcDbDictionary
280
     1
281
     1
  3
ACAD_LAYERFILTERS
360
158C4
  3
ACAD_LAYERSTATES
360
3FD8
  3
ACLYDICTIONARY
360
158C3
  0
DICTIONARY
  5
9891
330
4
100
AcDbDictionary
280
     1
281
     1
  3
ADSK_XREC_LAYER_RECONCILED
360
9892
  0
DICTIONARY
  5
9893
330
400
100
AcDbDictionary
280
     1
281
     1
  3
ADSK_XREC_LAYER_RECONCILED
360
9894
  0
DICTIONARY
  5
9897
330
403
100
AcDbDictionary
280
     1
281
     1
  3
ADSK_XREC_LAYER_RECONCILED
360
9898
  0
DICTIONARY
  5
989B
330
405
100
AcDbDictionary
280
     1
281
     1
  3
ADSK_XREC_LAYER_RECONCILED
360
989C
  0
DICTIONARY
  5
989F
330
92F
100
AcDbDictionary
280
     1
281
     1
  3
ADSK_XREC_LAYER_RECONCILED
360
98A0
  0
DICTIONARY
  5
98A9
330
4563
100
AcDbDictionary
280
     1
281
     1
  3
ADSK_XREC_LAYER_RECONCILED
360
98AA
  0
DICTIONARY
  5
98C5
330
2
100
AcDbDictionary
280
     1
281
     1
  3
ACAD_SORTENTS
360
98C6
  0
DICTIONARY
  5
63CF3
330
63B8E
100
AcDbDictionary
280
     1
281
     1
  0
DICTIONARY
  5
63CF5
330
63B96
100
AcDbDictionary
280
     1
281
     1
  0
DICTIONARY
  5
63CF7
330
63BA9
100
AcDbDictionary
280
     1
281
     1
  0
DICTIONARY
  5
63CF9
330
63BB1
100
AcDbDictionary
280
     1
281
     1
  0
DICTIONARY
  5
63CB9
330
2C09
100
AcDbDictionary
280
     1
281
     1
  0
XRECORD
  5
6063D0B
102
{ACAD_REACTORS
330
7
102
}
330
7
100
AcDbXrecord
280
     1
300
ACD
300
2017
300
ACD_F_S
  0
DICTIONARY
  5
29
102
{ACAD_REACTORS
330
7
102
}
330
7
100
AcDbDictionary
281
     1
  0
DICTIONARY
  5
6063D01
102
{ACAD_REACTORS
330
7
102
}
330
7
100
AcDbDictionary
281
     1
  3
Metric50
350
6063D02
  0
DICTIONARY
  5
25
102
{ACAD_REACTORS
330
7
102
}
330
7
100
AcDbDictionary
281
     1
  0
DICTIONARY
  5
2BE1
102
{ACAD_REACTORS
330
7
102
}
330
7
100
AcDbDictionary
281
     1
  3
irunin
350
2BE3
  0
ACAD_PROXY_OBJECT
  5
2BE2
102
{ACAD_REACTORS
330
7
102
}
330
7
100
AcDbProxyObject
 90
      499
 91
      508
 95
       27
 70
     0
162
                 0
161
                40
310
409014050100
 94
        0
1001
ACAD
1000
AcRTDxfName
1000
RASTERVARIABLES
1000
AcRTDxfName
1000
RASTERVARIABLES
1000
AcRTDxfName
1000
RASTERVARIABLES
1000
AcRTDxfName
1000
RASTERVARIABLES
1000
AcRTDxfName
1000
RASTERVARIABLES
1000
AcRTDxfName
1000
RASTERVARIABLES
1000
AcRTDxfName
1000
RASTERVARIABLES
1000
AcRTDxfName
1000
RASTERVARIABLES
1000
AcRTDxfName
1000
RASTERVARIABLES
1000
AcRTDxfName
1000
RASTERVARIABLES
  0
DICTIONARY
  5
B
102
{ACAD_REACTORS
330
7
102
}
330
7
100
AcDbDictionary
281
     1
  3
Model
350
A
  3
布局1
350
F
1001
AcadStringInfo
1000
MIFCodePage
1070
     5
  0
DICTIONARY
  5
28
102
{ACAD_REACTORS
330
7
102
}
330
7
100
AcDbDictionary
281
     1
  3
ByBlock
350
9837
  3
ByLayer
350
982F
  3
Global
350
983F
  0
DICTIONARY
  5
987B
102
{ACAD_REACTORS
330
7
102
}
330
7
100
AcDbDictionary
281
     1
  3
Standard
350
987C
  0
DICTIONARY
  5
26
102
{ACAD_REACTORS
330
7
102
}
330
7
100
AcDbDictionary
281
     1
  3
Standard
350
2A
  0
DICTIONARY
  5
27
102
{ACAD_REACTORS
330
7
102
}
330
7
100
AcDbDictionary
281
     1
  3
设置1
350
30A40
1001
AcadStringInfo
1000
MIFCodePage
1070
     5
  0
ACDBDICTIONARYWDFLT
  5
6
102
{ACAD_REACTORS
330
7
102
}
330
7
100
AcDbDictionary
281
     1
  3
Normal
350
5
100
AcDbDictionaryWithDefault
340
5
  0
DICTIONARY
  5
9859
102
{ACAD_REACTORS
330
7
102
}
330
7
100
AcDbDictionary
281
     1
  3
A0
350
985A
  3
A1
350
985B
  3
A2
350
985C
  3
A3
350
985D
  3
A4
350
985E
  3
A5
350
985F
  3
A6
350
9860
  3
A7
350
9861
  3
A8
350
9862
  3
A9
350
9863
  3
B0
350
9864
  3
B1
350
9865
  3
B2
350
9866
  3
B3
350
9867
  3
B4
350
9868
  3
B5
350
9869
  3
B6
350
986A
  3
B7
350
986B
  3
B8
350
986C
  3
B9
350
986D
  3
C0
350
986E
  3
C1
350
986F
  3
C2
350
9870
  3
C3
350
9871
  3
C4
350
9872
  3
C5
350
9873
  3
C6
350
9874
  3
C7
350
9875
  3
C8
350
9876
  3
C9
350
9877
  3
D0
350
9878
  3
D1
350
9879
  3
D2
350
987A
  0
DICTIONARY
  5
6063CFF
102
{ACAD_REACTORS
330
7
102
}
330
7
100
AcDbDictionary
281
     1
  3
Metric50
350
6063D00
  0
DICTIONARY
  5
46A6
102
{ACAD_REACTORS
330
7
102
}
330
7
100
AcDbDictionary
281
     1
  3
Standard
350
9858
  0
DICTIONARY
  5
9847
102
{ACAD_REACTORS
330
7
102
}
330
7
100
AcDbDictionary
281
     1
  3
2dWireframe
350
984D
  3
3D Hidden
350
984F
  3
3dWireframe
350
984E
  3
Basic
350
984C
  3
Brighten
350
9853
  3
ColorChange
350
9857
  3
Conceptual
350
9850
  3
Dim
350
9852
  3
EdgeColorOff
350
63784
  3
Facepattern
350
9856
  3
Flat
350
9848
  3
FlatWithEdges
350
9849
  3
Gouraud
350
984A
  3
GouraudWithEdges
350
984B
  3
Hidden
350
6377C
  3
JitterOff
350
63782
  3
Linepattern
350
9855
  3
OverhangOff
350
63783
  3
Realistic
350
9851
  3
Shaded
350
63781
  3
Shaded with edges
350
63780
  3
Shades of Gray
350
6377D
  3
Sketchy
350
6377E
  3
Thicken
350
9854
  3
Wireframe
350
6377B
  3
X-Ray
350
6377F
  0
XRECORD
  5
61415
102
{ACAD_REACTORS
330
7
102
}
330
7
100
AcDbXrecord
280
     1
 90
   990106
  3

 60
     0
 61
     0
 62
     1
 63
     3
 64
     0
 65
     0
 66
     0
 67
     3
 68
     1
 69
     0
 70
     0
 71
     0
 72
     0
 40
13.70396488517739
170
     1
340
47027
  0
XRECORD
  5
6063D1B
102
{ACAD_REACTORS
330
7
102
}
330
7
100
AcDbXrecord
280
     1
 90
        1
330
9858
330
63946
330
6395B
330
6063D00
330
6063D02
  0
DICTIONARY
  5
6376E
102
{ACAD_REACTORS
330
7
102
}
330
7
100
AcDbDictionary
281
     1
  0
DICTIONARY
  5
4557
102
{ACAD_REACTORS
330
7
102
}
330
7
100
AcDbDictionary
281
     1
  3
CANNOSCALE
350
B806
  3
CMLEADERSTYLE
350
B804
  3
CTABLESTYLE
350
B803
  3
CVIEWDETAILSTYLE
350
6063D14
  3
CVIEWSECTIONSTYLE
350
6063D15
  3
DGNFRAME
350
62598
  3
DIMASSOC
350
4558
  3
HIDETEXT
350
62597
  3
INDEXCTL
350
62596
  3
LAYEREVAL
350
6378D
  3
LAYERNOTIFY
350
6378E
  3
LIGHTINGUNITS
350
B807
  3
MSLTSCALE
350
B805
  3
PROJECTNAME
350
62BD6
  3
SORTENTS
350
62595
  0
DICTIONARY
  5
6360A
102
{ACAD_REACTORS
330
7
102
}
330
7
100
AcDbDictionary
281
     1
  3
ASEBlockHierarchyIndexRecord
350
6360B
1001
DCO15
1040
1674722759.812
  0
DICTIONARY
  5
158C4
102
{ACAD_REACTORS
330
3FD7
102
}
330
3FD7
100
AcDbDictionary
281
     1
  0
DICTIONARY
  5
3FD8
102
{ACAD_REACTORS
330
3FD7
102
}
330
3FD7
100
AcDbDictionary
281
     1
  0
DICTIONARY
  5
158C3
102
{ACAD_REACTORS
330
3FD7
102
}
330
3FD7
100
AcDbDictionary
281
     1
1001
ACAD
1000
<All
  0
XRECORD
  5
9892
102
{ACAD_REACTORS
330
9891
102
}
330
9891
100
AcDbXrecord
280
     1
290
     1
  0
XRECORD
  5
9894
102
{ACAD_REACTORS
330
9893
102
}
330
9893
100
AcDbXrecord
280
     1
290
     1
  0
XRECORD
  5
9898
102
{ACAD_REACTORS
330
9897
102
}
330
9897
100
AcDbXrecord
280
     1
290
     1
  0
XRECORD
  5
989C
102
{ACAD_REACTORS
330
989B
102
}
330
989B
100
AcDbXrecord
280
     1
290
     1
  0
XRECORD
  5
98A0
102
{ACAD_REACTORS
330
989F
102
}
330
989F
100
AcDbXrecord
280
     1
290
     1
  0
XRECORD
  5
98AA
102
{ACAD_REACTORS
330
98A9
102
}
330
98A9
100
AcDbXrecord
280
     1
290
     1
  0
SORTENTSTABLE
  5
98C6
102
{ACAD_REACTORS
330
98C5
102
}
330
98C5
100
AcDbSortentsTable
330
2
331
6394C
  5
6394E
331
63948
  5
6394A
331
63940
  5
63942
331
62E18
  5
62E1C
331
62EE7
  5
62EEB
331
62E14
  5
62E18
331
62EE3
  5
62EE7
331
62E10
  5
62E14
331
80BB
  5
87FB
331
807B
  5
87F7
331
63974
  5
63B0D
331
63970
  5
63972
331
6393F
  5
63941
331
629B4
  5
629B3
331
62974
  5
629B1
331
62E0F
  5
62E13
331
47C4
  5
47C4
331
81BF
  5
88BA
331
6396C
  5
6396E
331
63968
  5
6396A
331
63964
  5
63966
331
63960
  5
63962
331
62F03
  5
63152
331
62E07
  5
62E0A
331
62968
  5
6296A
331
62EFF
  5
62F03
331
62E03
  5
62E06
331
6266C
  5
62679
331
62DFF
  5
62E01
331
47027
  5
4724F
331
63158
  5
63163
331
47A0
  5
47A0
331
6395D
  5
6395F
331
63959
  5
6395B
331
63955
  5
63957
331
63951
  5
63953
331
63894
  5
63896
331
63890
  5
63892
331
62EF4
  5
62F02
331
62EF0
  5
62EF4
331
62E39
  5
62EE2
331
62EEC
  5
62EF0
331
62E35
  5
62E39
331
62EE8
  5
62EED
331
63151
  5
63157
331
6394D
  5
6394F
331
63949
  5
6394B
331
63945
  5
63947
331
63941
  5
63943
331
62EE4
  5
62EE9
331
62A3C
  5
62DFF
331
62E19
  5
62E35
331
62E15
  5
62E19
331
629BC
  5
629BE
331
62E11
  5
62E15
331
629B8
  5
629BC
331
63975
  5
63B25
331
63971
  5
63973
331
63938
  5
6393E
331
629B1
  5
629B7
331
62E0C
  5
62E10
331
62975
  5
629B2
331
62E08
  5
62E0E
331
6396D
  5
6396F
331
63969
  5
6396B
331
63965
  5
63967
331
63961
  5
63963
331
63898
  5
6393D
331
62F04
  5
63153
331
62E04
  5
62E07
331
62F00
  5
62F04
331
62E00
  5
62E02
331
62969
  5
62974
331
63161
  5
635E2
331
81A8
  5
88B6
331
8184
  5
88B5
331
6395E
  5
63960
331
6395A
  5
6395C
331
63956
  5
63958
331
63952
  5
63954
331
63895
  5
63897
331
63891
  5
63893
331
6388D
  5
6388F
331
62EF1
  5
62EF5
331
62E3A
  5
62EE3
331
62EED
  5
62EF1
331
62E36
  5
62E3A
331
62EE9
  5
62EEE
331
63152
  5
63159
331
62A49
  5
62E00
331
8151
  5
8822
331
6394E
  5
63950
331
6394A
  5
6394C
331
63946
  5
63948
331
63942
  5
63944
331
8D7A
  5
9332
331
62EE5
  5
62EEA
331
62E1A
  5
62E36
331
62E16
  5
62E1A
331
62E12
  5
62E16
331
629B9
  5
629BD
331
63B25
  5
62E0B
331
63972
  5
63974
331
6393D
  5
6393F
331
629B2
  5
629B8
331
62E0D
  5
62E11
331
62E09
  5
62E0F
331
7FDE
  5
86EB
331
6396E
  5
63970
331
6396A
  5
6396C
331
63966
  5
63968
331
63962
  5
63964
331
62E05
  5
62E08
331
62F01
  5
62FDB
331
62E01
  5
62E04
331
6296A
  5
62975
331
63162
  5
636F9
331
6266A
  5
6266C
331
6395F
  5
63961
331
6395B
  5
6395D
331
63957
  5
63959
331
63953
  5
63955
331
63896
  5
63898
331
63892
  5
63894
331
6388E
  5
63890
331
8ED7
  5
9333
331
62E3B
  5
62EE4
331
62EF2
  5
62EF6
331
62E37
  5
62E3B
331
62EEE
  5
62EF2
331
63157
  5
63161
331
6265F
  5
6265F
331
62E33
  5
62E37
331
63153
  5
63155
331
635E2
  5
636FA
331
6314F
  5
63154
331
6394F
  5
63951
331
6394B
  5
6394D
331
63947
  5
63949
331
63943
  5
63945
331
81C7
  5
88BB
331
62EE2
  5
62EE6
331
62E17
  5
62E1B
331
62E13
  5
62E17
331
63973
  5
63975
331
6393E
  5
63940
331
629B7
  5
629B9
331
629B3
  5
629B4
331
62E0E
  5
62E12
331
6396F
  5
63971
331
6396B
  5
6396D
331
63967
  5
63969
331
63963
  5
63965
331
62F02
  5
62FDC
331
62E06
  5
62E09
331
62E02
  5
62E05
331
6266B
  5
62678
331
47AF
  5
47AF
331
6395C
  5
6395E
331
63958
  5
6395A
331
63954
  5
63956
331
63950
  5
63952
331
63897
  5
63938
331
63893
  5
63895
331
6388F
  5
63891
331
62E3C
  5
62EE5
331
62E38
  5
62E3C
331
62E34
  5
62E38
331
62EF3
  5
62F01
331
62660
  5
6266A
331
62EEF
  5
62EF3
331
62EEB
  5
62EEF
331
8127
  5
87FF
  0
ACDBDETAILVIEWSTYLE
  5
6063D02
102
{ACAD_XDICTIONARY
360
6063D19
102
}
102
{ACAD_REACTORS
330
6063D01
102
}
330
6063D01
100
AcDbModelDocViewStyle
 70
     0
  3
Metric50
290
     0
100
AcDbDetailViewStyle
 70
     0
 71
     0
 90
        3
 71
     1
340
12
 62
   256
 40
5.0
340
0
 62
   256
 40
5.0
300

 40
0.0
280
     1
 71
     2
340
8
 90
       25
 62
   256
 71
     3
340
12
 62
   256
 40
5.0
 90
        0
 40
15.0
 90
        1
300
%<\AcVar ViewDetailId>% (%<\AcVar ViewScale \f "%sn">%)
 71
     4
340
8
 90
       25
 62
   256
340
8
 90
       25
 62
   256
280
     0
  0
IMAGEDEF
  5
2BE3
102
{ACAD_REACTORS
330
2BE1
102
}
330
2BE1
100
AcDbRasterImageDef
 90
        0
  1
C:\boot\irunin.bmp
 10
111.0
 20
63.0
 11
0.009009009009009
 21
0.009009009009009
280
     1
281
     0
  0
LAYOUT
  5
A
102
{ACAD_XDICTIONARY
360
637A0
102
}
102
{ACAD_REACTORS
330
B
102
}
330
B
100
AcDbPlotSettings
  1
设置1
  2
\\192.168.1.102\HP LaserJet 1020
  4
A4
  6

 40
4.773083209991455
 41
4.942401409149169
 42
4.815414428710936
 43
4.7730712890625
 44
210.0156707763672
 45
297.0106506347656
 46
0.0
 47
8.162242915879204
 48
4678.397198801646
 49
199.7202550513075
140
4813.122570352224
141
299.3717161006835
142
1.0
143
0.4971953627312283
 70
  3764
 72
     1
 73
     1
 74
     4
  7
acad.ctb
 75
     0
147
2.01128183196788
 76
     1
 77
     2
 78
   300
148
-4678.397198801646
149
-199.7202550513075
100
AcDbLayout
  1
Model
 70
     1
 71
     0
 10
0.0
 20
0.0
 11
12.0
 21
9.0
 12
0.0
 22
0.0
 32
0.0
 14
0.2380952380952381
 24
-0.6113291389338498
 34
0.0
 15
2371.078652631803
 25
1364.802114083393
 35
0.0
146
0.0
 13
0.0
 23
0.0
 33
0.0
 16
1.0
 26
0.0
 36
0.0
 17
0.0
 27
1.0
 37
0.0
 76
     0
330
2
331
6376C
1001
ACAD_PSEXT
1000
\\192.168.1.102\HP LaserJet 1020
1000
HP LaserJet 1020
1000
\\192.168.1.102
1000

1070
     0
1001
AcadStringInfo
1000
MIFCodePage
1070
     5
  0
LAYOUT
  5
F
102
{ACAD_REACTORS
330
B
102
}
330
B
100
AcDbPlotSettings
  1

  2
在 SKF 上自动 HP LaserJet 1020
  4
A4
  6

 40
4.773083209991455
 41
4.942401409149169
 42
4.815414428710936
 43
4.7730712890625
 44
210.0156707763672
 45
297.0106506347656
 46
0.0
 47
0.0
 48
0.0
 49
0.0
140
0.0
141
0.0
142
1.0
143
1.0
 70
   688
 72
     1
 73
     1
 74
     5
  7
acad.ctb
 75
    16
147
1.0
 76
     1
 77
     2
 78
   300
148
0.0
149
0.0
100
AcDbLayout
  1
布局1
 70
     0
 71
     1
 10
-4.7730712890625
 20
-4.773083209991455
 11
292.2375793457031
 21
205.2425875663757
 12
0.0
 22
0.0
 32
0.0
 14
0.0451739414299368
 24
0.0000025706221436
 34
0.0
 15
287.29517394143
 25
200.4000025706222
 35
0.0
146
0.0
 13
0.0
 23
0.0
 33
0.0
 16
1.0
 26
0.0
 36
0.0
 17
0.0
 27
1.0
 37
0.0
 76
     0
330
C
331
99
1001
AcadStringInfo
1000
MIFCodePage
1070
     5
  0
MATERIAL
  5
9837
102
{ACAD_XDICTIONARY
360
9838
102
}
102
{ACAD_REACTORS
330
28
102
}
330
28
100
AcDbMaterial
  1
ByBlock
 72
     0
 43
0.0008202099737533
 43
0.0
 43
0.0
 43
0.0
 43
0.0
 43
0.0008202099737533
 43
0.0
 43
0.0
 43
0.0
 43
0.0
 43
1.0
 43
0.0
 43
0.0
 43
0.0
 43
0.0
 43
1.0
 77
     0
 47
0.0008202099737533
 47
0.0
 47
0.0
 47
0.0
 47
0.0
 47
0.0008202099737533
 47
0.0
 47
0.0
 47
0.0
 47
0.0
 47
1.0
 47
0.0
 47
0.0
 47
0.0
 47
0.0
 47
1.0
171
     0
 49
0.0008202099737533
 49
0.0
 49
0.0
 49
0.0
 49
0.0
 49
0.0008202099737533
 49
0.0
 49
0.0
 49
0.0
 49
0.0
 49
1.0
 49
0.0
 49
0.0
 49
0.0
 49
0.0
 49
1.0
175
     0
142
0.0008202099737533
142
0.0
142
0.0
142
0.0
142
0.0
142
0.0008202099737533
142
0.0
142
0.0
142
0.0
142
0.0
142
1.0
142
0.0
142
0.0
142
0.0
142
0.0
142
1.0
179
     0
144
0.0008202099737533
144
0.0
144
0.0
144
0.0
144
0.0
144
0.0008202099737533
144
0.0
144
0.0
144
0.0
144
0.0
144
1.0
144
0.0
144
0.0
144
0.0
144
0.0
144
1.0
147
0.0008202099737533
147
0.0
147
0.0
147
0.0
147
0.0
147
0.0008202099737533
147
0.0
147
0.0
147
0.0
147
0.0
147
1.0
147
0.0
147
0.0
147
0.0
147
0.0
147
1.0
  0
MATERIAL
  5
982F
102
{ACAD_XDICTIONARY
360
9830
102
}
102
{ACAD_REACTORS
330
28
102
}
330
28
100
AcDbMaterial
  1
ByLayer
 72
     0
 43
0.0008202099737533
 43
0.0
 43
0.0
 43
0.0
 43
0.0
 43
0.0008202099737533
 43
0.0
 43
0.0
 43
0.0
 43
0.0
 43
1.0
 43
0.0
 43
0.0
 43
0.0
 43
0.0
 43
1.0
 77
     0
 47
0.0008202099737533
 47
0.0
 47
0.0
 47
0.0
 47
0.0
 47
0.0008202099737533
 47
0.0
 47
0.0
 47
0.0
 47
0.0
 47
1.0
 47
0.0
 47
0.0
 47
0.0
 47
0.0
 47
1.0
171
     0
 49
0.0008202099737533
 49
0.0
 49
0.0
 49
0.0
 49
0.0
 49
0.0008202099737533
 49
0.0
 49
0.0
 49
0.0
 49
0.0
 49
1.0
 49
0.0
 49
0.0
 49
0.0
 49
0.0
 49
1.0
175
     0
142
0.0008202099737533
142
0.0
142
0.0
142
0.0
142
0.0
142
0.0008202099737533
142
0.0
142
0.0
142
0.0
142
0.0
142
1.0
142
0.0
142
0.0
142
0.0
142
0.0
142
1.0
179
     0
144
0.0008202099737533
144
0.0
144
0.0
144
0.0
144
0.0
144
0.0008202099737533
144
0.0
144
0.0
144
0.0
144
0.0
144
1.0
144
0.0
144
0.0
144
0.0
144
0.0
144
1.0
147
0.0008202099737533
147
0.0
147
0.0
147
0.0
147
0.0
147
0.0008202099737533
147
0.0
147
0.0
147
0.0
147
0.0
147
1.0
147
0.0
147
0.0
147
0.0
147
0.0
147
1.0
  0
MATERIAL
  5
983F
102
{ACAD_XDICTIONARY
360
9840
102
}
102
{ACAD_REACTORS
330
28
102
}
330
28
100
AcDbMaterial
  1
Global
 72
     0
 43
0.0008202099737533
 43
0.0
 43
0.0
 43
0.0
 43
0.0
 43
0.0008202099737533
 43
0.0
 43
0.0
 43
0.0
 43
0.0
 43
1.0
 43
0.0
 43
0.0
 43
0.0
 43
0.0
 43
1.0
 77
     0
 47
0.0008202099737533
 47
0.0
 47
0.0
 47
0.0
 47
0.0
 47
0.0008202099737533
 47
0.0
 47
0.0
 47
0.0
 47
0.0
 47
1.0
 47
0.0
 47
0.0
 47
0.0
 47
0.0
 47
1.0
171
     0
 49
0.0008202099737533
 49
0.0
 49
0.0
 49
0.0
 49
0.0
 49
0.0008202099737533
 49
0.0
 49
0.0
 49
0.0
 49
0.0
 49
1.0
 49
0.0
 49
0.0
 49
0.0
 49
0.0
 49
1.0
175
     0
142
0.0008202099737533
142
0.0
142
0.0
142
0.0
142
0.0
142
0.0008202099737533
142
0.0
142
0.0
142
0.0
142
0.0
142
1.0
142
0.0
142
0.0
142
0.0
142
0.0
142
1.0
179
     0
144
0.0008202099737533
144
0.0
144
0.0
144
0.0
144
0.0
144
0.0008202099737533
144
0.0
144
0.0
144
0.0
144
0.0
144
1.0
144
0.0
144
0.0
144
0.0
144
0.0
144
1.0
147
0.0008202099737533
147
0.0
147
0.0
147
0.0
147
0.0
147
0.0008202099737533
147
0.0
147
0.0
147
0.0
147
0.0
147
1.0
147
0.0
147
0.0
147
0.0
147
0.0
147
1.0
  0
MLEADERSTYLE
  5
987C
102
{ACAD_REACTORS
330
987B
102
}
330
987B
100
AcDbMLeaderStyle
179
     2
170
     2
171
     1
172
     0
 90
        2
 40
0.0
 41
0.0
173
     1
 91
-1056964608
340
16
 92
       -2
290
     1
 42
2.0
291
     1
 43
0.36
  3
Standard
 44
4.0
300

342
12
174
     1
178
     6
175
     1
176
     0
 93
-1056964608
 45
4.0
292
     0
297
     0
 46
4.0
 94
-1056964608
 47
1.0
 49
1.0
140
1.0
293
     1
141
0.0
294
     1
177
     0
142
1.0
295
     0
296
     0
143
0.125
271
     0
272
     9
273
     9
298
     0
1001
ACAD
1000
AcRTDxfName
1000
MLEADERSTYLE
1000
AcRTDxfName
1000
MLEADERSTYLE
1000
AcRTDxfName
1000
MLEADERSTYLE
1000
AcRTDxfName
1000
MLEADERSTYLE
1000
AcRTDxfName
1000
MLEADERSTYLE
1000
AcRTDxfName
1000
MLEADERSTYLE
  0
MLINESTYLE
  5
2A
102
{ACAD_REACTORS
330
26
102
}
330
26
100
AcDbMlineStyle
  2
STANDARD
 70
     0
  3

 62
   256
 51
90.0
 52
90.0
 71
     2
 49
0.5
 62
   256
  6
BYLAYER
 49
-0.5
 62
   256
  6
BYLAYER
  0
PLOTSETTINGS
  5
30A40
102
{ACAD_REACTORS
330
27
102
}
330
27
100
AcDbPlotSettings
  1
设置1
  2
\\192.168.1.102\HP LaserJet 1020
  4
A4
  6

 40
4.773083209991455
 41
4.942401409149169
 42
4.815414428710936
 43
4.7730712890625
 44
210.0156707763672
 45
297.0106506347656
 46
0.0
 47
8.162242915879204
 48
4678.397198801646
 49
199.7202550513075
140
4813.122570352224
141
299.3717161006835
142
1.0
143
0.4971953627312283
 70
  3764
 72
     1
 73
     1
 74
     4
  7
acad.ctb
 75
     0
147
2.01128183196788
 76
     1
 77
     2
 78
   300
148
-4678.397198801646
149
-199.7202550513075
1001
ACAD_PSEXT
1000
\\192.168.1.102\HP LaserJet 1020
1000
HP LaserJet 1020
1000
\\192.168.1.102
1000

1070
     0
1001
AcadStringInfo
1000
MIFCodePage
1070
     5
  0
ACDBPLACEHOLDER
  5
5
102
{ACAD_REACTORS
330
6
102
}
330
6
  0
SCALE
  5
985A
102
{ACAD_REACTORS
330
9859
102
}
330
9859
100
AcDbScale
 70
     0
300
1:1
140
1.0
141
1.0
290
     1
1001
ACAD
1000
AcRTDxfName
1000
SCALE
1000
AcRTDxfName
1000
SCALE
1000
AcRTDxfName
1000
SCALE
1000
AcRTDxfName
1000
SCALE
1000
AcRTDxfName
1000
SCALE
1000
AcRTDxfName
1000
SCALE
  0
SCALE
  5
985B
102
{ACAD_REACTORS
330
9859
102
}
330
9859
100
AcDbScale
 70
     0
300
1:2
140
1.0
141
2.0
290
     0
1001
ACAD
1000
AcRTDxfName
1000
SCALE
1000
AcRTDxfName
1000
SCALE
1000
AcRTDxfName
1000
SCALE
1000
AcRTDxfName
1000
SCALE
1000
AcRTDxfName
1000
SCALE
1000
AcRTDxfName
1000
SCALE
  0
SCALE
  5
985C
102
{ACAD_REACTORS
330
9859
102
}
330
9859
100
AcDbScale
 70
     0
300
1:4
140
1.0
141
4.0
290
     0
1001
ACAD
1000
AcRTDxfName
1000
SCALE
1000
AcRTDxfName
1000
SCALE
1000
AcRTDxfName
1000
SCALE
1000
AcRTDxfName
1000
SCALE
1000
AcRTDxfName
1000
SCALE
1000
AcRTDxfName
1000
SCALE
  0
SCALE
  5
985D
102
{ACAD_REACTORS
330
9859
102
}
330
9859
100
AcDbScale
 70
     0
300
1:5
140
1.0
141
5.0
290
     0
1001
ACAD
1000
AcRTDxfName
1000
SCALE
1000
AcRTDxfName
1000
SCALE
1000
AcRTDxfName
1000
SCALE
1000
AcRTDxfName
1000
SCALE
1000
AcRTDxfName
1000
SCALE
1000
AcRTDxfName
1000
SCALE
  0
SCALE
  5
985E
102
{ACAD_REACTORS
330
9859
102
}
330
9859
100
AcDbScale
 70
     0
300
1:8
140
1.0
141
8.0
290
     0
1001
ACAD
1000
AcRTDxfName
1000
SCALE
1000
AcRTDxfName
1000
SCALE
1000
AcRTDxfName
1000
SCALE
1000
AcRTDxfName
1000
SCALE
1000
AcRTDxfName
1000
SCALE
1000
AcRTDxfName
1000
SCALE
  0
SCALE
  5
985F
102
{ACAD_REACTORS
330
9859
102
}
330
9859
100
AcDbScale
 70
     0
300
1:10
140
1.0
141
10.0
290
     0
1001
ACAD
1000
AcRTDxfName
1000
SCALE
1000
AcRTDxfName
1000
SCALE
1000
AcRTDxfName
1000
SCALE
1000
AcRTDxfName
1000
SCALE
1000
AcRTDxfName
1000
SCALE
1000
AcRTDxfName
1000
SCALE
  0
SCALE
  5
9860
102
{ACAD_REACTORS
330
9859
102
}
330
9859
100
AcDbScale
 70
     0
300
1:16
140
1.0
141
16.0
290
     0
1001
ACAD
1000
AcRTDxfName
1000
SCALE
1000
AcRTDxfName
1000
SCALE
1000
AcRTDxfName
1000
SCALE
1000
AcRTDxfName
1000
SCALE
1000
AcRTDxfName
1000
SCALE
1000
AcRTDxfName
1000
SCALE
  0
SCALE
  5
9861
102
{ACAD_REACTORS
330
9859
102
}
330
9859
100
AcDbScale
 70
     0
300
1:20
140
1.0
141
20.0
290
     0
1001
ACAD
1000
AcRTDxfName
1000
SCALE
1000
AcRTDxfName
1000
SCALE
1000
AcRTDxfName
1000
SCALE
1000
AcRTDxfName
1000
SCALE
1000
AcRTDxfName
1000
SCALE
1000
AcRTDxfName
1000
SCALE
  0
SCALE
  5
9862
102
{ACAD_REACTORS
330
9859
102
}
330
9859
100
AcDbScale
 70
     0
300
1:30
140
1.0
141
30.0
290
     0
1001
ACAD
1000
AcRTDxfName
1000
SCALE
1000
AcRTDxfName
1000
SCALE
1000
AcRTDxfName
1000
SCALE
1000
AcRTDxfName
1000
SCALE
1000
AcRTDxfName
1000
SCALE
1000
AcRTDxfName
1000
SCALE
  0
SCALE
  5
9863
102
{ACAD_REACTORS
330
9859
102
}
330
9859
100
AcDbScale
 70
     0
300
1:40
140
1.0
141
40.0
290
     0
1001
ACAD
1000
AcRTDxfName
1000
SCALE
1000
AcRTDxfName
1000
SCALE
1000
AcRTDxfName
1000
SCALE
1000
AcRTDxfName
1000
SCALE
1000
AcRTDxfName
1000
SCALE
1000
AcRTDxfName
1000
SCALE
  0
SCALE
  5
9864
102
{ACAD_REACTORS
330
9859
102
}
330
9859
100
AcDbScale
 70
     0
300
1:50
140
1.0
141
50.0
290
     0
1001
ACAD
1000
AcRTDxfName
1000
SCALE
1000
AcRTDxfName
1000
SCALE
1000
AcRTDxfName
1000
SCALE
1000
AcRTDxfName
1000
SCALE
1000
AcRTDxfName
1000
SCALE
1000
AcRTDxfName
1000
SCALE
  0
SCALE
  5
9865
102
{ACAD_REACTORS
330
9859
102
}
330
9859
100
AcDbScale
 70
     0
300
1:100
140
1.0
141
100.0
290
     0
1001
ACAD
1000
AcRTDxfName
1000
SCALE
1000
AcRTDxfName
1000
SCALE
1000
AcRTDxfName
1000
SCALE
1000
AcRTDxfName
1000
SCALE
1000
AcRTDxfName
1000
SCALE
1000
AcRTDxfName
1000
SCALE
  0
SCALE
  5
9866
102
{ACAD_REACTORS
330
9859
102
}
330
9859
100
AcDbScale
 70
     0
300
2:1
140
2.0
141
1.0
290
     0
1001
ACAD
1000
AcRTDxfName
1000
SCALE
1000
AcRTDxfName
1000
SCALE
1000
AcRTDxfName
1000
SCALE
1000
AcRTDxfName
1000
SCALE
1000
AcRTDxfName
1000
SCALE
1000
AcRTDxfName
1000
SCALE
  0
SCALE
  5
9867
102
{ACAD_REACTORS
330
9859
102
}
330
9859
100
AcDbScale
 70
     0
300
4:1
140
4.0
141
1.0
290
     0
1001
ACAD
1000
AcRTDxfName
1000
SCALE
1000
AcRTDxfName
1000
SCALE
1000
AcRTDxfName
1000
SCALE
1000
AcRTDxfName
1000
SCALE
1000
AcRTDxfName
1000
SCALE
1000
AcRTDxfName
1000
SCALE
  0
SCALE
  5
9868
102
{ACAD_REACTORS
330
9859
102
}
330
9859
100
AcDbScale
 70
     0
300
8:1
140
8.0
141
1.0
290
     0
1001
ACAD
1000
AcRTDxfName
1000
SCALE
1000
AcRTDxfName
1000
SCALE
1000
AcRTDxfName
1000
SCALE
1000
AcRTDxfName
1000
SCALE
1000
AcRTDxfName
1000
SCALE
1000
AcRTDxfName
1000
SCALE
  0
SCALE
  5
9869
102
{ACAD_REACTORS
330
9859
102
}
330
9859
100
AcDbScale
 70
     0
300
10:1
140
10.0
141
1.0
290
     0
1001
ACAD
1000
AcRTDxfName
1000
SCALE
1000
AcRTDxfName
1000
SCALE
1000
AcRTDxfName
1000
SCALE
1000
AcRTDxfName
1000
SCALE
1000
AcRTDxfName
1000
SCALE
1000
AcRTDxfName
1000
SCALE
  0
SCALE
  5
986A
102
{ACAD_REACTORS
330
9859
102
}
330
9859
100
AcDbScale
 70
     0
300
100:1
140
100.0
141
1.0
290
     0
1001
ACAD
1000
AcRTDxfName
1000
SCALE
1000
AcRTDxfName
1000
SCALE
1000
AcRTDxfName
1000
SCALE
1000
AcRTDxfName
1000
SCALE
1000
AcRTDxfName
1000
SCALE
1000
AcRTDxfName
1000
SCALE
  0
SCALE
  5
986B
102
{ACAD_REACTORS
330
9859
102
}
330
9859
100
AcDbScale
 70
     0
300
1/128" = 1'-0"
140
0.0078125
141
12.0
290
     0
1001
ACAD
1000
AcRTDxfName
1000
SCALE
1000
AcRTDxfName
1000
SCALE
1000
AcRTDxfName
1000
SCALE
1000
AcRTDxfName
1000
SCALE
1000
AcRTDxfName
1000
SCALE
1000
AcRTDxfName
1000
SCALE
  0
SCALE
  5
986C
102
{ACAD_REACTORS
330
9859
102
}
330
9859
100
AcDbScale
 70
     0
300
1/64" = 1'-0"
140
0.015625
141
12.0
290
     0
1001
ACAD
1000
AcRTDxfName
1000
SCALE
1000
AcRTDxfName
1000
SCALE
1000
AcRTDxfName
1000
SCALE
1000
AcRTDxfName
1000
SCALE
1000
AcRTDxfName
1000
SCALE
1000
AcRTDxfName
1000
SCALE
  0
SCALE
  5
986D
102
{ACAD_REACTORS
330
9859
102
}
330
9859
100
AcDbScale
 70
     0
300
1/32" = 1'-0"
140
0.03125
141
12.0
290
     0
1001
ACAD
1000
AcRTDxfName
1000
SCALE
1000
AcRTDxfName
1000
SCALE
1000
AcRTDxfName
1000
SCALE
1000
AcRTDxfName
1000
SCALE
1000
AcRTDxfName
1000
SCALE
1000
AcRTDxfName
1000
SCALE
  0
SCALE
  5
986E
102
{ACAD_REACTORS
330
9859
102
}
330
9859
100
AcDbScale
 70
     0
300
1/16" = 1'-0"
140
0.0625
141
12.0
290
     0
1001
ACAD
1000
AcRTDxfName
1000
SCALE
1000
AcRTDxfName
1000
SCALE
1000
AcRTDxfName
1000
SCALE
1000
AcRTDxfName
1000
SCALE
1000
AcRTDxfName
1000
SCALE
1000
AcRTDxfName
1000
SCALE
  0
SCALE
  5
986F
102
{ACAD_REACTORS
330
9859
102
}
330
9859
100
AcDbScale
 70
     0
300
3/32" = 1'-0"
140
0.09375
141
12.0
290
     0
1001
ACAD
1000
AcRTDxfName
1000
SCALE
1000
AcRTDxfName
1000
SCALE
1000
AcRTDxfName
1000
SCALE
1000
AcRTDxfName
1000
SCALE
1000
AcRTDxfName
1000
SCALE
1000
AcRTDxfName
1000
SCALE
  0
SCALE
  5
9870
102
{ACAD_REACTORS
330
9859
102
}
330
9859
100
AcDbScale
 70
     0
300
1/8" = 1'-0"
140
0.125
141
12.0
290
     0
1001
ACAD
1000
AcRTDxfName
1000
SCALE
1000
AcRTDxfName
1000
SCALE
1000
AcRTDxfName
1000
SCALE
1000
AcRTDxfName
1000
SCALE
1000
AcRTDxfName
1000
SCALE
1000
AcRTDxfName
1000
SCALE
  0
SCALE
  5
9871
102
{ACAD_REACTORS
330
9859
102
}
330
9859
100
AcDbScale
 70
     0
300
3/16" = 1'-0"
140
0.1875
141
12.0
290
     0
1001
ACAD
1000
AcRTDxfName
1000
SCALE
1000
AcRTDxfName
1000
SCALE
1000
AcRTDxfName
1000
SCALE
1000
AcRTDxfName
1000
SCALE
1000
AcRTDxfName
1000
SCALE
1000
AcRTDxfName
1000
SCALE
  0
SCALE
  5
9872
102
{ACAD_REACTORS
330
9859
102
}
330
9859
100
AcDbScale
 70
     0
300
1/4" = 1'-0"
140
0.25
141
12.0
290
     0
1001
ACAD
1000
AcRTDxfName
1000
SCALE
1000
AcRTDxfName
1000
SCALE
1000
AcRTDxfName
1000
SCALE
1000
AcRTDxfName
1000
SCALE
1000
AcRTDxfName
1000
SCALE
1000
AcRTDxfName
1000
SCALE
  0
SCALE
  5
9873
102
{ACAD_REACTORS
330
9859
102
}
330
9859
100
AcDbScale
 70
     0
300
3/8" = 1'-0"
140
0.375
141
12.0
290
     0
1001
ACAD
1000
AcRTDxfName
1000
SCALE
1000
AcRTDxfName
1000
SCALE
1000
AcRTDxfName
1000
SCALE
1000
AcRTDxfName
1000
SCALE
1000
AcRTDxfName
1000
SCALE
1000
AcRTDxfName
1000
SCALE
  0
SCALE
  5
9874
102
{ACAD_REACTORS
330
9859
102
}
330
9859
100
AcDbScale
 70
     0
300
1/2" = 1'-0"
140
0.5
141
12.0
290
     0
1001
ACAD
1000
AcRTDxfName
1000
SCALE
1000
AcRTDxfName
1000
SCALE
1000
AcRTDxfName
1000
SCALE
1000
AcRTDxfName
1000
SCALE
1000
AcRTDxfName
1000
SCALE
1000
AcRTDxfName
1000
SCALE
  0
SCALE
  5
9875
102
{ACAD_REACTORS
330
9859
102
}
330
9859
100
AcDbScale
 70
     0
300
3/4" = 1'-0"
140
0.75
141
12.0
290
     0
1001
ACAD
1000
AcRTDxfName
1000
SCALE
1000
AcRTDxfName
1000
SCALE
1000
AcRTDxfName
1000
SCALE
1000
AcRTDxfName
1000
SCALE
1000
AcRTDxfName
1000
SCALE
1000
AcRTDxfName
1000
SCALE
  0
SCALE
  5
9876
102
{ACAD_REACTORS
330
9859
102
}
330
9859
100
AcDbScale
 70
     0
300
1" = 1'-0"
140
1.0
141
12.0
290
     0
1001
ACAD
1000
AcRTDxfName
1000
SCALE
1000
AcRTDxfName
1000
SCALE
1000
AcRTDxfName
1000
SCALE
1000
AcRTDxfName
1000
SCALE
1000
AcRTDxfName
1000
SCALE
1000
AcRTDxfName
1000
SCALE
  0
SCALE
  5
9877
102
{ACAD_REACTORS
330
9859
102
}
330
9859
100
AcDbScale
 70
     0
300
1-1/2" = 1'-0"
140
1.5
141
12.0
290
     0
1001
ACAD
1000
AcRTDxfName
1000
SCALE
1000
AcRTDxfName
1000
SCALE
1000
AcRTDxfName
1000
SCALE
1000
AcRTDxfName
1000
SCALE
1000
AcRTDxfName
1000
SCALE
1000
AcRTDxfName
1000
SCALE
  0
SCALE
  5
9878
102
{ACAD_REACTORS
330
9859
102
}
330
9859
100
AcDbScale
 70
     0
300
3" = 1'-0"
140
3.0
141
12.0
290
     0
1001
ACAD
1000
AcRTDxfName
1000
SCALE
1000
AcRTDxfName
1000
SCALE
1000
AcRTDxfName
1000
SCALE
1000
AcRTDxfName
1000
SCALE
1000
AcRTDxfName
1000
SCALE
1000
AcRTDxfName
1000
SCALE
  0
SCALE
  5
9879
102
{ACAD_REACTORS
330
9859
102
}
330
9859
100
AcDbScale
 70
     0
300
6" = 1'-0"
140
6.0
141
12.0
290
     0
1001
ACAD
1000
AcRTDxfName
1000
SCALE
1000
AcRTDxfName
1000
SCALE
1000
AcRTDxfName
1000
SCALE
1000
AcRTDxfName
1000
SCALE
1000
AcRTDxfName
1000
SCALE
1000
AcRTDxfName
1000
SCALE
  0
SCALE
  5
987A
102
{ACAD_REACTORS
330
9859
102
}
330
9859
100
AcDbScale
 70
     0
300
1'-0" = 1'-0"
140
12.0
141
12.0
290
     0
1001
ACAD
1000
AcRTDxfName
1000
SCALE
1000
AcRTDxfName
1000
SCALE
1000
AcRTDxfName
1000
SCALE
1000
AcRTDxfName
1000
SCALE
1000
AcRTDxfName
1000
SCALE
1000
AcRTDxfName
1000
SCALE
  0
ACDBSECTIONVIEWSTYLE
  5
6063D00
102
{ACAD_XDICTIONARY
360
6063D17
102
}
102
{ACAD_REACTORS
330
6063CFF
102
}
330
6063CFF
100
AcDbModelDocViewStyle
 70
     0
  3
Metric50
290
     0
100
AcDbSectionViewStyle
 70
     0
 71
     0
 90
      102
 71
     1
340
12
 62
   256
 40
5.0
340
0
340
0
 62
   256
 40
5.0
300
I, O, Q, S, X, Z
 40
10.0
 90
        0
 40
2.5
 90
        0
 71
     2
340
8
 90
       25
 62
   256
340
8
 90
       50
 62
   256
 40
5.0
 40
2.5
 40
5.0
 71
     3
340
12
 62
   256
 40
5.0
 90
        0
 40
15.0
 90
        1
300
%<\AcVar ViewSectionStartId>%-%<\AcVar ViewSectionEndId>% (%<\AcVar ViewScale \f "%sn">%)
 71
     4
 62
   256
 62
   257
300
ANSI31
 40
1.0
 90
        0
290
     0
290
     0
 90
        6
 40
0.0
 40
1.570796326794896
 40
0.2617993877991494
 40
1.308996938995747
 40
-0.2617993877991494
 40
1.832595714594046
  0
TABLESTYLE
  5
9858
102
{ACAD_XDICTIONARY
360
B800
102
}
102
{ACAD_REACTORS
330
46A6
102
}
330
46A6
100
AcDbTableStyle
280
     0
  3
Standard
 70
     0
 71
     0
 40
1.5
 41
1.5
280
     0
281
     0
  7
Standard
140
4.5
170
     2
 62
     0
 63
     7
283
     0
 90
      512
 91
        0
  1

274
    -2
284
     1
 64
     0
275
    -2
285
     1
 65
     0
276
    -2
286
     1
 66
     0
277
    -2
287
     1
 67
     0
278
    -2
288
     1
 68
     0
279
    -2
289
     1
 69
     0
  7
Standard
140
6.0
170
     5
 62
     0
 63
     7
283
     0
 90
      512
 91
        0
  1

274
    -2
284
     1
 64
     0
275
    -2
285
     1
 65
     0
276
    -2
286
     1
 66
     0
277
    -2
287
     1
 67
     0
278
    -2
288
     1
 68
     0
279
    -2
289
     1
 69
     0
  7
Standard
140
4.5
170
     5
 62
     0
 63
     7
283
     0
 90
      512
 91
        0
  1

274
    -2
284
     1
 64
     0
275
    -2
285
     1
 65
     0
276
    -2
286
     1
 66
     0
277
    -2
287
     1
 67
     0
278
    -2
288
     1
 68
     0
279
    -2
289
     1
 69
     0
  0
VISUALSTYLE
  5
984D
102
{ACAD_REACTORS
330
9847
102
}
330
9847
100
AcDbVisualStyle
  2
2dWireframe
 70
     4
177
     3
291
     0
 70
    58
 90
        0
176
     1
 90
        2
176
     1
 90
        0
176
     1
 90
        0
176
     1
 40
0.6
176
     1
 40
30.0
176
     1
 62
     7
176
     1
 90
        1
176
     1
 90
        4
176
     1
 62
     7
176
     1
 62
   257
176
     1
 90
        1
176
     1
 90
        1
176
     1
 40
1.0
176
     1
 90
        0
176
     1
 62
   257
176
     1
 40
1.0
176
     1
 90
        1
176
     1
 90
        6
176
     1
 90
        2
176
     1
 62
     7
176
     1
 90
        5
176
     1
 90
        0
176
     1
 90
        0
176
     1
290
     0
176
     1
 90
        1
176
     1
 40
0.0
176
     1
 90
        0
176
     1
290
     1
176
     1
290
     1
176
     1
290
     0
176
     1
290
     0
176
     1
290
     0
176
     1
290
     0
176
     1
290
     0
176
     1
290
     0
176
     1
290
     0
176
     1
 90
       50
176
     1
 40
0.0
176
     1
 40
1.0
176
     1
 90
        0
176
     1
 62
    18
420
        0
176
     1
 90
       50
176
     1
 90
        3
176
     1
 62
     5
420
      255
176
     1
290
     0
176
     1
 90
       50
176
     1
 90
       50
176
     1
 90
       50
176
     1
290
     0
176
     1
 90
       50
176
     1
 62
   256
176
     0
 40
1.0
176
     0
 90
        2
176
     1
  1
strokes_ogs.tif
176
     1
290
     0
176
     1
 40
1.0
176
     1
 40
1.0
176
     1
1001
ACAD
1000
AcRTDxfName
1000
VISUALSTYLE
1000
AcRTDxfName
1000
VISUALSTYLE
1000
AcRTDxfName
1000
VISUALSTYLE
1000
AcRTDxfName
1000
VISUALSTYLE
1000
AcRTDxfName
1000
VISUALSTYLE
1000
AcRTDxfName
1000
VISUALSTYLE
  0
VISUALSTYLE
  5
984F
102
{ACAD_REACTORS
330
9847
102
}
330
9847
100
AcDbVisualStyle
  2
3D Hidden
 70
     6
177
     3
291
     0
 70
    58
 90
        1
176
     1
 90
        2
176
     1
 90
        2
176
     1
 90
        0
176
     1
 40
0.6
176
     1
 40
30.0
176
     1
 62
     7
176
     1
 90
        2
176
     1
 90
        2
176
     1
 62
     7
176
     1
 62
   257
176
     1
 90
        2
176
     1
 90
        1
176
     1
 40
40.0
176
     1
 90
        0
176
     1
 62
   257
176
     1
 40
1.0
176
     1
 90
        1
176
     1
 90
        6
176
     1
 90
        2
176
     1
 62
     7
176
     1
 90
        3
176
     1
 90
        0
176
     1
 90
        0
176
     1
290
     0
176
     1
 90
        1
176
     1
 40
0.0
176
     1
 90
        0
176
     1
290
     0
176
     1
290
     1
176
     1
290
     1
176
     1
290
     0
176
     1
290
     0
176
     1
290
     0
176
     1
290
     0
176
     1
290
     0
176
     1
290
     0
176
     1
 90
       50
176
     1
 40
0.0
176
     1
 40
1.0
176
     1
 90
        0
176
     1
 62
    18
420
        0
176
     1
 90
       50
176
     1
 90
        3
176
     1
 62
     5
420
      255
176
     1
290
     0
176
     1
 90
       50
176
     1
 90
       50
176
     1
 90
       50
176
     1
290
     0
176
     1
 90
       50
176
     1
 62
   256
176
     0
 40
1.0
176
     0
 90
        2
176
     1
  1
strokes_ogs.tif
176
     1
290
     0
176
     1
 40
1.0
176
     1
 40
1.0
176
     1
1001
ACAD
1000
AcRTDxfName
1000
VISUALSTYLE
1000
AcRTDxfName
1000
VISUALSTYLE
1000
AcRTDxfName
1000
VISUALSTYLE
1000
AcRTDxfName
1000
VISUALSTYLE
1000
AcRTDxfName
1000
VISUALSTYLE
1000
AcRTDxfName
1000
VISUALSTYLE
  0
VISUALSTYLE
  5
984E
102
{ACAD_REACTORS
330
9847
102
}
330
9847
100
AcDbVisualStyle
  2
3dWireframe
 70
     5
177
     3
291
     0
 70
    58
 90
        0
176
     1
 90
        2
176
     1
 90
        0
176
     1
 90
        0
176
     1
 40
0.6
176
     1
 40
30.0
176
     1
 62
     7
176
     1
 90
        1
176
     1
 90
        4
176
     1
 62
     7
176
     1
 62
   257
176
     1
 90
        1
176
     1
 90
        1
176
     1
 40
1.0
176
     1
 90
        0
176
     1
 62
   257
176
     1
 40
1.0
176
     1
 90
        1
176
     1
 90
        6
176
     1
 90
        2
176
     1
 62
     7
176
     1
 90
        5
176
     1
 90
        0
176
     1
 90
        0
176
     1
290
     0
176
     1
 90
        1
176
     1
 40
0.0
176
     1
 90
        0
176
     1
290
     0
176
     1
290
     1
176
     1
290
     1
176
     1
290
     0
176
     1
290
     0
176
     1
290
     0
176
     1
290
     0
176
     1
290
     0
176
     1
290
     0
176
     1
 90
       50
176
     1
 40
0.0
176
     1
 40
1.0
176
     1
 90
        0
176
     1
 62
    18
420
        0
176
     1
 90
       50
176
     1
 90
        3
176
     1
 62
     5
420
      255
176
     1
290
     0
176
     1
 90
       50
176
     1
 90
       50
176
     1
 90
       50
176
     1
290
     0
176
     1
 90
       50
176
     1
 62
   256
176
     0
 40
1.0
176
     0
 90
        2
176
     1
  1
strokes_ogs.tif
176
     1
290
     0
176
     1
 40
1.0
176
     1
 40
1.0
176
     1
1001
ACAD
1000
AcRTDxfName
1000
VISUALSTYLE
1000
AcRTDxfName
1000
VISUALSTYLE
1000
AcRTDxfName
1000
VISUALSTYLE
1000
AcRTDxfName
1000
VISUALSTYLE
1000
AcRTDxfName
1000
VISUALSTYLE
1000
AcRTDxfName
1000
VISUALSTYLE
  0
VISUALSTYLE
  5
984C
102
{ACAD_REACTORS
330
9847
102
}
330
9847
100
AcDbVisualStyle
  2
Basic
 70
     7
177
     3
291
     1
 70
    58
 90
        1
176
     1
 90
        0
176
     1
 90
        1
176
     1
 90
        0
176
     1
 40
0.6
176
     1
 40
30.0
176
     1
 62
     7
176
     1
 90
        0
176
     1
 90
        4
176
     1
 62
     7
176
     1
 62
   257
176
     1
 90
        1
176
     1
 90
        1
176
     1
 40
1.0
176
     1
 90
        8
176
     1
 62
     7
176
     1
 40
1.0
176
     1
 90
        1
176
     1
 90
        6
176
     1
 90
        2
176
     1
 62
     7
176
     1
 90
        5
176
     1
 90
        0
176
     1
 90
        0
176
     1
290
     0
176
     1
 90
        1
176
     1
 40
0.0
176
     1
 90
        0
176
     1
290
     0
176
     1
290
     1
176
     1
290
     1
176
     1
290
     0
176
     1
290
     0
176
     1
290
     0
176
     1
290
     0
176
     1
290
     0
176
     1
290
     0
176
     1
 90
       50
176
     1
 40
0.0
176
     1
 40
1.0
176
     1
 90
        0
176
     1
 62
    18
420
        0
176
     1
 90
       50
176
     1
 90
        3
176
     1
 62
     5
420
      255
176
     1
290
     0
176
     1
 90
       50
176
     1
 90
       50
176
     1
 90
       50
176
     1
290
     0
176
     1
 90
       50
176
     1
 62
   256
176
     0
 40
1.0
176
     0
 90
        2
176
     1
  1
strokes_ogs.tif
176
     1
290
     0
176
     1
 40
1.0
176
     1
 40
1.0
176
     1
1001
ACAD
1000
AcRTDxfName
1000
VISUALSTYLE
1000
AcRTDxfName
1000
VISUALSTYLE
1000
AcRTDxfName
1000
VISUALSTYLE
1000
AcRTDxfName
1000
VISUALSTYLE
1000
AcRTDxfName
1000
VISUALSTYLE
1000
AcRTDxfName
1000
VISUALSTYLE
  0
VISUALSTYLE
  5
9853
102
{ACAD_REACTORS
330
9847
102
}
330
9847
100
AcDbVisualStyle
  2
Brighten
 70
    12
177
     3
291
     1
 70
    58
 90
        2
176
     1
 90
        2
176
     1
 90
        0
176
     1
 90
        0
176
     1
 40
0.6
176
     1
 40
30.0
176
     1
 62
     7
176
     1
 90
        1
176
     1
 90
        4
176
     1
 62
     7
176
     1
 62
   257
176
     1
 90
        1
176
     1
 90
        1
176
     1
 40
1.0
176
     1
 90
        8
176
     1
 62
     7
176
     1
 40
1.0
176
     1
 90
        1
176
     1
 90
        6
176
     1
 90
        2
176
     1
 62
     7
176
     1
 90
        5
176
     1
 90
        0
176
     1
 90
        0
176
     1
290
     0
176
     1
 90
        1
176
     1
 40
50.0
176
     1
 90
        0
176
     1
290
     0
176
     1
290
     1
176
     1
290
     1
176
     1
290
     0
176
     1
290
     0
176
     1
290
     0
176
     1
290
     0
176
     1
290
     0
176
     1
290
     0
176
     1
 90
       50
176
     1
 40
0.0
176
     1
 40
1.0
176
     1
 90
        0
176
     1
 62
    18
420
        0
176
     1
 90
       50
176
     1
 90
        3
176
     1
 62
     5
420
      255
176
     1
290
     0
176
     1
 90
       50
176
     1
 90
       50
176
     1
 90
       50
176
     1
290
     0
176
     1
 90
       50
176
     1
 62
   256
176
     0
 40
1.0
176
     0
 90
        2
176
     1
  1
strokes_ogs.tif
176
     1
290
     0
176
     1
 40
1.0
176
     1
 40
1.0
176
     1
1001
ACAD
1000
AcRTDxfName
1000
VISUALSTYLE
1000
AcRTDxfName
1000
VISUALSTYLE
1000
AcRTDxfName
1000
VISUALSTYLE
1000
AcRTDxfName
1000
VISUALSTYLE
1000
AcRTDxfName
1000
VISUALSTYLE
1000
AcRTDxfName
1000
VISUALSTYLE
  0
VISUALSTYLE
  5
9857
102
{ACAD_REACTORS
330
9847
102
}
330
9847
100
AcDbVisualStyle
  2
ColorChange
 70
    16
177
     3
291
     1
 70
    58
 90
        2
176
     1
 90
        2
176
     1
 90
        3
176
     1
 90
        0
176
     1
 40
0.6
176
     1
 40
30.0
176
     1
 62
     8
176
     1
 90
        1
176
     1
 90
        4
176
     1
 62
     7
176
     1
 62
   257
176
     1
 90
        1
176
     1
 90
        1
176
     1
 40
1.0
176
     1
 90
        8
176
     1
 62
     8
176
     1
 40
1.0
176
     1
 90
        1
176
     1
 90
        6
176
     1
 90
        2
176
     1
 62
     7
176
     1
 90
        5
176
     1
 90
        0
176
     1
 90
        0
176
     1
290
     0
176
     1
 90
        1
176
     1
 40
0.0
176
     1
 90
        0
176
     1
290
     0
176
     1
290
     1
176
     1
290
     1
176
     1
290
     0
176
     1
290
     0
176
     1
290
     0
176
     1
290
     0
176
     1
290
     0
176
     1
290
     0
176
     1
 90
       50
176
     1
 40
0.0
176
     1
 40
1.0
176
     1
 90
        0
176
     1
 62
    18
420
        0
176
     1
 90
       50
176
     1
 90
        3
176
     1
 62
     5
420
      255
176
     1
290
     0
176
     1
 90
       50
176
     1
 90
       50
176
     1
 90
       50
176
     1
290
     0
176
     1
 90
       50
176
     1
 62
   256
176
     0
 40
1.0
176
     0
 90
        2
176
     1
  1
strokes_ogs.tif
176
     1
290
     0
176
     1
 40
1.0
176
     1
 40
1.0
176
     1
1001
ACAD
1000
AcRTDxfName
1000
VISUALSTYLE
1000
AcRTDxfName
1000
VISUALSTYLE
1000
AcRTDxfName
1000
VISUALSTYLE
1000
AcRTDxfName
1000
VISUALSTYLE
1000
AcRTDxfName
1000
VISUALSTYLE
1000
AcRTDxfName
1000
VISUALSTYLE
  0
VISUALSTYLE
  5
9850
102
{ACAD_REACTORS
330
9847
102
}
330
9847
100
AcDbVisualStyle
  2
Conceptual
 70
     9
177
     3
291
     0
 70
    58
 90
        3
176
     1
 90
        2
176
     1
 90
        0
176
     1
 90
        0
176
     1
 40
0.6
176
     1
 40
30.0
176
     1
 62
     7
176
     1
 90
        2
176
     1
 90
        2
176
     1
 62
     7
176
     1
 62
   257
176
     1
 90
        1
176
     1
 90
        1
176
     1
 40
40.0
176
     1
 90
        8
176
     1
 62
     7
176
     1
 40
1.0
176
     1
 90
        1
176
     1
 90
        6
176
     1
 90
        2
176
     1
 62
     7
176
     1
 90
        3
176
     1
 90
        0
176
     1
 90
        0
176
     1
290
     0
176
     1
 90
        1
176
     1
 40
0.0
176
     1
 90
        0
176
     1
290
     0
176
     1
290
     1
176
     1
290
     1
176
     1
290
     0
176
     1
290
     0
176
     1
290
     0
176
     1
290
     0
176
     1
290
     0
176
     1
290
     0
176
     1
 90
       50
176
     1
 40
0.0
176
     1
 40
1.0
176
     1
 90
        0
176
     1
 62
    18
420
        0
176
     1
 90
       50
176
     1
 90
        3
176
     1
 62
     5
420
      255
176
     1
290
     0
176
     1
 90
       50
176
     1
 90
       50
176
     1
 90
       50
176
     1
290
     0
176
     1
 90
       50
176
     1
 62
   256
176
     0
 40
1.0
176
     0
 90
        2
176
     1
  1
strokes_ogs.tif
176
     1
290
     0
176
     1
 40
1.0
176
     1
 40
1.0
176
     1
1001
ACAD
1000
AcRTDxfName
1000
VISUALSTYLE
1000
AcRTDxfName
1000
VISUALSTYLE
1000
AcRTDxfName
1000
VISUALSTYLE
1000
AcRTDxfName
1000
VISUALSTYLE
1000
AcRTDxfName
1000
VISUALSTYLE
1000
AcRTDxfName
1000
VISUALSTYLE
  0
VISUALSTYLE
  5
9852
102
{ACAD_REACTORS
330
9847
102
}
330
9847
100
AcDbVisualStyle
  2
Dim
 70
    11
177
     3
291
     1
 70
    58
 90
        2
176
     1
 90
        2
176
     1
 90
        0
176
     1
 90
        0
176
     1
 40
0.6
176
     1
 40
30.0
176
     1
 62
     7
176
     1
 90
        1
176
     1
 90
        4
176
     1
 62
     7
176
     1
 62
   257
176
     1
 90
        1
176
     1
 90
        1
176
     1
 40
1.0
176
     1
 90
        8
176
     1
 62
     7
176
     1
 40
1.0
176
     1
 90
        1
176
     1
 90
        6
176
     1
 90
        2
176
     1
 62
     7
176
     1
 90
        5
176
     1
 90
        0
176
     1
 90
        0
176
     1
290
     0
176
     1
 90
        1
176
     1
 40
-50.0
176
     1
 90
        0
176
     1
290
     0
176
     1
290
     1
176
     1
290
     1
176
     1
290
     0
176
     1
290
     0
176
     1
290
     0
176
     1
290
     0
176
     1
290
     0
176
     1
290
     0
176
     1
 90
       50
176
     1
 40
0.0
176
     1
 40
1.0
176
     1
 90
        0
176
     1
 62
    18
420
        0
176
     1
 90
       50
176
     1
 90
        3
176
     1
 62
     5
420
      255
176
     1
290
     0
176
     1
 90
       50
176
     1
 90
       50
176
     1
 90
       50
176
     1
290
     0
176
     1
 90
       50
176
     1
 62
   256
176
     0
 40
1.0
176
     0
 90
        2
176
     1
  1
strokes_ogs.tif
176
     1
290
     0
176
     1
 40
1.0
176
     1
 40
1.0
176
     1
1001
ACAD
1000
AcRTDxfName
1000
VISUALSTYLE
1000
AcRTDxfName
1000
VISUALSTYLE
1000
AcRTDxfName
1000
VISUALSTYLE
1000
AcRTDxfName
1000
VISUALSTYLE
1000
AcRTDxfName
1000
VISUALSTYLE
1000
AcRTDxfName
1000
VISUALSTYLE
  0
VISUALSTYLE
  5
63784
102
{ACAD_REACTORS
330
9847
102
}
330
9847
100
AcDbVisualStyle
  2
EdgeColorOff
 70
    22
177
     3
291
     1
 70
    58
 90
        2
176
     0
 90
        2
176
     0
 90
        0
176
     0
 90
        0
176
     0
 40
0.6
176
     0
 40
30.0
176
     0
 62
     7
420
 16777215
176
     0
 90
        1
176
     0
 90
        4
176
     0
 62
     7
176
     0
 62
   257
176
     0
 90
        1
176
     0
 90
        1
176
     0
 40
1.0
176
     0
 90
        8
176
     2
 62
     7
176
     0
 40
1.0
176
     0
 90
        1
176
     0
 90
        6
176
     0
 90
        2
176
     0
 62
     7
176
     0
 90
        5
176
     0
 90
        0
176
     0
 90
        0
176
     0
290
     0
176
     0
 90
        1
176
     0
 40
0.0
176
     0
 90
        0
176
     0
290
     0
176
     1
290
     1
176
     1
290
     1
176
     1
290
     0
176
     1
290
     0
176
     1
290
     0
176
     1
290
     0
176
     1
290
     0
176
     1
290
     0
176
     1
 90
       50
176
     1
 40
0.0
176
     1
 40
1.0
176
     1
 90
        0
176
     1
 62
    18
420
        0
176
     1
 90
       50
176
     1
 90
        3
176
     1
 62
     5
420
      255
176
     1
290
     0
176
     1
 90
       50
176
     1
 90
       50
176
     1
 90
       50
176
     1
290
     0
176
     1
 90
       50
176
     1
 62
   256
176
     0
 40
1.0
176
     0
 90
        2
176
     1
  1
strokes_ogs.tif
176
     1
290
     0
176
     1
 40
1.0
176
     1
 40
1.0
176
     1
  0
VISUALSTYLE
  5
9856
102
{ACAD_REACTORS
330
9847
102
}
330
9847
100
AcDbVisualStyle
  2
Facepattern
 70
    15
177
     3
291
     1
 70
    58
 90
        2
176
     1
 90
        2
176
     1
 90
        0
176
     1
 90
        0
176
     1
 40
0.6
176
     1
 40
30.0
176
     1
 62
     7
176
     1
 90
        1
176
     1
 90
        4
176
     1
 62
     7
176
     1
 62
   257
176
     1
 90
        1
176
     1
 90
        1
176
     1
 40
1.0
176
     1
 90
        8
176
     1
 62
     7
176
     1
 40
1.0
176
     1
 90
        1
176
     1
 90
        6
176
     1
 90
        2
176
     1
 62
     7
176
     1
 90
        5
176
     1
 90
        0
176
     1
 90
        0
176
     1
290
     0
176
     1
 90
        1
176
     1
 40
0.0
176
     1
 90
        0
176
     1
290
     0
176
     1
290
     1
176
     1
290
     1
176
     1
290
     0
176
     1
290
     0
176
     1
290
     0
176
     1
290
     0
176
     1
290
     0
176
     1
290
     0
176
     1
 90
       50
176
     1
 40
0.0
176
     1
 40
1.0
176
     1
 90
        0
176
     1
 62
    18
420
        0
176
     1
 90
       50
176
     1
 90
        3
176
     1
 62
     5
420
      255
176
     1
290
     0
176
     1
 90
       50
176
     1
 90
       50
176
     1
 90
       50
176
     1
290
     0
176
     1
 90
       50
176
     1
 62
   256
176
     0
 40
1.0
176
     0
 90
        2
176
     1
  1
strokes_ogs.tif
176
     1
290
     0
176
     1
 40
1.0
176
     1
 40
1.0
176
     1
1001
ACAD
1000
AcRTDxfName
1000
VISUALSTYLE
1000
AcRTDxfName
1000
VISUALSTYLE
1000
AcRTDxfName
1000
VISUALSTYLE
1000
AcRTDxfName
1000
VISUALSTYLE
1000
AcRTDxfName
1000
VISUALSTYLE
1000
AcRTDxfName
1000
VISUALSTYLE
  0
VISUALSTYLE
  5
9848
102
{ACAD_REACTORS
330
9847
102
}
330
9847
100
AcDbVisualStyle
  2
Flat
 70
     0
177
     3
291
     1
 70
    58
 90
        2
176
     1
 90
        1
176
     1
 90
        1
176
     1
 90
        2
176
     1
 40
0.6
176
     1
 40
30.0
176
     1
 62
     7
176
     1
 90
        0
176
     1
 90
        4
176
     1
 62
     7
176
     1
 62
   257
176
     1
 90
        1
176
     1
 90
        1
176
     1
 40
1.0
176
     1
 90
        8
176
     1
 62
     7
176
     1
 40
1.0
176
     1
 90
        1
176
     1
 90
        6
176
     1
 90
        2
176
     1
 62
     7
176
     1
 90
        5
176
     1
 90
        0
176
     1
 90
        0
176
     1
290
     0
176
     1
 90
       13
176
     1
 40
0.0
176
     1
 90
        0
176
     1
290
     0
176
     1
290
     1
176
     1
290
     1
176
     1
290
     0
176
     1
290
     0
176
     1
290
     0
176
     1
290
     0
176
     1
290
     0
176
     1
290
     0
176
     1
 90
       50
176
     1
 40
0.0
176
     1
 40
1.0
176
     1
 90
        0
176
     1
 62
    18
420
        0
176
     1
 90
       50
176
     1
 90
        3
176
     1
 62
     5
420
      255
176
     1
290
     0
176
     1
 90
       50
176
     1
 90
       50
176
     1
 90
       50
176
     1
290
     0
176
     1
 90
       50
176
     1
 62
   256
176
     0
 40
1.0
176
     0
 90
        2
176
     1
  1
strokes_ogs.tif
176
     1
290
     0
176
     1
 40
1.0
176
     1
 40
1.0
176
     1
1001
ACAD
1000
AcRTDxfName
1000
VISUALSTYLE
1000
AcRTDxfName
1000
VISUALSTYLE
1000
AcRTDxfName
1000
VISUALSTYLE
1000
AcRTDxfName
1000
VISUALSTYLE
1000
AcRTDxfName
1000
VISUALSTYLE
1000
AcRTDxfName
1000
VISUALSTYLE
  0
VISUALSTYLE
  5
9849
102
{ACAD_REACTORS
330
9847
102
}
330
9847
100
AcDbVisualStyle
  2
FlatWithEdges
 70
     1
177
     3
291
     1
 70
    58
 90
        2
176
     1
 90
        1
176
     1
 90
        1
176
     1
 90
        2
176
     1
 40
0.6
176
     1
 40
30.0
176
     1
 62
     7
176
     1
 90
        1
176
     1
 90
        4
176
     1
 62
     7
176
     1
 62
   257
176
     1
 90
        1
176
     1
 90
        1
176
     1
 40
1.0
176
     1
 90
        0
176
     1
 62
   257
176
     1
 40
1.0
176
     1
 90
        1
176
     1
 90
        6
176
     1
 90
        2
176
     1
 62
     7
176
     1
 90
        5
176
     1
 90
        0
176
     1
 90
        0
176
     1
290
     0
176
     1
 90
       13
176
     1
 40
0.0
176
     1
 90
        0
176
     1
290
     0
176
     1
290
     1
176
     1
290
     1
176
     1
290
     0
176
     1
290
     0
176
     1
290
     0
176
     1
290
     0
176
     1
290
     0
176
     1
290
     0
176
     1
 90
       50
176
     1
 40
0.0
176
     1
 40
1.0
176
     1
 90
        0
176
     1
 62
    18
420
        0
176
     1
 90
       50
176
     1
 90
        3
176
     1
 62
     5
420
      255
176
     1
290
     0
176
     1
 90
       50
176
     1
 90
       50
176
     1
 90
       50
176
     1
290
     0
176
     1
 90
       50
176
     1
 62
   256
176
     0
 40
1.0
176
     0
 90
        2
176
     1
  1
strokes_ogs.tif
176
     1
290
     0
176
     1
 40
1.0
176
     1
 40
1.0
176
     1
1001
ACAD
1000
AcRTDxfName
1000
VISUALSTYLE
1000
AcRTDxfName
1000
VISUALSTYLE
1000
AcRTDxfName
1000
VISUALSTYLE
1000
AcRTDxfName
1000
VISUALSTYLE
1000
AcRTDxfName
1000
VISUALSTYLE
1000
AcRTDxfName
1000
VISUALSTYLE
  0
VISUALSTYLE
  5
984A
102
{ACAD_REACTORS
330
9847
102
}
330
9847
100
AcDbVisualStyle
  2
Gouraud
 70
     2
177
     3
291
     1
 70
    58
 90
        2
176
     1
 90
        2
176
     1
 90
        1
176
     1
 90
        2
176
     1
 40
0.6
176
     1
 40
30.0
176
     1
 62
     7
176
     1
 90
        0
176
     1
 90
        4
176
     1
 62
     7
176
     1
 62
   257
176
     1
 90
        1
176
     1
 90
        1
176
     1
 40
1.0
176
     1
 90
        0
176
     1
 62
     7
176
     1
 40
1.0
176
     1
 90
        1
176
     1
 90
        6
176
     1
 90
        2
176
     1
 62
     7
176
     1
 90
        5
176
     1
 90
        0
176
     1
 90
        0
176
     1
290
     0
176
     1
 90
       13
176
     1
 40
0.0
176
     1
 90
        0
176
     1
290
     0
176
     1
290
     1
176
     1
290
     1
176
     1
290
     0
176
     1
290
     0
176
     1
290
     0
176
     1
290
     0
176
     1
290
     0
176
     1
290
     0
176
     1
 90
       50
176
     1
 40
0.0
176
     1
 40
1.0
176
     1
 90
        0
176
     1
 62
    18
420
        0
176
     1
 90
       50
176
     1
 90
        3
176
     1
 62
     5
420
      255
176
     1
290
     0
176
     1
 90
       50
176
     1
 90
       50
176
     1
 90
       50
176
     1
290
     0
176
     1
 90
       50
176
     1
 62
   256
176
     0
 40
1.0
176
     0
 90
        2
176
     1
  1
strokes_ogs.tif
176
     1
290
     0
176
     1
 40
1.0
176
     1
 40
1.0
176
     1
1001
ACAD
1000
AcRTDxfName
1000
VISUALSTYLE
1000
AcRTDxfName
1000
VISUALSTYLE
1000
AcRTDxfName
1000
VISUALSTYLE
1000
AcRTDxfName
1000
VISUALSTYLE
1000
AcRTDxfName
1000
VISUALSTYLE
1000
AcRTDxfName
1000
VISUALSTYLE
  0
VISUALSTYLE
  5
984B
102
{ACAD_REACTORS
330
9847
102
}
330
9847
100
AcDbVisualStyle
  2
GouraudWithEdges
 70
     3
177
     3
291
     1
 70
    58
 90
        2
176
     1
 90
        2
176
     1
 90
        1
176
     1
 90
        2
176
     1
 40
0.6
176
     1
 40
30.0
176
     1
 62
     7
176
     1
 90
        1
176
     1
 90
        4
176
     1
 62
     7
176
     1
 62
   257
176
     1
 90
        1
176
     1
 90
        1
176
     1
 40
1.0
176
     1
 90
        0
176
     1
 62
   257
176
     1
 40
1.0
176
     1
 90
        1
176
     1
 90
        6
176
     1
 90
        2
176
     1
 62
     7
176
     1
 90
        5
176
     1
 90
        0
176
     1
 90
        0
176
     1
290
     0
176
     1
 90
       13
176
     1
 40
0.0
176
     1
 90
        0
176
     1
290
     0
176
     1
290
     1
176
     1
290
     1
176
     1
290
     0
176
     1
290
     0
176
     1
290
     0
176
     1
290
     0
176
     1
290
     0
176
     1
290
     0
176
     1
 90
       50
176
     1
 40
0.0
176
     1
 40
1.0
176
     1
 90
        0
176
     1
 62
    18
420
        0
176
     1
 90
       50
176
     1
 90
        3
176
     1
 62
     5
420
      255
176
     1
290
     0
176
     1
 90
       50
176
     1
 90
       50
176
     1
 90
       50
176
     1
290
     0
176
     1
 90
       50
176
     1
 62
   256
176
     0
 40
1.0
176
     0
 90
        2
176
     1
  1
strokes_ogs.tif
176
     1
290
     0
176
     1
 40
1.0
176
     1
 40
1.0
176
     1
1001
ACAD
1000
AcRTDxfName
1000
VISUALSTYLE
1000
AcRTDxfName
1000
VISUALSTYLE
1000
AcRTDxfName
1000
VISUALSTYLE
1000
AcRTDxfName
1000
VISUALSTYLE
1000
AcRTDxfName
1000
VISUALSTYLE
1000
AcRTDxfName
1000
VISUALSTYLE
  0
VISUALSTYLE
  5
6377C
102
{ACAD_REACTORS
330
9847
102
}
330
9847
100
AcDbVisualStyle
  2
Hidden
 70
     6
177
     3
291
     0
 70
    58
 90
        1
176
     1
 90
        2
176
     1
 90
        2
176
     1
 90
        0
176
     1
 40
0.6
176
     1
 40
30.0
176
     1
 62
     7
420
 16777215
176
     1
 90
        2
176
     1
 90
        2
176
     1
 62
     7
176
     1
 62
   257
176
     1
 90
        2
176
     1
 90
        1
176
     1
 40
40.0
176
     1
 90
        0
176
     1
 62
   257
176
     1
 40
1.0
176
     1
 90
        1
176
     1
 90
        6
176
     1
 90
        2
176
     1
 62
     7
176
     1
 90
        3
176
     1
 90
        0
176
     1
 90
        0
176
     1
290
     0
176
     1
 90
        1
176
     1
 40
0.0
176
     1
 90
        0
176
     1
290
     0
176
     1
290
     1
176
     1
290
     1
176
     1
290
     0
176
     1
290
     0
176
     1
290
     0
176
     1
290
     0
176
     1
290
     0
176
     1
290
     0
176
     1
 90
       50
176
     1
 40
0.0
176
     1
 40
1.0
176
     1
 90
        0
176
     1
 62
    18
420
        0
176
     1
 90
       50
176
     1
 90
        3
176
     1
 62
     5
420
      255
176
     1
290
     0
176
     1
 90
       50
176
     1
 90
       50
176
     1
 90
       50
176
     1
290
     0
176
     1
 90
       50
176
     1
 62
   256
176
     0
 40
1.0
176
     0
 90
        2
176
     1
  1
strokes_ogs.tif
176
     1
290
     0
176
     1
 40
1.0
176
     1
 40
1.0
176
     1
  0
VISUALSTYLE
  5
63782
102
{ACAD_REACTORS
330
9847
102
}
330
9847
100
AcDbVisualStyle
  2
JitterOff
 70
    20
177
     3
291
     1
 70
    58
 90
        2
176
     0
 90
        2
176
     0
 90
        0
176
     0
 90
        0
176
     0
 40
0.6
176
     0
 40
30.0
176
     0
 62
     7
420
 16777215
176
     0
 90
        1
176
     0
 90
        4
176
     0
 62
     7
176
     0
 62
   257
176
     0
 90
        1
176
     0
 90
        1
176
     0
 40
1.0
176
     0
 90
       10
176
     2
 62
     7
176
     0
 40
1.0
176
     0
 90
        1
176
     0
 90
        6
176
     0
 90
        2
176
     0
 62
     7
176
     0
 90
        5
176
     0
 90
        0
176
     0
 90
        0
176
     0
290
     0
176
     0
 90
        1
176
     0
 40
0.0
176
     0
 90
        0
176
     0
290
     0
176
     1
290
     1
176
     1
290
     1
176
     1
290
     0
176
     1
290
     0
176
     1
290
     0
176
     1
290
     0
176
     1
290
     0
176
     1
290
     0
176
     1
 90
       50
176
     1
 40
0.0
176
     1
 40
1.0
176
     1
 90
        0
176
     1
 62
    18
420
        0
176
     1
 90
       50
176
     1
 90
        3
176
     1
 62
     5
420
      255
176
     1
290
     0
176
     1
 90
       50
176
     1
 90
       50
176
     1
 90
       50
176
     1
290
     0
176
     1
 90
       50
176
     1
 62
   256
176
     0
 40
1.0
176
     0
 90
        2
176
     1
  1
strokes_ogs.tif
176
     1
290
     0
176
     1
 40
1.0
176
     1
 40
1.0
176
     1
  0
VISUALSTYLE
  5
9855
102
{ACAD_REACTORS
330
9847
102
}
330
9847
100
AcDbVisualStyle
  2
Linepattern
 70
    14
177
     3
291
     1
 70
    58
 90
        2
176
     1
 90
        2
176
     1
 90
        0
176
     1
 90
        0
176
     1
 40
0.6
176
     1
 40
30.0
176
     1
 62
     7
176
     1
 90
        1
176
     1
 90
        4
176
     1
 62
     7
176
     1
 62
   257
176
     1
 90
        7
176
     1
 90
        7
176
     1
 40
1.0
176
     1
 90
        8
176
     1
 62
     7
176
     1
 40
1.0
176
     1
 90
        1
176
     1
 90
        6
176
     1
 90
        2
176
     1
 62
     7
176
     1
 90
        5
176
     1
 90
        0
176
     1
 90
        0
176
     1
290
     0
176
     1
 90
        1
176
     1
 40
0.0
176
     1
 90
        0
176
     1
290
     0
176
     1
290
     1
176
     1
290
     1
176
     1
290
     0
176
     1
290
     0
176
     1
290
     0
176
     1
290
     0
176
     1
290
     0
176
     1
290
     0
176
     1
 90
       50
176
     1
 40
0.0
176
     1
 40
1.0
176
     1
 90
        0
176
     1
 62
    18
420
        0
176
     1
 90
       50
176
     1
 90
        3
176
     1
 62
     5
420
      255
176
     1
290
     0
176
     1
 90
       50
176
     1
 90
       50
176
     1
 90
       50
176
     1
290
     0
176
     1
 90
       50
176
     1
 62
   256
176
     0
 40
1.0
176
     0
 90
        2
176
     1
  1
strokes_ogs.tif
176
     1
290
     0
176
     1
 40
1.0
176
     1
 40
1.0
176
     1
1001
ACAD
1000
AcRTDxfName
1000
VISUALSTYLE
1000
AcRTDxfName
1000
VISUALSTYLE
1000
AcRTDxfName
1000
VISUALSTYLE
1000
AcRTDxfName
1000
VISUALSTYLE
1000
AcRTDxfName
1000
VISUALSTYLE
1000
AcRTDxfName
1000
VISUALSTYLE
  0
VISUALSTYLE
  5
63783
102
{ACAD_REACTORS
330
9847
102
}
330
9847
100
AcDbVisualStyle
  2
OverhangOff
 70
    21
177
     3
291
     1
 70
    58
 90
        2
176
     0
 90
        2
176
     0
 90
        0
176
     0
 90
        0
176
     0
 40
0.6
176
     0
 40
30.0
176
     0
 62
     7
420
 16777215
176
     0
 90
        1
176
     0
 90
        4
176
     0
 62
     7
176
     0
 62
   257
176
     0
 90
        1
176
     0
 90
        1
176
     0
 40
1.0
176
     0
 90
        9
176
     2
 62
     7
176
     0
 40
1.0
176
     0
 90
        1
176
     0
 90
        6
176
     0
 90
        2
176
     0
 62
     7
176
     0
 90
        5
176
     0
 90
        0
176
     0
 90
        0
176
     0
290
     0
176
     0
 90
        1
176
     0
 40
0.0
176
     0
 90
        0
176
     0
290
     0
176
     1
290
     1
176
     1
290
     1
176
     1
290
     0
176
     1
290
     0
176
     1
290
     0
176
     1
290
     0
176
     1
290
     0
176
     1
290
     0
176
     1
 90
       50
176
     1
 40
0.0
176
     1
 40
1.0
176
     1
 90
        0
176
     1
 62
    18
420
        0
176
     1
 90
       50
176
     1
 90
        3
176
     1
 62
     5
420
      255
176
     1
290
     0
176
     1
 90
       50
176
     1
 90
       50
176
     1
 90
       50
176
     1
290
     0
176
     1
 90
       50
176
     1
 62
   256
176
     0
 40
1.0
176
     0
 90
        2
176
     1
  1
strokes_ogs.tif
176
     1
290
     0
176
     1
 40
1.0
176
     1
 40
1.0
176
     1
  0
VISUALSTYLE
  5
9851
102
{ACAD_REACTORS
330
9847
102
}
330
9847
100
AcDbVisualStyle
  2
Realistic
 70
     8
177
     3
291
     0
 70
    58
 90
        2
176
     1
 90
        2
176
     1
 90
        0
176
     1
 90
        0
176
     1
 40
0.6
176
     1
 40
30.0
176
     1
 62
     7
176
     1
 90
        1
176
     1
 90
        0
176
     1
 62
     7
176
     1
 62
   257
176
     1
 90
        1
176
     1
 90
        1
176
     1
 40
1.0
176
     1
 90
        8
176
     1
 62
     8
176
     1
 40
1.0
176
     1
 90
        1
176
     1
 90
        6
176
     1
 90
        2
176
     1
 62
     7
176
     1
 90
        5
176
     1
 90
        0
176
     1
 90
        0
176
     1
290
     0
176
     1
 90
       13
176
     1
 40
0.0
176
     1
 90
        0
176
     1
290
     0
176
     1
290
     1
176
     1
290
     1
176
     1
290
     0
176
     1
290
     0
176
     1
290
     0
176
     1
290
     0
176
     1
290
     0
176
     1
290
     0
176
     1
 90
       50
176
     1
 40
0.0
176
     1
 40
1.0
176
     1
 90
        0
176
     1
 62
    18
420
        0
176
     1
 90
       50
176
     1
 90
        3
176
     1
 62
     5
420
      255
176
     1
290
     0
176
     1
 90
       50
176
     1
 90
       50
176
     1
 90
       50
176
     1
290
     0
176
     1
 90
       50
176
     1
 62
   256
176
     0
 40
1.0
176
     0
 90
        2
176
     1
  1
strokes_ogs.tif
176
     1
290
     0
176
     1
 40
1.0
176
     1
 40
1.0
176
     1
1001
ACAD
1000
AcRTDxfName
1000
VISUALSTYLE
1000
AcRTDxfName
1000
VISUALSTYLE
1000
AcRTDxfName
1000
VISUALSTYLE
1000
AcRTDxfName
1000
VISUALSTYLE
1000
AcRTDxfName
1000
VISUALSTYLE
1000
AcRTDxfName
1000
VISUALSTYLE
  0
VISUALSTYLE
  5
63781
102
{ACAD_REACTORS
330
9847
102
}
330
9847
100
AcDbVisualStyle
  2
Shaded
 70
    27
177
     3
291
     0
 70
    58
 90
        2
176
     1
 90
        2
176
     1
 90
        1
176
     1
 90
        2
176
     1
 40
0.6
176
     1
 40
30.0
176
     1
 62
     7
420
 16777215
176
     1
 90
        0
176
     1
 90
        4
176
     1
 62
     7
176
     1
 62
   257
176
     1
 90
        1
176
     1
 90
        1
176
     1
 40
1.0
176
     1
 90
        8
176
     1
 62
   257
176
     1
 40
1.0
176
     1
 90
        1
176
     1
 90
        6
176
     1
 90
        2
176
     1
 62
     8
420
  7895160
176
     1
 90
        3
176
     1
 90
        0
176
     1
 90
        0
176
     1
290
     0
176
     1
 90
        5
176
     1
 40
0.0
176
     1
 90
        0
176
     1
290
     0
176
     1
290
     1
176
     1
290
     1
176
     1
290
     0
176
     1
290
     0
176
     1
290
     0
176
     1
290
     0
176
     1
290
     0
176
     1
290
     0
176
     1
 90
       50
176
     1
 40
0.0
176
     1
 40
1.0
176
     1
 90
        0
176
     1
 62
    18
420
        0
176
     1
 90
       50
176
     1
 90
        3
176
     1
 62
     5
420
      255
176
     1
290
     0
176
     1
 90
       50
176
     1
 90
       50
176
     1
 90
       50
176
     1
290
     0
176
     1
 90
       50
176
     1
 62
   256
176
     0
 40
1.0
176
     0
 90
        2
176
     1
  1
strokes_ogs.tif
176
     1
290
     0
176
     1
 40
1.0
176
     1
 40
1.0
176
     1
  0
VISUALSTYLE
  5
63780
102
{ACAD_REACTORS
330
9847
102
}
330
9847
100
AcDbVisualStyle
  2
Shaded with edges
 70
    26
177
     3
291
     0
 70
    58
 90
        2
176
     1
 90
        2
176
     1
 90
        1
176
     1
 90
        2
176
     1
 40
0.6
176
     1
 40
30.0
176
     1
 62
     7
420
 16777215
176
     1
 90
        1
176
     1
 90
        2
176
     1
 62
     7
176
     1
 62
   257
176
     1
 90
        2
176
     1
 90
        1
176
     1
 40
1.0
176
     1
 90
        8
176
     1
 62
   257
176
     1
 40
1.0
176
     1
 90
        1
176
     1
 90
        6
176
     1
 90
        2
176
     1
 62
     7
176
     1
 90
        3
176
     1
 90
        0
176
     1
 90
        0
176
     1
290
     0
176
     1
 90
        5
176
     1
 40
0.0
176
     1
 90
        0
176
     1
290
     0
176
     1
290
     1
176
     1
290
     1
176
     1
290
     0
176
     1
290
     0
176
     1
290
     0
176
     1
290
     0
176
     1
290
     0
176
     1
290
     0
176
     1
 90
       50
176
     1
 40
0.0
176
     1
 40
1.0
176
     1
 90
        0
176
     1
 62
    18
420
        0
176
     1
 90
       50
176
     1
 90
        3
176
     1
 62
     5
420
      255
176
     1
290
     0
176
     1
 90
       50
176
     1
 90
       50
176
     1
 90
       50
176
     1
290
     0
176
     1
 90
       50
176
     1
 62
   256
176
     0
 40
1.0
176
     0
 90
        2
176
     1
  1
strokes_ogs.tif
176
     1
290
     0
176
     1
 40
1.0
176
     1
 40
1.0
176
     1
  0
VISUALSTYLE
  5
6377D
102
{ACAD_REACTORS
330
9847
102
}
330
9847
100
AcDbVisualStyle
  2
Shades of Gray
 70
    23
177
     3
291
     0
 70
    58
 90
        2
176
     1
 90
        2
176
     1
 90
        3
176
     1
 90
        0
176
     1
 40
0.6
176
     1
 40
30.0
176
     1
 62
     7
420
 16777215
176
     1
 90
        2
176
     1
 90
        2
176
     1
 62
     7
176
     1
 62
     7
176
     1
 90
        1
176
     1
 90
        1
176
     1
 40
40.0
176
     1
 90
        8
176
     1
 62
     7
176
     1
 40
1.0
176
     1
 90
        1
176
     1
 90
        6
176
     1
 90
        2
176
     1
 62
     7
176
     1
 90
        3
176
     1
 90
        0
176
     1
 90
        0
176
     1
290
     0
176
     1
 90
        1
176
     1
 40
0.0
176
     1
 90
        0
176
     1
290
     0
176
     1
290
     1
176
     1
290
     1
176
     1
290
     0
176
     1
290
     0
176
     1
290
     0
176
     1
290
     0
176
     1
290
     0
176
     1
290
     0
176
     1
 90
       50
176
     1
 40
0.0
176
     1
 40
1.0
176
     1
 90
        0
176
     1
 62
    18
420
        0
176
     1
 90
       50
176
     1
 90
        3
176
     1
 62
     5
420
      255
176
     1
290
     0
176
     1
 90
       50
176
     1
 90
       50
176
     1
 90
       50
176
     1
290
     0
176
     1
 90
       50
176
     1
 62
   256
176
     0
 40
1.0
176
     0
 90
        2
176
     1
  1
strokes_ogs.tif
176
     1
290
     0
176
     1
 40
1.0
176
     1
 40
1.0
176
     1
  0
VISUALSTYLE
  5
6377E
102
{ACAD_REACTORS
330
9847
102
}
330
9847
100
AcDbVisualStyle
  2
Sketchy
 70
    24
177
     3
291
     0
 70
    58
 90
        1
176
     1
 90
        2
176
     1
 90
        2
176
     1
 90
        0
176
     1
 40
0.6
176
     1
 40
30.0
176
     1
 62
     7
420
 16777215
176
     1
 90
        2
176
     1
 90
        2
176
     1
 62
     7
176
     1
 62
     7
176
     1
 90
        1
176
     1
 90
        1
176
     1
 40
40.0
176
     1
 90
       11
176
     1
 62
     7
176
     1
 40
1.0
176
     1
 90
        1
176
     1
 90
        6
176
     1
 90
        2
176
     1
 62
     7
176
     1
 90
        6
176
     1
 90
        0
176
     1
 90
        0
176
     1
290
     0
176
     1
 90
        1
176
     1
 40
0.0
176
     1
 90
        0
176
     1
290
     0
176
     1
290
     1
176
     1
290
     1
176
     1
290
     0
176
     1
290
     0
176
     1
290
     0
176
     1
290
     0
176
     1
290
     0
176
     1
290
     0
176
     1
 90
       50
176
     1
 40
0.0
176
     1
 40
1.0
176
     1
 90
        0
176
     1
 62
    18
420
        0
176
     1
 90
       50
176
     1
 90
        3
176
     1
 62
     5
420
      255
176
     1
290
     0
176
     1
 90
       50
176
     1
 90
       50
176
     1
 90
       50
176
     1
290
     0
176
     1
 90
       50
176
     1
 62
   256
176
     0
 40
1.0
176
     0
 90
        2
176
     1
  1
strokes_ogs.tif
176
     1
290
     0
176
     1
 40
1.0
176
     1
 40
1.0
176
     1
  0
VISUALSTYLE
  5
9854
102
{ACAD_REACTORS
330
9847
102
}
330
9847
100
AcDbVisualStyle
  2
Thicken
 70
    13
177
     3
291
     1
 70
    58
 90
        2
176
     1
 90
        2
176
     1
 90
        0
176
     1
 90
        0
176
     1
 40
0.6
176
     1
 40
30.0
176
     1
 62
     7
176
     1
 90
        1
176
     1
 90
        4
176
     1
 62
     7
176
     1
 62
   257
176
     1
 90
        1
176
     1
 90
        1
176
     1
 40
1.0
176
     1
 90
       12
176
     1
 62
     7
176
     1
 40
1.0
176
     1
 90
        1
176
     1
 90
        6
176
     1
 90
        2
176
     1
 62
     7
176
     1
 90
        5
176
     1
 90
        0
176
     1
 90
        0
176
     1
290
     0
176
     1
 90
        1
176
     1
 40
0.0
176
     1
 90
        0
176
     1
290
     0
176
     1
290
     1
176
     1
290
     1
176
     1
290
     0
176
     1
290
     0
176
     1
290
     0
176
     1
290
     0
176
     1
290
     0
176
     1
290
     0
176
     1
 90
       50
176
     1
 40
0.0
176
     1
 40
1.0
176
     1
 90
        0
176
     1
 62
    18
420
        0
176
     1
 90
       50
176
     1
 90
        3
176
     1
 62
     5
420
      255
176
     1
290
     0
176
     1
 90
       50
176
     1
 90
       50
176
     1
 90
       50
176
     1
290
     0
176
     1
 90
       50
176
     1
 62
   256
176
     0
 40
1.0
176
     0
 90
        2
176
     1
  1
strokes_ogs.tif
176
     1
290
     0
176
     1
 40
1.0
176
     1
 40
1.0
176
     1
1001
ACAD
1000
AcRTDxfName
1000
VISUALSTYLE
1000
AcRTDxfName
1000
VISUALSTYLE
1000
AcRTDxfName
1000
VISUALSTYLE
1000
AcRTDxfName
1000
VISUALSTYLE
1000
AcRTDxfName
1000
VISUALSTYLE
1000
AcRTDxfName
1000
VISUALSTYLE
  0
VISUALSTYLE
  5
6377B
102
{ACAD_REACTORS
330
9847
102
}
330
9847
100
AcDbVisualStyle
  2
Wireframe
 70
     5
177
     3
291
     0
 70
    58
 90
        0
176
     1
 90
        2
176
     1
 90
        0
176
     1
 90
        0
176
     1
 40
0.6
176
     1
 40
30.0
176
     1
 62
     7
420
 16777215
176
     1
 90
        1
176
     1
 90
        4
176
     1
 62
     7
176
     1
 62
   257
176
     1
 90
        1
176
     1
 90
        1
176
     1
 40
1.0
176
     1
 90
        0
176
     1
 62
   257
176
     1
 40
1.0
176
     1
 90
        1
176
     1
 90
        6
176
     1
 90
        2
176
     1
 62
     7
176
     1
 90
        3
176
     1
 90
        0
176
     1
 90
        0
176
     1
290
     0
176
     1
 90
        1
176
     1
 40
0.0
176
     1
 90
        0
176
     1
290
     0
176
     1
290
     1
176
     1
290
     1
176
     1
290
     0
176
     1
290
     0
176
     1
290
     0
176
     1
290
     0
176
     1
290
     0
176
     1
290
     0
176
     1
 90
       50
176
     1
 40
0.0
176
     1
 40
1.0
176
     1
 90
        0
176
     1
 62
    18
420
        0
176
     1
 90
       50
176
     1
 90
        3
176
     1
 62
     5
420
      255
176
     1
290
     0
176
     1
 90
       50
176
     1
 90
       50
176
     1
 90
       50
176
     1
290
     0
176
     1
 90
       50
176
     1
 62
   256
176
     0
 40
1.0
176
     0
 90
        2
176
     1
  1
strokes_ogs.tif
176
     1
290
     0
176
     1
 40
1.0
176
     1
 40
1.0
176
     1
  0
VISUALSTYLE
  5
6377F
102
{ACAD_REACTORS
330
9847
102
}
330
9847
100
AcDbVisualStyle
  2
X-Ray
 70
    25
177
     3
291
     0
 70
    58
 90
        2
176
     1
 90
        2
176
     1
 90
        1
176
     1
 90
        1
176
     1
 40
0.5
176
     1
 40
30.0
176
     1
 62
     7
420
 16777215
176
     1
 90
        1
176
     1
 90
        0
176
     1
 62
     7
176
     1
 62
   257
176
     1
 90
        1
176
     1
 90
        1
176
     1
 40
1.0
176
     1
 90
        8
176
     1
 62
     7
176
     1
 40
1.0
176
     1
 90
        1
176
     1
 90
        6
176
     1
 90
        2
176
     1
 62
     7
176
     1
 90
        3
176
     1
 90
        0
176
     1
 90
        0
176
     1
290
     0
176
     1
 90
       13
176
     1
 40
0.0
176
     1
 90
        0
176
     1
290
     0
176
     1
290
     1
176
     1
290
     1
176
     1
290
     0
176
     1
290
     0
176
     1
290
     0
176
     1
290
     0
176
     1
290
     0
176
     1
290
     0
176
     1
 90
       50
176
     1
 40
0.0
176
     1
 40
1.0
176
     1
 90
        0
176
     1
 62
    18
420
        0
176
     1
 90
       50
176
     1
 90
        3
176
     1
 62
     5
420
      255
176
     1
290
     0
176
     1
 90
       50
176
     1
 90
       50
176
     1
 90
       50
176
     1
290
     0
176
     1
 90
       50
176
     1
 62
   256
176
     0
 40
1.0
176
     0
 90
        2
176
     1
  1
strokes_ogs.tif
176
     1
290
     0
176
     1
 40
1.0
176
     1
 40
1.0
176
     1
  0
DICTIONARYVAR
  5
B806
102
{ACAD_REACTORS
330
4557
102
}
330
4557
100
DictionaryVariables
280
     0
  1
1:1
  0
DICTIONARYVAR
  5
B804
102
{ACAD_REACTORS
330
4557
102
}
330
4557
100
DictionaryVariables
280
     0
  1
STANDARD
  0
DICTIONARYVAR
  5
B803
102
{ACAD_REACTORS
330
4557
102
}
330
4557
100
DictionaryVariables
280
     0
  1
STANDARD
  0
DICTIONARYVAR
  5
6063D14
102
{ACAD_REACTORS
330
4557
102
}
330
4557
100
DictionaryVariables
280
     0
  1
Metric50
  0
DICTIONARYVAR
  5
6063D15
102
{ACAD_REACTORS
330
4557
102
}
330
4557
100
DictionaryVariables
280
     0
  1
Metric50
  0
DICTIONARYVAR
  5
62598
102
{ACAD_REACTORS
330
4557
102
}
330
4557
100
DictionaryVariables
280
     0
  1
2
  0
DICTIONARYVAR
  5
4558
102
{ACAD_REACTORS
330
4557
102
}
330
4557
100
DictionaryVariables
280
     0
  1
1
  0
DICTIONARYVAR
  5
62597
102
{ACAD_REACTORS
330
4557
102
}
330
4557
100
DictionaryVariables
280
     0
  1
1
  0
DICTIONARYVAR
  5
62596
102
{ACAD_REACTORS
330
4557
102
}
330
4557
100
DictionaryVariables
280
     0
  1
0
  0
DICTIONARYVAR
  5
6378D
102
{ACAD_REACTORS
330
4557
102
}
330
4557
100
DictionaryVariables
280
     0
  1
1
  0
DICTIONARYVAR
  5
6378E
102
{ACAD_REACTORS
330
4557
102
}
330
4557
100
DictionaryVariables
280
     0
  1
15
  0
DICTIONARYVAR
  5
B807
102
{ACAD_REACTORS
330
4557
102
}
330
4557
100
DictionaryVariables
280
     0
  1
0
  0
DICTIONARYVAR
  5
B805
102
{ACAD_REACTORS
330
4557
102
}
330
4557
100
DictionaryVariables
280
     0
  1
0
  0
DICTIONARYVAR
  5
62BD6
102
{ACAD_REACTORS
330
4557
102
}
330
4557
100
DictionaryVariables
280
     0
  1

  0
DICTIONARYVAR
  5
62595
102
{ACAD_REACTORS
330
4557
102
}
330
4557
100
DictionaryVariables
280
     0
  1
127
  0
XRECORD
  5
6360B
102
{ACAD_REACTORS
330
6360A
102
}
330
6360A
100
AcDbXrecord
280
     1
330
0
330
0
330
0
330
0
330
0
330
0
330
0
330
0
330
0
330
0
330
0
330
0
330
0
330
0
330
0
330
0
330
0
330
0
330
0
330
0
330
0
330
0
330
0
330
0
  0
DICTIONARY
  5
6063D19
330
6063D02
100
AcDbDictionary
280
     1
281
     1
  3
ACAD_XREC_ROUNDTRIP
360
6063D1A
  0
DICTIONARY
  5
637A0
330
A
100
AcDbDictionary
280
     1
281
     1
  0
DICTIONARY
  5
9838
330
9837
100
AcDbDictionary
280
     1
281
     1
  3
BUMPTILE
360
983A
  3
DIFFUSETILE
360
9839
  3
OPACITYTILE
360
983D
  3
REFLECTIONTILE
360
983C
  3
REFRACTIONTILE
360
983E
  3
SPECULARTILE
360
983B
  0
DICTIONARY
  5
9830
330
982F
100
AcDbDictionary
280
     1
281
     1
  3
BUMPTILE
360
9832
  3
DIFFUSETILE
360
9831
  3
OPACITYTILE
360
9835
  3
REFLECTIONTILE
360
9834
  3
REFRACTIONTILE
360
9836
  3
SPECULARTILE
360
9833
  0
DICTIONARY
  5
9840
330
983F
100
AcDbDictionary
280
     1
281
     1
  3
BUMPTILE
360
9842
  3
DIFFUSETILE
360
9841
  3
OPACITYTILE
360
9845
  3
REFLECTIONTILE
360
9844
  3
REFRACTIONTILE
360
9846
  3
SPECULARTILE
360
9843
  0
DICTIONARY
  5
6063D17
330
6063D00
100
AcDbDictionary
280
     1
281
     1
  3
ACAD_XREC_ROUNDTRIP
360
6063D18
  0
DICTIONARY
  5
B800
330
9858
100
AcDbDictionary
280
     1
281
     1
  3
ACAD_ROUNDTRIP_2008_TABLESTYLE_CELLSTYLEMAP
360
6063D16
  0
XRECORD
  5
6063D1A
102
{ACAD_REACTORS
330
6063D19
102
}
330
6063D19
100
AcDbXrecord
280
     1
102
DISPLAYNAME
  1
Metric50
102
FLAGS
 90
        0
  0
XRECORD
  5
983A
102
{ACAD_REACTORS
330
9838
102
}
330
9838
100
AcDbXrecord
280
     1
270
     1
271
     1
  0
XRECORD
  5
9839
102
{ACAD_REACTORS
330
9838
102
}
330
9838
100
AcDbXrecord
280
     1
270
     1
271
     1
  0
XRECORD
  5
983D
102
{ACAD_REACTORS
330
9838
102
}
330
9838
100
AcDbXrecord
280
     1
270
     1
271
     1
  0
XRECORD
  5
983C
102
{ACAD_REACTORS
330
9838
102
}
330
9838
100
AcDbXrecord
280
     1
270
     1
271
     1
  0
XRECORD
  5
983E
102
{ACAD_REACTORS
330
9838
102
}
330
9838
100
AcDbXrecord
280
     1
270
     1
271
     1
  0
XRECORD
  5
983B
102
{ACAD_REACTORS
330
9838
102
}
330
9838
100
AcDbXrecord
280
     1
270
     1
271
     1
  0
XRECORD
  5
9832
102
{ACAD_REACTORS
330
9830
102
}
330
9830
100
AcDbXrecord
280
     1
270
     1
271
     1
  0
XRECORD
  5
9831
102
{ACAD_REACTORS
330
9830
102
}
330
9830
100
AcDbXrecord
280
     1
270
     1
271
     1
  0
XRECORD
  5
9835
102
{ACAD_REACTORS
330
9830
102
}
330
9830
100
AcDbXrecord
280
     1
270
     1
271
     1
  0
XRECORD
  5
9834
102
{ACAD_REACTORS
330
9830
102
}
330
9830
100
AcDbXrecord
280
     1
270
     1
271
     1
  0
XRECORD
  5
9836
102
{ACAD_REACTORS
330
9830
102
}
330
9830
100
AcDbXrecord
280
     1
270
     1
271
     1
  0
XRECORD
  5
9833
102
{ACAD_REACTORS
330
9830
102
}
330
9830
100
AcDbXrecord
280
     1
270
     1
271
     1
  0
XRECORD
  5
9842
102
{ACAD_REACTORS
330
9840
102
}
330
9840
100
AcDbXrecord
280
     1
270
     1
271
     1
  0
XRECORD
  5
9841
102
{ACAD_REACTORS
330
9840
102
}
330
9840
100
AcDbXrecord
280
     1
270
     1
271
     1
  0
XRECORD
  5
9845
102
{ACAD_REACTORS
330
9840
102
}
330
9840
100
AcDbXrecord
280
     1
270
     1
271
     1
  0
XRECORD
  5
9844
102
{ACAD_REACTORS
330
9840
102
}
330
9840
100
AcDbXrecord
280
     1
270
     1
271
     1
  0
XRECORD
  5
9846
102
{ACAD_REACTORS
330
9840
102
}
330
9840
100
AcDbXrecord
280
     1
270
     1
271
     1
  0
XRECORD
  5
9843
102
{ACAD_REACTORS
330
9840
102
}
330
9840
100
AcDbXrecord
280
     1
270
     1
271
     1
  0
XRECORD
  5
6063D18
102
{ACAD_REACTORS
330
6063D17
102
}
330
6063D17
100
AcDbXrecord
280
     1
102
DISPLAYNAME
  1
Metric50
102
FLAGS
 90
        0
  0
CELLSTYLEMAP
  5
6063D16
102
{ACAD_REACTORS
330
B800
102
}
330
B800
100
AcDbCellStyleMap
 90
        3
300
CELLSTYLE
  1
TABLEFORMAT_BEGIN
 90
        5
170
     1
 91
        0
 92
    32768
 62
   257
 93
        1
300
CONTENTFORMAT
  1
CONTENTFORMAT_BEGIN
 90
        0
 91
        0
 92
      512
 93
        0
300

 40
0.0
140
1.0
 94
        5
 62
     0
340
12
144
6.0
309
CONTENTFORMAT_END
171
     1
301
MARGIN
  1
CELLMARGIN_BEGIN
 40
1.5
 40
1.5
 40
1.5
 40
1.5
 40
0.18
 40
0.18
309
CELLMARGIN_END
 94
        6
 95
        1
302
GRIDFORMAT
  1
GRIDFORMAT_BEGIN
 90
        0
 91
        1
 62
     0
 92
       -2
340
0
 93
        0
 40
1.125
309
GRIDFORMAT_END
 95
        2
302
GRIDFORMAT
  1
GRIDFORMAT_BEGIN
 90
        0
 91
        1
 62
     0
 92
       -2
340
0
 93
        0
 40
1.125
309
GRIDFORMAT_END
 95
        4
302
GRIDFORMAT
  1
GRIDFORMAT_BEGIN
 90
        0
 91
        1
 62
     0
 92
       -2
340
0
 93
        0
 40
1.125
309
GRIDFORMAT_END
 95
        8
302
GRIDFORMAT
  1
GRIDFORMAT_BEGIN
 90
        0
 91
        1
 62
     0
 92
       -2
340
0
 93
        0
 40
1.125
309
GRIDFORMAT_END
 95
       16
302
GRIDFORMAT
  1
GRIDFORMAT_BEGIN
 90
        0
 91
        1
 62
     0
 92
       -2
340
0
 93
        0
 40
1.125
309
GRIDFORMAT_END
 95
       32
302
GRIDFORMAT
  1
GRIDFORMAT_BEGIN
 90
        0
 91
        1
 62
     0
 92
       -2
340
0
 93
        0
 40
1.125
309
GRIDFORMAT_END
309
TABLEFORMAT_END
  1
CELLSTYLE_BEGIN
 90
        1
 91
        1
300
_TITLE
309
CELLSTYLE_END
300
CELLSTYLE
  1
TABLEFORMAT_BEGIN
 90
        5
170
     1
 91
        0
 92
        0
 62
   257
 93
        1
300
CONTENTFORMAT
  1
CONTENTFORMAT_BEGIN
 90
        0
 91
        0
 92
      512
 93
        0
300

 40
0.0
140
1.0
 94
        5
 62
     0
340
12
144
4.5
309
CONTENTFORMAT_END
171
     1
301
MARGIN
  1
CELLMARGIN_BEGIN
 40
1.5
 40
1.5
 40
1.5
 40
1.5
 40
0.18
 40
0.18
309
CELLMARGIN_END
 94
        6
 95
        1
302
GRIDFORMAT
  1
GRIDFORMAT_BEGIN
 90
        0
 91
        1
 62
     0
 92
       -2
340
0
 93
        0
 40
1.125
309
GRIDFORMAT_END
 95
        2
302
GRIDFORMAT
  1
GRIDFORMAT_BEGIN
 90
        0
 91
        1
 62
     0
 92
       -2
340
0
 93
        0
 40
1.125
309
GRIDFORMAT_END
 95
        4
302
GRIDFORMAT
  1
GRIDFORMAT_BEGIN
 90
        0
 91
        1
 62
     0
 92
       -2
340
0
 93
        0
 40
1.125
309
GRIDFORMAT_END
 95
        8
302
GRIDFORMAT
  1
GRIDFORMAT_BEGIN
 90
        0
 91
        1
 62
     0
 92
       -2
340
0
 93
        0
 40
1.125
309
GRIDFORMAT_END
 95
       16
302
GRIDFORMAT
  1
GRIDFORMAT_BEGIN
 90
        0
 91
        1
 62
     0
 92
       -2
340
0
 93
        0
 40
1.125
309
GRIDFORMAT_END
 95
       32
302
GRIDFORMAT
  1
GRIDFORMAT_BEGIN
 90
        0
 91
        1
 62
     0
 92
       -2
340
0
 93
        0
 40
1.125
309
GRIDFORMAT_END
309
TABLEFORMAT_END
  1
CELLSTYLE_BEGIN
 90
        2
 91
        1
300
_HEADER
309
CELLSTYLE_END
300
CELLSTYLE
  1
TABLEFORMAT_BEGIN
 90
        5
170
     1
 91
        0
 92
        0
 62
   257
 93
        1
300
CONTENTFORMAT
  1
CONTENTFORMAT_BEGIN
 90
        0
 91
        0
 92
      512
 93
        0
300

 40
0.0
140
1.0
 94
        2
 62
     0
340
12
144
4.5
309
CONTENTFORMAT_END
171
     1
301
MARGIN
  1
CELLMARGIN_BEGIN
 40
1.5
 40
1.5
 40
1.5
 40
1.5
 40
0.18
 40
0.18
309
CELLMARGIN_END
 94
        6
 95
        1
302
GRIDFORMAT
  1
GRIDFORMAT_BEGIN
 90
        0
 91
        1
 62
     0
 92
       -2
340
0
 93
        0
 40
1.125
309
GRIDFORMAT_END
 95
        2
302
GRIDFORMAT
  1
GRIDFORMAT_BEGIN
 90
        0
 91
        1
 62
     0
 92
       -2
340
0
 93
        0
 40
1.125
309
GRIDFORMAT_END
 95
        4
302
GRIDFORMAT
  1
GRIDFORMAT_BEGIN
 90
        0
 91
        1
 62
     0
 92
       -2
340
0
 93
        0
 40
1.125
309
GRIDFORMAT_END
 95
        8
302
GRIDFORMAT
  1
GRIDFORMAT_BEGIN
 90
        0
 91
        1
 62
     0
 92
       -2
340
0
 93
        0
 40
1.125
309
GRIDFORMAT_END
 95
       16
302
GRIDFORMAT
  1
GRIDFORMAT_BEGIN
 90
        0
 91
        1
 62
     0
 92
       -2
340
0
 93
        0
 40
1.125
309
GRIDFORMAT_END
 95
       32
302
GRIDFORMAT
  1
GRIDFORMAT_BEGIN
 90
        0
 91
        1
 62
     0
 92
       -2
340
0
 93
        0
 40
1.125
309
GRIDFORMAT_END
309
TABLEFORMAT_END
  1
CELLSTYLE_BEGIN
 90
        3
 91
        2
300
_DATA
309
CELLSTYLE_END
  0
ENDSEC
  0
SECTION
  2
ACDSDATA
 70
     2
 71
     8
  0
ACDSSCHEMA
 90
        0
  1
AcDb_Thumbnail_Schema
  2
AcDbDs::ID
280
    10
 91
        8
  2
Thumbnail_Data
280
    15
 91
        0
101
ACDSRECORD
 95
        0
 90
        1
  2
AcDbDs::TreatedAsObjectData
280
     1
291
     1
101
ACDSRECORD
 95
        0
 90
        2
  2
AcDbDs::Legacy
280
     1
291
     1
101
ACDSRECORD
  1
AcDbDs::ID
 90
        3
  2
AcDs:Indexable
280
     1
291
     1
101
ACDSRECORD
  1
AcDbDs::ID
 90
        4
  2
AcDbDs::HandleAttribute
280
     7
282
     1
  0
ACDSSCHEMA
 90
        1
  1
AcDbDs::TreatedAsObjectDataSchema
  2
AcDbDs::TreatedAsObjectData
280
     1
 91
        0
  0
ACDSSCHEMA
 90
        2
  1
AcDbDs::LegacySchema
  2
AcDbDs::Legacy
280
     1
 91
        0
  0
ACDSSCHEMA
 90
        3
  1
AcDbDs::IndexedPropertySchema
  2
AcDs:Indexable
280
     1
 91
        0
  0
ACDSSCHEMA
 90
        4
  1
AcDbDs::HandleAttributeSchema
  2
AcDbDs::HandleAttribute
280
     7
 91
        1
284
     1
  0
ACDSRECORD
 90
        0
  2
AcDbDs::ID
280
    10
320
A
  2
Thumbnail_Data
280
    15
 94
     2489
310
89504E470D0A1A0A0000000D4948445200000100000000C10803000000176F9EF100000300504C5445212830000000FFFFFF0000000000000000000000000000000000000000000000000000330000660000990000CC0000FF0033000033330033660033990033CC0033FF0066000066330066660066990066CC0066FF0099
310
000099330099660099990099CC0099FF00CC0000CC3300CC6600CC9900CCCC00CCFF00FF0000FF3300FF6600FF9900FFCC00FFFF3300003300333300663300993300CC3300FF3333003333333333663333993333CC3333FF3366003366333366663366993366CC3366FF3399003399333399663399993399CC3399FF33CC00
310
33CC3333CC6633CC9933CCCC33CCFF33FF0033FF3333FF6633FF9933FFCC33FFFF6600006600336600666600996600CC6600FF6633006633336633666633996633CC6633FF6666006666336666666666996666CC6666FF6699006699336699666699996699CC6699FF66CC0066CC3366CC6666CC9966CCCC66CCFF66FF0066
310
FF3366FF6666FF9966FFCC66FFFF9900009900339900669900999900CC9900FF9933009933339933669933999933CC9933FF9966009966339966669966999966CC9966FF9999009999339999669999999999CC9999FF99CC0099CC3399CC6699CC9999CCCC99CCFF99FF0099FF3399FF6699FF9999FFCC99FFFFCC0000CC00
310
33CC0066CC0099CC00CCCC00FFCC3300CC3333CC3366CC3399CC33CCCC33FFCC6600CC6633CC6666CC6699CC66CCCC66FFCC9900CC9933CC9966CC9999CC99CCCC99FFCCCC00CCCC33CCCC66CCCC99CCCCCCCCCCFFCCFF00CCFF33CCFF66CCFF99CCFFCCCCFFFFFF0000FF0033FF0066FF0099FF00CCFF00FFFF3300FF3333
310
FF3366FF3399FF33CCFF33FFFF6600FF6633FF6666FF6699FF66CCFF66FFFF9900FF9933FF9966FF9999FF99CCFF99FFFFCC00FFCC33FFCC66FFCC99FFCCCCFFCCFFFFFF00FFFF33FFFF66FFFF99FFFFCCFFFFFF0000000D0D0D1A1A1A2828283535354343435050505D5D5D6B6B6B787878868686939393A1A1A1AEAEAEBB
310
BBBBC9C9C9D6D6D6E4E4E4F1F1F1FFFFFF0000000000000000000000000000000000000000000000000000000000007BFF0FCC000006744944415478DAED9D5976C5200886590EFB5F4056E236786F3398AB1915499488A7A7ED6D9B5CFD02BF884301AC00B84ECB0F403DF644159FBB01A80F80A82281462CA01D00758488
310
EAE9DF0E404FFD9E01300006C00018000360000C8001300006C000180003C00730445F7A03403467B4A86A62CB0054740182616A380D0406401780D1661B02F0BA070902188B1B1C1516A50086E1FF63189C734351A1F1361A012C8F2E9C6754E20242819037E081B4B94063A170F7006C3064000C8001300006C000180003
310
60005A0380FFC500740B007D595EF60720FC7A6C0BC3B70190071059429C0FA9507B7C0B80CFD5E042000EFFE0FDF60BE85212803955F9DFC4A9FD07D2805342B346FBF1450BF847B07D435C7F3F42520960CEE6DFF702E35FEEDF6E7DED27465E0600F492058C2D47A4A13100A353E2D30026331B3FC6D98FF6001423B8B7
310
005CC5763FF1270680D30AC2B56FC2872D60519B4701201F40513C90AE010F024096090491C7E300E62EFE2900CCEE8CE02300B8DDF95700CC3D4CD70098D5FF9005740E00BA065010C3E807308DAFA15B00589A4459013C1B0A3F0060CEA08C1906EC14409466EB0E80AFEEE402B3081686C2B50084D5CE0730A67368CDB2
310
7210A806B00CE3310290D90E2100492B459F0030E518FDB3AF09E06D0B982F1C5B4FD15DB2BD40280EE05B007001403C91B2DEA50E00287001280000C5A57E24C8D600FC08006620848020B1D6406B4E90DDEF7F0500AC6150A11F0442AA7134881200A6093B9D008A2D600EA7A6681A492380320D58666A1637C08261B52C
310
80E47D3F852A88BF8E700AAA897F169D380078BE20EE6490CF401F80D072C2B7633268616E90DBFCC3003B9781320077BA41D90CC40020557EFC1B061F0490DE6DE4C8811E0079FDA66740AF02C087970CE7850E6976200580FE01203CBE661AB319C801C02B00E38A25040100F79E8B7E2A2173C85C0E0069B71C360480EF
310
6D9FF779641470993D80284718001808B700705786D2F28F3039AB7263066936E2C636B9F065B47638D48031914F67E1C96800EFB840945B447ECC148E27620B3813C1D375A94B5548A6C82862B258BAB8C1F7BD006E5735FAB99D938E2227CCCD9F1D3A63907E17463718CB8F7F5507C0F1B3CEB949EA8689B0538D3790F9
310
D9DEF93705FB2638F383476690778B9C3D43411AFA57532F44B876862500B899A2E0AACCCB135D60AB4FA10FF82FCBB6A2C2939090CF2FFFF1E7B9C07545670B285CF60345196E96F5B0011C577CD959560700EBDA9C5E20E5CD87D28CEFDBDB72C5B6CF63386AE81800EE23850E01F0F7007C0540810EEA0580325B591503
310
40E81D40E716B024467A068012B5570C40E69C19E500501F00996375EF2B8E90269206402D00A9A23C14EE57047DEA04941503200AA0D2F9E04D01E8DE027AD700300006C00018006655E27F407EFDDD17FFF7B88B03A9EBEF8A0A356A01BD03A03AC52CC000980B980518007381262C60FDAFA5F3B69F75741D5AC0655352
310
D3316601DBD28A0690520D986D6FDEC75B901472A416C0D2FCE9C6C4AEA75E118C00408F1630B7DDEF63E7D6D302A1EE1322CB4ECFC53177DD7BCA3E5048DA7913EE7E901241012D3A0100FD0078CD0548D805A40048749C55B2C2DD0390EC05CA4C9B96CFB458FA1CE84F9FD4A4C5BDF0437E4DDCF1F0301824BAB62DA018
310
009C03005D00880980C1B83500D96DE202A05601C423EA320D58FD7F33DC080F9A690F4014F13D01A06D0DB8AF31F8D3C32E00C04974E04EF2507A342052F70B0B80E34469E300CEC214410087D113A9B2803C0DB8CF954B00F8A50383E39B283B7D7354FB0211844400525961DF669F1FA3ECF468E189224CC39507E02775
310
B22DC0FD7A002A1C0BC0810FEC84413C2D1ECC0F04DF732C00E2384D00C0F9C8B9A938C0CF091603D8F70267E2D0E26028547B1D00840E497A6130543D25F67046A8D6BCC03316E08ADD2994E8830AB8F65C2074D36700D036066CAE17384B12D31266FE5E50302ADCA175678F67F7376D018073009B2352D7A61C9B954BB6
310
92765362070088C2A06B3D36F520DE728916A708C0AA0DDBE8EEF0E4D434175004E0774C308512102CCD39BFF877FEBE6A00EBD1E91B0F381E762915C147E2004522F87A99E60C9BB580B3282BFE19ECC63B8160D0655E6A1E7D2A04B01DE36D5EC07659C94D00AB034038BCDDE95AD82BFED253B700DC2FE26E19C083EF77
310
014068F9CD7B6A5670DD11809B1468C16FE9724CC9BDB4A84EAD00202D001296E0F1AE25BEF17CC20280F8EC2401D492A3CAEF0A5600FE00F3DB5C0CCD7FBFF90000000049454E44AE426082
  0
ENDSEC
  0
EOF
