  0
SECTION
  2
HEADER
  9
$ACADVER
  1
AC1027
  9
$ACADMAINTVER
 70
   125
  9
$DWGCODEPAGE
  3
ANSI_1252
  9
$LASTSAVEDBY
  1
fleminab
  9
$REQUIREDVERSIONS
160
                 0
  9
$INSBASE
 10
0.0
 20
0.0
 30
0.0
  9
$EXTMIN
 10
8370.34579249868
 20
130.9564335245304
 30
-0.0015258207003583
  9
$EXTMAX
 10
9313.466610187454
 20
1050.170221236185
 30
0.0000000349246037
  9
$LIMMIN
 10
0.0
 20
0.0
  9
$LIMMAX
 10
420.0
 20
297.0
  9
$ORTHOMODE
 70
     0
  9
$REGENMODE
 70
     1
  9
$FILLMODE
 70
     1
  9
$QTEXTMODE
 70
     0
  9
$MIRRTEXT
 70
     0
  9
$LTSCALE
 40
1.0
  9
$ATTMODE
 70
     1
  9
$TEXTSIZE
 40
2.5
  9
$TRACEWID
 40
1.0
  9
$TEXTSTYLE
  7
Standard
  9
$CLAYER
  8
0
  9
$CELTYPE
  6
ByLayer
  9
$CECOLOR
 62
   256
  9
$CELTSCALE
 40
1.0
  9
$DISPSILH
 70
     0
  9
$DIMSCALE
 40
1.0
  9
$DIMASZ
 40
20.0
  9
$DIMEXO
 40
2.0
  9
$DIMDLI
 40
10.0
  9
$DIMRND
 40
0.0
  9
$DIMDLE
 40
0.0
  9
$DIMEXE
 40
2.0
  9
$DIMTP
 40
0.0
  9
$DIMTM
 40
0.0
  9
$DIMTXT
 40
15.0
  9
$DIMCEN
 40
10.0
  9
$DIMTSZ
 40
0.0
  9
$DIMTOL
 70
     0
  9
$DIMLIM
 70
     0
  9
$DIMTIH
 70
     0
  9
$DIMTOH
 70
     0
  9
$DIMSE1
 70
     0
  9
$DIMSE2
 70
     0
  9
$DIMTAD
 70
     1
  9
$DIMZIN
 70
     8
  9
$DIMBLK
  1

  9
$DIMASO
 70
     1
  9
$DIMSHO
 70
     1
  9
$DIMPOST
  1

  9
$DIMAPOST
  1
mm
  9
$DIMALT
 70
     0
  9
$DIMALTD
 70
     2
  9
$DIMALTF
 40
25.4
  9
$DIMLFAC
 40
1.0
  9
$DIMTOFL
 70
     1
  9
$DIMTVP
 40
0.0
  9
$DIMTIX
 70
     0
  9
$DIMSOXD
 70
     0
  9
$DIMSAH
 70
     0
  9
$DIMBLK1
  1

  9
$DIMBLK2
  1

  9
$DIMSTYLE
  2
N915
  9
$DIMCLRD
 70
     0
  9
$DIMCLRE
 70
     0
  9
$DIMCLRT
 70
     0
  9
$DIMTFAC
 40
1.0
  9
$DIMGAP
 40
2.0
  9
$DIMJUST
 70
     0
  9
$DIMSD1
 70
     0
  9
$DIMSD2
 70
     0
  9
$DIMTOLJ
 70
     1
  9
$DIMTZIN
 70
     0
  9
$DIMALTZ
 70
     0
  9
$DIMALTTZ
 70
     0
  9
$DIMUPT
 70
     1
  9
$DIMDEC
 70
     2
  9
$DIMTDEC
 70
     2
  9
$DIMALTU
 70
     2
  9
$DIMALTTD
 70
     2
  9
$DIMTXSTY
  7
Standard
  9
$DIMAUNIT
 70
     0
  9
$DIMADEC
 70
     1
  9
$DIMALTRND
 40
0.0
  9
$DIMAZIN
 70
     0
  9
$DIMDSEP
 70
    46
  9
$DIMATFIT
 70
     3
  9
$DIMFRAC
 70
     0
  9
$DIMLDRBLK
  1

  9
$DIMLUNIT
 70
     2
  9
$DIMLWD
 70
    -2
  9
$DIMLWE
 70
    -2
  9
$DIMTMOVE
 70
     0
  9
$DIMFXL
 40
1.0
  9
$DIMFXLON
 70
     0
  9
$DIMJOGANG
 40
0.7853981633974483
  9
$DIMTFILL
 70
     0
  9
$DIMTFILLCLR
 70
     0
  9
$DIMARCSYM
 70
     0
  9
$DIMLTYPE
  6

  9
$DIMLTEX1
  6

  9
$DIMLTEX2
  6

  9
$DIMTXTDIRECTION
 70
     0
  9
$LUNITS
 70
     2
  9
$LUPREC
 70
     4
  9
$SKETCHINC
 40
1.0
  9
$FILLETRAD
 40
15.0
  9
$AUNITS
 70
     0
  9
$AUPREC
 70
     0
  9
$MENU
  1
.
  9
$ELEVATION
 40
0.0
  9
$PELEVATION
 40
0.0
  9
$THICKNESS
 40
0.0
  9
$LIMCHECK
 70
     0
  9
$CHAMFERA
 40
0.0
  9
$CHAMFERB
 40
0.0
  9
$CHAMFERC
 40
0.0
  9
$CHAMFERD
 40
0.0
  9
$SKPOLY
 70
     0
  9
$TDCREATE
 40
2455146.636087963
  9
$TDUCREATE
 40
2455146.177762939
  9
$TDUPDATE
 40
2458015.546481481
  9
$TDUUPDATE
 40
2458015.129814815
  9
$TDINDWG
 40
0.0452327431
  9
$TDUSRTIMER
 40
0.0452327431
  9
$USRTIMER
 70
     1
  9
$ANGBASE
 50
0.0
  9
$ANGDIR
 70
     0
  9
$PDMODE
 70
     0
  9
$PDSIZE
 40
0.0
  9
$PLINEWID
 40
0.0
  9
$SPLFRAME
 70
     0
  9
$SPLINETYPE
 70
     6
  9
$SPLINESEGS
 70
     8
  9
$HANDSEED
  5
4921
  9
$SURFTAB1
 70
     6
  9
$SURFTAB2
 70
     6
  9
$SURFTYPE
 70
     6
  9
$SURFU
 70
     6
  9
$SURFV
 70
     6
  9
$UCSBASE
  2

  9
$UCSNAME
  2

  9
$UCSORG
 10
0.0
 20
0.0
 30
0.0
  9
$UCSXDIR
 10
1.0
 20
0.0
 30
0.0
  9
$UCSYDIR
 10
0.0
 20
1.0
 30
0.0
  9
$UCSORTHOREF
  2

  9
$UCSORTHOVIEW
 70
     0
  9
$UCSORGTOP
 10
0.0
 20
0.0
 30
0.0
  9
$UCSORGBOTTOM
 10
0.0
 20
0.0
 30
0.0
  9
$UCSORGLEFT
 10
0.0
 20
0.0
 30
0.0
  9
$UCSORGRIGHT
 10
0.0
 20
0.0
 30
0.0
  9
$UCSORGFRONT
 10
0.0
 20
0.0
 30
0.0
  9
$UCSORGBACK
 10
0.0
 20
0.0
 30
0.0
  9
$PUCSBASE
  2

  9
$PUCSNAME
  2

  9
$PUCSORG
 10
0.0
 20
0.0
 30
0.0
  9
$PUCSXDIR
 10
1.0
 20
0.0
 30
0.0
  9
$PUCSYDIR
 10
0.0
 20
1.0
 30
0.0
  9
$PUCSORTHOREF
  2

  9
$PUCSORTHOVIEW
 70
     0
  9
$PUCSORGTOP
 10
0.0
 20
0.0
 30
0.0
  9
$PUCSORGBOTTOM
 10
0.0
 20
0.0
 30
0.0
  9
$PUCSORGLEFT
 10
0.0
 20
0.0
 30
0.0
  9
$PUCSORGRIGHT
 10
0.0
 20
0.0
 30
0.0
  9
$PUCSORGFRONT
 10
0.0
 20
0.0
 30
0.0
  9
$PUCSORGBACK
 10
0.0
 20
0.0
 30
0.0
  9
$USERI1
 70
     0
  9
$USERI2
 70
     0
  9
$USERI3
 70
     0
  9
$USERI4
 70
     0
  9
$USERI5
 70
     0
  9
$USERR1
 40
0.0
  9
$USERR2
 40
0.0
  9
$USERR3
 40
0.0
  9
$USERR4
 40
0.0
  9
$USERR5
 40
2.5
  9
$WORLDVIEW
 70
     1
  9
$SHADEDGE
 70
     3
  9
$SHADEDIF
 70
    70
  9
$TILEMODE
 70
     1
  9
$MAXACTVP
 70
    64
  9
$PINSBASE
 10
0.0
 20
0.0
 30
0.0
  9
$PLIMCHECK
 70
     0
  9
$PEXTMIN
 10
4.97734458046716
 20
55.97694212324916
 30
-0.0015258207003583
  9
$PEXTMAX
 10
185.0043130582636
 20
287.0072081488981
 30
0.0000000349246037
  9
$PLIMMIN
 10
-127.4182497939359
 20
-10.82665186583117
  9
$PLIMMAX
 10
307.2197102571284
 20
296.663184041771
  9
$UNITMODE
 70
     0
  9
$VISRETAIN
 70
     1
  9
$PLINEGEN
 70
     0
  9
$PSLTSCALE
 70
     1
  9
$TREEDEPTH
 70
  3020
  9
$CMLSTYLE
  2
Standard
  9
$CMLJUST
 70
     0
  9
$CMLSCALE
 40
20.0
  9
$PROXYGRAPHICS
 70
     1
  9
$MEASUREMENT
 70
     1
  9
$CELWEIGHT
370
    -1
  9
$ENDCAPS
280
     0
  9
$JOINSTYLE
280
     0
  9
$LWDISPLAY
290
     0
  9
$INSUNITS
 70
     4
  9
$HYPERLINKBASE
  1

  9
$STYLESHEET
  1

  9
$XEDIT
290
     1
  9
$CEPSNTYPE
380
     0
  9
$PSTYLEMODE
290
     1
  9
$FINGERPRINTGUID
  2
{2F5B2D13-79D4-450D-8442-A0C3616ECF58}
  9
$VERSIONGUID
  2
{73EB20D4-F33C-EB4F-A55B-9D082EA44895}
  9
$EXTNAMES
290
     1
  9
$PSVPSCALE
 40
0.0
  9
$OLESTARTUP
290
     0
  9
$SORTENTS
280
   127
  9
$INDEXCTL
280
     0
  9
$HIDETEXT
280
     1
  9
$XCLIPFRAME
280
     0
  9
$HALOGAP
280
     0
  9
$OBSCOLOR
 70
   257
  9
$OBSLTYPE
280
     0
  9
$INTERSECTIONDISPLAY
280
     0
  9
$INTERSECTIONCOLOR
 70
   257
  9
$DIMASSOC
280
     2
  9
$PROJECTNAME
  1

  9
$CAMERADISPLAY
290
     0
  9
$LENSLENGTH
 40
50.0
  9
$CAMERAHEIGHT
 40
0.0
  9
$STEPSPERSEC
 40
2.0
  9
$STEPSIZE
 40
6.0
  9
$3DDWFPREC
 40
2.0
  9
$PSOLWIDTH
 40
5.0
  9
$PSOLHEIGHT
 40
80.0
  9
$LOFTANG1
 40
1.570796326794896
  9
$LOFTANG2
 40
1.570796326794896
  9
$LOFTMAG1
 40
0.0
  9
$LOFTMAG2
 40
0.0
  9
$LOFTPARAM
 70
     7
  9
$LOFTNORMALS
280
     1
  9
$LATITUDE
 40
37.795
  9
$LONGITUDE
 40
-122.394
  9
$NORTHDIRECTION
 40
0.0
  9
$TIMEZONE
 70
 -8000
  9
$LIGHTGLYPHDISPLAY
280
     1
  9
$TILEMODELIGHTSYNCH
280
     1
  9
$CMATERIAL
347
2A9
  9
$SOLIDHIST
280
     1
  9
$SHOWHIST
280
     1
  9
$DWFFRAME
280
     2
  9
$DGNFRAME
280
     0
  9
$REALWORLDSCALE
290
     1
  9
$INTERFERECOLOR
 62
     1
  9
$INTERFEREOBJVS
345
2B6
  9
$INTERFEREVPVS
346
48C5
  9
$CSHADOW
280
     0
  9
$SHADOWPLANELOCATION
 40
0.0
  0
ENDSEC
  0
SECTION
  2
CLASSES
  0
CLASS
  1
ACDBDICTIONARYWDFLT
  2
AcDbDictionaryWithDefault
  3
ObjectDBX Classes
 90
        0
 91
        1
280
     0
281
     0
  0
CLASS
  1
DICTIONARYVAR
  2
AcDbDictionaryVar
  3
ObjectDBX Classes
 90
        0
 91
       19
280
     0
281
     0
  0
CLASS
  1
TABLESTYLE
  2
AcDbTableStyle
  3
ObjectDBX Classes
 90
     4095
 91
        1
280
     0
281
     0
  0
CLASS
  1
MATERIAL
  2
AcDbMaterial
  3
ObjectDBX Classes
 90
     1153
 91
        3
280
     0
281
     0
  0
CLASS
  1
VISUALSTYLE
  2
AcDbVisualStyle
  3
ObjectDBX Classes
 90
     4095
 91
       26
280
     0
281
     0
  0
CLASS
  1
VLO-VL
  2
vlo_VL
  3
VL|AutoLISP based application
 90
      129
 91
        1
280
     0
281
     0
  0
CLASS
  1
DIMASSOC
  2
AcDbDimAssoc
  3
"AcDbDimAssoc|Product Desc:     AcDim ARX App For Dimension|Company:          Autodesk, Inc.|WEB Address:      www.autodesk.com"
 90
        0
 91
       16
280
     0
281
     0
  0
CLASS
  1
SORTENTSTABLE
  2
AcDbSortentsTable
  3
ObjectDBX Classes
 90
        0
 91
        1
280
     0
281
     0
  0
CLASS
  1
SCALE
  2
AcDbScale
  3
ObjectDBX Classes
 90
     1153
 91
       17
280
     0
281
     0
  0
CLASS
  1
MLEADERSTYLE
  2
AcDbMLeaderStyle
  3
ACDB_MLEADERSTYLE_CLASS
 90
     4095
 91
        1
280
     0
281
     0
  0
CLASS
  1
ACDBSECTIONVIEWSTYLE
  2
AcDbSectionViewStyle
  3
ObjectDBX Classes
 90
     1025
 91
        1
280
     0
281
     0
  0
CLASS
  1
ACDBDETAILVIEWSTYLE
  2
AcDbDetailViewStyle
  3
ObjectDBX Classes
 90
     1025
 91
        1
280
     0
281
     0
  0
CLASS
  1
CELLSTYLEMAP
  2
AcDbCellStyleMap
  3
ObjectDBX Classes
 90
     1152
 91
        1
280
     0
281
     0
  0
ENDSEC
  0
SECTION
  2
TABLES
  0
TABLE
  2
VPORT
  5
8
330
0
100
AcDbSymbolTable
 70
     1
1001
ACAD
1000
DbSaveVer
1071
        5
  0
VPORT
  5
28F
330
8
100
AcDbSymbolTableRecord
100
AcDbViewportTableRecord
  2
*Active
 70
     0
 10
0.0
 20
0.0
 11
1.0
 21
1.0
 12
8841.906201343066
 22
590.5633273803577
 13
0.0
 23
0.0
 14
10.0
 24
10.0
 15
10.0
 25
10.0
 16
0.0
 26
0.0
 36
1.0
 17
0.0
 27
0.0
 37
0.0
 40
925.7952706785641
 41
2.292712066905615
 42
50.0
 43
0.0
 44
0.0
 50
0.0
 51
0.0
 71
     0
 72
  1000
 73
     1
 74
     3
 75
     0
 76
     0
 77
     0
 78
     0
281
     0
 65
     1
110
0.0
120
0.0
130
0.0
111
1.0
121
0.0
131
0.0
112
0.0
122
1.0
132
0.0
 79
     0
146
0.0
348
2B2
 60
     3
 61
     5
292
     1
282
     1
141
0.0
142
0.0
 63
   250
421
  3355443
1001
ACAD_NAV_VCDISPLAY
1070
     3
  0
ENDTAB
  0
TABLE
  2
LTYPE
  5
5
330
0
100
AcDbSymbolTable
 70
     4
  0
LTYPE
  5
14
330
5
100
AcDbSymbolTableRecord
100
AcDbLinetypeTableRecord
  2
ByBlock
 70
     0
  3

 72
    65
 73
     0
 40
0.0
  0
LTYPE
  5
15
330
5
100
AcDbSymbolTableRecord
100
AcDbLinetypeTableRecord
  2
ByLayer
 70
     0
  3

 72
    65
 73
     0
 40
0.0
  0
LTYPE
  5
16
330
5
100
AcDbSymbolTableRecord
100
AcDbLinetypeTableRecord
  2
Continuous
 70
     0
  3
Solid line
 72
    65
 73
     0
 40
0.0
  0
LTYPE
  5
644
330
5
100
AcDbSymbolTableRecord
100
AcDbLinetypeTableRecord
  2
CENTER
 70
     0
  3
____ _ ____ _ ____ _ ____ _ ____ _ ____ _ ____
 72
    65
 73
     4
 40
0.6
 49
0.375
 74
     0
 49
-0.075
 74
     0
 49
0.075
 74
     0
 49
-0.075
 74
     0
  0
LTYPE
  5
645
330
5
100
AcDbSymbolTableRecord
100
AcDbLinetypeTableRecord
  2
DIVIDE
 70
     0
  3
Divide ____ . . ____ . . ____ . . ____ . . ____
 72
    65
 73
     6
 40
31.75
 49
12.7
 74
     0
 49
-6.349999999999999
 74
     0
 49
0.0
 74
     0
 49
-6.349999999999999
 74
     0
 49
0.0
 74
     0
 49
-6.349999999999999
 74
     0
  0
LTYPE
  5
1663
330
5
100
AcDbSymbolTableRecord
100
AcDbLinetypeTableRecord
  2
PHANTOM
 70
     0
  3
Phantom ______  __  __  ______  __  __  ______
 72
    65
 73
     6
 40
63.5
 49
31.75
 74
     0
 49
-6.349999999999999
 74
     0
 49
6.349999999999999
 74
     0
 49
-6.349999999999999
 74
     0
 49
6.349999999999999
 74
     0
 49
-6.349999999999999
 74
     0
  0
ENDTAB
  0
TABLE
  2
LAYER
  5
2
102
{ACAD_XDICTIONARY
360
289
102
}
330
0
100
AcDbSymbolTable
 70
     8
  0
LAYER
  5
10
102
{ACAD_XDICTIONARY
360
48F6
102
}
330
2
100
AcDbSymbolTableRecord
100
AcDbLayerTableRecord
  2
0
 70
     0
 62
     7
  6
Continuous
370
    -3
390
F
347
2AB
348
0
  0
LAYER
  5
194
102
{ACAD_XDICTIONARY
360
48F8
102
}
330
2
100
AcDbSymbolTableRecord
100
AcDbLayerTableRecord
  2
图框_标题栏文字
 70
     0
 62
     6
  6
Continuous
370
    -3
390
F
347
2AB
348
0
1001
AcadStringInfo
1000
MIFCodePage
1070
     5
  0
LAYER
  5
195
102
{ACAD_XDICTIONARY
360
48FA
102
}
330
2
100
AcDbSymbolTableRecord
100
AcDbLayerTableRecord
  2
图框_标题栏属性
 70
     0
 62
     1
  6
Continuous
370
    -3
390
F
347
2AB
348
0
1001
AcadStringInfo
1000
MIFCodePage
1070
     5
  0
LAYER
  5
196
102
{ACAD_XDICTIONARY
360
48FC
102
}
330
2
100
AcDbSymbolTableRecord
100
AcDbLayerTableRecord
  2
图框_角线
 70
     0
 62
     5
  6
Continuous
370
   200
390
F
347
2AB
348
0
1001
AcadStringInfo
1000
MIFCodePage
1070
     5
  0
LAYER
  5
197
102
{ACAD_XDICTIONARY
360
48FE
102
}
330
2
100
AcDbSymbolTableRecord
100
AcDbLayerTableRecord
  2
图框_内框线
 70
     0
 62
     5
  6
Continuous
370
    50
390
F
347
2AB
348
0
1001
AcadStringInfo
1000
MIFCodePage
1070
     5
  0
LAYER
  5
198
102
{ACAD_XDICTIONARY
360
4900
102
}
330
2
100
AcDbSymbolTableRecord
100
AcDbLayerTableRecord
  2
图框_视口
 70
     4
 62
     7
  6
Continuous
370
    -3
390
F
347
2AB
348
0
1001
AcadStringInfo
1000
MIFCodePage
1070
     5
  0
LAYER
  5
199
102
{ACAD_XDICTIONARY
360
4902
102
}
330
2
100
AcDbSymbolTableRecord
100
AcDbLayerTableRecord
  2
图框_外框线
 70
     0
 62
     7
  6
Continuous
370
    -3
390
F
347
2AB
348
0
1001
AcadStringInfo
1000
MIFCodePage
1070
     5
  0
LAYER
  5
646
330
2
100
AcDbSymbolTableRecord
100
AcDbLayerTableRecord
  2
Defpoints
 70
     0
 62
     7
  6
Continuous
290
     0
370
    -3
390
F
347
2AB
348
0
  0
ENDTAB
  0
TABLE
  2
STYLE
  5
3
330
0
100
AcDbSymbolTable
 70
     5
  0
STYLE
  5
11
330
3
100
AcDbSymbolTableRecord
100
AcDbTextStyleTableRecord
  2
Standard
 70
     0
 40
0.0
 41
1.0
 50
0.0
 71
     0
 42
2.5
  3
txt.shx
  4
gbcbig.shx
  0
STYLE
  5
6B
330
3
100
AcDbSymbolTableRecord
100
AcDbTextStyleTableRecord
  2
工程字
 70
     0
 40
0.0
 41
1.0
 50
0.0
 71
     0
 42
5.0
  3
gbenor.shx
  4
gbcbig.shx
1001
AcadStringInfo
1000
MIFCodePage
1070
     5
  0
STYLE
  5
647
330
3
100
AcDbSymbolTableRecord
100
AcDbTextStyleTableRecord
  2
ROMANS
 70
     0
 40
0.0
 41
1.0
 50
10.0
 71
     0
 42
2.25
  3
romans
  4

  0
STYLE
  5
648
330
3
100
AcDbSymbolTableRecord
100
AcDbTextStyleTableRecord
  2
xs
 70
     0
 40
0.0
 41
0.6700000000000001
 50
0.0
 71
     0
 42
0.2
  3
NSimSun.ttf
  4

1001
ACAD
1000
NSimSun
1071
    34353
  0
STYLE
  5
649
330
3
100
AcDbSymbolTableRecord
100
AcDbTextStyleTableRecord
  2
ADESK2
 70
     0
 40
0.0
 41
1.0
 50
0.0
 71
     0
 42
0.065
  3
SimSun.ttf
  4

1001
ACAD
1000
SimSun
1071
    34306
  0
ENDTAB
  0
TABLE
  2
VIEW
  5
6
330
0
100
AcDbSymbolTable
 70
     0
  0
ENDTAB
  0
TABLE
  2
UCS
  5
7
330
0
100
AcDbSymbolTable
 70
     0
  0
ENDTAB
  0
TABLE
  2
APPID
  5
9
330
0
100
AcDbSymbolTable
 70
     6
  0
APPID
  5
12
330
9
100
AcDbSymbolTableRecord
100
AcDbRegAppTableRecord
  2
ACAD
 70
     0
  0
APPID
  5
82
330
9
100
AcDbSymbolTableRecord
100
AcDbRegAppTableRecord
  2
DCO15
 70
     0
  0
APPID
  5
64F
330
9
100
AcDbSymbolTableRecord
100
AcDbRegAppTableRecord
  2
ACAD_PSEXT
 70
     0
  0
APPID
  5
FB5
330
9
100
AcDbSymbolTableRecord
100
AcDbRegAppTableRecord
  2
ACAD_EXEMPT_FROM_CAD_STANDARDS
 70
     0
  0
APPID
  5
48E4
330
9
100
AcDbSymbolTableRecord
100
AcDbRegAppTableRecord
  2
AcadStringInfo
 70
     0
  0
APPID
  5
4904
330
9
100
AcDbSymbolTableRecord
100
AcDbRegAppTableRecord
  2
ACAD_NAV_VCDISPLAY
 70
     0
  0
ENDTAB
  0
TABLE
  2
DIMSTYLE
  5
A
330
0
100
AcDbSymbolTable
 70
     9
100
AcDbDimStyleTable
 71
     3
340
64D
340
64B
340
19A
  0
DIMSTYLE
105
19A
330
A
100
AcDbSymbolTableRecord
100
AcDbDimStyleTableRecord
  2
GB-35
 70
     0
 41
3.5
 42
0.875
 43
5.25
 44
1.75
 73
     0
 74
     0
 77
     1
 78
     8
140
3.5
141
3.5
143
0.0394
146
0.7
147
0.875
171
     4
172
     1
271
     2
272
     2
273
     8
274
     4
283
     0
340
6B
  0
DIMSTYLE
105
64A
330
A
100
AcDbSymbolTableRecord
100
AcDbDimStyleTableRecord
  2
N6_iso
 70
     0
 41
5.0
 42
1.0
 43
10.0
 44
1.0
 73
     0
140
6.0
141
3.0
147
1.0
179
     1
271
     2
272
     2
340
11
  0
DIMSTYLE
105
64B
102
{ACAD_REACTORS
330
1C7D
330
1C80
330
1AE5
330
1AE8
330
1AEB
330
1AEE
330
1AEF
330
1AF2
330
1AFE
330
1B01
330
1B04
330
1B0A
330
1B6E
330
1C3B
102
}
330
A
100
AcDbSymbolTableRecord
100
AcDbDimStyleTableRecord
  2
N915iso
 70
     0
 41
20.0
 42
2.0
 43
10.0
 44
2.0
 73
     0
 77
     1
 78
     8
140
15.0
141
10.0
147
2.0
172
     1
179
     1
271
     2
272
     2
288
     1
340
11
  0
DIMSTYLE
105
64C
330
A
100
AcDbSymbolTableRecord
100
AcDbDimStyleTableRecord
  2
ISO-25
 70
     0
  3
mm
 41
25.0
 42
5.0
 43
3.75
 44
5.0
 73
     0
 77
     1
 78
     8
140
20.0
141
2.5
143
0.03937007874016
147
5.0
171
     3
172
     1
271
     2
272
     2
274
     3
278
    44
283
     0
284
     8
340
11
  0
DIMSTYLE
105
64D
102
{ACAD_REACTORS
330
1AFB
330
1B07
330
1B0B
330
1B6A
330
1C38
102
}
330
A
100
AcDbSymbolTableRecord
100
AcDbDimStyleTableRecord
  2
N915
 70
     0
  4
mm
 41
20.0
 42
2.0
 43
10.0
 44
2.0
 73
     0
 74
     0
 77
     1
 78
     8
140
15.0
141
10.0
147
2.0
172
     1
179
     1
271
     2
272
     2
288
     1
340
11
  0
DIMSTYLE
105
64E
330
A
100
AcDbSymbolTableRecord
100
AcDbDimStyleTableRecord
  2
-25
 70
     0
  3
M<>
 41
13.0
 42
0.625
 43
3.75
 44
1.25
 49
1.25
 50
90.0
 73
     0
 74
     0
 77
     1
 78
     8
140
30.0
141
2.5
143
0.03937007874016
147
1.0
171
     3
172
     1
179
     2
271
     2
272
     2
274
     3
278
    44
283
     0
284
     8
340
11
  0
DIMSTYLE
105
1664
330
A
100
AcDbSymbolTableRecord
100
AcDbDimStyleTableRecord
  2
ISO-25-iso
 70
     0
 41
25.0
 42
0.625
 43
3.75
 44
1.25
 49
1.25
 50
90.0
 73
     0
 77
     1
 78
     8
140
20.0
141
2.5
143
0.03937007874016
147
1.0
171
     3
172
     1
179
     2
271
     2
272
     2
274
     3
278
    44
283
     0
284
     8
340
648
  0
DIMSTYLE
105
1665
330
A
100
AcDbSymbolTableRecord
100
AcDbDimStyleTableRecord
  2
isoN912
 70
     0
  3
mm
 41
10.0
 42
2.0
 43
10.0
 44
2.0
 73
     0
140
12.0
141
0.0
147
2.0
179
     1
271
     2
272
     2
340
11
  0
DIMSTYLE
105
1666
330
A
100
AcDbSymbolTableRecord
100
AcDbDimStyleTableRecord
  2
ISO-25-1
 70
     0
  3
mm
 41
25.0
 42
5.0
 43
3.75
 44
5.0
 73
     0
 74
     0
 77
     1
 78
     8
140
20.0
141
2.5
143
0.03937007874016
147
5.0
171
     3
172
     1
271
     2
272
     2
274
     3
278
    44
283
     0
284
     8
340
11
  0
ENDTAB
  0
TABLE
  2
BLOCK_RECORD
  5
1
330
0
100
AcDbSymbolTable
 70
   122
  0
BLOCK_RECORD
  5
1F
102
{ACAD_XDICTIONARY
360
F99
102
}
330
1
100
AcDbSymbolTableRecord
100
AcDbBlockTableRecord
  2
*Model_Space
340
22
 70
     0
280
     1
281
     0
  0
BLOCK_RECORD
  5
72
330
1
100
AcDbSymbolTableRecord
100
AcDbBlockTableRecord
  2
*Paper_Space
340
71
 70
     0
280
     1
281
     0
  0
BLOCK_RECORD
  5
145
330
1
100
AcDbSymbolTableRecord
100
AcDbBlockTableRecord
  2
GB_A4 title block
340
0
310
2800000020000000200000000100080000000000000400000000000000000000000000000000000000000000000080000080000000808000800000008000800080800000C0C0C000C0DCC000F0CAA6000020400000206000002080000020A0000020C0000020E00000400000004020000040400000406000004080000040A0
310
000040C0000040E00000600000006020000060400000606000006080000060A0000060C0000060E00000800000008020000080400000806000008080000080A0000080C0000080E00000A0000000A0200000A0400000A0600000A0800000A0A00000A0C00000A0E00000C0000000C0200000C0400000C0600000C0800000C0
310
A00000C0C00000C0E00000E0000000E0200000E0400000E0600000E0800000E0A00000E0C00000E0E00040000000400020004000400040006000400080004000A0004000C0004000E00040200000402020004020400040206000402080004020A0004020C0004020E000404000004040200040404000404060004040800040
310
40A0004040C0004040E00040600000406020004060400040606000406080004060A0004060C0004060E00040800000408020004080400040806000408080004080A0004080C0004080E00040A0000040A0200040A0400040A0600040A0800040A0A00040A0C00040A0E00040C0000040C0200040C0400040C0600040C08000
310
40C0A00040C0C00040C0E00040E0000040E0200040E0400040E0600040E0800040E0A00040E0C00040E0E00080000000800020008000400080006000800080008000A0008000C0008000E00080200000802020008020400080206000802080008020A0008020C0008020E00080400000804020008040400080406000804080
310
008040A0008040C0008040E00080600000806020008060400080606000806080008060A0008060C0008060E00080800000808020008080400080806000808080008080A0008080C0008080E00080A0000080A0200080A0400080A0600080A0800080A0A00080A0C00080A0E00080C0000080C0200080C0400080C0600080C0
310
800080C0A00080C0C00080C0E00080E0000080E0200080E0400080E0600080E0800080E0A00080E0C00080E0E000C0000000C0002000C0004000C0006000C0008000C000A000C000C000C000E000C0200000C0202000C0204000C0206000C0208000C020A000C020C000C020E000C0400000C0402000C0404000C0406000C0
310
408000C040A000C040C000C040E000C0600000C0602000C0604000C0606000C0608000C060A000C060C000C060E000C0800000C0802000C0804000C0806000C0808000C080A000C080C000C080E000C0A00000C0A02000C0A04000C0A06000C0A08000C0A0A000C0A0C000C0A0E000C0C00000C0C02000C0C04000C0C06000
310
C0C08000C0C0A000F0FBFF00A4A0A000808080000000FF0000FF000000FFFF00FF000000FF00FF00FFFF0000FFFFFF00FFFFFFFFFFFFFFFFFFFFFFFFFFFFFFFFFFFFFFFFFFFFFFFFFFFFFFFFFFFFFFFFFFFFFFFFFFFF0000000000000000000000000000000000000000FFFFFFFFFFFFFFFFFFFFFFFF00FFFDFD0000FD0000
310
00F9F9F9F9F900F9F90000FFFFFFFFFFFFFFFFFFFFFFFF00FFFDFD0000000000000000F9F9F9FFF9F9FF00FFFFFFFFFFFFFFFFFFFFFFFF00FFFDFD0000FDFD0000FDFDFDFDFD00F9F90000FFFFFFFFFFFFFFFFFFFFFFFF00FFFDFDFDFDFDFDFDFD00F9F9F90000F9F90000FFFFFFFFFFFFFFFFFFFFFFFF00FF000000000000
310
000000F9F9F900FFF9F9FF00FFFFFFFFFFFFFFFFFFFFFFFF00FF0000000000000000000000000000F9F90000FFFFFFFFFFFFFFFFFFFFFFFF00FFFCFFFFFFFFFFFFFFFFFFFFFFFFFFFFFFFF00FFFFFFFFFFFFFFFFFFFFFFFF00FFFCFFFFFFFFFFFFFFFFFFFFFFFFFFFFFFFF00FFFFFFFFFFFFFFFFFFFFFFFF00FFFCFFFFFFFF
310
FFFFFFFFFFFFFFFFFFFFFFFF00FFFFFFFFFFFFFFFFFFFFFFFF00FFFCFFFFFFFFFFFFFFFFFFFFFFFFFFFFFFFF00FFFFFFFFFFFFFFFFFFFFFFFF00FFFCFFFFFFFFFFFFFFFFFFFFFFFFFFFFFFFF00FFFFFFFFFFFFFFFFFFFFFFFF00FFFCFFFFFFFFFFFFFFFFFFFFFFFFFFFFFFFF00FFFFFFFFFFFFFFFFFFFFFFFF00FFFCFFFFFF
310
FFFFFFFFFFFFFFFFFFFFFFFFFF00FFFFFFFFFFFFFFFFFFFFFFFF00FCFCFFFFFFFFFFFFFFFFFFFFFFFFFFFFFFFF00FFFFFFFFFFFFFFFFFFFFFFFF00FFFCFFFFFFFFFFFFFFFFFFFFFFFFFFFFFFFF00FFFFFFFFFFFFFFFFFFFFFFFF00FFFCFFFFFFFFFFFFFFFFFFFFFFFFFFFFFFFF00FFFFFFFFFFFFFFFFFFFFFFFF00FFFCFFFF
310
FFFFFFFFFFFFFFFFFFFFFFFFFFFF00FFFFFFFFFFFFFFFFFFFFFFFF00FFFCFFFFFFFFFFFFFFFFFFFFFFFFFFFFFFFF00FFFFFFFFFFFFFFFFFFFFFFFF00FFFCFFFFFFFFFFFFFFFFFFFFFFFFFFFFFFFF00FFFFFFFFFFFFFFFFFFFFFFFF00FFFCFFFFFFFFFFFFFFFFFFFFFFFFFFFFFFFF00FFFFFFFFFFFFFFFFFFFFFFFF00FFFCFF
310
FFFFFFFFFFFFFFFFFFFFFFFFFFFFFF00FFFFFFFFFFFFFFFFFFFFFFFF00FFFCFFFFFFFFFFFFFFFFFFFFFFFFFFFFFFFF00FFFFFFFFFFFFFFFFFFFFFFFF00FFFCFFFFFFFFFFFFFFFFFFFFFFFFFFFFFFFF00FFFFFFFFFFFFFFFFFFFFFFFF00FFFCFFFFFFFFFFFFFFFFFFFFFFFFFFFFFFFF00FFFFFFFFFFFFFFFFFFFFFFFF00FFFC
310
FFFFFFFFFFFFFFFFFFFFFFFFFFFFFFFF00FFFFFFFFFFFFFFFFFFFFFFFF00FFFCFFFFFFFFFFFFFFFFFFFFFFFFFFFFFFFF00FFFFFFFFFFFFFFFFFFFFFFFF00FFFCFFFFFFFFFFFFFFFFFFFFFFFFFFFFFFFF00FFFFFFFFFFFFFFFFFFFFFFFF00FFFCFCFCFCFCFCFCFCFCFCFCFCFCFCFCFCFC00FFFFFFFFFFFFFFFFFFFFFFFF0000
310
000000000000000000000000000000000000FFFFFFFFFFFFFFFFFFFFFFFFFFFFFFFFFFFFFFFFFFFFFFFFFFFFFFFFFFFFFFFFFFFFFFFFFFFF
 70
     4
280
     1
281
     0
  0
BLOCK_RECORD
  5
1D37
330
1
100
AcDbSymbolTableRecord
100
AcDbBlockTableRecord
  2
*D8
340
0
 70
     0
280
     1
281
     0
  0
BLOCK_RECORD
  5
1D43
330
1
100
AcDbSymbolTableRecord
100
AcDbBlockTableRecord
  2
*D9
340
0
 70
     0
280
     1
281
     0
  0
BLOCK_RECORD
  5
1D51
330
1
100
AcDbSymbolTableRecord
100
AcDbBlockTableRecord
  2
*D10
340
0
 70
     0
280
     1
281
     0
  0
BLOCK_RECORD
  5
1E78
330
1
100
AcDbSymbolTableRecord
100
AcDbBlockTableRecord
  2
*D30
340
0
 70
     0
280
     1
281
     0
  0
BLOCK_RECORD
  5
1E81
330
1
100
AcDbSymbolTableRecord
100
AcDbBlockTableRecord
  2
*D31
340
0
 70
     0
280
     1
281
     0
  0
BLOCK_RECORD
  5
1F5A
330
1
100
AcDbSymbolTableRecord
100
AcDbBlockTableRecord
  2
*D46
340
0
 70
     0
280
     1
281
     0
  0
BLOCK_RECORD
  5
1F66
330
1
100
AcDbSymbolTableRecord
100
AcDbBlockTableRecord
  2
*D47
340
0
 70
     0
280
     1
281
     0
  0
BLOCK_RECORD
  5
1F72
330
1
100
AcDbSymbolTableRecord
100
AcDbBlockTableRecord
  2
*D48
340
0
 70
     0
280
     1
281
     0
  0
BLOCK_RECORD
  5
1F87
330
1
100
AcDbSymbolTableRecord
100
AcDbBlockTableRecord
  2
*D49
340
0
 70
     0
280
     1
281
     0
  0
BLOCK_RECORD
  5
1F93
330
1
100
AcDbSymbolTableRecord
100
AcDbBlockTableRecord
  2
*D50
340
0
 70
     0
280
     1
281
     0
  0
BLOCK_RECORD
  5
1FA1
330
1
100
AcDbSymbolTableRecord
100
AcDbBlockTableRecord
  2
*D51
340
0
 70
     0
280
     1
281
     0
  0
BLOCK_RECORD
  5
1FAF
330
1
100
AcDbSymbolTableRecord
100
AcDbBlockTableRecord
  2
*D52
340
0
 70
     0
280
     1
281
     0
  0
BLOCK_RECORD
  5
1FBB
330
1
100
AcDbSymbolTableRecord
100
AcDbBlockTableRecord
  2
*D53
340
0
 70
     0
280
     1
281
     0
  0
BLOCK_RECORD
  5
1FC7
330
1
100
AcDbSymbolTableRecord
100
AcDbBlockTableRecord
  2
*D54
340
0
 70
     0
280
     1
281
     0
  0
BLOCK_RECORD
  5
1FD3
330
1
100
AcDbSymbolTableRecord
100
AcDbBlockTableRecord
  2
*D55
340
0
 70
     0
280
     1
281
     0
  0
BLOCK_RECORD
  5
202D
330
1
100
AcDbSymbolTableRecord
100
AcDbBlockTableRecord
  2
*D59
340
0
 70
     0
280
     1
281
     0
  0
BLOCK_RECORD
  5
203B
330
1
100
AcDbSymbolTableRecord
100
AcDbBlockTableRecord
  2
*D60
340
0
 70
     0
280
     1
281
     0
  0
BLOCK_RECORD
  5
20F6
330
1
100
AcDbSymbolTableRecord
100
AcDbBlockTableRecord
  2
*D75
340
0
 70
     0
280
     1
281
     0
  0
BLOCK_RECORD
  5
2104
330
1
100
AcDbSymbolTableRecord
100
AcDbBlockTableRecord
  2
*D76
340
0
 70
     0
280
     1
281
     0
  0
ENDTAB
  0
ENDSEC
  0
SECTION
  2
BLOCKS
  0
BLOCK
  5
20
330
1F
100
AcDbEntity
  8
0
100
AcDbBlockBegin
  2
*Model_Space
 70
     0
 10
0.0
 20
0.0
 30
0.0
  3
*Model_Space
  1

  0
ENDBLK
  5
21
330
1F
100
AcDbEntity
  8
0
100
AcDbBlockEnd
  0
BLOCK
  5
76
330
72
100
AcDbEntity
 67
     1
  8
0
100
AcDbBlockBegin
  2
*Paper_Space
 70
     0
 10
0.0
 20
0.0
 30
0.0
  3
*Paper_Space
  1

  0
ENDBLK
  5
77
330
72
100
AcDbEntity
 67
     1
  8
0
100
AcDbBlockEnd
  0
BLOCK
  5
184
330
145
100
AcDbEntity
  8
0
100
AcDbBlockBegin
  2
GB_A4 title block
 70
     2
 10
0.0
 20
0.0
 30
0.0
  3
GB_A4 title block
  1

  0
LWPOLYLINE
  5
1EE
330
145
100
AcDbEntity
  8
图框_角线
100
AcDbPolyline
 90
        3
 70
   128
 43
0.0
 10
175.0
 20
291.0
 10
184.0
 20
291.0
 10
184.0
 20
282.0
  0
LWPOLYLINE
  5
1EF
330
145
100
AcDbEntity
  8
图框_内框线
100
AcDbPolyline
 90
        2
 70
     0
 43
0.0
 10
185.0
 20
143.5
 10
175.0
 20
143.5
  0
LWPOLYLINE
  5
1F0
330
145
100
AcDbEntity
  8
图框_角线
100
AcDbPolyline
 90
        3
 70
   128
 43
0.0
 10
184.0
 20
5.0
 10
184.0
 20
-4.0
 10
175.0
 20
-4.0
  0
LWPOLYLINE
  5
1F1
330
145
100
AcDbEntity
  8
图框_内框线
100
AcDbPolyline
 90
        2
 70
     0
 43
0.0
 10
80.0
 20
292.0
 10
80.0
 20
282.0
  0
LWPOLYLINE
  5
1F2
330
145
100
AcDbEntity
  8
图框_角线
100
AcDbPolyline
 90
        3
 70
   128
 43
0.0
 10
-24.0
 20
282.0
 10
-24.0
 20
291.0
 10
-15.0
 20
291.0
  0
LWPOLYLINE
  5
1F3
330
145
100
AcDbEntity
  8
图框_内框线
100
AcDbPolyline
 90
        2
 70
     0
 43
0.0
 10
80.0
 20
-5.0
 10
80.0
 20
0.0
  0
LWPOLYLINE
  5
1F4
330
145
100
AcDbEntity
  8
图框_内框线
100
AcDbPolyline
 90
        2
 70
     0
 43
0.0
 10
-25.0
 20
143.5
 10
5.0
 20
143.5
  0
LWPOLYLINE
  5
1F5
330
145
100
AcDbEntity
  8
图框_角线
100
AcDbPolyline
 90
        3
 70
   128
 43
0.0
 10
-15.0
 20
-4.0
 10
-24.0
 20
-4.0
 10
-24.0
 20
5.0
  0
LWPOLYLINE
  5
1F6
330
145
100
AcDbEntity
  8
图框_内框线
100
AcDbPolyline
 90
        4
 70
     1
 43
0.0
 10
0.0
 20
0.0
 10
180.0
 20
0.0
 10
180.0
 20
287.0
 10
0.0
 20
287.0
  0
LWPOLYLINE
  5
1F7
330
145
100
AcDbEntity
  8
图框_外框线
100
AcDbPolyline
 90
        4
 70
     1
 43
0.0
 10
-25.0
 20
-5.0
 10
185.0
 20
-5.0
 10
185.0
 20
292.0
 10
-25.0
 20
292.0
  0
LINE
  5
1F8
330
145
100
AcDbEntity
  8
图框_外框线
100
AcDbLine
 10
130.0
 20
38.0
 30
0.0
 11
180.0
 21
38.0
 31
0.0
  0
LINE
  5
1F9
330
145
100
AcDbEntity
  8
图框_外框线
100
AcDbLine
 10
180.0
 20
18.0
 30
0.0
 11
80.0
 21
18.0
 31
0.0
  0
LWPOLYLINE
  5
1FA
330
145
100
AcDbEntity
  8
图框_外框线
100
AcDbPolyline
 90
        5
 70
     0
 43
0.0
 10
180.0
 20
56.0
 10
0.0
 20
56.0
 10
0.0
 20
0.0
 10
180.0000000000002
 20
0.0
 10
180.0
 20
56.0
  0
LINE
  5
1FB
330
145
100
AcDbEntity
  8
图框_外框线
100
AcDbLine
 10
130.0
 20
56.0
 30
0.0
 11
130.0
 21
0.0
 31
0.0
  0
LINE
  5
1FC
330
145
100
AcDbEntity
  8
图框_外框线
100
AcDbLine
 10
80.0
 20
56.0
 30
0.0
 11
80.0
 21
0.0
 31
0.0
  0
LINE
  5
1FD
330
145
100
AcDbEntity
  8
图框_外框线
100
AcDbLine
 10
40.0
 20
0.0
 30
0.0
 11
40.0
 21
28.0
 31
0.0
  0
LINE
  5
1FE
330
145
100
AcDbEntity
  8
图框_外框线
100
AcDbLine
 10
24.0
 20
28.0
 30
0.0
 11
24.0
 21
0.0
 31
0.0
  0
LINE
  5
1FF
330
145
100
AcDbEntity
  8
图框_外框线
100
AcDbLine
 10
12.0
 20
0.0
 30
0.0
 11
12.0
 21
28.0
 31
0.0
  0
LINE
  5
200
330
145
100
AcDbEntity
  8
图框_外框线
100
AcDbLine
 10
106.0
 20
28.0
 30
0.0
 11
106.0
 21
9.0
 31
0.0
  0
LINE
  5
201
330
145
100
AcDbEntity
  8
图框_外框线
100
AcDbLine
 10
118.0
 20
28.0
 30
0.0
 11
118.0
 21
9.0
 31
0.0
  0
LINE
  5
202
330
145
100
AcDbEntity
  8
图框_外框线
100
AcDbLine
 10
64.0
 20
0.0
 30
0.0
 11
64.0
 21
28.0
 31
0.0
  0
LINE
  5
203
330
145
100
AcDbEntity
  8
图框_外框线
100
AcDbLine
 10
52.0
 20
28.0
 30
0.0
 11
52.0
 21
0.0
 31
0.0
  0
LINE
  5
204
330
145
100
AcDbEntity
  8
图框_外框线
100
AcDbLine
 10
93.0
 20
18.0
 30
0.0
 11
93.0
 21
9.0
 31
0.0
  0
LINE
  5
205
330
145
100
AcDbEntity
  8
图框_外框线
100
AcDbLine
 10
86.5
 20
18.0
 30
0.0
 11
86.5
 21
9.0
 31
0.0
  0
LINE
  5
206
330
145
100
AcDbEntity
  8
图框_外框线
100
AcDbLine
 10
99.50000000000001
 20
18.0
 30
0.0
 11
99.50000000000001
 21
9.0
 31
0.0
  0
LINE
  5
207
330
145
100
AcDbEntity
  8
图框_外框线
100
AcDbLine
 10
0.0
 20
14.0
 30
0.0
 11
80.0
 21
14.0
 31
0.0
  0
LINE
  5
208
330
145
100
AcDbEntity
  8
图框_外框线
100
AcDbLine
 10
0.0
 20
7.0
 30
0.0
 11
80.0
 21
7.0
 31
0.0
  0
TEXT
  5
209
330
145
100
AcDbEntity
  8
图框_标题栏文字
100
AcDbText
 10
1.045077494601855
 20
1.148395388825292
 30
0.0
 40
5.0
  1
工艺
  7
工程字
100
AcDbText
1001
AcadStringInfo
1000
MIFCodePage
1070
     5
  0
TEXT
  5
20A
330
145
100
AcDbEntity
  8
图框_标题栏文字
100
AcDbText
 10
1.045077494601855
 20
8.148395388825292
 30
0.0
 40
5.0
  1
审核
  7
工程字
100
AcDbText
1001
AcadStringInfo
1000
MIFCodePage
1070
     5
  0
TEXT
  5
20B
330
145
100
AcDbEntity
  8
图框_标题栏文字
100
AcDbText
 10
41.47003071851645
 20
1.148396199330477
 30
0.0
 40
5.0
  1
批准
  7
工程字
100
AcDbText
1001
AcadStringInfo
1000
MIFCodePage
1070
     5
  0
TEXT
  5
20C
330
145
100
AcDbEntity
  8
图框_标题栏文字
100
AcDbText
 10
84.4007282514949
 20
2.0
 30
0.0
 40
5.0
  1
共   张 第  张
  7
工程字
100
AcDbText
1001
AcadStringInfo
1000
MIFCodePage
1070
     5
  0
LINE
  5
20D
330
145
100
AcDbEntity
  8
图框_外框线
100
AcDbLine
 10
130.0
 20
9.0
 30
0.0
 11
80.0
 21
9.0
 31
0.0
  0
LINE
  5
20E
330
145
100
AcDbEntity
  8
图框_外框线
100
AcDbLine
 10
0.0
 20
49.0
 30
0.0
 11
80.0
 21
49.0
 31
0.0
  0
TEXT
  5
20F
330
145
100
AcDbEntity
  8
图框_标题栏文字
100
AcDbText
 10
54.0
 20
29.0
 30
0.0
 40
5.0
  1
签名
  7
工程字
100
AcDbText
1001
AcadStringInfo
1000
MIFCodePage
1070
     5
  0
LINE
  5
210
330
145
100
AcDbEntity
  8
图框_外框线
100
AcDbLine
 10
0.0
 20
42.0
 30
0.0
 11
80.0
 21
42.0
 31
0.0
  0
LINE
  5
211
330
145
100
AcDbEntity
  8
图框_外框线
100
AcDbLine
 10
0.0
 20
35.0
 30
0.0
 11
80.0
 21
35.0
 31
0.0
  0
LINE
  5
212
330
145
100
AcDbEntity
  8
图框_外框线
100
AcDbLine
 10
0.0
 20
21.0
 30
0.0
 11
80.0
 21
21.0
 31
0.0
  0
LINE
  5
213
330
145
100
AcDbEntity
  8
图框_外框线
100
AcDbLine
 10
0.0
 20
28.0
 30
0.0
 11
130.0
 21
28.0
 31
0.0
  0
LINE
  5
214
330
145
100
AcDbEntity
  8
图框_外框线
100
AcDbLine
 10
10.0
 20
56.0
 30
0.0
 11
10.0
 21
28.0
 31
0.0
  0
TEXT
  5
215
330
145
100
AcDbEntity
  8
图框_标题栏文字
100
AcDbText
 10
1.0
 20
29.43872591737909
 30
0.0
 40
5.0
  1
标记
  7
工程字
100
AcDbText
1001
AcadStringInfo
1000
MIFCodePage
1070
     5
  0
TEXT
  5
216
330
145
100
AcDbEntity
  8
图框_标题栏文字
100
AcDbText
 10
1.334625653507146
 20
22.34847714549829
 30
0.0
 40
5.0
  1
设计
  7
工程字
100
AcDbText
1001
AcadStringInfo
1000
MIFCodePage
1070
     5
  0
LINE
  5
217
330
145
100
AcDbEntity
  8
图框_外框线
100
AcDbLine
 10
52.0
 20
28.0
 30
0.0
 11
52.0
 21
56.0
 31
0.0
  0
LINE
  5
218
330
145
100
AcDbEntity
  8
图框_外框线
100
AcDbLine
 10
30.0
 20
56.0
 30
0.0
 11
30.0
 21
28.0
 31
0.0
  0
LINE
  5
219
330
145
100
AcDbEntity
  8
图框_外框线
100
AcDbLine
 10
20.0
 20
28.0
 30
0.0
 11
20.0
 21
56.0
 31
0.0
  0
TEXT
  5
21A
330
145
100
AcDbEntity
  8
图框_标题栏文字
100
AcDbText
 10
31.0
 20
29.58713295238179
 30
0.0
 40
5.0
  1
更改文件号
  7
工程字
100
AcDbText
1001
AcadStringInfo
1000
MIFCodePage
1070
     5
  0
TEXT
  5
21B
330
145
100
AcDbEntity
  8
图框_标题栏文字
100
AcDbText
 10
11.0
 20
29.43872591737909
 30
0.0
 40
5.0
  1
处数
  7
工程字
100
AcDbText
1001
AcadStringInfo
1000
MIFCodePage
1070
     5
  0
TEXT
  5
21C
330
145
100
AcDbEntity
  8
图框_标题栏文字
100
AcDbText
 10
21.0
 20
29.43872591737909
 30
0.0
 40
5.0
  1
分区
  7
工程字
100
AcDbText
1001
AcadStringInfo
1000
MIFCodePage
1070
     5
  0
TEXT
  5
21D
330
145
100
AcDbEntity
  8
图框_标题栏文字
100
AcDbText
 10
40.43901960824041
 20
22.0
 30
0.0
 40
5.0
  1
标准化
  7
工程字
100
AcDbText
1001
AcadStringInfo
1000
MIFCodePage
1070
     5
  0
LINE
  5
21E
330
145
100
AcDbEntity
  8
图框_外框线
100
AcDbLine
 10
64.0
 20
56.0
 30
0.0
 11
64.0
 21
28.0
 31
0.0
  0
TEXT
  5
21F
330
145
100
AcDbEntity
  8
图框_标题栏文字
100
AcDbText
 10
66.0
 20
29.0
 30
0.0
 40
5.0
  1
年月日
  7
工程字
100
AcDbText
1001
AcadStringInfo
1000
MIFCodePage
1070
     5
  0
TEXT
  5
220
330
145
100
AcDbEntity
  8
图框_标题栏文字
100
AcDbText
 10
85.89077928789151
 20
20.2
 30
0.0
 40
5.0
  1
阶段标记
  7
工程字
100
AcDbText
1001
AcadStringInfo
1000
MIFCodePage
1070
     5
  0
TEXT
  5
221
330
145
100
AcDbEntity
  8
图框_标题栏文字
100
AcDbText
 10
107.8907792878915
 20
20.0
 30
0.0
 40
5.0
  1
重量
  7
工程字
100
AcDbText
1001
AcadStringInfo
1000
MIFCodePage
1070
     5
  0
TEXT
  5
222
330
145
100
AcDbEntity
  8
图框_标题栏文字
100
AcDbText
 10
120.0
 20
20.0
 30
0.0
 40
5.0
  1
比例
  7
工程字
100
AcDbText
1001
AcadStringInfo
1000
MIFCodePage
1070
     5
  0
ATTDEF
  5
223
330
145
100
AcDbEntity
  8
图框_标题栏属性
100
AcDbText
 10
93.94224277899834
 20
37.29897765641386
 30
0.0
 40
7.0
  1
xxx1
  7
工程字
 72
     4
 11
103.0422427789983
 21
40.79897765641385
 31
0.0
100
AcDbAttributeDefinition
280
     0
  3
名称1
  2
XXX1
 70
     0
280
     0
1001
AcadStringInfo
1000
MIFCodePage
1070
     5
  0
ATTDEF
  5
224
330
145
100
AcDbEntity
  8
图框_标题栏属性
100
AcDbText
 10
143.422325769551
 20
43.25611160273171
 30
0.0
 40
7.0
  1
xxx2
  7
工程字
 72
     4
 11
153.4325324624644
 21
46.93180057910967
 31
0.0
100
AcDbAttributeDefinition
280
     0
  3
名称2
  2
XXX2
 70
     0
280
     0
1001
AcadStringInfo
1000
MIFCodePage
1070
     5
  0
ATTDEF
  5
225
330
145
100
AcDbEntity
  8
图框_标题栏属性
100
AcDbText
 10
144.802086825971
 20
25.17830687839783
 30
0.0
 40
7.0
  1
xxx3
  7
工程字
 72
     4
 11
154.7470615728016
 21
28.53333213156725
 31
0.0
100
AcDbAttributeDefinition
280
     0
  3
名称3
  2
XXX3
 70
     0
280
     0
1001
AcadStringInfo
1000
MIFCodePage
1070
     5
  0
ATTDEF
  5
226
330
145
100
AcDbEntity
  8
图框_标题栏属性
100
AcDbText
 10
144.5970615728016
 20
5.320687680483274
 30
0.0
 40
7.0
  1
xxx4
  7
工程字
 72
     4
 11
154.7470615728016
 21
8.820687680483274
 31
0.0
100
AcDbAttributeDefinition
280
     0
  3
名称4
  2
XXX4
 70
     0
280
     0
1001
AcadStringInfo
1000
MIFCodePage
1070
     5
  0
ATTDEF
  5
227
330
145
100
AcDbEntity
  8
图框_标题栏属性
100
AcDbText
 10
107.0058429934309
 20
11.83382664077868
 30
0.0
 40
3.5
  1
xxx5
  7
工程字
 72
     1
 11
111.9783303668462
 21
13.58382664077868
 31
0.0
100
AcDbAttributeDefinition
280
     0
  3
重量
  2
XXX5
 70
     0
 74
     2
280
     0
1001
AcadStringInfo
1000
MIFCodePage
1070
     5
  0
ATTDEF
  5
228
330
145
100
AcDbEntity
  8
图框_标题栏属性
100
AcDbText
 10
118.6137133771492
 20
11.99284807675928
 30
0.0
 40
3.5
  1
xxx6
  7
工程字
 72
     1
 11
123.6005244007713
 21
13.74284807675928
 31
0.0
100
AcDbAttributeDefinition
280
     0
  3
比例
  2
XXX6
 70
     0
 74
     2
280
     0
1001
AcadStringInfo
1000
MIFCodePage
1070
     5
  0
ATTDEF
  5
229
330
145
100
AcDbEntity
  8
图框_标题栏属性
100
AcDbText
 10
87.14701881317841
 20
1.542546479159106
 30
0.0
 40
5.0
  1
xxx7
  7
工程字
 72
     1
 11
94.14701881317842
 21
4.042546479159106
 31
0.0
100
AcDbAttributeDefinition
280
     0
  3
共几张
  2
XXX7
 70
     0
 74
     2
280
     0
1001
AcadStringInfo
1000
MIFCodePage
1070
     5
  0
ATTDEF
  5
22A
330
145
100
AcDbEntity
  8
图框_标题栏属性
100
AcDbText
 10
110.5506151715112
 20
1.542546479159106
 30
0.0
 40
5.0
  1
xxx8
  7
工程字
 72
     1
 11
117.5506151715112
 21
4.042546479159106
 31
0.0
100
AcDbAttributeDefinition
280
     0
  3
第几张
  2
XXX8
 70
     0
 74
     2
280
     0
1001
AcadStringInfo
1000
MIFCodePage
1070
     5
  0
ENDBLK
  5
185
330
145
100
AcDbEntity
  8
0
100
AcDbBlockEnd
  0
BLOCK
  5
1D41
330
1D37
100
AcDbEntity
  8
0
100
AcDbBlockBegin
  2
*D8
 70
     1
 10
0.0
 20
0.0
 30
0.0
  3
*D8
  1

  0
LINE
  5
382D
330
1D37
100
AcDbEntity
  8
0
 62
     0
440
 16777216
370
    -2
100
AcDbLine
 10
8751.950315799328
 20
602.0990465191316
 30
0.0
 11
8751.950315799328
 21
533.1364968243615
 31
0.0
  0
LINE
  5
382E
330
1D37
100
AcDbEntity
  8
0
 62
     0
440
 16777216
370
    -2
100
AcDbLine
 10
8393.950315799328
 20
612.0990465191316
 30
0.0
 11
8393.950315799328
 21
533.1364968243615
 31
0.0
  0
LINE
  5
382F
330
1D37
100
AcDbEntity
  8
0
 62
     0
440
 16777216
370
    -2
100
AcDbLine
 10
8731.950315799329
 20
535.1364968243615
 30
0.0
 11
8413.950315799327
 21
535.1364968243615
 31
0.0
  0
SOLID
  5
3830
330
1D37
100
AcDbEntity
  8
0
 62
     0
440
 16777216
100
AcDbTrace
 10
8731.950315799329
 20
538.4698301576949
 30
0.0
 11
8731.950315799329
 21
531.8031634910282
 31
0.0
 12
8751.950315799328
 22
535.1364968243615
 32
0.0
 13
8751.950315799328
 23
535.1364968243615
 33
0.0
  0
SOLID
  5
3831
330
1D37
100
AcDbEntity
  8
0
 62
     0
440
 16777216
100
AcDbTrace
 10
8413.950315799327
 20
538.4698301576949
 30
0.0
 11
8413.950315799327
 21
531.8031634910282
 31
0.0
 12
8393.950315799328
 22
535.1364968243615
 32
0.0
 13
8393.950315799328
 23
535.1364968243615
 33
0.0
  0
MTEXT
  5
3832
330
1D37
100
AcDbEntity
  8
0
 62
     0
440
 16777216
100
AcDbMText
 10
8615.390823407109
 20
544.6364968243615
 30
0.0
 40
15.0
 41
0.0
 46
0.0
 71
     5
 72
     1
  1
\A1;358
 73
     1
 44
1.0
  0
POINT
  5
3833
330
1D37
100
AcDbEntity
  8
Defpoints
 62
     0
440
 16777216
100
AcDbPoint
 10
8751.950315799328
 20
604.0990465191316
 30
0.0
  0
POINT
  5
3834
330
1D37
100
AcDbEntity
  8
Defpoints
 62
     0
440
 16777216
100
AcDbPoint
 10
8393.950315799328
 20
614.0990465191316
 30
0.0
  0
POINT
  5
3835
330
1D37
100
AcDbEntity
  8
Defpoints
 62
     0
440
 16777216
100
AcDbPoint
 10
8393.950315799328
 20
535.1364968243615
 30
0.0
  0
ENDBLK
  5
1D42
330
1D37
100
AcDbEntity
  8
0
100
AcDbBlockEnd
  0
BLOCK
  5
1D4F
330
1D43
100
AcDbEntity
  8
0
100
AcDbBlockBegin
  2
*D9
 70
     1
 10
0.0
 20
0.0
 30
0.0
  3
*D9
  1

  0
LINE
  5
3865
330
1D43
100
AcDbEntity
  8
0
 62
     0
440
 16777216
370
    -2
100
AcDbLine
 10
9139.950315799323
 20
612.099046519128
 30
0.0
 11
9139.950315799323
 21
533.1364968243615
 31
0.0
  0
LINE
  5
3866
330
1D43
100
AcDbEntity
  8
0
 62
     0
440
 16777216
370
    -2
100
AcDbLine
 10
9162.950315799319
 20
564.0990465191316
 30
0.0
 11
9162.950315799319
 21
533.1364968243615
 31
0.0
  0
LINE
  5
3867
330
1D43
100
AcDbEntity
  8
0
 62
     0
440
 16777216
370
    -2
100
AcDbLine
 10
9119.950315799325
 20
535.1364968243615
 30
0.0
 11
9099.950315799324
 21
535.1364968243615
 31
0.0
  0
LINE
  5
3868
330
1D43
100
AcDbEntity
  8
0
 62
     0
440
 16777216
370
    -2
100
AcDbLine
 10
9182.95031579932
 20
535.1364968243615
 30
0.0
 11
9246.95031579932
 21
535.1364968243615
 31
0.0
  0
LINE
  5
3869
330
1D43
100
AcDbEntity
  8
0
 62
     0
440
 16777216
370
    -2
100
AcDbLine
 10
9139.950315799323
 20
535.1364968243615
 30
0.0
 11
9162.950315799319
 21
535.1364968243615
 31
0.0
  0
SOLID
  5
386A
330
1D43
100
AcDbEntity
  8
0
 62
     0
440
 16777216
100
AcDbTrace
 10
9119.950315799325
 20
538.4698301576949
 30
0.0
 11
9119.950315799325
 21
531.8031634910282
 31
0.0
 12
9139.950315799323
 22
535.1364968243615
 32
0.0
 13
9139.950315799323
 23
535.1364968243615
 33
0.0
  0
SOLID
  5
386B
330
1D43
100
AcDbEntity
  8
0
 62
     0
440
 16777216
100
AcDbTrace
 10
9182.95031579932
 20
538.4698301576949
 30
0.0
 11
9182.95031579932
 21
531.8031634910282
 31
0.0
 12
9162.950315799319
 22
535.1364968243615
 32
0.0
 13
9162.950315799319
 23
535.1364968243615
 33
0.0
  0
MTEXT
  5
386C
330
1D43
100
AcDbEntity
  8
0
 62
     0
440
 16777216
100
AcDbMText
 10
9232.45031579932
 20
544.6364968243615
 30
0.0
 40
15.0
 41
0.0
 46
0.0
 71
     5
 72
     1
  1
\A1;23
 73
     1
 44
1.0
  0
POINT
  5
386D
330
1D43
100
AcDbEntity
  8
Defpoints
 62
     0
440
 16777216
100
AcDbPoint
 10
9139.950315799323
 20
614.099046519128
 30
0.0
  0
POINT
  5
386E
330
1D43
100
AcDbEntity
  8
Defpoints
 62
     0
440
 16777216
100
AcDbPoint
 10
9162.950315799319
 20
566.0990465191316
 30
0.0
  0
POINT
  5
386F
330
1D43
100
AcDbEntity
  8
Defpoints
 62
     0
440
 16777216
100
AcDbPoint
 10
9162.950315799319
 20
535.1364968243615
 30
0.0
  0
ENDBLK
  5
1D50
330
1D43
100
AcDbEntity
  8
0
100
AcDbBlockEnd
  0
BLOCK
  5
1D5D
330
1D51
100
AcDbEntity
  8
0
100
AcDbBlockBegin
  2
*D10
 70
     1
 10
0.0
 20
0.0
 30
0.0
  3
*D10
  1

  0
LINE
  5
3A2F
330
1D51
100
AcDbEntity
  8
0
 62
     0
440
 16777216
370
    -2
100
AcDbLine
 10
9116.950315799325
 20
987.099046519128
 30
0.0
 11
9240.254023419094
 21
987.099046519128
 31
0.0
  0
LINE
  5
3A30
330
1D51
100
AcDbEntity
  8
0
 62
     0
440
 16777216
370
    -2
100
AcDbLine
 10
9164.950315799316
 20
1010.099046519135
 30
0.0
 11
9240.254023419094
 21
1010.099046519135
 31
0.0
  0
LINE
  5
3A31
330
1D51
100
AcDbEntity
  8
0
 62
     0
440
 16777216
370
    -2
100
AcDbLine
 10
9238.254023419093
 20
1030.099046519135
 30
0.0
 11
9238.254023419093
 21
1050.099046519135
 31
0.0
  0
LINE
  5
3A32
330
1D51
100
AcDbEntity
  8
0
 62
     0
440
 16777216
370
    -2
100
AcDbLine
 10
9238.254023419093
 20
967.099046519128
 30
0.0
 11
9238.254023419093
 21
898.0990465191302
 31
0.0
  0
LINE
  5
3A33
330
1D51
100
AcDbEntity
  8
0
 62
     0
440
 16777216
370
    -2
100
AcDbLine
 10
9238.254023419093
 20
1010.099046519135
 30
0.0
 11
9238.254023419093
 21
987.099046519128
 31
0.0
  0
SOLID
  5
3A34
330
1D51
100
AcDbEntity
  8
0
 62
     0
440
 16777216
100
AcDbTrace
 10
9234.920690085759
 20
1030.099046519135
 30
0.0
 11
9241.587356752427
 21
1030.099046519135
 31
0.0
 12
9238.254023419093
 22
1010.099046519135
 32
0.0
 13
9238.254023419093
 23
1010.099046519135
 33
0.0
  0
SOLID
  5
3A35
330
1D51
100
AcDbEntity
  8
0
 62
     0
440
 16777216
100
AcDbTrace
 10
9234.920690085759
 20
967.099046519128
 30
0.0
 11
9241.587356752427
 21
967.099046519128
 31
0.0
 12
9238.254023419093
 22
987.099046519128
 32
0.0
 13
9238.254023419093
 23
987.099046519128
 33
0.0
  0
MTEXT
  5
3A36
330
1D51
100
AcDbEntity
  8
0
 62
     0
440
 16777216
100
AcDbMText
 10
9228.754023419092
 20
912.5990465191316
 30
0.0
 40
15.0
 41
0.0
 46
0.0
 71
     5
 72
     1
  1
\A1;23
 11
0.0000000000000001
 21
1.0
 31
0.0
 73
     1
 44
1.0
  0
POINT
  5
3A37
330
1D51
100
AcDbEntity
  8
Defpoints
 62
     0
440
 16777216
100
AcDbPoint
 10
9114.950315799324
 20
987.099046519128
 30
0.0
  0
POINT
  5
3A38
330
1D51
100
AcDbEntity
  8
Defpoints
 62
     0
440
 16777216
100
AcDbPoint
 10
9162.950315799317
 20
1010.099046519135
 30
0.0
  0
POINT
  5
3A39
330
1D51
100
AcDbEntity
  8
Defpoints
 62
     0
440
 16777216
100
AcDbPoint
 10
9238.254023419093
 20
1010.099046519135
 30
0.0
  0
ENDBLK
  5
1D5E
330
1D51
100
AcDbEntity
  8
0
100
AcDbBlockEnd
  0
BLOCK
  5
1E7F
330
1E78
100
AcDbEntity
  8
0
100
AcDbBlockBegin
  2
*D30
 70
     1
 10
0.0
 20
0.0
 30
0.0
  3
*D30
  1

  0
LINE
  5
37F4
330
1E78
100
AcDbEntity
  8
0
 62
     0
440
 16777216
370
    -2
100
AcDbLine
 10
8853.219371824549
 20
263.028304077282
 30
0.0
 11
8816.21937182455
 21
263.028304077282
 31
0.0
  0
LINE
  5
37F5
330
1E78
100
AcDbEntity
  8
0
 62
     0
440
 16777216
370
    -2
100
AcDbLine
 10
8816.21937182455
 20
263.028304077282
 30
0.0
 11
8803.213353093873
 21
230.5345588825867
 31
0.0
  0
MTEXT
  5
37F6
330
1E78
100
AcDbEntity
  8
0
 62
     0
440
 16777216
100
AcDbMText
 10
8835.719371824547
 20
272.5283040772811
 30
0.0
 40
15.0
 41
0.0
 46
0.0
 71
     5
 72
     1
  1
\A1;R15
 73
     1
 44
1.0
  0
SOLID
  5
37F7
330
1E78
100
AcDbEntity
  8
0
 62
     0
440
 16777216
100
AcDbTrace
 10
8800.118710694381
 20
231.7732273331271
 30
0.0
 11
8806.307995493368
 21
229.2958904320467
 31
0.0
 12
8795.781342390631
 22
211.9667044856214
 32
0.0
 13
8795.781342390631
 23
211.9667044856214
 33
0.0
  0
POINT
  5
37F8
330
1E78
100
AcDbEntity
  8
Defpoints
 62
     0
440
 16777216
100
AcDbPoint
 10
8795.781342390631
 20
211.9667044856214
 30
0.0
  0
POINT
  5
37F9
330
1E78
100
AcDbEntity
  8
Defpoints
 62
     0
440
 16777216
100
AcDbPoint
 10
8801.355350418061
 20
225.892595283342
 30
0.0
  0
ENDBLK
  5
1E80
330
1E78
100
AcDbEntity
  8
0
100
AcDbBlockEnd
  0
BLOCK
  5
1E88
330
1E81
100
AcDbEntity
  8
0
100
AcDbBlockBegin
  2
*D31
 70
     1
 10
0.0
 20
0.0
 30
0.0
  3
*D31
  1

  0
LINE
  5
37FA
330
1E81
100
AcDbEntity
  8
0
 62
     0
440
 16777216
370
    -2
100
AcDbLine
 10
8481.310083831536
 20
251.2343422298322
 30
0.0
 11
8444.310083831537
 21
251.2343422298327
 31
0.0
  0
LINE
  5
37FB
330
1E81
100
AcDbEntity
  8
0
 62
     0
440
 16777216
370
    -2
100
AcDbLine
 10
8444.310083831537
 20
251.2343422298327
 30
0.0
 11
8417.230757511017
 21
229.059805345677
 31
0.0
  0
MTEXT
  5
37FC
330
1E81
100
AcDbEntity
  8
0
 62
     0
440
 16777216
100
AcDbMText
 10
8463.810083831537
 20
260.7343422298327
 30
0.0
 40
15.0
 41
0.0
 46
0.0
 71
     5
 72
     1
  1
\A1;R15
 73
     1
 44
1.0
  0
SOLID
  5
37FD
330
1E81
100
AcDbEntity
  8
0
 62
     0
440
 16777216
100
AcDbTrace
 10
8415.118896855384
 20
231.6387888047739
 30
0.0
 11
8419.34261816665
 21
226.4808218865801
 31
0.0
 12
8401.756856756433
 22
216.3886414118742
 32
0.0
 13
8401.756856756433
 23
216.3886414118742
 33
0.0
  0
POINT
  5
37FE
330
1E81
100
AcDbEntity
  8
Defpoints
 62
     0
440
 16777216
100
AcDbPoint
 10
8401.756856756433
 20
216.3886414118742
 30
0.0
  0
POINT
  5
37FF
330
1E81
100
AcDbEntity
  8
Defpoints
 62
     0
440
 16777216
100
AcDbPoint
 10
8413.362282322378
 20
225.8920143622317
 30
0.0
  0
ENDBLK
  5
1E89
330
1E81
100
AcDbEntity
  8
0
100
AcDbBlockEnd
  0
BLOCK
  5
1F64
330
1F5A
100
AcDbEntity
  8
0
100
AcDbBlockBegin
  2
*D46
 70
     1
 10
0.0
 20
0.0
 30
0.0
  3
*D46
  1

  0
LINE
  5
3812
330
1F5A
100
AcDbEntity
  8
0
 62
     0
440
 16777216
370
    -2
100
AcDbLine
 10
9162.950315799324
 20
564.099046519128
 30
0.0
 11
9162.950315799324
 21
492.0470734340378
 31
0.0
  0
LINE
  5
3813
330
1F5A
100
AcDbEntity
  8
0
 62
     0
440
 16777216
370
    -2
100
AcDbLine
 10
8370.950315799328
 20
564.0990465191316
 30
0.0
 11
8370.950315799328
 21
492.0470734340378
 31
0.0
  0
LINE
  5
3814
330
1F5A
100
AcDbEntity
  8
0
 62
     0
440
 16777216
370
    -2
100
AcDbLine
 10
9142.950315799323
 20
494.0470734340379
 30
0.0
 11
8390.950315799328
 21
494.0470734340379
 31
0.0
  0
SOLID
  5
3815
330
1F5A
100
AcDbEntity
  8
0
 62
     0
440
 16777216
100
AcDbTrace
 10
9142.950315799323
 20
497.3804067673712
 30
0.0
 11
9142.950315799323
 21
490.7137401007045
 31
0.0
 12
9162.950315799324
 22
494.0470734340379
 32
0.0
 13
9162.950315799324
 23
494.0470734340379
 33
0.0
  0
SOLID
  5
3816
330
1F5A
100
AcDbEntity
  8
0
 62
     0
440
 16777216
100
AcDbTrace
 10
8390.950315799328
 20
497.3804067673712
 30
0.0
 11
8390.950315799328
 21
490.7137401007045
 31
0.0
 12
8370.950315799328
 22
494.0470734340379
 32
0.0
 13
8370.950315799328
 23
494.0470734340379
 33
0.0
  0
MTEXT
  5
3817
330
1F5A
100
AcDbEntity
  8
0
 62
     0
440
 16777216
100
AcDbMText
 10
8733.589508233777
 20
503.5470734340378
 30
0.0
 40
15.0
 41
0.0
 46
0.0
 71
     5
 72
     1
  1
\A1;792
 73
     1
 44
1.0
  0
POINT
  5
3818
330
1F5A
100
AcDbEntity
  8
Defpoints
 62
     0
440
 16777216
100
AcDbPoint
 10
9162.950315799324
 20
566.099046519128
 30
0.0
  0
POINT
  5
3819
330
1F5A
100
AcDbEntity
  8
Defpoints
 62
     0
440
 16777216
100
AcDbPoint
 10
8370.950315799328
 20
566.0990465191316
 30
0.0
  0
POINT
  5
381A
330
1F5A
100
AcDbEntity
  8
Defpoints
 62
     0
440
 16777216
100
AcDbPoint
 10
8370.950315799328
 20
494.0470734340379
 30
0.0
  0
ENDBLK
  5
1F65
330
1F5A
100
AcDbEntity
  8
0
100
AcDbBlockEnd
  0
BLOCK
  5
1F70
330
1F66
100
AcDbEntity
  8
0
100
AcDbBlockBegin
  2
*D47
 70
     1
 10
0.0
 20
0.0
 30
0.0
  3
*D47
  1

  0
LINE
  5
381B
330
1F66
100
AcDbEntity
  8
0
 62
     0
440
 16777216
370
    -2
100
AcDbLine
 10
9164.950315799321
 20
566.0990465191316
 30
0.0
 11
9311.557731038865
 21
566.0990465191316
 31
0.0
  0
LINE
  5
381C
330
1F66
100
AcDbEntity
  8
0
 62
     0
440
 16777216
370
    -2
100
AcDbLine
 10
9164.950315799316
 20
1010.099046519135
 30
0.0
 11
9311.557731038865
 21
1010.099046519135
 31
0.0
  0
LINE
  5
381D
330
1F66
100
AcDbEntity
  8
0
 62
     0
440
 16777216
370
    -2
100
AcDbLine
 10
9309.557731038864
 20
586.0990465191316
 30
0.0
 11
9309.557731038864
 21
990.0990465191354
 31
0.0
  0
SOLID
  5
381E
330
1F66
100
AcDbEntity
  8
0
 62
     0
440
 16777216
100
AcDbTrace
 10
9306.224397705532
 20
586.0990465191316
 30
0.0
 11
9312.8910643722
 21
586.0990465191316
 31
0.0
 12
9309.557731038864
 22
566.0990465191316
 32
0.0
 13
9309.557731038864
 23
566.0990465191316
 33
0.0
  0
SOLID
  5
381F
330
1F66
100
AcDbEntity
  8
0
 62
     0
440
 16777216
100
AcDbTrace
 10
9306.224397705532
 20
990.0990465191354
 30
0.0
 11
9312.8910643722
 21
990.0990465191354
 31
0.0
 12
9309.557731038864
 22
1010.099046519135
 32
0.0
 13
9309.557731038864
 23
1010.099046519135
 33
0.0
  0
MTEXT
  5
3820
330
1F66
100
AcDbEntity
  8
0
 62
     0
440
 16777216
100
AcDbMText
 10
9300.057731038865
 20
783.8644563122252
 30
0.0
 40
15.0
 41
0.0
 46
0.0
 71
     5
 72
     1
  1
\A1;444
 11
0.0000000000000001
 21
1.0
 31
0.0
 73
     1
 44
1.0
  0
POINT
  5
3821
330
1F66
100
AcDbEntity
  8
Defpoints
 62
     0
440
 16777216
100
AcDbPoint
 10
9162.950315799319
 20
566.0990465191316
 30
0.0
  0
POINT
  5
3822
330
1F66
100
AcDbEntity
  8
Defpoints
 62
     0
440
 16777216
100
AcDbPoint
 10
9162.950315799317
 20
1010.099046519135
 30
0.0
  0
POINT
  5
3823
330
1F66
100
AcDbEntity
  8
Defpoints
 62
     0
440
 16777216
100
AcDbPoint
 10
9309.557731038864
 20
1010.099046519135
 30
0.0
  0
ENDBLK
  5
1F71
330
1F66
100
AcDbEntity
  8
0
100
AcDbBlockEnd
  0
BLOCK
  5
1F7C
330
1F72
100
AcDbEntity
  8
0
100
AcDbBlockBegin
  2
*D48
 70
     1
 10
0.0
 20
0.0
 30
0.0
  3
*D48
  1

  0
LINE
  5
3824
330
1F72
100
AcDbEntity
  8
0
 62
     0
440
 16777216
370
    -2
100
AcDbLine
 10
9139.950315799323
 20
602.0990465191244
 30
0.0
 11
9139.950315799323
 21
533.1364968243579
 31
0.0
  0
LINE
  5
3825
330
1F72
100
AcDbEntity
  8
0
 62
     0
440
 16777216
370
    -2
100
AcDbLine
 10
8781.950315799328
 20
602.099046519128
 30
0.0
 11
8781.950315799328
 21
533.1364968243579
 31
0.0
  0
LINE
  5
3826
330
1F72
100
AcDbEntity
  8
0
 62
     0
440
 16777216
370
    -2
100
AcDbLine
 10
9119.950315799325
 20
535.1364968243578
 30
0.0
 11
8801.950315799329
 21
535.1364968243578
 31
0.0
  0
SOLID
  5
3827
330
1F72
100
AcDbEntity
  8
0
 62
     0
440
 16777216
100
AcDbTrace
 10
9119.950315799325
 20
538.4698301576912
 30
0.0
 11
9119.950315799325
 21
531.8031634910245
 31
0.0
 12
9139.950315799323
 22
535.1364968243578
 32
0.0
 13
9139.950315799323
 23
535.1364968243578
 33
0.0
  0
SOLID
  5
3828
330
1F72
100
AcDbEntity
  8
0
 62
     0
440
 16777216
100
AcDbTrace
 10
8801.950315799329
 20
538.4698301576912
 30
0.0
 11
8801.950315799329
 21
531.8031634910245
 31
0.0
 12
8781.950315799328
 22
535.1364968243578
 32
0.0
 13
8781.950315799328
 23
535.1364968243578
 33
0.0
  0
MTEXT
  5
3829
330
1F72
100
AcDbEntity
  8
0
 62
     0
440
 16777216
100
AcDbMText
 10
8957.637305437769
 20
544.6364968243578
 30
0.0
 40
15.0
 41
0.0
 46
0.0
 71
     5
 72
     1
  1
\A1;358
 73
     1
 44
1.0
  0
POINT
  5
382A
330
1F72
100
AcDbEntity
  8
Defpoints
 62
     0
440
 16777216
100
AcDbPoint
 10
9139.950315799323
 20
604.0990465191243
 30
0.0
  0
POINT
  5
382B
330
1F72
100
AcDbEntity
  8
Defpoints
 62
     0
440
 16777216
100
AcDbPoint
 10
8781.950315799328
 20
604.099046519128
 30
0.0
  0
POINT
  5
382C
330
1F72
100
AcDbEntity
  8
Defpoints
 62
     0
440
 16777216
100
AcDbPoint
 10
8781.950315799328
 20
535.1364968243578
 30
0.0
  0
ENDBLK
  5
1F7D
330
1F72
100
AcDbEntity
  8
0
100
AcDbBlockEnd
  0
BLOCK
  5
1F91
330
1F87
100
AcDbEntity
  8
0
100
AcDbBlockBegin
  2
*D49
 70
     1
 10
0.0
 20
0.0
 30
0.0
  3
*D49
  1

  0
LINE
  5
3836
330
1F87
100
AcDbEntity
  8
0
 62
     0
440
 16777216
370
    -2
100
AcDbLine
 10
9126.950315799325
 20
589.0990465191244
 30
0.0
 11
9209.477565226768
 21
589.0990465191244
 31
0.0
  0
LINE
  5
3837
330
1F87
100
AcDbEntity
  8
0
 62
     0
440
 16777216
370
    -2
100
AcDbLine
 10
9116.950315799325
 20
987.099046519128
 30
0.0
 11
9209.477565226768
 21
987.099046519128
 31
0.0
  0
LINE
  5
3838
330
1F87
100
AcDbEntity
  8
0
 62
     0
440
 16777216
370
    -2
100
AcDbLine
 10
9207.477565226767
 20
609.0990465191244
 30
0.0
 11
9207.477565226767
 21
967.099046519128
 31
0.0
  0
SOLID
  5
3839
330
1F87
100
AcDbEntity
  8
0
 62
     0
440
 16777216
100
AcDbTrace
 10
9204.144231893433
 20
609.0990465191244
 30
0.0
 11
9210.810898560101
 21
609.0990465191244
 31
0.0
 12
9207.477565226767
 22
589.0990465191244
 32
0.0
 13
9207.477565226767
 23
589.0990465191244
 33
0.0
  0
SOLID
  5
383A
330
1F87
100
AcDbEntity
  8
0
 62
     0
440
 16777216
100
AcDbTrace
 10
9204.144231893433
 20
967.099046519128
 30
0.0
 11
9210.810898560101
 21
967.099046519128
 31
0.0
 12
9207.477565226767
 22
987.099046519128
 32
0.0
 13
9207.477565226767
 23
987.099046519128
 33
0.0
  0
MTEXT
  5
383B
330
1F87
100
AcDbEntity
  8
0
 62
     0
440
 16777216
100
AcDbMText
 10
9197.977565226768
 20
786.4088262023579
 30
0.0
 40
15.0
 41
0.0
 46
0.0
 71
     5
 72
     1
  1
\A1;398
 11
0.0000000000000001
 21
1.0
 31
0.0
 73
     1
 44
1.0
  0
POINT
  5
383C
330
1F87
100
AcDbEntity
  8
Defpoints
 62
     0
440
 16777216
100
AcDbPoint
 10
9124.950315799324
 20
589.0990465191244
 30
0.0
  0
POINT
  5
383D
330
1F87
100
AcDbEntity
  8
Defpoints
 62
     0
440
 16777216
100
AcDbPoint
 10
9114.950315799324
 20
987.099046519128
 30
0.0
  0
POINT
  5
383E
330
1F87
100
AcDbEntity
  8
Defpoints
 62
     0
440
 16777216
100
AcDbPoint
 10
9207.477565226767
 20
987.099046519128
 30
0.0
  0
ENDBLK
  5
1F92
330
1F87
100
AcDbEntity
  8
0
100
AcDbBlockEnd
  0
BLOCK
  5
1F9F
330
1F93
100
AcDbEntity
  8
0
100
AcDbBlockBegin
  2
*D50
 70
     1
 10
0.0
 20
0.0
 30
0.0
  3
*D50
  1

  0
LINE
  5
383F
330
1F93
100
AcDbEntity
  8
0
 62
     0
440
 16777216
370
    -2
100
AcDbLine
 10
9162.950315799324
 20
564.0990465191316
 30
0.0
 11
9162.950315799324
 21
510.990947563554
 31
0.0
  0
LINE
  5
3840
330
1F93
100
AcDbEntity
  8
0
 62
     0
440
 16777216
370
    -2
100
AcDbLine
 10
9159.950315799321
 20
567.0990465191316
 30
0.0
 11
9159.950315799321
 21
510.990947563554
 31
0.0
  0
LINE
  5
3841
330
1F93
100
AcDbEntity
  8
0
 62
     0
440
 16777216
370
    -2
100
AcDbLine
 10
9139.950315799321
 20
512.9909475635541
 30
0.0
 11
9119.95031579932
 21
512.9909475635541
 31
0.0
  0
LINE
  5
3842
330
1F93
100
AcDbEntity
  8
0
 62
     0
440
 16777216
370
    -2
100
AcDbLine
 10
9182.950315799324
 20
512.9909475635541
 30
0.0
 11
9231.950315799323
 21
512.9909475635541
 31
0.0
  0
LINE
  5
3843
330
1F93
100
AcDbEntity
  8
0
 62
     0
440
 16777216
370
    -2
100
AcDbLine
 10
9159.950315799321
 20
512.9909475635541
 30
0.0
 11
9162.950315799324
 21
512.9909475635541
 31
0.0
  0
SOLID
  5
3844
330
1F93
100
AcDbEntity
  8
0
 62
     0
440
 16777216
100
AcDbTrace
 10
9139.950315799321
 20
516.3242808968874
 30
0.0
 11
9139.950315799321
 21
509.6576142302208
 31
0.0
 12
9159.950315799321
 22
512.9909475635541
 32
0.0
 13
9159.950315799321
 23
512.9909475635541
 33
0.0
  0
SOLID
  5
3845
330
1F93
100
AcDbEntity
  8
0
 62
     0
440
 16777216
100
AcDbTrace
 10
9182.950315799324
 20
516.3242808968874
 30
0.0
 11
9182.950315799324
 21
509.6576142302208
 31
0.0
 12
9162.950315799324
 22
512.9909475635541
 32
0.0
 13
9162.950315799324
 23
512.9909475635541
 33
0.0
  0
MTEXT
  5
3846
330
1F93
100
AcDbEntity
  8
0
 62
     0
440
 16777216
100
AcDbMText
 10
9224.950315799324
 20
522.490947563554
 30
0.0
 40
15.0
 41
0.0
 46
0.0
 71
     5
 72
     1
  1
\A1;3
 73
     1
 44
1.0
  0
POINT
  5
3847
330
1F93
100
AcDbEntity
  8
Defpoints
 62
     0
440
 16777216
100
AcDbPoint
 10
9162.950315799324
 20
566.0990465191316
 30
0.0
  0
POINT
  5
3848
330
1F93
100
AcDbEntity
  8
Defpoints
 62
     0
440
 16777216
100
AcDbPoint
 10
9159.950315799321
 20
569.0990465191316
 30
0.0
  0
POINT
  5
3849
330
1F93
100
AcDbEntity
  8
Defpoints
 62
     0
440
 16777216
100
AcDbPoint
 10
9159.950315799321
 20
512.9909475635541
 30
0.0
  0
ENDBLK
  5
1FA0
330
1F93
100
AcDbEntity
  8
0
100
AcDbBlockEnd
  0
BLOCK
  5
1FAD
330
1FA1
100
AcDbEntity
  8
0
100
AcDbBlockBegin
  2
*D51
 70
     1
 10
0.0
 20
0.0
 30
0.0
  3
*D51
  1

  0
LINE
  5
3A19
330
1FA1
100
AcDbEntity
  8
0
 62
     0
440
 16777216
370
    -2
100
AcDbLine
 10
9164.950315799321
 20
392.0745406439637
 30
0.0
 11
9181.011914401734
 21
392.0745406439637
 31
0.0
  0
LINE
  5
3A1A
330
1FA1
100
AcDbEntity
  8
0
 62
     0
440
 16777216
370
    -2
100
AcDbLine
 10
9161.950315799321
 20
397.0745406439637
 30
0.0
 11
9181.011914401734
 21
397.0745406439637
 31
0.0
  0
LINE
  5
3A1B
330
1FA1
100
AcDbEntity
  8
0
 62
     0
440
 16777216
370
    -2
100
AcDbLine
 10
9179.011914401733
 20
417.0745406439636
 30
0.0
 11
9179.011914401733
 21
437.0745406439636
 31
0.0
  0
LINE
  5
3A1C
330
1FA1
100
AcDbEntity
  8
0
 62
     0
440
 16777216
370
    -2
100
AcDbLine
 10
9179.011914401733
 20
372.0745406439637
 30
0.0
 11
9179.011914401733
 21
323.0745406439637
 31
0.0
  0
LINE
  5
3A1D
330
1FA1
100
AcDbEntity
  8
0
 62
     0
440
 16777216
370
    -2
100
AcDbLine
 10
9179.011914401733
 20
397.0745406439637
 30
0.0
 11
9179.011914401733
 21
392.0745406439637
 31
0.0
  0
SOLID
  5
3A1E
330
1FA1
100
AcDbEntity
  8
0
 62
     0
440
 16777216
100
AcDbTrace
 10
9175.6785810684
 20
417.0745406439636
 30
0.0
 11
9182.345247735067
 21
417.0745406439636
 31
0.0
 12
9179.011914401733
 22
397.0745406439637
 32
0.0
 13
9179.011914401733
 23
397.0745406439637
 33
0.0
  0
SOLID
  5
3A1F
330
1FA1
100
AcDbEntity
  8
0
 62
     0
440
 16777216
100
AcDbTrace
 10
9175.6785810684
 20
372.0745406439637
 30
0.0
 11
9182.345247735067
 21
372.0745406439637
 31
0.0
 12
9179.011914401733
 22
392.0745406439637
 32
0.0
 13
9179.011914401733
 23
392.0745406439637
 33
0.0
  0
MTEXT
  5
3A20
330
1FA1
100
AcDbEntity
  8
0
 62
     0
440
 16777216
100
AcDbMText
 10
9169.511914401734
 20
330.0745406439652
 30
0.0
 40
15.0
 41
0.0
 46
0.0
 71
     5
 72
     1
  1
\A1;5
 11
0.0000000000000001
 21
1.0
 31
0.0
 73
     1
 44
1.0
  0
POINT
  5
3A21
330
1FA1
100
AcDbEntity
  8
Defpoints
 62
     0
440
 16777216
100
AcDbPoint
 10
9162.950315799319
 20
392.0745406439637
 30
0.0
  0
POINT
  5
3A22
330
1FA1
100
AcDbEntity
  8
Defpoints
 62
     0
440
 16777216
100
AcDbPoint
 10
9159.950315799321
 20
397.0745406439637
 30
0.0
  0
POINT
  5
3A23
330
1FA1
100
AcDbEntity
  8
Defpoints
 62
     0
440
 16777216
100
AcDbPoint
 10
9179.011914401733
 20
397.0745406439637
 30
0.0
  0
ENDBLK
  5
1FAE
330
1FA1
100
AcDbEntity
  8
0
100
AcDbBlockEnd
  0
BLOCK
  5
1FB9
330
1FAF
100
AcDbEntity
  8
0
100
AcDbBlockBegin
  2
*D52
 70
     1
 10
0.0
 20
0.0
 30
0.0
  3
*D52
  1

  0
LINE
  5
384A
330
1FAF
100
AcDbEntity
  8
0
 62
     0
440
 16777216
370
    -2
100
AcDbLine
 10
9007.950315799325
 20
197.0745406439637
 30
0.0
 11
9215.26278405471
 21
197.0745406439636
 31
0.0
  0
LINE
  5
384B
330
1FAF
100
AcDbEntity
  8
0
 62
     0
440
 16777216
370
    -2
100
AcDbLine
 10
9161.950315799321
 20
397.0745406439637
 30
0.0
 11
9215.26278405471
 21
397.0745406439637
 31
0.0
  0
LINE
  5
384C
330
1FAF
100
AcDbEntity
  8
0
 62
     0
440
 16777216
370
    -2
100
AcDbLine
 10
9213.262784054711
 20
217.0745406439636
 30
0.0
 11
9213.262784054711
 21
377.0745406439637
 31
0.0
  0
SOLID
  5
384D
330
1FAF
100
AcDbEntity
  8
0
 62
     0
440
 16777216
100
AcDbTrace
 10
9209.929450721377
 20
217.0745406439636
 30
0.0
 11
9216.596117388045
 21
217.0745406439636
 31
0.0
 12
9213.262784054711
 22
197.0745406439636
 32
0.0
 13
9213.262784054711
 23
197.0745406439636
 33
0.0
  0
SOLID
  5
384E
330
1FAF
100
AcDbEntity
  8
0
 62
     0
440
 16777216
100
AcDbTrace
 10
9209.929450721377
 20
377.0745406439637
 30
0.0
 11
9216.596117388045
 21
377.0745406439637
 31
0.0
 12
9213.262784054711
 22
397.0745406439637
 32
0.0
 13
9213.262784054711
 23
397.0745406439637
 33
0.0
  0
MTEXT
  5
384F
330
1FAF
100
AcDbEntity
  8
0
 62
     0
440
 16777216
100
AcDbMText
 10
9203.76278405471
 20
297.0745406439637
 30
0.0
 40
15.0
 41
0.0
 46
0.0
 71
     5
 72
     1
  1
\A1;200
 11
0.0000000000000001
 21
1.0
 31
0.0
 73
     1
 44
1.0
  0
POINT
  5
3850
330
1FAF
100
AcDbEntity
  8
Defpoints
 62
     0
440
 16777216
100
AcDbPoint
 10
9005.950315799324
 20
197.0745406439637
 30
0.0
  0
POINT
  5
3851
330
1FAF
100
AcDbEntity
  8
Defpoints
 62
     0
440
 16777216
100
AcDbPoint
 10
9159.950315799321
 20
397.0745406439637
 30
0.0
  0
POINT
  5
3852
330
1FAF
100
AcDbEntity
  8
Defpoints
 62
     0
440
 16777216
100
AcDbPoint
 10
9213.262784054711
 20
397.0745406439637
 30
0.0
  0
ENDBLK
  5
1FBA
330
1FAF
100
AcDbEntity
  8
0
100
AcDbBlockEnd
  0
BLOCK
  5
1FC5
330
1FBB
100
AcDbEntity
  8
0
100
AcDbBlockBegin
  2
*D53
 70
     1
 10
0.0
 20
0.0
 30
0.0
  3
*D53
  1

  0
LINE
  5
3853
330
1FBB
100
AcDbEntity
  8
0
 62
     0
440
 16777216
370
    -2
100
AcDbLine
 10
8837.895788663777
 20
783.1568860669349
 30
0.0
 11
8877.395788663779
 21
783.1568860669344
 31
0.0
  0
LINE
  5
3854
330
1FBB
100
AcDbEntity
  8
0
 62
     0
440
 16777216
370
    -2
100
AcDbLine
 10
8877.395788663779
 20
783.1568860669344
 30
0.0
 11
8906.639873161221
 21
802.3866422252018
 31
0.0
  0
LINE
  5
3855
330
1FBB
100
AcDbEntity
  8
0
 62
     0
440
 16777216
370
    -2
100
AcDbLine
 10
9015.260758437445
 20
873.8114508130589
 30
0.0
 11
9031.971663864558
 21
884.7998829034972
 31
0.0
  0
MTEXT
  5
3856
330
1FBB
100
AcDbEntity
  8
0
 62
     0
440
 16777216
100
AcDbMText
 10
8856.645788663778
 20
792.6568860669349
 30
0.0
 40
15.0
 41
0.0
 46
0.0
 71
     5
 72
     1
  1
\A1;\U+220590
 73
     1
 44
1.0
  0
LINE
  5
3857
330
1FBB
100
AcDbEntity
  8
0
 62
     0
440
 16777216
370
    -2
100
AcDbLine
 10
8998.549853010336
 20
862.8230187226204
 30
0.0
 11
8923.35077858833
 21
813.3750743156401
 31
0.0
  0
SOLID
  5
3858
330
1FBB
100
AcDbEntity
  8
0
 62
     0
440
 16777216
100
AcDbTrace
 10
9013.429353089039
 20
876.5966017175768
 30
0.0
 11
9017.092163785852
 21
871.0262999085408
 31
0.0
 12
8998.549853010336
 22
862.8230187226204
 32
0.0
 13
8998.549853010336
 23
862.8230187226204
 33
0.0
  0
SOLID
  5
3859
330
1FBB
100
AcDbEntity
  8
0
 62
     0
440
 16777216
100
AcDbTrace
 10
8904.808467812815
 20
805.1717931297199
 30
0.0
 11
8908.471278509628
 21
799.6014913206836
 31
0.0
 12
8923.35077858833
 22
813.3750743156401
 32
0.0
 13
8923.35077858833
 23
813.3750743156401
 33
0.0
  0
POINT
  5
385A
330
1FBB
100
AcDbEntity
  8
Defpoints
 62
     0
440
 16777216
100
AcDbPoint
 10
8923.35077858833
 20
813.3750743156401
 30
0.0
  0
POINT
  5
385B
330
1FBB
100
AcDbEntity
  8
Defpoints
 62
     0
440
 16777216
100
AcDbPoint
 10
8998.549853010336
 20
862.8230187226204
 30
0.0
  0
ENDBLK
  5
1FC6
330
1FBB
100
AcDbEntity
  8
0
100
AcDbBlockEnd
  0
BLOCK
  5
1FD1
330
1FC7
100
AcDbEntity
  8
0
100
AcDbBlockBegin
  2
*D54
 70
     1
 10
0.0
 20
0.0
 30
0.0
  3
*D54
  1

  0
LINE
  5
385C
330
1FC7
100
AcDbEntity
  8
0
 62
     0
440
 16777216
370
    -2
100
AcDbLine
 10
8697.689794376152
 20
785.8091689905759
 30
0.0
 11
8658.18979437615
 21
785.8091689905763
 31
0.0
  0
LINE
  5
385D
330
1FC7
100
AcDbEntity
  8
0
 62
     0
440
 16777216
370
    -2
100
AcDbLine
 10
8658.18979437615
 20
785.8091689905763
 30
0.0
 11
8628.355976874264
 21
804.1106261255709
 31
0.0
  0
LINE
  5
385E
330
1FC7
100
AcDbEntity
  8
0
 62
     0
440
 16777216
370
    -2
100
AcDbLine
 10
8517.544654724387
 20
872.0874669126965
 30
0.0
 11
8500.496759009022
 21
882.5454424184076
 31
0.0
  0
MTEXT
  5
385F
330
1FC7
100
AcDbEntity
  8
0
 62
     0
440
 16777216
100
AcDbMText
 10
8678.939794376153
 20
795.3091689905755
 30
0.0
 40
15.0
 41
0.0
 46
0.0
 71
     5
 72
     1
  1
\A1;\U+220590
 73
     1
 44
1.0
  0
LINE
  5
3860
330
1FC7
100
AcDbEntity
  8
0
 62
     0
440
 16777216
370
    -2
100
AcDbLine
 10
8534.592550439752
 20
861.6294914069854
 30
0.0
 11
8611.308081158899
 21
814.568601631282
 31
0.0
  0
SOLID
  5
3861
330
1FC7
100
AcDbEntity
  8
0
 62
     0
440
 16777216
100
AcDbTrace
 10
8519.287650642004
 20
874.9287828652573
 30
0.0
 11
8515.80165880677
 21
869.2461509601358
 31
0.0
 12
8534.592550439752
 22
861.6294914069854
 32
0.0
 13
8534.592550439752
 23
861.6294914069854
 33
0.0
  0
SOLID
  5
3862
330
1FC7
100
AcDbEntity
  8
0
 62
     0
440
 16777216
100
AcDbTrace
 10
8630.098972791882
 20
806.9519420781317
 30
0.0
 11
8626.612980956645
 21
801.2693101730102
 31
0.0
 12
8611.308081158899
 22
814.568601631282
 32
0.0
 13
8611.308081158899
 23
814.568601631282
 33
0.0
  0
POINT
  5
3863
330
1FC7
100
AcDbEntity
  8
Defpoints
 62
     0
440
 16777216
100
AcDbPoint
 10
8611.308081158899
 20
814.568601631282
 30
0.0
  0
POINT
  5
3864
330
1FC7
100
AcDbEntity
  8
Defpoints
 62
     0
440
 16777216
100
AcDbPoint
 10
8534.592550439752
 20
861.6294914069854
 30
0.0
  0
ENDBLK
  5
1FD2
330
1FC7
100
AcDbEntity
  8
0
100
AcDbBlockEnd
  0
BLOCK
  5
1FDF
330
1FD3
100
AcDbEntity
  8
0
100
AcDbBlockBegin
  2
*D55
 70
     1
 10
0.0
 20
0.0
 30
0.0
  3
*D55
  1

  0
LINE
  5
3A24
330
1FD3
100
AcDbEntity
  8
0
 62
     0
440
 16777216
370
    -2
100
AcDbLine
 10
9161.950315799328
 20
1007.099046519135
 30
0.0
 11
9268.438170265934
 21
1007.099046519135
 31
0.0
  0
LINE
  5
3A25
330
1FD3
100
AcDbEntity
  8
0
 62
     0
440
 16777216
370
    -2
100
AcDbLine
 10
9164.95031579933
 20
1010.099046519128
 30
0.0
 11
9268.438170265934
 21
1010.099046519128
 31
0.0
  0
LINE
  5
3A26
330
1FD3
100
AcDbEntity
  8
0
 62
     0
440
 16777216
370
    -2
100
AcDbLine
 10
9266.438170265933
 20
1030.099046519128
 30
0.0
 11
9266.438170265933
 21
1050.099046519128
 31
0.0
  0
LINE
  5
3A27
330
1FD3
100
AcDbEntity
  8
0
 62
     0
440
 16777216
370
    -2
100
AcDbLine
 10
9266.438170265933
 20
987.0990465191352
 30
0.0
 11
9266.438170265933
 21
936.4091536380131
 31
0.0
  0
LINE
  5
3A28
330
1FD3
100
AcDbEntity
  8
0
 62
     0
440
 16777216
370
    -2
100
AcDbLine
 10
9266.438170265933
 20
1010.099046519128
 30
0.0
 11
9266.438170265933
 21
1007.099046519135
 31
0.0
  0
SOLID
  5
3A29
330
1FD3
100
AcDbEntity
  8
0
 62
     0
440
 16777216
100
AcDbTrace
 10
9263.104836932599
 20
1030.099046519128
 30
0.0
 11
9269.771503599269
 21
1030.099046519128
 31
0.0
 12
9266.438170265933
 22
1010.099046519128
 32
0.0
 13
9266.438170265933
 23
1010.099046519128
 33
0.0
  0
SOLID
  5
3A2A
330
1FD3
100
AcDbEntity
  8
0
 62
     0
440
 16777216
100
AcDbTrace
 10
9263.104836932599
 20
987.0990465191352
 30
0.0
 11
9269.771503599269
 21
987.0990465191352
 31
0.0
 12
9266.438170265933
 22
1007.099046519135
 32
0.0
 13
9266.438170265933
 23
1007.099046519135
 33
0.0
  0
MTEXT
  5
3A2B
330
1FD3
100
AcDbEntity
  8
0
 62
     0
440
 16777216
100
AcDbMText
 10
9256.938170265934
 20
943.4091536380147
 30
0.0
 40
15.0
 41
0.0
 46
0.0
 71
     5
 72
     1
  1
\A1;3
 11
0.0000000000000001
 21
1.0
 31
0.0
 73
     1
 44
1.0
  0
POINT
  5
3A2C
330
1FD3
100
AcDbEntity
  8
Defpoints
 62
     0
440
 16777216
100
AcDbPoint
 10
9159.950315799328
 20
1007.099046519135
 30
0.0
  0
POINT
  5
3A2D
330
1FD3
100
AcDbEntity
  8
Defpoints
 62
     0
440
 16777216
100
AcDbPoint
 10
9162.950315799331
 20
1010.099046519128
 30
0.0
  0
POINT
  5
3A2E
330
1FD3
100
AcDbEntity
  8
Defpoints
 62
     0
440
 16777216
100
AcDbPoint
 10
9266.438170265933
 20
1010.099046519128
 30
0.0
  0
ENDBLK
  5
1FE0
330
1FD3
100
AcDbEntity
  8
0
100
AcDbBlockEnd
  0
BLOCK
  5
2039
330
202D
100
AcDbEntity
  8
0
100
AcDbBlockBegin
  2
*D59
 70
     1
 10
0.0
 20
0.0
 30
0.0
  3
*D59
  1

  0
LINE
  5
3A45
330
202D
100
AcDbEntity
  8
0
 62
     0
440
 16777216
370
    -2
100
AcDbLine
 10
9137.281627136664
 20
212.0749784678228
 30
0.0
 11
9176.996914020184
 21
212.0749784678228
 31
0.0
  0
LINE
  5
3A46
330
202D
100
AcDbEntity
  8
0
 62
     0
440
 16777216
370
    -2
100
AcDbLine
 10
9007.950315799325
 20
197.0745406439637
 30
0.0
 11
9176.996914020184
 21
197.0745406439636
 31
0.0
  0
LINE
  5
3A47
330
202D
100
AcDbEntity
  8
0
 62
     0
440
 16777216
370
    -2
100
AcDbLine
 10
9174.996914020182
 20
177.0745406439636
 30
0.0
 11
9174.996914020182
 21
157.0745406439636
 31
0.0
  0
LINE
  5
3A48
330
202D
100
AcDbEntity
  8
0
 62
     0
440
 16777216
370
    -2
100
AcDbLine
 10
9174.996914020182
 20
232.0749784678228
 30
0.0
 11
9174.996914020182
 21
291.074978467825
 31
0.0
  0
LINE
  5
3A49
330
202D
100
AcDbEntity
  8
0
 62
     0
440
 16777216
370
    -2
100
AcDbLine
 10
9174.996914020182
 20
197.0745406439636
 30
0.0
 11
9174.996914020182
 21
212.0749784678228
 31
0.0
  0
SOLID
  5
3A4A
330
202D
100
AcDbEntity
  8
0
 62
     0
440
 16777216
100
AcDbTrace
 10
9171.66358068685
 20
177.0745406439636
 30
0.0
 11
9178.330247353517
 21
177.0745406439636
 31
0.0
 12
9174.996914020182
 22
197.0745406439636
 32
0.0
 13
9174.996914020182
 23
197.0745406439636
 33
0.0
  0
SOLID
  5
3A4B
330
202D
100
AcDbEntity
  8
0
 62
     0
440
 16777216
100
AcDbTrace
 10
9171.66358068685
 20
232.0749784678228
 30
0.0
 11
9178.330247353517
 21
232.0749784678228
 31
0.0
 12
9174.996914020182
 22
212.0749784678228
 32
0.0
 13
9174.996914020182
 23
212.0749784678228
 33
0.0
  0
MTEXT
  5
3A4C
330
202D
100
AcDbEntity
  8
0
 62
     0
440
 16777216
100
AcDbMText
 10
9165.496914020183
 20
279.0749784678264
 30
0.0
 40
15.0
 41
0.0
 46
0.0
 71
     5
 72
     1
  1
\A1;15
 11
0.0000000000000001
 21
1.0
 31
0.0
 73
     1
 44
1.0
  0
POINT
  5
3A4D
330
202D
100
AcDbEntity
  8
Defpoints
 62
     0
440
 16777216
100
AcDbPoint
 10
9135.281627136665
 20
212.0749784678228
 30
0.0
  0
POINT
  5
3A4E
330
202D
100
AcDbEntity
  8
Defpoints
 62
     0
440
 16777216
100
AcDbPoint
 10
9005.950315799324
 20
197.0745406439637
 30
0.0
  0
POINT
  5
3A4F
330
202D
100
AcDbEntity
  8
Defpoints
 62
     0
440
 16777216
100
AcDbPoint
 10
9174.996914020182
 20
197.0745406439636
 30
0.0
  0
ENDBLK
  5
203A
330
202D
100
AcDbEntity
  8
0
100
AcDbBlockEnd
  0
BLOCK
  5
2047
330
203B
100
AcDbEntity
  8
0
100
AcDbBlockBegin
  2
*D60
 70
     1
 10
0.0
 20
0.0
 30
0.0
  3
*D60
  1

  0
LINE
  5
3884
330
203B
100
AcDbEntity
  8
0
 62
     0
440
 16777216
370
    -2
100
AcDbLine
 10
9139.905678175955
 20
395.0745406439601
 30
0.0
 11
9139.905678175955
 21
132.6031617541375
 31
0.0
  0
LINE
  5
3885
330
203B
100
AcDbEntity
  8
0
 62
     0
440
 16777216
370
    -2
100
AcDbLine
 10
9135.281627136665
 20
210.0749784678228
 30
0.0
 11
9135.281627136665
 21
132.6031617541375
 31
0.0
  0
LINE
  5
3886
330
203B
100
AcDbEntity
  8
0
 62
     0
440
 16777216
370
    -2
100
AcDbLine
 10
9159.905678175954
 20
134.6031617541375
 30
0.0
 11
9179.905678175954
 21
134.6031617541375
 31
0.0
  0
LINE
  5
3887
330
203B
100
AcDbEntity
  8
0
 62
     0
440
 16777216
370
    -2
100
AcDbLine
 10
9115.281627136665
 20
134.6031617541375
 30
0.0
 11
9063.781627136664
 21
134.6031617541375
 31
0.0
  0
LINE
  5
3888
330
203B
100
AcDbEntity
  8
0
 62
     0
440
 16777216
370
    -2
100
AcDbLine
 10
9139.905678175955
 20
134.6031617541375
 30
0.0
 11
9135.281627136665
 21
134.6031617541375
 31
0.0
  0
SOLID
  5
3889
330
203B
100
AcDbEntity
  8
0
 62
     0
440
 16777216
100
AcDbTrace
 10
9159.905678175954
 20
137.9364950874709
 30
0.0
 11
9159.905678175954
 21
131.2698284208042
 31
0.0
 12
9139.905678175955
 22
134.6031617541375
 32
0.0
 13
9139.905678175955
 23
134.6031617541375
 33
0.0
  0
SOLID
  5
388A
330
203B
100
AcDbEntity
  8
0
 62
     0
440
 16777216
100
AcDbTrace
 10
9115.281627136665
 20
137.9364950874709
 30
0.0
 11
9115.281627136665
 21
131.2698284208042
 31
0.0
 12
9135.281627136665
 22
134.6031617541375
 32
0.0
 13
9135.281627136665
 23
134.6031617541375
 33
0.0
  0
MTEXT
  5
388B
330
203B
100
AcDbEntity
  8
0
 62
     0
440
 16777216
100
AcDbMText
 10
9079.531627136665
 20
144.1031617541375
 30
0.0
 40
15.0
 41
0.0
 46
0.0
 71
     5
 72
     1
  1
\A1;5.0
 73
     1
 44
1.0
  0
POINT
  5
388C
330
203B
100
AcDbEntity
  8
Defpoints
 62
     0
440
 16777216
100
AcDbPoint
 10
9139.905678175955
 20
397.0745406439601
 30
0.0
  0
POINT
  5
388D
330
203B
100
AcDbEntity
  8
Defpoints
 62
     0
440
 16777216
100
AcDbPoint
 10
9135.281627136665
 20
212.0749784678228
 30
0.0
  0
POINT
  5
388E
330
203B
100
AcDbEntity
  8
Defpoints
 62
     0
440
 16777216
100
AcDbPoint
 10
9135.281627136665
 20
134.6031617541375
 30
0.0
  0
ENDBLK
  5
2048
330
203B
100
AcDbEntity
  8
0
100
AcDbBlockEnd
  0
BLOCK
  5
2102
330
20F6
100
AcDbEntity
  8
0
100
AcDbBlockBegin
  2
*D75
 70
     1
 10
0.0
 20
0.0
 30
0.0
  3
*D75
  1

  0
LINE
  5
3AB9
330
20F6
100
AcDbEntity
  8
0
 62
     0
440
 16777216
370
    -2
100
AcDbLine
 10
8995.082233439168
 20
197.0745406439637
 30
0.0
 11
9071.55194189629
 21
197.0745406439636
 31
0.0
  0
LINE
  5
3ABA
330
20F6
100
AcDbEntity
  8
0
 62
     0
440
 16777216
370
    -2
100
AcDbLine
 10
8995.082233439168
 20
202.0745406439637
 30
0.0
 11
9071.55194189629
 21
202.0745406439637
 31
0.0
  0
LINE
  5
3ABB
330
20F6
100
AcDbEntity
  8
0
 62
     0
440
 16777216
370
    -2
100
AcDbLine
 10
9069.551941896291
 20
177.0745406439637
 30
0.0
 11
9069.551941896291
 21
157.0745406439636
 31
0.0
  0
LINE
  5
3ABC
330
20F6
100
AcDbEntity
  8
0
 62
     0
440
 16777216
370
    -2
100
AcDbLine
 10
9069.551941896291
 20
222.0745406439637
 30
0.0
 11
9069.551941896291
 21
271.0745406439659
 31
0.0
  0
LINE
  5
3ABD
330
20F6
100
AcDbEntity
  8
0
 62
     0
440
 16777216
370
    -2
100
AcDbLine
 10
9069.551941896291
 20
197.0745406439636
 30
0.0
 11
9069.551941896291
 21
202.0745406439637
 31
0.0
  0
SOLID
  5
3ABE
330
20F6
100
AcDbEntity
  8
0
 62
     0
440
 16777216
100
AcDbTrace
 10
9066.218608562957
 20
177.0745406439637
 30
0.0
 11
9072.885275229625
 21
177.0745406439637
 31
0.0
 12
9069.551941896291
 22
197.0745406439636
 32
0.0
 13
9069.551941896291
 23
197.0745406439636
 33
0.0
  0
SOLID
  5
3ABF
330
20F6
100
AcDbEntity
  8
0
 62
     0
440
 16777216
100
AcDbTrace
 10
9066.218608562957
 20
222.0745406439637
 30
0.0
 11
9072.885275229625
 21
222.0745406439637
 31
0.0
 12
9069.551941896291
 22
202.0745406439637
 32
0.0
 13
9069.551941896291
 23
202.0745406439637
 33
0.0
  0
MTEXT
  5
3AC0
330
20F6
100
AcDbEntity
  8
0
 62
     0
440
 16777216
100
AcDbMText
 10
9060.05194189629
 20
264.0745406439673
 30
0.0
 40
15.0
 41
0.0
 46
0.0
 71
     5
 72
     1
  1
\A1;5
 11
0.0000000000000001
 21
1.0
 31
0.0
 73
     1
 44
1.0
  0
POINT
  5
3AC1
330
20F6
100
AcDbEntity
  8
Defpoints
 62
     0
440
 16777216
100
AcDbPoint
 10
8993.082233439166
 20
197.0745406439637
 30
0.0
  0
POINT
  5
3AC2
330
20F6
100
AcDbEntity
  8
Defpoints
 62
     0
440
 16777216
100
AcDbPoint
 10
8993.082233439166
 20
202.0745406439637
 30
0.0
  0
POINT
  5
3AC3
330
20F6
100
AcDbEntity
  8
Defpoints
 62
     0
440
 16777216
100
AcDbPoint
 10
9069.551941896291
 20
202.0745406439637
 30
0.0
  0
ENDBLK
  5
2103
330
20F6
100
AcDbEntity
  8
0
100
AcDbBlockEnd
  0
BLOCK
  5
210B
330
2104
100
AcDbEntity
  8
0
100
AcDbBlockBegin
  2
*D76
 70
     1
 10
0.0
 20
0.0
 30
0.0
  3
*D76
  1

  0
LINE
  5
38A6
330
2104
100
AcDbEntity
  8
0
  6
PHANTOM
 62
     0
440
 16777216
370
    -2
100
AcDbLine
 10
8481.574538500479
 20
953.9828734963721
 30
0.0
 11
8444.57453850048
 21
953.982873496373
 31
0.0
  0
LINE
  5
38A7
330
2104
100
AcDbEntity
  8
0
  6
PHANTOM
 62
     0
440
 16777216
370
    -2
100
AcDbLine
 10
8444.57453850048
 20
953.982873496373
 30
0.0
 11
8413.407132192912
 21
969.8325982770425
 31
0.0
  0
MTEXT
  5
38A8
330
2104
100
AcDbEntity
  8
0
  6
PHANTOM
 62
     0
440
 16777216
100
AcDbMText
 10
8464.074538500479
 20
963.4828734963726
 30
0.0
 40
15.0
 41
0.0
 46
0.0
 71
     5
 72
     1
  1
\A1;R15
 73
     1
 44
1.0
  0
SOLID
  5
38A9
330
2104
100
AcDbEntity
  8
0
  6
PHANTOM
 62
     0
440
 16777216
100
AcDbTrace
 10
8414.918097687632
 20
972.8038092060865
 30
0.0
 11
8411.896166698189
 21
966.8613873479976
 31
0.0
 12
8395.579866618643
 22
978.8983912453664
 32
0.0
 13
8395.579866618643
 23
978.8983912453664
 33
0.0
  0
POINT
  5
38AA
330
2104
100
AcDbEntity
  8
Defpoints
  6
PHANTOM
 62
     0
440
 16777216
100
AcDbPoint
 10
8395.579866618643
 20
978.8983912453664
 30
0.0
  0
POINT
  5
38AB
330
2104
100
AcDbEntity
  8
Defpoints
  6
PHANTOM
 62
     0
440
 16777216
100
AcDbPoint
 10
8408.950315799328
 20
972.0990465191311
 30
0.0
  0
ENDBLK
  5
210C
330
2104
100
AcDbEntity
  8
0
100
AcDbBlockEnd
  0
ENDSEC
  0
SECTION
  2
ENTITIES
  0
LINE
  5
1AA0
102
{ACAD_REACTORS
330
1B00
102
}
330
1F
100
AcDbEntity
  8
0
100
AcDbLine
 10
9159.950315799324
 20
397.0745406439637
 30
0.0
 11
8373.950315799332
 21
397.0745406439637
 31
0.0
  0
LINE
  5
1AA1
330
1F
100
AcDbEntity
  8
0
100
AcDbLine
 10
8372.038283385874
 20
392.0745406439637
 30
0.0
 11
8370.950315799328
 21
392.0745406439637
 31
0.0
  0
LINE
  5
1AA2
330
1F
100
AcDbEntity
  8
0
100
AcDbLine
 10
9159.290919641341
 20
396.0745406439601
 30
0.0
 11
8374.609711957306
 21
396.0745406439637
 31
0.0
  0
LINE
  5
1AA3
330
1F
100
AcDbEntity
  8
0
100
AcDbLine
 10
8905.950315799325
 20
202.0745406439637
 30
0.0
 11
8915.950315799324
 21
197.0745406439637
 31
0.0
  0
LINE
  5
1AA4
330
1F
100
AcDbEntity
  8
0
100
AcDbLine
 10
9015.950315799324
 20
202.0745406439637
 30
0.0
 11
9005.950315799324
 21
197.0745406439637
 31
0.0
  0
LINE
  5
1AA5
102
{ACAD_REACTORS
330
1B00
330
1C3A
102
}
330
1F
100
AcDbEntity
  8
0
100
AcDbLine
 10
9005.950315799324
 20
197.0745406439637
 30
0.0
 11
8915.950315799328
 21
197.0745406439637
 31
0.0
  0
LINE
  5
1AA6
330
1F
100
AcDbEntity
  8
0
100
AcDbLine
 10
8782.222865439704
 20
392.0745406439601
 30
0.0
 11
8786.359975742703
 21
225.5201193167923
 31
0.0
  0
LINE
  5
1AA7
330
1F
100
AcDbEntity
  8
0
100
AcDbLine
 10
9139.798141886279
 20
392.0745406439637
 30
0.0
 11
9135.533435096146
 21
225.5080856515051
 31
0.0
  0
ARC
  5
1AA8
330
1F
100
AcDbEntity
  8
0
100
AcDbCircle
 10
9120.538349276282
 20
225.8920143622272
 30
0.0
 40
15.0
100
AcDbArc
 50
274.7904202613006
 51
358.5333401808164
  0
LINE
  5
1AA9
102
{ACAD_REACTORS
330
1C3A
102
}
330
1F
100
AcDbEntity
  8
0
100
AcDbLine
 10
9015.950315799324
 20
202.0745406439637
 30
0.0
 11
8905.950315799328
 21
202.0745406439637
 31
0.0
  0
LINE
  5
1AAA
330
1F
100
AcDbEntity
  8
0
100
AcDbLine
 10
9162.950315799331
 20
1010.099046519128
 30
0.0
 11
9162.950315799324
 21
566.099046519128
 31
0.0
  0
LINE
  5
1AAB
330
1F
100
AcDbEntity
  8
0
100
AcDbLine
 10
9159.950315799335
 20
1007.099046519139
 30
0.0
 11
9159.950315799324
 21
569.0990465191316
 31
0.0
  0
LINE
  5
1AAC
330
1F
100
AcDbEntity
  8
0
100
AcDbLine
 10
8918.111301907494
 20
872.5927979645021
 30
0.0
 11
8806.950315799328
 21
962.0990465191317
 31
0.0
  0
LINE
  5
1AAD
330
1F
100
AcDbEntity
  8
0
100
AcDbLine
 10
9114.950315799324
 20
614.099046519128
 30
0.0
 11
8992.109401058113
 21
792.7767406881648
 31
0.0
  0
LINE
  5
1AAE
330
1F
100
AcDbEntity
  8
0
100
AcDbLine
 10
8806.950315799328
 20
614.099046519128
 30
0.0
 11
8929.791230540537
 21
792.7767406881648
 31
0.0
  0
LINE
  5
1AAF
330
1F
100
AcDbEntity
  8
0
100
AcDbLine
 10
9114.950315799328
 20
962.099046519128
 30
0.0
 11
9003.78932969116
 21
872.5927979645021
 31
0.0
  0
CIRCLE
  5
1AB0
330
1F
100
AcDbEntity
  8
0
100
AcDbCircle
 10
8960.950315799328
 20
838.0990465191279
 30
0.0
 40
55.0
  0
CIRCLE
  5
1AB1
330
1F
100
AcDbEntity
  8
0
100
AcDbCircle
 10
8960.950315799328
 20
838.0990465191279
 30
0.0
 40
45.0
  0
CIRCLE
  5
1AB2
102
{ACAD_REACTORS
330
1B03
102
}
330
1F
100
AcDbEntity
  8
0
100
AcDbCircle
 10
8960.950315799328
 20
838.0990465191279
 30
0.0
 40
45.0
  0
LINE
  5
1AB3
330
1F
100
AcDbEntity
  8
0
100
AcDbLine
 10
9124.950315799328
 20
987.099046519128
 30
0.0
 11
8726.950315799328
 21
987.0990465191317
 31
0.0
  0
ARC
  5
1AB4
330
1F
100
AcDbEntity
  8
0
100
AcDbCircle
 10
8796.950315799326
 20
972.0990465191317
 30
0.0
 40
15.0
100
AcDbArc
 50
90.0
 51
180.0
  0
LINE
  5
1AB5
330
1F
100
AcDbEntity
  8
0
100
AcDbLine
 10
8781.950315799328
 20
972.0990465191317
 30
0.0
 11
8781.950315799328
 21
604.099046519128
 31
0.0
  0
LINE
  5
1AB6
102
{ACAD_REACTORS
330
1AF1
102
}
330
1F
100
AcDbEntity
  8
0
100
AcDbLine
 10
9124.950315799324
 20
589.0990465191244
 30
0.0
 11
8726.950315799328
 21
589.0990465191316
 31
0.0
  0
ARC
  5
1AB7
330
1F
100
AcDbEntity
  8
0
100
AcDbCircle
 10
9124.950315799324
 20
604.0990465191243
 30
0.0
 40
15.0
100
AcDbArc
 50
270.0
 51
0.0
  0
ARC
  5
1AB8
330
1F
100
AcDbEntity
  8
0
100
AcDbCircle
 10
8796.950315799332
 20
604.099046519128
 30
0.0
 40
15.0
100
AcDbArc
 50
180.0
 51
270.0
  0
LINE
  5
1AB9
102
{ACAD_REACTORS
330
1AED
102
}
330
1F
100
AcDbEntity
  8
0
100
AcDbLine
 10
9139.950315799328
 20
972.0990465191279
 30
0.0
 11
9139.950315799323
 21
604.0990465191243
 31
0.0
  0
ARC
  5
1ABA
330
1F
100
AcDbEntity
  8
0
100
AcDbCircle
 10
9124.950315799328
 20
972.0990465191279
 30
0.0
 40
15.0
100
AcDbArc
 50
0.0
 51
90.0
  0
LINE
  5
1ABB
330
1F
100
AcDbEntity
  8
0
100
AcDbLine
 10
8393.950315799328
 20
972.0990465191317
 30
0.0
 11
8393.950315799328
 21
604.0990465191316
 31
0.0
  0
ARC
  5
1ABC
330
1F
100
AcDbEntity
  8
0
100
AcDbCircle
 10
8408.950315799328
 20
604.0990465191316
 30
0.0
 40
15.0
100
AcDbArc
 50
180.0
 51
270.0
  0
LINE
  5
1ABD
330
1F
100
AcDbEntity
  8
0
100
AcDbLine
 10
8408.950315799328
 20
589.0990465191316
 30
0.0
 11
8726.950315799328
 21
589.0990465191316
 31
0.0
  0
ARC
  5
1ABE
330
1F
100
AcDbEntity
  8
0
100
AcDbCircle
 10
8736.950315799328
 20
604.0990465191316
 30
0.0
 40
15.0
100
AcDbArc
 50
270.0
 51
0.0
  0
LINE
  5
1ABF
330
1F
100
AcDbEntity
  8
0
100
AcDbLine
 10
8751.950315799328
 20
972.0990465191317
 30
0.0
 11
8751.950315799328
 21
604.0990465191316
 31
0.0
  0
LINE
  5
1AC0
330
1F
100
AcDbEntity
  8
0
100
AcDbLine
 10
8408.950315799328
 20
987.0990465191317
 30
0.0
 11
8726.950315799328
 21
987.0990465191317
 31
0.0
  0
ARC
  5
1AC1
102
{ACAD_REACTORS
330
1C3D
102
}
330
1F
100
AcDbEntity
  8
0
100
AcDbCircle
 10
8408.950315799328
 20
972.0990465191317
 30
0.0
 40
15.0
100
AcDbArc
 50
90.0
 51
180.0
  0
ARC
  5
1AC2
330
1F
100
AcDbEntity
  8
0
100
AcDbCircle
 10
8736.950315799328
 20
972.0990465191317
 30
0.0
 40
15.0
100
AcDbArc
 50
0.0
 51
90.0
  0
CIRCLE
  5
1AC3
330
1F
100
AcDbEntity
  8
0
100
AcDbCircle
 10
8572.950315799328
 20
838.0990465191317
 30
0.0
 40
45.0
  0
CIRCLE
  5
1AC4
102
{ACAD_REACTORS
330
1B06
102
}
330
1F
100
AcDbEntity
  8
0
100
AcDbCircle
 10
8572.950315799328
 20
838.0990465191317
 30
0.0
 40
45.0
  0
CIRCLE
  5
1AC5
330
1F
100
AcDbEntity
  8
0
100
AcDbCircle
 10
8572.950315799328
 20
838.0990465191317
 30
0.0
 40
55.0
  0
LINE
  5
1AC6
330
1F
100
AcDbEntity
  8
0
100
AcDbLine
 10
8418.950315799326
 20
962.0990465191317
 30
0.0
 11
8530.111301907492
 21
872.5927979645021
 31
0.0
  0
LINE
  5
1AC7
330
1F
100
AcDbEntity
  8
0
100
AcDbLine
 10
8726.950315799328
 20
614.0990465191316
 30
0.0
 11
8604.109401058115
 21
792.7767406881648
 31
0.0
  0
LINE
  5
1AC8
330
1F
100
AcDbEntity
  8
0
100
AcDbLine
 10
8418.950315799326
 20
614.0990465191316
 30
0.0
 11
8541.791230540537
 21
792.7767406881648
 31
0.0
  0
LINE
  5
1AC9
330
1F
100
AcDbEntity
  8
0
100
AcDbLine
 10
8615.78932969116
 20
872.5927979645021
 30
0.0
 11
8726.950315799328
 21
962.0990465191317
 31
0.0
  0
LINE
  5
1ACA
330
1F
100
AcDbEntity
  8
0
100
AcDbLine
 10
8517.950315799328
 20
202.0745406439637
 30
0.0
 11
8627.950315799328
 21
202.0745406439637
 31
0.0
  0
LINE
  5
1ACB
330
1F
100
AcDbEntity
  8
0
100
AcDbLine
 10
8394.102489712372
 20
392.0745406439637
 30
0.0
 11
8398.367196502514
 21
225.5080856515087
 31
0.0
  0
ARC
  5
1ACC
102
{ACAD_REACTORS
330
1C82
102
}
330
1F
100
AcDbEntity
  8
0
100
AcDbCircle
 10
8413.362282322378
 20
225.8920143622308
 30
0.0
 40
15.0
100
AcDbArc
 50
181.4666598191836
 51
265.2095797386995
  0
LINE
  5
1ACD
330
1F
100
AcDbEntity
  8
0
100
AcDbLine
 10
8751.677766158955
 20
392.0745406439637
 30
0.0
 11
8747.540655855948
 21
225.5201193167923
 31
0.0
  0
ARC
  5
1ACE
330
1F
100
AcDbEntity
  8
0
100
AcDbCircle
 10
8732.545281180591
 20
225.8925952833415
 30
0.0
 40
15.0
100
AcDbArc
 50
274.7904202613006
 51
358.5771003541428
  0
LINE
  5
1ACF
330
1F
100
AcDbEntity
  8
0
100
AcDbLine
 10
8527.950315799328
 20
197.0745406439637
 30
0.0
 11
8617.950315799328
 21
197.0745406439637
 31
0.0
  0
LINE
  5
1AD0
330
1F
100
AcDbEntity
  8
0
100
AcDbLine
 10
8517.950315799328
 20
202.0745406439637
 30
0.0
 11
8527.950315799328
 21
197.0745406439637
 31
0.0
  0
LINE
  5
1AD1
330
1F
100
AcDbEntity
  8
0
100
AcDbLine
 10
8627.950315799328
 20
202.0745406439637
 30
0.0
 11
8617.950315799328
 21
197.0745406439637
 31
0.0
  0
LINE
  5
1AD2
102
{ACAD_REACTORS
330
1AEA
102
}
330
1F
100
AcDbEntity
  8
0
100
AcDbLine
 10
8370.950315799328
 20
1010.099046519124
 30
0.0
 11
9162.950315799328
 21
1010.099046519135
 31
0.0
  0
LINE
  5
1AD3
102
{ACAD_REACTORS
330
1B09
102
}
330
1F
100
AcDbEntity
  8
0
100
AcDbLine
 10
8373.950315799332
 20
1007.099046519121
 30
0.0
 11
9159.950315799328
 21
1007.099046519135
 31
0.0
  0
LINE
  5
1AD4
102
{ACAD_REACTORS
330
1AEA
102
}
330
1F
100
AcDbEntity
  8
0
100
AcDbLine
 10
8370.950315799328
 20
566.0990465191316
 30
0.0
 11
9162.950315799319
 21
566.0990465191316
 31
0.0
  0
LINE
  5
1AD5
102
{ACAD_REACTORS
330
1AF4
102
}
330
1F
100
AcDbEntity
  8
0
100
AcDbLine
 10
8373.950315799328
 20
569.0990465191316
 30
0.0
 11
9159.950315799321
 21
569.0990465191316
 31
0.0
  0
LINE
  5
1AD6
330
1F
100
AcDbEntity
  8
0
100
AcDbLine
 10
8370.950315799328
 20
1010.099046519131
 30
0.0
 11
8370.950315799328
 21
566.0990465191316
 31
0.0
  0
LINE
  5
1AD7
330
1F
100
AcDbEntity
  8
0
100
AcDbLine
 10
8373.950315799328
 20
1007.099046519124
 30
0.0
 11
8373.950315799328
 21
569.0990465191316
 31
0.0
  0
LINE
  5
1AD8
330
1F
100
AcDbEntity
  8
0
  6
CENTER
 62
     1
 48
55.88
100
AcDbLine
 10
8512.450315799327
 20
838.0990465191317
 30
0.0
 11
8633.450315799327
 21
838.0990465191317
 31
0.0
  0
LINE
  5
1AD9
330
1F
100
AcDbEntity
  8
0
  6
CENTER
 62
     1
 48
55.88
100
AcDbLine
 10
8572.950315799328
 20
777.5990465191316
 30
0.0
 11
8572.950315799328
 21
898.5990465191317
 31
0.0
  0
LINE
  5
1ADA
330
1F
100
AcDbEntity
  8
0
  6
CENTER
 62
     1
 48
55.88
100
AcDbLine
 10
8900.450315799329
 20
838.0990465191279
 30
0.0
 11
9021.450315799327
 21
838.0990465191279
 31
0.0
  0
LINE
  5
1ADB
330
1F
100
AcDbEntity
  8
0
  6
CENTER
 62
     1
 48
55.88
100
AcDbLine
 10
8960.950315799328
 20
777.599046519128
 30
0.0
 11
8960.950315799328
 21
898.599046519128
 31
0.0
  0
LINE
  5
1ADC
330
1F
100
AcDbEntity
  8
0
100
AcDbLine
 10
9015.950315799324
 20
202.0745406439637
 30
0.0
 11
9121.791017734834
 21
210.9444118209176
 31
0.0
  0
LINE
  5
1ADD
330
1F
100
AcDbEntity
  8
0
100
AcDbLine
 10
8905.950315799325
 20
202.0745406439637
 30
0.0
 11
8800.102681959506
 21
210.9449927420319
 31
0.0
  0
ARC
  5
1ADE
102
{ACAD_REACTORS
330
1C7F
102
}
330
1F
100
AcDbEntity
  8
0
100
AcDbCircle
 10
8801.355350418061
 20
225.8925952833415
 30
0.0
 40
15.0
100
AcDbArc
 50
181.4228996458572
 51
265.2095797386995
  0
LINE
  5
1ADF
330
1F
100
AcDbEntity
  8
0
100
AcDbLine
 10
8412.109613863824
 20
210.9444118209212
 30
0.0
 11
8517.950315799328
 21
202.0745406439637
 31
0.0
  0
LINE
  5
1AE0
330
1F
100
AcDbEntity
  8
0
100
AcDbLine
 10
8733.797949639145
 20
210.9449927420319
 30
0.0
 11
8627.950315799328
 21
202.0745406439637
 31
0.0
  0
LINE
  5
1AE1
102
{ACAD_REACTORS
330
1AE7
102
}
330
1F
100
AcDbEntity
  8
0
100
AcDbLine
 10
8373.950315799328
 20
569.0990465191316
 30
0.0
 11
8370.950315799328
 21
566.0990465191316
 31
0.0
  0
LINE
  5
1AE2
102
{ACAD_REACTORS
330
1B09
102
}
330
1F
100
AcDbEntity
  8
0
100
AcDbLine
 10
9159.950315799331
 20
1007.099046519135
 30
0.0
 11
9162.950315799331
 21
1010.099046519128
 31
0.0
  0
LINE
  5
1AE3
102
{ACAD_REACTORS
330
1AE7
102
}
330
1F
100
AcDbEntity
  8
0
100
AcDbLine
 10
9159.950315799324
 20
569.0990465191316
 30
0.0
 11
9162.950315799324
 21
566.099046519128
 31
0.0
  0
LINE
  5
1AE4
330
1F
100
AcDbEntity
  8
0
100
AcDbLine
 10
8373.950315799328
 20
1007.099046519124
 30
0.0
 11
8370.950315799328
 21
1010.099046519124
 31
0.0
  0
DIMENSION
  5
1AE5
102
{ACAD_XDICTIONARY
360
1AE6
102
}
102
{ACAD_REACTORS
330
1AE7
102
}
330
1F
100
AcDbEntity
  8
0
100
AcDbDimension
280
     0
  2
*D46
 10
8370.950315799328
 20
494.0470734340379
 30
0.0
 11
8733.589508233777
 21
494.0470734340379
 31
0.0
 70
   160
 71
     5
 42
791.9999999999963
 73
     0
 74
     0
 75
     0
  3
N915iso
100
AcDbAlignedDimension
 13
9162.950315799324
 23
566.099046519128
 33
0.0
 14
8370.950315799328
 24
566.0990465191316
 34
0.0
100
AcDbRotatedDimension
  0
DIMENSION
  5
1AE8
102
{ACAD_XDICTIONARY
360
1AE9
102
}
102
{ACAD_REACTORS
330
1AEA
102
}
330
1F
100
AcDbEntity
  8
0
100
AcDbDimension
280
     0
  2
*D47
 10
9309.557731038864
 20
1010.099046519135
 30
0.0
 11
9309.557731038864
 21
783.8644563122252
 31
0.0
 70
   160
 71
     5
 42
444.0000000000036
 73
     0
 74
     0
 75
     0
  3
N915iso
100
AcDbAlignedDimension
 13
9162.950315799319
 23
566.0990465191316
 33
0.0
 14
9162.950315799317
 24
1010.099046519135
 34
0.0
 50
90.0
100
AcDbRotatedDimension
  0
DIMENSION
  5
1AEB
102
{ACAD_XDICTIONARY
360
1AEC
102
}
102
{ACAD_REACTORS
330
1AED
102
}
330
1F
100
AcDbEntity
  8
0
100
AcDbDimension
280
     0
  2
*D48
 10
8781.950315799328
 20
535.1364968243578
 30
0.0
 11
8957.637305437769
 21
535.1364968243578
 31
0.0
 70
   160
 71
     5
 42
357.9999999999964
 73
     0
 74
     0
 75
     0
  3
N915iso
100
AcDbAlignedDimension
 13
9139.950315799323
 23
604.0990465191243
 33
0.0
 14
8781.950315799328
 24
604.099046519128
 34
0.0
100
AcDbRotatedDimension
  0
DIMENSION
  5
1AEE
330
1F
100
AcDbEntity
  8
0
100
AcDbDimension
280
     0
  2
*D8
 10
8393.950315799328
 20
535.1364968243615
 30
0.0
 11
8615.390823407109
 21
535.1364968243615
 31
0.0
 70
   160
 71
     5
 42
358.0
 73
     0
 74
     0
 75
     0
  3
N915iso
100
AcDbAlignedDimension
 13
8751.950315799328
 23
604.0990465191316
 33
0.0
 14
8393.950315799328
 24
614.0990465191316
 34
0.0
100
AcDbRotatedDimension
  0
DIMENSION
  5
1AEF
102
{ACAD_XDICTIONARY
360
1AF0
102
}
102
{ACAD_REACTORS
330
1AF1
102
}
330
1F
100
AcDbEntity
  8
0
100
AcDbDimension
280
     0
  2
*D49
 10
9207.477565226767
 20
987.099046519128
 30
0.0
 11
9207.477565226767
 21
786.4088262023579
 31
0.0
 70
   160
 71
     5
 42
398.0000000000036
 73
     0
 74
     0
 75
     0
  3
N915iso
100
AcDbAlignedDimension
 13
9124.950315799324
 23
589.0990465191244
 33
0.0
 14
9114.950315799324
 24
987.099046519128
 34
0.0
 50
90.0
100
AcDbRotatedDimension
  0
DIMENSION
  5
1AF2
102
{ACAD_XDICTIONARY
360
1AF3
102
}
102
{ACAD_REACTORS
330
1AF4
102
}
330
1F
100
AcDbEntity
  8
0
100
AcDbDimension
280
     0
  2
*D50
 10
9159.950315799321
 20
512.9909475635541
 30
0.0
 11
9224.950315799324
 21
512.9909475635541
 31
0.0
 70
   160
 71
     5
 42
3.000000000003637
 73
     0
 74
     0
 75
     0
  3
N915iso
100
AcDbAlignedDimension
 13
9162.950315799324
 23
566.0990465191316
 33
0.0
 14
9159.950315799321
 24
569.0990465191316
 34
0.0
100
AcDbRotatedDimension
  0
LINE
  5
1AF5
330
1F
100
AcDbEntity
  8
0
100
AcDbLine
 10
8370.950315799328
 20
392.0745406439637
 30
0.0
 11
8373.950315799328
 21
397.0745406439637
 31
0.0
  0
LINE
  5
1AF6
330
1F
100
AcDbEntity
  8
0
100
AcDbLine
 10
8372.038283385874
 20
392.0745406439637
 30
0.0
 11
8374.609711957306
 21
396.0745406439637
 31
0.0
  0
LINE
  5
1AF7
330
1F
100
AcDbEntity
  8
0
100
AcDbLine
 10
9161.862348212773
 20
392.0745406439637
 30
0.0
 11
9162.950315799319
 21
392.0745406439637
 31
0.0
  0
LINE
  5
1AF8
102
{ACAD_REACTORS
330
1AFD
330
1B00
102
}
330
1F
100
AcDbEntity
  8
0
100
AcDbLine
 10
9162.950315799319
 20
392.0745406439637
 30
0.0
 11
9159.950315799321
 21
397.0745406439637
 31
0.0
  0
LINE
  5
1AF9
330
1F
100
AcDbEntity
  8
0
100
AcDbLine
 10
9161.862348212773
 20
392.0745406439637
 30
0.0
 11
9159.290919641341
 21
396.0745406439637
 31
0.0
  0
LINE
  5
1AFA
330
1F
100
AcDbEntity
  8
0
100
AcDbLine
 10
9161.862348212773
 20
392.0745406439637
 30
0.0
 11
8372.038283385874
 21
392.0745406439637
 31
0.0
  0
DIMENSION
  5
1AFB
102
{ACAD_XDICTIONARY
360
1AFC
102
}
102
{ACAD_REACTORS
330
1AFD
102
}
330
1F
100
AcDbEntity
  8
0
100
AcDbDimension
280
     0
  2
*D51
 10
9179.011914401733
 20
397.0745406439637
 30
0.0
 11
9179.011914401733
 21
330.0745406439652
 31
0.0
 70
   160
 71
     5
 42
5.0
 73
     0
 74
     0
 75
     0
  3
N915
100
AcDbAlignedDimension
 13
9162.950315799319
 23
392.0745406439637
 33
0.0
 14
9159.950315799321
 24
397.0745406439637
 34
0.0
 50
90.0
100
AcDbRotatedDimension
  0
DIMENSION
  5
1AFE
102
{ACAD_XDICTIONARY
360
1AFF
102
}
102
{ACAD_REACTORS
330
1B00
102
}
330
1F
100
AcDbEntity
  8
0
100
AcDbDimension
280
     0
  2
*D52
 10
9213.262784054711
 20
397.0745406439637
 30
0.0
 11
9213.262784054711
 21
297.0745406439637
 31
0.0
 70
   160
 71
     5
 42
200.0
 73
     0
 74
     0
 75
     0
  3
N915iso
100
AcDbAlignedDimension
 13
9005.950315799324
 23
197.0745406439637
 33
0.0
 14
9159.950315799321
 24
397.0745406439637
 34
0.0
 50
90.0
100
AcDbRotatedDimension
  0
DIMENSION
  5
1B01
102
{ACAD_XDICTIONARY
360
1B02
102
}
102
{ACAD_REACTORS
330
1B03
102
}
330
1F
100
AcDbEntity
  8
0
100
AcDbDimension
280
     0
  2
*D53
 10
8998.549853010336
 20
862.8230187226204
 30
0.0
 11
8856.645788663778
 21
792.6568860669349
 31
0.0
 70
    35
 71
     5
 42
90.00000000001183
 73
     0
 74
     0
 75
     0
  3
N915iso
100
AcDbDiametricDimension
 15
8923.35077858833
 25
813.3750743156401
 35
0.0
 40
0.0
  0
DIMENSION
  5
1B04
102
{ACAD_XDICTIONARY
360
1B05
102
}
102
{ACAD_REACTORS
330
1B06
102
}
330
1F
100
AcDbEntity
  8
0
100
AcDbDimension
280
     0
  2
*D54
 10
8534.592550439752
 20
861.6294914069854
 30
0.0
 11
8678.939794376153
 21
795.3091689905755
 31
0.0
 70
    35
 71
     5
 42
90.00000000000818
 73
     0
 74
     0
 75
     0
  3
N915iso
100
AcDbDiametricDimension
 15
8611.308081158899
 25
814.568601631282
 35
0.0
 40
0.0
  0
DIMENSION
  5
1B07
102
{ACAD_XDICTIONARY
360
1B08
102
}
102
{ACAD_REACTORS
330
1B09
102
}
330
1F
100
AcDbEntity
  8
0
100
AcDbDimension
280
     0
  2
*D55
 10
9266.438170265933
 20
1010.099046519128
 30
0.0
 11
9266.438170265933
 21
943.4091536380147
 31
0.0
 70
   160
 71
     5
 42
2.999999999992724
 73
     0
 74
     0
 75
     0
  3
N915
100
AcDbAlignedDimension
 13
9159.950315799328
 23
1007.099046519135
 33
0.0
 14
9162.950315799331
 24
1010.099046519128
 34
0.0
 50
90.0
100
AcDbRotatedDimension
  0
DIMENSION
  5
1B0A
330
1F
100
AcDbEntity
  8
0
100
AcDbDimension
280
     0
  2
*D9
 10
9162.950315799319
 20
535.1364968243615
 30
0.0
 11
9232.45031579932
 21
535.1364968243615
 31
0.0
 70
   160
 71
     5
 42
22.99999999999636
 73
     0
 74
     0
 75
     0
  3
N915iso
100
AcDbAlignedDimension
 13
9139.950315799323
 23
614.099046519128
 33
0.0
 14
9162.950315799319
 24
566.0990465191316
 34
0.0
100
AcDbRotatedDimension
  0
DIMENSION
  5
1B0B
330
1F
100
AcDbEntity
  8
0
100
AcDbDimension
280
     0
  2
*D10
 10
9238.254023419093
 20
1010.099046519135
 30
0.0
 11
9238.254023419093
 21
912.5990465191316
 31
0.0
 70
   160
 71
     5
 42
23.00000000000728
 73
     0
 74
     0
 75
     0
  3
N915
100
AcDbAlignedDimension
 13
9114.950315799324
 23
987.099046519128
 33
0.0
 14
9162.950315799317
 24
1010.099046519135
 34
0.0
 50
90.0
100
AcDbRotatedDimension
  0
LINE
  5
1B68
330
1F
100
AcDbEntity
  8
0
  6
DIVIDE
 62
     2
 48
0.01
100
AcDbLine
 10
9126.536808825214
 20
211.3421279627983
 30
0.0
 11
9135.281627136665
 21
212.0749784678228
 31
0.0
  0
LINE
  5
1B69
102
{ACAD_REACTORS
330
1B6C
102
}
330
1F
100
AcDbEntity
  8
0
  6
DIVIDE
 62
     2
 48
0.01
100
AcDbLine
 10
9135.281627136665
 20
212.0749784678228
 30
0.0
 11
9135.470271268216
 21
220.8461631591926
 31
0.0
  0
DIMENSION
  5
1B6A
102
{ACAD_XDICTIONARY
360
1B6B
102
}
102
{ACAD_REACTORS
330
1B6C
102
}
330
1F
100
AcDbEntity
  8
0
100
AcDbDimension
280
     0
  2
*D59
 10
9174.996914020182
 20
197.0745406439636
 30
0.0
 11
9174.996914020182
 21
279.0749784678264
 31
0.0
 70
   160
 71
     5
 42
15.00043782385913
 73
     0
 74
     0
 75
     0
  3
N915
100
AcDbAlignedDimension
 13
9135.281627136665
 23
212.0749784678228
 33
0.0
 14
9005.950315799324
 24
197.0745406439637
 34
0.0
 50
90.0
100
AcDbRotatedDimension
  0
LINE
  5
1B6D
102
{ACAD_REACTORS
330
1B70
102
}
330
1F
100
AcDbEntity
  8
0
  6
DIVIDE
 62
     2
 48
0.01
100
AcDbLine
 10
9139.850619595639
 20
394.5145406439624
 30
0.0
 11
9139.905678175955
 21
397.0745406439601
 31
0.0
  0
DIMENSION
  5
1B6E
102
{ACAD_XDICTIONARY
360
1B6F
102
}
102
{ACAD_REACTORS
330
1B70
102
}
330
1F
100
AcDbEntity
  8
0
100
AcDbDimension
280
     0
  2
*D60
 10
9135.281627136665
 20
134.6031617541375
 30
0.0
 11
9079.531627136665
 21
134.6031617541375
 31
0.0
 70
   160
  1
5.0
 71
     5
 42
4.624051039289042
 73
     0
 74
     0
 75
     0
  3
N915iso
100
AcDbAlignedDimension
 13
9139.905678175955
 23
397.0745406439601
 33
0.0
 14
9135.281627136665
 24
212.0749784678228
 34
0.0
100
AcDbRotatedDimension
  0
DIMENSION
  5
1C38
102
{ACAD_XDICTIONARY
360
1C39
102
}
102
{ACAD_REACTORS
330
1C3A
102
}
330
1F
100
AcDbEntity
  8
0
100
AcDbDimension
280
     0
  2
*D75
 10
9069.551941896291
 20
202.0745406439637
 30
0.0
 11
9069.551941896291
 21
264.0745406439673
 31
0.0
 70
   160
 71
     5
 42
5.0
 73
     0
 74
     0
 75
     0
  3
N915
100
AcDbAlignedDimension
 13
8993.082233439166
 23
197.0745406439637
 33
0.0
 14
8993.082233439166
 24
202.0745406439637
 34
0.0
 50
90.0
100
AcDbRotatedDimension
  0
DIMENSION
  5
1C3B
102
{ACAD_XDICTIONARY
360
1C3C
102
}
102
{ACAD_REACTORS
330
1C3D
102
}
330
1F
100
AcDbEntity
  8
0
  6
PHANTOM
100
AcDbDimension
280
     0
  2
*D76
 10
8408.950315799328
 20
972.0990465191311
 30
0.0
 11
8444.57453850048
 21
953.9828734963734
 31
0.0
 70
   164
 71
     5
 42
14.99999999998272
 73
     0
 74
     0
 75
     0
  3
N915iso
100
AcDbRadialDimension
 15
8395.579866618643
 25
978.8983912453664
 35
0.0
 40
0.0
1001
ACAD
1000
DSTYLE
1002
{
1070
   279
1070
     1
1002
}
  0
DIMENSION
  5
1C7D
102
{ACAD_XDICTIONARY
360
1C7E
102
}
102
{ACAD_REACTORS
330
1C7F
102
}
330
1F
100
AcDbEntity
  8
0
100
AcDbDimension
280
     0
  2
*D30
 10
8801.355350418061
 20
225.892595283342
 30
0.0
 11
8816.21937182455
 21
263.0283040772806
 31
0.0
 70
   164
 71
     5
 42
14.99999999999636
 73
     0
 74
     0
 75
     0
  3
N915iso
100
AcDbRadialDimension
 15
8795.781342390631
 25
211.9667044856214
 35
0.0
 40
0.0
1001
ACAD
1000
DSTYLE
1002
{
1070
   279
1070
     1
1002
}
  0
DIMENSION
  5
1C80
102
{ACAD_XDICTIONARY
360
1C81
102
}
102
{ACAD_REACTORS
330
1C82
102
}
330
1F
100
AcDbEntity
  8
0
100
AcDbDimension
280
     0
  2
*D31
 10
8413.362282322378
 20
225.8920143622317
 30
0.0
 11
8444.310083831537
 21
251.2343422298327
 31
0.0
 70
   164
 71
     5
 42
15.00000000000818
 73
     0
 74
     0
 75
     0
  3
N915iso
100
AcDbRadialDimension
 15
8401.756856756433
 25
216.3886414118742
 35
0.0
 40
0.0
1001
ACAD
1000
DSTYLE
1002
{
1070
   279
1070
     1
1002
}
  0
VIEWPORT
  5
73
330
72
100
AcDbEntity
 67
     1
  8
0
100
AcDbViewport
 10
94.99082881936539
 20
171.4920751360736
 30
0.0
 40
327.0249719395562
 41
232.9448814899499
 68
     1
 69
     1
 12
94.99082881936539
 22
171.4920751360736
 13
0.0
 23
0.0
 14
1.0
 24
1.0
 15
10.0
 25
10.0
 16
0.0
 26
0.0
 36
1.0
 17
0.0
 27
0.0
 37
0.0
 42
50.0
 43
0.0
 44
0.0
 45
232.9448814899499
 50
0.0
 51
0.0
 72
  1000
 90
   557408
  1

281
     0
 71
     1
 74
     0
110
0.0
120
0.0
130
0.0
111
1.0
121
0.0
131
0.0
112
0.0
122
1.0
132
0.0
 79
     0
146
0.0
170
     0
 61
     5
348
2B2
292
     1
282
     1
141
0.0
142
0.0
 63
   250
421
  3355443
  0
LWPOLYLINE
  5
1E3
102
{ACAD_REACTORS
330
1E5
102
}
330
72
100
AcDbEntity
 67
     1
  8
图框_视口
100
AcDbPolyline
 90
        5
 70
     1
 43
0.0
 10
5.0
 20
287.0
 10
185.0
 20
287.0
 10
185.0
 20
56.0
 10
5.0
 20
56.0
 10
5.0
 20
287.0
  0
VIEWPORT
  5
1E5
330
72
100
AcDbEntity
 67
     1
  8
图框_视口
100
AcDbViewport
 10
95.0
 20
171.5
 30
0.0
 40
180.0
 41
231.0
 68
     2
 69
     2
 12
210.0
 22
148.5
 13
0.0
 23
0.0
 14
10.0
 24
10.0
 15
10.0
 25
10.0
 16
0.0
 26
0.0
 36
1.0
 17
0.0
 27
0.0
 37
0.0
 42
50.0
 43
0.0
 44
0.0
 45
557.693641618497
 50
0.0
 51
0.0
 72
   100
 90
    98368
340
1E3
  1

281
     0
 71
     1
 74
     0
110
0.0
120
0.0
130
0.0
111
1.0
121
0.0
131
0.0
112
0.0
122
1.0
132
0.0
 79
     0
146
0.0
170
     0
 61
     5
348
2B2
292
     1
282
     1
141
0.0
142
0.0
 63
   250
421
  3355443
  0
ENDSEC
  0
SECTION
  2
OBJECTS
  0
DICTIONARY
  5
C
330
0
100
AcDbDictionary
281
     1
  3
ACAD_CIP_PREVIOUS_PRODUCT_INFO
350
48F5
  3
ACAD_COLOR
350
24E
  3
ACAD_DETAILVIEWSTYLE
350
48E6
  3
ACAD_GROUP
350
D
  3
ACAD_LAYOUT
350
1A
  3
ACAD_MATERIAL
350
24D
  3
ACAD_MLEADERSTYLE
350
48E1
  3
ACAD_MLINESTYLE
350
17
  3
ACAD_PLOTSETTINGS
350
19
  3
ACAD_PLOTSTYLENAME
350
E
  3
ACAD_SCALELIST
350
48CF
  3
ACAD_SECTIONVIEWSTYLE
350
48E3
  3
ACAD_TABLESTYLE
350
27C
  3
ACAD_VISUALSTYLE
350
2AC
  3
ACDB_RECOMPOSE_DATA
350
4920
  3
AcDbVariableDictionary
350
23A
  3
ASE_INDEX_DICTIONARY
350
F8D
  3
lxx_dict
350
30A
  0
DICTIONARY
  5
289
330
2
100
AcDbDictionary
280
     1
281
     1
  3
ACAD_LAYERSTATES
360
28A
  0
DICTIONARY
  5
48F6
330
10
100
AcDbDictionary
280
     1
281
     1
  3
ADSK_XREC_LAYER_RECONCILED
360
48F7
  0
DICTIONARY
  5
48F8
330
194
100
AcDbDictionary
280
     1
281
     1
  3
ADSK_XREC_LAYER_RECONCILED
360
48F9
  0
DICTIONARY
  5
48FA
330
195
100
AcDbDictionary
280
     1
281
     1
  3
ADSK_XREC_LAYER_RECONCILED
360
48FB
  0
DICTIONARY
  5
48FC
330
196
100
AcDbDictionary
280
     1
281
     1
  3
ADSK_XREC_LAYER_RECONCILED
360
48FD
  0
DICTIONARY
  5
48FE
330
197
100
AcDbDictionary
280
     1
281
     1
  3
ADSK_XREC_LAYER_RECONCILED
360
48FF
  0
DICTIONARY
  5
4900
330
198
100
AcDbDictionary
280
     1
281
     1
  3
ADSK_XREC_LAYER_RECONCILED
360
4901
  0
DICTIONARY
  5
4902
330
199
100
AcDbDictionary
280
     1
281
     1
  3
ADSK_XREC_LAYER_RECONCILED
360
4903
  0
DICTIONARY
  5
F99
330
1F
100
AcDbDictionary
280
     1
281
     1
  3
ACAD_SORTENTS
360
F9A
  0
DICTIONARY
  5
1AE6
330
1AE5
100
AcDbDictionary
280
     1
281
     1
  3
ACAD_DIMASSOC
360
1AE7
  0
DICTIONARY
  5
1AE9
330
1AE8
100
AcDbDictionary
280
     1
281
     1
  3
ACAD_DIMASSOC
360
1AEA
  0
DICTIONARY
  5
1AEC
330
1AEB
100
AcDbDictionary
280
     1
281
     1
  3
ACAD_DIMASSOC
360
1AED
  0
DICTIONARY
  5
1AF0
330
1AEF
100
AcDbDictionary
280
     1
281
     1
  3
ACAD_DIMASSOC
360
1AF1
  0
DICTIONARY
  5
1AF3
330
1AF2
100
AcDbDictionary
280
     1
281
     1
  3
ACAD_DIMASSOC
360
1AF4
  0
DICTIONARY
  5
1AFC
330
1AFB
100
AcDbDictionary
280
     1
281
     1
  3
ACAD_DIMASSOC
360
1AFD
  0
DICTIONARY
  5
1AFF
330
1AFE
100
AcDbDictionary
280
     1
281
     1
  3
ACAD_DIMASSOC
360
1B00
  0
DICTIONARY
  5
1B02
330
1B01
100
AcDbDictionary
280
     1
281
     1
  3
ACAD_DIMASSOC
360
1B03
  0
DICTIONARY
  5
1B05
330
1B04
100
AcDbDictionary
280
     1
281
     1
  3
ACAD_DIMASSOC
360
1B06
  0
DICTIONARY
  5
1B08
330
1B07
100
AcDbDictionary
280
     1
281
     1
  3
ACAD_DIMASSOC
360
1B09
  0
DICTIONARY
  5
1B6B
330
1B6A
100
AcDbDictionary
280
     1
281
     1
  3
ACAD_DIMASSOC
360
1B6C
  0
DICTIONARY
  5
1B6F
330
1B6E
100
AcDbDictionary
280
     1
281
     1
  3
ACAD_DIMASSOC
360
1B70
  0
DICTIONARY
  5
1C39
330
1C38
100
AcDbDictionary
280
     1
281
     1
  3
ACAD_DIMASSOC
360
1C3A
  0
DICTIONARY
  5
1C3C
330
1C3B
100
AcDbDictionary
280
     1
281
     1
  3
ACAD_DIMASSOC
360
1C3D
  0
DICTIONARY
  5
1C7E
330
1C7D
100
AcDbDictionary
280
     1
281
     1
  3
ACAD_DIMASSOC
360
1C7F
  0
DICTIONARY
  5
1C81
330
1C80
100
AcDbDictionary
280
     1
281
     1
  3
ACAD_DIMASSOC
360
1C82
  0
XRECORD
  5
48F5
102
{ACAD_REACTORS
330
C
102
}
330
C
100
AcDbXrecord
280
     1
300
ACD
300
2017
300
ACD_F_S
  0
DICTIONARY
  5
24E
102
{ACAD_REACTORS
330
C
102
}
330
C
100
AcDbDictionary
281
     1
  0
DICTIONARY
  5
48E6
102
{ACAD_REACTORS
330
C
102
}
330
C
100
AcDbDictionary
281
     1
  3
Metric50
350
48E7
  0
DICTIONARY
  5
D
102
{ACAD_REACTORS
330
C
102
}
330
C
100
AcDbDictionary
281
     1
  0
DICTIONARY
  5
1A
102
{ACAD_REACTORS
330
C
102
}
330
C
100
AcDbDictionary
281
     1
  3
Gb A4 标题栏
350
71
  3
Model
350
22
1001
AcadStringInfo
1000
MIFCodePage
1070
     5
  0
DICTIONARY
  5
24D
102
{ACAD_REACTORS
330
C
102
}
330
C
100
AcDbDictionary
281
     1
  3
ByBlock
350
2AA
  3
ByLayer
350
2A9
  3
Global
350
2AB
  0
DICTIONARY
  5
48E1
102
{ACAD_REACTORS
330
C
102
}
330
C
100
AcDbDictionary
281
     1
  3
Standard
350
48E2
  0
DICTIONARY
  5
17
102
{ACAD_REACTORS
330
C
102
}
330
C
100
AcDbDictionary
281
     1
  3
Standard
350
18
  0
DICTIONARY
  5
19
102
{ACAD_REACTORS
330
C
102
}
330
C
100
AcDbDictionary
281
     1
  0
ACDBDICTIONARYWDFLT
  5
E
102
{ACAD_REACTORS
330
C
102
}
330
C
100
AcDbDictionary
281
     1
  3
Normal
350
F
100
AcDbDictionaryWithDefault
340
F
  0
DICTIONARY
  5
48CF
102
{ACAD_REACTORS
330
C
102
}
330
C
100
AcDbDictionary
281
     1
  3
A0
350
48D0
  3
A1
350
48D1
  3
A2
350
48D2
  3
A3
350
48D3
  3
A4
350
48D4
  3
A5
350
48D5
  3
A6
350
48D6
  3
A7
350
48D7
  3
A8
350
48D8
  3
A9
350
48D9
  3
B0
350
48DA
  3
B1
350
48DB
  3
B2
350
48DC
  3
B3
350
48DD
  3
B4
350
48DE
  3
B5
350
48DF
  3
B6
350
48E0
  0
DICTIONARY
  5
48E3
102
{ACAD_REACTORS
330
C
102
}
330
C
100
AcDbDictionary
281
     1
  3
Metric50
350
48E5
  0
DICTIONARY
  5
27C
102
{ACAD_REACTORS
330
C
102
}
330
C
100
AcDbDictionary
281
     1
  3
Standard
350
27D
  0
DICTIONARY
  5
2AC
102
{ACAD_REACTORS
330
C
102
}
330
C
100
AcDbDictionary
281
     1
  3
2dWireframe
350
2B2
  3
3D Hidden
350
2B4
  3
3dWireframe
350
2B3
  3
Basic
350
2B1
  3
Brighten
350
2B8
  3
ColorChange
350
2BC
  3
Conceptual
350
2B5
  3
Dim
350
2B7
  3
EdgeColorOff
350
48CE
  3
Facepattern
350
2BB
  3
Flat
350
2AD
  3
FlatWithEdges
350
2AE
  3
Gouraud
350
2AF
  3
GouraudWithEdges
350
2B0
  3
Hidden
350
48C6
  3
JitterOff
350
48CC
  3
Linepattern
350
2BA
  3
OverhangOff
350
48CD
  3
Realistic
350
2B6
  3
Shaded
350
48CB
  3
Shaded with edges
350
48CA
  3
Shades of Gray
350
48C7
  3
Sketchy
350
48C8
  3
Thicken
350
2B9
  3
Wireframe
350
48C5
  3
X-Ray
350
48C9
  0
XRECORD
  5
4920
102
{ACAD_REACTORS
330
C
102
}
330
C
100
AcDbXrecord
280
     1
 90
        1
330
27D
330
48E5
330
48E7
  0
DICTIONARY
  5
23A
102
{ACAD_REACTORS
330
C
102
}
330
C
100
AcDbDictionary
281
     1
  3
CANNOSCALE
350
4916
  3
CMLEADERSTYLE
350
4912
  3
CTABLESTYLE
350
290
  3
CVIEWDETAILSTYLE
350
4913
  3
CVIEWSECTIONSTYLE
350
4914
  3
DIMASSOC
350
23C
  3
HIDETEXT
350
23B
  3
LAYEREVAL
350
4918
  3
LAYERNOTIFY
350
4919
  3
LIGHTINGUNITS
350
4917
  3
MSLTSCALE
350
4915
  0
DICTIONARY
  5
F8D
102
{ACAD_REACTORS
330
C
102
}
330
C
100
AcDbDictionary
281
     1
  3
ASEBlockHierarchyIndexRecord
350
F8E
1001
DCO15
1040
1674194785.75
  0
DICTIONARY
  5
30A
102
{ACAD_REACTORS
330
C
102
}
330
C
100
AcDbDictionary
281
     1
  3
lxx_dimth
350
30B
  0
DICTIONARY
  5
28A
102
{ACAD_REACTORS
330
289
102
}
330
289
100
AcDbDictionary
281
     1
  0
XRECORD
  5
48F7
102
{ACAD_REACTORS
330
48F6
102
}
330
48F6
100
AcDbXrecord
280
     1
290
     1
  0
XRECORD
  5
48F9
102
{ACAD_REACTORS
330
48F8
102
}
330
48F8
100
AcDbXrecord
280
     1
290
     1
  0
XRECORD
  5
48FB
102
{ACAD_REACTORS
330
48FA
102
}
330
48FA
100
AcDbXrecord
280
     1
290
     1
  0
XRECORD
  5
48FD
102
{ACAD_REACTORS
330
48FC
102
}
330
48FC
100
AcDbXrecord
280
     1
290
     1
  0
XRECORD
  5
48FF
102
{ACAD_REACTORS
330
48FE
102
}
330
48FE
100
AcDbXrecord
280
     1
290
     1
  0
XRECORD
  5
4901
102
{ACAD_REACTORS
330
4900
102
}
330
4900
100
AcDbXrecord
280
     1
290
     1
  0
XRECORD
  5
4903
102
{ACAD_REACTORS
330
4902
102
}
330
4902
100
AcDbXrecord
280
     1
290
     1
  0
SORTENTSTABLE
  5
F9A
102
{ACAD_REACTORS
330
F99
102
}
330
F99
100
AcDbSortentsTable
330
1F
331
1B6A
  5
1B73
331
1AE2
  5
1AEB
331
1AA6
  5
1AAB
331
1AA2
  5
1AA7
331
1ADD
  5
1AE2
331
1AD9
  5
1ADE
331
1AD5
  5
1ADA
331
1AD1
  5
1AD6
331
1ACD
  5
1AD2
331
1AC9
  5
1ACE
331
1B0A
  5
1B0F
331
1AC6
  5
1ACB
331
1AC2
  5
1AC7
331
1ABE
  5
1AC3
331
1ABA
  5
1ABF
331
1AFB
  5
1B0A
331
1C3B
  5
1C42
331
1AF7
  5
1AFE
331
1AB6
  5
1ABB
331
1AB2
  5
1AB7
331
1AAE
  5
1AB3
331
1AAA
  5
1AAF
331
1AEF
  5
1AF8
331
1AEB
  5
1AF6
331
1AE3
  5
1AEE
331
1AA7
  5
1AAC
331
1AA3
  5
1AA8
331
1ADE
  5
1AE3
331
1ADA
  5
1ADF
331
1AD6
  5
1ADB
331
1AD2
  5
1AD7
331
1ACE
  5
1AD3
331
1ACA
  5
1ACF
331
1B0B
  5
1B10
331
1B07
  5
1B0E
331
1AC7
  5
1ACC
331
1AC3
  5
1AC8
331
1ABF
  5
1AC4
331
1ABB
  5
1AC0
331
1AF8
  5
1B01
331
1C38
  5
1C41
331
1AB7
  5
1ABC
331
1AB3
  5
1AB8
331
1AAF
  5
1AB4
331
1AAB
  5
1AB0
331
1AE8
  5
1AF5
331
1AE4
  5
1AEF
331
1B68
  5
1B71
331
1AE0
  5
1AE5
331
1AA4
  5
1AA9
331
1AA0
  5
1AA5
331
1ADF
  5
1AE4
331
1ADB
  5
1AE0
331
1AD7
  5
1ADC
331
1AD3
  5
1AD8
331
1ACF
  5
1AD4
331
1ACB
  5
1AD0
331
1B04
  5
1B0D
331
1C80
  5
1C87
331
1AC4
  5
1AC9
331
1AC0
  5
1AC5
331
1C7D
  5
1C86
331
1ABC
  5
1AC1
331
1AB8
  5
1ABD
331
1AF9
  5
1B04
331
1AF5
  5
1AFA
331
1AB4
  5
1AB9
331
1AB0
  5
1AB5
331
1AAC
  5
1AB1
331
1AA8
  5
1AAD
331
1B6D
  5
1B74
331
1AE5
  5
1AF2
331
1B69
  5
1B72
331
1AE1
  5
1AE8
331
1AA5
  5
1AAA
331
1AA1
  5
1AA6
331
1ADC
  5
1AE1
331
1AD8
  5
1ADD
331
1AD4
  5
1AD9
331
1AD0
  5
1AD5
331
1ACC
  5
1AD1
331
1AC8
  5
1ACD
331
1B01
  5
1B0C
331
1AC5
  5
1ACA
331
1AC1
  5
1AC6
331
1ABD
  5
1AC2
331
1AB9
  5
1ABE
331
1AFE
  5
1B0B
331
1AFA
  5
1B07
331
1AF6
  5
1AFB
331
1AF2
  5
1AF9
331
1AB5
  5
1ABA
331
1AB1
  5
1AB6
331
1AAD
  5
1AB2
331
1AA9
  5
1AAE
331
1AEE
  5
1AF7
331
1B6E
  5
1B75
  0
DIMASSOC
  5
1AE7
102
{ACAD_REACTORS
330
1AE6
102
}
330
1AE6
100
AcDbDimAssoc
330
1AE5
 90
        3
 70
     0
 71
     0
  1
AcDbOsnapPointRef
 72
     1
331
1AE3
 73
     2
 91
        0
 40
0.9999999999999998
 10
0.0
 20
0.0
 30
2.000000000000000E+50
 75
     0
  1
AcDbOsnapPointRef
 72
     1
331
1AE1
 73
     2
 91
        0
 40
1.0
 10
0.0
 20
0.0
 30
2.000000000000000E+50
 75
     0
  0
DIMASSOC
  5
1AEA
102
{ACAD_REACTORS
330
1AE9
102
}
330
1AE9
100
AcDbDimAssoc
330
1AE8
 90
        3
 70
     0
 71
     0
  1
AcDbOsnapPointRef
 72
     1
331
1AD4
 73
     2
 91
        0
 40
1.0
 10
0.0
 20
0.0
 30
2.000000000000000E+50
 75
     0
  1
AcDbOsnapPointRef
 72
     8
331
1AD2
 73
     2
 91
        0
 40
0.9999999999999863
 10
0.0
 20
0.0
 30
0.0
 75
     1
  1
AcDbOsnapPointRef
 72
     1
331
1AD4
 73
     2
 91
        0
 40
1.0
 10
0.0
 20
0.0
 30
2.000000000000000E+50
 75
     0
  0
DIMASSOC
  5
1AED
102
{ACAD_REACTORS
330
1AEC
102
}
330
1AEC
100
AcDbDimAssoc
330
1AEB
 90
        1
 70
     0
 71
     0
  1
AcDbOsnapPointRef
 72
     1
331
1AB9
 73
     2
 91
        0
 40
1.0
 10
0.0
 20
0.0
 30
2.000000000000000E+50
 75
     0
  0
DIMASSOC
  5
1AF1
102
{ACAD_REACTORS
330
1AF0
102
}
330
1AF0
100
AcDbDimAssoc
330
1AEF
 90
        1
 70
     0
 71
     0
  1
AcDbOsnapPointRef
 72
    13
331
1AB6
 73
     2
 91
        0
 40
0.0
 10
0.0
 20
0.0
 30
2.000000000000000E+50
 75
     0
  0
DIMASSOC
  5
1AF4
102
{ACAD_REACTORS
330
1AF3
102
}
330
1AF3
100
AcDbDimAssoc
330
1AF2
 90
        2
 70
     0
 71
     0
  1
AcDbOsnapPointRef
 72
     1
331
1AD5
 73
     2
 91
        0
 40
1.0
 10
0.0
 20
0.0
 30
2.000000000000000E+50
 75
     0
  0
DIMASSOC
  5
1AFD
102
{ACAD_REACTORS
330
1AFC
102
}
330
1AFC
100
AcDbDimAssoc
330
1AFB
 90
        3
 70
     0
 71
     0
  1
AcDbOsnapPointRef
 72
    13
331
1AF8
 73
     2
 91
        0
 40
0.0
 10
0.0
 20
0.0
 30
2.000000000000000E+50
 75
     0
  1
AcDbOsnapPointRef
 72
     1
331
1AF8
 73
     2
 91
        0
 40
0.9999999999999998
 10
0.0
 20
0.0
 30
2.000000000000000E+50
 75
     0
  0
DIMASSOC
  5
1B00
102
{ACAD_REACTORS
330
1AFF
102
}
330
1AFF
100
AcDbDimAssoc
330
1AFE
 90
        3
 70
     0
 71
     0
  1
AcDbOsnapPointRef
 72
    13
331
1AA5
 73
     2
 91
        0
 40
0.0
 10
0.0
 20
0.0
 30
2.000000000000000E+50
 75
     0
  1
AcDbOsnapPointRef
 72
    11
331
1AF8
 73
     2
 91
        0
 40
0.9999999999997323
 10
0.0
 20
0.0
 30
0.0
332
1AA0
 74
     2
 92
        0
 75
     0
  0
DIMASSOC
  5
1B03
102
{ACAD_REACTORS
330
1B02
102
}
330
1B02
100
AcDbDimAssoc
330
1B01
 90
        2
 70
     0
 71
     0
  1
AcDbOsnapPointRef
 72
     3
331
1AB2
 73
     2
 91
        0
 40
0.0
 10
0.0
 20
0.0
 30
0.0
 75
     0
  0
DIMASSOC
  5
1B06
102
{ACAD_REACTORS
330
1B05
102
}
330
1B05
100
AcDbDimAssoc
330
1B04
 90
        2
 70
     0
 71
     0
  1
AcDbOsnapPointRef
 72
     3
331
1AC4
 73
     2
 91
        0
 40
0.0
 10
0.0
 20
0.0
 30
0.0
 75
     0
  0
DIMASSOC
  5
1B09
102
{ACAD_REACTORS
330
1B08
102
}
330
1B08
100
AcDbDimAssoc
330
1B07
 90
        3
 70
     0
 71
     0
  1
AcDbOsnapPointRef
 72
     1
331
1AD3
 73
     2
 91
        0
 40
1.0
 10
0.0
 20
0.0
 30
2.000000000000000E+50
 75
     0
  1
AcDbOsnapPointRef
 72
     1
331
1AE2
 73
     2
 91
        0
 40
1.0
 10
0.0
 20
0.0
 30
2.000000000000000E+50
 75
     0
  0
DIMASSOC
  5
1B6C
102
{ACAD_REACTORS
330
1B6B
102
}
330
1B6B
100
AcDbDimAssoc
330
1B6A
 90
        1
 70
     0
 71
     0
  1
AcDbOsnapPointRef
 72
    13
331
1B69
 73
     2
 91
        0
 40
0.0
 10
0.0
 20
0.0
 30
2.000000000000000E+50
 75
     0
  0
DIMASSOC
  5
1B70
102
{ACAD_REACTORS
330
1B6F
102
}
330
1B6F
100
AcDbDimAssoc
330
1B6E
 90
        1
 70
     0
 71
     0
  1
AcDbOsnapPointRef
 72
     1
331
1B6D
 73
     2
 91
        0
 40
1.0
 10
0.0
 20
0.0
 30
2.000000000000000E+50
 75
     0
  0
DIMASSOC
  5
1C3A
102
{ACAD_REACTORS
330
1C39
102
}
330
1C39
100
AcDbDimAssoc
330
1C38
 90
        3
 70
     0
 71
     0
  1
AcDbOsnapPointRef
 72
    10
331
1AA5
 73
     2
 91
        0
 40
0.1429786928906406
 10
0.0
 20
0.0
 30
0.0
 75
     0
  1
AcDbOsnapPointRef
 72
     8
331
1AA9
 73
     2
 91
        0
 40
0.2078916578196171
 10
0.0
 20
0.0
 30
0.0
 75
     1
  1
AcDbOsnapPointRef
 72
    10
331
1AA5
 73
     2
 91
        0
 40
0.1429786928906406
 10
0.0
 20
0.0
 30
0.0
 75
     0
  0
DIMASSOC
  5
1C3D
102
{ACAD_REACTORS
330
1C3C
102
}
330
1C3C
100
AcDbDimAssoc
330
1C3B
 90
        2
 70
     0
 71
     0
  1
AcDbOsnapPointRef
 72
     3
331
1AC1
 73
     2
 91
        0
 40
0.0
 10
0.0
 20
0.0
 30
0.0
 75
     0
  0
DIMASSOC
  5
1C7F
102
{ACAD_REACTORS
330
1C7E
102
}
330
1C7E
100
AcDbDimAssoc
330
1C7D
 90
        2
 70
     0
 71
     0
  1
AcDbOsnapPointRef
 72
     3
331
1ADE
 73
     2
 91
        0
 40
0.0
 10
0.0
 20
0.0
 30
0.0
 75
     0
  0
DIMASSOC
  5
1C82
102
{ACAD_REACTORS
330
1C81
102
}
330
1C81
100
AcDbDimAssoc
330
1C80
 90
        2
 70
     0
 71
     0
  1
AcDbOsnapPointRef
 72
     3
331
1ACC
 73
     2
 91
        0
 40
0.0
 10
0.0
 20
0.0
 30
0.0
 75
     0
  0
ACDBDETAILVIEWSTYLE
  5
48E7
102
{ACAD_XDICTIONARY
360
491E
102
}
102
{ACAD_REACTORS
330
48E6
102
}
330
48E6
100
AcDbModelDocViewStyle
 70
     0
  3
Metric50
290
     0
100
AcDbDetailViewStyle
 70
     0
 71
     0
 90
        3
 71
     1
340
11
 62
   256
 40
5.0
340
0
 62
   256
 40
5.0
300

 40
0.0
280
     1
 71
     2
340
16
 90
       25
 62
   256
 71
     3
340
11
 62
   256
 40
5.0
 90
        0
 40
15.0
 90
        1
300
%<\AcVar ViewDetailId>% (%<\AcVar ViewScale \f "%sn">%)
 71
     4
340
16
 90
       25
 62
   256
340
16
 90
       25
 62
   256
280
     0
  0
LAYOUT
  5
71
102
{ACAD_XDICTIONARY
360
28C
102
}
102
{ACAD_REACTORS
330
1A
102
}
330
1A
100
AcDbPlotSettings
  1

  2
none_device
  4
none_user_media
  6

 40
3.96875
 41
16.66873168945312
 42
3.175003051757812
 43
9.965972900390625
 44
210.0438842773438
 45
296.8977661132813
 46
0.0033180722678026
 47
63.39422423475372
 48
0.0
 49
0.0
140
0.0
141
0.0
142
1.0
143
1.463931392077999
 70
   692
 72
     1
 73
     1
 74
     1
  7

 75
     0
147
0.6830921212643269
 76
     0
 77
     2
 78
   300
148
20.02395427876752
149
5.011816723367587
100
AcDbLayout
  1
Gb A4 标题栏
 70
     1
 71
     1
 10
-127.4182497939359
 20
-10.82665186583117
 11
307.2197102571284
 21
296.663184041771
 12
0.0
 22
0.0
 32
0.0
 14
4.97734458046716
 24
55.97694212324916
 34
-0.0015258207003583
 15
185.0043130582636
 25
287.0072081488981
 35
0.0000000349246037
146
0.0
 13
0.0
 23
0.0
 33
0.0
 16
1.0
 26
0.0
 36
0.0
 17
0.0
 27
1.0
 37
0.0
 76
     0
330
72
331
73
1001
AcadStringInfo
1000
MIFCodePage
1070
     5
  0
LAYOUT
  5
22
102
{ACAD_REACTORS
330
1A
102
}
330
1A
100
AcDbPlotSettings
  1

  2
none_device
  4
Letter_(8.50_x_11.00_Inches)
  6

 40
6.349999904632568
 41
6.349999904632568
 42
6.350006103515625
 43
6.350006103515625
 44
215.8999938964844
 45
279.3999938964844
 46
0.0
 47
0.0
 48
0.0
 49
0.0
140
0.0
141
0.0
142
1.0
143
1.0
 70
 11956
 72
     1
 73
     1
 74
     1
  7

 75
     0
147
1.0
 76
     0
 77
     2
 78
   300
148
-76.89329353605074
149
0.0
100
AcDbLayout
  1
Model
 70
     1
 71
     0
 10
0.0
 20
0.0
 11
12.0
 21
9.0
 12
0.0
 22
0.0
 32
0.0
 14
0.0
 24
0.0
 34
0.0
 15
0.0
 25
0.0
 35
0.0
146
0.0
 13
0.0
 23
0.0
 33
0.0
 16
1.0
 26
0.0
 36
0.0
 17
0.0
 27
1.0
 37
0.0
 76
     0
330
1F
331
28F
  0
MATERIAL
  5
2AA
102
{ACAD_REACTORS
330
24D
102
}
330
24D
100
AcDbMaterial
  1
ByBlock
 73
     1
 78
     1
172
     1
176
     1
270
     1
274
     1
 94
       63
  0
MATERIAL
  5
2A9
102
{ACAD_REACTORS
330
24D
102
}
330
24D
100
AcDbMaterial
  1
ByLayer
 73
     1
 78
     1
172
     1
176
     1
270
     1
274
     1
 94
       63
  0
MATERIAL
  5
2AB
102
{ACAD_REACTORS
330
24D
102
}
330
24D
100
AcDbMaterial
  1
Global
 73
     1
 78
     1
172
     1
176
     1
270
     1
274
     1
 94
       63
  0
MLEADERSTYLE
  5
48E2
102
{ACAD_REACTORS
330
48E1
102
}
330
48E1
100
AcDbMLeaderStyle
179
     2
170
     2
171
     1
172
     0
 90
        2
 40
0.0
 41
0.0
173
     1
 91
-1056964608
340
14
 92
       -2
290
     1
 42
2.0
291
     1
 43
0.36
  3
Standard
 44
4.0
300

342
11
174
     1
178
     6
175
     1
176
     0
 93
-1056964608
 45
4.0
292
     0
297
     0
 46
4.0
 94
-1056964608
 47
1.0
 49
1.0
140
1.0
293
     1
141
0.0
294
     1
177
     0
142
1.0
295
     1
296
     0
143
0.125
271
     0
272
     9
273
     9
298
     1
  0
MLINESTYLE
  5
18
102
{ACAD_REACTORS
330
17
102
}
330
17
100
AcDbMlineStyle
  2
STANDARD
 70
     0
  3

 62
   256
 51
90.0
 52
90.0
 71
     2
 49
0.5
 62
   256
  6
BYLAYER
 49
-0.5
 62
   256
  6
BYLAYER
  0
ACDBPLACEHOLDER
  5
F
102
{ACAD_REACTORS
330
E
102
}
330
E
  0
SCALE
  5
48D0
102
{ACAD_REACTORS
330
48CF
102
}
330
48CF
100
AcDbScale
 70
     0
300
1:1
140
1.0
141
1.0
290
     1
  0
SCALE
  5
48D1
102
{ACAD_REACTORS
330
48CF
102
}
330
48CF
100
AcDbScale
 70
     0
300
1:2
140
1.0
141
2.0
290
     0
  0
SCALE
  5
48D2
102
{ACAD_REACTORS
330
48CF
102
}
330
48CF
100
AcDbScale
 70
     0
300
1:4
140
1.0
141
4.0
290
     0
  0
SCALE
  5
48D3
102
{ACAD_REACTORS
330
48CF
102
}
330
48CF
100
AcDbScale
 70
     0
300
1:5
140
1.0
141
5.0
290
     0
  0
SCALE
  5
48D4
102
{ACAD_REACTORS
330
48CF
102
}
330
48CF
100
AcDbScale
 70
     0
300
1:8
140
1.0
141
8.0
290
     0
  0
SCALE
  5
48D5
102
{ACAD_REACTORS
330
48CF
102
}
330
48CF
100
AcDbScale
 70
     0
300
1:10
140
1.0
141
10.0
290
     0
  0
SCALE
  5
48D6
102
{ACAD_REACTORS
330
48CF
102
}
330
48CF
100
AcDbScale
 70
     0
300
1:16
140
1.0
141
16.0
290
     0
  0
SCALE
  5
48D7
102
{ACAD_REACTORS
330
48CF
102
}
330
48CF
100
AcDbScale
 70
     0
300
1:20
140
1.0
141
20.0
290
     0
  0
SCALE
  5
48D8
102
{ACAD_REACTORS
330
48CF
102
}
330
48CF
100
AcDbScale
 70
     0
300
1:30
140
1.0
141
30.0
290
     0
  0
SCALE
  5
48D9
102
{ACAD_REACTORS
330
48CF
102
}
330
48CF
100
AcDbScale
 70
     0
300
1:40
140
1.0
141
40.0
290
     0
  0
SCALE
  5
48DA
102
{ACAD_REACTORS
330
48CF
102
}
330
48CF
100
AcDbScale
 70
     0
300
1:50
140
1.0
141
50.0
290
     0
  0
SCALE
  5
48DB
102
{ACAD_REACTORS
330
48CF
102
}
330
48CF
100
AcDbScale
 70
     0
300
1:100
140
1.0
141
100.0
290
     0
  0
SCALE
  5
48DC
102
{ACAD_REACTORS
330
48CF
102
}
330
48CF
100
AcDbScale
 70
     0
300
2:1
140
2.0
141
1.0
290
     0
  0
SCALE
  5
48DD
102
{ACAD_REACTORS
330
48CF
102
}
330
48CF
100
AcDbScale
 70
     0
300
4:1
140
4.0
141
1.0
290
     0
  0
SCALE
  5
48DE
102
{ACAD_REACTORS
330
48CF
102
}
330
48CF
100
AcDbScale
 70
     0
300
8:1
140
8.0
141
1.0
290
     0
  0
SCALE
  5
48DF
102
{ACAD_REACTORS
330
48CF
102
}
330
48CF
100
AcDbScale
 70
     0
300
10:1
140
10.0
141
1.0
290
     0
  0
SCALE
  5
48E0
102
{ACAD_REACTORS
330
48CF
102
}
330
48CF
100
AcDbScale
 70
     0
300
100:1
140
100.0
141
1.0
290
     0
  0
ACDBSECTIONVIEWSTYLE
  5
48E5
102
{ACAD_XDICTIONARY
360
491C
102
}
102
{ACAD_REACTORS
330
48E3
102
}
330
48E3
100
AcDbModelDocViewStyle
 70
     0
  3
Metric50
290
     0
100
AcDbSectionViewStyle
 70
     0
 71
     0
 90
      102
 71
     1
340
11
 62
   256
 40
5.0
340
0
340
0
 62
   256
 40
5.0
300
I, O, Q, S, X, Z
 40
10.0
 90
        0
 40
2.5
 90
        0
 71
     2
340
16
 90
       25
 62
   256
340
16
 90
       50
 62
   256
 40
5.0
 40
2.5
 40
5.0
 71
     3
340
11
 62
   256
 40
5.0
 90
        0
 40
15.0
 90
        1
300
%<\AcVar ViewSectionStartId>%-%<\AcVar ViewSectionEndId>% (%<\AcVar ViewScale \f "%sn">%)
 71
     4
 62
   256
 62
   257
300
ANSI31
 40
1.0
 90
        0
290
     0
290
     0
 90
        6
 40
0.0
 40
1.570796326794896
 40
0.2617993877991494
 40
1.308996938995747
 40
-0.2617993877991494
 40
1.832595714594046
  0
TABLESTYLE
  5
27D
102
{ACAD_XDICTIONARY
360
491A
102
}
102
{ACAD_REACTORS
330
27C
102
}
330
27C
100
AcDbTableStyle
280
     0
  3
Standard
 70
     0
 71
     0
 40
1.5
 41
1.5
280
     0
281
     0
  7
Standard
140
4.5
170
     2
 62
     0
 63
     7
283
     0
 90
      512
 91
        0
  1

274
    -2
284
     1
 64
     0
275
    -2
285
     1
 65
     0
276
    -2
286
     1
 66
     0
277
    -2
287
     1
 67
     0
278
    -2
288
     1
 68
     0
279
    -2
289
     1
 69
     0
  7
Standard
140
6.0
170
     5
 62
     0
 63
     7
283
     0
 90
      512
 91
        0
  1

274
    -2
284
     1
 64
     0
275
    -2
285
     1
 65
     0
276
    -2
286
     1
 66
     0
277
    -2
287
     1
 67
     0
278
    -2
288
     1
 68
     0
279
    -2
289
     1
 69
     0
  7
Standard
140
4.5
170
     5
 62
     0
 63
     7
283
     0
 90
      512
 91
        0
  1

274
    -2
284
     1
 64
     0
275
    -2
285
     1
 65
     0
276
    -2
286
     1
 66
     0
277
    -2
287
     1
 67
     0
278
    -2
288
     1
 68
     0
279
    -2
289
     1
 69
     0
  0
VISUALSTYLE
  5
2B2
102
{ACAD_REACTORS
330
2AC
102
}
330
2AC
100
AcDbVisualStyle
  2
2dWireframe
 70
     4
177
     3
291
     0
 70
    58
 90
        0
176
     1
 90
        2
176
     1
 90
        1
176
     1
 90
        0
176
     1
 40
0.6
176
     1
 40
30.0
176
     1
 62
     7
420
 16777215
176
     1
 90
        1
176
     1
 90
        4
176
     1
 62
     7
176
     1
 62
   257
176
     1
 90
        1
176
     1
 90
        1
176
     1
 40
1.0
176
     1
 90
        0
176
     1
 62
   257
176
     1
 40
1.0
176
     1
 90
        1
176
     1
 90
        6
176
     1
 90
        2
176
     1
 62
     7
176
     1
 90
        5
176
     1
 90
        0
176
     1
 90
        0
176
     1
290
     0
176
     1
 90
        1
176
     1
 40
0.0
176
     1
 90
        0
176
     1
290
     1
176
     1
290
     1
176
     1
290
     0
176
     1
290
     0
176
     1
290
     0
176
     1
290
     0
176
     1
290
     0
176
     1
290
     0
176
     1
290
     0
176
     1
 90
       50
176
     1
 40
0.0
176
     1
 40
1.0
176
     1
 90
        0
176
     1
 62
    18
420
        0
176
     1
 90
       50
176
     1
 90
        3
176
     1
 62
     5
420
      255
176
     1
290
     0
176
     1
 90
       50
176
     1
 90
       50
176
     1
 90
       50
176
     1
290
     0
176
     1
 90
       50
176
     1
 62
   256
176
     0
 40
1.0
176
     0
 90
        2
176
     1
  1
strokes_ogs.tif
176
     1
290
     0
176
     1
 40
1.0
176
     1
 40
1.0
176
     1
  0
VISUALSTYLE
  5
2B4
102
{ACAD_REACTORS
330
2AC
102
}
330
2AC
100
AcDbVisualStyle
  2
3D Hidden
 70
     6
177
     3
291
     0
 70
    58
 90
        1
176
     1
 90
        2
176
     1
 90
        2
176
     1
 90
        0
176
     1
 40
0.6
176
     1
 40
30.0
176
     1
 62
     7
420
 16777215
176
     1
 90
        2
176
     1
 90
        2
176
     1
 62
     7
176
     1
 62
   257
176
     1
 90
        2
176
     1
 90
        1
176
     1
 40
40.0
176
     1
 90
        0
176
     1
 62
   257
176
     1
 40
1.0
176
     1
 90
        1
176
     1
 90
        6
176
     1
 90
        2
176
     1
 62
     7
176
     1
 90
        3
176
     1
 90
        0
176
     1
 90
        0
176
     1
290
     0
176
     1
 90
        1
176
     1
 40
0.0
176
     1
 90
        0
176
     1
290
     0
176
     1
290
     1
176
     1
290
     1
176
     1
290
     0
176
     1
290
     0
176
     1
290
     0
176
     1
290
     0
176
     1
290
     0
176
     1
290
     0
176
     1
 90
       50
176
     1
 40
0.0
176
     1
 40
1.0
176
     1
 90
        0
176
     1
 62
    18
420
        0
176
     1
 90
       50
176
     1
 90
        3
176
     1
 62
     5
420
      255
176
     1
290
     0
176
     1
 90
       50
176
     1
 90
       50
176
     1
 90
       50
176
     1
290
     0
176
     1
 90
       50
176
     1
 62
   256
176
     0
 40
1.0
176
     0
 90
        2
176
     1
  1
strokes_ogs.tif
176
     1
290
     0
176
     1
 40
1.0
176
     1
 40
1.0
176
     1
  0
VISUALSTYLE
  5
2B3
102
{ACAD_REACTORS
330
2AC
102
}
330
2AC
100
AcDbVisualStyle
  2
3dWireframe
 70
     5
177
     3
291
     0
 70
    58
 90
        0
176
     1
 90
        2
176
     1
 90
        1
176
     1
 90
        0
176
     1
 40
0.6
176
     1
 40
30.0
176
     1
 62
     7
420
 16777215
176
     1
 90
        1
176
     1
 90
        4
176
     1
 62
     7
176
     1
 62
   257
176
     1
 90
        1
176
     1
 90
        1
176
     1
 40
1.0
176
     1
 90
        0
176
     1
 62
   257
176
     1
 40
1.0
176
     1
 90
        1
176
     1
 90
        6
176
     1
 90
        2
176
     1
 62
     7
176
     1
 90
        5
176
     1
 90
        0
176
     1
 90
        0
176
     1
290
     0
176
     1
 90
        1
176
     1
 40
0.0
176
     1
 90
        0
176
     1
290
     0
176
     1
290
     1
176
     1
290
     1
176
     1
290
     0
176
     1
290
     0
176
     1
290
     0
176
     1
290
     0
176
     1
290
     0
176
     1
290
     0
176
     1
 90
       50
176
     1
 40
0.0
176
     1
 40
1.0
176
     1
 90
        0
176
     1
 62
    18
420
        0
176
     1
 90
       50
176
     1
 90
        3
176
     1
 62
     5
420
      255
176
     1
290
     0
176
     1
 90
       50
176
     1
 90
       50
176
     1
 90
       50
176
     1
290
     0
176
     1
 90
       50
176
     1
 62
   256
176
     0
 40
1.0
176
     0
 90
        2
176
     1
  1
strokes_ogs.tif
176
     1
290
     0
176
     1
 40
1.0
176
     1
 40
1.0
176
     1
  0
VISUALSTYLE
  5
2B1
102
{ACAD_REACTORS
330
2AC
102
}
330
2AC
100
AcDbVisualStyle
  2
Basic
 70
     7
177
     3
291
     1
 70
    58
 90
        1
176
     1
 90
        0
176
     1
 90
        1
176
     1
 90
        0
176
     1
 40
0.6
176
     1
 40
30.0
176
     1
 62
     7
420
 16777215
176
     1
 90
        0
176
     1
 90
        4
176
     1
 62
     7
176
     1
 62
   257
176
     1
 90
        1
176
     1
 90
        1
176
     1
 40
1.0
176
     1
 90
        8
176
     1
 62
     7
176
     1
 40
1.0
176
     1
 90
        1
176
     1
 90
        6
176
     1
 90
        2
176
     1
 62
     7
176
     1
 90
        5
176
     1
 90
        0
176
     1
 90
        0
176
     1
290
     0
176
     1
 90
        1
176
     1
 40
0.0
176
     1
 90
        0
176
     1
290
     0
176
     1
290
     1
176
     1
290
     1
176
     1
290
     0
176
     1
290
     0
176
     1
290
     0
176
     1
290
     0
176
     1
290
     0
176
     1
290
     0
176
     1
 90
       50
176
     1
 40
0.0
176
     1
 40
1.0
176
     1
 90
        0
176
     1
 62
    18
420
        0
176
     1
 90
       50
176
     1
 90
        3
176
     1
 62
     5
420
      255
176
     1
290
     0
176
     1
 90
       50
176
     1
 90
       50
176
     1
 90
       50
176
     1
290
     0
176
     1
 90
       50
176
     1
 62
   256
176
     0
 40
1.0
176
     0
 90
        2
176
     1
  1
strokes_ogs.tif
176
     1
290
     0
176
     1
 40
1.0
176
     1
 40
1.0
176
     1
  0
VISUALSTYLE
  5
2B8
102
{ACAD_REACTORS
330
2AC
102
}
330
2AC
100
AcDbVisualStyle
  2
Brighten
 70
    12
177
     3
291
     1
 70
    58
 90
        2
176
     1
 90
        2
176
     1
 90
        1
176
     1
 90
        0
176
     1
 40
0.6
176
     1
 40
30.0
176
     1
 62
     7
420
 16777215
176
     1
 90
        1
176
     1
 90
        4
176
     1
 62
     7
176
     1
 62
   257
176
     1
 90
        1
176
     1
 90
        1
176
     1
 40
1.0
176
     1
 90
        8
176
     1
 62
     7
176
     1
 40
1.0
176
     1
 90
        1
176
     1
 90
        6
176
     1
 90
        2
176
     1
 62
     7
176
     1
 90
        5
176
     1
 90
        0
176
     1
 90
        0
176
     1
290
     0
176
     1
 90
        1
176
     1
 40
50.0
176
     1
 90
        0
176
     1
290
     0
176
     1
290
     1
176
     1
290
     1
176
     1
290
     0
176
     1
290
     0
176
     1
290
     0
176
     1
290
     0
176
     1
290
     0
176
     1
290
     0
176
     1
 90
       50
176
     1
 40
0.0
176
     1
 40
1.0
176
     1
 90
        0
176
     1
 62
    18
420
        0
176
     1
 90
       50
176
     1
 90
        3
176
     1
 62
     5
420
      255
176
     1
290
     0
176
     1
 90
       50
176
     1
 90
       50
176
     1
 90
       50
176
     1
290
     0
176
     1
 90
       50
176
     1
 62
   256
176
     0
 40
1.0
176
     0
 90
        2
176
     1
  1
strokes_ogs.tif
176
     1
290
     0
176
     1
 40
1.0
176
     1
 40
1.0
176
     1
  0
VISUALSTYLE
  5
2BC
102
{ACAD_REACTORS
330
2AC
102
}
330
2AC
100
AcDbVisualStyle
  2
ColorChange
 70
    16
177
     3
291
     1
 70
    58
 90
        2
176
     1
 90
        2
176
     1
 90
        3
176
     1
 90
        0
176
     1
 40
0.6
176
     1
 40
30.0
176
     1
 62
     8
420
  8421504
176
     1
 90
        1
176
     1
 90
        4
176
     1
 62
     7
176
     1
 62
   257
176
     1
 90
        1
176
     1
 90
        1
176
     1
 40
1.0
176
     1
 90
        8
176
     1
 62
     8
420
  8421504
176
     1
 40
1.0
176
     1
 90
        1
176
     1
 90
        6
176
     1
 90
        2
176
     1
 62
     7
176
     1
 90
        5
176
     1
 90
        0
176
     1
 90
        0
176
     1
290
     0
176
     1
 90
        1
176
     1
 40
0.0
176
     1
 90
        0
176
     1
290
     0
176
     1
290
     1
176
     1
290
     1
176
     1
290
     0
176
     1
290
     0
176
     1
290
     0
176
     1
290
     0
176
     1
290
     0
176
     1
290
     0
176
     1
 90
       50
176
     1
 40
0.0
176
     1
 40
1.0
176
     1
 90
        0
176
     1
 62
    18
420
        0
176
     1
 90
       50
176
     1
 90
        3
176
     1
 62
     5
420
      255
176
     1
290
     0
176
     1
 90
       50
176
     1
 90
       50
176
     1
 90
       50
176
     1
290
     0
176
     1
 90
       50
176
     1
 62
   256
176
     0
 40
1.0
176
     0
 90
        2
176
     1
  1
strokes_ogs.tif
176
     1
290
     0
176
     1
 40
1.0
176
     1
 40
1.0
176
     1
  0
VISUALSTYLE
  5
2B5
102
{ACAD_REACTORS
330
2AC
102
}
330
2AC
100
AcDbVisualStyle
  2
Conceptual
 70
     9
177
     3
291
     0
 70
    58
 90
        3
176
     1
 90
        2
176
     1
 90
        1
176
     1
 90
        0
176
     1
 40
0.6
176
     1
 40
30.0
176
     1
 62
     7
420
 16777215
176
     1
 90
        2
176
     1
 90
        2
176
     1
 62
     7
176
     1
 62
   257
176
     1
 90
        1
176
     1
 90
        1
176
     1
 40
40.0
176
     1
 90
        8
176
     1
 62
     7
176
     1
 40
1.0
176
     1
 90
        1
176
     1
 90
        6
176
     1
 90
        2
176
     1
 62
     7
176
     1
 90
        3
176
     1
 90
        0
176
     1
 90
        0
176
     1
290
     0
176
     1
 90
        1
176
     1
 40
0.0
176
     1
 90
        0
176
     1
290
     0
176
     1
290
     1
176
     1
290
     1
176
     1
290
     0
176
     1
290
     0
176
     1
290
     0
176
     1
290
     0
176
     1
290
     0
176
     1
290
     0
176
     1
 90
       50
176
     1
 40
0.0
176
     1
 40
1.0
176
     1
 90
        0
176
     1
 62
    18
420
        0
176
     1
 90
       50
176
     1
 90
        3
176
     1
 62
     5
420
      255
176
     1
290
     0
176
     1
 90
       50
176
     1
 90
       50
176
     1
 90
       50
176
     1
290
     0
176
     1
 90
       50
176
     1
 62
   256
176
     0
 40
1.0
176
     0
 90
        2
176
     1
  1
strokes_ogs.tif
176
     1
290
     0
176
     1
 40
1.0
176
     1
 40
1.0
176
     1
  0
VISUALSTYLE
  5
2B7
102
{ACAD_REACTORS
330
2AC
102
}
330
2AC
100
AcDbVisualStyle
  2
Dim
 70
    11
177
     3
291
     1
 70
    58
 90
        2
176
     1
 90
        2
176
     1
 90
        1
176
     1
 90
        0
176
     1
 40
0.6
176
     1
 40
30.0
176
     1
 62
     7
420
 16777215
176
     1
 90
        1
176
     1
 90
        4
176
     1
 62
     7
176
     1
 62
   257
176
     1
 90
        1
176
     1
 90
        1
176
     1
 40
1.0
176
     1
 90
        8
176
     1
 62
     7
176
     1
 40
1.0
176
     1
 90
        1
176
     1
 90
        6
176
     1
 90
        2
176
     1
 62
     7
176
     1
 90
        5
176
     1
 90
        0
176
     1
 90
        0
176
     1
290
     0
176
     1
 90
        1
176
     1
 40
-50.0
176
     1
 90
        0
176
     1
290
     0
176
     1
290
     1
176
     1
290
     1
176
     1
290
     0
176
     1
290
     0
176
     1
290
     0
176
     1
290
     0
176
     1
290
     0
176
     1
290
     0
176
     1
 90
       50
176
     1
 40
0.0
176
     1
 40
1.0
176
     1
 90
        0
176
     1
 62
    18
420
        0
176
     1
 90
       50
176
     1
 90
        3
176
     1
 62
     5
420
      255
176
     1
290
     0
176
     1
 90
       50
176
     1
 90
       50
176
     1
 90
       50
176
     1
290
     0
176
     1
 90
       50
176
     1
 62
   256
176
     0
 40
1.0
176
     0
 90
        2
176
     1
  1
strokes_ogs.tif
176
     1
290
     0
176
     1
 40
1.0
176
     1
 40
1.0
176
     1
  0
VISUALSTYLE
  5
48CE
102
{ACAD_REACTORS
330
2AC
102
}
330
2AC
100
AcDbVisualStyle
  2
EdgeColorOff
 70
    22
177
     3
291
     1
 70
    58
 90
        2
176
     0
 90
        2
176
     0
 90
        0
176
     0
 90
        0
176
     0
 40
0.6
176
     0
 40
30.0
176
     0
 62
     7
420
 16777215
176
     0
 90
        1
176
     0
 90
        4
176
     0
 62
     7
176
     0
 62
   257
176
     0
 90
        1
176
     0
 90
        1
176
     0
 40
1.0
176
     0
 90
        8
176
     2
 62
     7
176
     0
 40
1.0
176
     0
 90
        1
176
     0
 90
        6
176
     0
 90
        2
176
     0
 62
     7
176
     0
 90
        5
176
     0
 90
        0
176
     0
 90
        0
176
     0
290
     0
176
     0
 90
        1
176
     0
 40
0.0
176
     0
 90
        0
176
     0
290
     0
176
     0
290
     1
176
     0
290
     1
176
     0
290
     0
176
     0
290
     0
176
     0
290
     0
176
     0
290
     0
176
     0
290
     0
176
     0
290
     0
176
     0
 90
       50
176
     0
 40
0.0
176
     0
 40
1.0
176
     0
 90
        0
176
     0
 62
    18
420
        0
176
     0
 90
       50
176
     0
 90
        3
176
     0
 62
     5
420
      255
176
     0
290
     0
176
     0
 90
       50
176
     0
 90
       50
176
     0
 90
       50
176
     0
290
     0
176
     0
 90
       50
176
     0
 62
   256
176
     0
 40
1.0
176
     0
 90
        2
176
     0
  1
strokes_ogs.tif
176
     0
290
     0
176
     0
 40
1.0
176
     0
 40
1.0
176
     0
  0
VISUALSTYLE
  5
2BB
102
{ACAD_REACTORS
330
2AC
102
}
330
2AC
100
AcDbVisualStyle
  2
Facepattern
 70
    15
177
     3
291
     1
 70
    58
 90
        2
176
     1
 90
        2
176
     1
 90
        1
176
     1
 90
        0
176
     1
 40
0.6
176
     1
 40
30.0
176
     1
 62
     7
420
 16777215
176
     1
 90
        1
176
     1
 90
        4
176
     1
 62
     7
176
     1
 62
   257
176
     1
 90
        1
176
     1
 90
        1
176
     1
 40
1.0
176
     1
 90
        8
176
     1
 62
     7
176
     1
 40
1.0
176
     1
 90
        1
176
     1
 90
        6
176
     1
 90
        2
176
     1
 62
     7
176
     1
 90
        5
176
     1
 90
        0
176
     1
 90
        0
176
     1
290
     0
176
     1
 90
        1
176
     1
 40
0.0
176
     1
 90
        0
176
     1
290
     0
176
     1
290
     1
176
     1
290
     1
176
     1
290
     0
176
     1
290
     0
176
     1
290
     0
176
     1
290
     0
176
     1
290
     0
176
     1
290
     0
176
     1
 90
       50
176
     1
 40
0.0
176
     1
 40
1.0
176
     1
 90
        0
176
     1
 62
    18
420
        0
176
     1
 90
       50
176
     1
 90
        3
176
     1
 62
     5
420
      255
176
     1
290
     0
176
     1
 90
       50
176
     1
 90
       50
176
     1
 90
       50
176
     1
290
     0
176
     1
 90
       50
176
     1
 62
   256
176
     0
 40
1.0
176
     0
 90
        2
176
     1
  1
strokes_ogs.tif
176
     1
290
     0
176
     1
 40
1.0
176
     1
 40
1.0
176
     1
  0
VISUALSTYLE
  5
2AD
102
{ACAD_REACTORS
330
2AC
102
}
330
2AC
100
AcDbVisualStyle
  2
Flat
 70
     0
177
     3
291
     1
 70
    58
 90
        2
176
     1
 90
        1
176
     1
 90
        1
176
     1
 90
        2
176
     1
 40
0.6
176
     1
 40
30.0
176
     1
 62
     7
420
 16777215
176
     1
 90
        0
176
     1
 90
        4
176
     1
 62
     7
176
     1
 62
   257
176
     1
 90
        1
176
     1
 90
        1
176
     1
 40
1.0
176
     1
 90
        8
176
     1
 62
     7
176
     1
 40
1.0
176
     1
 90
        1
176
     1
 90
        6
176
     1
 90
        2
176
     1
 62
     7
176
     1
 90
        5
176
     1
 90
        0
176
     1
 90
        0
176
     1
290
     0
176
     1
 90
        1
176
     1
 40
0.0
176
     1
 90
        0
176
     1
290
     0
176
     1
290
     1
176
     1
290
     1
176
     1
290
     0
176
     1
290
     0
176
     1
290
     0
176
     1
290
     0
176
     1
290
     0
176
     1
290
     0
176
     1
 90
       50
176
     1
 40
0.0
176
     1
 40
1.0
176
     1
 90
        0
176
     1
 62
    18
420
        0
176
     1
 90
       50
176
     1
 90
        3
176
     1
 62
     5
420
      255
176
     1
290
     0
176
     1
 90
       50
176
     1
 90
       50
176
     1
 90
       50
176
     1
290
     0
176
     1
 90
       50
176
     1
 62
   256
176
     0
 40
1.0
176
     0
 90
        2
176
     1
  1
strokes_ogs.tif
176
     1
290
     0
176
     1
 40
1.0
176
     1
 40
1.0
176
     1
  0
VISUALSTYLE
  5
2AE
102
{ACAD_REACTORS
330
2AC
102
}
330
2AC
100
AcDbVisualStyle
  2
FlatWithEdges
 70
     1
177
     3
291
     1
 70
    58
 90
        2
176
     1
 90
        1
176
     1
 90
        1
176
     1
 90
        2
176
     1
 40
0.6
176
     1
 40
30.0
176
     1
 62
     7
420
 16777215
176
     1
 90
        1
176
     1
 90
        4
176
     1
 62
     7
176
     1
 62
   257
176
     1
 90
        1
176
     1
 90
        1
176
     1
 40
1.0
176
     1
 90
        0
176
     1
 62
   257
176
     1
 40
1.0
176
     1
 90
        1
176
     1
 90
        6
176
     1
 90
        2
176
     1
 62
     7
176
     1
 90
        5
176
     1
 90
        0
176
     1
 90
        0
176
     1
290
     0
176
     1
 90
        1
176
     1
 40
0.0
176
     1
 90
        0
176
     1
290
     0
176
     1
290
     1
176
     1
290
     1
176
     1
290
     0
176
     1
290
     0
176
     1
290
     0
176
     1
290
     0
176
     1
290
     0
176
     1
290
     0
176
     1
 90
       50
176
     1
 40
0.0
176
     1
 40
1.0
176
     1
 90
        0
176
     1
 62
    18
420
        0
176
     1
 90
       50
176
     1
 90
        3
176
     1
 62
     5
420
      255
176
     1
290
     0
176
     1
 90
       50
176
     1
 90
       50
176
     1
 90
       50
176
     1
290
     0
176
     1
 90
       50
176
     1
 62
   256
176
     0
 40
1.0
176
     0
 90
        2
176
     1
  1
strokes_ogs.tif
176
     1
290
     0
176
     1
 40
1.0
176
     1
 40
1.0
176
     1
  0
VISUALSTYLE
  5
2AF
102
{ACAD_REACTORS
330
2AC
102
}
330
2AC
100
AcDbVisualStyle
  2
Gouraud
 70
     2
177
     3
291
     1
 70
    58
 90
        2
176
     1
 90
        2
176
     1
 90
        1
176
     1
 90
        2
176
     1
 40
0.6
176
     1
 40
30.0
176
     1
 62
     7
420
 16777215
176
     1
 90
        0
176
     1
 90
        4
176
     1
 62
     7
176
     1
 62
   257
176
     1
 90
        1
176
     1
 90
        1
176
     1
 40
1.0
176
     1
 90
        0
176
     1
 62
     7
176
     1
 40
1.0
176
     1
 90
        1
176
     1
 90
        6
176
     1
 90
        2
176
     1
 62
     7
176
     1
 90
        5
176
     1
 90
        0
176
     1
 90
        0
176
     1
290
     0
176
     1
 90
        1
176
     1
 40
0.0
176
     1
 90
        0
176
     1
290
     0
176
     1
290
     1
176
     1
290
     1
176
     1
290
     0
176
     1
290
     0
176
     1
290
     0
176
     1
290
     0
176
     1
290
     0
176
     1
290
     0
176
     1
 90
       50
176
     1
 40
0.0
176
     1
 40
1.0
176
     1
 90
        0
176
     1
 62
    18
420
        0
176
     1
 90
       50
176
     1
 90
        3
176
     1
 62
     5
420
      255
176
     1
290
     0
176
     1
 90
       50
176
     1
 90
       50
176
     1
 90
       50
176
     1
290
     0
176
     1
 90
       50
176
     1
 62
   256
176
     0
 40
1.0
176
     0
 90
        2
176
     1
  1
strokes_ogs.tif
176
     1
290
     0
176
     1
 40
1.0
176
     1
 40
1.0
176
     1
  0
VISUALSTYLE
  5
2B0
102
{ACAD_REACTORS
330
2AC
102
}
330
2AC
100
AcDbVisualStyle
  2
GouraudWithEdges
 70
     3
177
     3
291
     1
 70
    58
 90
        2
176
     1
 90
        2
176
     1
 90
        1
176
     1
 90
        2
176
     1
 40
0.6
176
     1
 40
30.0
176
     1
 62
     7
420
 16777215
176
     1
 90
        1
176
     1
 90
        4
176
     1
 62
     7
176
     1
 62
   257
176
     1
 90
        1
176
     1
 90
        1
176
     1
 40
1.0
176
     1
 90
        0
176
     1
 62
   257
176
     1
 40
1.0
176
     1
 90
        1
176
     1
 90
        6
176
     1
 90
        2
176
     1
 62
     7
176
     1
 90
        5
176
     1
 90
        0
176
     1
 90
        0
176
     1
290
     0
176
     1
 90
        1
176
     1
 40
0.0
176
     1
 90
        0
176
     1
290
     0
176
     1
290
     1
176
     1
290
     1
176
     1
290
     0
176
     1
290
     0
176
     1
290
     0
176
     1
290
     0
176
     1
290
     0
176
     1
290
     0
176
     1
 90
       50
176
     1
 40
0.0
176
     1
 40
1.0
176
     1
 90
        0
176
     1
 62
    18
420
        0
176
     1
 90
       50
176
     1
 90
        3
176
     1
 62
     5
420
      255
176
     1
290
     0
176
     1
 90
       50
176
     1
 90
       50
176
     1
 90
       50
176
     1
290
     0
176
     1
 90
       50
176
     1
 62
   256
176
     0
 40
1.0
176
     0
 90
        2
176
     1
  1
strokes_ogs.tif
176
     1
290
     0
176
     1
 40
1.0
176
     1
 40
1.0
176
     1
  0
VISUALSTYLE
  5
48C6
102
{ACAD_REACTORS
330
2AC
102
}
330
2AC
100
AcDbVisualStyle
  2
Hidden
 70
     6
177
     3
291
     0
 70
    58
 90
        1
176
     1
 90
        2
176
     1
 90
        2
176
     1
 90
        0
176
     1
 40
0.6
176
     1
 40
30.0
176
     1
 62
     7
420
 16777215
176
     1
 90
        2
176
     1
 90
        2
176
     1
 62
     7
176
     1
 62
   257
176
     1
 90
        2
176
     1
 90
        1
176
     1
 40
40.0
176
     1
 90
        0
176
     1
 62
   257
176
     1
 40
1.0
176
     1
 90
        1
176
     1
 90
        6
176
     1
 90
        2
176
     1
 62
     7
176
     1
 90
        3
176
     1
 90
        0
176
     1
 90
        0
176
     1
290
     0
176
     1
 90
        1
176
     1
 40
0.0
176
     1
 90
        0
176
     1
290
     0
176
     1
290
     1
176
     1
290
     1
176
     1
290
     0
176
     1
290
     0
176
     1
290
     0
176
     1
290
     0
176
     1
290
     0
176
     1
290
     0
176
     1
 90
       50
176
     1
 40
0.0
176
     1
 40
1.0
176
     1
 90
        0
176
     1
 62
    18
420
        0
176
     1
 90
       50
176
     1
 90
        3
176
     1
 62
     5
420
      255
176
     1
290
     0
176
     1
 90
       50
176
     1
 90
       50
176
     1
 90
       50
176
     1
290
     0
176
     1
 90
       50
176
     1
 62
   256
176
     0
 40
1.0
176
     0
 90
        2
176
     1
  1
strokes_ogs.tif
176
     1
290
     0
176
     1
 40
1.0
176
     1
 40
1.0
176
     1
  0
VISUALSTYLE
  5
48CC
102
{ACAD_REACTORS
330
2AC
102
}
330
2AC
100
AcDbVisualStyle
  2
JitterOff
 70
    20
177
     3
291
     1
 70
    58
 90
        2
176
     0
 90
        2
176
     0
 90
        0
176
     0
 90
        0
176
     0
 40
0.6
176
     0
 40
30.0
176
     0
 62
     7
420
 16777215
176
     0
 90
        1
176
     0
 90
        4
176
     0
 62
     7
176
     0
 62
   257
176
     0
 90
        1
176
     0
 90
        1
176
     0
 40
1.0
176
     0
 90
       10
176
     2
 62
     7
176
     0
 40
1.0
176
     0
 90
        1
176
     0
 90
        6
176
     0
 90
        2
176
     0
 62
     7
176
     0
 90
        5
176
     0
 90
        0
176
     0
 90
        0
176
     0
290
     0
176
     0
 90
        1
176
     0
 40
0.0
176
     0
 90
        0
176
     0
290
     0
176
     0
290
     1
176
     0
290
     1
176
     0
290
     0
176
     0
290
     0
176
     0
290
     0
176
     0
290
     0
176
     0
290
     0
176
     0
290
     0
176
     0
 90
       50
176
     0
 40
0.0
176
     0
 40
1.0
176
     0
 90
        0
176
     0
 62
    18
420
        0
176
     0
 90
       50
176
     0
 90
        3
176
     0
 62
     5
420
      255
176
     0
290
     0
176
     0
 90
       50
176
     0
 90
       50
176
     0
 90
       50
176
     0
290
     0
176
     0
 90
       50
176
     0
 62
   256
176
     0
 40
1.0
176
     0
 90
        2
176
     0
  1
strokes_ogs.tif
176
     0
290
     0
176
     0
 40
1.0
176
     0
 40
1.0
176
     0
  0
VISUALSTYLE
  5
2BA
102
{ACAD_REACTORS
330
2AC
102
}
330
2AC
100
AcDbVisualStyle
  2
Linepattern
 70
    14
177
     3
291
     1
 70
    58
 90
        2
176
     1
 90
        2
176
     1
 90
        1
176
     1
 90
        0
176
     1
 40
0.6
176
     1
 40
30.0
176
     1
 62
     7
420
 16777215
176
     1
 90
        1
176
     1
 90
        4
176
     1
 62
     7
176
     1
 62
   257
176
     1
 90
        7
176
     1
 90
        7
176
     1
 40
1.0
176
     1
 90
        8
176
     1
 62
     7
176
     1
 40
1.0
176
     1
 90
        1
176
     1
 90
        6
176
     1
 90
        2
176
     1
 62
     7
176
     1
 90
        5
176
     1
 90
        0
176
     1
 90
        0
176
     1
290
     0
176
     1
 90
        1
176
     1
 40
0.0
176
     1
 90
        0
176
     1
290
     0
176
     1
290
     1
176
     1
290
     1
176
     1
290
     0
176
     1
290
     0
176
     1
290
     0
176
     1
290
     0
176
     1
290
     0
176
     1
290
     0
176
     1
 90
       50
176
     1
 40
0.0
176
     1
 40
1.0
176
     1
 90
        0
176
     1
 62
    18
420
        0
176
     1
 90
       50
176
     1
 90
        3
176
     1
 62
     5
420
      255
176
     1
290
     0
176
     1
 90
       50
176
     1
 90
       50
176
     1
 90
       50
176
     1
290
     0
176
     1
 90
       50
176
     1
 62
   256
176
     0
 40
1.0
176
     0
 90
        2
176
     1
  1
strokes_ogs.tif
176
     1
290
     0
176
     1
 40
1.0
176
     1
 40
1.0
176
     1
  0
VISUALSTYLE
  5
48CD
102
{ACAD_REACTORS
330
2AC
102
}
330
2AC
100
AcDbVisualStyle
  2
OverhangOff
 70
    21
177
     3
291
     1
 70
    58
 90
        2
176
     0
 90
        2
176
     0
 90
        0
176
     0
 90
        0
176
     0
 40
0.6
176
     0
 40
30.0
176
     0
 62
     7
420
 16777215
176
     0
 90
        1
176
     0
 90
        4
176
     0
 62
     7
176
     0
 62
   257
176
     0
 90
        1
176
     0
 90
        1
176
     0
 40
1.0
176
     0
 90
        9
176
     2
 62
     7
176
     0
 40
1.0
176
     0
 90
        1
176
     0
 90
        6
176
     0
 90
        2
176
     0
 62
     7
176
     0
 90
        5
176
     0
 90
        0
176
     0
 90
        0
176
     0
290
     0
176
     0
 90
        1
176
     0
 40
0.0
176
     0
 90
        0
176
     0
290
     0
176
     0
290
     1
176
     0
290
     1
176
     0
290
     0
176
     0
290
     0
176
     0
290
     0
176
     0
290
     0
176
     0
290
     0
176
     0
290
     0
176
     0
 90
       50
176
     0
 40
0.0
176
     0
 40
1.0
176
     0
 90
        0
176
     0
 62
    18
420
        0
176
     0
 90
       50
176
     0
 90
        3
176
     0
 62
     5
420
      255
176
     0
290
     0
176
     0
 90
       50
176
     0
 90
       50
176
     0
 90
       50
176
     0
290
     0
176
     0
 90
       50
176
     0
 62
   256
176
     0
 40
1.0
176
     0
 90
        2
176
     0
  1
strokes_ogs.tif
176
     0
290
     0
176
     0
 40
1.0
176
     0
 40
1.0
176
     0
  0
VISUALSTYLE
  5
2B6
102
{ACAD_REACTORS
330
2AC
102
}
330
2AC
100
AcDbVisualStyle
  2
Realistic
 70
     8
177
     3
291
     0
 70
    58
 90
        2
176
     1
 90
        2
176
     1
 90
        1
176
     1
 90
        0
176
     1
 40
0.6
176
     1
 40
30.0
176
     1
 62
     7
420
 16777215
176
     1
 90
        1
176
     1
 90
        0
176
     1
 62
     7
176
     1
 62
   257
176
     1
 90
        1
176
     1
 90
        1
176
     1
 40
1.0
176
     1
 90
        8
176
     1
 62
     8
420
  7895160
176
     1
 40
1.0
176
     1
 90
        1
176
     1
 90
        6
176
     1
 90
        2
176
     1
 62
     7
176
     1
 90
        5
176
     1
 90
        0
176
     1
 90
        0
176
     1
290
     0
176
     1
 90
       13
176
     1
 40
0.0
176
     1
 90
        0
176
     1
290
     0
176
     1
290
     1
176
     1
290
     1
176
     1
290
     0
176
     1
290
     0
176
     1
290
     0
176
     1
290
     0
176
     1
290
     0
176
     1
290
     0
176
     1
 90
       50
176
     1
 40
0.0
176
     1
 40
1.0
176
     1
 90
        0
176
     1
 62
    18
420
        0
176
     1
 90
       50
176
     1
 90
        3
176
     1
 62
     5
420
      255
176
     1
290
     0
176
     1
 90
       50
176
     1
 90
       50
176
     1
 90
       50
176
     1
290
     0
176
     1
 90
       50
176
     1
 62
   256
176
     0
 40
1.0
176
     0
 90
        2
176
     1
  1
strokes_ogs.tif
176
     1
290
     0
176
     1
 40
1.0
176
     1
 40
1.0
176
     1
  0
VISUALSTYLE
  5
48CB
102
{ACAD_REACTORS
330
2AC
102
}
330
2AC
100
AcDbVisualStyle
  2
Shaded
 70
    27
177
     3
291
     0
 70
    58
 90
        2
176
     1
 90
        2
176
     1
 90
        1
176
     1
 90
        2
176
     1
 40
0.6
176
     1
 40
30.0
176
     1
 62
     7
420
 16777215
176
     1
 90
        0
176
     1
 90
        4
176
     1
 62
     7
176
     1
 62
   257
176
     1
 90
        1
176
     1
 90
        1
176
     1
 40
1.0
176
     1
 90
        8
176
     1
 62
   257
176
     1
 40
1.0
176
     1
 90
        1
176
     1
 90
        6
176
     1
 90
        2
176
     1
 62
     8
420
  7895160
176
     1
 90
        3
176
     1
 90
        0
176
     1
 90
        0
176
     1
290
     0
176
     1
 90
        5
176
     1
 40
0.0
176
     1
 90
        0
176
     1
290
     0
176
     1
290
     1
176
     1
290
     1
176
     1
290
     0
176
     1
290
     0
176
     1
290
     0
176
     1
290
     0
176
     1
290
     0
176
     1
290
     0
176
     1
 90
       50
176
     1
 40
0.0
176
     1
 40
1.0
176
     1
 90
        0
176
     1
 62
    18
420
        0
176
     1
 90
       50
176
     1
 90
        3
176
     1
 62
     5
420
      255
176
     1
290
     0
176
     1
 90
       50
176
     1
 90
       50
176
     1
 90
       50
176
     1
290
     0
176
     1
 90
       50
176
     1
 62
   256
176
     0
 40
1.0
176
     0
 90
        2
176
     1
  1
strokes_ogs.tif
176
     1
290
     0
176
     1
 40
1.0
176
     1
 40
1.0
176
     1
  0
VISUALSTYLE
  5
48CA
102
{ACAD_REACTORS
330
2AC
102
}
330
2AC
100
AcDbVisualStyle
  2
Shaded with edges
 70
    26
177
     3
291
     0
 70
    58
 90
        2
176
     1
 90
        2
176
     1
 90
        1
176
     1
 90
        2
176
     1
 40
0.6
176
     1
 40
30.0
176
     1
 62
     7
420
 16777215
176
     1
 90
        1
176
     1
 90
        2
176
     1
 62
     7
176
     1
 62
   257
176
     1
 90
        2
176
     1
 90
        1
176
     1
 40
1.0
176
     1
 90
        8
176
     1
 62
   257
176
     1
 40
1.0
176
     1
 90
        1
176
     1
 90
        6
176
     1
 90
        2
176
     1
 62
     7
176
     1
 90
        3
176
     1
 90
        0
176
     1
 90
        0
176
     1
290
     0
176
     1
 90
        5
176
     1
 40
0.0
176
     1
 90
        0
176
     1
290
     0
176
     1
290
     1
176
     1
290
     1
176
     1
290
     0
176
     1
290
     0
176
     1
290
     0
176
     1
290
     0
176
     1
290
     0
176
     1
290
     0
176
     1
 90
       50
176
     1
 40
0.0
176
     1
 40
1.0
176
     1
 90
        0
176
     1
 62
    18
420
        0
176
     1
 90
       50
176
     1
 90
        3
176
     1
 62
     5
420
      255
176
     1
290
     0
176
     1
 90
       50
176
     1
 90
       50
176
     1
 90
       50
176
     1
290
     0
176
     1
 90
       50
176
     1
 62
   256
176
     0
 40
1.0
176
     0
 90
        2
176
     1
  1
strokes_ogs.tif
176
     1
290
     0
176
     1
 40
1.0
176
     1
 40
1.0
176
     1
  0
VISUALSTYLE
  5
48C7
102
{ACAD_REACTORS
330
2AC
102
}
330
2AC
100
AcDbVisualStyle
  2
Shades of Gray
 70
    23
177
     3
291
     0
 70
    58
 90
        2
176
     1
 90
        2
176
     1
 90
        3
176
     1
 90
        0
176
     1
 40
0.6
176
     1
 40
30.0
176
     1
 62
     7
420
 16777215
176
     1
 90
        2
176
     1
 90
        2
176
     1
 62
     7
176
     1
 62
     7
176
     1
 90
        1
176
     1
 90
        1
176
     1
 40
40.0
176
     1
 90
        8
176
     1
 62
     7
176
     1
 40
1.0
176
     1
 90
        1
176
     1
 90
        6
176
     1
 90
        2
176
     1
 62
     7
176
     1
 90
        3
176
     1
 90
        0
176
     1
 90
        0
176
     1
290
     0
176
     1
 90
        1
176
     1
 40
0.0
176
     1
 90
        0
176
     1
290
     0
176
     1
290
     1
176
     1
290
     1
176
     1
290
     0
176
     1
290
     0
176
     1
290
     0
176
     1
290
     0
176
     1
290
     0
176
     1
290
     0
176
     1
 90
       50
176
     1
 40
0.0
176
     1
 40
1.0
176
     1
 90
        0
176
     1
 62
    18
420
        0
176
     1
 90
       50
176
     1
 90
        3
176
     1
 62
     5
420
      255
176
     1
290
     0
176
     1
 90
       50
176
     1
 90
       50
176
     1
 90
       50
176
     1
290
     0
176
     1
 90
       50
176
     1
 62
   256
176
     0
 40
1.0
176
     0
 90
        2
176
     1
  1
strokes_ogs.tif
176
     1
290
     0
176
     1
 40
1.0
176
     1
 40
1.0
176
     1
  0
VISUALSTYLE
  5
48C8
102
{ACAD_REACTORS
330
2AC
102
}
330
2AC
100
AcDbVisualStyle
  2
Sketchy
 70
    24
177
     3
291
     0
 70
    58
 90
        1
176
     1
 90
        2
176
     1
 90
        2
176
     1
 90
        0
176
     1
 40
0.6
176
     1
 40
30.0
176
     1
 62
     7
420
 16777215
176
     1
 90
        2
176
     1
 90
        2
176
     1
 62
     7
176
     1
 62
     7
176
     1
 90
        1
176
     1
 90
        1
176
     1
 40
40.0
176
     1
 90
       11
176
     1
 62
     7
176
     1
 40
1.0
176
     1
 90
        1
176
     1
 90
        6
176
     1
 90
        2
176
     1
 62
     7
176
     1
 90
        6
176
     1
 90
        0
176
     1
 90
        0
176
     1
290
     0
176
     1
 90
        1
176
     1
 40
0.0
176
     1
 90
        0
176
     1
290
     0
176
     1
290
     1
176
     1
290
     1
176
     1
290
     0
176
     1
290
     0
176
     1
290
     0
176
     1
290
     0
176
     1
290
     0
176
     1
290
     0
176
     1
 90
       50
176
     1
 40
0.0
176
     1
 40
1.0
176
     1
 90
        0
176
     1
 62
    18
420
        0
176
     1
 90
       50
176
     1
 90
        3
176
     1
 62
     5
420
      255
176
     1
290
     0
176
     1
 90
       50
176
     1
 90
       50
176
     1
 90
       50
176
     1
290
     0
176
     1
 90
       50
176
     1
 62
   256
176
     0
 40
1.0
176
     0
 90
        2
176
     1
  1
strokes_ogs.tif
176
     1
290
     0
176
     1
 40
1.0
176
     1
 40
1.0
176
     1
  0
VISUALSTYLE
  5
2B9
102
{ACAD_REACTORS
330
2AC
102
}
330
2AC
100
AcDbVisualStyle
  2
Thicken
 70
    13
177
     3
291
     1
 70
    58
 90
        2
176
     1
 90
        2
176
     1
 90
        1
176
     1
 90
        0
176
     1
 40
0.6
176
     1
 40
30.0
176
     1
 62
     7
420
 16777215
176
     1
 90
        1
176
     1
 90
        4
176
     1
 62
     7
176
     1
 62
   257
176
     1
 90
        1
176
     1
 90
        1
176
     1
 40
1.0
176
     1
 90
       12
176
     1
 62
     7
176
     1
 40
1.0
176
     1
 90
        1
176
     1
 90
        6
176
     1
 90
        2
176
     1
 62
     7
176
     1
 90
        5
176
     1
 90
        0
176
     1
 90
        0
176
     1
290
     0
176
     1
 90
        1
176
     1
 40
0.0
176
     1
 90
        0
176
     1
290
     0
176
     1
290
     1
176
     1
290
     1
176
     1
290
     0
176
     1
290
     0
176
     1
290
     0
176
     1
290
     0
176
     1
290
     0
176
     1
290
     0
176
     1
 90
       50
176
     1
 40
0.0
176
     1
 40
1.0
176
     1
 90
        0
176
     1
 62
    18
420
        0
176
     1
 90
       50
176
     1
 90
        3
176
     1
 62
     5
420
      255
176
     1
290
     0
176
     1
 90
       50
176
     1
 90
       50
176
     1
 90
       50
176
     1
290
     0
176
     1
 90
       50
176
     1
 62
   256
176
     0
 40
1.0
176
     0
 90
        2
176
     1
  1
strokes_ogs.tif
176
     1
290
     0
176
     1
 40
1.0
176
     1
 40
1.0
176
     1
  0
VISUALSTYLE
  5
48C5
102
{ACAD_REACTORS
330
2AC
102
}
330
2AC
100
AcDbVisualStyle
  2
Wireframe
 70
     5
177
     3
291
     0
 70
    58
 90
        0
176
     1
 90
        2
176
     1
 90
        0
176
     1
 90
        0
176
     1
 40
0.6
176
     1
 40
30.0
176
     1
 62
     7
420
 16777215
176
     1
 90
        1
176
     1
 90
        4
176
     1
 62
     7
176
     1
 62
   257
176
     1
 90
        1
176
     1
 90
        1
176
     1
 40
1.0
176
     1
 90
        0
176
     1
 62
   257
176
     1
 40
1.0
176
     1
 90
        1
176
     1
 90
        6
176
     1
 90
        2
176
     1
 62
     7
176
     1
 90
        3
176
     1
 90
        0
176
     1
 90
        0
176
     1
290
     0
176
     1
 90
        1
176
     1
 40
0.0
176
     1
 90
        0
176
     1
290
     0
176
     1
290
     1
176
     1
290
     1
176
     1
290
     0
176
     1
290
     0
176
     1
290
     0
176
     1
290
     0
176
     1
290
     0
176
     1
290
     0
176
     1
 90
       50
176
     1
 40
0.0
176
     1
 40
1.0
176
     1
 90
        0
176
     1
 62
    18
420
        0
176
     1
 90
       50
176
     1
 90
        3
176
     1
 62
     5
420
      255
176
     1
290
     0
176
     1
 90
       50
176
     1
 90
       50
176
     1
 90
       50
176
     1
290
     0
176
     1
 90
       50
176
     1
 62
   256
176
     0
 40
1.0
176
     0
 90
        2
176
     1
  1
strokes_ogs.tif
176
     1
290
     0
176
     1
 40
1.0
176
     1
 40
1.0
176
     1
  0
VISUALSTYLE
  5
48C9
102
{ACAD_REACTORS
330
2AC
102
}
330
2AC
100
AcDbVisualStyle
  2
X-Ray
 70
    25
177
     3
291
     0
 70
    58
 90
        2
176
     1
 90
        2
176
     1
 90
        1
176
     1
 90
        1
176
     1
 40
0.5
176
     1
 40
30.0
176
     1
 62
     7
420
 16777215
176
     1
 90
        1
176
     1
 90
        0
176
     1
 62
     7
176
     1
 62
   257
176
     1
 90
        1
176
     1
 90
        1
176
     1
 40
1.0
176
     1
 90
        8
176
     1
 62
     7
176
     1
 40
1.0
176
     1
 90
        1
176
     1
 90
        6
176
     1
 90
        2
176
     1
 62
     7
176
     1
 90
        3
176
     1
 90
        0
176
     1
 90
        0
176
     1
290
     0
176
     1
 90
       13
176
     1
 40
0.0
176
     1
 90
        0
176
     1
290
     0
176
     1
290
     1
176
     1
290
     1
176
     1
290
     0
176
     1
290
     0
176
     1
290
     0
176
     1
290
     0
176
     1
290
     0
176
     1
290
     0
176
     1
 90
       50
176
     1
 40
0.0
176
     1
 40
1.0
176
     1
 90
        0
176
     1
 62
    18
420
        0
176
     1
 90
       50
176
     1
 90
        3
176
     1
 62
     5
420
      255
176
     1
290
     0
176
     1
 90
       50
176
     1
 90
       50
176
     1
 90
       50
176
     1
290
     0
176
     1
 90
       50
176
     1
 62
   256
176
     0
 40
1.0
176
     0
 90
        2
176
     1
  1
strokes_ogs.tif
176
     1
290
     0
176
     1
 40
1.0
176
     1
 40
1.0
176
     1
  0
DICTIONARYVAR
  5
4916
102
{ACAD_REACTORS
330
23A
102
}
330
23A
100
DictionaryVariables
280
     0
  1
1:1
  0
DICTIONARYVAR
  5
4912
102
{ACAD_REACTORS
330
23A
102
}
330
23A
100
DictionaryVariables
280
     0
  1
STANDARD
  0
DICTIONARYVAR
  5
290
102
{ACAD_REACTORS
330
23A
102
}
330
23A
100
DictionaryVariables
280
     0
  1
STANDARD
  0
DICTIONARYVAR
  5
4913
102
{ACAD_REACTORS
330
23A
102
}
330
23A
100
DictionaryVariables
280
     0
  1
Metric50
  0
DICTIONARYVAR
  5
4914
102
{ACAD_REACTORS
330
23A
102
}
330
23A
100
DictionaryVariables
280
     0
  1
Metric50
  0
DICTIONARYVAR
  5
23C
102
{ACAD_REACTORS
330
23A
102
}
330
23A
100
DictionaryVariables
280
     0
  1
2
  0
DICTIONARYVAR
  5
23B
102
{ACAD_REACTORS
330
23A
102
}
330
23A
100
DictionaryVariables
280
     0
  1
1
  0
DICTIONARYVAR
  5
4918
102
{ACAD_REACTORS
330
23A
102
}
330
23A
100
DictionaryVariables
280
     0
  1
1
  0
DICTIONARYVAR
  5
4919
102
{ACAD_REACTORS
330
23A
102
}
330
23A
100
DictionaryVariables
280
     0
  1
15
  0
DICTIONARYVAR
  5
4917
102
{ACAD_REACTORS
330
23A
102
}
330
23A
100
DictionaryVariables
280
     0
  1
0
  0
DICTIONARYVAR
  5
4915
102
{ACAD_REACTORS
330
23A
102
}
330
23A
100
DictionaryVariables
280
     0
  1
0
  0
XRECORD
  5
F8E
102
{ACAD_REACTORS
330
F8D
102
}
330
F8D
100
AcDbXrecord
280
     1
  0
VLO-VL
  5
30B
102
{ACAD_REACTORS
330
30A
102
}
330
30A
100
vlo_VL
 90
   -64512
 91
       12
 92
        1
 40
2.5
300
(&VLO-R . 0)
  0
DICTIONARY
  5
491E
330
48E7
100
AcDbDictionary
280
     1
281
     1
  3
ACAD_XREC_ROUNDTRIP
360
491F
  0
DICTIONARY
  5
28C
330
71
100
AcDbDictionary
280
     1
281
     1
  0
DICTIONARY
  5
491C
330
48E5
100
AcDbDictionary
280
     1
281
     1
  3
ACAD_XREC_ROUNDTRIP
360
491D
  0
DICTIONARY
  5
491A
330
27D
100
AcDbDictionary
280
     1
281
     1
  3
ACAD_ROUNDTRIP_2008_TABLESTYLE_CELLSTYLEMAP
360
491B
  0
XRECORD
  5
491F
102
{ACAD_REACTORS
330
491E
102
}
330
491E
100
AcDbXrecord
280
     1
102
DISPLAYNAME
  1
Metric50
102
FLAGS
 90
        0
  0
XRECORD
  5
491D
102
{ACAD_REACTORS
330
491C
102
}
330
491C
100
AcDbXrecord
280
     1
102
DISPLAYNAME
  1
Metric50
102
FLAGS
 90
        0
  0
CELLSTYLEMAP
  5
491B
102
{ACAD_REACTORS
330
491A
102
}
330
491A
100
AcDbCellStyleMap
 90
        3
300
CELLSTYLE
  1
TABLEFORMAT_BEGIN
 90
        5
170
     1
 91
        0
 92
    32768
 62
   257
 93
        1
300
CONTENTFORMAT
  1
CONTENTFORMAT_BEGIN
 90
        0
 91
        0
 92
      512
 93
        0
300

 40
0.0
140
1.0
 94
        5
 62
     0
340
11
144
6.0
309
CONTENTFORMAT_END
171
     1
301
MARGIN
  1
CELLMARGIN_BEGIN
 40
1.5
 40
1.5
 40
1.5
 40
1.5
 40
0.18
 40
0.18
309
CELLMARGIN_END
 94
        6
 95
        1
302
GRIDFORMAT
  1
GRIDFORMAT_BEGIN
 90
        0
 91
        1
 62
     0
 92
       -2
340
0
 93
        0
 40
0.045
309
GRIDFORMAT_END
 95
        2
302
GRIDFORMAT
  1
GRIDFORMAT_BEGIN
 90
        0
 91
        1
 62
     0
 92
       -2
340
0
 93
        0
 40
0.045
309
GRIDFORMAT_END
 95
        4
302
GRIDFORMAT
  1
GRIDFORMAT_BEGIN
 90
        0
 91
        1
 62
     0
 92
       -2
340
0
 93
        0
 40
0.045
309
GRIDFORMAT_END
 95
        8
302
GRIDFORMAT
  1
GRIDFORMAT_BEGIN
 90
        0
 91
        1
 62
     0
 92
       -2
340
0
 93
        0
 40
0.045
309
GRIDFORMAT_END
 95
       16
302
GRIDFORMAT
  1
GRIDFORMAT_BEGIN
 90
        0
 91
        1
 62
     0
 92
       -2
340
0
 93
        0
 40
0.045
309
GRIDFORMAT_END
 95
       32
302
GRIDFORMAT
  1
GRIDFORMAT_BEGIN
 90
        0
 91
        1
 62
     0
 92
       -2
340
0
 93
        0
 40
0.045
309
GRIDFORMAT_END
309
TABLEFORMAT_END
  1
CELLSTYLE_BEGIN
 90
        1
 91
        1
300
_TITLE
309
CELLSTYLE_END
300
CELLSTYLE
  1
TABLEFORMAT_BEGIN
 90
        5
170
     1
 91
        0
 92
        0
 62
   257
 93
        1
300
CONTENTFORMAT
  1
CONTENTFORMAT_BEGIN
 90
        0
 91
        0
 92
      512
 93
        0
300

 40
0.0
140
1.0
 94
        5
 62
     0
340
11
144
4.5
309
CONTENTFORMAT_END
171
     1
301
MARGIN
  1
CELLMARGIN_BEGIN
 40
1.5
 40
1.5
 40
1.5
 40
1.5
 40
0.18
 40
0.18
309
CELLMARGIN_END
 94
        6
 95
        1
302
GRIDFORMAT
  1
GRIDFORMAT_BEGIN
 90
        0
 91
        1
 62
     0
 92
       -2
340
0
 93
        0
 40
0.045
309
GRIDFORMAT_END
 95
        2
302
GRIDFORMAT
  1
GRIDFORMAT_BEGIN
 90
        0
 91
        1
 62
     0
 92
       -2
340
0
 93
        0
 40
0.045
309
GRIDFORMAT_END
 95
        4
302
GRIDFORMAT
  1
GRIDFORMAT_BEGIN
 90
        0
 91
        1
 62
     0
 92
       -2
340
0
 93
        0
 40
0.045
309
GRIDFORMAT_END
 95
        8
302
GRIDFORMAT
  1
GRIDFORMAT_BEGIN
 90
        0
 91
        1
 62
     0
 92
       -2
340
0
 93
        0
 40
0.045
309
GRIDFORMAT_END
 95
       16
302
GRIDFORMAT
  1
GRIDFORMAT_BEGIN
 90
        0
 91
        1
 62
     0
 92
       -2
340
0
 93
        0
 40
0.045
309
GRIDFORMAT_END
 95
       32
302
GRIDFORMAT
  1
GRIDFORMAT_BEGIN
 90
        0
 91
        1
 62
     0
 92
       -2
340
0
 93
        0
 40
0.045
309
GRIDFORMAT_END
309
TABLEFORMAT_END
  1
CELLSTYLE_BEGIN
 90
        2
 91
        1
300
_HEADER
309
CELLSTYLE_END
300
CELLSTYLE
  1
TABLEFORMAT_BEGIN
 90
        5
170
     1
 91
        0
 92
        0
 62
   257
 93
        1
300
CONTENTFORMAT
  1
CONTENTFORMAT_BEGIN
 90
        0
 91
        0
 92
      512
 93
        0
300

 40
0.0
140
1.0
 94
        2
 62
     0
340
11
144
4.5
309
CONTENTFORMAT_END
171
     1
301
MARGIN
  1
CELLMARGIN_BEGIN
 40
1.5
 40
1.5
 40
1.5
 40
1.5
 40
0.18
 40
0.18
309
CELLMARGIN_END
 94
        6
 95
        1
302
GRIDFORMAT
  1
GRIDFORMAT_BEGIN
 90
        0
 91
        1
 62
     0
 92
       -2
340
0
 93
        0
 40
0.045
309
GRIDFORMAT_END
 95
        2
302
GRIDFORMAT
  1
GRIDFORMAT_BEGIN
 90
        0
 91
        1
 62
     0
 92
       -2
340
0
 93
        0
 40
0.045
309
GRIDFORMAT_END
 95
        4
302
GRIDFORMAT
  1
GRIDFORMAT_BEGIN
 90
        0
 91
        1
 62
     0
 92
       -2
340
0
 93
        0
 40
0.045
309
GRIDFORMAT_END
 95
        8
302
GRIDFORMAT
  1
GRIDFORMAT_BEGIN
 90
        0
 91
        1
 62
     0
 92
       -2
340
0
 93
        0
 40
0.045
309
GRIDFORMAT_END
 95
       16
302
GRIDFORMAT
  1
GRIDFORMAT_BEGIN
 90
        0
 91
        1
 62
     0
 92
       -2
340
0
 93
        0
 40
0.045
309
GRIDFORMAT_END
 95
       32
302
GRIDFORMAT
  1
GRIDFORMAT_BEGIN
 90
        0
 91
        1
 62
     0
 92
       -2
340
0
 93
        0
 40
0.045
309
GRIDFORMAT_END
309
TABLEFORMAT_END
  1
CELLSTYLE_BEGIN
 90
        3
 91
        2
300
_DATA
309
CELLSTYLE_END
  0
ENDSEC
  0
SECTION
  2
ACDSDATA
 70
     2
 71
     8
  0
ACDSSCHEMA
 90
        0
  1
AcDb_Thumbnail_Schema
  2
AcDbDs::ID
280
    10
 91
        8
  2
Thumbnail_Data
280
    15
 91
        0
101
ACDSRECORD
 95
        0
 90
        1
  2
AcDbDs::TreatedAsObjectData
280
     1
291
     1
101
ACDSRECORD
 95
        0
 90
        2
  2
AcDbDs::Legacy
280
     1
291
     1
101
ACDSRECORD
  1
AcDbDs::ID
 90
        3
  2
AcDs:Indexable
280
     1
291
     1
101
ACDSRECORD
  1
AcDbDs::ID
 90
        4
  2
AcDbDs::HandleAttribute
280
     7
282
     1
  0
ACDSSCHEMA
 90
        1
  1
AcDbDs::TreatedAsObjectDataSchema
  2
AcDbDs::TreatedAsObjectData
280
     1
 91
        0
  0
ACDSSCHEMA
 90
        2
  1
AcDbDs::LegacySchema
  2
AcDbDs::Legacy
280
     1
 91
        0
  0
ACDSSCHEMA
 90
        3
  1
AcDbDs::IndexedPropertySchema
  2
AcDs:Indexable
280
     1
 91
        0
  0
ACDSSCHEMA
 90
        4
  1
AcDbDs::HandleAttributeSchema
  2
AcDbDs::HandleAttribute
280
     7
 91
        1
284
     1
  0
ACDSRECORD
 90
        0
  2
AcDbDs::ID
280
    10
320
71
  2
Thumbnail_Data
280
    15
 94
     1034
310
89504E470D0A1A0A0000000D49484452000000B40000007F0803000000713C187700000300504C5445FFFFFF000000FFFFFF0000000000000000000000000000000000000000000000000000330000660000990000CC0000FF0033000033330033660033990033CC0033FF0066000066330066660066990066CC0066FF0099
310
000099330099660099990099CC0099FF00CC0000CC3300CC6600CC9900CCCC00CCFF00FF0000FF3300FF6600FF9900FFCC00FFFF3300003300333300663300993300CC3300FF3333003333333333663333993333CC3333FF3366003366333366663366993366CC3366FF3399003399333399663399993399CC3399FF33CC00
310
33CC3333CC6633CC9933CCCC33CCFF33FF0033FF3333FF6633FF9933FFCC33FFFF6600006600336600666600996600CC6600FF6633006633336633666633996633CC6633FF6666006666336666666666996666CC6666FF6699006699336699666699996699CC6699FF66CC0066CC3366CC6666CC9966CCCC66CCFF66FF0066
310
FF3366FF6666FF9966FFCC66FFFF9900009900339900669900999900CC9900FF9933009933339933669933999933CC9933FF9966009966339966669966999966CC9966FF9999009999339999669999999999CC9999FF99CC0099CC3399CC6699CC9999CCCC99CCFF99FF0099FF3399FF6699FF9999FFCC99FFFFCC0000CC00
310
33CC0066CC0099CC00CCCC00FFCC3300CC3333CC3366CC3399CC33CCCC33FFCC6600CC6633CC6666CC6699CC66CCCC66FFCC9900CC9933CC9966CC9999CC99CCCC99FFCCCC00CCCC33CCCC66CCCC99CCCCCCCCCCFFCCFF00CCFF33CCFF66CCFF99CCFFCCCCFFFFFF0000FF0033FF0066FF0099FF00CCFF00FFFF3300FF3333
310
FF3366FF3399FF33CCFF33FFFF6600FF6633FF6666FF6699FF66CCFF66FFFF9900FF9933FF9966FF9999FF99CCFF99FFFFCC00FFCC33FFCC66FFCC99FFCCCCFFCCFFFFFF00FFFF33FFFF66FFFF99FFFFCCFFFFFF0000000D0D0D1A1A1A2828283535354343435050505D5D5D6B6B6B787878868686939393A1A1A1AEAEAEBB
310
BBBBC9C9C9D6D6D6E4E4E4F1F1F1FFFFFF000000000000000000000000000000000000000000000000000000000000790CAC0F000000C54944415478DAEDDC310A80300C05D0DEFF985EA053761114C1459052FCF4FDAD25C34384D00C693D306D0B4CDBEAC875AC338FAA7AB91F72FD567ED75DE8FA7D56458FFB4167A2C7
310
7F4068E891E8FA3FBAA0A1A1A1A1C3D0DA383434343434343434B4B987970B343434B4B987360E0D0D0D0D0D0D0D0D0DEDE5020D0D0D6DEEA1234243434343434343439B7B78B940434343437F446BE3D0D0D0B3D0890B1CE6071A1A1A7A697454A0A1A1A1A133D0DA383434F44AE8C465AC69CD2571576FEF3D0EBD031E16
310
08A9D332BAF70000000049454E44AE426082
  0
ENDSEC
  0
EOF
