  0
SECTION
  2
HEADER
  9
$ACADVER
  1
AC1015
  9
$ACADMAINTVER
 70
     6
  9
$DWGCODEPAGE
  3
ANSI_1252
  9
$INSBASE
 10
0.0
 20
0.0
 30
0.0
  9
$EXTMIN
 10
0.0
 20
0.0
 30
0.0
  9
$EXTMAX
 10
2100.0
 20
2970.0
 30
0.0
  9
$LIMMIN
 10
0.0
 20
0.0
  9
$LIMMAX
 10
2100.0
 20
2970.0
  9
$ORTHOMODE
 70
     0
  9
$REGENMODE
 70
     1
  9
$FILLMODE
 70
     1
  9
$QTEXTMODE
 70
     0
  9
$MIRRTEXT
 70
     1
  9
$LTSCALE
 40
10.0
  9
$ATTMODE
 70
     1
  9
$TEXTSIZE
 40
35.0
  9
$TRACEWID
 40
1.0
  9
$TEXTSTYLE
  7
Standard
  9
$CLAYER
  8
0
  9
$CELTYPE
  6
ByLayer
  9
$CECOLOR
 62
   256
  9
$CELTSCALE
 40
1.0
  9
$DISPSILH
 70
     0
  9
$DIMSCALE
 40
1.0
  9
$DIMASZ
 40
25.0
  9
$DIMEXO
 40
5.0
  9
$DIMDLI
 40
3.75
  9
$DIMRND
 40
0.0
  9
$DIMDLE
 40
0.0
  9
$DIMEXE
 40
10.0
  9
$DIMTP
 40
0.0
  9
$DIMTM
 40
0.0
  9
$DIMTXT
 40
35.0
  9
$DIMCEN
 40
2.5
  9
$DIMTSZ
 40
0.0
  9
$DIMTOL
 70
     0
  9
$DIMLIM
 70
     0
  9
$DIMTIH
 70
     1
  9
$DIMTOH
 70
     1
  9
$DIMSE1
 70
     0
  9
$DIMSE2
 70
     0
  9
$DIMTAD
 70
     1
  9
$DIMZIN
 70
     0
  9
$DIMBLK
  1

  9
$DIMASO
 70
     1
  9
$DIMSHO
 70
     1
  9
$DIMPOST
  1

  9
$DIMAPOST
  1

  9
$DIMALT
 70
     0
  9
$DIMALTD
 70
     3
  9
$DIMALTF
 40
0.0393700787
  9
$DIMLFAC
 40
1.0
  9
$DIMTOFL
 70
     1
  9
$DIMTVP
 40
0.0
  9
$DIMTIX
 70
     0
  9
$DIMSOXD
 70
     0
  9
$DIMSAH
 70
     0
  9
$DIMBLK1
  1

  9
$DIMBLK2
  1

  9
$DIMSTYLE
  2
ISO-25
  9
$DIMCLRD
 70
     0
  9
$DIMCLRE
 70
     0
  9
$DIMCLRT
 70
     0
  9
$DIMTFAC
 40
1.0
  9
$DIMGAP
 40
15.24
  9
$DIMJUST
 70
     0
  9
$DIMSD1
 70
     0
  9
$DIMSD2
 70
     0
  9
$DIMTOLJ
 70
     0
  9
$DIMTZIN
 70
     0
  9
$DIMALTZ
 70
     0
  9
$DIMALTTZ
 70
     0
  9
$DIMUPT
 70
     0
  9
$DIMDEC
 70
     2
  9
$DIMTDEC
 70
     2
  9
$DIMALTU
 70
     2
  9
$DIMALTTD
 70
     3
  9
$DIMTXSTY
  7
Standard
  9
$DIMAUNIT
 70
     0
  9
$DIMADEC
 70
     2
  9
$DIMALTRND
 40
0.0
  9
$DIMAZIN
 70
     0
  9
$DIMDSEP
 70
    44
  9
$DIMATFIT
 70
     3
  9
$DIMFRAC
 70
     0
  9
$DIMLDRBLK
  1

  9
$DIMLUNIT
 70
     2
  9
$DIMLWD
 70
    -2
  9
$DIMLWE
 70
    -2
  9
$DIMTMOVE
 70
     0
  9
$LUNITS
 70
     2
  9
$LUPREC
 70
     2
  9
$SKETCHINC
 40
1.0
  9
$FILLETRAD
 40
10.0
  9
$AUNITS
 70
     0
  9
$AUPREC
 70
     2
  9
$MENU
  1
.
  9
$ELEVATION
 40
0.0
  9
$PELEVATION
 40
0.0
  9
$THICKNESS
 40
0.0
  9
$LIMCHECK
 70
     0
  9
$CHAMFERA
 40
10.0
  9
$CHAMFERB
 40
10.0
  9
$CHAMFERC
 40
20.0
  9
$CHAMFERD
 40
0.0
  9
$SKPOLY
 70
     0
  9
$TDCREATE
 40
2457196.684206574
  9
$TDUCREATE
 40
2457196.600873241
  9
$TDUPDATE
 40
2457196.68420838
  9
$TDUUPDATE
 40
2457196.600875046
  9
$TDINDWG
 40
0.0000000116
  9
$TDUSRTIMER
 40
0.0000000116
  9
$USRTIMER
 70
     1
  9
$ANGBASE
 50
0.0
  9
$ANGDIR
 70
     0
  9
$PDMODE
 70
     0
  9
$PDSIZE
 40
-1.0
  9
$PLINEWID
 40
0.0
  9
$SPLFRAME
 70
     0
  9
$SPLINETYPE
 70
     6
  9
$SPLINESEGS
 70
     8
  9
$HANDSEED
  5
20C
  9
$SURFTAB1
 70
     6
  9
$SURFTAB2
 70
     6
  9
$SURFTYPE
 70
     6
  9
$SURFU
 70
     6
  9
$SURFV
 70
     6
  9
$UCSBASE
  2

  9
$UCSNAME
  2

  9
$UCSORG
 10
0.0
 20
0.0
 30
0.0
  9
$UCSXDIR
 10
1.0
 20
0.0
 30
0.0
  9
$UCSYDIR
 10
0.0
 20
1.0
 30
0.0
  9
$UCSORTHOREF
  2

  9
$UCSORTHOVIEW
 70
     0
  9
$UCSORGTOP
 10
0.0
 20
0.0
 30
0.0
  9
$UCSORGBOTTOM
 10
0.0
 20
0.0
 30
0.0
  9
$UCSORGLEFT
 10
0.0
 20
0.0
 30
0.0
  9
$UCSORGRIGHT
 10
0.0
 20
0.0
 30
0.0
  9
$UCSORGFRONT
 10
0.0
 20
0.0
 30
0.0
  9
$UCSORGBACK
 10
0.0
 20
0.0
 30
0.0
  9
$PUCSBASE
  2

  9
$PUCSNAME
  2

  9
$PUCSORG
 10
0.0
 20
0.0
 30
0.0
  9
$PUCSXDIR
 10
1.0
 20
0.0
 30
0.0
  9
$PUCSYDIR
 10
0.0
 20
1.0
 30
0.0
  9
$PUCSORTHOREF
  2

  9
$PUCSORTHOVIEW
 70
     0
  9
$PUCSORGTOP
 10
0.0
 20
0.0
 30
0.0
  9
$PUCSORGBOTTOM
 10
0.0
 20
0.0
 30
0.0
  9
$PUCSORGLEFT
 10
0.0
 20
0.0
 30
0.0
  9
$PUCSORGRIGHT
 10
0.0
 20
0.0
 30
0.0
  9
$PUCSORGFRONT
 10
0.0
 20
0.0
 30
0.0
  9
$PUCSORGBACK
 10
0.0
 20
0.0
 30
0.0
  9
$USERI1
 70
     0
  9
$USERI2
 70
     0
  9
$USERI3
 70
     0
  9
$USERI4
 70
     0
  9
$USERI5
 70
     0
  9
$USERR1
 40
0.0
  9
$USERR2
 40
0.0
  9
$USERR3
 40
0.0
  9
$USERR4
 40
0.0
  9
$USERR5
 40
0.0
  9
$WORLDVIEW
 70
     1
  9
$SHADEDGE
 70
     3
  9
$SHADEDIF
 70
    70
  9
$TILEMODE
 70
     1
  9
$MAXACTVP
 70
    64
  9
$PINSBASE
 10
0.0
 20
0.0
 30
0.0
  9
$PLIMCHECK
 70
     0
  9
$PEXTMIN
 10
1.0000000000E+20
 20
1.0000000000E+20
 30
1.0000000000E+20
  9
$PEXTMAX
 10
-1.0000000000E+20
 20
-1.0000000000E+20
 30
-1.0000000000E+20
  9
$PLIMMIN
 10
0.0
 20
0.0
  9
$PLIMMAX
 10
420.0
 20
297.0
  9
$UNITMODE
 70
     0
  9
$VISRETAIN
 70
     1
  9
$PLINEGEN
 70
     0
  9
$PSLTSCALE
 70
     1
  9
$TREEDEPTH
 70
  3020
  9
$CMLSTYLE
  2
Standard
  9
$CMLJUST
 70
     0
  9
$CMLSCALE
 40
20.0
  9
$PROXYGRAPHICS
 70
     1
  9
$MEASUREMENT
 70
     1
  9
$CELWEIGHT
370
    -1
  9
$ENDCAPS
280
     0
  9
$JOINSTYLE
280
     0
  9
$LWDISPLAY
290
     1
  9
$INSUNITS
 70
     4
  9
$HYPERLINKBASE
  1

  9
$STYLESHEET
  1

  9
$XEDIT
290
     1
  9
$CEPSNTYPE
380
     0
  9
$PSTYLEMODE
290
     1
  9
$FINGERPRINTGUID
  2
{889838AB-FE65-4136-A23A-49766BAD7BA8}
  9
$VERSIONGUID
  2
{FAEB1C32-E019-11D5-929B-00C0DF256EC4}
  9
$EXTNAMES
290
     1
  9
$PSVPSCALE
 40
0.0
  9
$OLESTARTUP
290
     0
  0
ENDSEC
  0
SECTION
  2
CLASSES
  0
CLASS
  1
ACDBDICTIONARYWDFLT
  2
AcDbDictionaryWithDefault
  3
ObjectDBX Classes
 90
        0
280
     0
281
     0
  0
CLASS
  1
VISUALSTYLE
  2
AcDbVisualStyle
  3
ObjectDBX Classes
 90
     4095
280
     0
281
     0
  0
CLASS
  1
MATERIAL
  2
AcDbMaterial
  3
ObjectDBX Classes
 90
     1153
280
     0
281
     0
  0
CLASS
  1
ACDBPLACEHOLDER
  2
AcDbPlaceHolder
  3
ObjectDBX Classes
 90
        0
280
     0
281
     0
  0
CLASS
  1
LAYOUT
  2
AcDbLayout
  3
ObjectDBX Classes
 90
        0
280
     0
281
     0
  0
ENDSEC
  0
SECTION
  2
TABLES
  0
TABLE
  2
VPORT
  5
8
330
0
100
AcDbSymbolTable
 70
     1
  0
VPORT
  5
29
330
8
100
AcDbSymbolTableRecord
100
AcDbViewportTableRecord
  2
*Active
 70
     0
 10
0.0
 20
0.0
 11
1.0
 21
1.0
 12
1050.0
 22
1485.0
 13
0.0
 23
0.0
 14
10.0
 24
10.0
 15
10.0
 25
10.0
 16
0.0
 26
0.0
 36
1.0
 17
0.0
 27
0.0
 37
0.0
 40
2970.0
 41
0.7070707071
 42
50.0
 43
0.0
 44
0.0
 50
0.0
 51
0.0
 71
     0
 72
  2000
 73
     1
 74
     3
 75
     0
 76
     0
 77
     0
 78
     0
281
     0
 65
     1
110
0.0
120
0.0
130
0.0
111
1.0
121
0.0
131
0.0
112
0.0
122
1.0
132
0.0
 79
     0
146
0.0
  0
ENDTAB
  0
TABLE
  2
LTYPE
  5
5
330
0
100
AcDbSymbolTable
 70
     6
  0
LTYPE
  5
14
330
5
100
AcDbSymbolTableRecord
100
AcDbLinetypeTableRecord
  2
ByBlock
 70
     0
  3

 72
    65
 73
     0
 40
0.0
  0
LTYPE
  5
15
330
5
100
AcDbSymbolTableRecord
100
AcDbLinetypeTableRecord
  2
ByLayer
 70
     0
  3

 72
    65
 73
     0
 40
0.0
  0
LTYPE
  5
16
330
5
100
AcDbSymbolTableRecord
100
AcDbLinetypeTableRecord
  2
Continuous
 70
     0
  3
Solid line
 72
    65
 73
     0
 40
0.0
  0
LTYPE
  5
3F
330
5
100
AcDbSymbolTableRecord
100
AcDbLinetypeTableRecord
  2
HIDDEN
 70
     0
  3
Hidden __ __ __ __ __ __ __ __ __ __ __ __ __ __
 72
    65
 73
     2
 40
1.905
 49
1.27
 74
     0
 49
-0.635
 74
     0
  0
LTYPE
  5
40
330
5
100
AcDbSymbolTableRecord
100
AcDbLinetypeTableRecord
  2
PHANTOM
 70
     0
  3
Phantom ______  __  __  ______  __  __  ______
 72
    65
 73
     6
 40
12.7
 49
6.35
 74
     0
 49
-1.27
 74
     0
 49
1.27
 74
     0
 49
-1.27
 74
     0
 49
1.27
 74
     0
 49
-1.27
 74
     0
  0
LTYPE
  5
41
330
5
100
AcDbSymbolTableRecord
100
AcDbLinetypeTableRecord
  2
CENTER
 70
     0
  3
Center ____ _ ____ _ ____ _ ____ _ ____ _ ____
 72
    65
 73
     4
 40
10.16
 49
6.35
 74
     0
 49
-1.27
 74
     0
 49
1.27
 74
     0
 49
-1.27
 74
     0
  0
LTYPE
  5
42
330
5
100
AcDbSymbolTableRecord
100
AcDbLinetypeTableRecord
  2
CENTERX2
 70
     0
  3
Center (2x) ________  __  ________  __  _____
 72
    65
 73
     4
 40
20.32
 49
12.7
 74
     0
 49
-2.54
 74
     0
 49
2.54
 74
     0
 49
-2.54
 74
     0
  0
LTYPE
  5
43
330
5
100
AcDbSymbolTableRecord
100
AcDbLinetypeTableRecord
  2
DOT2
 70
     0
  3
Dot (.5x) ........................................
 72
    65
 73
     2
 40
0.635
 49
0.0
 74
     0
 49
-0.635
 74
     0
  0
ENDTAB
  0
TABLE
  2
LAYER
  5
2
330
0
100
AcDbSymbolTable
 70
     1
  0
LAYER
  5
10
330
2
100
AcDbSymbolTableRecord
100
AcDbLayerTableRecord
  2
0
 70
     0
 62
     7
  6
Continuous
370
    -3
390
F
  0
ENDTAB
  0
TABLE
  2
STYLE
  5
3
330
0
100
AcDbSymbolTable
 70
     2
  0
STYLE
  5
11
330
3
100
AcDbSymbolTableRecord
100
AcDbTextStyleTableRecord
  2
Standard
 70
     0
 40
0.0
 41
1.0
 50
0.0
 71
     0
 42
35.0
  3
txt
  4

  0
STYLE
  5
73
330
3
100
AcDbSymbolTableRecord
100
AcDbTextStyleTableRecord
  2
SLDTEXTSTYLE0
 70
     0
 40
0.0
 41
0.605
 50
0.0
 71
     0
 42
0.2
  3
TXT
  4

  0
ENDTAB
  0
TABLE
  2
VIEW
  5
6
330
0
100
AcDbSymbolTable
 70
     0
  0
ENDTAB
  0
TABLE
  2
UCS
  5
7
330
0
100
AcDbSymbolTable
 70
     0
  0
ENDTAB
  0
TABLE
  2
APPID
  5
9
330
0
100
AcDbSymbolTable
 70
     1
  0
APPID
  5
12
330
9
100
AcDbSymbolTableRecord
100
AcDbRegAppTableRecord
  2
ACAD
 70
     0
  0
ENDTAB
  0
TABLE
  2
DIMSTYLE
  5
A
330
0
100
AcDbSymbolTable
 70
     3
100
AcDbDimStyleTable
  0
DIMSTYLE
105
27
330
A
100
AcDbSymbolTableRecord
100
AcDbDimStyleTableRecord
  2
ISO-25
 70
     0
 41
2.5
 42
0.625
 43
3.75
 44
1.25
 73
     0
 74
     0
 77
     1
 78
     8
140
2.5
141
2.5
143
0.0393700787
147
0.625
171
     3
172
     1
178
     0
271
     2
272
     2
274
     3
278
    44
283
     0
284
     8
340
11
  0
DIMSTYLE
105
DB
102
{ACAD_REACTORS
330
DA
330
120
330
129
330
14F
330
157
330
15F
330
167
102
}
330
A
100
AcDbSymbolTableRecord
100
AcDbDimStyleTableRecord
  2
SLDDIMSTYLE0
 70
     0
 41
25.0
 44
0.0
 45
0.000000001
 73
     0
 74
     0
 77
     1
 78
    12
 79
     3
140
35.0
147
8.75
173
     1
178
     0
271
     2
272
     2
276
     2
284
    12
340
73
341
DC
343
DC
344
DC
  0
DIMSTYLE
105
118
102
{ACAD_REACTORS
330
117
102
}
330
A
100
AcDbSymbolTableRecord
100
AcDbDimStyleTableRecord
  2
SLDDIMSTYLE1
 70
     0
 41
25.0
 44
0.0
 45
0.000000001
 73
     0
 74
     0
 77
     1
 78
    12
 79
     3
140
35.0
147
8.75
173
     1
178
     0
271
     0
272
     2
276
     2
284
    12
340
73
341
DC
343
DC
344
DC
  0
ENDTAB
  0
TABLE
  2
BLOCK_RECORD
  5
1
330
0
100
AcDbSymbolTable
 70
    12
  0
BLOCK_RECORD
  5
1F
330
1
100
AcDbSymbolTableRecord
100
AcDbBlockTableRecord
  2
*Model_Space
340
22
  0
BLOCK_RECORD
  5
1B
330
1
100
AcDbSymbolTableRecord
100
AcDbBlockTableRecord
  2
*Paper_Space
340
1E
  0
BLOCK_RECORD
  5
23
330
1
100
AcDbSymbolTableRecord
100
AcDbBlockTableRecord
  2
*Paper_Space0
340
26
  0
BLOCK_RECORD
  5
77
330
1
100
AcDbSymbolTableRecord
100
AcDbBlockTableRecord
  2
SW_NOTE_0
340
0
102
{BLKREFS
331
7C
102
}
  0
BLOCK_RECORD
  5
8B
330
1
100
AcDbSymbolTableRecord
100
AcDbBlockTableRecord
  2
SW_NOTE_1
340
0
102
{BLKREFS
331
94
102
}
  0
BLOCK_RECORD
  5
DC
330
1
100
AcDbSymbolTableRecord
100
AcDbBlockTableRecord
  2
_NONE
340
0
  0
BLOCK_RECORD
  5
DF
330
1
100
AcDbSymbolTableRecord
100
AcDbBlockTableRecord
  2
_D
340
0
  0
BLOCK_RECORD
  5
119
330
1
100
AcDbSymbolTableRecord
100
AcDbBlockTableRecord
  2
_D_1
340
0
  0
BLOCK_RECORD
  5
121
330
1
100
AcDbSymbolTableRecord
100
AcDbBlockTableRecord
  2
_D_2
340
0
  0
BLOCK_RECORD
  5
12A
330
1
100
AcDbSymbolTableRecord
100
AcDbBlockTableRecord
  2
_D_3
340
0
  0
BLOCK_RECORD
  5
150
330
1
100
AcDbSymbolTableRecord
100
AcDbBlockTableRecord
  2
_D_4
340
0
  0
BLOCK_RECORD
  5
158
330
1
100
AcDbSymbolTableRecord
100
AcDbBlockTableRecord
  2
_D_5
340
0
  0
BLOCK_RECORD
  5
160
330
1
100
AcDbSymbolTableRecord
100
AcDbBlockTableRecord
  2
_D_6
340
0
  0
BLOCK_RECORD
  5
168
330
1
100
AcDbSymbolTableRecord
100
AcDbBlockTableRecord
  2
_D_7
340
0
  0
ENDTAB
  0
ENDSEC
  0
SECTION
  2
BLOCKS
  0
BLOCK
  5
20
330
1F
100
AcDbEntity
  8
0
100
AcDbBlockBegin
  2
*Model_Space
 70
     0
 10
0.0
 20
0.0
 30
0.0
  3
*Model_Space
  1

  0
ENDBLK
  5
21
330
1F
100
AcDbEntity
  8
0
100
AcDbBlockEnd
  0
BLOCK
  5
1C
330
1B
100
AcDbEntity
 67
     1
  8
0
100
AcDbBlockBegin
  2
*Paper_Space
 70
     0
 10
0.0
 20
0.0
 30
0.0
  3
*Paper_Space
  1

  0
ENDBLK
  5
1D
330
1B
100
AcDbEntity
 67
     1
  8
0
100
AcDbBlockEnd
  0
BLOCK
  5
24
330
23
100
AcDbEntity
  8
0
100
AcDbBlockBegin
  2
*Paper_Space0
 70
     0
 10
0.0
 20
0.0
 30
0.0
  3
*Paper_Space0
  1

  0
ENDBLK
  5
25
330
23
100
AcDbEntity
  8
0
100
AcDbBlockEnd
  0
BLOCK
  5
78
330
77
100
AcDbEntity
  8
0
100
AcDbBlockBegin
  2
SW_NOTE_0
 70
     0
 10
0.0
 20
0.0
 30
0.0
  3
SW_NOTE_0
  1

  0
MTEXT
  5
7A
330
77
100
AcDbEntity
  8
0
  6
Continuous
 62
     0
370
     0
100
AcDbMText
 10
0.0
 20
23.2032193159
 30
0.0
 40
18.0
 41
0.0
 71
     1
 72
     1
  1
Schutzvermerk nach
  7
SLDTEXTSTYLE0
 73
     1
 44
1.0
  0
MTEXT
  5
7B
330
77
100
AcDbEntity
  8
0
  6
Continuous
 62
     0
370
     0
100
AcDbMText
 10
20.25
 20
-4.7967796857
 30
0.0
 40
18.0
 41
0.0
 71
     1
 72
     1
  1
DIN 34 beachten.
  7
SLDTEXTSTYLE0
 73
     1
 44
1.0
  0
ENDBLK
  5
79
330
77
100
AcDbEntity
  8
0
100
AcDbBlockEnd
  0
BLOCK
  5
8C
330
8B
100
AcDbEntity
  8
0
100
AcDbBlockBegin
  2
SW_NOTE_1
 70
     0
 10
0.0
 20
0.0
 30
0.0
  3
SW_NOTE_1
  1

  0
MTEXT
  5
8E
330
8B
100
AcDbEntity
  8
0
  6
Continuous
 62
     0
370
     0
100
AcDbMText
 10
0.0
 20
19.3360160966
 30
0.0
 40
15.0
 41
0.0
 71
     1
 72
     1
  1
Alape GmbH
  7
SLDTEXTSTYLE0
 73
     1
 44
1.0
  0
MTEXT
  5
8F
330
8B
100
AcDbEntity
  8
0
  6
Continuous
 62
     0
370
     0
100
AcDbMText
 10
0.0
 20
-2.6639837842
 30
0.0
 40
15.0
 41
0.0
 71
     1
 72
     1
  1
Am Gräbicht 1 - 9
  7
SLDTEXTSTYLE0
 73
     1
 44
1.0
  0
MTEXT
  5
90
330
8B
100
AcDbEntity
  8
0
  6
Continuous
 62
     0
370
     0
100
AcDbMText
 10
0.0
 20
-24.663983665
 30
0.0
 40
15.0
 41
0.0
 71
     1
 72
     1
  1
D-38644    Goslar
  7
SLDTEXTSTYLE0
 73
     1
 44
1.0
  0
MTEXT
  5
91
330
8B
100
AcDbEntity
  8
0
  6
Continuous
 62
     0
370
     0
100
AcDbMText
 10
0.0
 20
-46.6639835458
 30
0.0
 40
15.0
 41
0.0
 71
     1
 72
     1
  1
Tel.: 05321-558 0
  7
SLDTEXTSTYLE0
 73
     1
 44
1.0
  0
MTEXT
  5
92
330
8B
100
AcDbEntity
  8
0
  6
Continuous
 62
     0
370
     0
100
AcDbMText
 10
0.0
 20
-68.6639834266
 30
0.0
 40
15.0
 41
0.0
 71
     1
 72
     1
  1
info@alape.com
  7
SLDTEXTSTYLE0
 73
     1
 44
1.0
  0
MTEXT
  5
93
330
8B
100
AcDbEntity
  8
0
  6
Continuous
 62
     0
370
     0
100
AcDbMText
 10
0.0
 20
-90.6639833074
 30
0.0
 40
15.0
 41
0.0
 71
     1
 72
     1
  1
www.alape.com
  7
SLDTEXTSTYLE0
 73
     1
 44
1.0
  0
ENDBLK
  5
8D
330
8B
100
AcDbEntity
  8
0
100
AcDbBlockEnd
  0
BLOCK
  5
DD
330
DC
100
AcDbEntity
  8
0
100
AcDbBlockBegin
  2
_NONE
 70
     0
 10
0.0
 20
0.0
 30
0.0
  3
_NONE
  1

  0
ENDBLK
  5
DE
330
DC
100
AcDbEntity
  8
0
100
AcDbBlockEnd
  0
BLOCK
  5
E0
330
DF
100
AcDbEntity
  8
0
100
AcDbBlockBegin
  2
_D
 70
     0
 10
0.0
 20
0.0
 30
0.0
  3
_D
  1

  0
LINE
  5
E2
330
DF
100
AcDbEntity
  8
0
  6
Continuous
 62
     7
370
     0
100
AcDbLine
 10
705.9676459499
 20
2388.8406604048
 30
0.0
 11
705.9676459499
 21
2189.6654009315
 31
0.0
  0
LINE
  5
E3
330
DF
100
AcDbEntity
  8
0
  6
Continuous
 62
     7
370
     0
100
AcDbLine
 10
445.9676459499
 20
2454.8406604048
 30
0.0
 11
445.9676459499
 21
2189.6654009315
 31
0.0
  0
LINE
  5
E4
330
DF
100
AcDbEntity
  8
0
  6
Continuous
 62
     7
370
     0
100
AcDbLine
 10
705.9676459499
 20
2199.6654009315
 30
0.0
 11
445.9676459499
 21
2199.6654009315
 31
0.0
  0
MTEXT
  5
E5
330
DF
100
AcDbEntity
  8
0
  6
Continuous
 62
     7
370
     0
100
AcDbMText
 10
529.932920567
 20
2244.7827729877
 30
5.8911391075
 40
35.0
 41
0.0
 71
     1
 72
     1
  1
260
  7
SLDTEXTSTYLE0
 73
     1
 44
1.0
  0
ENDBLK
  5
E1
330
DF
100
AcDbEntity
  8
0
100
AcDbBlockEnd
  0
BLOCK
  5
11A
330
119
100
AcDbEntity
  8
0
100
AcDbBlockBegin
  2
_D_1
 70
     0
 10
0.0
 20
0.0
 30
0.0
  3
_D_1
  1

  0
LINE
  5
11C
330
119
100
AcDbEntity
  8
0
  6
Continuous
 62
     7
370
     0
100
AcDbLine
 10
1598.0681786365
 20
2382.7506604048
 30
0.0
 11
1941.5681786365
 21
2382.7506604048
 31
0.0
  0
LINE
  5
11D
330
119
100
AcDbEntity
  8
0
  6
Continuous
 62
     7
370
     0
100
AcDbLine
 10
1756.5681786365
 20
2493.8406604048
 30
0.0
 11
1941.5681786365
 21
2493.8406604048
 31
0.0
  0
LINE
  5
11E
330
119
100
AcDbEntity
  8
0
  6
Continuous
 62
     7
370
     0
100
AcDbLine
 10
1931.5681786365
 20
2382.7506604048
 30
0.0
 11
1931.5681786365
 21
2493.8406604048
 31
0.0
  0
MTEXT
  5
11F
330
119
100
AcDbEntity
  8
0
  6
Continuous
 62
     7
370
     0
100
AcDbMText
 10
1886.4508065804
 20
2392.2609350219
 30
0.1
 40
35.0
 41
0.0
 71
     1
 72
     1
  1
111
  7
SLDTEXTSTYLE0
 11
6.123233995736766E-17
 21
1.0
 31
0.0
 73
     1
 44
1.0
  0
ENDBLK
  5
11B
330
119
100
AcDbEntity
  8
0
100
AcDbBlockEnd
  0
BLOCK
  5
122
330
121
100
AcDbEntity
  8
0
100
AcDbBlockBegin
  2
_D_2
 70
     0
 10
0.0
 20
0.0
 30
0.0
  3
_D_2
  1

  0
LINE
  5
124
330
121
100
AcDbEntity
  8
0
  6
Continuous
 62
     7
370
     0
100
AcDbLine
 10
1771.5681786365
 20
2462.8406604048
 30
0.0
 11
1876.5681786365
 21
2462.8406604048
 31
0.0
  0
LINE
  5
125
330
121
100
AcDbEntity
  8
0
  6
Continuous
 62
     7
370
     0
100
AcDbLine
 10
1756.5681786365
 20
2493.8406604048
 30
0.0
 11
1876.5681786365
 21
2493.8406604048
 31
0.0
  0
LINE
  5
126
330
121
100
AcDbEntity
  8
0
  6
Continuous
 62
     7
370
     0
100
AcDbLine
 10
1866.5681786365
 20
2462.8406604048
 30
0.0
 11
1866.5681786365
 21
2400.1838645323
 31
0.0
  0
LINE
  5
127
330
121
100
AcDbEntity
  8
0
  6
Continuous
 62
     7
370
     0
100
AcDbLine
 10
1866.5681786365
 20
2462.8406604048
 30
0.0
 11
1866.5681786365
 21
2493.8406604048
 31
0.0
  0
MTEXT
  5
128
330
121
100
AcDbEntity
  8
0
  6
Continuous
 62
     7
370
     0
100
AcDbMText
 10
1821.4508065804
 20
2400.1838645323
 30
0.1
 40
35.0
 41
0.0
 71
     1
 72
     1
  1
31
  7
SLDTEXTSTYLE0
 11
6.123233995736766E-17
 21
1.0
 31
0.0
 73
     1
 44
1.0
  0
ENDBLK
  5
123
330
121
100
AcDbEntity
  8
0
100
AcDbBlockEnd
  0
BLOCK
  5
12B
330
12A
100
AcDbEntity
  8
0
100
AcDbBlockBegin
  2
_D_3
 70
     0
 10
0.0
 20
0.0
 30
0.0
  3
_D_3
  1

  0
LINE
  5
12D
330
12A
100
AcDbEntity
  8
0
  6
Continuous
 62
     7
370
     0
100
AcDbLine
 10
1569.0681786365
 20
2381.3390068167
 30
0.0
 11
1569.0681786365
 21
2189.6654009315
 31
0.0
  0
LINE
  5
12E
330
12A
100
AcDbEntity
  8
0
  6
Continuous
 62
     7
370
     0
100
AcDbLine
 10
1381.5681786365
 20
2393.8406604048
 30
0.0
 11
1381.5681786365
 21
2189.6654009315
 31
0.0
  0
LINE
  5
12F
330
12A
100
AcDbEntity
  8
0
  6
Continuous
 62
     7
370
     0
100
AcDbLine
 10
1569.0681786365
 20
2199.6654009315
 30
0.0
 11
1381.5681786365
 21
2199.6654009315
 31
0.0
  0
MTEXT
  5
130
330
12A
100
AcDbEntity
  8
0
  6
Continuous
 62
     7
370
     0
100
AcDbMText
 10
1412.8285898916
 20
2244.7827729877
 30
0.1
 40
35.0
 41
0.0
 71
     1
 72
     1
  1
187,5
  7
SLDTEXTSTYLE0
 73
     1
 44
1.0
  0
ENDBLK
  5
12C
330
12A
100
AcDbEntity
  8
0
100
AcDbBlockEnd
  0
BLOCK
  5
151
330
150
100
AcDbEntity
  8
0
100
AcDbBlockBegin
  2
_D_4
 70
     0
 10
0.0
 20
0.0
 30
0.0
  3
_D_4
  1

  0
LINE
  5
153
330
150
100
AcDbEntity
  8
0
  6
Continuous
 62
     7
370
     0
100
AcDbLine
 10
455.9676459499
 20
1516.8426302147
 30
0.0
 11
455.9676459499
 21
1396.8426302147
 31
0.0
  0
LINE
  5
154
330
150
100
AcDbEntity
  8
0
  6
Continuous
 62
     7
370
     0
100
AcDbLine
 10
955.9676459499
 20
1516.8426302147
 30
0.0
 11
955.9676459499
 21
1396.8426302147
 31
0.0
  0
LINE
  5
155
330
150
100
AcDbEntity
  8
0
  6
Continuous
 62
     7
370
     0
100
AcDbLine
 10
455.9676459499
 20
1406.8426302147
 30
0.0
 11
955.9676459499
 21
1406.8426302147
 31
0.0
  0
MTEXT
  5
156
330
150
100
AcDbEntity
  8
0
  6
Continuous
 62
     7
370
     0
100
AcDbMText
 10
659.932920567
 20
1451.9600022709
 30
-22.2126095119
 40
35.0
 41
0.0
 71
     1
 72
     1
  1
500
  7
SLDTEXTSTYLE0
 73
     1
 44
1.0
  0
ENDBLK
  5
152
330
150
100
AcDbEntity
  8
0
100
AcDbBlockEnd
  0
BLOCK
  5
159
330
158
100
AcDbEntity
  8
0
100
AcDbBlockBegin
  2
_D_5
 70
     0
 10
0.0
 20
0.0
 30
0.0
  3
_D_5
  1

  0
LINE
  5
15B
330
158
100
AcDbEntity
  8
0
  6
Continuous
 62
     7
370
     0
100
AcDbLine
 10
965.9676459499
 20
1516.8426302147
 30
0.0
 11
965.9676459499
 21
1336.8426302147
 31
0.0
  0
LINE
  5
15C
330
158
100
AcDbEntity
  8
0
  6
Continuous
 62
     7
370
     0
100
AcDbLine
 10
445.9676459499
 20
1516.8426302147
 30
0.0
 11
445.9676459499
 21
1336.8426302147
 31
0.0
  0
LINE
  5
15D
330
158
100
AcDbEntity
  8
0
  6
Continuous
 62
     7
370
     0
100
AcDbLine
 10
965.9676459499
 20
1346.8426302147
 30
0.0
 11
445.9676459499
 21
1346.8426302147
 31
0.0
  0
MTEXT
  5
15E
330
158
100
AcDbEntity
  8
0
  6
Continuous
 62
     7
370
     0
100
AcDbMText
 10
659.932920567
 20
1391.9600022709
 30
-22.2126095119
 40
35.0
 41
0.0
 71
     1
 72
     1
  1
520
  7
SLDTEXTSTYLE0
 73
     1
 44
1.0
  0
ENDBLK
  5
15A
330
158
100
AcDbEntity
  8
0
100
AcDbBlockEnd
  0
BLOCK
  5
161
330
160
100
AcDbEntity
  8
0
100
AcDbBlockBegin
  2
_D_6
 70
     0
 10
0.0
 20
0.0
 30
0.0
  3
_D_6
  1

  0
LINE
  5
163
330
160
100
AcDbEntity
  8
0
  6
Continuous
 62
     7
370
     0
100
AcDbLine
 10
955.9676459499
 20
1516.8426302147
 30
0.0
 11
1075.9676459499
 21
1516.8426302147
 31
0.0
  0
LINE
  5
164
330
160
100
AcDbEntity
  8
0
  6
Continuous
 62
     7
370
     0
100
AcDbLine
 10
955.9676459499
 20
1891.8426302147
 30
0.0
 11
1075.9676459499
 21
1891.8426302147
 31
0.0
  0
LINE
  5
165
330
160
100
AcDbEntity
  8
0
  6
Continuous
 62
     7
370
     0
100
AcDbLine
 10
1065.9676459499
 20
1516.8426302147
 30
0.0
 11
1065.9676459499
 21
1891.8426302147
 31
0.0
  0
MTEXT
  5
166
330
160
100
AcDbEntity
  8
0
  6
Continuous
 62
     7
370
     0
100
AcDbMText
 10
1020.8502738938
 20
1658.3079048318
 30
-22.2126095119
 40
35.0
 41
0.0
 71
     1
 72
     1
  1
375
  7
SLDTEXTSTYLE0
 11
7.273661547324616E-16
 21
1.0
 31
0.0
 73
     1
 44
1.0
  0
ENDBLK
  5
162
330
160
100
AcDbEntity
  8
0
100
AcDbBlockEnd
  0
BLOCK
  5
169
330
168
100
AcDbEntity
  8
0
100
AcDbBlockBegin
  2
_D_7
 70
     0
 10
0.0
 20
0.0
 30
0.0
  3
_D_7
  1

  0
LINE
  5
16B
330
168
100
AcDbEntity
  8
0
  6
Continuous
 62
     7
370
     0
100
AcDbLine
 10
955.9676459499
 20
1901.8426302147
 30
0.0
 11
1135.9676459499
 21
1901.8426302147
 31
0.0
  0
LINE
  5
16C
330
168
100
AcDbEntity
  8
0
  6
Continuous
 62
     7
370
     0
100
AcDbLine
 10
955.9676459499
 20
1506.8426302147
 30
0.0
 11
1135.9676459499
 21
1506.8426302147
 31
0.0
  0
LINE
  5
16D
330
168
100
AcDbEntity
  8
0
  6
Continuous
 62
     7
370
     0
100
AcDbLine
 10
1125.9676459499
 20
1901.8426302147
 30
0.0
 11
1125.9676459499
 21
1506.8426302147
 31
0.0
  0
MTEXT
  5
16E
330
168
100
AcDbEntity
  8
0
  6
Continuous
 62
     7
370
     0
100
AcDbMText
 10
1080.8502738938
 20
1658.3079048318
 30
-22.2126095119
 40
35.0
 41
0.0
 71
     1
 72
     1
  1
395
  7
SLDTEXTSTYLE0
 11
-7.044195017643634E-15
 21
1.0
 31
0.0
 73
     1
 44
1.0
  0
ENDBLK
  5
16A
330
168
100
AcDbEntity
  8
0
100
AcDbBlockEnd
  0
ENDSEC
  0
SECTION
  2
ENTITIES
  0
LINE
  5
44
330
1F
100
AcDbEntity
  8
0
  6
Continuous
 62
     7
370
    30
100
AcDbLine
 10
178.0
 20
611.9648888889
 30
0.0
 11
178.0
 21
59.4648888889
 31
0.0
  0
LINE
  5
45
330
1F
100
AcDbEntity
  8
0
  6
Continuous
 62
     7
370
     0
100
AcDbLine
 10
256.0
 20
441.9648888889
 30
0.0
 11
256.0
 21
59.4648888889
 31
0.0
  0
LINE
  5
46
330
1F
100
AcDbEntity
  8
0
  6
Continuous
 62
     7
370
     0
100
AcDbLine
 10
506.0
 20
441.9648888889
 30
0.0
 11
506.0
 21
59.4648888889
 31
0.0
  0
LINE
  5
47
330
1F
100
AcDbEntity
  8
0
  6
Continuous
 62
     7
370
     0
100
AcDbLine
 10
178.0
 20
97.3527580974
 30
0.0
 11
724.0
 21
97.3527580974
 31
0.0
  0
LINE
  5
48
330
1F
100
AcDbEntity
  8
0
  6
Continuous
 62
     7
370
    30
100
AcDbLine
 10
724.0
 20
229.4648888889
 30
0.0
 11
2050.0
 21
229.4648888889
 31
0.0
  0
LINE
  5
49
330
1F
100
AcDbEntity
  8
0
  6
Continuous
 62
     7
370
    30
100
AcDbLine
 10
2050.0
 20
441.9648888889
 30
0.0
 11
178.0
 21
441.9648888889
 31
0.0
  0
LINE
  5
4A
330
1F
100
AcDbEntity
  8
0
  6
Continuous
 62
     7
370
    30
100
AcDbLine
 10
178.0
 20
611.9648888889
 30
0.0
 11
2050.0
 21
611.9648888889
 31
0.0
  0
LINE
  5
4B
330
1F
100
AcDbEntity
  8
0
  6
Continuous
 62
     7
370
    30
100
AcDbLine
 10
1166.0
 20
97.3527580974
 30
0.0
 11
2050.0
 21
97.3527580974
 31
0.0
  0
LINE
  5
4C
330
1F
100
AcDbEntity
  8
0
  6
Continuous
 62
     7
370
    30
100
AcDbLine
 10
724.0
 20
59.4648888889
 30
0.0
 11
724.0
 21
611.9648888889
 31
0.0
  0
LINE
  5
4D
330
1F
100
AcDbEntity
  8
0
  6
Continuous
 62
     7
370
    30
100
AcDbLine
 10
1166.0
 20
611.9648888889
 30
0.0
 11
1166.0
 21
59.4648888889
 31
0.0
  0
LINE
  5
4E
330
1F
100
AcDbEntity
  8
0
  6
Continuous
 62
     7
370
     0
100
AcDbLine
 10
606.0
 20
441.9648888889
 30
0.0
 11
606.0
 21
59.4648888889
 31
0.0
  0
LINE
  5
4F
330
1F
100
AcDbEntity
  8
0
  6
Continuous
 62
     7
370
     0
100
AcDbLine
 10
828.0
 20
271.9648888889
 30
0.0
 11
828.0
 21
441.9648888889
 31
0.0
  0
LINE
  5
50
330
1F
100
AcDbEntity
  8
0
  6
Continuous
 62
     7
370
     0
100
AcDbLine
 10
724.0
 20
144.4648888889
 30
0.0
 11
178.0
 21
144.4648888889
 31
0.0
  0
LINE
  5
51
330
1F
100
AcDbEntity
  8
0
  6
Continuous
 62
     7
370
     0
100
AcDbLine
 10
984.0
 20
611.9648888889
 30
0.0
 11
984.0
 21
229.4648888889
 31
0.0
  0
LINE
  5
52
330
1F
100
AcDbEntity
  8
0
  6
Continuous
 62
     7
370
     0
100
AcDbLine
 10
1608.0
 20
59.4648888889
 30
0.0
 11
1608.0
 21
97.3527580974
 31
0.0
  0
LINE
  5
53
330
1F
100
AcDbEntity
  8
0
  6
Continuous
 62
     7
370
     0
100
AcDbLine
 10
1686.0
 20
548.2148888889
 30
0.0
 11
1686.0
 21
611.9648888889
 31
0.0
  0
LINE
  5
54
330
1F
100
AcDbEntity
  8
0
  6
Continuous
 62
     7
370
     0
100
AcDbLine
 10
724.0
 20
526.9648888889
 30
0.0
 11
1166.0
 21
526.9648888889
 31
0.0
  0
LINE
  5
55
330
1F
100
AcDbEntity
  8
0
  6
Continuous
 62
     7
370
    30
100
AcDbLine
 10
1920.0
 20
97.3527580974
 30
0.0
 11
1920.0
 21
229.4648888889
 31
0.0
  0
LINE
  5
56
330
1F
100
AcDbEntity
  8
0
  6
Continuous
 62
     7
370
     0
100
AcDbLine
 10
2050.0
 20
548.2148888889
 30
0.0
 11
1166.0
 21
548.2148888889
 31
0.0
  0
LINE
  5
57
330
1F
100
AcDbEntity
  8
0
  6
Continuous
 62
     7
370
     0
100
AcDbLine
 10
128.0
 20
2961.9648888889
 30
0.0
 11
128.0
 21
611.9648888889
 31
0.0
  0
LINE
  5
58
330
1F
100
AcDbEntity
  8
0
  6
Continuous
 62
     7
370
    30
100
AcDbLine
 10
178.0
 20
2911.9648888889
 30
0.0
 11
178.0
 21
611.9648888889
 31
0.0
  0
LINE
  5
59
330
1F
100
AcDbEntity
  8
0
  6
Continuous
 62
     7
370
    30
100
AcDbLine
 10
2050.0
 20
59.4648888889
 30
0.0
 11
2050.0
 21
611.9648888889
 31
0.0
  0
LINE
  5
5A
330
1F
100
AcDbEntity
  8
0
  6
Continuous
 62
     7
370
    30
100
AcDbLine
 10
178.0
 20
59.4648888889
 30
0.0
 11
2050.0
 21
59.4648888889
 31
0.0
  0
LINE
  5
5B
330
1F
100
AcDbEntity
  8
0
  6
Continuous
 62
     7
370
     0
100
AcDbLine
 10
724.0
 20
186.9648888889
 30
0.0
 11
178.0
 21
186.9648888889
 31
0.0
  0
LINE
  5
5C
330
1F
100
AcDbEntity
  8
0
  6
Continuous
 62
     7
370
     0
100
AcDbLine
 10
724.0
 20
229.4648888889
 30
0.0
 11
178.0
 21
229.4648888889
 31
0.0
  0
LINE
  5
5D
330
1F
100
AcDbEntity
  8
0
  6
Continuous
 62
     7
370
     0
100
AcDbLine
 10
1166.0
 20
271.9648888889
 30
0.0
 11
178.0
 21
271.9648888889
 31
0.0
  0
LINE
  5
5E
330
1F
100
AcDbEntity
  8
0
  6
Continuous
 62
     7
370
     0
100
AcDbLine
 10
1166.0
 20
314.4648888889
 30
0.0
 11
178.0
 21
314.4648888889
 31
0.0
  0
LINE
  5
5F
330
1F
100
AcDbEntity
  8
0
  6
Continuous
 62
     7
370
     0
100
AcDbLine
 10
1166.0
 20
356.9648888889
 30
0.0
 11
178.0
 21
356.9648888889
 31
0.0
  0
LINE
  5
60
330
1F
100
AcDbEntity
  8
0
  6
Continuous
 62
     7
370
     0
100
AcDbLine
 10
1166.0
 20
399.4648888889
 30
0.0
 11
178.0
 21
399.4648888889
 31
0.0
  0
LINE
  5
61
330
1F
100
AcDbEntity
  8
0
  6
Continuous
 62
     7
370
     0
100
AcDbLine
 10
2050.0
 20
144.4648888889
 30
0.0
 11
1920.0
 21
144.4648888889
 31
0.0
  0
LINE
  5
62
330
1F
100
AcDbEntity
  8
0
  6
Continuous
 62
     7
370
     0
100
AcDbLine
 10
178.0
 20
1071.9648888889
 30
0.0
 11
128.0
 21
1071.9648888889
 31
0.0
  0
LINE
  5
63
330
1F
100
AcDbEntity
  8
0
  6
Continuous
 62
     7
370
     0
100
AcDbLine
 10
128.0
 20
1531.9648888889
 30
0.0
 11
178.0
 21
1531.9648888889
 31
0.0
  0
LINE
  5
64
330
1F
100
AcDbEntity
  8
0
  6
Continuous
 62
     7
370
     0
100
AcDbLine
 10
128.0
 20
1991.9648888889
 30
0.0
 11
178.0
 21
1991.9648888889
 31
0.0
  0
LINE
  5
65
330
1F
100
AcDbEntity
  8
0
  6
Continuous
 62
     7
370
     0
100
AcDbLine
 10
128.0
 20
2451.9648888889
 30
0.0
 11
178.0
 21
2451.9648888889
 31
0.0
  0
LINE
  5
66
330
1F
100
AcDbEntity
  8
0
  6
Continuous
 62
     7
370
     0
100
AcDbLine
 10
645.5
 20
2961.9648888889
 30
0.0
 11
645.5
 21
2911.9648888889
 31
0.0
  0
LINE
  5
67
330
1F
100
AcDbEntity
  8
0
  6
Continuous
 62
     7
370
     0
100
AcDbLine
 10
1113.0
 20
2961.9648888889
 30
0.0
 11
1113.0
 21
2911.9648888889
 31
0.0
  0
LINE
  5
68
330
1F
100
AcDbEntity
  8
0
  6
Continuous
 62
     7
370
     0
100
AcDbLine
 10
128.0
 20
2961.9648888889
 30
0.0
 11
2050.0
 21
2961.9648888889
 31
0.0
  0
LINE
  5
69
330
1F
100
AcDbEntity
  8
0
  6
Continuous
 62
     7
370
    30
100
AcDbLine
 10
2050.0
 20
2911.9648888889
 30
0.0
 11
2050.0
 21
611.9648888889
 31
0.0
  0
LINE
  5
6A
330
1F
100
AcDbEntity
  8
0
  6
Continuous
 62
     7
370
    30
100
AcDbLine
 10
178.0
 20
2911.9648888889
 30
0.0
 11
2050.0
 21
2911.9648888889
 31
0.0
  0
LINE
  5
6B
330
1F
100
AcDbEntity
  8
0
  6
Continuous
 62
     7
370
     0
100
AcDbLine
 10
1580.5
 20
2961.9648888889
 30
0.0
 11
1580.5
 21
2911.9648888889
 31
0.0
  0
LINE
  5
6C
330
1F
100
AcDbEntity
  8
0
  6
Continuous
 62
     7
370
     0
100
AcDbLine
 10
2050.0
 20
2961.9648888889
 30
0.0
 11
2050.0
 21
2911.9648888889
 31
0.0
  0
LINE
  5
6D
330
1F
100
AcDbEntity
  8
0
  6
Continuous
 62
     7
370
     0
100
AcDbLine
 10
128.0
 20
611.9648888889
 30
0.0
 11
178.0
 21
611.9648888889
 31
0.0
  0
LINE
  5
6E
330
1F
100
AcDbEntity
  8
0
  6
Continuous
 62
     7
370
     0
100
AcDbLine
 10
2100.0
 20
2961.9648888889
 30
0.0
 11
2100.0
 21
9.4648888889
 31
0.0
  0
LINE
  5
6F
330
1F
100
AcDbEntity
  8
0
  6
Continuous
 62
     7
370
     0
100
AcDbLine
 10
2100.0
 20
9.4648888889
 30
0.0
 11
3.0
 21
9.4648888889
 31
0.0
  0
LINE
  5
70
330
1F
100
AcDbEntity
  8
0
  6
Continuous
 62
     7
370
     0
100
AcDbLine
 10
3.0
 20
9.4648888889
 30
0.0
 11
3.0
 21
2961.9648888889
 31
0.0
  0
LINE
  5
71
330
1F
100
AcDbEntity
  8
0
  6
Continuous
 62
     7
370
     0
100
AcDbLine
 10
3.0
 20
2961.9648888889
 30
0.0
 11
2100.0
 21
2961.9648888889
 31
0.0
  0
ARC
  5
72
330
1F
100
AcDbEntity
  8
0
  6
Continuous
 62
     7
370
     0
100
AcDbCircle
 10
1144.2790264777
 20
179.5558961975
 30
0.0
 40
14.21146949138165
100
AcDbArc
 50
180.0
 51
0.0
  0
MTEXT
  5
74
330
1F
100
AcDbEntity
  8
0
  6
Continuous
 62
     7
370
     0
100
AcDbMText
 10
1001.866114271
 20
507.3657725829
 30
0.0
 40
18.0
 41
0.0
 71
     1
 72
     1
  1
Werkstückkanten
  7
SLDTEXTSTYLE0
 73
     1
 44
1.0
  0
MTEXT
  5
75
330
1F
100
AcDbEntity
  8
0
  6
Continuous
 62
     7
370
     0
100
AcDbMText
 10
741.2329342285
 20
508.0953097765
 30
0.0
 40
18.0
 41
0.0
 71
     1
 72
     1
  1
Allgemeintoleranzen
  7
SLDTEXTSTYLE0
 73
     1
 44
1.0
  0
MTEXT
  5
76
330
1F
100
AcDbEntity
  8
0
  6
Continuous
 62
     7
370
     0
100
AcDbMText
 10
1009.010503761
 20
595.4984997076
 30
0.0
 40
18.0
 41
0.0
 71
     1
 72
     1
  1
Oberflächen
  7
SLDTEXTSTYLE0
 73
     1
 44
1.0
  0
INSERT
  5
7C
330
1F
100
AcDbEntity
  8
0
  6
Continuous
 62
     7
370
     0
100
AcDbBlockReference
  2
SW_NOTE_0
 10
741.4609723973
 20
572.2099196998
 30
0.0
  0
MTEXT
  5
7D
330
1F
100
AcDbEntity
  8
0
  6
Continuous
 62
     7
370
     0
100
AcDbMText
 10
834.5570552235
 20
433.2295769538
 30
0.0
 40
18.0
 41
0.0
 71
     1
 72
     1
  1
Datum
  7
SLDTEXTSTYLE0
 73
     1
 44
1.0
  0
MTEXT
  5
7E
330
1F
100
AcDbEntity
  8
0
  6
Continuous
 62
     7
370
     0
100
AcDbMText
 10
990.0482574197
 20
433.1878737719
 30
0.0
 40
18.0
 41
0.0
 71
     1
 72
     1
  1
Name
  7
SLDTEXTSTYLE0
 73
     1
 44
1.0
  0
MTEXT
  5
7F
330
1F
100
AcDbEntity
  8
0
  6
Continuous
 62
     7
370
     0
100
AcDbMText
 10
729.9942931855
 20
388.5774933557
 30
0.0
 40
18.0
 41
0.0
 71
     1
 72
     1
  1
Bearb.
  7
SLDTEXTSTYLE0
 73
     1
 44
1.0
  0
MTEXT
  5
80
330
1F
100
AcDbEntity
  8
0
  6
Continuous
 62
     7
370
     0
100
AcDbMText
 10
730.0241080765
 20
344.9741674525
 30
0.0
 40
18.0
 41
0.0
 71
     1
 72
     1
  1
Gepr.
  7
SLDTEXTSTYLE0
 73
     1
 44
1.0
  0
MTEXT
  5
81
330
1F
100
AcDbEntity
  8
0
  6
Continuous
 62
     7
370
     0
100
AcDbMText
 10
730.0241080765
 20
302.6450473666
 30
0.0
 40
18.0
 41
0.0
 71
     1
 72
     1
  1
Freigabe
  7
SLDTEXTSTYLE0
 73
     1
 44
1.0
  0
MTEXT
  5
82
330
1F
100
AcDbEntity
  8
0
  6
Continuous
 62
     7
370
     0
100
AcDbMText
 10
1173.1967557727
 20
594.7494385311
 30
0.0
 40
18.0
 41
0.0
 71
     1
 72
     1
  1
Maßstab
  7
SLDTEXTSTYLE0
 73
     1
 44
1.0
  0
MTEXT
  5
83
330
1F
100
AcDbEntity
  8
0
  6
Continuous
 62
     7
370
     0
100
AcDbMText
 10
1695.0427154453
 20
594.0500090479
 30
0.0
 40
18.0
 41
0.0
 71
     1
 72
     1
  1
Gewicht
  7
SLDTEXTSTYLE0
 73
     1
 44
1.0
  0
MTEXT
  5
84
330
1F
100
AcDbEntity
  8
0
  6
Continuous
 62
     7
370
     0
100
AcDbMText
 10
1172.3498791808
 20
532.9840223793
 30
0.0
 40
18.0
 41
0.0
 71
     1
 72
     1
  1
Werkstoff
  7
SLDTEXTSTYLE0
 73
     1
 44
1.0
  0
MTEXT
  5
85
330
1F
100
AcDbEntity
  8
0
  6
Continuous
 62
     7
370
     0
100
AcDbMText
 10
1171.7968375726
 20
433.1282583672
 30
0.0
 40
18.0
 41
0.0
 71
     1
 72
     1
  1
Benennung
  7
SLDTEXTSTYLE0
 73
     1
 44
1.0
  0
MTEXT
  5
86
330
1F
100
AcDbEntity
  8
0
  6
Continuous
 62
     7
370
     0
100
AcDbMText
 10
1173.3614733249
 20
221.37483921
 30
0.0
 40
18.0
 41
0.0
 71
     1
 72
     1
  1
Zeichnungs-Nr.
  7
SLDTEXTSTYLE0
 73
     1
 44
1.0
  0
MTEXT
  5
87
330
1F
100
AcDbEntity
  8
0
  6
Continuous
 62
     7
370
     0
100
AcDbMText
 10
1929.1803388485
 20
212.6948179662
 30
0.0
 40
18.0
 41
0.0
 71
     1
 72
     1
  1
Blatt
  7
SLDTEXTSTYLE0
 73
     1
 44
1.0
  0
MTEXT
  5
88
330
1F
100
AcDbEntity
  8
0
  6
Continuous
 62
     7
370
     0
100
AcDbMText
 10
2018.0969978698
 20
127.6982546133
 30
0.0
 40
18.0
 41
0.0
 71
     1
 72
     1
  1
Bl.
  7
SLDTEXTSTYLE0
 73
     1
 44
1.0
  0
MTEXT
  5
89
330
1F
100
AcDbEntity
  8
0
  6
Continuous
 62
     7
370
     0
100
AcDbMText
 10
1174.6668592817
 20
87.4549030772
 30
0.0
 40
18.0
 41
0.0
 71
     1
 72
     1
  1
Ers. f.:
  7
SLDTEXTSTYLE0
 73
     1
 44
1.0
  0
MTEXT
  5
8A
330
1F
100
AcDbEntity
  8
0
  6
Continuous
 62
     7
370
     0
100
AcDbMText
 10
1619.2007214728
 20
87.4435098117
 30
0.0
 40
18.0
 41
0.0
 71
     1
 72
     1
  1
Ers.d.:
  7
SLDTEXTSTYLE0
 73
     1
 44
1.0
  0
INSERT
  5
94
330
1F
100
AcDbEntity
  8
0
  6
Continuous
 62
     7
370
     0
100
AcDbBlockReference
  2
SW_NOTE_1
 10
737.2537837524
 20
187.7803307423
 30
0.0
  0
MTEXT
  5
95
330
1F
100
AcDbEntity
  8
0
  6
Continuous
 62
     7
370
     0
100
AcDbMText
 10
188.9126280003
 20
87.9469530416
 30
0.0
 40
18.0
 41
0.0
 71
     1
 72
     1
  1
Zust.
  7
SLDTEXTSTYLE0
 73
     1
 44
1.0
  0
MTEXT
  5
96
330
1F
100
AcDbEntity
  8
0
  6
Continuous
 62
     7
370
     0
100
AcDbMText
 10
278.6703693015
 20
88.0638668116
 30
0.0
 40
18.0
 41
0.0
 71
     1
 72
     1
  1
Änder.-Mittlg.Nr.
  7
SLDTEXTSTYLE0
 73
     1
 44
1.0
  0
MTEXT
  5
97
330
1F
100
AcDbEntity
  8
0
  6
Continuous
 62
     7
370
     0
100
AcDbMText
 10
513.5123929092
 20
87.7900593302
 30
0.0
 40
18.0
 41
0.0
 71
     1
 72
     1
  1
Datum
  7
SLDTEXTSTYLE0
 73
     1
 44
1.0
  0
MTEXT
  5
98
330
1F
100
AcDbEntity
  8
0
  6
Continuous
 62
     7
370
     0
100
AcDbMText
 10
630.8647509777
 20
87.7900593302
 30
0.0
 40
18.0
 41
0.0
 71
     1
 72
     1
  1
Name
  7
SLDTEXTSTYLE0
 73
     1
 44
1.0
  0
MTEXT
  5
99
330
1F
100
AcDbEntity
  8
0
  6
Continuous
 62
     7
370
     0
100
AcDbMText
 10
398.422293125
 20
2950.5148161091
 30
0.0
 40
21.1666666667
 41
0.0
 71
     1
 72
     1
  1
1
  7
SLDTEXTSTYLE0
 73
     1
 44
1.0
  0
MTEXT
  5
9A
330
1F
100
AcDbEntity
  8
0
  6
Continuous
 62
     7
370
     0
100
AcDbMText
 10
867.5407155486
 20
2949.8615389252
 30
0.0
 40
21.1666666667
 41
0.0
 71
     1
 72
     1
  1
2
  7
SLDTEXTSTYLE0
 73
     1
 44
1.0
  0
MTEXT
  5
9B
330
1F
100
AcDbEntity
  8
0
  6
Continuous
 62
     7
370
     0
100
AcDbMText
 10
1335.3829425856
 20
2948.4080725268
 30
0.0
 40
21.1666666667
 41
0.0
 71
     1
 72
     1
  1
3
  7
SLDTEXTSTYLE0
 73
     1
 44
1.0
  0
MTEXT
  5
9C
330
1F
100
AcDbEntity
  8
0
  6
Continuous
 62
     7
370
     0
100
AcDbMText
 10
1800.9058849482
 20
2949.7146268946
 30
0.0
 40
21.1666666667
 41
0.0
 71
     1
 72
     1
  1
4
  7
SLDTEXTSTYLE0
 73
     1
 44
1.0
  0
MTEXT
  5
9D
330
1F
100
AcDbEntity
  8
0
  6
Continuous
 62
     7
370
     0
100
AcDbMText
 10
145.0802845236
 20
2702.8133145842
 30
0.0
 40
21.1666666667
 41
0.0
 71
     1
 72
     1
  1
A
  7
SLDTEXTSTYLE0
 73
     1
 44
1.0
  0
MTEXT
  5
9E
330
1F
100
AcDbEntity
  8
0
  6
Continuous
 62
     7
370
     0
100
AcDbMText
 10
144.5552754657
 20
2240.6320595628
 30
0.0
 40
21.1666666667
 41
0.0
 71
     1
 72
     1
  1
B
  7
SLDTEXTSTYLE0
 73
     1
 44
1.0
  0
MTEXT
  5
9F
330
1F
100
AcDbEntity
  8
0
  6
Continuous
 62
     7
370
     0
100
AcDbMText
 10
143.1025836798
 20
1783.958589489
 30
0.0
 40
21.1666666667
 41
0.0
 71
     1
 72
     1
  1
C
  7
SLDTEXTSTYLE0
 73
     1
 44
1.0
  0
MTEXT
  5
A0
330
1F
100
AcDbEntity
  8
0
  6
Continuous
 62
     7
370
     0
100
AcDbMText
 10
144.5389977141
 20
1321.7221350506
 30
0.0
 40
21.1666666667
 41
0.0
 71
     1
 72
     1
  1
D
  7
SLDTEXTSTYLE0
 73
     1
 44
1.0
  0
MTEXT
  5
A1
330
1F
100
AcDbEntity
  8
0
  6
Continuous
 62
     7
370
     0
100
AcDbMText
 10
143.8110602807
 20
864.6161854606
 30
0.0
 40
21.1666666667
 41
0.0
 71
     1
 72
     1
  1
E
  7
SLDTEXTSTYLE0
 73
     1
 44
1.0
  0
MTEXT
  5
A2
330
1F
100
AcDbEntity
  8
0
  6
Continuous
 62
     7
370
     0
100
AcDbMText
 10
835.2552951786
 20
395.7395339105
 30
0.0
 40
25.0
 41
0.0
 71
     1
 72
     1
  1
08.12.2014
  7
SLDTEXTSTYLE0
 73
     1
 44
1.0
  0
MTEXT
  5
A3
330
1F
100
AcDbEntity
  8
0
  6
Continuous
 62
     7
370
     0
100
AcDbMText
 10
990.4549606022
 20
395.2015013674
 30
0.0
 40
25.0
 41
0.0
 71
     1
 72
     1
  1
Skott
  7
SLDTEXTSTYLE0
 73
     1
 44
1.0
  0
MTEXT
  5
A4
330
1F
100
AcDbEntity
  8
0
  6
Continuous
 62
     7
370
     0
100
AcDbMText
 10
1301.5226104542
 20
398.1749955265
 30
0.0
 40
42.3333333333
 41
0.0
 71
     1
 72
     1
  1
FB.ME500 o.HL, o.Ü.
  7
SLDTEXTSTYLE0
 73
     1
 44
1.0
  0
MTEXT
  5
A5
330
1F
100
AcDbEntity
  8
0
  6
Continuous
 62
     7
370
     0
100
AcDbMText
 10
1301.7667543784
 20
516.9122851531
 30
0.0
 40
35.0
 41
0.0
 71
     1
 72
     1
  1
Baugruppe
  7
SLDTEXTSTYLE0
 73
     1
 44
1.0
  0
MTEXT
  5
A6
330
1F
100
AcDbEntity
  8
0
  6
Continuous
 62
     7
370
     0
100
AcDbMText
 10
1404.6612035267
 20
187.4282802931
 30
0.0
 40
50.0
 41
0.0
 71
     1
 72
     1
  1
2442503
  7
SLDTEXTSTYLE0
 73
     1
 44
1.0
  0
MTEXT
  5
A7
330
1F
100
AcDbEntity
  8
0
  6
Continuous
 62
     7
370
     0
100
AcDbMText
 10
1301.5347505117
 20
598.8729207203
 30
0.0
 40
30.0
 41
0.0
 71
     1
 72
     1
  1
1:10
  7
SLDTEXTSTYLE0
 73
     1
 44
1.0
  0
MTEXT
  5
A8
330
1F
100
AcDbEntity
  8
0
  6
Continuous
 62
     7
370
     0
100
AcDbMText
 10
1831.7270293839
 20
597.6546302789
 30
0.0
 40
30.0
 41
0.0
 71
     1
 72
     1
  1
8,925
  7
SLDTEXTSTYLE0
 73
     1
 44
1.0
  0
MTEXT
  5
A9
330
1F
100
AcDbEntity
  8
0
  6
Continuous
 62
     7
370
     0
100
AcDbMText
 10
1957.1087262161
 20
184.2445619008
 30
0.0
 40
25.0
 41
0.0
 71
     1
 72
     1
  1
ANSK
  7
SLDTEXTSTYLE0
 73
     1
 44
1.0
  0
MTEXT
  5
AA
330
1F
100
AcDbEntity
  8
0
  6
Continuous
 62
     7
370
     0
100
AcDbMText
 10
1967.8405829161
 20
134.4197992187
 30
0.0
 40
25.0
 41
0.0
 71
     2
 72
     1
  1
8
  7
SLDTEXTSTYLE0
 73
     1
 44
1.0
  0
MTEXT
  5
AB
330
1F
100
AcDbEntity
  8
0
  6
Continuous
 62
     7
370
     0
100
AcDbMText
 10
847.8338426104
 20
477.2187744315
 30
0.0
 40
18.0
 41
0.0
 71
     2
 72
     1
  1
DIN ISO 2768-mK
  7
SLDTEXTSTYLE0
 73
     1
 44
1.0
  0
MTEXT
  5
AC
330
1F
100
AcDbEntity
  8
0
  6
Continuous
 62
     7
370
     0
100
AcDbMText
 10
1301.5226104542
 20
338.6434728878
 30
0.0
 40
31.75
 41
0.0
 71
     1
 72
     1
  1
Flacheinbaubecken
  7
SLDTEXTSTYLE0
 73
     1
 44
1.0
  0
MTEXT
  5
AD
330
1F
100
AcDbEntity
  8
0
  6
Continuous
 62
     7
370
     0
100
AcDbMText
 10
881.6074585385
 20
183.4834639929
 30
0.0
 40
70.0
 41
0.0
 71
     1
 72
     1
  1
Alape
  7
SLDTEXTSTYLE0
 73
     1
 44
1.0
  0
MTEXT
  5
AE
330
1F
100
AcDbEntity
  8
0
  6
Continuous
 62
     7
370
     0
100
AcDbMText
 10
1301.4050030395
 20
288.6434728878
 30
0.0
 40
31.75
 41
0.0
 71
     1
 72
     1
  1
Naturstein
  7
SLDTEXTSTYLE0
 73
     1
 44
1.0
  0
LINE
  5
AF
330
1F
100
AcDbEntity
  8
0
  6
Continuous
 62
     7
370
    15
100
AcDbLine
 10
595.9676459499
 20
2391.3406604048
 30
0.0
 11
595.9676459499
 21
2392.8406604048
 31
0.0
  0
LINE
  5
B0
330
1F
100
AcDbEntity
  8
0
  6
Continuous
 62
     7
370
    15
100
AcDbLine
 10
515.9676459499
 20
2392.8406604048
 30
0.0
 11
515.9676459499
 21
2391.3406604048
 31
0.0
  0
ARC
  5
B1
330
1F
100
AcDbEntity
  8
0
  6
Continuous
 62
     7
370
    15
100
AcDbCircle
 10
665.0804581577
 20
2382.9912343509
 30
0.0
 40
8.910000000000249
100
AcDbArc
 50
52.1480946784
 51
83.3152054855
  0
ARC
  5
B2
330
1F
100
AcDbEntity
  8
0
  6
Continuous
 62
     7
370
    15
100
AcDbCircle
 10
746.8548337422
 20
2382.9912343509
 30
0.0
 40
8.910000000000307
100
AcDbArc
 50
96.6847945145
 51
127.8519053216
  0
LINE
  5
B3
330
1F
100
AcDbEntity
  8
0
  6
Continuous
 62
     7
370
    15
100
AcDbLine
 10
670.5478356868
 20
2390.0265653989
 30
0.0
 11
678.2859102401
 21
2384.0130637395
 31
0.0
  0
LINE
  5
B4
330
1F
100
AcDbEntity
  8
0
  6
Continuous
 62
     7
370
    15
100
AcDbLine
 10
733.6493816598
 20
2384.0130637395
 30
0.0
 11
741.3874562131
 21
2390.0265653989
 31
0.0
  0
ARC
  5
B5
330
1F
100
AcDbEntity
  8
0
  6
Continuous
 62
     7
370
    15
100
AcDbCircle
 10
681.9676459499
 20
2388.7506604048
 30
0.0
 40
6.0
100
AcDbArc
 50
232.1480946784
 51
270.0
  0
ARC
  5
B6
330
1F
100
AcDbEntity
  8
0
  6
Continuous
 62
     7
370
    15
100
AcDbCircle
 10
729.9676459499
 20
2388.7506604048
 30
0.0
 40
6.0
100
AcDbArc
 50
270.0
 51
307.8519053216
  0
LINE
  5
B7
330
1F
100
AcDbEntity
  8
0
  6
Continuous
 62
     7
370
    15
100
AcDbLine
 10
463.9697458472
 20
2393.8406396292
 30
0.0
 11
565.0426459499
 21
2392.8406604048
 31
0.0
  0
LINE
  5
B8
330
1F
100
AcDbEntity
  8
0
  6
Continuous
 62
     7
370
    15
100
AcDbLine
 10
595.9676459499
 20
2392.5346994847
 30
0.0
 11
666.1176459499
 21
2391.8406604048
 31
0.0
  0
LINE
  5
B9
330
1F
100
AcDbEntity
  8
0
  6
Continuous
 62
     7
370
    15
100
AcDbLine
 10
745.8176459499
 20
2391.8406604048
 30
0.0
 11
947.9655460527
 21
2393.8406396292
 31
0.0
  0
LINE
  5
BA
330
1F
100
AcDbEntity
  8
0
  6
Continuous
 62
     7
370
    15
100
AcDbLine
 10
460.9676459499
 20
2459.8406604048
 30
0.0
 11
950.9676459499
 21
2459.8406604048
 31
0.0
  0
LINE
  5
BB
330
1F
100
AcDbEntity
  8
0
  6
Continuous
 62
     7
370
    15
100
AcDbLine
 10
460.9676459499
 20
2462.8406604048
 30
0.0
 11
950.9676459499
 21
2462.8406604048
 31
0.0
  0
LINE
  5
BC
330
1F
100
AcDbEntity
  8
0
  6
Continuous
 62
     7
370
    15
100
AcDbLine
 10
445.9676459499
 20
2459.8406604048
 30
0.0
 11
445.9676459499
 21
2462.8406604048
 31
0.0
  0
LINE
  5
BD
330
1F
100
AcDbEntity
  8
0
  6
Continuous
 62
     7
370
    15
100
AcDbLine
 10
460.9676459499
 20
2459.8406604048
 30
0.0
 11
445.9676459499
 21
2459.8406604048
 31
0.0
  0
LINE
  5
BE
330
1F
100
AcDbEntity
  8
0
  6
Continuous
 62
     7
370
    15
100
AcDbLine
 10
445.9676459499
 20
2462.8406604048
 30
0.0
 11
460.9676459499
 21
2462.8406604048
 31
0.0
  0
LINE
  5
BF
330
1F
100
AcDbEntity
  8
0
  6
Continuous
 62
     7
370
    15
100
AcDbLine
 10
965.9676459499
 20
2462.8406604048
 30
0.0
 11
965.9676459499
 21
2459.8406604048
 31
0.0
  0
LINE
  5
C0
330
1F
100
AcDbEntity
  8
0
  6
Continuous
 62
     7
370
    15
100
AcDbLine
 10
965.9676459499
 20
2459.8406604048
 30
0.0
 11
950.9676459499
 21
2459.8406604048
 31
0.0
  0
LINE
  5
C1
330
1F
100
AcDbEntity
  8
0
  6
Continuous
 62
     7
370
    15
100
AcDbLine
 10
950.9676459499
 20
2462.8406604048
 30
0.0
 11
965.9676459499
 21
2462.8406604048
 31
0.0
  0
LINE
  5
C2
330
1F
100
AcDbEntity
  8
0
  6
Continuous
 62
     7
370
    15
100
AcDbLine
 10
524.9676459499
 20
2392.8406604048
 30
0.0
 11
524.9676459499
 21
2391.3406604048
 31
0.0
  0
LINE
  5
C3
330
1F
100
AcDbEntity
  8
0
  6
Continuous
 62
     7
370
    15
100
AcDbLine
 10
586.9676459499
 20
2392.8406604048
 30
0.0
 11
524.9676459499
 21
2392.8406604048
 31
0.0
  0
LINE
  5
C4
330
1F
100
AcDbEntity
  8
0
  6
Continuous
 62
     7
370
    15
100
AcDbLine
 10
586.9676459499
 20
2392.8406604048
 30
0.0
 11
586.9676459499
 21
2391.3406604048
 31
0.0
  0
LINE
  5
C5
330
1F
100
AcDbEntity
  8
0
  6
Continuous
 62
     7
370
    15
100
AcDbLine
 10
586.9676459499
 20
2391.3406604048
 30
0.0
 11
524.9676459499
 21
2391.3406604048
 31
0.0
  0
LINE
  5
C6
330
1F
100
AcDbEntity
  8
0
  6
Continuous
 62
     7
370
    15
100
AcDbLine
 10
595.9676459499
 20
2392.8406604048
 30
0.0
 11
586.9676459499
 21
2392.8406604048
 31
0.0
  0
LINE
  5
C7
330
1F
100
AcDbEntity
  8
0
  6
Continuous
 62
     7
370
    15
100
AcDbLine
 10
595.9676459499
 20
2391.3406604048
 30
0.0
 11
586.9676459499
 21
2391.3406604048
 31
0.0
  0
LINE
  5
C8
330
1F
100
AcDbEntity
  8
0
  6
Continuous
 62
     7
370
    15
100
AcDbLine
 10
524.9676459499
 20
2392.8406604048
 30
0.0
 11
515.9676459499
 21
2392.8406604048
 31
0.0
  0
LINE
  5
C9
330
1F
100
AcDbEntity
  8
0
  6
Continuous
 62
     7
370
    15
100
AcDbLine
 10
524.9676459499
 20
2391.3406604048
 30
0.0
 11
515.9676459499
 21
2391.3406604048
 31
0.0
  0
LINE
  5
CA
330
1F
100
AcDbEntity
  8
0
  6
Continuous
 62
     7
370
    15
100
AcDbLine
 10
681.9676459499
 20
2382.7506604048
 30
0.0
 11
729.9676457867
 21
2382.7506604048
 31
0.0
  0
LINE
  5
CB
330
1F
100
AcDbEntity
  8
0
  6
Continuous
 62
     7
370
    15
100
AcDbLine
 10
460.9676459499
 20
2493.8406604048
 30
0.0
 11
950.9676459499
 21
2493.8406604048
 31
0.0
  0
LINE
  5
CC
330
1F
100
AcDbEntity
  8
0
  6
Continuous
 62
     7
370
    15
100
AcDbLine
 10
950.9676459499
 20
2493.8406604048
 30
0.0
 11
954.4676459499
 21
2493.8406604048
 31
0.0
  0
ARC
  5
CD
330
1F
100
AcDbEntity
  8
0
  6
Continuous
 62
     7
370
    15
100
AcDbCircle
 10
954.4676459499
 20
2492.3406604048
 30
0.0
 40
1.5
100
AcDbArc
 50
0.0
 51
90.0
  0
LINE
  5
CE
330
1F
100
AcDbEntity
  8
0
  6
Continuous
 62
     7
370
    15
100
AcDbLine
 10
955.9676459499
 20
2492.3406604048
 30
0.0
 11
955.9676459499
 21
2462.8406604048
 31
0.0
  0
LINE
  5
CF
330
1F
100
AcDbEntity
  8
0
  6
Continuous
 62
     7
370
    15
100
AcDbLine
 10
955.9676459499
 20
2459.8406604048
 30
0.0
 11
955.9676459499
 21
2398.8406604048
 31
0.0
  0
LINE
  5
D0
330
1F
100
AcDbEntity
  8
0
  6
Continuous
 62
     7
370
    15
100
AcDbLine
 10
950.9676459499
 20
2393.8406604048
 30
0.0
 11
460.9676459499
 21
2393.8406604048
 31
0.0
  0
ARC
  5
D1
330
1F
100
AcDbEntity
  8
0
  6
Continuous
 62
     7
370
    15
100
AcDbCircle
 10
950.9676459499
 20
2398.8406604048
 30
0.0
 40
5.000000000000114
100
AcDbArc
 50
270.0
 51
0.0
  0
ARC
  5
D2
330
1F
100
AcDbEntity
  8
0
  6
Continuous
 62
     7
370
    15
100
AcDbCircle
 10
457.4676459499
 20
2492.3406604048
 30
0.0
 40
1.500000000000057
100
AcDbArc
 50
90.0
 51
180.0
  0
LINE
  5
D3
330
1F
100
AcDbEntity
  8
0
  6
Continuous
 62
     7
370
    15
100
AcDbLine
 10
457.4676459499
 20
2493.8406604048
 30
0.0
 11
460.9676459499
 21
2493.8406604048
 31
0.0
  0
LINE
  5
D4
330
1F
100
AcDbEntity
  8
0
  6
Continuous
 62
     7
370
    15
100
AcDbLine
 10
455.9676459499
 20
2492.3406604048
 30
0.0
 11
455.9676459499
 21
2462.8406604048
 31
0.0
  0
LINE
  5
D5
330
1F
100
AcDbEntity
  8
0
  6
Continuous
 62
     7
370
    15
100
AcDbLine
 10
455.9676459499
 20
2459.8406604048
 30
0.0
 11
455.9676459499
 21
2398.8406604048
 31
0.0
  0
ARC
  5
D6
330
1F
100
AcDbEntity
  8
0
  6
Continuous
 62
     7
370
    15
100
AcDbCircle
 10
460.9676459499
 20
2398.8406604048
 30
0.0
 40
5.0
100
AcDbArc
 50
180.0
 51
270.0
  0
LINE
  5
D7
330
1F
100
AcDbEntity
  8
0
  6
Continuous
 62
     7
370
    15
100
AcDbLine
 10
737.9741644665
 20
2391.8406604048
 30
0.0
 11
947.9676459499
 21
2393.8406604048
 31
0.0
  0
LINE
  5
D8
330
1F
100
AcDbEntity
  8
0
  6
Continuous
 62
     8
370
    15
100
AcDbLine
 10
463.9676459499
 20
2393.8406604048
 30
0.0
 11
568.9643866917
 21
2392.8406604048
 31
0.0
  0
LINE
  5
D9
330
1F
100
AcDbEntity
  8
0
  6
Continuous
 62
     8
370
    15
100
AcDbLine
 10
595.9676459499
 20
2392.5834785241
 30
0.0
 11
673.9611274334
 21
2391.8406604048
 31
0.0
  0
DIMENSION
  5
DA
330
1F
100
AcDbEntity
  8
0
  6
Continuous
 62
     7
370
     0
100
AcDbDimension
  2
_D
 10
445.9676459499
 20
2199.6654009315
 30
0.0
 11
575.9676459499
 21
2199.6654009315
 31
0.0
 70
   160
  1
<>
 71
     2
 42
-1.0
  3
SLDDIMSTYLE0
100
AcDbAlignedDimension
 13
705.9676459499
 23
2393.8406604048
 33
0.0
 14
445.9676459499
 24
2459.8406604048
 34
0.0
100
AcDbRotatedDimension
  0
ARC
  5
E6
330
1F
100
AcDbEntity
  8
0
  6
Continuous
 62
     7
370
    15
100
AcDbCircle
 10
1528.1809908443
 20
2382.9912343509
 30
0.0
 40
8.910000000000446
100
AcDbArc
 50
52.1480946784
 51
83.3152054855
  0
ARC
  5
E7
330
1F
100
AcDbEntity
  8
0
  6
Continuous
 62
     7
370
    15
100
AcDbCircle
 10
1609.9553664288
 20
2382.9912343509
 30
0.0
 40
8.910000000000261
100
AcDbArc
 50
96.6847945145
 51
127.8519053216
  0
LINE
  5
E8
330
1F
100
AcDbEntity
  8
0
  6
Continuous
 62
     7
370
    15
100
AcDbLine
 10
1533.6483683734
 20
2390.0265653989
 30
0.0
 11
1541.3864429267
 21
2384.0130637395
 31
0.0
  0
LINE
  5
E9
330
1F
100
AcDbEntity
  8
0
  6
Continuous
 62
     7
370
    15
100
AcDbLine
 10
1596.7499143464
 20
2384.0130637395
 30
0.0
 11
1604.4879888997
 21
2390.0265653989
 31
0.0
  0
ARC
  5
EA
330
1F
100
AcDbEntity
  8
0
  6
Continuous
 62
     7
370
    15
100
AcDbCircle
 10
1545.0681786365
 20
2388.7506604048
 30
0.0
 40
6.0
100
AcDbArc
 50
232.1480946784
 51
270.0
  0
ARC
  5
EB
330
1F
100
AcDbEntity
  8
0
  6
Continuous
 62
     7
370
    15
100
AcDbCircle
 10
1593.0681786365
 20
2388.7506604048
 30
0.0
 40
6.0
100
AcDbArc
 50
270.0
 51
307.8519053216
  0
LINE
  5
EC
330
1F
100
AcDbEntity
  8
0
  6
Continuous
 62
     7
370
    15
100
AcDbLine
 10
1389.5702784212
 20
2393.8406303327
 30
0.0
 11
1459.3931786365
 21
2392.8406604048
 31
0.0
  0
LINE
  5
ED
330
1F
100
AcDbEntity
  8
0
  6
Continuous
 62
     7
370
    15
100
AcDbLine
 10
1464.5681786366
 20
2392.7665465488
 30
0.0
 11
1529.2181786365
 21
2391.8406604048
 31
0.0
  0
LINE
  5
EE
330
1F
100
AcDbEntity
  8
0
  6
Continuous
 62
     7
370
    15
100
AcDbLine
 10
1608.9181786365
 20
2391.8406604048
 30
0.0
 11
1673.5681786365
 21
2392.7665465488
 31
0.0
  0
LINE
  5
EF
330
1F
100
AcDbEntity
  8
0
  6
Continuous
 62
     7
370
    15
100
AcDbLine
 10
1678.7431786365
 20
2392.8406604048
 30
0.0
 11
1748.5660788519
 21
2393.8406303327
 31
0.0
  0
LINE
  5
F0
330
1F
100
AcDbEntity
  8
0
  6
Continuous
 62
     7
370
    15
100
AcDbLine
 10
1386.5681786365
 20
2462.8406604048
 30
0.0
 11
1386.5681786365
 21
2459.8406604048
 31
0.0
  0
LINE
  5
F1
330
1F
100
AcDbEntity
  8
0
  6
Continuous
 62
     7
370
    15
100
AcDbLine
 10
1371.5681786365
 20
2459.8406604048
 30
0.0
 11
1371.5681786365
 21
2462.8406604048
 31
0.0
  0
LINE
  5
F2
330
1F
100
AcDbEntity
  8
0
  6
Continuous
 62
     7
370
    15
100
AcDbLine
 10
1386.5681786365
 20
2459.8406604048
 30
0.0
 11
1371.5681786365
 21
2459.8406604048
 31
0.0
  0
LINE
  5
F3
330
1F
100
AcDbEntity
  8
0
  6
Continuous
 62
     7
370
    15
100
AcDbLine
 10
1371.5681786365
 20
2462.8406604048
 30
0.0
 11
1386.5681786365
 21
2462.8406604048
 31
0.0
  0
LINE
  5
F4
330
1F
100
AcDbEntity
  8
0
  6
Continuous
 62
     7
370
    15
100
AcDbLine
 10
1751.5681786365
 20
2459.8406604048
 30
0.0
 11
1751.5681786365
 21
2462.8406604048
 31
0.0
  0
LINE
  5
F5
330
1F
100
AcDbEntity
  8
0
  6
Continuous
 62
     7
370
    15
100
AcDbLine
 10
1386.5681786365
 20
2459.8406604048
 30
0.0
 11
1751.5681786365
 21
2459.8406604048
 31
0.0
  0
LINE
  5
F6
330
1F
100
AcDbEntity
  8
0
  6
Continuous
 62
     7
370
    15
100
AcDbLine
 10
1386.5681786365
 20
2462.8406604048
 30
0.0
 11
1751.5681786365
 21
2462.8406604048
 31
0.0
  0
LINE
  5
F7
330
1F
100
AcDbEntity
  8
0
  6
Continuous
 62
     7
370
    15
100
AcDbLine
 10
1766.5681786365
 20
2462.8406604048
 30
0.0
 11
1766.5681786365
 21
2459.8406604048
 31
0.0
  0
LINE
  5
F8
330
1F
100
AcDbEntity
  8
0
  6
Continuous
 62
     7
370
    15
100
AcDbLine
 10
1766.5681786365
 20
2459.8406604048
 30
0.0
 11
1751.5681786365
 21
2459.8406604048
 31
0.0
  0
LINE
  5
F9
330
1F
100
AcDbEntity
  8
0
  6
Continuous
 62
     7
370
    15
100
AcDbLine
 10
1751.5681786365
 20
2462.8406604048
 30
0.0
 11
1766.5681786365
 21
2462.8406604048
 31
0.0
  0
LINE
  5
FA
330
1F
100
AcDbEntity
  8
0
  6
Continuous
 62
     7
370
    15
100
AcDbLine
 10
1464.5681786366
 20
2391.3406604048
 30
0.0
 11
1464.5681786366
 21
2392.8406604048
 31
0.0
  0
LINE
  5
FB
330
1F
100
AcDbEntity
  8
0
  6
Continuous
 62
     7
370
    15
100
AcDbLine
 10
1446.5681786366
 20
2391.3406604048
 30
0.0
 11
1464.5681786366
 21
2391.3406604048
 31
0.0
  0
LINE
  5
FC
330
1F
100
AcDbEntity
  8
0
  6
Continuous
 62
     7
370
    15
100
AcDbLine
 10
1446.5681786366
 20
2391.3406604048
 30
0.0
 11
1446.5681786366
 21
2392.8406604048
 31
0.0
  0
LINE
  5
FD
330
1F
100
AcDbEntity
  8
0
  6
Continuous
 62
     7
370
    15
100
AcDbLine
 10
1446.5681786366
 20
2392.8406604048
 30
0.0
 11
1464.5681786366
 21
2392.8406604048
 31
0.0
  0
LINE
  5
FE
330
1F
100
AcDbEntity
  8
0
  6
Continuous
 62
     7
370
    15
100
AcDbLine
 10
1673.5681786365
 20
2392.8406604048
 30
0.0
 11
1673.5681786365
 21
2391.3406604048
 31
0.0
  0
LINE
  5
FF
330
1F
100
AcDbEntity
  8
0
  6
Continuous
 62
     7
370
    15
100
AcDbLine
 10
1691.5681786365
 20
2392.8406604048
 30
0.0
 11
1673.5681786365
 21
2392.8406604048
 31
0.0
  0
LINE
  5
100
330
1F
100
AcDbEntity
  8
0
  6
Continuous
 62
     7
370
    15
100
AcDbLine
 10
1691.5681786365
 20
2392.8406604048
 30
0.0
 11
1691.5681786365
 21
2391.3406604048
 31
0.0
  0
LINE
  5
101
330
1F
100
AcDbEntity
  8
0
  6
Continuous
 62
     7
370
    15
100
AcDbLine
 10
1691.5681786365
 20
2391.3406604048
 30
0.0
 11
1673.5681786365
 21
2391.3406604048
 31
0.0
  0
LINE
  5
102
330
1F
100
AcDbEntity
  8
0
  6
Continuous
 62
     7
370
    15
100
AcDbLine
 10
1569.0681786365
 20
2382.7506604048
 30
0.0
 11
1593.0681786365
 21
2382.7506604048
 31
0.0
  0
LINE
  5
103
330
1F
100
AcDbEntity
  8
0
  6
Continuous
 62
     7
370
    15
100
AcDbLine
 10
1545.0681786365
 20
2382.7506604048
 30
0.0
 11
1569.0681786365
 21
2382.7506604048
 31
0.0
  0
ARC
  5
104
330
1F
100
AcDbEntity
  8
0
  6
Continuous
 62
     7
370
    15
100
AcDbCircle
 10
1386.5681786365
 20
2398.8406604048
 30
0.0
 40
5.0
100
AcDbArc
 50
180.0
 51
270.0
  0
LINE
  5
105
330
1F
100
AcDbEntity
  8
0
  6
Continuous
 62
     7
370
    15
100
AcDbLine
 10
1381.5681786365
 20
2492.3406604048
 30
0.0
 11
1381.5681786365
 21
2462.8406604048
 31
0.0
  0
LINE
  5
106
330
1F
100
AcDbEntity
  8
0
  6
Continuous
 62
     7
370
    15
100
AcDbLine
 10
1381.5681786365
 20
2459.8406604048
 30
0.0
 11
1381.5681786365
 21
2398.8406604048
 31
0.0
  0
LINE
  5
107
330
1F
100
AcDbEntity
  8
0
  6
Continuous
 62
     7
370
    15
100
AcDbLine
 10
1386.5681786365
 20
2493.8406604048
 30
0.0
 11
1751.5681786365
 21
2493.8406604048
 31
0.0
  0
LINE
  5
108
330
1F
100
AcDbEntity
  8
0
  6
Continuous
 62
     7
370
    15
100
AcDbLine
 10
1751.5681786365
 20
2393.8406604048
 30
0.0
 11
1386.5681786365
 21
2393.8406604048
 31
0.0
  0
ARC
  5
109
330
1F
100
AcDbEntity
  8
0
  6
Continuous
 62
     7
370
    15
100
AcDbCircle
 10
1383.0681786365
 20
2492.3406604048
 30
0.0
 40
1.5
100
AcDbArc
 50
90.0
 51
180.0
  0
LINE
  5
10A
330
1F
100
AcDbEntity
  8
0
  6
Continuous
 62
     7
370
    15
100
AcDbLine
 10
1383.0681786365
 20
2493.8406604048
 30
0.0
 11
1386.5681786365
 21
2493.8406604048
 31
0.0
  0
ARC
  5
10B
330
1F
100
AcDbEntity
  8
0
  6
Continuous
 62
     7
370
    15
100
AcDbCircle
 10
1751.5681786365
 20
2398.8406604048
 30
0.0
 40
5.0
100
AcDbArc
 50
270.0
 51
0.0
  0
LINE
  5
10C
330
1F
100
AcDbEntity
  8
0
  6
Continuous
 62
     7
370
    15
100
AcDbLine
 10
1756.5681786365
 20
2492.3406604048
 30
0.0
 11
1756.5681786365
 21
2462.8406604048
 31
0.0
  0
LINE
  5
10D
330
1F
100
AcDbEntity
  8
0
  6
Continuous
 62
     7
370
    15
100
AcDbLine
 10
1756.5681786365
 20
2459.8406604048
 30
0.0
 11
1756.5681786365
 21
2398.8406604048
 31
0.0
  0
LINE
  5
10E
330
1F
100
AcDbEntity
  8
0
  6
Continuous
 62
     7
370
    15
100
AcDbLine
 10
1751.5681786365
 20
2493.8406604048
 30
0.0
 11
1755.0681786365
 21
2493.8406604048
 31
0.0
  0
ARC
  5
10F
330
1F
100
AcDbEntity
  8
0
  6
Continuous
 62
     7
370
    15
100
AcDbCircle
 10
1755.0681786365
 20
2492.3406604048
 30
0.0
 40
1.5
100
AcDbArc
 50
0.0
 51
90.0
  0
LINE
  5
110
330
1F
100
AcDbEntity
  8
0
  6
Continuous
 62
     7
370
    15
100
AcDbLine
 10
1389.5681786365
 20
2393.8406604048
 30
0.0
 11
1389.5698651154
 21
2393.8406387499
 31
0.0
  0
LINE
  5
111
330
1F
100
AcDbEntity
  8
0
  6
Continuous
 62
     7
370
    15
100
AcDbLine
 10
1529.2181793497
 20
2391.8406604048
 30
0.0
 11
1545.3278064311
 21
2391.8406604048
 31
0.0
  0
LINE
  5
112
330
1F
100
AcDbEntity
  8
0
  6
Continuous
 62
     7
370
    15
100
AcDbLine
 10
1748.5681786365
 20
2393.8406604048
 30
0.0
 11
1748.5664921577
 21
2393.8406387499
 31
0.0
  0
LINE
  5
113
330
1F
100
AcDbEntity
  8
0
  6
Continuous
 62
     7
370
    15
100
AcDbLine
 10
1545.3278064311
 20
2391.8406604048
 30
0.0
 11
1592.808550842
 21
2391.8406604048
 31
0.0
  0
LINE
  5
114
330
1F
100
AcDbEntity
  8
0
  6
Continuous
 62
     7
370
    15
100
AcDbLine
 10
1592.808550842
 20
2391.8406604048
 30
0.0
 11
1608.9181779233
 21
2391.8406604048
 31
0.0
  0
LINE
  5
115
330
1F
100
AcDbEntity
  8
0
  6
Continuous
 62
     8
370
    15
100
AcDbLine
 10
1389.5698651154
 20
2393.8406387499
 30
0.0
 11
1545.3278064311
 21
2391.8406604048
 31
0.0
  0
LINE
  5
116
330
1F
100
AcDbEntity
  8
0
  6
Continuous
 62
     8
370
    15
100
AcDbLine
 10
1748.5664921577
 20
2393.8406387499
 30
0.0
 11
1592.808550842
 21
2391.8406604048
 31
0.0
  0
DIMENSION
  5
117
330
1F
100
AcDbEntity
  8
0
  6
Continuous
 62
     7
370
     0
100
AcDbDimension
  2
_D_1
 10
1931.5681786365
 20
2493.8406604048
 30
0.0
 11
1931.5681786365
 21
2438.2956604048
 31
0.0
 70
   160
  1
<>
 71
     2
 42
-1.0
  3
SLDDIMSTYLE1
100
AcDbAlignedDimension
 13
1593.0681786365
 23
2382.7506604048
 33
0.0
 14
1751.5681786365
 24
2493.8406604048
 34
0.0
 50
90.0
100
AcDbRotatedDimension
  0
DIMENSION
  5
120
330
1F
100
AcDbEntity
  8
0
  6
Continuous
 62
     7
370
     0
100
AcDbDimension
  2
_D_2
 10
1866.5681786365
 20
2493.8406604048
 30
0.0
 11
1866.5681786365
 21
2435.2567835136
 31
0.0
 70
   160
  1
<>
 71
     2
 42
-1.0
  3
SLDDIMSTYLE0
100
AcDbAlignedDimension
 13
1766.5681786365
 23
2462.8406604048
 33
0.0
 14
1751.5681786365
 24
2493.8406604048
 34
0.0
 50
90.0
100
AcDbRotatedDimension
  0
DIMENSION
  5
129
330
1F
100
AcDbEntity
  8
0
  6
Continuous
 62
     7
370
     0
100
AcDbDimension
  2
_D_3
 10
1381.5681786365
 20
2199.6654009315
 30
0.0
 11
1475.3181786365
 21
2199.6654009315
 31
0.0
 70
   160
  1
<>
 71
     2
 42
-1.0
  3
SLDDIMSTYLE0
100
AcDbAlignedDimension
 13
1569.0681786365
 23
2386.3390068167
 33
0.0
 14
1381.5681786365
 24
2398.8406604048
 34
0.0
100
AcDbRotatedDimension
  0
CIRCLE
  5
131
330
1F
100
AcDbEntity
  8
0
  6
Continuous
 62
     7
370
    15
100
AcDbCircle
 10
705.9676459499
 20
1704.3426302147
 30
0.0
 40
31.50000000000003
  0
LINE
  5
132
330
1F
100
AcDbEntity
  8
0
  6
Continuous
 62
     7
370
    15
100
AcDbLine
 10
965.9676459499
 20
1521.8426302147
 30
0.0
 11
965.9676459499
 21
1886.8426302147
 31
0.0
  0
ARC
  5
133
330
1F
100
AcDbEntity
  8
0
  6
Continuous
 62
     7
370
    15
100
AcDbCircle
 10
950.9676459499
 20
1521.8426302147
 30
0.0
 40
15.0
100
AcDbArc
 50
270.0
 51
0.0
  0
LINE
  5
134
330
1F
100
AcDbEntity
  8
0
  6
Continuous
 62
     7
370
    15
100
AcDbLine
 10
460.9676459499
 20
1506.8426302147
 30
0.0
 11
950.9676459499
 21
1506.8426302147
 31
0.0
  0
ARC
  5
135
330
1F
100
AcDbEntity
  8
0
  6
Continuous
 62
     7
370
    15
100
AcDbCircle
 10
460.9676459499
 20
1521.8426302147
 30
0.0
 40
15.0
100
AcDbArc
 50
180.0
 51
270.0
  0
LINE
  5
136
330
1F
100
AcDbEntity
  8
0
  6
Continuous
 62
     7
370
    15
100
AcDbLine
 10
445.9676459499
 20
1886.8426302147
 30
0.0
 11
445.9676459499
 21
1521.8426302147
 31
0.0
  0
ARC
  5
137
330
1F
100
AcDbEntity
  8
0
  6
Continuous
 62
     7
370
    15
100
AcDbCircle
 10
460.9676459499
 20
1886.8426302147
 30
0.0
 40
15.0
100
AcDbArc
 50
90.0
 51
180.0
  0
LINE
  5
138
330
1F
100
AcDbEntity
  8
0
  6
Continuous
 62
     7
370
    15
100
AcDbLine
 10
950.9676459499
 20
1901.8426302147
 30
0.0
 11
460.9676459499
 21
1901.8426302147
 31
0.0
  0
ARC
  5
139
330
1F
100
AcDbEntity
  8
0
  6
Continuous
 62
     7
370
    15
100
AcDbCircle
 10
950.9676459499
 20
1886.8426302147
 30
0.0
 40
15.0
100
AcDbArc
 50
0.0
 51
90.0
  0
LWPOLYLINE
  5
13A
330
1F
100
AcDbEntity
  8
0
  6
Continuous
 62
     7
370
    15
100
AcDbPolyline
 90
        3
 70
   128
 43
0.0
 10
672.9665253758
 20
1682.0054741547
 10
674.3999713845
 20
1680.02176628
 10
675.4489477388
 20
1678.7178071032
  0
LWPOLYLINE
  5
13B
330
1F
100
AcDbEntity
  8
0
  6
Continuous
 62
     7
370
    15
100
AcDbPolyline
 90
        3
 70
   128
 43
0.0
 10
737.2065217122
 20
1679.6008610558
 10
738.6405981333
 20
1681.5281458764
 10
739.7087937033
 20
1683.1398603889
  0
LWPOLYLINE
  5
13C
330
1F
100
AcDbEntity
  8
0
  6
Continuous
 62
     7
370
    15
100
AcDbPolyline
 90
        3
 70
   128
 43
0.0
 10
738.3556299208
 20
1727.5598866053
 10
736.3606502976
 20
1730.1164112086
 10
735.283065432
 20
1731.3357530535
  0
LWPOLYLINE
  5
13D
330
1F
100
AcDbEntity
  8
0
  6
Continuous
 62
     7
370
    15
100
AcDbPolyline
 90
        3
 70
   128
 43
0.0
 10
674.161941027
 20
1728.3513710054
 10
672.2612383885
 20
1725.6005837686
 10
670.5164254345
 20
1722.5424506525
  0
LWPOLYLINE
  5
13E
330
1F
100
AcDbEntity
  8
0
  6
Continuous
 62
     7
370
    15
100
AcDbPolyline
 90
        3
 70
   128
 43
0.0
 10
666.4214680533
 20
1709.2540774323
 10
666.2927475664
 20
1708.0742435726
 10
666.1176459499
 20
1704.3426302147
  0
ARC
  5
13F
330
1F
100
AcDbEntity
  8
0
  6
Continuous
 62
     7
370
    15
100
AcDbCircle
 10
460.9676459499
 20
1886.8426302147
 30
0.0
 40
2.000000000000227
100
AcDbArc
 50
90.0
 51
180.0
  0
LINE
  5
140
330
1F
100
AcDbEntity
  8
0
  6
Continuous
 62
     7
370
    15
100
AcDbLine
 10
950.9676459499
 20
1888.8426302147
 30
0.0
 11
460.9676459499
 21
1888.8426302147
 31
0.0
  0
LINE
  5
141
330
1F
100
AcDbEntity
  8
0
  6
Continuous
 62
     7
370
    15
100
AcDbLine
 10
460.9676459499
 20
1891.8426302147
 30
0.0
 11
950.9676459499
 21
1891.8426302147
 31
0.0
  0
ARC
  5
142
330
1F
100
AcDbEntity
  8
0
  6
Continuous
 62
     7
370
    15
100
AcDbCircle
 10
460.9676459499
 20
1886.8426302147
 30
0.0
 40
5.0
100
AcDbArc
 50
90.0
 51
180.0
  0
LINE
  5
143
330
1F
100
AcDbEntity
  8
0
  6
Continuous
 62
     7
370
    15
100
AcDbLine
 10
455.9676459499
 20
1521.8426302147
 30
0.0
 11
455.9676459499
 21
1886.8426302147
 31
0.0
  0
LINE
  5
144
330
1F
100
AcDbEntity
  8
0
  6
Continuous
 62
     7
370
    15
100
AcDbLine
 10
458.9676459499
 20
1886.8426302147
 30
0.0
 11
458.9676459499
 21
1521.8426302147
 31
0.0
  0
ARC
  5
145
330
1F
100
AcDbEntity
  8
0
  6
Continuous
 62
     7
370
    15
100
AcDbCircle
 10
950.9676459499
 20
1886.8426302147
 30
0.0
 40
2.000000000000114
100
AcDbArc
 50
0.0
 51
90.0
  0
ARC
  5
146
330
1F
100
AcDbEntity
  8
0
  6
Continuous
 62
     7
370
    15
100
AcDbCircle
 10
950.9676459499
 20
1886.8426302147
 30
0.0
 40
5.0
100
AcDbArc
 50
0.0
 51
90.0
  0
LINE
  5
147
330
1F
100
AcDbEntity
  8
0
  6
Continuous
 62
     7
370
    15
100
AcDbLine
 10
955.9676459499
 20
1886.8426302147
 30
0.0
 11
955.9676459499
 21
1521.8426302147
 31
0.0
  0
LINE
  5
148
330
1F
100
AcDbEntity
  8
0
  6
Continuous
 62
     7
370
    15
100
AcDbLine
 10
952.9676459499
 20
1521.8426302147
 30
0.0
 11
952.9676459499
 21
1886.8426302147
 31
0.0
  0
ARC
  5
149
330
1F
100
AcDbEntity
  8
0
  6
Continuous
 62
     7
370
    15
100
AcDbCircle
 10
460.9676459499
 20
1521.8426302147
 30
0.0
 40
2.000000000000057
100
AcDbArc
 50
180.0
 51
270.0
  0
ARC
  5
14A
330
1F
100
AcDbEntity
  8
0
  6
Continuous
 62
     7
370
    15
100
AcDbCircle
 10
460.9676459499
 20
1521.8426302147
 30
0.0
 40
5.0
100
AcDbArc
 50
180.0
 51
270.0
  0
LINE
  5
14B
330
1F
100
AcDbEntity
  8
0
  6
Continuous
 62
     7
370
    15
100
AcDbLine
 10
460.9676459499
 20
1519.8426302147
 30
0.0
 11
950.9676459499
 21
1519.8426302147
 31
0.0
  0
LINE
  5
14C
330
1F
100
AcDbEntity
  8
0
  6
Continuous
 62
     7
370
    15
100
AcDbLine
 10
950.9676459499
 20
1516.8426302147
 30
0.0
 11
460.9676459499
 21
1516.8426302147
 31
0.0
  0
ARC
  5
14D
330
1F
100
AcDbEntity
  8
0
  6
Continuous
 62
     7
370
    15
100
AcDbCircle
 10
950.9676459499
 20
1521.8426302147
 30
0.0
 40
5.000000000000114
100
AcDbArc
 50
270.0
 51
0.0
  0
ARC
  5
14E
330
1F
100
AcDbEntity
  8
0
  6
Continuous
 62
     7
370
    15
100
AcDbCircle
 10
950.9676459499
 20
1521.8426302147
 30
0.0
 40
2.0
100
AcDbArc
 50
270.0
 51
0.0
  0
DIMENSION
  5
14F
330
1F
100
AcDbEntity
  8
0
  6
Continuous
 62
     7
370
     0
100
AcDbDimension
  2
_D_4
 10
955.9676459499
 20
1406.8426302147
 30
0.0
 11
705.9676459499
 21
1406.8426302147
 31
0.0
 70
   160
  1
<>
 71
     2
 42
-1.0
  3
SLDDIMSTYLE0
100
AcDbAlignedDimension
 13
455.9676459499
 23
1521.8426302147
 33
0.0
 14
955.9676459499
 24
1521.8426302147
 34
0.0
 50
0.0
100
AcDbRotatedDimension
  0
DIMENSION
  5
157
330
1F
100
AcDbEntity
  8
0
  6
Continuous
 62
     7
370
     0
100
AcDbDimension
  2
_D_5
 10
445.9676459499
 20
1346.8426302147
 30
0.0
 11
705.9676459499
 21
1346.8426302147
 31
0.0
 70
   160
  1
<>
 71
     2
 42
-1.0
  3
SLDDIMSTYLE0
100
AcDbAlignedDimension
 13
965.9676459499
 23
1521.8426302147
 33
0.0
 14
445.9676459499
 24
1521.8426302147
 34
0.0
100
AcDbRotatedDimension
  0
DIMENSION
  5
15F
330
1F
100
AcDbEntity
  8
0
  6
Continuous
 62
     7
370
     0
100
AcDbDimension
  2
_D_6
 10
1065.9676459499
 20
1891.8426302147
 30
0.0
 11
1065.9676459499
 21
1704.3426302147
 31
0.0
 70
   160
  1
<>
 71
     2
 42
-1.0
  3
SLDDIMSTYLE0
100
AcDbAlignedDimension
 13
950.9676459499
 23
1516.8426302147
 33
0.0
 14
950.9676459499
 24
1891.8426302147
 34
0.0
 50
90.0
100
AcDbRotatedDimension
  0
DIMENSION
  5
167
330
1F
100
AcDbEntity
  8
0
  6
Continuous
 62
     7
370
     0
100
AcDbDimension
  2
_D_7
 10
1125.9676459499
 20
1506.8426302147
 30
0.0
 11
1125.9676459499
 21
1704.3426302147
 31
0.0
 70
   160
  1
<>
 71
     2
 42
-1.0
  3
SLDDIMSTYLE0
100
AcDbAlignedDimension
 13
950.9676459499
 23
1901.8426302147
 33
0.0
 14
950.9676459499
 24
1506.8426302147
 34
0.0
 50
90.0
100
AcDbRotatedDimension
  0
SPLINE
  5
16F
330
1F
100
AcDbEntity
  8
0
  6
Continuous
 62
     7
370
    15
100
AcDbSpline
210
0.0
220
0.0
230
1.0
 70
     8
 71
     3
 72
    34
 73
    30
 74
     0
 42
0.00000001
 43
0.00000001
 12
1.0
 22
0.0
 32
0.0
 13
1.0
 23
0.0
 33
0.0
 40
0.0
 40
0.0
 40
0.0
 40
0.0
 40
0.0132479957332332
 40
0.0512461057249313
 40
0.0895427238221622
 40
0.1280899592689329
 40
0.1668050081996054
 40
0.2056086275615857
 40
0.2444423503799266
 40
0.2832653753915313
 40
0.3220652667643075
 40
0.3608390119692977
 40
0.3995888668520565
 40
0.4383198254708017
 40
0.4770382167663402
 40
0.5157509901354499
 40
0.5544653869865506
 40
0.5931866799217496
 40
0.6319220296465653
 40
0.6706789049094123
 40
0.709464484218028
 40
0.7482850404674364
 40
0.7871446892605024
 40
0.8260430520862125
 40
0.8649712443931955
 40
0.9038969829462398
 40
0.9427625830472328
 40
0.981486116621338
 40
1.0
 40
1.0
 40
1.0
 40
1.0
 10
1612.933702069696
 20
943.9182386104401
 30
0.0
 10
1612.845423946982
 20
944.1304202520935
 30
0.0
 10
1612.503945122494
 20
944.9511846197765
 30
0.0
 10
1611.599628300142
 20
946.3182685103675
 30
0.0
 10
1610.231546050048
 20
948.0012736936502
 30
0.0
 10
1608.561903142845
 20
949.5899528905708
 30
0.0
 10
1606.633459774281
 20
951.0724756654993
 30
0.0
 10
1604.459721101825
 20
952.4314463939554
 30
0.0
 10
1602.066236945647
 20
953.6531443761079
 30
0.0
 10
1599.478048677488
 20
954.7255018533917
 30
0.0
 10
1596.722195992645
 20
955.638541917652
 30
0.0
 10
1593.826492742559
 20
956.3840262694107
 30
0.0
 10
1590.819872111183
 20
956.9552999060016
 30
0.0
 10
1587.732159282551
 20
957.3472776077073
 30
0.0
 10
1584.593875019474
 20
957.5564746785803
 30
0.0
 10
1581.435979720548
 20
957.5810369690522
 30
0.0
 10
1578.289652997035
 20
957.4207623634054
 30
0.0
 10
1575.185947479476
 20
957.0771110860569
 30
0.0
 10
1572.155476047286
 20
956.5531777118501
 30
0.0
 10
1569.228065551523
 20
955.8536179444247
 30
0.0
 10
1566.432557431553
 20
954.9845658474155
 30
0.0
 10
1563.796547030578
 20
953.9535489594945
 30
0.0
 10
1561.346397938831
 20
952.7693557672696
 30
0.0
 10
1559.10648757173
 20
951.4421190711504
 30
0.0
 10
1557.101832338652
 20
949.9829360220283
 30
0.0
 10
1555.348761396979
 20
948.4061598367813
 30
0.0
 10
1553.889230987706
 20
946.7225243517225
 30
0.0
 10
1552.872564920933
 20
945.2690332705754
 30
0.0
 10
1552.463673112081
 20
944.3575614508457
 30
0.0
 10
1552.331413907061
 20
944.0627388702364
 30
0.0
  0
LINE
  5
170
330
1F
100
AcDbEntity
  8
0
  6
Continuous
 62
     7
370
    15
100
AcDbLine
 10
1551.0959978048
 20
938.9554182603
 30
0.0
 11
1551.0959978048
 21
935.5833118401
 31
0.0
  0
LINE
  5
171
330
1F
100
AcDbEntity
  8
0
  6
Continuous
 62
     7
370
    15
100
AcDbLine
 10
1614.0959978048
 20
935.5833118401
 30
0.0
 11
1614.0959978048
 21
938.9554182603
 31
0.0
  0
LINE
  5
172
330
1F
100
AcDbEntity
  8
0
  6
Continuous
 62
     7
370
    15
100
AcDbLine
 10
1596.4082904675
 20
918.8049667154
 30
0.0
 11
1596.4082904675
 21
919.2401491637
 31
0.0
  0
SPLINE
  5
173
330
1F
100
AcDbEntity
  8
0
  6
Continuous
 62
     7
370
    15
100
AcDbSpline
210
0.0
220
0.0
230
1.0
 70
     8
 71
     3
 72
    11
 73
     7
 74
     0
 42
0.00000001
 43
0.00000001
 12
1.0
 22
0.0
 32
0.0
 13
1.0
 23
0.0
 33
0.0
 40
0.0
 40
0.0
 40
0.0
 40
0.0
 40
0.2497800973950072
 40
0.5896740493294608
 40
0.8996310445371544
 40
1.0
 40
1.0
 40
1.0
 40
1.0
 10
1593.628443496619
 20
917.4389881263261
 30
0.0
 10
1593.74938006718
 20
917.3357257989956
 30
0.0
 10
1594.034883828364
 20
917.0919469097437
 30
0.0
 10
1594.554876585474
 20
916.8839681860916
 30
0.0
 10
1595.066842984838
 20
916.8392007994
 30
0.0
 10
1595.305178292756
 20
916.960509981198
 30
0.0
 10
1595.363476983995
 20
916.990183161374
 30
0.0
  0
SPLINE
  5
174
330
1F
100
AcDbEntity
  8
0
  6
Continuous
 62
     7
370
    15
100
AcDbSpline
210
0.0
220
0.0
230
1.0
 70
     8
 71
     3
 72
    11
 73
     7
 74
     0
 42
0.00000001
 43
0.00000001
 12
1.0
 22
0.0
 32
0.0
 13
1.0
 23
0.0
 33
0.0
 40
0.0
 40
0.0
 40
0.0
 40
0.0
 40
0.1697132773532476
 40
0.4160630844849956
 40
0.6766303999373596
 40
1.0
 40
1.0
 40
1.0
 40
1.0
 10
1595.363476983995
 20
916.990183161374
 30
0.0
 10
1595.486114415157
 20
917.0356064745516
 30
0.0
 10
1595.786768015619
 20
917.1469646669275
 30
0.0
 10
1596.122159360354
 20
917.5543910248463
 30
0.0
 10
1596.36606249298
 20
918.1089010894808
 30
0.0
 10
1596.393240158734
 20
918.5568846624291
 30
0.0
 10
1596.408290467547
 20
918.8049667154213
 30
0.0
  0
SPLINE
  5
175
330
1F
100
AcDbEntity
  8
0
  6
Continuous
 62
     7
370
    15
100
AcDbSpline
210
0.0
220
0.0
230
1.0
 70
     8
 71
     3
 72
    11
 73
     7
 74
     0
 42
0.00000001
 43
0.00000001
 12
1.0
 22
0.0
 32
0.0
 13
1.0
 23
0.0
 33
0.0
 40
0.0
 40
0.0
 40
0.0
 40
0.0
 40
0.1766979802586452
 40
0.5642040461944478
 40
0.9464318827646111
 40
1.0
 40
1.0
 40
1.0
 40
1.0
 10
1562.121321638519
 20
921.4848267032929
 30
0.0
 10
1562.20165550547
 20
921.3979007497179
 30
0.0
 10
1562.458164904808
 20
921.120342541896
 30
0.0
 10
1563.091233349177
 20
920.9406059634234
 30
0.0
 10
1563.652447925133
 20
920.8908715575158
 30
0.0
 10
1563.946672560498
 20
920.9734859087114
 30
0.0
 10
1563.982838705739
 20
920.9836408796594
 30
0.0
  0
SPLINE
  5
176
330
1F
100
AcDbEntity
  8
0
  6
Continuous
 62
     7
370
    15
100
AcDbSpline
210
0.0
220
0.0
230
1.0
 70
     8
 71
     3
 72
     9
 73
     5
 74
     0
 42
0.00000001
 43
0.00000001
 12
1.0
 22
0.0
 32
0.0
 13
1.0
 23
0.0
 33
0.0
 40
0.0
 40
0.0
 40
0.0
 40
0.0
 40
0.4300344548531064
 40
1.0
 40
1.0
 40
1.0
 40
1.0
 10
1561.640997804799
 20
922.1402226264063
 30
0.0
 10
1561.679938986842
 20
922.0249644636475
 30
0.0
 10
1561.77049261947
 20
921.7569437005246
 30
0.0
 10
1561.993955497451
 20
921.5836169685638
 30
0.0
 10
1562.121321638519
 20
921.4848267032929
 30
0.0
  0
LINE
  5
177
330
1F
100
AcDbEntity
  8
0
  6
Continuous
 62
     7
370
    15
100
AcDbLine
 10
1612.6120081258
 20
928.4585074942
 30
0.0
 11
1612.5753981122
 21
929.0285191226
 31
0.0
  0
LINE
  5
178
330
1F
100
AcDbEntity
  8
0
  6
Continuous
 62
     7
370
    15
100
AcDbLine
 10
1552.6165974974
 20
929.0285191226
 30
0.0
 11
1552.5799874838
 21
928.4585074942
 31
0.0
  0
SPLINE
  5
179
330
1F
100
AcDbEntity
  8
0
  6
Continuous
 62
     7
370
    15
100
AcDbSpline
210
0.0
220
0.0
230
1.0
 70
     8
 71
     3
 72
    19
 73
    15
 74
     0
 42
0.00000001
 43
0.00000001
 12
1.0
 22
0.0
 32
0.0
 13
1.0
 23
0.0
 33
0.0
 40
0.0
 40
0.0
 40
0.0
 40
0.0
 40
0.1197200785694148
 40
0.1680023115439599
 40
0.2478263153120804
 40
0.3300937674180638
 40
0.417672389368133
 40
0.5082684117219635
 40
0.6009532489770897
 40
0.6950151133311381
 40
0.7900037148589104
 40
0.8856754084506776
 40
0.981991025167702
 40
1.0
 40
1.0
 40
1.0
 40
1.0
 10
1582.595997804798
 20
914.9920823866804
 30
0.0
 10
1581.693918000356
 20
915.0092226948998
 30
0.0
 10
1580.428036001661
 20
915.0332755641917
 30
0.0
 10
1578.581998725504
 20
915.192779327852
 30
0.0
 10
1577.032124335051
 20
915.3818824590556
 30
0.0
 10
1575.232340325879
 20
915.6937470873977
 30
0.0
 10
1573.411626834684
 20
916.1096948543278
 30
0.0
 10
1571.595996047762
 20
916.6380251500065
 30
0.0
 10
1569.835122653583
 20
917.2743457680954
 30
0.0
 10
1568.166300157603
 20
918.0132200579977
 30
0.0
 10
1566.613212089918
 20
918.844859248393
 30
0.0
 10
1565.220274666596
 20
919.7653957737338
 30
0.0
 10
1564.279825957711
 20
920.4759073671398
 30
0.0
 10
1563.866663413316
 20
920.8904596769119
 30
0.0
 10
1563.801580006825
 20
920.955762006115
 30
0.0
  0
SPLINE
  5
17A
330
1F
100
AcDbEntity
  8
0
  6
Continuous
 62
     7
370
    15
100
AcDbSpline
210
0.0
220
0.0
230
1.0
 70
     8
 71
     3
 72
    11
 73
     7
 74
     0
 42
0.00000001
 43
0.00000001
 12
1.0
 22
0.0
 32
0.0
 13
1.0
 23
0.0
 33
0.0
 40
0.0
 40
0.0
 40
0.0
 40
0.0
 40
0.2093607406023162
 40
0.494466257326689
 40
0.7784434548350431
 40
1.0
 40
1.0
 40
1.0
 40
1.0
 10
1601.573156343364
 20
921.1370191146075
 30
0.0
 10
1601.278909953553
 20
920.8587489224414
 30
0.0
 10
1600.583961556431
 20
920.2015329608907
 30
0.0
 10
1599.229129100526
 20
919.2515078772017
 30
0.0
 10
1597.714176282474
 20
918.3497133842191
 30
0.0
 10
1596.61057103388
 20
917.853830925361
 30
0.0
 10
1596.126902100504
 20
917.6365041771771
 30
0.0
  0
SPLINE
  5
17B
330
1F
100
AcDbEntity
  8
0
  6
Continuous
 62
     7
370
    15
100
AcDbSpline
210
0.0
220
0.0
230
1.0
 70
     8
 71
     3
 72
    14
 73
    10
 74
     0
 42
0.00000001
 43
0.00000001
 12
1.0
 22
0.0
 32
0.0
 13
1.0
 23
0.0
 33
0.0
 40
0.0
 40
0.0
 40
0.0
 40
0.0
 40
0.0635846361154224
 40
0.2478181660936141
 40
0.4245497170400925
 40
0.5904060637419947
 40
0.7094150689977247
 40
0.8371668374535975
 40
1.0
 40
1.0
 40
1.0
 40
1.0
 10
1594.442436160555
 20
916.9681481909921
 30
0.0
 10
1594.223141244413
 20
916.8837813133925
 30
0.0
 10
1593.368449493826
 20
916.5549653263384
 30
0.0
 10
1591.772890554646
 20
916.1089281825645
 30
0.0
 10
1589.7322496982
 20
915.6432866410978
 30
0.0
 10
1587.875943991882
 20
915.3419217365082
 30
0.0
 10
1586.186623198126
 20
915.1495043709268
 30
0.0
 10
1584.489456607493
 20
915.020333118075
 30
0.0
 10
1583.275983648726
 20
915.002227892567
 30
0.0
 10
1582.595997804798
 20
914.9920823866804
 30
0.0
  0
LINE
  5
17C
330
1F
100
AcDbEntity
  8
0
  6
Continuous
 62
     7
370
    15
100
AcDbLine
 10
1899.884146762
 20
959.6790515767
 30
0.0
 11
1899.884146762
 21
962.1286740124
 31
0.0
  0
LINE
  5
17D
330
1F
100
AcDbEntity
  8
0
  6
Continuous
 62
     7
370
    15
100
AcDbLine
 10
1265.3078488475
 20
1013.1541810013
 30
0.0
 11
1265.3078488475
 21
1010.7045585657
 31
0.0
  0
LINE
  5
17E
330
1F
100
AcDbEntity
  8
0
  6
Continuous
 62
     7
370
    15
100
AcDbLine
 10
1622.4450229387
 20
929.8279429276
 30
0.0
 11
1622.4153441873
 21
932.2773256376
 31
0.0
  0
LINE
  5
17F
330
1F
100
AcDbEntity
  8
0
  6
Continuous
 62
     7
370
    15
100
AcDbLine
 10
1542.7766514223
 20
932.2773256376
 30
0.0
 11
1542.7692278268
 21
931.6646574574
 31
0.0
  0
SPLINE
  5
180
330
1F
100
AcDbEntity
  8
0
  6
Continuous
 62
     7
370
    15
100
AcDbSpline
210
0.0
220
0.0
230
1.0
 70
     8
 71
     3
 72
    13
 73
     9
 74
     0
 42
0.00000001
 43
0.00000001
 12
1.0
 22
0.0
 32
0.0
 13
1.0
 23
0.0
 33
0.0
 40
0.0
 40
0.0
 40
0.0
 40
0.0
 40
0.0981565717297586
 40
0.2675453475105066
 40
0.4523308655783551
 40
0.6475423068450673
 40
0.8431981802697188
 40
1.0
 40
1.0
 40
1.0
 40
1.0
 10
1628.515106313634
 20
837.0925066532708
 30
0.0
 10
1628.437288569687
 20
837.0514530110792
 30
0.0
 10
1628.225180760909
 20
836.9395531069446
 30
0.0
 10
1627.707143305354
 20
836.777414744336
 30
0.0
 10
1626.975903180566
 20
836.6831240582051
 30
0.0
 10
1626.184805603527
 20
836.7184208070183
 30
0.0
 10
1625.492413605058
 20
836.8785986277651
 30
0.0
 10
1625.196765322371
 20
837.0266440295877
 30
0.0
 10
1625.065236944282
 20
837.0925066532708
 30
0.0
  0
LINE
  5
181
330
1F
100
AcDbEntity
  8
0
  6
Continuous
 62
     7
370
    15
100
AcDbLine
 10
1886.6090814467
 20
986.0869870609
 30
0.0
 11
1628.5151063136
 21
837.0925066533
 31
0.0
  0
LINE
  5
182
330
1F
100
AcDbEntity
  8
0
  6
Continuous
 62
     7
370
    15
100
AcDbLine
 10
1625.0652369443
 20
837.0925066533
 30
0.0
 11
1278.5829141629
 21
1037.1124940498
 31
0.0
  0
ARC
  5
183
330
1F
100
AcDbEntity
  8
0
  6
Continuous
 62
     7
370
    15
100
AcDbCircle
 10
1626.790171629
 20
760.8755816441
 30
0.0
 40
4.999999999999965
100
AcDbArc
 50
240.0026882663
 51
299.9973117337
  0
LINE
  5
184
330
1F
100
AcDbEntity
  8
0
  6
Continuous
 62
     7
370
    15
100
AcDbLine
 10
1629.2899684605
 20
756.5453373322
 30
0.0
 11
1887.3839435936
 21
905.5398177398
 31
0.0
  0
LINE
  5
185
330
1F
100
AcDbEntity
  8
0
  6
Continuous
 62
     7
370
    15
100
AcDbLine
 10
1277.808052016
 20
956.5653247287
 30
0.0
 11
1624.2903747974
 21
756.5453373322
 31
0.0
  0
SPLINE
  5
186
330
1F
100
AcDbEntity
  8
0
  6
Continuous
 62
     7
370
    15
100
AcDbSpline
210
0.0
220
0.0
230
1.0
 70
     8
 71
     3
 72
    12
 73
     8
 74
     0
 42
0.00000001
 43
0.00000001
 12
1.0
 22
0.0
 32
0.0
 13
1.0
 23
0.0
 33
0.0
 40
0.0
 40
0.0
 40
0.0
 40
0.0
 40
0.0027392109206908
 40
0.2750580318982264
 40
0.5371281705305042
 40
0.8061967412621934
 40
1.0
 40
1.0
 40
1.0
 40
1.0
 10
1889.882601997329
 20
986.1986614451333
 30
0.0
 10
1889.883116724527
 20
986.2017030928283
 30
0.0
 10
1889.934803087562
 20
986.5071303318819
 30
0.0
 10
1889.758645934007
 20
987.1237798463612
 30
0.0
 10
1889.347755576786
 20
987.9245317439963
 30
0.0
 10
1888.763491844213
 20
988.5275323689559
 30
0.0
 10
1888.302130407012
 20
988.8213815478344
 30
0.0
 10
1888.108959545679
 20
988.9444154522943
 30
0.0
  0
LINE
  5
187
330
1F
100
AcDbEntity
  8
0
  6
Continuous
 62
     7
370
    15
100
AcDbLine
 10
1889.884146762
 20
909.8700620517
 30
0.0
 11
1889.884146762
 21
950.3193684598
 31
0.0
  0
LINE
  5
188
330
1F
100
AcDbEntity
  8
0
  6
Continuous
 62
     7
370
    15
100
AcDbLine
 10
1889.884146762
 20
962.1286740124
 30
0.0
 11
1889.884146762
 21
986.216627963
 31
0.0
  0
SPLINE
  5
189
330
1F
100
AcDbEntity
  8
0
  6
Continuous
 62
     7
370
    15
100
AcDbSpline
210
0.0
220
0.0
230
1.0
 70
     8
 71
     3
 72
    10
 73
     6
 74
     0
 42
0.00000001
 43
0.00000001
 12
1.0
 22
0.0
 32
0.0
 13
1.0
 23
0.0
 33
0.0
 40
0.0
 40
0.0
 40
0.0
 40
0.0
 40
0.4146642682515461
 40
0.9211155683067335
 40
0.9999999999999999
 40
0.9999999999999999
 40
0.9999999999999999
 40
0.9999999999999999
 10
1886.889389561419
 20
986.3040286169047
 30
0.0
 10
1886.890850992982
 20
986.3040420402245
 30
0.0
 10
1886.894097347845
 20
986.3040718581517
 30
0.0
 10
1886.750531131627
 20
986.1703307738729
 30
0.0
 10
1886.625880361634
 20
986.0968851666842
 30
0.0
 10
1886.609081446724
 20
986.0869870609147
 30
0.0
  0
LINE
  5
18A
330
1F
100
AcDbEntity
  8
0
  6
Continuous
 62
     7
370
    15
100
AcDbLine
 10
1888.1089595457
 20
988.9444154523
 30
0.0
 11
1541.6266367643
 21
1188.9644028489
 31
0.0
  0
ARC
  5
18B
330
1F
100
AcDbEntity
  8
0
  6
Continuous
 62
     7
370
    15
100
AcDbCircle
 10
1884.884146762
 20
909.8700620517
 30
0.0
 40
5.000000000000227
100
AcDbArc
 50
299.9973117336
 51
0.0
  0
SPLINE
  5
18C
330
1F
100
AcDbEntity
  8
0
  6
Continuous
 62
     7
370
    15
100
AcDbSpline
210
0.0
220
0.0
230
1.0
 70
     8
 71
     3
 72
    11
 73
     7
 74
     0
 42
0.00000001
 43
0.00000001
 12
1.0
 22
0.0
 32
0.0
 13
1.0
 23
0.0
 33
0.0
 40
0.0
 40
0.0
 40
0.0
 40
0.0
 40
0.185776684151491
 40
0.4735967206645528
 40
0.7420098987572038
 40
1.0
 40
1.0
 40
1.0
 40
1.0
 10
1277.08303606392
 20
1039.969922441215
 30
0.0
 10
1276.899122142997
 20
1039.853548991432
 30
0.0
 10
1276.430274126726
 20
1039.556880523906
 30
0.0
 10
1275.848036096009
 20
1038.947864581765
 30
0.0
 10
1275.397316238996
 20
1038.137797860376
 30
0.0
 10
1275.338311713738
 20
1037.548779301995
 30
0.0
 10
1275.30939361227
 20
1037.260101469854
 30
0.0
  0
LINE
  5
18D
330
1F
100
AcDbEntity
  8
0
  6
Continuous
 62
     7
370
    15
100
AcDbLine
 10
1275.3078488476
 20
1037.242134952
 30
0.0
 11
1275.3078488476
 21
1013.1541810013
 31
0.0
  0
LINE
  5
18E
330
1F
100
AcDbEntity
  8
0
  6
Continuous
 62
     7
370
    15
100
AcDbLine
 10
1275.3078488476
 20
1001.3448754488
 30
0.0
 11
1275.3078488476
 21
960.8955690406
 31
0.0
  0
SPLINE
  5
18F
330
1F
100
AcDbEntity
  8
0
  6
Continuous
 62
     7
370
    15
100
AcDbSpline
210
0.0
220
0.0
230
1.0
 70
     8
 71
     3
 72
    10
 73
     6
 74
     0
 42
0.00000001
 43
0.00000001
 12
1.0
 22
0.0
 32
0.0
 13
1.0
 23
0.0
 33
0.0
 40
0.0
 40
0.0
 40
0.0
 40
0.0
 40
0.3196629088320364
 40
0.8517288669729706
 40
0.9999999999999999
 40
0.9999999999999999
 40
0.9999999999999999
 40
0.9999999999999999
 10
1278.582914162874
 20
1037.112494049835
 30
0.0
 10
1278.520392720641
 20
1037.15154661427
 30
0.0
 10
1278.353806871349
 20
1037.255600589692
 30
0.0
 10
1278.282452916428
 20
1037.366256387161
 30
0.0
 10
1278.291325398449
 20
1037.341303603488
 30
0.0
 10
1278.293259047193
 20
1037.335865450026
 30
0.0
  0
LINE
  5
190
330
1F
100
AcDbEntity
  8
0
  6
Continuous
 62
     7
370
    15
100
AcDbLine
 10
1535.177011197
 20
1188.9644028489
 30
0.0
 11
1277.0830360639
 21
1039.9699224412
 31
0.0
  0
ARC
  5
191
330
1F
100
AcDbEntity
  8
0
  6
Continuous
 62
     7
370
    15
100
AcDbCircle
 10
1280.3078488476
 20
960.8955690406
 30
0.0
 40
5.0
100
AcDbArc
 50
180.0
 51
240.0026882663
  0
SPLINE
  5
192
330
1F
100
AcDbEntity
  8
0
  6
Continuous
 62
     7
370
    15
100
AcDbSpline
210
0.0
220
0.0
230
1.0
 70
     8
 71
     3
 72
    13
 73
     9
 74
     0
 42
0.00000001
 43
0.00000001
 12
1.0
 22
0.0
 32
0.0
 13
1.0
 23
0.0
 33
0.0
 40
0.0
 40
0.0
 40
0.0
 40
0.0
 40
0.1022945132382456
 40
0.2828049559562342
 40
0.4629628570841666
 40
0.6433443921291259
 40
0.825879419641707
 40
1.0
 40
1.0
 40
1.0
 40
1.0
 10
1541.626636764271
 20
1188.964402848859
 30
0.0
 10
1541.435572399458
 20
1189.064829188635
 30
0.0
 10
1540.907352971403
 20
1189.342469364031
 30
0.0
 10
1539.911175545729
 20
1189.637634882822
 30
0.0
 10
1538.663079538444
 20
1189.788808305279
 30
0.0
 10
1537.394225460471
 20
1189.722979020941
 30
0.0
 10
1536.190225295431
 20
1189.464990561261
 30
0.0
 10
1535.509395035542
 20
1189.128620130901
 30
0.0
 10
1535.177011197011
 20
1188.964402848859
 30
0.0
  0
LWPOLYLINE
  5
193
330
1F
100
AcDbEntity
  8
0
  6
Continuous
 62
     7
370
    15
100
AcDbPolyline
 90
       59
 70
   128
 43
0.0
 10
1556.7339405622
 20
930.2833226607
 10
1558.6612278288
 20
928.7247003798
 10
1560.8691283896
 20
927.2955079491
 10
1563.3317566292
 20
926.012501343
 10
1566.0202404832
 20
924.8907226409
 10
1568.9030599364
 20
923.9433236725
 10
1571.9464165665
 20
923.1814118245
 10
1575.1146297997
 20
922.6139198166
 10
1578.3705552324
 20
922.2475009738
 10
1581.6760201159
 20
922.086451222
 10
1584.9922708967
 20
922.1326587223
 10
1588.2804275664
 20
922.385581734
 10
1591.5019394945
 20
922.842254966
 10
1594.6190373991
 20
923.4973243423
 10
1597.5951761572
 20
924.3431097733
 10
1600.3954632629
 20
925.3696951981
 10
1602.9870679104
 20
926.5650448413
 10
1605.3396059047
 20
927.9151443212
 10
1607.4254958886
 20
929.4041649558
 10
1609.2202827093
 20
931.0146493397
 10
1610.7029241324
 20
932.7277160158
 10
1611.8560375426
 20
934.5232808438
 10
1612.6661037397
 20
936.3802924676
 10
1613.123625438
 20
938.2769791238
 10
1613.223238614
 20
940.1911038957
 10
1612.9637753943
 20
942.1002254202
 10
1612.3482777478
 20
943.9819609932
 10
1611.3839618218
 20
945.8142489854
 10
1610.0821333388
 20
947.5756074955
 10
1608.4580550474
 20
949.2453862053
 10
1606.5307677808
 20
950.8040084862
 10
1604.32286722
 20
952.233200917
 10
1601.8602389804
 20
953.5162075231
 10
1599.1717551264
 20
954.6379862251
 10
1596.2889356732
 20
955.5853851935
 10
1593.2455790431
 20
956.3472970416
 10
1590.0773658099
 20
956.9147890494
 10
1586.8214403772
 20
957.2812078922
 10
1583.5159754937
 20
957.442257644
 10
1580.1997247129
 20
957.3960501437
 10
1576.9115680432
 20
957.143127132
 10
1573.6900561151
 20
956.6864539
 10
1570.5729582105
 20
956.0313845238
 10
1567.5968194524
 20
955.1855990928
 10
1564.7965323467
 20
954.159013668
 10
1562.2049276992
 20
952.9636640248
 10
1559.8523897049
 20
951.6135645448
 10
1557.766499721
 20
950.1245439102
 10
1555.9717129003
 20
948.5140595263
 10
1554.4890714772
 20
946.8009928502
 10
1553.335958067
 20
945.0054280223
 10
1552.5258918699
 20
943.1484163985
 10
1552.0683701716
 20
941.2517297422
 10
1551.9687569956
 20
939.3376049704
 10
1552.2282202153
 20
937.4284834458
 10
1552.8437178618
 20
935.5467478728
 10
1553.8080337878
 20
933.7144598806
 10
1555.1098622708
 20
931.9531013705
 10
1556.7339405622
 20
930.2833226607
  0
ARC
  5
194
330
1F
100
AcDbEntity
  8
0
  6
Continuous
 62
     7
370
    15
100
AcDbCircle
 10
1603.0804472035
 20
938.9553040604
 30
0.0
 40
10.99993206965385
100
AcDbArc
 50
334.6461056868
 51
25.2875297363
  0
ARC
  5
195
330
1F
100
AcDbEntity
  8
0
  6
Continuous
 62
     7
370
    15
100
AcDbCircle
 10
1562.1216985157
 20
938.957129243
 30
0.0
 40
11.00956662364217
100
AcDbArc
 50
153.9285969477
 51
205.1054764212
  0
LWPOLYLINE
  5
196
330
1F
100
AcDbEntity
  8
0
  6
Continuous
 62
     7
370
    15
100
AcDbPolyline
 90
       26
 70
   128
 43
0.0
 10
1556.0047153416
 20
925.8349460571
 10
1557.9502846316
 20
924.2584802662
 10
1560.1750996998
 20
922.8103293422
 10
1562.6539525025
 20
921.5069014138
 10
1565.3587566469
 20
920.3629648401
 10
1568.2588656213
 20
919.3914808797
 10
1571.3214200321
 20
918.6034568339
 10
1574.5117199142
 20
918.0078213302
 10
1577.7936178951
 20
917.6113231568
 10
1581.1299287594
 20
917.4184547964
 10
1584.4828507717
 20
917.4314015247
 10
1587.8143939859
 20
917.6500166499
 10
1591.0868106863
 20
918.0718231754
 10
1594.2630230839
 20
918.6920418647
 10
1597.3070434233
 20
919.5036453923
 10
1600.1843817375
 20
920.4974379658
 10
1602.8624366338
 20
921.6621595183
 10
1605.3108646802
 20
922.9846132893
 10
1607.5019242084
 20
924.449815349
 10
1609.4107896386
 20
926.0411643726
 10
1611.0158327626
 20
927.7406297399
 10
1612.2988678006
 20
929.5289558292
 10
1613.2453574529
 20
931.3858801913
 10
1613.8445776135
 20
933.2903631312
 10
1614.0897388785
 20
935.2208260962
 10
1614.0959978048
 20
935.5833118401
  0
ARC
  5
197
330
1F
100
AcDbEntity
  8
0
  6
Continuous
 62
     7
370
    15
100
AcDbCircle
 10
1564.3397712755
 20
936.142058974
 30
0.0
 40
13.25555483947297
100
AcDbArc
 50
182.4158430825
 51
231.0385612964
  0
LINE
  5
198
330
1F
100
AcDbEntity
  8
0
  6
Continuous
 62
     7
370
    15
100
AcDbLine
 10
1593.4797187511
 20
917.0316596347
 30
0.0
 11
1593.4797187511
 21
917.848306968
 31
0.0
  0
SPLINE
  5
199
330
1F
100
AcDbEntity
  8
0
  6
Continuous
 62
     7
370
    15
100
AcDbSpline
210
0.0
220
0.0
230
1.0
 70
     8
 71
     3
 72
    10
 73
     6
 74
     0
 42
0.00000001
 43
0.00000001
 12
1.0
 22
0.0
 32
0.0
 13
1.0
 23
0.0
 33
0.0
 40
0.0
 40
0.0
 40
0.0
 40
0.0
 40
0.1319381253061432
 40
0.655090580613069
 40
1.0
 40
1.0
 40
1.0
 40
1.0
 10
1593.660405322684
 20
917.4238663759002
 30
0.0
 10
1593.643650152407
 20
917.4349594084648
 30
0.0
 10
1593.560458472977
 20
917.4900378107583
 30
0.0
 10
1593.496680097968
 20
917.6433651319057
 30
0.0
 10
1593.484541724507
 20
917.7900315825785
 30
0.0
 10
1593.479718751094
 20
917.8483069680317
 30
0.0
  0
ARC
  5
19A
330
1F
100
AcDbEntity
  8
0
  6
Continuous
 62
     7
370
    15
100
AcDbCircle
 10
1588.1284476041
 20
936.1788718962
 30
0.0
 40
19.80136129586644
100
AcDbArc
 50
294.8075443678
 51
307.7626189018
  0
LWPOLYLINE
  5
19B
330
1F
100
AcDbEntity
  8
0
  6
Continuous
 62
     7
370
    15
100
AcDbPolyline
 90
       12
 70
   128
 43
0.0
 10
1564.9373644861
 20
920.5248122814
 10
1566.511807063
 20
919.4222468157
 10
1568.6500316783
 20
918.2546845713
 10
1571.0401419323
 20
917.2631824402
 10
1573.6389687505
 20
916.465648479
 10
1576.3995733161
 20
915.8764873798
 10
1579.2720948565
 20
915.5063403
 10
1582.2046512062
 20
915.3618926663
 10
1585.1442758785
 20
915.4457534255
 10
1588.037874722
 20
915.7564079231
 10
1590.8331848825
 20
916.2882452601
 10
1593.4797187511
 20
917.0316596347
  0
LINE
  5
19C
330
1F
100
AcDbEntity
  8
0
  6
Continuous
 62
     7
370
    15
100
AcDbLine
 10
1592.1363748825
 20
918.252838532
 30
0.0
 11
1593.4797187511
 21
917.0316596347
 31
0.0
  0
ARC
  5
19D
330
1F
100
AcDbEntity
  8
0
  6
Continuous
 62
     7
370
    15
100
AcDbCircle
 10
1595.4193327062
 20
919.6877184779
 30
0.0
 40
1.467235961400551
100
AcDbArc
 50
234.3472411756
 51
290.9676538313
  0
LWPOLYLINE
  5
19E
330
1F
100
AcDbEntity
  8
0
  6
Continuous
 62
     7
370
    15
100
AcDbPolyline
 90
        9
 70
   128
 43
0.0
 10
1593.4797187511
 20
917.848306968
 10
1593.6906125648
 20
917.6847606873
 10
1593.893761383
 20
917.59082407
 10
1594.0812447369
 20
917.5701595644
 10
1594.2457529308
 20
917.6235728488
 10
1594.3808720359
 20
917.7489814189
 10
1594.4813339603
 20
917.9414957821
 10
1594.5432218438
 20
918.1936100911
 10
1594.5641227703
 20
918.4954947858
  0
ARC
  5
19F
330
1F
100
AcDbEntity
  8
0
  6
Continuous
 62
     7
370
    15
100
AcDbCircle
 10
1586.2053683494
 20
946.9156639316
 30
0.0
 40
35.97640085433623
100
AcDbArc
 50
285.6892591985
 51
299.3429592854
  0
LWPOLYLINE
  5
1A0
330
1F
100
AcDbEntity
  8
0
  6
Continuous
 62
     7
370
    15
100
AcDbPolyline
 90
       13
 70
   128
 43
0.0
 10
1569.2578899211
 20
912.2796553825
 10
1567.8131184384
 20
912.7216907909
 10
1565.0727876724
 20
913.7328594479
 10
1562.5379005235
 20
914.9091404752
 10
1560.238176226
 20
916.2367430534
 10
1558.2005769445
 20
917.7001022559
 10
1556.4489916676
 20
919.2820615342
 10
1555.0039561313
 20
920.9640738621
 10
1553.882412056
 20
922.7264191829
 10
1553.0975085205
 20
924.548435609
 10
1552.6584478011
 20
926.4087616639
 10
1552.5703774834
 20
928.2855867252
 10
1552.5799874838
 20
928.4585074942
  0
LWPOLYLINE
  5
1A1
330
1F
100
AcDbEntity
  8
0
  6
Continuous
 62
     7
370
    15
100
AcDbPolyline
 90
        9
 70
   128
 43
0.0
 10
1612.6120081258
 20
928.4585074942
 10
1612.6216181262
 20
927.3464855582
 10
1612.3576654984
 20
925.4751655481
 10
1611.7447845282
 20
923.6312901054
 10
1610.7901606847
 20
921.8364769839
 10
1609.5049860596
 20
920.1117687263
 10
1607.9043281503
 20
918.4773859601
 10
1606.0069532073
 20
916.9524903288
 10
1603.8351062171
 20
915.5549598396
  0
LWPOLYLINE
  5
1A2
330
1F
100
AcDbEntity
  8
0
  6
Continuous
 62
     7
370
    15
100
AcDbPolyline
 90
       33
 70
   128
 43
0.0
 10
1612.4888757746
 20
929.849073543
 10
1612.4970334916
 20
929.7923894307
 10
1612.5849963915
 20
927.9178535007
 10
1612.3213657022
 20
926.0488159076
 10
1611.7092322524
 20
924.2071894082
 10
1610.7557727472
 20
922.4145653895
 10
1609.4721656276
 20
920.691960729
 10
1607.8734600133
 20
919.0595713915
 10
1605.9783992661
 20
917.5365356493
 10
1603.8092012404
 20
916.1407097041
 10
1601.3912977999
 20
914.8884583388
 10
1598.7530366516
 20
913.7944630558
 10
1595.9253489954
 20
912.8715499494
 10
1592.9413868836
 20
912.1305393321
 10
1589.8361345438
 20
911.5801188758
 10
1586.6459982204
 20
911.2267417571
 10
1583.4083793451
 20
911.0745509996
 10
1580.161236039
 20
911.1253309008
 10
1576.9426380884
 20
911.3784861128
 10
1573.7903206117
 20
911.8310486223
 10
1570.7412416489
 20
912.4777125474
 10
1567.8311488631
 20
913.3108963451
 10
1565.0941604316
 20
914.320831697
 10
1562.5623650411
 20
915.4956780345
 10
1560.2654456779
 20
916.8216613586
 10
1558.2303316214
 20
918.283235727
 10
1556.4808827231
 20
919.8632655166
 10
1555.0376096719
 20
921.5432263229
 10
1553.9174335246
 20
923.3034221413
 10
1553.1334873225
 20
925.1232162852
 10
1552.694962118
 20
926.9812733322
 10
1552.6069992181
 20
928.8558092622
 10
1552.703119835
 20
929.849073543
  0
ARC
  5
1A3
330
1F
100
AcDbEntity
  8
0
  6
Continuous
 62
     7
370
    15
100
AcDbCircle
 10
1277.81013416
 20
1013.4037128858
 30
0.0
 40
2.514696392468675
100
AcDbArc
 50
185.6947992512
 51
245.6253417064
  0
LINE
  5
1A4
330
1F
100
AcDbEntity
  8
0
  6
Continuous
 62
     7
370
    15
100
AcDbLine
 10
1276.7723149416
 20
1011.1131607218
 30
0.0
 11
1623.254637723
 21
811.0931733252
 31
0.0
  0
ARC
  5
1A5
330
1F
100
AcDbEntity
  8
0
  6
Continuous
 62
     7
370
    15
100
AcDbCircle
 10
1626.790171629
 20
817.91672875
 30
0.0
 40
7.685109539559414
100
AcDbArc
 50
242.6096722366
 51
297.3903277634
  0
LINE
  5
1A6
330
1F
100
AcDbEntity
  8
0
  6
Continuous
 62
     7
370
    15
100
AcDbLine
 10
1630.3257055349
 20
811.0931733252
 30
0.0
 11
1888.419680668
 21
960.0876537328
 31
0.0
  0
ARC
  5
1A7
330
1F
100
AcDbEntity
  8
0
  6
Continuous
 62
     7
370
    15
100
AcDbCircle
 10
1887.3818614496
 20
962.3782058969
 30
0.0
 40
2.514696392468206
100
AcDbArc
 50
294.3746582936
 51
354.3052007488
  0
LWPOLYLINE
  5
1A8
330
1F
100
AcDbEntity
  8
0
  6
Continuous
 62
     7
370
    15
100
AcDbPolyline
 90
       11
 70
   128
 43
0.0
 10
1895.4907484798
 20
956.0056131737
 10
1897.0194016777
 20
957.03885596
 10
1898.2492446249
 20
958.1974269589
 10
1899.1499945065
 20
959.4527983072
 10
1899.699471871
 20
960.7740585962
 10
1899.884146762
 20
962.1286740124
 10
1899.699471871
 20
963.4832894286
 10
1899.1499945065
 20
964.8045497176
 10
1898.2492446249
 20
966.059921066
 10
1897.0194016777
 20
967.2184920648
 10
1895.4907484798
 20
968.2517348511
  0
LINE
  5
1A9
330
1F
100
AcDbEntity
  8
0
  6
Continuous
 62
     7
370
    15
100
AcDbLine
 10
1637.3967733468
 20
807.0111327661
 30
0.0
 11
1895.4907484798
 21
956.0056131737
 31
0.0
  0
ARC
  5
1AA
330
1F
100
AcDbEntity
  8
0
  6
Continuous
 62
     7
370
    15
100
AcDbCircle
 10
1626.790171629
 20
827.2919655062
 30
0.0
 40
22.88694336589543
100
AcDbArc
 50
242.3910402158
 51
297.6089597842
  0
LINE
  5
1AB
330
1F
100
AcDbEntity
  8
0
  6
Continuous
 62
     7
370
    15
100
AcDbLine
 10
1269.7012471298
 20
1007.0311201627
 30
0.0
 11
1616.1835699112
 21
807.0111327661
 31
0.0
  0
LWPOLYLINE
  5
1AC
330
1F
100
AcDbEntity
  8
0
  6
Continuous
 62
     7
370
    15
100
AcDbPolyline
 90
       11
 70
   128
 43
0.0
 10
1269.7012471298
 20
1019.27724184
 10
1268.1725939319
 20
1018.2439990537
 10
1266.9427509847
 20
1017.0854280549
 10
1266.0420011031
 20
1015.8300567065
 10
1265.4925237386
 20
1014.5087964175
 10
1265.3078488475
 20
1013.1541810013
 10
1265.4925237386
 20
1011.7995655851
 10
1266.0420011031
 20
1010.4783052961
 10
1266.9427509847
 20
1009.2229339478
 10
1268.1725939319
 20
1008.0643629489
 10
1269.7012471298
 20
1007.0311201627
  0
LINE
  5
1AD
330
1F
100
AcDbEntity
  8
0
  6
Continuous
 62
     7
370
    15
100
AcDbLine
 10
1275.3078488476
 20
1022.5138641182
 30
0.0
 11
1269.7012471298
 21
1019.27724184
 31
0.0
  0
LINE
  5
1AE
330
1F
100
AcDbEntity
  8
0
  6
Continuous
 62
     7
370
    15
100
AcDbLine
 10
1895.4907484798
 20
968.2517348511
 30
0.0
 11
1889.884146762
 21
971.4883571293
 31
0.0
  0
LINE
  5
1AF
330
1F
100
AcDbEntity
  8
0
  6
Continuous
 62
     7
370
    15
100
AcDbLine
 10
1637.3967733468
 20
807.0111327661
 30
0.0
 11
1637.3967733468
 21
804.5615103304
 31
0.0
  0
ARC
  5
1B0
330
1F
100
AcDbEntity
  8
0
  6
Continuous
 62
     7
370
    15
100
AcDbCircle
 10
1626.790171629
 20
824.8423430706
 30
0.0
 40
22.88694336589402
100
AcDbArc
 50
242.3910402158
 51
297.6089597842
  0
LINE
  5
1B1
330
1F
100
AcDbEntity
  8
0
  6
Continuous
 62
     7
370
    15
100
AcDbLine
 10
1616.1835699112
 20
804.5615103304
 30
0.0
 11
1616.1835699112
 21
807.0111327661
 31
0.0
  0
LINE
  5
1B2
330
1F
100
AcDbEntity
  8
0
  6
Continuous
 62
     7
370
    15
100
AcDbLine
 10
1895.4907484798
 20
953.5559907381
 30
0.0
 11
1895.4907484798
 21
956.0056131737
 31
0.0
  0
LINE
  5
1B3
330
1F
100
AcDbEntity
  8
0
  6
Continuous
 62
     7
370
    15
100
AcDbLine
 10
1637.3967733468
 20
804.5615103304
 30
0.0
 11
1895.4907484798
 21
953.5559907381
 31
0.0
  0
LINE
  5
1B4
330
1F
100
AcDbEntity
  8
0
  6
Continuous
 62
     7
370
    15
100
AcDbLine
 10
1269.7012471298
 20
1007.0311201627
 30
0.0
 11
1269.7012471298
 21
1004.581497727
 31
0.0
  0
LINE
  5
1B5
330
1F
100
AcDbEntity
  8
0
  6
Continuous
 62
     7
370
    15
100
AcDbLine
 10
1269.7012471298
 20
1004.581497727
 30
0.0
 11
1616.1835699112
 21
804.5615103304
 31
0.0
  0
ARC
  5
1B6
330
1F
100
AcDbEntity
  8
0
  6
Continuous
 62
     7
370
    15
100
AcDbCircle
 10
1892.2701710185
 20
960.5045074779
 30
0.0
 40
7.658590214178359
100
AcDbArc
 50
294.86731528
 51
353.8125437624
  0
ARC
  5
1B7
330
1F
100
AcDbEntity
  8
0
  6
Continuous
 62
     7
370
    15
100
AcDbCircle
 10
1272.7509531653
 20
1011.4074113687
 30
0.0
 40
7.476215884244828
100
AcDbArc
 50
185.3944478058
 51
245.9256931518
  0
LWPOLYLINE
  5
1B8
330
1F
100
AcDbEntity
  8
0
  6
Continuous
 62
     7
370
    15
100
AcDbPolyline
 90
       53
 70
   128
 43
0.0
 10
1556.6759322003
 20
949.5675124311
 10
1554.4387791343
 20
948.3713487628
 10
1551.8897634033
 20
946.7526271694
 10
1549.618828086
 20
945.0013588355
 10
1547.6465391243
 20
943.1334035183
 10
1545.9907578725
 20
941.1656777105
 10
1544.666479342
 20
939.1160014415
 10
1543.6856964042
 20
937.0029368972
 10
1543.0572911813
 20
934.8456203172
 10
1542.7869546084
 20
932.6635886946
 10
1542.8771348951
 20
930.4766028457
 10
1543.327015355
 20
928.3044684529
 10
1544.132521801
 20
926.1668567017
 10
1545.2863594418
 20
924.0831261351
 10
1546.7780789452
 20
922.0721473398
 10
1548.5941710683
 20
920.1521320512
 10
1550.7181889997
 20
918.340468225
 10
1553.130897304
 20
916.6535625694
 10
1555.8104461212
 20
915.1066919633
 10
1558.7325690423
 20
913.7138651064
 10
1561.8708028696
 20
912.4876956544
 10
1565.1967272717
 20
911.4392879877
 10
1568.680222162
 20
910.5781366485
 10
1572.2897404715
 20
909.9120403567
 10
1575.9925938433
 20
909.4470313834
 10
1579.755248664
 20
909.187320922
 10
1583.5436297488
 20
909.1352609506
 10
1587.3234289319
 20
909.2913229323
 10
1591.0604157668
 20
909.6540935457
 10
1594.7207475218
 20
910.2202874839
 10
1598.2712756658
 20
910.984777207
 10
1601.6798460661
 20
911.9406393775
 10
1604.9155901814
 20
913.0792175598
 10
1607.9492046118
 20
914.3902006134
 10
1610.7532164753
 20
915.8617160728
 10
1613.3022322063
 20
917.4804376662
 10
1615.5731675236
 20
919.2317060001
 10
1617.5454564853
 20
921.0996613172
 10
1619.2012377371
 20
923.0673871251
 10
1620.5255162676
 20
925.1170633941
 10
1621.5062992054
 20
927.2301279384
 10
1622.1347044283
 20
929.3874445184
 10
1622.4050410012
 20
931.569476141
 10
1622.3148607145
 20
933.7564619899
 10
1621.8649802546
 20
935.9285963827
 10
1621.0594738086
 20
938.0662081339
 10
1619.9056361678
 20
940.1499387005
 10
1618.4139166644
 20
942.1609174958
 10
1616.5978245413
 20
944.0809327844
 10
1614.4738066099
 20
945.8925966106
 10
1612.0610983056
 20
947.5795022662
 10
1609.3815494884
 20
949.1263728723
 10
1608.9405497599
 20
949.3543716188
  0
LWPOLYLINE
  5
1B9
330
1F
100
AcDbEntity
  8
0
  6
Continuous
 62
     7
370
    15
100
AcDbPolyline
 90
       41
 70
   128
 43
0.0
 10
1551.0959978048
 20
938.557264142
 10
1550.6539923237
 20
937.9480842296
 10
1549.5270490437
 20
936.0447767736
 10
1548.7394379274
 20
934.0854174461
 10
1548.2992409308
 20
932.0901119251
 10
1548.2109750706
 20
930.0793347454
 10
1548.475546074
 20
928.0737192019
 10
1549.0902390845
 20
926.0938456241
 10
1550.0487465201
 20
924.1600301941
 10
1551.3412327972
 20
922.2921164751
 10
1552.9544352578
 20
920.5092717895
 10
1554.8718002616
 20
918.8297905364
 10
1557.073653049
 20
917.2709064661
 10
1559.5373996309
 20
915.8486158387
 10
1562.2377586333
 20
914.5775132807
 10
1565.1470207187
 20
913.4706420244
 10
1568.2353329212
 20
912.5393600668
 10
1571.4710049785
 20
911.7932236209
 10
1574.8208345168
 20
911.2398890564
 10
1578.2504477518
 20
910.8850343348
 10
1581.7246522109
 20
910.7323007455
 10
1585.2077978549
 20
910.783255542
 10
1588.664142896
 20
911.0373758591
 10
1592.058220557
 20
911.4920540784
 10
1595.3552030081
 20
912.1426245861
 10
1598.5212587479
 20
912.9824116485
 10
1601.52389976
 20
914.0027979139
 10
1604.3323148846
 20
915.1933128384
 10
1606.917685982
 20
916.5417401279
 10
1609.2534836462
 20
918.0342430936
 10
1611.3157394323
 20
919.6555066354
 10
1613.0832918053
 20
921.3888943956
 10
1614.5380032859
 20
923.2166194699
 10
1615.6649465659
 20
925.1199269259
 10
1616.4525576822
 20
927.0792862535
 10
1616.8927546788
 20
929.0745917744
 10
1616.981020539
 20
931.0853689541
 10
1616.7164495356
 20
933.0909844976
 10
1616.1017565251
 20
935.0708580754
 10
1615.1432490895
 20
937.0046735054
 10
1614.0959978048
 20
938.557264142
  0
ARC
  5
1BA
330
1F
100
AcDbEntity
  8
0
  6
Continuous
 62
     7
370
    15
100
AcDbCircle
 10
1626.790171629
 20
841.7947333749
 30
0.0
 40
5.379576677692089
100
AcDbArc
 50
242.6096722366
 51
297.3903277634
  0
ARC
  5
1BB
330
1F
100
AcDbEntity
  8
0
  6
Continuous
 62
     7
370
    15
100
AcDbCircle
 10
1628.0228813828
 20
835.0763359974
 30
0.0
 40
2.305207211358313
100
AcDbArc
 50
2.6054784856
 51
57.39452166
  0
ARC
  5
1BC
330
1F
100
AcDbEntity
  8
0
  6
Continuous
 62
     7
370
    15
100
AcDbCircle
 10
1626.790171629
 20
842.0046827006
 30
0.0
 40
7.685109539558602
100
AcDbArc
 50
242.6096722366
 51
297.3903277634
  0
ARC
  5
1BD
330
1F
100
AcDbEntity
  8
0
  6
Continuous
 62
     7
370
    15
100
AcDbCircle
 10
1625.5574618751
 20
835.0763359974
 30
0.0
 40
2.30520721135785
100
AcDbArc
 50
122.60547834
 51
177.3945215144
  0
ARC
  5
1BE
330
1F
100
AcDbEntity
  8
0
  6
Continuous
 62
     7
370
    15
100
AcDbCircle
 10
1626.790171629
 20
765.6581167893
 30
0.0
 40
7.685109539558304
100
AcDbArc
 50
242.6096722366
 51
297.3903277634
  0
LINE
  5
1BF
330
1F
100
AcDbEntity
  8
0
  6
Continuous
 62
     7
370
    15
100
AcDbLine
 10
1629.2650453631
 20
837.0182445775
 30
0.0
 11
1887.3590204962
 21
986.0127249852
 31
0.0
  0
ARC
  5
1C0
330
1F
100
AcDbEntity
  8
0
  6
Continuous
 62
     7
370
    15
100
AcDbCircle
 10
1886.1168565159
 20
984.0708164051
 30
0.0
 40
2.305207211356206
100
AcDbArc
 50
2.6054784856
 51
57.39452166
  0
LINE
  5
1C1
330
1F
100
AcDbEntity
  8
0
  6
Continuous
 62
     7
370
    15
100
AcDbLine
 10
1888.419680668
 20
984.1756076835
 30
0.0
 11
1630.3257055349
 21
835.1811272758
 31
0.0
  0
ARC
  5
1C2
330
1F
100
AcDbEntity
  8
0
  6
Continuous
 62
     7
370
    15
100
AcDbCircle
 10
1279.0751390937
 20
1035.096323394
 30
0.0
 40
2.305207211357919
100
AcDbArc
 50
122.60547834
 51
177.3945215143
  0
LINE
  5
1C3
330
1F
100
AcDbEntity
  8
0
  6
Continuous
 62
     7
370
    15
100
AcDbLine
 10
1277.8329751134
 20
1037.0382319741
 30
0.0
 11
1624.3152978948
 21
837.0182445775
 31
0.0
  0
LINE
  5
1C4
330
1F
100
AcDbEntity
  8
0
  6
Continuous
 62
     7
370
    15
100
AcDbLine
 10
1623.254637723
 20
835.1811272758
 30
0.0
 11
1276.7723149416
 21
1035.2011146724
 31
0.0
  0
LINE
  5
1C5
330
1F
100
AcDbEntity
  8
0
  6
Continuous
 62
     7
370
    15
100
AcDbLine
 10
1630.3257055349
 20
758.8345613645
 30
0.0
 11
1888.419680668
 21
907.8290417722
 31
0.0
  0
LINE
  5
1C6
330
1F
100
AcDbEntity
  8
0
  6
Continuous
 62
     7
370
    15
100
AcDbLine
 10
1276.7723149416
 20
958.8545487611
 30
0.0
 11
1623.254637723
 21
758.8345613645
 31
0.0
  0
SPLINE
  5
1C7
330
1F
100
AcDbEntity
  8
0
  6
Continuous
 62
     7
370
    15
100
AcDbSpline
210
0.0
220
0.0
230
1.0
 70
     8
 71
     3
 72
    15
 73
    11
 74
     0
 42
0.00000001
 43
0.00000001
 12
1.0
 22
0.0
 32
0.0
 13
1.0
 23
0.0
 33
0.0
 40
0.0
 40
0.0
 40
0.0
 40
0.0
 40
0.1249999999999999
 40
0.2499999999999999
 40
0.3749999999999998
 40
0.4999999999999998
 40
0.6249999999999999
 40
0.7499999999999999
 40
0.8749999999999998
 40
1.0
 40
1.0
 40
1.0
 40
1.0
 10
1622.015002148476
 20
928.7423773965759
 30
0.0
 10
1621.607389300692
 20
927.5404332751217
 30
0.0
 10
1620.792163605124
 20
925.1365450322136
 30
0.0
 10
1618.330772628899
 20
921.7310375715252
 30
0.0
 10
1615.033609094167
 20
918.5829738330548
 30
0.0
 10
1610.893013109355
 20
915.7811330746164
 30
0.0
 10
1606.039556678911
 20
913.390817891874
 30
0.0
 10
1600.58635947314
 20
911.4874058985366
 30
0.0
 10
1594.687208340362
 20
910.0664751333237
 30
0.0
 10
1590.523100578179
 20
909.5958553566961
 30
0.0
 10
1588.441046697088
 20
909.3605454683824
 30
0.0
  0
SPLINE
  5
1C8
330
1F
100
AcDbEntity
  8
0
  6
Continuous
 62
     7
370
    15
100
AcDbSpline
210
0.0
220
0.0
230
1.0
 70
     8
 71
     3
 72
    18
 73
    14
 74
     0
 42
0.00000001
 43
0.00000001
 12
1.0
 22
0.0
 32
0.0
 13
1.0
 23
0.0
 33
0.0
 40
0.0
 40
0.0
 40
0.0
 40
0.0
 40
0.0891573914989463
 40
0.1809034967744872
 40
0.2700606133651897
 40
0.3618046459276017
 40
0.450957854229521
 40
0.54269230726447
 40
0.631924089162912
 40
0.7237456222164427
 40
0.8129366388947119
 40
0.9047143326952856
 40
1.0
 40
1.0
 40
1.0
 40
1.0
 10
1543.188343811164
 20
935.4899569322894
 30
0.0
 10
1542.970344139816
 20
934.220117651538
 30
0.0
 10
1542.528015105966
 20
931.6435688946997
 30
0.0
 10
1543.295962638224
 20
927.7840837736601
 30
0.0
 10
1545.109137829858
 20
924.0198784050998
 30
0.0
 10
1547.987570131539
 20
920.5171225720848
 30
0.0
 10
1551.872452805272
 20
917.313943854947
 30
0.0
 10
1556.592604127124
 20
914.5565772352995
 30
0.0
 10
1562.098239676147
 20
912.274947999194
 30
0.0
 10
1568.136260028398
 20
910.5712917523682
 30
0.0
 10
1574.638618183045
 20
909.480861622957
 30
0.0
 10
1581.468728590435
 20
908.9808561476606
 30
0.0
 10
1586.086951868522
 20
909.2367510525506
 30
0.0
 10
1588.439365960809
 20
909.3670978859885
 30
0.0
  0
SPLINE
  5
1C9
330
1F
100
AcDbEntity
  8
0
  6
Continuous
 62
     7
370
    15
100
AcDbSpline
210
0.0
220
0.0
230
1.0
 70
     8
 71
     3
 72
    13
 73
     9
 74
     0
 42
0.00000001
 43
0.00000001
 12
1.0
 22
0.0
 32
0.0
 13
1.0
 23
0.0
 33
0.0
 40
0.0
 40
0.0
 40
0.0
 40
0.0
 40
0.1649335365367697
 40
0.334655971796088
 40
0.4995889997761571
 40
0.6693076006937484
 40
0.8342333986743805
 40
1.0
 40
1.0
 40
1.0
 40
1.0
 10
1622.003651798435
 20
928.743347664977
 30
0.0
 10
1622.221706559612
 20
930.0132238631984
 30
0.0
 10
1622.664147372674
 20
932.5898475268871
 30
0.0
 10
1621.895350960784
 20
936.4487637863363
 30
0.0
 10
1620.085362792316
 20
940.2151048817974
 30
0.0
 10
1617.19487766886
 20
943.7097837306272
 30
0.0
 10
1613.384407316384
 20
946.9175329104627
 30
0.0
 10
1610.157963130626
 20
948.6721772755251
 30
0.0
 10
1608.540639333158
 20
949.5517300972463
 30
0.0
  0
ARC
  5
1CA
330
1F
100
AcDbEntity
  8
0
  6
Continuous
 62
     7
370
    15
100
AcDbCircle
 10
1886.8167759024
 20
987.4414391809
 30
0.0
 40
1.528153608920266
100
AcDbArc
 50
290.7834207995
 51
69.2165792005
  0
ARC
  5
1CB
330
1F
100
AcDbEntity
  8
0
  6
Continuous
 62
     7
370
    15
100
AcDbCircle
 10
1888.6011844765
 20
986.9282447965
 30
0.0
 40
2.30520721135855
100
AcDbArc
 50
122.60547834
 51
177.3945215143
  0
LINE
  5
1CC
330
1F
100
AcDbEntity
  8
0
  6
Continuous
 62
     7
370
    15
100
AcDbLine
 10
1886.2983603244
 20
987.0330360749
 30
0.0
 11
1539.816037543
 21
1187.0530234714
 31
0.0
  0
ARC
  5
1CD
330
1F
100
AcDbEntity
  8
0
  6
Continuous
 62
     7
370
    15
100
AcDbCircle
 10
1542.1188616951
 20
1186.948232193
 30
0.0
 40
2.305207211358409
100
AcDbArc
 50
122.60547834
 51
177.3945215143
  0
LINE
  5
1CE
330
1F
100
AcDbEntity
  8
0
  6
Continuous
 62
     7
370
    15
100
AcDbLine
 10
1887.3590204962
 20
988.8701533766
 30
0.0
 11
1540.8766977148
 21
1188.8901407731
 31
0.0
  0
LINE
  5
1CF
330
1F
100
AcDbEntity
  8
0
  6
Continuous
 62
     7
370
    15
100
AcDbLine
 10
1539.816037543
 20
1187.0530234714
 30
0.0
 11
1539.816037543
 21
1110.7064575601
 31
0.0
  0
SPLINE
  5
1D0
330
1F
100
AcDbEntity
  8
0
  6
Continuous
 62
     7
370
    15
100
AcDbSpline
210
0.0
220
0.0
230
1.0
 70
     8
 71
     3
 72
    12
 73
     8
 74
     0
 42
0.00000001
 43
0.00000001
 12
1.0
 22
0.0
 32
0.0
 13
1.0
 23
0.0
 33
0.0
 40
0.0
 40
0.0
 40
0.0
 40
0.0
 40
0.2250564712797563
 40
0.4501129425595125
 40
0.6751694138392694
 40
0.9002258851190256
 40
1.0
 40
1.0
 40
1.0
 40
1.0
 10
1543.176993461123
 20
935.4909272006907
 30
0.0
 10
1543.585134160779
 20
936.6925133067759
 30
0.0
 10
1544.401415560091
 20
939.0956855189461
 30
0.0
 10
1546.854888758235
 20
942.5065632101682
 30
0.0
 10
1550.182139849673
 20
945.6342200726103
 30
0.0
 10
1553.462849769786
 20
947.9782671005294
 30
0.0
 10
1555.833079844346
 20
949.0947691682246
 30
0.0
 10
1556.561113526607
 20
949.43771102873
 30
0.0
  0
ARC
  5
1D1
330
1F
100
AcDbEntity
  8
0
  6
Continuous
 62
     7
370
    15
100
AcDbCircle
 10
1536.7456053403
 20
1110.8461792646
 30
0.0
 40
3.073609615144334
100
AcDbArc
 50
302.60547834
 51
357.3945215144
  0
ARC
  5
1D2
330
1F
100
AcDbEntity
  8
0
  6
Continuous
 62
     7
370
    15
100
AcDbCircle
 10
1278.3752197072
 20
1038.4669461698
 30
0.0
 40
1.528153608919892
100
AcDbArc
 50
110.7834207995
 51
249.2165792005
  0
ARC
  5
1D3
330
1F
100
AcDbEntity
  8
0
  6
Continuous
 62
     7
370
    15
100
AcDbCircle
 10
1276.5908111331
 20
1037.9537517854
 30
0.0
 40
2.305207211357727
100
AcDbArc
 50
2.6054784856
 51
57.39452166
  0
LINE
  5
1D4
330
1F
100
AcDbEntity
  8
0
  6
Continuous
 62
     7
370
    15
100
AcDbLine
 10
1535.9269502465
 20
1188.8901407731
 30
0.0
 11
1277.8329751134
 21
1039.8956603655
 31
0.0
  0
ARC
  5
1D5
330
1F
100
AcDbEntity
  8
0
  6
Continuous
 62
     7
370
    15
100
AcDbCircle
 10
1534.6847862662
 20
1186.948232193
 30
0.0
 40
2.305207211358738
100
AcDbArc
 50
2.6054784857
 51
57.39452166
  0
LINE
  5
1D6
330
1F
100
AcDbEntity
  8
0
  6
Continuous
 62
     7
370
    15
100
AcDbLine
 10
1536.9876104183
 20
1187.0530234714
 30
0.0
 11
1278.8936352852
 21
1038.0585430638
 31
0.0
  0
LINE
  5
1D7
330
1F
100
AcDbEntity
  8
0
  6
Continuous
 62
     7
370
    15
100
AcDbLine
 10
1536.9876104183
 20
1187.0530234714
 30
0.0
 11
1536.9876104183
 21
1110.7064575601
 31
0.0
  0
ARC
  5
1D8
330
1F
100
AcDbEntity
  8
0
  6
Continuous
 62
     7
370
    15
100
AcDbCircle
 10
1540.058042621
 20
1110.8461792646
 30
0.0
 40
3.073609615145046
100
AcDbArc
 50
182.6054784857
 51
237.39452166
  0
ARC
  5
1D9
330
1F
100
AcDbEntity
  8
0
  6
Continuous
 62
     7
370
    15
100
AcDbCircle
 10
1538.4018239806
 20
1184.1136519758
 30
0.0
 40
5.379576677690568
100
AcDbArc
 50
62.6096722366
 51
117.3903277634
  0
ARC
  5
1DA
330
1F
100
AcDbEntity
  8
0
  6
Continuous
 62
     7
370
    15
100
AcDbCircle
 10
1538.4018239806
 20
1184.3236013015
 30
0.0
 40
3.074043815825666
100
AcDbArc
 50
62.6096722366
 51
117.3903277634
  0
ARC
  5
1DB
330
1F
100
AcDbEntity
  8
0
  6
Continuous
 62
     7
370
    15
100
AcDbCircle
 10
1538.4018239806
 20
1107.9770353902
 30
0.0
 40
3.074043815822234
100
AcDbArc
 50
62.6096722366
 51
117.3903277634
  0
LWPOLYLINE
  5
1DC
330
1F
100
AcDbEntity
  8
0
  6
Continuous
 62
     8
370
    15
100
AcDbPolyline
 90
       23
 70
   128
 43
0.0
 10
1556.0047153416
 20
929.2070524773
 10
1557.9502846316
 20
927.6305866864
 10
1560.1750996998
 20
926.1824357625
 10
1562.6539525025
 20
924.879007834
 10
1565.3587566469
 20
923.7350712603
 10
1568.2588656213
 20
922.7635872999
 10
1571.3214200321
 20
921.9755632542
 10
1574.5117199142
 20
921.3799277505
 10
1577.7936178951
 20
920.983429577
 10
1581.1299287594
 20
920.7905612167
 10
1584.4828507717
 20
920.8035079449
 10
1587.8143939859
 20
921.0221230701
 10
1591.0868106863
 20
921.4439295956
 10
1594.2630230839
 20
922.064148285
 10
1597.3070434233
 20
922.8757518125
 10
1600.1843817375
 20
923.869544386
 10
1602.8624366338
 20
925.0342659385
 10
1605.3108646802
 20
926.3567197095
 10
1607.5019242084
 20
927.8219217692
 10
1609.4107896386
 20
929.4132707928
 10
1611.0158327626
 20
931.1127361602
 10
1612.2988678006
 20
932.9010622494
 10
1613.0208676066
 20
934.2450442217
  0
ARC
  5
1DD
330
1F
100
AcDbEntity
  8
0
  6
Continuous
 62
     8
370
    15
100
AcDbCircle
 10
1566.5273844381
 20
941.1893968166
 30
0.0
 40
15.94688498674338
100
AcDbArc
 50
205.6520049265
 51
228.7110064202
  0
LINE
  5
1DE
330
1F
100
AcDbEntity
  8
0
  6
Continuous
 62
     8
370
    15
100
AcDbLine
 10
1595.9443696585
 20
919.1121798627
 30
0.0
 11
1595.9443696585
 21
918.3176390769
 31
0.0
  0
LINE
  5
1DF
330
1F
100
AcDbEntity
  8
0
  6
Continuous
 62
     8
370
    15
100
AcDbLine
 10
1594.5641227703
 20
918.4954947858
 30
0.0
 11
1594.5641227703
 21
918.7623922268
 31
0.0
  0
ARC
  5
1E0
330
1F
100
AcDbEntity
  8
0
  6
Continuous
 62
     8
370
    15
100
AcDbCircle
 10
1595.832682529
 20
918.8884446985
 30
0.0
 40
0.5816296696600307
100
AcDbArc
 50
281.0709536285
 51
351.7481668049
  0
LWPOLYLINE
  5
1E1
330
1F
100
AcDbEntity
  8
0
  6
Continuous
 62
     8
370
    15
100
AcDbPolyline
 90
        6
 70
   128
 43
0.0
 10
1595.9443696585
 20
918.3176390769
 10
1595.9134678245
 20
917.8678330389
 10
1595.8219498626
 20
917.4914959782
 10
1595.6733327568
 20
917.2030903171
 10
1595.4733277792
 20
917.0136993233
 10
1595.3701463235
 20
916.9634535041
  0
ARC
  5
1E2
330
1F
100
AcDbEntity
  8
0
  6
Continuous
 62
     8
370
    15
100
AcDbCircle
 10
1563.0988912231
 20
922.5536974179
 30
0.0
 40
1.491280045381554
100
AcDbArc
 50
203.455331683
 51
227.4731598619
  0
ARC
  5
1E3
330
1F
100
AcDbEntity
  8
0
  6
Continuous
 62
     8
370
    15
100
AcDbCircle
 10
1590.5269673132
 20
933.5381247989
 30
0.0
 40
16.98399889528656
100
AcDbArc
 50
299.2369669293
 51
314.7962912023
  0
LWPOLYLINE
  5
1E4
330
1F
100
AcDbEntity
  8
0
  6
Continuous
 62
     8
370
    15
100
AcDbPolyline
 90
       15
 70
   128
 43
0.0
 10
1563.2905712107
 20
920.9236684608
 10
1563.6165566176
 20
920.6389371782
 10
1565.382815229
 20
919.3244259939
 10
1567.4205360122
 20
918.1480748251
 10
1569.6975828933
 20
917.1284354324
 10
1572.1780454827
 20
916.2815881381
 10
1574.8228054036
 20
915.6208882301
 10
1577.5901532121
 20
915.1567553403
 10
1580.4364461802
 20
914.896509122
 10
1583.3167965675
 20
914.8442538132
 10
1586.1857795277
 20
915.0008135116
 10
1588.9981494857
 20
915.3637191771
 10
1591.7095536872
 20
915.9272475705
 10
1594.2772316683
 20
916.6825115126
 10
1594.6797811296
 20
916.8231804663
  0
LWPOLYLINE
  5
1E5
330
1F
100
AcDbEntity
  8
0
  6
Continuous
 62
     8
370
    15
100
AcDbPolyline
 90
        3
 70
   128
 43
0.0
 10
1596.0141724635
 20
917.3384715098
 10
1596.6606896134
 20
917.6176000397
 10
1598.8223389667
 20
918.7177662471
  0
LINE
  5
1E6
330
1F
100
AcDbEntity
  8
0
  6
Continuous
 62
     8
370
    15
100
AcDbLine
 10
1623.254637723
 20
835.1811272758
 30
0.0
 11
1623.254637723
 21
811.0931733252
 31
0.0
  0
LINE
  5
1E7
330
1F
100
AcDbEntity
  8
0
  6
Continuous
 62
     8
370
    15
100
AcDbLine
 10
1623.254637723
 20
802.2692289725
 30
0.0
 11
1623.254637723
 21
758.8345613645
 31
0.0
  0
LINE
  5
1E8
330
1F
100
AcDbEntity
  8
0
  6
Continuous
 62
     8
370
    15
100
AcDbLine
 10
1630.3257055349
 20
835.1811272758
 30
0.0
 11
1630.3257055349
 21
811.0931733252
 31
0.0
  0
LINE
  5
1E9
330
1F
100
AcDbEntity
  8
0
  6
Continuous
 62
     8
370
    15
100
AcDbLine
 10
1630.3257055349
 20
802.2692289725
 30
0.0
 11
1630.3257055349
 21
758.8345613645
 31
0.0
  0
ARC
  5
1EA
330
1F
100
AcDbEntity
  8
0
  6
Continuous
 62
     8
370
    15
100
AcDbCircle
 10
1628.8247027553
 20
836.4022418464
 30
0.0
 40
0.7572060333690748
100
AcDbArc
 50
54.44134691
 51
113.633621394
  0
ARC
  5
1EB
330
1F
100
AcDbEntity
  8
0
  6
Continuous
 62
     8
370
    15
100
AcDbCircle
 10
1624.7547372025
 20
836.4047576777
 30
0.0
 40
0.7546344024863979
100
AcDbArc
 50
65.7346130374
 51
125.6139413273
  0
LINE
  5
1EC
330
1F
100
AcDbEntity
  8
0
  6
Continuous
 62
     8
370
    15
100
AcDbLine
 10
1888.419680668
 20
984.1756076835
 30
0.0
 11
1888.419680668
 21
960.0876537328
 31
0.0
  0
LINE
  5
1ED
330
1F
100
AcDbEntity
  8
0
  6
Continuous
 62
     8
370
    15
100
AcDbLine
 10
1888.419680668
 20
949.473950179
 30
0.0
 11
1888.419680668
 21
907.8290417722
 31
0.0
  0
LINE
  5
1EE
330
1F
100
AcDbEntity
  8
0
  6
Continuous
 62
     8
370
    15
100
AcDbLine
 10
1276.7723149416
 20
1035.2011146724
 30
0.0
 11
1276.7723149416
 21
1011.1131607218
 31
0.0
  0
LINE
  5
1EF
330
1F
100
AcDbEntity
  8
0
  6
Continuous
 62
     8
370
    15
100
AcDbLine
 10
1276.7723149416
 20
1000.4994571679
 30
0.0
 11
1276.7723149416
 21
958.8545487611
 31
0.0
  0
ARC
  5
1F0
330
1F
100
AcDbEntity
  8
0
  6
Continuous
 62
     8
370
    15
100
AcDbCircle
 10
1886.9196404139
 20
985.3994029915
 30
0.0
 40
0.7544658538525038
100
AcDbArc
 50
54.3824225248
 51
114.3071190461
  0
ARC
  5
1F1
330
1F
100
AcDbEntity
  8
0
  6
Continuous
 62
     8
370
    15
100
AcDbCircle
 10
1278.2723551957
 20
1036.4249099804
 30
0.0
 40
0.7544658538521064
100
AcDbArc
 50
65.6928809539
 51
125.6175774752
  0
ARC
  5
1F2
330
1F
100
AcDbEntity
  8
0
  6
Continuous
 62
     8
370
    15
100
AcDbCircle
 10
1627.9472777552
 20
758.5317412216
 30
0.0
 40
2.397627732207012
100
AcDbArc
 50
304.0563508335
 51
7.2558295599
  0
ARC
  5
1F3
330
1F
100
AcDbEntity
  8
0
  6
Continuous
 62
     8
370
    15
100
AcDbCircle
 10
1625.6330655027
 20
758.5317412216
 30
0.0
 40
2.397627732206139
100
AcDbArc
 50
172.7441704401
 51
235.9436491665
  0
ARC
  5
1F4
330
1F
100
AcDbEntity
  8
0
  6
Continuous
 62
     8
370
    15
100
AcDbCircle
 10
1886.0412528888
 20
907.526221629
 30
0.0
 40
2.397627731697659
100
AcDbArc
 50
304.056350826
 51
7.2558295674
  0
ARC
  5
1F5
330
1F
100
AcDbEntity
  8
0
  6
Continuous
 62
     8
370
    15
100
AcDbCircle
 10
1279.1507427209
 20
958.551728618
 30
0.0
 40
2.397627731764427
100
AcDbArc
 50
172.7441704336
 51
235.943649173
  0
LWPOLYLINE
  5
1F6
330
1F
100
AcDbEntity
  8
0
  6
Continuous
 62
     8
370
    15
100
AcDbPolyline
 90
        5
 70
   128
 43
0.0
 10
1538.4084079295
 20
1105.7882183347
 10
1630.87577196
 20
1052.4066259569
 10
1723.3438654113
 20
999.025454656
 10
1801.975556635
 20
953.6329921114
 10
1816.1834692554
 20
945.4311465268
  0
LINE
  5
1F7
330
1F
100
AcDbEntity
  8
0
  6
Continuous
 62
     8
370
    15
100
AcDbLine
 10
1348.9940911758
 20
996.4649867668
 30
0.0
 11
1538.3807126303
 21
1105.7955561659
 31
0.0
  0
LINE
  5
1F8
330
1F
100
AcDbEntity
  8
0
  6
Continuous
 62
     8
370
    15
100
AcDbLine
 10
1538.4018239806
 20
1108.2569678245
 30
0.0
 11
1346.8727708322
 21
997.6895989345
 31
0.0
  0
LINE
  5
1F9
330
1F
100
AcDbEntity
  8
0
  6
Continuous
 62
     8
370
    15
100
AcDbLine
 10
1818.3192247774
 20
946.6640919456
 30
0.0
 11
1538.4018239806
 21
1108.2569678245
 31
0.0
  0
LWPOLYLINE
  5
1FA
330
1F
100
AcDbEntity
  8
0
  6
Continuous
 62
     8
370
    15
100
AcDbPolyline
 90
        4
 70
   128
 43
0.0
 10
1588.4410473816
 20
909.3606175837
 10
1588.4904352773
 20
909.170532712
 10
1598.0824795871
 20
872.2489479819
 10
1604.0653016223
 20
849.2155112693
  0
LWPOLYLINE
  5
1FB
330
1F
100
AcDbEntity
  8
0
  6
Continuous
 62
     8
370
    15
100
AcDbPolyline
 90
        4
 70
   128
 43
0.0
 10
1767.3135427195
 20
917.219138447
 10
1751.2706720408
 20
918.4912486143
 10
1622.3479151949
 20
928.7160398305
 10
1622.0150013682
 20
928.7424486663
  0
LWPOLYLINE
  5
1FC
330
1F
100
AcDbEntity
  8
0
  6
Continuous
 62
     8
370
    15
100
AcDbPolyline
 90
        3
 70
   128
 43
0.0
 10
1437.8394526525
 20
945.1756513105
 10
1542.8440804148
 20
935.5216124756
 10
1543.1769942414
 20
935.4909992607
  0
LWPOLYLINE
  5
1FD
330
1F
100
AcDbEntity
  8
0
  6
Continuous
 62
     8
370
    15
100
AcDbPolyline
 90
        4
 70
   128
 43
0.0
 10
1538.4009156183
 20
1105.7837821333
 10
1547.9900369223
 20
1068.0452646439
 10
1557.5795154303
 20
1030.3067732651
 10
1576.1709783626
 20
957.1548044547
  0
ARC
  5
1FE
330
1F
100
AcDbEntity
  8
0
  6
Continuous
 62
     8
370
    15
100
AcDbCircle
 10
1887.7943340311
 20
988.2977656816
 30
0.0
 40
0.719114418565369
100
AcDbArc
 50
64.0395915573
 51
127.25379374
  0
ARC
  5
1FF
330
1F
100
AcDbEntity
  8
0
  6
Continuous
 62
     8
370
    15
100
AcDbCircle
 10
1887.3788117642
 20
986.4697635651
 30
0.0
 40
2.519237837884565
100
AcDbArc
 50
294.404010697
 51
353.9691408764
  0
ARC
  5
200
330
1F
100
AcDbEntity
  8
0
  6
Continuous
 62
     8
370
    15
100
AcDbCircle
 10
1887.3818614496
 20
910.1195939362
 30
0.0
 40
2.51469639246889
100
AcDbArc
 50
294.3746582936
 51
354.3052007488
  0
ARC
  5
201
330
1F
100
AcDbEntity
  8
0
  6
Continuous
 62
     8
370
    15
100
AcDbCircle
 10
1885.902598595
 20
986.1308750984
 30
0.0
 40
0.9851506351699441
100
AcDbArc
 50
4.9026264262
 51
66.3138062984
  0
LINE
  5
202
330
1F
100
AcDbEntity
  8
0
  6
Continuous
 62
     8
370
    15
100
AcDbLine
 10
1886.2983603244
 20
987.0330360749
 30
0.0
 11
1886.2983603244
 21
985.9076115751
 31
0.0
  0
LINE
  5
203
330
1F
100
AcDbEntity
  8
0
  6
Continuous
 62
     8
370
    15
100
AcDbLine
 10
1539.816037543
 20
1110.7064575601
 30
0.0
 11
1821.1478817703
 21
948.2970408693
 31
0.0
  0
ARC
  5
204
330
1F
100
AcDbEntity
  8
0
  6
Continuous
 62
     8
370
    15
100
AcDbCircle
 10
1541.3160777971
 20
1188.2768187794
 30
0.0
 40
0.7544658538532432
100
AcDbArc
 50
65.6928809539
 51
125.6175774752
  0
ARC
  5
205
330
1F
100
AcDbEntity
  8
0
  6
Continuous
 62
     8
370
    15
100
AcDbCircle
 10
1277.3935745749
 20
1039.2822814146
 30
0.0
 40
0.7545240689449452
100
AcDbArc
 50
54.3836785895
 51
114.292700602
  0
ARC
  5
206
330
1F
100
AcDbEntity
  8
0
  6
Continuous
 62
     8
370
    15
100
AcDbCircle
 10
1277.6960702286
 20
1037.4088667314
 30
0.0
 40
2.393218122986629
100
AcDbArc
 50
183.7178987968
 51
247.2948628085
  0
ARC
  5
207
330
1F
100
AcDbEntity
  8
0
  6
Continuous
 62
     8
370
    15
100
AcDbCircle
 10
1277.81013416
 20
961.1451009251
 30
0.0
 40
2.514696392468641
100
AcDbArc
 50
185.6947992512
 51
245.6253417064
  0
ARC
  5
208
330
1F
100
AcDbEntity
  8
0
  6
Continuous
 62
     8
370
    15
100
AcDbCircle
 10
1279.3091740293
 20
1037.1418364365
 30
0.0
 40
1.006490679683604
100
AcDbArc
 50
114.3845602314
 51
174.1916671732
  0
LINE
  5
209
330
1F
100
AcDbEntity
  8
0
  6
Continuous
 62
     8
370
    15
100
AcDbLine
 10
1278.8936352852
 20
1038.0585430638
 30
0.0
 11
1278.8936352852
 21
1036.933118564
 31
0.0
  0
LINE
  5
20A
330
1F
100
AcDbEntity
  8
0
  6
Continuous
 62
     8
370
    15
100
AcDbLine
 10
1344.0441138393
 20
999.3225478583
 30
0.0
 11
1536.9876104183
 21
1110.7064575601
 31
0.0
  0
ARC
  5
20B
330
1F
100
AcDbEntity
  8
0
  6
Continuous
 62
     8
370
    15
100
AcDbCircle
 10
1535.4875701642
 20
1188.2768187794
 30
0.0
 40
0.7544658538530583
100
AcDbArc
 50
54.3824225248
 51
114.3071190461
  0
ENDSEC
  0
SECTION
  2
OBJECTS
  0
DICTIONARY
  5
C
330
0
100
AcDbDictionary
281
     1
  3
ACAD_GROUP
350
D
  3
ACAD_LAYOUT
350
1A
  3
ACAD_MLINESTYLE
350
17
  3
ACAD_PLOTSETTINGS
350
19
  3
ACAD_PLOTSTYLENAME
350
E
  0
DICTIONARY
  5
D
102
{ACAD_REACTORS
330
C
102
}
330
C
100
AcDbDictionary
281
     1
  0
DICTIONARY
  5
1A
102
{ACAD_REACTORS
330
C
102
}
330
C
100
AcDbDictionary
281
     1
  3
Layout1
350
1E
  3
Layout2
350
26
  3
Model
350
22
  0
DICTIONARY
  5
17
102
{ACAD_REACTORS
330
C
102
}
330
C
100
AcDbDictionary
281
     1
  3
Standard
350
18
  0
DICTIONARY
  5
19
102
{ACAD_REACTORS
330
C
102
}
330
C
100
AcDbDictionary
281
     1
  0
ACDBDICTIONARYWDFLT
  5
E
102
{ACAD_REACTORS
330
C
102
}
330
C
100
AcDbDictionary
281
     1
  3
Normal
350
F
100
AcDbDictionaryWithDefault
340
F
  0
LAYOUT
  5
1E
102
{ACAD_REACTORS
330
1A
102
}
330
1A
100
AcDbPlotSettings
  1

  2
none_device
  4

  6

 40
0.0
 41
0.0
 42
0.0
 43
0.0
 44
0.0
 45
0.0
 46
0.0
 47
0.0
 48
0.0
 49
0.0
140
0.0
141
0.0
142
1.0
143
1.0
 70
   688
 72
     0
 73
     0
 74
     5
  7

 75
    16
147
1.0
148
0.0
149
0.0
100
AcDbLayout
  1
Layout1
 70
     1
 71
     1
 10
0.0
 20
0.0
 11
420.0
 21
297.0
 12
0.0
 22
0.0
 32
0.0
 14
1.0000000000E+20
 24
1.0000000000E+20
 34
1.0000000000E+20
 15
-1.0000000000E+20
 25
-1.0000000000E+20
 35
-1.0000000000E+20
146
0.0
 13
0.0
 23
0.0
 33
0.0
 16
1.0
 26
0.0
 36
0.0
 17
0.0
 27
1.0
 37
0.0
 76
     0
330
1B
  0
LAYOUT
  5
26
102
{ACAD_REACTORS
330
1A
102
}
330
1A
100
AcDbPlotSettings
  1

  2
none_device
  4

  6

 40
0.0
 41
0.0
 42
0.0
 43
0.0
 44
0.0
 45
0.0
 46
0.0
 47
0.0
 48
0.0
 49
0.0
140
0.0
141
0.0
142
1.0
143
1.0
 70
   688
 72
     0
 73
     0
 74
     5
  7

 75
    16
147
1.0
148
0.0
149
0.0
100
AcDbLayout
  1
Layout2
 70
     1
 71
     2
 10
0.0
 20
0.0
 11
0.0
 21
0.0
 12
0.0
 22
0.0
 32
0.0
 14
0.0
 24
0.0
 34
0.0
 15
0.0
 25
0.0
 35
0.0
146
0.0
 13
0.0
 23
0.0
 33
0.0
 16
1.0
 26
0.0
 36
0.0
 17
0.0
 27
1.0
 37
0.0
 76
     0
330
23
  0
LAYOUT
  5
22
102
{ACAD_REACTORS
330
1A
102
}
330
1A
100
AcDbPlotSettings
  1

  2
none_device
  4

  6

 40
0.0
 41
0.0
 42
0.0
 43
0.0
 44
0.0
 45
0.0
 46
0.0
 47
0.0
 48
0.0
 49
0.0
140
0.0
141
0.0
142
1.0
143
1.0
 70
  1712
 72
     0
 73
     0
 74
     0
  7

 75
     0
147
1.0
148
0.0
149
0.0
100
AcDbLayout
  1
Model
 70
     1
 71
     0
 10
0.0
 20
0.0
 11
2100.0
 21
2970.0
 12
0.0
 22
0.0
 32
0.0
 14
0.0
 24
0.0
 34
0.0
 15
2100.0
 25
2970.0
 35
0.0
146
0.0
 13
0.0
 23
0.0
 33
0.0
 16
1.0
 26
0.0
 36
0.0
 17
0.0
 27
1.0
 37
0.0
 76
     0
330
1F
331
29
  0
MLINESTYLE
  5
18
102
{ACAD_REACTORS
330
17
102
}
330
17
100
AcDbMlineStyle
  2
Standard
 70
     0
  3

 62
   256
 51
90.0
 52
90.0
 71
     2
 49
0.5
 62
   256
  6
BYLAYER
 49
-0.5
 62
   256
  6
BYLAYER
  0
ACDBPLACEHOLDER
  5
F
102
{ACAD_REACTORS
330
E
102
}
330
E
  0
ENDSEC
  0
EOF
