  0
SECTION
  2
HEADER
  9
$ACADVER
  1
AC1032
  9
$ACADMAINTVER
 90
      174
  9
$DWGCODEPAGE
  3
ANSI_1252
  9
$LASTSAVEDBY
  1
pengb
  9
$REQUIREDVERSIONS
160
                 0
  9
$INSBASE
 10
0.0
 20
0.0
 30
0.0
  9
$EXTMIN
 10
-71.43768221074447
 20
-124.7032007476119
 30
-0.0015258207003583
  9
$EXTMAX
 10
560.1708995785691
 20
420.9554451717476
 30
0.0000000349246037
  9
$LIMMIN
 10
0.0
 20
0.0
  9
$LIMMAX
 10
420.0
 20
297.0
  9
$ORTHOMODE
 70
     0
  9
$REGENMODE
 70
     1
  9
$FILLMODE
 70
     1
  9
$QTEXTMODE
 70
     0
  9
$MIRRTEXT
 70
     1
  9
$LTSCALE
 40
1.0
  9
$ATTMODE
 70
     1
  9
$TEXTSIZE
 40
3.5
  9
$TRACEWID
 40
1.0
  9
$TEXTSTYLE
  7
Standard
  9
$CLAYER
  8
0
  9
$CELTYPE
  6
ByLayer
  9
$CECOLOR
 62
   256
  9
$CELTSCALE
 40
1.0
  9
$DISPSILH
 70
     0
  9
$DIMSCALE
 40
1.0
  9
$DIMASZ
 40
3.302
  9
$DIMEXO
 40
1.0
  9
$DIMDLI
 40
3.75
  9
$DIMRND
 40
0.0
  9
$DIMDLE
 40
0.0
  9
$DIMEXE
 40
1.0
  9
$DIMTP
 40
0.0
  9
$DIMTM
 40
0.0
  9
$DIMTXT
 40
3.5
  9
$DIMCEN
 40
2.5
  9
$DIMTSZ
 40
0.0
  9
$DIMTOL
 70
     0
  9
$DIMLIM
 70
     0
  9
$DIMTIH
 70
     1
  9
$DIMTOH
 70
     1
  9
$DIMSE1
 70
     0
  9
$DIMSE2
 70
     0
  9
$DIMTAD
 70
     1
  9
$DIMZIN
 70
     1
  9
$DIMBLK
  1

  9
$DIMASO
 70
     1
  9
$DIMSHO
 70
     1
  9
$DIMPOST
  1

  9
$DIMAPOST
  1

  9
$DIMALT
 70
     0
  9
$DIMALTD
 70
     3
  9
$DIMALTF
 40
0.0393700787
  9
$DIMLFAC
 40
5.0
  9
$DIMTOFL
 70
     1
  9
$DIMTVP
 40
0.0
  9
$DIMTIX
 70
     0
  9
$DIMSOXD
 70
     0
  9
$DIMSAH
 70
     0
  9
$DIMBLK1
  1

  9
$DIMBLK2
  1

  9
$DIMSTYLE
  2
ISO-25
  9
$DIMCLRD
 70
     0
  9
$DIMCLRE
 70
     0
  9
$DIMCLRT
 70
     0
  9
$DIMTFAC
 40
1.0
  9
$DIMGAP
 40
1.524
  9
$DIMJUST
 70
     0
  9
$DIMSD1
 70
     0
  9
$DIMSD2
 70
     0
  9
$DIMTOLJ
 70
     0
  9
$DIMTZIN
 70
     1
  9
$DIMALTZ
 70
     0
  9
$DIMALTTZ
 70
     0
  9
$DIMUPT
 70
     0
  9
$DIMDEC
 70
     2
  9
$DIMTDEC
 70
     2
  9
$DIMALTU
 70
     2
  9
$DIMALTTD
 70
     3
  9
$DIMTXSTY
  7
Standard
  9
$DIMAUNIT
 70
     0
  9
$DIMADEC
 70
     2
  9
$DIMALTRND
 40
0.0
  9
$DIMAZIN
 70
     0
  9
$DIMDSEP
 70
    44
  9
$DIMATFIT
 70
     3
  9
$DIMFRAC
 70
     0
  9
$DIMLDRBLK
  1

  9
$DIMLUNIT
 70
     2
  9
$DIMLWD
 70
    -2
  9
$DIMLWE
 70
    -2
  9
$DIMTMOVE
 70
     0
  9
$DIMFXL
 40
1.0
  9
$DIMFXLON
 70
     0
  9
$DIMJOGANG
 40
0.7853981633974483
  9
$DIMTFILL
 70
     0
  9
$DIMTFILLCLR
 70
     0
  9
$DIMARCSYM
 70
     0
  9
$DIMLTYPE
  6

  9
$DIMLTEX1
  6

  9
$DIMLTEX2
  6

  9
$DIMTXTDIRECTION
 70
     0
  9
$LUNITS
 70
     2
  9
$LUPREC
 70
     2
  9
$SKETCHINC
 40
1.0
  9
$FILLETRAD
 40
10.0
  9
$AUNITS
 70
     0
  9
$AUPREC
 70
     2
  9
$MENU
  1
.
  9
$ELEVATION
 40
0.0
  9
$PELEVATION
 40
0.0
  9
$THICKNESS
 40
0.0
  9
$LIMCHECK
 70
     0
  9
$CHAMFERA
 40
0.0
  9
$CHAMFERB
 40
0.0
  9
$CHAMFERC
 40
0.0
  9
$CHAMFERD
 40
0.0
  9
$SKPOLY
 70
     0
  9
$TDCREATE
 40
2459999.664791666
  9
$TDUCREATE
 40
2459999.206468044
  9
$TDUPDATE
 40
2460007.634236112
  9
$TDUUPDATE
 40
2460007.175902778
  9
$TDINDWG
 40
0.0012384375
  9
$TDUSRTIMER
 40
0.0012384375
  9
$USRTIMER
 70
     1
  9
$ANGBASE
 50
0.0
  9
$ANGDIR
 70
     0
  9
$PDMODE
 70
     0
  9
$PDSIZE
 40
-1.0
  9
$PLINEWID
 40
0.0
  9
$SPLFRAME
 70
     0
  9
$SPLINETYPE
 70
     6
  9
$SPLINESEGS
 70
     8
  9
$HANDSEED
  5
3DB
  9
$SURFTAB1
 70
     6
  9
$SURFTAB2
 70
     6
  9
$SURFTYPE
 70
     6
  9
$SURFU
 70
     6
  9
$SURFV
 70
     6
  9
$UCSBASE
  2

  9
$UCSNAME
  2

  9
$UCSORG
 10
0.0
 20
0.0
 30
0.0
  9
$UCSXDIR
 10
1.0
 20
0.0
 30
0.0
  9
$UCSYDIR
 10
0.0
 20
1.0
 30
0.0
  9
$UCSORTHOREF
  2

  9
$UCSORTHOVIEW
 70
     0
  9
$UCSORGTOP
 10
0.0
 20
0.0
 30
0.0
  9
$UCSORGBOTTOM
 10
0.0
 20
0.0
 30
0.0
  9
$UCSORGLEFT
 10
0.0
 20
0.0
 30
0.0
  9
$UCSORGRIGHT
 10
0.0
 20
0.0
 30
0.0
  9
$UCSORGFRONT
 10
0.0
 20
0.0
 30
0.0
  9
$UCSORGBACK
 10
0.0
 20
0.0
 30
0.0
  9
$PUCSBASE
  2

  9
$PUCSNAME
  2

  9
$PUCSORG
 10
0.0
 20
0.0
 30
0.0
  9
$PUCSXDIR
 10
1.0
 20
0.0
 30
0.0
  9
$PUCSYDIR
 10
0.0
 20
1.0
 30
0.0
  9
$PUCSORTHOREF
  2

  9
$PUCSORTHOVIEW
 70
     0
  9
$PUCSORGTOP
 10
0.0
 20
0.0
 30
0.0
  9
$PUCSORGBOTTOM
 10
0.0
 20
0.0
 30
0.0
  9
$PUCSORGLEFT
 10
0.0
 20
0.0
 30
0.0
  9
$PUCSORGRIGHT
 10
0.0
 20
0.0
 30
0.0
  9
$PUCSORGFRONT
 10
0.0
 20
0.0
 30
0.0
  9
$PUCSORGBACK
 10
0.0
 20
0.0
 30
0.0
  9
$USERI1
 70
     0
  9
$USERI2
 70
     0
  9
$USERI3
 70
     0
  9
$USERI4
 70
     0
  9
$USERI5
 70
     0
  9
$USERR1
 40
0.0
  9
$USERR2
 40
0.0
  9
$USERR3
 40
0.0
  9
$USERR4
 40
0.0
  9
$USERR5
 40
0.0
  9
$WORLDVIEW
 70
     1
  9
$SHADEDGE
 70
     3
  9
$SHADEDIF
 70
    70
  9
$TILEMODE
 70
     1
  9
$MAXACTVP
 70
    64
  9
$PINSBASE
 10
0.0
 20
0.0
 30
0.0
  9
$PLIMCHECK
 70
     0
  9
$PEXTMIN
 10
1.000000000000000E+20
 20
1.000000000000000E+20
 30
1.000000000000000E+20
  9
$PEXTMAX
 10
-1.000000000000000E+20
 20
-1.000000000000000E+20
 30
-1.000000000000000E+20
  9
$PLIMMIN
 10
0.0
 20
0.0
  9
$PLIMMAX
 10
420.0
 20
297.0
  9
$UNITMODE
 70
     0
  9
$VISRETAIN
 70
     1
  9
$PLINEGEN
 70
     0
  9
$PSLTSCALE
 70
     1
  9
$TREEDEPTH
 70
  3020
  9
$CMLSTYLE
  2
Standard
  9
$CMLJUST
 70
     0
  9
$CMLSCALE
 40
20.0
  9
$PROXYGRAPHICS
 70
     1
  9
$MEASUREMENT
 70
     1
  9
$CELWEIGHT
370
    -1
  9
$ENDCAPS
280
     0
  9
$JOINSTYLE
280
     0
  9
$LWDISPLAY
290
     1
  9
$INSUNITS
 70
     4
  9
$HYPERLINKBASE
  1

  9
$STYLESHEET
  1

  9
$XEDIT
290
     1
  9
$CEPSNTYPE
380
     0
  9
$PSTYLEMODE
290
     1
  9
$FINGERPRINTGUID
  2
{1B5C8952-DD37-419A-A094-9FF1D808D481}
  9
$VERSIONGUID
  2
{648F3DAF-CB65-5640-B1FE-C1249A96985A}
  9
$EXTNAMES
290
     1
  9
$PSVPSCALE
 40
0.0
  9
$OLESTARTUP
290
     0
  9
$SORTENTS
280
   127
  9
$INDEXCTL
280
     0
  9
$HIDETEXT
280
     0
  9
$XCLIPFRAME
280
     2
  9
$HALOGAP
280
     0
  9
$OBSCOLOR
 70
   257
  9
$OBSLTYPE
280
     0
  9
$INTERSECTIONDISPLAY
280
     0
  9
$INTERSECTIONCOLOR
 70
   257
  9
$DIMASSOC
280
     1
  9
$PROJECTNAME
  1

  9
$CAMERADISPLAY
290
     0
  9
$LENSLENGTH
 40
50.0
  9
$CAMERAHEIGHT
 40
0.0
  9
$STEPSPERSEC
 40
2.0
  9
$STEPSIZE
 40
6.0
  9
$3DDWFPREC
 40
2.0
  9
$PSOLWIDTH
 40
0.25
  9
$PSOLHEIGHT
 40
4.0
  9
$LOFTANG1
 40
1.570796326794896
  9
$LOFTANG2
 40
1.570796326794896
  9
$LOFTMAG1
 40
0.0
  9
$LOFTMAG2
 40
0.0
  9
$LOFTPARAM
 70
     7
  9
$LOFTNORMALS
280
     1
  9
$LATITUDE
 40
37.795
  9
$LONGITUDE
 40
-122.394
  9
$NORTHDIRECTION
 40
0.0
  9
$TIMEZONE
 70
 -8000
  9
$LIGHTGLYPHDISPLAY
280
     1
  9
$TILEMODELIGHTSYNCH
280
     1
  9
$CMATERIAL
347
26B
  9
$SOLIDHIST
280
     0
  9
$SHOWHIST
280
     1
  9
$DWFFRAME
280
     2
  9
$DGNFRAME
280
     0
  9
$REALWORLDSCALE
290
     1
  9
$INTERFERECOLOR
 62
     1
  9
$INTERFEREOBJVS
345
28D
  9
$INTERFEREVPVS
346
28A
  9
$CSHADOW
280
     0
  9
$SHADOWPLANELOCATION
 40
0.0
  0
ENDSEC
  0
SECTION
  2
CLASSES
  0
CLASS
  1
ACDBDICTIONARYWDFLT
  2
AcDbDictionaryWithDefault
  3
ObjectDBX Classes
 90
        0
 91
        1
280
     0
281
     0
  0
CLASS
  1
VISUALSTYLE
  2
AcDbVisualStyle
  3
ObjectDBX Classes
 90
     4095
 91
       24
280
     0
281
     0
  0
CLASS
  1
MATERIAL
  2
AcDbMaterial
  3
ObjectDBX Classes
 90
     1153
 91
        3
280
     0
281
     0
  0
CLASS
  1
SCALE
  2
AcDbScale
  3
ObjectDBX Classes
 90
     1153
 91
       33
280
     0
281
     0
  0
CLASS
  1
TABLESTYLE
  2
AcDbTableStyle
  3
ObjectDBX Classes
 90
     4095
 91
        1
280
     0
281
     0
  0
CLASS
  1
MLEADERSTYLE
  2
AcDbMLeaderStyle
  3
ACDB_MLEADERSTYLE_CLASS
 90
     4095
 91
        1
280
     0
281
     0
  0
CLASS
  1
SUN
  2
AcDbSun
  3
SCENEOE
 90
     1153
 91
        0
280
     0
281
     0
  0
CLASS
  1
ACDBSECTIONVIEWSTYLE
  2
AcDbSectionViewStyle
  3
ObjectDBX Classes
 90
     1025
 91
        1
280
     0
281
     0
  0
CLASS
  1
ACDBDETAILVIEWSTYLE
  2
AcDbDetailViewStyle
  3
ObjectDBX Classes
 90
     1025
 91
        1
280
     0
281
     0
  0
CLASS
  1
ACDB_ALDIMOBJECTCONTEXTDATA_CLASS
  2
AcDbAlignedDimensionObjectContextData
  3
ObjectDBX Classes
 90
     1153
 91
       13
280
     0
281
     0
  0
CLASS
  1
DICTIONARYVAR
  2
AcDbDictionaryVar
  3
ObjectDBX Classes
 90
        0
 91
       18
280
     0
281
     0
  0
CLASS
  1
CELLSTYLEMAP
  2
AcDbCellStyleMap
  3
ObjectDBX Classes
 90
     1152
 91
        1
280
     0
281
     0
  0
ENDSEC
  0
SECTION
  2
TABLES
  0
TABLE
  2
VPORT
  5
8
330
0
100
AcDbSymbolTable
 70
     1
  0
VPORT
  5
29
330
8
100
AcDbSymbolTableRecord
100
AcDbViewportTableRecord
  2
*Active
 70
     0
 10
0.0
 20
0.0
 11
1.0
 21
1.0
 12
275.7023013437648
 22
145.7418848655277
 13
0.0
 23
0.0
 14
10.0
 24
10.0
 15
10.0
 25
10.0
 16
0.0
 26
0.0
 36
1.0
 17
0.0
 27
0.0
 37
0.0
 40
547.6934200493413
 41
1.907960199004975
 42
50.0
 43
0.0
 44
0.0
 50
0.0
 51
0.0
 71
     0
 72
  2000
 73
     1
 74
     3
 75
     0
 76
     0
 77
     0
 78
     0
281
     0
 65
     1
110
0.0
120
0.0
130
0.0
111
1.0
121
0.0
131
0.0
112
0.0
122
1.0
132
0.0
 79
     0
146
0.0
348
289
 60
     3
 61
     5
292
     1
282
     1
141
0.0
142
0.0
 63
   250
421
  3355443
1001
ACAD_NAV_VCDISPLAY
1070
     3
  0
ENDTAB
  0
TABLE
  2
LTYPE
  5
5
330
0
100
AcDbSymbolTable
 70
     6
  0
LTYPE
  5
14
330
5
100
AcDbSymbolTableRecord
100
AcDbLinetypeTableRecord
  2
ByBlock
 70
     0
  3

 72
    65
 73
     0
 40
0.0
  0
LTYPE
  5
15
330
5
100
AcDbSymbolTableRecord
100
AcDbLinetypeTableRecord
  2
ByLayer
 70
     0
  3

 72
    65
 73
     0
 40
0.0
  0
LTYPE
  5
16
330
5
100
AcDbSymbolTableRecord
100
AcDbLinetypeTableRecord
  2
Continuous
 70
     0
  3
Solid line
 72
    65
 73
     0
 40
0.0
  0
LTYPE
  5
6E
330
5
100
AcDbSymbolTableRecord
100
AcDbLinetypeTableRecord
  2
HIDDEN
 70
     0
  3
Hidden __ __ __ __ __ __ __ __ __ __ __ __ __ __
 72
    65
 73
     2
 40
1.905
 49
1.27
 74
     0
 49
-0.635
 74
     0
  0
LTYPE
  5
6F
330
5
100
AcDbSymbolTableRecord
100
AcDbLinetypeTableRecord
  2
PHANTOM
 70
     0
  3
Phantom ______  __  __  ______  __  __  ______
 72
    65
 73
     6
 40
12.7
 49
6.349999999999999
 74
     0
 49
-1.27
 74
     0
 49
1.27
 74
     0
 49
-1.27
 74
     0
 49
1.27
 74
     0
 49
-1.27
 74
     0
  0
LTYPE
  5
70
330
5
100
AcDbSymbolTableRecord
100
AcDbLinetypeTableRecord
  2
CENTER
 70
     0
  3
Center ____ _ ____ _ ____ _ ____ _ ____ _ ____
 72
    65
 73
     4
 40
10.16
 49
6.349999999999999
 74
     0
 49
-1.27
 74
     0
 49
1.27
 74
     0
 49
-1.27
 74
     0
  0
LTYPE
  5
71
330
5
100
AcDbSymbolTableRecord
100
AcDbLinetypeTableRecord
  2
CENTERX2
 70
     0
  3
Center (2x) ________  __  ________  __  _____
 72
    65
 73
     4
 40
20.32
 49
12.7
 74
     0
 49
-2.54
 74
     0
 49
2.54
 74
     0
 49
-2.54
 74
     0
  0
LTYPE
  5
72
330
5
100
AcDbSymbolTableRecord
100
AcDbLinetypeTableRecord
  2
DOT2
 70
     0
  3
Dot (.5x) ........................................
 72
    65
 73
     2
 40
0.635
 49
0.0
 74
     0
 49
-0.635
 74
     0
  0
ENDTAB
  0
TABLE
  2
LAYER
  5
2
102
{ACAD_XDICTIONARY
360
2BB
102
}
330
0
100
AcDbSymbolTable
 70
     4
  0
LAYER
  5
10
102
{ACAD_XDICTIONARY
360
3BE
102
}
330
2
100
AcDbSymbolTableRecord
100
AcDbLayerTableRecord
  2
0
 70
     0
 62
     7
  6
Continuous
370
    -3
390
F
347
27B
348
0
  0
LAYER
  5
73
102
{ACAD_XDICTIONARY
360
3C0
102
}
330
2
100
AcDbSymbolTableRecord
100
AcDbLayerTableRecord
  2
FORMAT
 70
     0
 62
     7
  6
Continuous
370
    -3
390
F
347
27B
348
0
  0
LAYER
  5
2B2
330
2
100
AcDbSymbolTableRecord
100
AcDbLayerTableRecord
  2
Defpoints
 70
     0
 62
     7
  6
Continuous
290
     0
370
    -3
390
F
347
27B
348
0
  0
LAYER
  5
2B3
102
{ACAD_XDICTIONARY
360
3C2
102
}
330
2
100
AcDbSymbolTableRecord
100
AcDbLayerTableRecord
  2
DIMENSION
 70
     0
 62
   255
  6
Continuous
370
    -3
390
F
347
27B
348
0
  0
ENDTAB
  0
TABLE
  2
STYLE
  5
3
330
0
100
AcDbSymbolTable
 70
     2
  0
STYLE
  5
11
330
3
100
AcDbSymbolTableRecord
100
AcDbTextStyleTableRecord
  2
Standard
 70
     0
 40
0.0
 41
1.0
 50
0.0
 71
     0
 42
3.5
  3
txt
  4

  0
STYLE
  5
118
330
3
100
AcDbSymbolTableRecord
100
AcDbTextStyleTableRecord
  2
SLDTEXTSTYLE0
 70
     0
 40
0.0
 41
0.75
 50
0.0
 71
     0
 42
3.5
  3
TXT
  4

  0
ENDTAB
  0
TABLE
  2
VIEW
  5
6
330
0
100
AcDbSymbolTable
 70
     0
  0
ENDTAB
  0
TABLE
  2
UCS
  5
7
330
0
100
AcDbSymbolTable
 70
     0
  0
ENDTAB
  0
TABLE
  2
APPID
  5
9
330
0
100
AcDbSymbolTable
 70
     8
  0
APPID
  5
12
330
9
100
AcDbSymbolTableRecord
100
AcDbRegAppTableRecord
  2
ACAD
 70
     0
  0
APPID
  5
2B5
330
9
100
AcDbSymbolTableRecord
100
AcDbRegAppTableRecord
  2
ACAD_PSEXT
 70
     0
  0
APPID
  5
2B6
330
9
100
AcDbSymbolTableRecord
100
AcDbRegAppTableRecord
  2
AcadAnnotative
 70
     0
  0
APPID
  5
2B7
330
9
100
AcDbSymbolTableRecord
100
AcDbRegAppTableRecord
  2
ACAD_DSTYLE_DIMJAG
 70
     0
  0
APPID
  5
2B8
330
9
100
AcDbSymbolTableRecord
100
AcDbRegAppTableRecord
  2
ACAD_DSTYLE_DIMTALN
 70
     0
  0
APPID
  5
2B9
330
9
100
AcDbSymbolTableRecord
100
AcDbRegAppTableRecord
  2
ACAD_NAV_VCDISPLAY
 70
     0
  0
APPID
  5
2BA
330
9
100
AcDbSymbolTableRecord
100
AcDbRegAppTableRecord
  2
ACAD_DSTYLE_DIMBREAK
 70
     0
  0
APPID
  5
2D6
330
9
100
AcDbSymbolTableRecord
100
AcDbRegAppTableRecord
  2
ACAD_DSTYLE_DIMRADIAL_EXTENSION
 70
     0
  0
ENDTAB
  0
TABLE
  2
DIMSTYLE
  5
A
330
0
100
AcDbSymbolTable
 70
     3
100
AcDbDimStyleTable
 71
     2
340
2B4
340
27
  0
DIMSTYLE
105
27
330
A
100
AcDbSymbolTableRecord
100
AcDbDimStyleTableRecord
  2
ISO-25
 70
     0
 41
2.5
 42
0.625
 43
3.75
 44
1.25
 73
     0
 74
     0
 77
     1
 78
     8
140
2.5
141
2.5
143
0.0393700787
147
0.625
171
     3
172
     1
271
     2
272
     2
274
     3
278
    44
283
     0
284
     8
340
11
  0
DIMSTYLE
105
119
330
A
100
AcDbSymbolTableRecord
100
AcDbDimStyleTableRecord
  2
SLDDIMSTYLE0
 70
     0
 41
3.302
 44
0.0
 45
0.000000001
 73
     0
 74
     0
 77
     1
 78
     4
 79
     1
140
6.349999999999999
147
1.587499999999999
173
     1
271
     2
272
     2
276
     2
284
    12
340
118
341
11A
343
11A
344
11A
  0
DIMSTYLE
105
2B4
102
{ACAD_REACTORS
330
2BE
330
2D7
330
25E
330
256
330
12C
330
124
330
117
330
2F3
330
2E5
330
1A4
330
19B
330
1AC
102
}
330
A
100
AcDbSymbolTableRecord
100
AcDbDimStyleTableRecord
  2
RG Dimension Lines
 70
     0
 40
12.0
 41
3.5
 42
1.0
 43
10.0
 44
5.0
 49
5.0
 77
     2
140
8.0
141
0.0
147
4.0
172
     1
176
   256
177
   256
178
     7
271
     0
272
     0
290
     1
340
11
341
11A
342
11A
371
     0
372
     0
1001
ACAD_DSTYLE_DIMBREAK
1070
   391
1040
0.125
1001
AcadAnnotative
1000
AnnotativeData
1002
{
1070
     1
1070
     1
1002
}
1001
ACAD_DSTYLE_DIMJAG
1070
   388
1040
1.5
1001
ACAD_DSTYLE_DIMTALN
1070
   392
1070
     0
  0
ENDTAB
  0
TABLE
  2
BLOCK_RECORD
  5
1
330
0
100
AcDbSymbolTable
 70
    27
  0
BLOCK_RECORD
  5
1F
330
1
100
AcDbSymbolTableRecord
100
AcDbBlockTableRecord
  2
*Model_Space
340
22
 70
     0
280
     1
281
     0
  0
BLOCK_RECORD
  5
1B
330
1
100
AcDbSymbolTableRecord
100
AcDbBlockTableRecord
  2
*Paper_Space
340
1E
 70
     0
280
     1
281
     0
  0
BLOCK_RECORD
  5
23
330
1
100
AcDbSymbolTableRecord
100
AcDbBlockTableRecord
  2
*Paper_Space0
340
26
 70
     0
280
     1
281
     0
  0
BLOCK_RECORD
  5
11A
330
1
100
AcDbSymbolTableRecord
100
AcDbBlockTableRecord
  2
_None
340
0
 70
     0
280
     1
281
     0
  0
BLOCK_RECORD
  5
11D
330
1
100
AcDbSymbolTableRecord
100
AcDbBlockTableRecord
  2
_D
340
0
 70
     0
280
     1
281
     0
  0
BLOCK_RECORD
  5
125
330
1
100
AcDbSymbolTableRecord
100
AcDbBlockTableRecord
  2
_D_1
340
0
 70
     0
280
     1
281
     0
  0
BLOCK_RECORD
  5
12D
330
1
100
AcDbSymbolTableRecord
100
AcDbBlockTableRecord
  2
_D_2
340
0
 70
     0
280
     1
281
     0
  0
BLOCK_RECORD
  5
19C
330
1
100
AcDbSymbolTableRecord
100
AcDbBlockTableRecord
  2
_D_3
340
0
 70
     0
280
     1
281
     0
  0
BLOCK_RECORD
  5
1A5
330
1
100
AcDbSymbolTableRecord
100
AcDbBlockTableRecord
  2
_D_4
340
0
 70
     0
280
     1
281
     0
  0
BLOCK_RECORD
  5
1AD
330
1
100
AcDbSymbolTableRecord
100
AcDbBlockTableRecord
  2
_D_5
340
0
 70
     0
280
     1
281
     0
  0
BLOCK_RECORD
  5
257
330
1
100
AcDbSymbolTableRecord
100
AcDbBlockTableRecord
  2
_D_6
340
0
 70
     0
280
     1
281
     0
  0
BLOCK_RECORD
  5
25F
330
1
100
AcDbSymbolTableRecord
100
AcDbBlockTableRecord
  2
_D_7
340
0
 70
     0
280
     1
281
     0
  0
BLOCK_RECORD
  5
2A8
330
1
100
AcDbSymbolTableRecord
100
AcDbBlockTableRecord
  2
*D10
340
0
 70
     0
280
     1
281
     0
  0
BLOCK_RECORD
  5
2CC
330
1
100
AcDbSymbolTableRecord
100
AcDbBlockTableRecord
  2
*D12
340
0
 70
     0
280
     1
281
     0
  0
BLOCK_RECORD
  5
2D8
330
1
100
AcDbSymbolTableRecord
100
AcDbBlockTableRecord
  2
*D13
340
0
 70
     0
280
     1
281
     0
  0
BLOCK_RECORD
  5
2E6
330
1
100
AcDbSymbolTableRecord
100
AcDbBlockTableRecord
  2
*D14
340
0
 70
     0
280
     1
281
     0
  0
BLOCK_RECORD
  5
2F4
330
1
100
AcDbSymbolTableRecord
100
AcDbBlockTableRecord
  2
*D15
340
0
 70
     0
280
     1
281
     0
  0
BLOCK_RECORD
  5
301
330
1
100
AcDbSymbolTableRecord
100
AcDbBlockTableRecord
  2
*D16
340
0
 70
     0
280
     1
281
     0
  0
BLOCK_RECORD
  5
30F
330
1
100
AcDbSymbolTableRecord
100
AcDbBlockTableRecord
  2
*D17
340
0
 70
     0
280
     1
281
     0
  0
BLOCK_RECORD
  5
31D
330
1
100
AcDbSymbolTableRecord
100
AcDbBlockTableRecord
  2
*D18
340
0
 70
     0
280
     1
281
     0
  0
BLOCK_RECORD
  5
32B
330
1
100
AcDbSymbolTableRecord
100
AcDbBlockTableRecord
  2
*D19
340
0
 70
     0
280
     1
281
     0
  0
BLOCK_RECORD
  5
339
330
1
100
AcDbSymbolTableRecord
100
AcDbBlockTableRecord
  2
*D20
340
0
 70
     0
280
     1
281
     0
  0
BLOCK_RECORD
  5
347
330
1
100
AcDbSymbolTableRecord
100
AcDbBlockTableRecord
  2
*D21
340
0
 70
     0
280
     1
281
     0
  0
BLOCK_RECORD
  5
355
330
1
100
AcDbSymbolTableRecord
100
AcDbBlockTableRecord
  2
*D22
340
0
 70
     0
280
     1
281
     0
  0
BLOCK_RECORD
  5
363
330
1
100
AcDbSymbolTableRecord
100
AcDbBlockTableRecord
  2
*D23
340
0
 70
     0
280
     1
281
     0
  0
BLOCK_RECORD
  5
371
330
1
100
AcDbSymbolTableRecord
100
AcDbBlockTableRecord
  2
*D24
340
0
 70
     0
280
     1
281
     0
  0
BLOCK_RECORD
  5
37F
330
1
100
AcDbSymbolTableRecord
100
AcDbBlockTableRecord
  2
*D25
340
0
 70
     0
280
     1
281
     0
  0
BLOCK_RECORD
  5
38D
330
1
100
AcDbSymbolTableRecord
100
AcDbBlockTableRecord
  2
*D26
340
0
 70
     0
280
     1
281
     0
  0
ENDTAB
  0
ENDSEC
  0
SECTION
  2
BLOCKS
  0
BLOCK
  5
20
330
1F
100
AcDbEntity
  8
0
100
AcDbBlockBegin
  2
*Model_Space
 70
     0
 10
0.0
 20
0.0
 30
0.0
  3
*Model_Space
  1

  0
ENDBLK
  5
21
330
1F
100
AcDbEntity
  8
0
100
AcDbBlockEnd
  0
BLOCK
  5
1C
330
1B
100
AcDbEntity
 67
     1
  8
0
100
AcDbBlockBegin
  2
*Paper_Space
 70
     0
 10
0.0
 20
0.0
 30
0.0
  3
*Paper_Space
  1

  0
ENDBLK
  5
1D
330
1B
100
AcDbEntity
 67
     1
  8
0
100
AcDbBlockEnd
  0
BLOCK
  5
24
330
23
100
AcDbEntity
 67
     1
  8
0
100
AcDbBlockBegin
  2
*Paper_Space0
 70
     0
 10
0.0
 20
0.0
 30
0.0
  3
*Paper_Space0
  1

  0
ENDBLK
  5
25
330
23
100
AcDbEntity
 67
     1
  8
0
100
AcDbBlockEnd
  0
BLOCK
  5
11B
330
11A
100
AcDbEntity
  8
0
100
AcDbBlockBegin
  2
_None
 70
     0
 10
0.0
 20
0.0
 30
0.0
  3
_None
  1

  0
ENDBLK
  5
11C
330
11A
100
AcDbEntity
  8
0
100
AcDbBlockEnd
  0
BLOCK
  5
11E
330
11D
100
AcDbEntity
  8
0
100
AcDbBlockBegin
  2
_D
 70
     0
 10
0.0
 20
0.0
 30
0.0
  3
_D
  1

  0
LINE
  5
120
330
11D
100
AcDbEntity
  8
0
  6
Continuous
 62
     7
440
 16777216
370
     0
100
AcDbLine
 10
14.9009023069
 20
-85.39774881619999
 30
0.0
 11
14.9009023069
 21
-113.6849880215
 31
0.0
  0
LINE
  5
121
330
11D
100
AcDbEntity
  8
0
  6
Continuous
 62
     7
440
 16777216
370
     0
100
AcDbLine
 10
249.9009023083
 20
136.3741542851
 30
0.0
 11
249.9009023083
 21
-113.6849880215
 31
0.0
  0
LINE
  5
122
330
11D
100
AcDbEntity
  8
0
  6
Continuous
 62
     7
440
 16777216
370
     0
100
AcDbLine
 10
14.9009023069
 20
-112.6849880215
 30
0.0
 11
249.9009023083
 21
-112.6849880215
 31
0.0
  0
MTEXT
  5
123
330
11D
100
AcDbEntity
  8
0
  6
Continuous
 62
     7
440
 16777216
370
    18
100
AcDbMText
 10
116.4039185267
 20
-104.4994088053
 30
0.0
 40
6.349999999999999
 41
0.0
 46
0.0
 71
     1
 72
     1
  1
235.00
  7
SLDTEXTSTYLE0
 73
     1
 44
1.0
  0
ENDBLK
  5
11F
330
11D
100
AcDbEntity
  8
0
100
AcDbBlockEnd
  0
BLOCK
  5
126
330
125
100
AcDbEntity
  8
0
100
AcDbBlockBegin
  2
_D_1
 70
     0
 10
0.0
 20
0.0
 30
0.0
  3
_D_1
  1

  0
LINE
  5
128
330
125
100
AcDbEntity
  8
0
  6
Continuous
 62
     7
440
 16777216
370
     0
100
AcDbLine
 10
53.7973519584
 20
-78.68498802149999
 30
0.0
 11
302.9009023083
 21
-78.68498802149999
 31
0.0
  0
LINE
  5
129
330
125
100
AcDbEntity
  8
0
  6
Continuous
 62
     7
440
 16777216
370
     0
100
AcDbLine
 10
273.990447489
 20
146.5294747061
 30
0.0
 11
302.9009023083
 21
146.5294747061
 31
0.0
  0
LINE
  5
12A
330
125
100
AcDbEntity
  8
0
  6
Continuous
 62
     7
440
 16777216
370
     0
100
AcDbLine
 10
301.9009023083
 20
-78.68498802149999
 30
0.0
 11
301.9009023083
 21
146.5294747061
 31
0.0
  0
MTEXT
  5
12B
330
125
100
AcDbEntity
  8
0
  6
Continuous
 62
     7
440
 16777216
370
    18
100
AcDbMText
 10
293.7153230921
 20
17.8686015789
 30
0.0
 40
6.349999999999999
 41
0.0
 46
0.0
 71
     1
 72
     1
  1
225.00
  7
SLDTEXTSTYLE0
 11
0.0000000000000001
 21
1.0
 31
0.0
 73
     1
 44
1.0
  0
ENDBLK
  5
127
330
125
100
AcDbEntity
  8
0
100
AcDbBlockEnd
  0
BLOCK
  5
12E
330
12D
100
AcDbEntity
  8
0
100
AcDbBlockBegin
  2
_D_2
 70
     0
 10
0.0
 20
0.0
 30
0.0
  3
_D_2
  1

  0
LINE
  5
130
330
12D
100
AcDbEntity
  8
0
  6
Continuous
 62
     7
440
 16777216
370
     0
100
AcDbLine
 10
-18.4297317245
 20
-78.68498802149999
 30
0.0
 11
-47.09909769310001
 21
-78.68498802149999
 31
0.0
  0
LINE
  5
131
330
12D
100
AcDbEntity
  8
0
  6
Continuous
 62
     7
440
 16777216
370
     0
100
AcDbLine
 10
41.3717895016
 20
186.1794747061
 30
0.0
 11
-47.09909769310001
 21
186.1794747061
 31
0.0
  0
LINE
  5
132
330
12D
100
AcDbEntity
  8
0
  6
Continuous
 62
     7
440
 16777216
370
     0
100
AcDbLine
 10
-46.0990976931
 20
-78.68498802149999
 30
0.0
 11
-46.0990976931
 21
186.1794747061
 31
0.0
  0
MTEXT
  5
133
330
12D
100
AcDbEntity
  8
0
  6
Continuous
 62
     7
440
 16777216
370
    18
100
AcDbMText
 10
-54.28467690939999
 20
51.6366448797
 30
0.0
 40
6.349999999999999
 41
0.0
 46
0.0
 71
     1
 72
     1
  1
265.00
  7
SLDTEXTSTYLE0
 11
-0.0000000000000004
 21
1.0
 31
0.0
 73
     1
 44
1.0
  0
ENDBLK
  5
12F
330
12D
100
AcDbEntity
  8
0
100
AcDbBlockEnd
  0
BLOCK
  5
19D
330
19C
100
AcDbEntity
  8
0
100
AcDbBlockBegin
  2
_D_3
 70
     0
 10
0.0
 20
0.0
 30
0.0
  3
_D_3
  1

  0
LINE
  5
19F
330
19C
100
AcDbEntity
  8
0
  6
Continuous
 62
     7
440
 16777216
370
     0
100
AcDbLine
 10
456.3931892687
 20
-86.31760870929999
 30
0.0
 11
456.3931892687
 21
-113.6849880215
 31
0.0
  0
LINE
  5
1A0
330
19C
100
AcDbEntity
  8
0
  6
Continuous
 62
     7
440
 16777216
370
     0
100
AcDbLine
 10
402.3931892687
 20
-87.14533083680001
 30
0.0
 11
402.3931892687
 21
-113.6849880215
 31
0.0
  0
LINE
  5
1A1
330
19C
100
AcDbEntity
  8
0
  6
Continuous
 62
     7
440
 16777216
370
     0
100
AcDbLine
 10
456.3931892687
 20
-112.6849880215
 30
0.0
 11
402.3931892687
 21
-112.6849880215
 31
0.0
  0
MTEXT
  5
1A2
330
19C
100
AcDbEntity
  8
0
  6
Continuous
 62
     7
440
 16777216
370
    18
100
AcDbMText
 10
412.1809489834999
 20
-104.499407874
 30
0.0
 40
6.349999999999999
 41
0.0
 46
0.0
 71
     1
 72
     1
  1
%%c
  7
SLDTEXTSTYLE0
 73
     1
 44
1.0
  0
MTEXT
  5
1A3
330
19C
100
AcDbEntity
  8
0
  6
Continuous
 62
     7
440
 16777216
370
    18
100
AcDbMText
 10
421.7659216183999
 20
-104.499407874
 30
0.0
 40
6.349999999999999
 41
0.0
 46
0.0
 71
     1
 72
     1
  1
54.00
  7
SLDTEXTSTYLE0
 73
     1
 44
1.0
  0
ENDBLK
  5
19E
330
19C
100
AcDbEntity
  8
0
100
AcDbBlockEnd
  0
BLOCK
  5
1A6
330
1A5
100
AcDbEntity
  8
0
100
AcDbBlockBegin
  2
_D_4
 70
     0
 10
0.0
 20
0.0
 30
0.0
  3
_D_4
  1

  0
LINE
  5
1A8
330
1A5
100
AcDbEntity
  8
0
  6
Continuous
 62
     7
440
 16777216
370
     0
100
AcDbLine
 10
510.865669951
 20
-13.4099880215
 30
0.0
 11
538.5036156226999
 21
-13.4099880215
 31
0.0
  0
LINE
  5
1A9
330
1A5
100
AcDbEntity
  8
0
  6
Continuous
 62
     7
440
 16777216
370
     0
100
AcDbLine
 10
504.7957076824999
 20
111.5899202498
 30
0.0
 11
538.5036156226999
 21
111.5899202498
 31
0.0
  0
LINE
  5
1AA
330
1A5
100
AcDbEntity
  8
0
  6
Continuous
 62
     7
440
 16777216
370
     0
100
AcDbLine
 10
537.5036156226999
 20
-13.4099880215
 30
0.0
 11
537.5036156226999
 21
111.5899202498
 31
0.0
  0
MTEXT
  5
1AB
330
1A5
100
AcDbEntity
  8
0
  6
Continuous
 62
     7
440
 16777216
370
    18
100
AcDbMText
 10
529.3180364065
 20
36.0181430567
 30
0.0
 40
6.349999999999999
 41
0.0
 46
0.0
 71
     1
 72
     1
  1
125.00
  7
SLDTEXTSTYLE0
 11
0.0000000000000001
 21
1.0
 31
0.0
 73
     1
 44
1.0
  0
ENDBLK
  5
1A7
330
1A5
100
AcDbEntity
  8
0
100
AcDbBlockEnd
  0
BLOCK
  5
1AE
330
1AD
100
AcDbEntity
  8
0
100
AcDbBlockBegin
  2
_D_5
 70
     0
 10
0.0
 20
0.0
 30
0.0
  3
_D_5
  1

  0
LINE
  5
1B0
330
1AD
100
AcDbEntity
  8
0
  6
Continuous
 62
     7
440
 16777216
370
     0
100
AcDbLine
 10
413.9036156227
 20
183.8241380091
 30
0.0
 11
413.9036156227
 21
209.5294747061
 31
0.0
  0
LINE
  5
1B1
330
1AD
100
AcDbEntity
  8
0
  6
Continuous
 62
     7
440
 16777216
370
     0
100
AcDbLine
 10
444.5036156226999
 20
183.8241380091
 30
0.0
 11
444.5036156226999
 21
209.5294747061
 31
0.0
  0
LINE
  5
1B2
330
1AD
100
AcDbEntity
  8
0
  6
Continuous
 62
     7
440
 16777216
370
     0
100
AcDbLine
 10
413.9036156227
 20
208.5294747061
 30
0.0
 11
444.5036156226999
 21
208.5294747061
 31
0.0
  0
MTEXT
  5
1B3
330
1AD
100
AcDbEntity
  8
0
  6
Continuous
 62
     7
440
 16777216
370
    18
100
AcDbMText
 10
412.1809489834999
 20
216.7150548537
 30
0.0
 40
6.349999999999999
 41
0.0
 46
0.0
 71
     1
 72
     1
  1
%%c
  7
SLDTEXTSTYLE0
 73
     1
 44
1.0
  0
MTEXT
  5
1B4
330
1AD
100
AcDbEntity
  8
0
  6
Continuous
 62
     7
440
 16777216
370
    18
100
AcDbMText
 10
421.7659216183999
 20
216.7150548537
 30
0.0
 40
6.349999999999999
 41
0.0
 46
0.0
 71
     1
 72
     1
  1
32.00
  7
SLDTEXTSTYLE0
 73
     1
 44
1.0
  0
ENDBLK
  5
1AF
330
1AD
100
AcDbEntity
  8
0
100
AcDbBlockEnd
  0
BLOCK
  5
258
330
257
100
AcDbEntity
  8
0
100
AcDbBlockBegin
  2
_D_6
 70
     0
 10
0.0
 20
0.0
 30
0.0
  3
_D_6
  1

  0
LINE
  5
25A
330
257
100
AcDbEntity
  8
0
  6
Continuous
 62
     7
440
 16777216
370
     0
100
AcDbLine
 10
-16.8910835776
 20
374.9420950786
 30
0.0
 11
-47.09909769310001
 21
374.9420950786
 31
0.0
  0
LINE
  5
25B
330
257
100
AcDbEntity
  8
0
  6
Continuous
 62
     7
440
 16777216
370
     0
100
AcDbLine
 10
-17.4910717262
 20
254.9420950786
 30
0.0
 11
-47.09909769310001
 21
254.9420950786
 31
0.0
  0
LINE
  5
25C
330
257
100
AcDbEntity
  8
0
  6
Continuous
 62
     7
440
 16777216
370
     0
100
AcDbLine
 10
-46.0990976931
 20
374.9420950786
 30
0.0
 11
-46.0990976931
 21
254.9420950786
 31
0.0
  0
MTEXT
  5
25D
330
257
100
AcDbEntity
  8
0
  6
Continuous
 62
     7
440
 16777216
370
    18
100
AcDbMText
 10
-54.28467690939999
 20
303.4256612933
 30
0.0
 40
6.349999999999999
 41
0.0
 46
0.0
 71
     1
 72
     1
  1
120.00
  7
SLDTEXTSTYLE0
 11
-0.000000000000007
 21
1.0
 31
0.0
 73
     1
 44
1.0
  0
ENDBLK
  5
259
330
257
100
AcDbEntity
  8
0
100
AcDbBlockEnd
  0
BLOCK
  5
260
330
25F
100
AcDbEntity
  8
0
100
AcDbBlockBegin
  2
_D_7
 70
     0
 10
0.0
 20
0.0
 30
0.0
  3
_D_7
  1

  0
LINE
  5
262
330
25F
100
AcDbEntity
  8
0
  6
Continuous
 62
     7
440
 16777216
370
     0
100
AcDbLine
 10
37.3659023069
 20
378.5162728106
 30
0.0
 11
37.3659023069
 21
409.9420950786
 31
0.0
  0
LINE
  5
263
330
25F
100
AcDbEntity
  8
0
  6
Continuous
 62
     7
440
 16777216
370
     0
100
AcDbLine
 10
-7.434097693099999
 20
378.4272896433
 30
0.0
 11
-7.434097693099999
 21
409.9420950786
 31
0.0
  0
LINE
  5
264
330
25F
100
AcDbEntity
  8
0
  6
Continuous
 62
     7
440
 16777216
370
     0
100
AcDbLine
 10
37.3659023069
 20
408.9420950785999
 30
0.0
 11
-7.434097693099999
 21
408.9420950785999
 31
0.0
  0
MTEXT
  5
265
330
25F
100
AcDbEntity
  8
0
  6
Continuous
 62
     7
440
 16777216
370
    18
100
AcDbMText
 10
-2.6355805111
 20
417.1276752260999
 30
0.0
 40
6.349999999999999
 41
0.0
 46
0.0
 71
     1
 72
     1
  1
%%c
  7
SLDTEXTSTYLE0
 73
     1
 44
1.0
  0
MTEXT
  5
266
330
25F
100
AcDbEntity
  8
0
  6
Continuous
 62
     7
440
 16777216
370
    18
100
AcDbMText
 10
6.9493921238
 20
417.1276752260999
 30
0.0
 40
6.349999999999999
 41
0.0
 46
0.0
 71
     1
 72
     1
  1
45.00
  7
SLDTEXTSTYLE0
 73
     1
 44
1.0
  0
ENDBLK
  5
261
330
25F
100
AcDbEntity
  8
0
100
AcDbBlockEnd
  0
BLOCK
  5
2A9
330
2A8
100
AcDbEntity
  8
0
100
AcDbBlockBegin
  2
*D10
 70
     1
 10
0.0
 20
0.0
 30
0.0
  3
*D10
  1

  0
LINE
  5
2AA
330
2A8
100
AcDbEntity
  8
DIMENSION
440
 16777216
370
     0
100
AcDbLine
 10
1092.625159377854
 20
969.7937323929265
 30
0.0
 11
1092.569709633547
 21
979.7935786580374
 31
0.0
  0
LINE
  5
2AB
330
2A8
100
AcDbEntity
  8
DIMENSION
440
 16777216
370
     0
100
AcDbLine
 10
1454.657182624691
 20
971.8012215670347
 30
0.0
 11
1454.601732880384
 21
981.8010678321458
 31
0.0
  0
LINE
  5
2AC
330
2A8
100
AcDbEntity
  8
DIMENSION
440
 16777216
370
     0
100
AcDbLine
 10
1092.597434505701
 20
974.793655525482
 30
0.0
 11
1454.629457752537
 21
976.8011446995902
 31
0.0
  0
MTEXT
  5
2AD
330
2A8
100
AcDbEntity
  8
DIMENSION
 62
     7
440
 16777216
100
AcDbMText
 10
1273.568105608173
 20
983.9741418578535
 30
0.0
 40
8.0
 41
0.0
 46
0.0
 71
     5
 72
     1
  1
\A1;362
 73
     1
 44
1.0
  0
POINT
  5
2AE
330
2A8
100
AcDbEntity
  8
Defpoints
 62
     0
440
 16777216
100
AcDbPoint
 10
1092.771920384362
 20
943.3267482592359
 30
0.0
  0
POINT
  5
2AF
330
2A8
100
AcDbEntity
  8
Defpoints
 62
     0
440
 16777216
100
AcDbPoint
 10
1454.803943631198
 20
945.3342374333443
 30
0.0
  0
POINT
  5
2B0
330
2A8
100
AcDbEntity
  8
Defpoints
 62
     0
440
 16777216
100
AcDbPoint
 10
1454.629457752537
 20
976.8011446995902
 30
0.0
  0
ENDBLK
  5
2B1
330
2A8
100
AcDbEntity
  8
0
100
AcDbBlockEnd
  0
BLOCK
  5
2CD
330
2CC
100
AcDbEntity
  8
0
100
AcDbBlockBegin
  2
*D12
 70
     1
 10
0.0
 20
0.0
 30
0.0
  3
*D12
  1

  0
LINE
  5
2CF
330
2CC
100
AcDbEntity
  8
DIMENSION
440
 16777216
370
     0
100
AcDbLine
 10
355.7459295073585
 20
278.1685994813615
 30
0.0
 11
355.6904797630516
 21
288.1684457464725
 31
0.0
  0
LINE
  5
2D0
330
2CC
100
AcDbEntity
  8
DIMENSION
440
 16777216
370
     0
100
AcDbLine
 10
717.7779527541949
 20
280.1760886554697
 30
0.0
 11
717.7225030098879
 21
290.1759349205809
 31
0.0
  0
LINE
  5
2D1
330
2CC
100
AcDbEntity
  8
DIMENSION
440
 16777216
370
     0
100
AcDbLine
 10
355.718204635205
 20
283.1685226139171
 30
0.0
 11
717.7502278820415
 21
285.1760117880253
 31
0.0
  0
MTEXT
  5
2D2
330
2CC
100
AcDbEntity
  8
DIMENSION
 62
     7
440
 16777216
100
AcDbMText
 10
536.6894061929348
 20
292.253346268421
 30
0.0
 40
8.0
 41
0.0
 46
0.0
 71
     5
 72
     1
  1
\A1;362
 73
     1
 44
1.0
  0
POINT
  5
2D3
330
2CC
100
AcDbEntity
  8
Defpoints
 62
     0
440
 16777216
100
AcDbPoint
 10
355.892690513866
 20
251.701615347671
 30
0.0
  0
POINT
  5
2D4
330
2CC
100
AcDbEntity
  8
Defpoints
 62
     0
440
 16777216
100
AcDbPoint
 10
717.9247137607025
 20
253.7091045217793
 30
0.0
  0
POINT
  5
2D5
330
2CC
100
AcDbEntity
  8
Defpoints
 62
     0
440
 16777216
100
AcDbPoint
 10
717.7502278820415
 20
285.1760117880253
 30
0.0
  0
ENDBLK
  5
2CE
330
2CC
100
AcDbEntity
  8
0
100
AcDbBlockEnd
  0
BLOCK
  5
2D9
330
2D8
100
AcDbEntity
  8
0
100
AcDbBlockBegin
  2
*D13
 70
     1
 10
0.0
 20
0.0
 30
0.0
  3
*D13
  1

  0
LINE
  5
2DB
330
2D8
100
AcDbEntity
  8
0
 62
     0
440
 16777216
370
    -2
100
AcDbLine
 10
13.90090230690001
 20
300.6420950786001
 30
0.0
 11
-27.737592437388
 21
300.6420950786001
 31
0.0
  0
LINE
  5
2DC
330
2D8
100
AcDbEntity
  8
0
 62
     0
440
 16777216
370
    -2
100
AcDbLine
 10
13.90090230690001
 20
374.9420950786001
 30
0.0
 11
-27.73759243738802
 21
374.9420950786001
 31
0.0
  0
LINE
  5
2DD
330
2D8
100
AcDbEntity
  8
0
 62
     0
440
 16777216
370
    -2
100
AcDbLine
 10
-26.737592437388
 20
303.9440950786001
 30
0.0
 11
-26.73759243738801
 21
334.2264284119334
 31
0.0
  0
LINE
  5
2DE
330
2D8
100
AcDbEntity
  8
0
 62
     0
440
 16777216
370
    -2
100
AcDbLine
 10
-26.73759243738802
 20
371.6400950786001
 30
0.0
 11
-26.73759243738801
 21
341.3577617452668
 31
0.0
  0
SOLID
  5
2DF
330
2D8
100
AcDbEntity
  8
0
 62
     0
440
 16777216
100
AcDbTrace
 10
-27.28792577072133
 20
303.9440950786001
 30
0.0
 11
-26.18725910405466
 21
303.9440950786001
 31
0.0
 12
-26.737592437388
 22
300.6420950786001
 32
0.0
 13
-26.737592437388
 23
300.6420950786001
 33
0.0
  0
SOLID
  5
2E0
330
2D8
100
AcDbEntity
  8
0
 62
     0
440
 16777216
100
AcDbTrace
 10
-27.28792577072135
 20
371.6400950786001
 30
0.0
 11
-26.18725910405468
 21
371.6400950786001
 31
0.0
 12
-26.73759243738802
 22
374.9420950786001
 32
0.0
 13
-26.73759243738802
 23
374.9420950786001
 33
0.0
  0
MTEXT
  5
2E1
330
2D8
100
AcDbEntity
  8
0
 62
     0
440
 16777216
100
AcDbMText
 10
-26.7375924373879
 20
337.7920950786
 30
0.0
 40
3.5
 41
0.0
 46
0.0
 71
     5
 72
     1
  1
371,50
 73
     1
 44
1.0
  0
POINT
  5
2E2
330
2D8
100
AcDbEntity
  8
Defpoints
 62
     0
440
 16777216
100
AcDbPoint
 10
14.9009023069
 20
300.6420950786001
 30
0.0
  0
POINT
  5
2E3
330
2D8
100
AcDbEntity
  8
Defpoints
 62
     0
440
 16777216
100
AcDbPoint
 10
14.9009023069
 20
374.9420950786001
 30
0.0
  0
POINT
  5
2E4
330
2D8
100
AcDbEntity
  8
Defpoints
 62
     0
440
 16777216
100
AcDbPoint
 10
-26.73759243738802
 20
374.9420950786001
 30
0.0
  0
ENDBLK
  5
2DA
330
2D8
100
AcDbEntity
  8
0
100
AcDbBlockEnd
  0
BLOCK
  5
2E7
330
2E6
100
AcDbEntity
  8
0
100
AcDbBlockBegin
  2
*D14
 70
     1
 10
0.0
 20
0.0
 30
0.0
  3
*D14
  1

  0
LINE
  5
2E9
330
2E6
100
AcDbEntity
  8
0
 62
     0
440
 16777216
370
    -2
100
AcDbLine
 10
426.4647542729002
 20
-78.68498802150002
 30
0.0
 11
519.8711589280986
 21
-78.6849880215
 31
0.0
  0
LINE
  5
2EA
330
2E6
100
AcDbEntity
  8
0
 62
     0
440
 16777216
370
    -2
100
AcDbLine
 10
475.9036156227002
 20
9.090011978500003
 30
0.0
 11
519.8711589280986
 21
9.09001197850001
 31
0.0
  0
LINE
  5
2EB
330
2E6
100
AcDbEntity
  8
0
 62
     0
440
 16777216
370
    -2
100
AcDbLine
 10
518.8711589280985
 20
-75.38298802149999
 30
0.0
 11
518.8711589280985
 21
-38.36315468816666
 31
0.0
  0
LINE
  5
2EC
330
2E6
100
AcDbEntity
  8
0
 62
     0
440
 16777216
370
    -2
100
AcDbLine
 10
518.8711589280985
 20
5.788011978500009
 30
0.0
 11
518.8711589280985
 21
-31.23182135483333
 31
0.0
  0
SOLID
  5
2ED
330
2E6
100
AcDbEntity
  8
0
 62
     0
440
 16777216
100
AcDbTrace
 10
518.3208255947651
 20
-75.38298802149999
 30
0.0
 11
519.4214922614319
 21
-75.38298802149999
 31
0.0
 12
518.8711589280985
 22
-78.6849880215
 32
0.0
 13
518.8711589280985
 23
-78.6849880215
 33
0.0
  0
SOLID
  5
2EE
330
2E6
100
AcDbEntity
  8
0
 62
     0
440
 16777216
100
AcDbTrace
 10
518.3208255947651
 20
5.788011978500009
 30
0.0
 11
519.4214922614319
 21
5.788011978500009
 31
0.0
 12
518.8711589280985
 22
9.09001197850001
 32
0.0
 13
518.8711589280985
 23
9.09001197850001
 33
0.0
  0
MTEXT
  5
2EF
330
2E6
100
AcDbEntity
  8
0
 62
     0
440
 16777216
100
AcDbMText
 10
518.8711589280984
 20
-34.79748802150013
 30
0.0
 40
3.5
 41
0.0
 46
0.0
 71
     5
 72
     1
  1
438,88
 73
     1
 44
1.0
  0
POINT
  5
2F0
330
2E6
100
AcDbEntity
  8
Defpoints
 62
     0
440
 16777216
100
AcDbPoint
 10
425.4647542729002
 20
-78.68498802150002
 30
0.0
  0
POINT
  5
2F1
330
2E6
100
AcDbEntity
  8
Defpoints
 62
     0
440
 16777216
100
AcDbPoint
 10
474.9036156227002
 20
9.090011978500003
 30
0.0
  0
POINT
  5
2F2
330
2E6
100
AcDbEntity
  8
Defpoints
 62
     0
440
 16777216
100
AcDbPoint
 10
518.8711589280985
 20
9.09001197850001
 30
0.0
  0
ENDBLK
  5
2E8
330
2E6
100
AcDbEntity
  8
0
100
AcDbBlockEnd
  0
BLOCK
  5
2F5
330
2F4
100
AcDbEntity
  8
0
100
AcDbBlockBegin
  2
*D15
 70
     1
 10
0.0
 20
0.0
 30
0.0
  3
*D15
  1

  0
LINE
  5
2F7
330
2F4
100
AcDbEntity
  8
0
 62
     0
440
 16777216
370
    -2
100
AcDbLine
 10
424.4647542729002
 20
-78.68498802150002
 30
0.0
 11
355.1917155280604
 21
-78.68498802150003
 31
0.0
  0
LINE
  5
2F8
330
2F4
100
AcDbEntity
  8
0
 62
     0
440
 16777216
370
    -2
100
AcDbLine
 10
382.5036156227
 20
31.31501197850001
 30
0.0
 11
355.1917155280604
 21
31.31501197850001
 31
0.0
  0
LINE
  5
2F9
330
2F4
100
AcDbEntity
  8
0
 62
     0
440
 16777216
370
    -2
100
AcDbLine
 10
356.1917155280604
 20
-75.38298802150002
 30
0.0
 11
356.1917155280604
 21
-27.25065468816668
 31
0.0
  0
LINE
  5
2FA
330
2F4
100
AcDbEntity
  8
0
 62
     0
440
 16777216
370
    -2
100
AcDbLine
 10
356.1917155280604
 20
28.01301197850001
 30
0.0
 11
356.1917155280604
 21
-20.11932135483335
 31
0.0
  0
SOLID
  5
2FB
330
2F4
100
AcDbEntity
  8
0
 62
     0
440
 16777216
100
AcDbTrace
 10
355.641382194727
 20
-75.38298802150002
 30
0.0
 11
356.7420488613938
 21
-75.38298802150002
 31
0.0
 12
356.1917155280604
 22
-78.68498802150003
 32
0.0
 13
356.1917155280604
 23
-78.68498802150003
 33
0.0
  0
SOLID
  5
2FC
330
2F4
100
AcDbEntity
  8
0
 62
     0
440
 16777216
100
AcDbTrace
 10
355.641382194727
 20
28.01301197850001
 30
0.0
 11
356.7420488613938
 21
28.01301197850001
 31
0.0
 12
356.1917155280604
 22
31.31501197850001
 32
0.0
 13
356.1917155280604
 23
31.31501197850001
 33
0.0
  0
MTEXT
  5
2FD
330
2F4
100
AcDbEntity
  8
0
 62
     0
440
 16777216
100
AcDbMText
 10
356.1917155280604
 20
-23.68498802150011
 30
0.0
 40
3.5
 41
0.0
 46
0.0
 71
     5
 72
     1
  1
550,00
 73
     1
 44
1.0
  0
POINT
  5
2FE
330
2F4
100
AcDbEntity
  8
Defpoints
 62
     0
440
 16777216
100
AcDbPoint
 10
425.4647542729002
 20
-78.68498802150002
 30
0.0
  0
POINT
  5
2FF
330
2F4
100
AcDbEntity
  8
Defpoints
 62
     0
440
 16777216
100
AcDbPoint
 10
383.5036156227001
 20
31.31501197850001
 30
0.0
  0
POINT
  5
300
330
2F4
100
AcDbEntity
  8
Defpoints
 62
     0
440
 16777216
100
AcDbPoint
 10
356.1917155280604
 20
31.31501197850001
 30
0.0
  0
ENDBLK
  5
2F6
330
2F4
100
AcDbEntity
  8
0
100
AcDbBlockEnd
  0
BLOCK
  5
302
330
301
100
AcDbEntity
  8
0
100
AcDbBlockBegin
  2
*D16
 70
     1
 10
0.0
 20
0.0
 30
0.0
  3
*D16
  1

  0
LINE
  5
304
330
301
100
AcDbEntity
  8
DIMENSION
440
 16777216
370
     0
100
AcDbLine
 10
-21.73759243738801
 20
300.6420950786001
 30
0.0
 11
-31.73759243738802
 21
300.6420950786001
 31
0.0
  0
LINE
  5
305
330
301
100
AcDbEntity
  8
DIMENSION
440
 16777216
370
     0
100
AcDbLine
 10
-21.73759243738802
 20
374.9420950786001
 30
0.0
 11
-31.73759243738803
 21
374.9420950786001
 31
0.0
  0
LINE
  5
306
330
301
100
AcDbEntity
  8
DIMENSION
440
 16777216
370
     0
100
AcDbLine
 10
-26.73759243738802
 20
300.6420950786001
 30
0.0
 11
-26.73759243738803
 21
374.9420950786001
 31
0.0
  0
MTEXT
  5
307
330
301
100
AcDbEntity
  8
DIMENSION
 62
     7
440
 16777216
100
AcDbMText
 10
-37.40425910405458
 20
337.7920950786
 30
0.0
 40
8.0
 41
0.0
 46
0.0
 71
     5
 72
     1
  1
\A1;74
 73
     1
 44
1.0
  0
POINT
  5
308
330
301
100
AcDbEntity
  8
Defpoints
 62
     0
440
 16777216
100
AcDbPoint
 10
14.9009023069
 20
300.6420950786001
 30
0.0
  0
POINT
  5
309
330
301
100
AcDbEntity
  8
Defpoints
 62
     0
440
 16777216
100
AcDbPoint
 10
14.9009023069
 20
374.9420950786001
 30
0.0
  0
POINT
  5
30A
330
301
100
AcDbEntity
  8
Defpoints
 62
     0
440
 16777216
100
AcDbPoint
 10
-26.73759243738803
 20
374.9420950786001
 30
0.0
  0
ENDBLK
  5
303
330
301
100
AcDbEntity
  8
0
100
AcDbBlockEnd
  0
BLOCK
  5
310
330
30F
100
AcDbEntity
  8
0
100
AcDbBlockBegin
  2
*D17
 70
     1
 10
0.0
 20
0.0
 30
0.0
  3
*D17
  1

  0
LINE
  5
312
330
30F
100
AcDbEntity
  8
DIMENSION
440
 16777216
370
     0
100
AcDbLine
 10
37.3659023069
 20
403.9420950785999
 30
0.0
 11
37.3659023069
 21
413.9420950786
 31
0.0
  0
LINE
  5
313
330
30F
100
AcDbEntity
  8
DIMENSION
440
 16777216
370
     0
100
AcDbLine
 10
-7.434097693099997
 20
403.9420950785999
 30
0.0
 11
-7.434097693099996
 21
413.9420950786
 31
0.0
  0
LINE
  5
314
330
30F
100
AcDbEntity
  8
DIMENSION
440
 16777216
370
     0
100
AcDbLine
 10
37.3659023069
 20
408.9420950785999
 30
0.0
 11
-7.434097693099997
 21
408.9420950785999
 31
0.0
  0
MTEXT
  5
315
330
30F
100
AcDbEntity
  8
DIMENSION
 62
     7
440
 16777216
100
AcDbMText
 10
12.7108404177
 20
420.9420950785999
 30
0.0
 40
8.0
 41
0.0
 46
0.0
 71
     2
 72
     1
  1
\A1;%%c45
 73
     1
 44
1.0
  0
POINT
  5
316
330
30F
100
AcDbEntity
  8
Defpoints
 62
     0
440
 16777216
100
AcDbPoint
 10
37.3659023069
 20
374.9420950786
 30
0.0
  0
POINT
  5
317
330
30F
100
AcDbEntity
  8
Defpoints
 62
     0
440
 16777216
100
AcDbPoint
 10
-7.434097693099999
 20
374.9420950786
 30
0.0
  0
POINT
  5
318
330
30F
100
AcDbEntity
  8
Defpoints
 62
     0
440
 16777216
100
AcDbPoint
 10
-7.434097693099997
 20
408.9420950785999
 30
0.0
  0
ENDBLK
  5
311
330
30F
100
AcDbEntity
  8
0
100
AcDbBlockEnd
  0
BLOCK
  5
31E
330
31D
100
AcDbEntity
  8
0
100
AcDbBlockBegin
  2
*D18
 70
     1
 10
0.0
 20
0.0
 30
0.0
  3
*D18
  1

  0
LINE
  5
320
330
31D
100
AcDbEntity
  8
DIMENSION
440
 16777216
370
     0
100
AcDbLine
 10
-41.09909769310012
 20
374.9420950786001
 30
0.0
 11
-51.09909769310013
 21
374.9420950786001
 31
0.0
  0
LINE
  5
321
330
31D
100
AcDbEntity
  8
DIMENSION
440
 16777216
370
     0
100
AcDbLine
 10
-41.09909769310009
 20
254.9420950786001
 30
0.0
 11
-51.0990976931001
 21
254.9420950786001
 31
0.0
  0
LINE
  5
322
330
31D
100
AcDbEntity
  8
DIMENSION
440
 16777216
370
     0
100
AcDbLine
 10
-46.09909769310012
 20
374.9420950786001
 30
0.0
 11
-46.09909769310009
 21
254.9420950786001
 31
0.0
  0
MTEXT
  5
323
330
31D
100
AcDbEntity
  8
DIMENSION
 62
     7
440
 16777216
100
AcDbMText
 10
-58.76576435976667
 20
320.3255685991
 30
0.0
 40
8.0
 41
0.0
 46
0.0
 71
     2
 72
     1
  1
\A1;120
 73
     1
 44
1.0
  0
POINT
  5
324
330
31D
100
AcDbEntity
  8
Defpoints
 62
     0
440
 16777216
100
AcDbPoint
 10
6.369374493600004
 20
374.9420950786001
 30
0.0
  0
POINT
  5
325
330
31D
100
AcDbEntity
  8
Defpoints
 62
     0
440
 16777216
100
AcDbPoint
 10
-7.324097693100003
 20
254.9420950786001
 30
0.0
  0
POINT
  5
326
330
31D
100
AcDbEntity
  8
Defpoints
 62
     0
440
 16777216
100
AcDbPoint
 10
-46.09909769310009
 20
254.9420950786001
 30
0.0
  0
ENDBLK
  5
31F
330
31D
100
AcDbEntity
  8
0
100
AcDbBlockEnd
  0
BLOCK
  5
32C
330
32B
100
AcDbEntity
  8
0
100
AcDbBlockBegin
  2
*D19
 70
     1
 10
0.0
 20
0.0
 30
0.0
  3
*D19
  1

  0
LINE
  5
32E
330
32B
100
AcDbEntity
  8
DIMENSION
440
 16777216
370
     0
100
AcDbLine
 10
-41.0990976931
 20
-78.68498802150003
 30
0.0
 11
-51.09909769310001
 21
-78.68498802150003
 31
0.0
  0
LINE
  5
32F
330
32B
100
AcDbEntity
  8
DIMENSION
440
 16777216
370
     0
100
AcDbLine
 10
-41.09909769310006
 20
186.1794747061
 30
0.0
 11
-51.09909769310007
 21
186.1794747061
 31
0.0
  0
LINE
  5
330
330
32B
100
AcDbEntity
  8
DIMENSION
440
 16777216
370
     0
100
AcDbLine
 10
-46.0990976931
 20
-78.68498802150003
 30
0.0
 11
-46.09909769310006
 21
186.1794747061
 31
0.0
  0
MTEXT
  5
331
330
32B
100
AcDbEntity
  8
DIMENSION
 62
     7
440
 16777216
100
AcDbMText
 10
-60.76576435976667
 20
68.5365521855
 30
0.0
 40
8.0
 41
0.0
 46
0.0
 71
     2
 72
     1
  1
\A1;265
 73
     1
 44
1.0
  0
POINT
  5
332
330
32B
100
AcDbEntity
  8
Defpoints
 62
     0
440
 16777216
100
AcDbPoint
 10
-12.0990976931
 20
-78.68498802150002
 30
0.0
  0
POINT
  5
333
330
32B
100
AcDbEntity
  8
Defpoints
 62
     0
440
 16777216
100
AcDbPoint
 10
69.90090230830003
 20
186.1794747061
 30
0.0
  0
POINT
  5
334
330
32B
100
AcDbEntity
  8
Defpoints
 62
     0
440
 16777216
100
AcDbPoint
 10
-46.09909769310006
 20
186.1794747061
 30
0.0
  0
ENDBLK
  5
32D
330
32B
100
AcDbEntity
  8
0
100
AcDbBlockEnd
  0
BLOCK
  5
33A
330
339
100
AcDbEntity
  8
0
100
AcDbBlockBegin
  2
*D20
 70
     1
 10
0.0
 20
0.0
 30
0.0
  3
*D20
  1

  0
LINE
  5
33C
330
339
100
AcDbEntity
  8
DIMENSION
440
 16777216
370
     0
100
AcDbLine
 10
296.9009023083001
 20
-78.68498802149996
 30
0.0
 11
306.9009023083001
 21
-78.68498802149996
 31
0.0
  0
LINE
  5
33D
330
339
100
AcDbEntity
  8
DIMENSION
440
 16777216
370
     0
100
AcDbLine
 10
296.9009023083
 20
146.5294747061
 30
0.0
 11
306.9009023083
 21
146.5294747061
 31
0.0
  0
LINE
  5
33E
330
339
100
AcDbEntity
  8
DIMENSION
440
 16777216
370
     0
100
AcDbLine
 10
301.9009023083001
 20
-78.68498802149996
 30
0.0
 11
301.9009023083
 21
146.5294747061
 31
0.0
  0
MTEXT
  5
33F
330
339
100
AcDbEntity
  8
DIMENSION
 62
     7
440
 16777216
100
AcDbMText
 10
316.5675689749667
 20
34.7685088847
 30
0.0
 40
8.0
 41
0.0
 46
0.0
 71
     2
 72
     1
  1
\A1;225
 73
     1
 44
1.0
  0
POINT
  5
340
330
339
100
AcDbEntity
  8
Defpoints
 62
     0
440
 16777216
100
AcDbPoint
 10
14.9009023069
 20
-78.68498802150002
 30
0.0
  0
POINT
  5
341
330
339
100
AcDbEntity
  8
Defpoints
 62
     0
440
 16777216
100
AcDbPoint
 10
249.9009023083001
 20
146.5294747061
 30
0.0
  0
POINT
  5
342
330
339
100
AcDbEntity
  8
Defpoints
 62
     0
440
 16777216
100
AcDbPoint
 10
301.9009023083
 20
146.5294747061
 30
0.0
  0
ENDBLK
  5
33B
330
339
100
AcDbEntity
  8
0
100
AcDbBlockEnd
  0
BLOCK
  5
348
330
347
100
AcDbEntity
  8
0
100
AcDbBlockBegin
  2
*D21
 70
     1
 10
0.0
 20
0.0
 30
0.0
  3
*D21
  1

  0
LINE
  5
34A
330
347
100
AcDbEntity
  8
DIMENSION
440
 16777216
370
     0
100
AcDbLine
 10
14.9009023069
 20
-107.6849880215
 30
0.0
 11
14.9009023069
 21
-117.6849880215
 31
0.0
  0
LINE
  5
34B
330
347
100
AcDbEntity
  8
DIMENSION
440
 16777216
370
     0
100
AcDbLine
 10
249.9009023083
 20
-107.6849880214999
 30
0.0
 11
249.9009023083
 21
-117.6849880215
 31
0.0
  0
LINE
  5
34C
330
347
100
AcDbEntity
  8
DIMENSION
440
 16777216
370
     0
100
AcDbLine
 10
14.9009023069
 20
-112.6849880215
 30
0.0
 11
249.9009023083
 21
-112.6849880215
 31
0.0
  0
MTEXT
  5
34D
330
347
100
AcDbEntity
  8
DIMENSION
 62
     7
440
 16777216
100
AcDbMText
 10
129.3038258325
 20
-116.6849880215
 30
0.0
 40
8.0
 41
0.0
 46
0.0
 71
     2
 72
     1
  1
\A1;235
 73
     1
 44
1.0
  0
POINT
  5
34E
330
347
100
AcDbEntity
  8
Defpoints
 62
     0
440
 16777216
100
AcDbPoint
 10
14.9009023069
 20
-78.68498802149999
 30
0.0
  0
POINT
  5
34F
330
347
100
AcDbEntity
  8
Defpoints
 62
     0
440
 16777216
100
AcDbPoint
 10
249.9009023083
 20
146.5294747061
 30
0.0
  0
POINT
  5
350
330
347
100
AcDbEntity
  8
Defpoints
 62
     0
440
 16777216
100
AcDbPoint
 10
249.9009023083
 20
-112.6849880215
 30
0.0
  0
ENDBLK
  5
349
330
347
100
AcDbEntity
  8
0
100
AcDbBlockEnd
  0
BLOCK
  5
356
330
355
100
AcDbEntity
  8
0
100
AcDbBlockBegin
  2
*D22
 70
     1
 10
0.0
 20
0.0
 30
0.0
  3
*D22
  1

  0
LINE
  5
358
330
355
100
AcDbEntity
  8
DIMENSION
440
 16777216
370
     0
100
AcDbLine
 10
361.1917155280605
 20
-78.68498802150003
 30
0.0
 11
351.1917155280605
 21
-78.68498802150004
 31
0.0
  0
LINE
  5
359
330
355
100
AcDbEntity
  8
DIMENSION
440
 16777216
370
     0
100
AcDbLine
 10
361.1917155280605
 20
31.31501197850001
 30
0.0
 11
351.1917155280605
 21
31.31501197850001
 31
0.0
  0
LINE
  5
35A
330
355
100
AcDbEntity
  8
DIMENSION
440
 16777216
370
     0
100
AcDbLine
 10
356.1917155280605
 20
-78.68498802150003
 30
0.0
 11
356.1917155280605
 21
31.31501197850001
 31
0.0
  0
MTEXT
  5
35B
330
355
100
AcDbEntity
  8
DIMENSION
 62
     7
440
 16777216
100
AcDbMText
 10
344.8583821947271
 20
-23.68498802150011
 30
0.0
 40
8.0
 41
0.0
 46
0.0
 71
     5
 72
     1
  1
\A1;110
 73
     1
 44
1.0
  0
POINT
  5
35C
330
355
100
AcDbEntity
  8
Defpoints
 62
     0
440
 16777216
100
AcDbPoint
 10
425.4647542729002
 20
-78.68498802150002
 30
0.0
  0
POINT
  5
35D
330
355
100
AcDbEntity
  8
Defpoints
 62
     0
440
 16777216
100
AcDbPoint
 10
383.5036156227001
 20
31.31501197850001
 30
0.0
  0
POINT
  5
35E
330
355
100
AcDbEntity
  8
Defpoints
 62
     0
440
 16777216
100
AcDbPoint
 10
356.1917155280605
 20
31.31501197850001
 30
0.0
  0
ENDBLK
  5
357
330
355
100
AcDbEntity
  8
0
100
AcDbBlockEnd
  0
BLOCK
  5
364
330
363
100
AcDbEntity
  8
0
100
AcDbBlockBegin
  2
*D23
 70
     1
 10
0.0
 20
0.0
 30
0.0
  3
*D23
  1

  0
LINE
  5
366
330
363
100
AcDbEntity
  8
DIMENSION
440
 16777216
370
     0
100
AcDbLine
 10
513.8711589280988
 20
-78.6849880215
 30
0.0
 11
523.8711589280987
 21
-78.6849880215
 31
0.0
  0
LINE
  5
367
330
363
100
AcDbEntity
  8
DIMENSION
440
 16777216
370
     0
100
AcDbLine
 10
513.8711589280988
 20
9.090011978500008
 30
0.0
 11
523.8711589280987
 21
9.09001197850001
 31
0.0
  0
LINE
  5
368
330
363
100
AcDbEntity
  8
DIMENSION
440
 16777216
370
     0
100
AcDbLine
 10
518.8711589280988
 20
-78.6849880215
 30
0.0
 11
518.8711589280988
 21
9.09001197850001
 31
0.0
  0
MTEXT
  5
369
330
363
100
AcDbEntity
  8
DIMENSION
 62
     7
440
 16777216
100
AcDbMText
 10
529.5378255947652
 20
-34.79748802150014
 30
0.0
 40
8.0
 41
0.0
 46
0.0
 71
     5
 72
     1
  1
\A1;88
 73
     1
 44
1.0
  0
POINT
  5
36A
330
363
100
AcDbEntity
  8
Defpoints
 62
     0
440
 16777216
100
AcDbPoint
 10
425.4647542729002
 20
-78.68498802150002
 30
0.0
  0
POINT
  5
36B
330
363
100
AcDbEntity
  8
Defpoints
 62
     0
440
 16777216
100
AcDbPoint
 10
474.9036156227002
 20
9.090011978500003
 30
0.0
  0
POINT
  5
36C
330
363
100
AcDbEntity
  8
Defpoints
 62
     0
440
 16777216
100
AcDbPoint
 10
518.8711589280988
 20
9.09001197850001
 30
0.0
  0
ENDBLK
  5
365
330
363
100
AcDbEntity
  8
0
100
AcDbBlockEnd
  0
BLOCK
  5
372
330
371
100
AcDbEntity
  8
0
100
AcDbBlockBegin
  2
*D24
 70
     1
 10
0.0
 20
0.0
 30
0.0
  3
*D24
  1

  0
LINE
  5
374
330
371
100
AcDbEntity
  8
DIMENSION
440
 16777216
370
     0
100
AcDbLine
 10
532.5036156227
 20
-13.4099880215
 30
0.0
 11
542.5036156227
 21
-13.4099880215
 31
0.0
  0
LINE
  5
375
330
371
100
AcDbEntity
  8
DIMENSION
440
 16777216
370
     0
100
AcDbLine
 10
532.5036156227
 20
111.5899202498
 30
0.0
 11
542.5036156227
 21
111.5899202498
 31
0.0
  0
LINE
  5
376
330
371
100
AcDbEntity
  8
DIMENSION
440
 16777216
370
     0
100
AcDbLine
 10
537.5036156227
 20
-13.4099880215
 30
0.0
 11
537.5036156227
 21
111.5899202498
 31
0.0
  0
MTEXT
  5
377
330
371
100
AcDbEntity
  8
DIMENSION
 62
     7
440
 16777216
100
AcDbMText
 10
550.8369489560333
 20
52.9180503626
 30
0.0
 40
8.0
 41
0.0
 46
0.0
 71
     2
 72
     1
  1
\A1;125
 73
     1
 44
1.0
  0
POINT
  5
378
330
371
100
AcDbEntity
  8
Defpoints
 62
     0
440
 16777216
100
AcDbPoint
 10
503.4036156227002
 20
-13.40998802150001
 30
0.0
  0
POINT
  5
379
330
371
100
AcDbEntity
  8
Defpoints
 62
     0
440
 16777216
100
AcDbPoint
 10
493.1036156227001
 20
111.5899202498
 30
0.0
  0
POINT
  5
37A
330
371
100
AcDbEntity
  8
Defpoints
 62
     0
440
 16777216
100
AcDbPoint
 10
537.5036156227
 20
111.5899202498
 30
0.0
  0
ENDBLK
  5
373
330
371
100
AcDbEntity
  8
0
100
AcDbBlockEnd
  0
BLOCK
  5
380
330
37F
100
AcDbEntity
  8
0
100
AcDbBlockBegin
  2
*D25
 70
     1
 10
0.0
 20
0.0
 30
0.0
  3
*D25
  1

  0
LINE
  5
382
330
37F
100
AcDbEntity
  8
DIMENSION
440
 16777216
370
     0
100
AcDbLine
 10
456.3931892687
 20
-107.6849880215
 30
0.0
 11
456.3931892687
 21
-117.6849880215
 31
0.0
  0
LINE
  5
383
330
37F
100
AcDbEntity
  8
DIMENSION
440
 16777216
370
     0
100
AcDbLine
 10
402.3931892687
 20
-107.6849880215
 30
0.0
 11
402.3931892687
 21
-117.6849880215
 31
0.0
  0
LINE
  5
384
330
37F
100
AcDbEntity
  8
DIMENSION
440
 16777216
370
     0
100
AcDbLine
 10
456.3931892687
 20
-112.6849880215
 30
0.0
 11
402.3931892687
 21
-112.6849880215
 31
0.0
  0
MTEXT
  5
385
330
37F
100
AcDbEntity
  8
DIMENSION
 62
     7
440
 16777216
100
AcDbMText
 10
427.5273699123
 20
-116.6849880215
 30
0.0
 40
8.0
 41
0.0
 46
0.0
 71
     2
 72
     1
  1
\A1;%%c54
 73
     1
 44
1.0
  0
POINT
  5
386
330
37F
100
AcDbEntity
  8
Defpoints
 62
     0
440
 16777216
100
AcDbPoint
 10
456.3931892687
 20
-78.68498802149999
 30
0.0
  0
POINT
  5
387
330
37F
100
AcDbEntity
  8
Defpoints
 62
     0
440
 16777216
100
AcDbPoint
 10
402.3931892687
 20
-78.68498802149999
 30
0.0
  0
POINT
  5
388
330
37F
100
AcDbEntity
  8
Defpoints
 62
     0
440
 16777216
100
AcDbPoint
 10
402.3931892687
 20
-112.6849880215
 30
0.0
  0
ENDBLK
  5
381
330
37F
100
AcDbEntity
  8
0
100
AcDbBlockEnd
  0
BLOCK
  5
38E
330
38D
100
AcDbEntity
  8
0
100
AcDbBlockBegin
  2
*D26
 70
     1
 10
0.0
 20
0.0
 30
0.0
  3
*D26
  1

  0
LINE
  5
3B7
330
38D
100
AcDbEntity
  8
DIMENSION
440
 16777216
370
     0
100
AcDbLine
 10
413.5036156226999
 20
203.5294747061
 30
0.0
 11
413.5036156226999
 21
213.5294747061
 31
0.0
  0
LINE
  5
3B8
330
38D
100
AcDbEntity
  8
DIMENSION
440
 16777216
370
     0
100
AcDbLine
 10
444.9036156226999
 20
203.5294747061
 30
0.0
 11
444.9036156226999
 21
213.5294747061
 31
0.0
  0
LINE
  5
3B9
330
38D
100
AcDbEntity
  8
DIMENSION
440
 16777216
370
     0
100
AcDbLine
 10
413.5036156226999
 20
208.5294747061
 30
0.0
 11
444.9036156226999
 21
208.5294747061
 31
0.0
  0
MTEXT
  5
3BA
330
38D
100
AcDbEntity
  8
DIMENSION
 62
     7
440
 16777216
100
AcDbMText
 10
427.5273699123
 20
220.5294747061
 30
0.0
 40
8.0
 41
0.0
 46
0.0
 71
     2
 72
     1
  1
\A1;%%c32
 73
     1
 44
1.0
  0
POINT
  5
3BB
330
38D
100
AcDbEntity
  8
Defpoints
 62
     0
440
 16777216
100
AcDbPoint
 10
413.5036156226999
 20
170.8294747061
 30
0.0
  0
POINT
  5
3BC
330
38D
100
AcDbEntity
  8
Defpoints
 62
     0
440
 16777216
100
AcDbPoint
 10
444.9036156226999
 20
170.8294747061
 30
0.0
  0
POINT
  5
3BD
330
38D
100
AcDbEntity
  8
Defpoints
 62
     0
440
 16777216
100
AcDbPoint
 10
444.9036156226999
 20
208.5294747061
 30
0.0
  0
ENDBLK
  5
38F
330
38D
100
AcDbEntity
  8
0
100
AcDbBlockEnd
  0
ENDSEC
  0
SECTION
  2
ENTITIES
  0
LINE
  5
74
330
1F
100
AcDbEntity
  8
0
  6
Continuous
 62
     7
370
    25
100
AcDbLine
 10
37.1259023069
 20
-74.68498802149999
 30
0.0
 11
37.1259023069
 21
-5.734988021499999
 31
0.0
  0
LINE
  5
75
330
1F
100
AcDbEntity
  8
0
  6
Continuous
 62
     7
370
    25
100
AcDbLine
 10
-7.324097693099999
 20
-5.734988021499999
 30
0.0
 11
-7.324097693099999
 21
-74.68498802149999
 31
0.0
  0
ARC
  5
76
330
1F
100
AcDbEntity
  8
0
  6
Continuous
 62
     7
370
    25
100
AcDbCircle
 10
-27.6860087166
 20
-10.6762620966
 30
0.0
 40
64.99999999999999
100
AcDbArc
 50
4.35980841
 51
10.8551830281
  0
ARC
  5
77
330
1F
100
AcDbEntity
  8
0
  6
Continuous
 62
     7
370
    25
100
AcDbCircle
 10
57.4878133303
 20
-10.6762620966
 30
0.0
 40
65.0
100
AcDbArc
 50
169.1448169719
 51
175.64019159
  0
LINE
  5
78
330
1F
100
AcDbEntity
  8
DIMENSION
100
AcDbLine
 10
30.8009023069
 20
24.7094679848
 30
0.0
 11
30.8009023069
 21
42.6794747061
 31
0.0
  0
LINE
  5
79
330
1F
100
AcDbEntity
  8
DIMENSION
100
AcDbLine
 10
-0.9990976931
 20
42.6794747061
 30
0.0
 11
-0.9990976931
 21
24.7002903984
 31
0.0
  0
LINE
  5
7A
330
1F
100
AcDbEntity
  8
0
  6
Continuous
 62
     7
370
    25
100
AcDbLine
 10
229.6009023083
 20
186.3294747061
 30
0.0
 11
222.6009023083
 21
186.3294747061
 31
0.0
  0
LINE
  5
7B
330
1F
100
AcDbEntity
  8
0
  6
Continuous
 62
     7
370
    25
100
AcDbLine
 10
250.6009023083
 20
186.3294747061
 30
0.0
 11
234.9009023083
 21
186.3294747061
 31
0.0
  0
LINE
  5
7C
330
1F
100
AcDbEntity
  8
0
  6
Continuous
 62
     7
370
    25
100
AcDbLine
 10
261.2009023083
 20
186.3294747061
 30
0.0
 11
255.9009023083
 21
186.3294747061
 31
0.0
  0
ARC
  5
7D
330
1F
100
AcDbEntity
  8
0
  6
Continuous
 62
     7
370
    25
100
AcDbCircle
 10
222.6009023083
 20
186.1294747061
 30
0.0
 40
0.2000000000000171
100
AcDbArc
 50
90.0
 51
180.0
  0
ARC
  5
7E
330
1F
100
AcDbEntity
  8
0
  6
Continuous
 62
     7
370
    25
100
AcDbCircle
 10
261.2009023083
 20
186.1294747061
 30
0.0
 40
0.2000000000000455
100
AcDbArc
 50
0.0
 51
90.0
  0
LINE
  5
7F
330
1F
100
AcDbEntity
  8
0
  6
Continuous
 62
     7
370
    25
100
AcDbLine
 10
249.1509023083
 20
146.5294747061
 30
0.0
 11
249.1509023083
 21
146.3294747061
 31
0.0
  0
LINE
  5
80
330
1F
100
AcDbEntity
  8
0
  6
Continuous
 62
     7
370
    25
100
AcDbLine
 10
250.6509023083
 20
146.3294747061
 30
0.0
 11
250.6509023083
 21
146.5294747061
 31
0.0
  0
LINE
  5
81
330
1F
100
AcDbEntity
  8
0
  6
Continuous
 62
     7
370
    25
100
AcDbLine
 10
246.3970676684
 20
146.5294747061
 30
0.0
 11
246.3970676684
 21
146.3294747061
 31
0.0
  0
LINE
  5
82
330
1F
100
AcDbEntity
  8
0
  6
Continuous
 62
     7
370
    25
100
AcDbLine
 10
247.8970676684
 20
146.3294747061
 30
0.0
 11
247.8970676684
 21
146.5294747061
 31
0.0
  0
LINE
  5
83
330
1F
100
AcDbEntity
  8
0
  6
Continuous
 62
     7
370
    25
100
AcDbLine
 10
251.9047369482
 20
146.5294747061
 30
0.0
 11
251.9047369482
 21
146.3294747061
 31
0.0
  0
LINE
  5
84
330
1F
100
AcDbEntity
  8
0
  6
Continuous
 62
     7
370
    25
100
AcDbLine
 10
253.4047369482
 20
146.3294747061
 30
0.0
 11
253.4047369482
 21
146.5294747061
 31
0.0
  0
LINE
  5
85
330
1F
100
AcDbEntity
  8
0
  6
Continuous
 62
     7
370
    25
100
AcDbLine
 10
243.8309023083
 20
146.5294747061
 30
0.0
 11
243.8309023083
 21
146.3294747061
 31
0.0
  0
LINE
  5
86
330
1F
100
AcDbEntity
  8
0
  6
Continuous
 62
     7
370
    25
100
AcDbLine
 10
245.3309023083
 20
146.3294747061
 30
0.0
 11
245.3309023083
 21
146.5294747061
 31
0.0
  0
LINE
  5
87
330
1F
100
AcDbEntity
  8
0
  6
Continuous
 62
     7
370
    25
100
AcDbLine
 10
254.4709023083
 20
146.5294747061
 30
0.0
 11
254.4709023083
 21
146.3294747061
 31
0.0
  0
LINE
  5
88
330
1F
100
AcDbEntity
  8
0
  6
Continuous
 62
     7
370
    25
100
AcDbLine
 10
255.9709023083
 20
146.3294747061
 30
0.0
 11
255.9709023083
 21
146.5294747061
 31
0.0
  0
LINE
  5
89
330
1F
100
AcDbEntity
  8
0
  6
Continuous
 62
     7
370
    25
100
AcDbLine
 10
241.6272861565
 20
146.5294747061
 30
0.0
 11
241.6272861565
 21
146.3294747061
 31
0.0
  0
LINE
  5
8A
330
1F
100
AcDbEntity
  8
0
  6
Continuous
 62
     7
370
    25
100
AcDbLine
 10
243.1272861565
 20
146.3294747061
 30
0.0
 11
243.1272861565
 21
146.5294747061
 31
0.0
  0
LINE
  5
8B
330
1F
100
AcDbEntity
  8
0
  6
Continuous
 62
     7
370
    25
100
AcDbLine
 10
256.6745184601
 20
146.5294747061
 30
0.0
 11
256.6745184601
 21
146.3294747061
 31
0.0
  0
LINE
  5
8C
330
1F
100
AcDbEntity
  8
0
  6
Continuous
 62
     7
370
    25
100
AcDbLine
 10
258.1745184601
 20
146.3294747061
 30
0.0
 11
258.1745184601
 21
146.5294747061
 31
0.0
  0
LINE
  5
8D
330
1F
100
AcDbEntity
  8
0
  6
Continuous
 62
     7
370
    25
100
AcDbLine
 10
239.936392012
 20
146.5294747061
 30
0.0
 11
239.936392012
 21
146.3294747061
 31
0.0
  0
LINE
  5
8E
330
1F
100
AcDbEntity
  8
0
  6
Continuous
 62
     7
370
    25
100
AcDbLine
 10
241.436392012
 20
146.3294747061
 30
0.0
 11
241.436392012
 21
146.5294747061
 31
0.0
  0
LINE
  5
8F
330
1F
100
AcDbEntity
  8
0
  6
Continuous
 62
     7
370
    25
100
AcDbLine
 10
258.3654126046
 20
146.5294747061
 30
0.0
 11
258.3654126046
 21
146.3294747061
 31
0.0
  0
LINE
  5
90
330
1F
100
AcDbEntity
  8
0
  6
Continuous
 62
     7
370
    25
100
AcDbLine
 10
259.8654126046
 20
146.3294747061
 30
0.0
 11
259.8654126046
 21
146.5294747061
 31
0.0
  0
LINE
  5
91
330
1F
100
AcDbEntity
  8
0
  6
Continuous
 62
     7
370
    25
100
AcDbLine
 10
238.8734515166
 20
146.5294747061
 30
0.0
 11
238.8734515166
 21
146.3294747061
 31
0.0
  0
LINE
  5
92
330
1F
100
AcDbEntity
  8
0
  6
Continuous
 62
     7
370
    25
100
AcDbLine
 10
260.9283531
 20
146.3294747061
 30
0.0
 11
260.9283531
 21
146.5294747061
 31
0.0
  0
LINE
  5
93
330
1F
100
AcDbEntity
  8
0
  6
Continuous
 62
     7
370
    25
100
AcDbLine
 10
238.5109023083
 20
146.5294747061
 30
0.0
 11
238.5109023083
 21
146.3294747061
 31
0.0
  0
LINE
  5
94
330
1F
100
AcDbEntity
  8
0
  6
Continuous
 62
     7
370
    25
100
AcDbLine
 10
261.2909023083
 20
146.3294747061
 30
0.0
 11
261.2909023083
 21
146.5294747061
 31
0.0
  0
LINE
  5
95
330
1F
100
AcDbEntity
  8
DIMENSION
100
AcDbLine
 10
11.0111038007
 20
42.87947470609999
 30
0.0
 11
11.0108362317
 21
42.6794747061
 31
0.0
  0
LINE
  5
96
330
1F
100
AcDbEntity
  8
DIMENSION
100
AcDbLine
 10
19.010843391
 20
42.6794747061
 30
0.0
 11
19.01111096
 21
42.87947470609999
 31
0.0
  0
LINE
  5
97
330
1F
100
AcDbEntity
  8
0
  6
Continuous
 62
     7
370
    25
100
AcDbLine
 10
265.9009023083001
 20
146.5294747061
 30
0.0
 11
265.5935995368
 21
155.3294747061
 31
0.0
  0
LINE
  5
98
330
1F
100
AcDbEntity
  8
0
  6
Continuous
 62
     7
370
    25
100
AcDbLine
 10
234.2082050798
 20
155.3294747061
 30
0.0
 11
233.9009023083
 21
146.5294747061
 31
0.0
  0
LINE
  5
99
330
1F
100
AcDbEntity
  8
0
  6
Continuous
 62
     7
370
    25
100
AcDbLine
 10
265.5935995368
 20
155.3294747061
 30
0.0
 11
273.7009023083
 21
155.3294747061
 31
0.0
  0
LINE
  5
9A
330
1F
100
AcDbEntity
  8
0
  6
Continuous
 62
     7
370
    25
100
AcDbLine
 10
142.8009023083
 20
155.3294747061
 30
0.0
 11
234.2082050798
 21
155.3294747061
 31
0.0
  0
LINE
  5
9B
330
1F
100
AcDbEntity
  8
0
  6
Continuous
 62
     7
370
    25
100
AcDbLine
 10
221.7009023083
 20
186.3294747061
 30
0.0
 11
142.8009023083
 21
186.3294747061
 31
0.0
  0
LINE
  5
9C
330
1F
100
AcDbEntity
  8
0
  6
Continuous
 62
     7
370
    25
100
AcDbLine
 10
273.7009023083
 20
186.3294747061
 30
0.0
 11
262.1009023083
 21
186.3294747061
 31
0.0
  0
LINE
  5
9D
330
1F
100
AcDbEntity
  8
0
  6
Continuous
 62
     7
370
    25
100
AcDbLine
 10
273.7009023083
 20
155.3294747061
 30
0.0
 11
273.9009023083
 21
155.5294747061
 31
0.0
  0
LINE
  5
9E
330
1F
100
AcDbEntity
  8
0
  6
Continuous
 62
     7
370
    25
100
AcDbLine
 10
273.9009023083
 20
186.1294747061
 30
0.0
 11
273.7009023083
 21
186.3294747061
 31
0.0
  0
LINE
  5
9F
330
1F
100
AcDbEntity
  8
0
  6
Continuous
 62
     7
370
    25
100
AcDbLine
 10
142.8009023083
 20
182.0794747061
 30
0.0
 11
142.7009023083
 21
182.0794747061
 31
0.0
  0
LINE
  5
A0
330
1F
100
AcDbEntity
  8
0
  6
Continuous
 62
     7
370
    25
100
AcDbLine
 10
142.7009023083
 20
159.5794747061
 30
0.0
 11
142.8009023083
 21
159.5794747061
 31
0.0
  0
SPLINE
  5
A1
330
1F
100
AcDbEntity
  8
0
  6
Continuous
 62
     7
370
    25
100
AcDbSpline
210
0.0
220
0.0
230
1.0
 70
     8
 71
     3
 72
    13
 73
     9
 74
     0
 42
0.00000001
 43
0.0000000001
 40
0.0
 40
0.0
 40
0.0
 40
0.0
 40
0.0461743177310749
 40
0.3170305916535165
 40
0.5437374310016368
 40
0.7422417679662845
 40
0.9151159454806791
 40
1.0
 40
1.0
 40
1.0
 40
1.0
 10
261.8983023755846
 20
184.4370470629834
 30
0.0
 10
261.8991751618432
 20
184.4320594041562
 30
0.0
 10
261.9051676693137
 20
184.39781438427
 30
0.0
 10
261.8580445356516
 20
184.2924984249221
 30
0.0
 10
261.6565845792175
 20
184.1245398107052
 30
0.0
 10
261.3786502652908
 20
184.0079206646822
 30
0.0
 10
261.112554259103
 20
183.9486568508968
 30
0.0
 10
260.9533022736094
 20
183.9521123620294
 30
0.0
 10
260.9008579574287
 20
183.9532503190718
 30
0.0
  0
SPLINE
  5
A2
330
1F
100
AcDbEntity
  8
0
  6
Continuous
 62
     7
370
    25
100
AcDbSpline
210
0.0
220
0.0
230
1.0
 70
     8
 71
     3
 72
    13
 73
     9
 74
     0
 42
0.00000001
 43
0.0000000001
 40
0.0
 40
0.0
 40
0.0
 40
0.0
 40
0.0047111879149992
 40
0.1768329445363557
 40
0.3536107609789149
 40
0.5510994746261721
 40
0.7765257741710446
 40
1.0
 40
1.0
 40
1.0
 40
1.0
 10
222.9005972694985
 20
183.9470913420878
 30
0.0
 10
222.8977400974201
 20
183.9469027423847
 30
0.0
 10
222.790497049427
 20
183.9398237123318
 30
0.0
 10
222.5715128193941
 20
183.9722029864089
 30
0.0
 10
222.2845190281245
 20
184.0565779582981
 30
0.0
 10
222.0519390263582
 20
184.1900903457571
 30
0.0
 10
221.9119778385723
 20
184.3457746480155
 30
0.0
 10
221.9072099580059
 20
184.4040833842452
 30
0.0
 10
221.904836384445
 20
184.4331109726559
 30
0.0
  0
LINE
  5
A3
330
1F
100
AcDbEntity
  8
0
  6
Continuous
 62
     7
370
    25
100
AcDbLine
 10
260.9009023083
 20
183.9465177114
 30
0.0
 11
222.9009023083
 21
183.9465177114
 31
0.0
  0
ARC
  5
A4
330
1F
100
AcDbEntity
  8
0
  6
Continuous
 62
     7
370
    25
100
AcDbCircle
 10
221.7009023083
 20
186.1294747061
 30
0.0
 40
0.2000000000000171
100
AcDbArc
 50
0.0
 51
90.0
  0
ARC
  5
A5
330
1F
100
AcDbEntity
  8
0
  6
Continuous
 62
     7
370
    25
100
AcDbCircle
 10
262.1009023083
 20
186.1294747061
 30
0.0
 40
0.2000000000000455
100
AcDbArc
 50
90.0
 51
180.0
  0
LINE
  5
A6
330
1F
100
AcDbEntity
  8
DIMENSION
100
AcDbLine
 10
30.2509023083
 20
42.87947470609999
 30
0.0
 11
30.2509023083
 21
115.8294747061
 31
0.0
  0
LINE
  5
A7
330
1F
100
AcDbEntity
  8
DIMENSION
100
AcDbLine
 10
-0.4490976917000001
 20
55.25017840109999
 30
0.0
 11
-0.4490976917000001
 21
42.87947470609999
 31
0.0
  0
LINE
  5
A8
330
1F
100
AcDbEntity
  8
DIMENSION
100
AcDbLine
 10
-0.4490976917000001
 20
115.8294747061
 30
0.0
 11
-0.4490976917000001
 21
58.5291435362
 31
0.0
  0
ARC
  5
A9
330
1F
100
AcDbEntity
  8
0
  6
Continuous
 62
     7
370
    25
100
AcDbCircle
 10
69.9009023083
 20
115.8294747061
 30
0.0
 40
39.64999999999999
100
AcDbArc
 50
90.0
 51
180.0
  0
ARC
  5
AA
330
1F
100
AcDbEntity
  8
0
  6
Continuous
 62
     7
370
    25
100
AcDbCircle
 10
69.9009023083
 20
115.8294747061
 30
0.0
 40
70.35
100
AcDbArc
 50
90.0
 51
180.0
  0
LINE
  5
AB
330
1F
100
AcDbEntity
  8
0
  6
Continuous
 62
     7
370
    25
100
AcDbLine
 10
134.9009023083
 20
186.1794747061
 30
0.0
 11
69.9009023083
 21
186.1794747061
 31
0.0
  0
LINE
  5
AC
330
1F
100
AcDbEntity
  8
0
  6
Continuous
 62
     7
370
    25
100
AcDbLine
 10
69.9009023083
 20
155.4794747061
 30
0.0
 11
134.9009023083
 21
155.4794747061
 31
0.0
  0
LINE
  5
AD
330
1F
100
AcDbEntity
  8
0
  6
Continuous
 62
     7
370
    25
100
AcDbLine
 10
142.7009023083
 20
186.5294747061
 30
0.0
 11
134.9009023083
 21
186.5294747061
 31
0.0
  0
LINE
  5
AE
330
1F
100
AcDbEntity
  8
0
  6
Continuous
 62
     7
370
    25
100
AcDbLine
 10
134.9009023083
 20
155.1294747061
 30
0.0
 11
142.7009023083
 21
155.1294747061
 31
0.0
  0
LINE
  5
AF
330
1F
100
AcDbEntity
  8
0
  6
Continuous
 62
     7
370
    25
100
AcDbLine
 10
41.9009023069
 20
-78.68498802149999
 30
0.0
 11
41.9009023069
 21
-74.68498802149999
 31
0.0
  0
LINE
  5
B0
330
1F
100
AcDbEntity
  8
0
  6
Continuous
 62
     7
370
    25
100
AcDbLine
 10
-12.0990976931
 20
-74.68498802149999
 30
0.0
 11
-12.0990976931
 21
-78.68498802149999
 31
0.0
  0
LINE
  5
B1
330
1F
100
AcDbEntity
  8
0
  6
Continuous
 62
     7
370
    25
100
AcDbLine
 10
-1.6571772919
 20
-5.734988021499999
 30
0.0
 11
-7.324097693099999
 21
-5.734988021499999
 31
0.0
  0
LINE
  5
B2
330
1F
100
AcDbEntity
  8
0
  6
Continuous
 62
     7
370
    25
100
AcDbLine
 10
37.1259023069
 20
-5.734988021499999
 30
0.0
 11
31.4589819057
 21
-5.734988021499999
 31
0.0
  0
LINE
  5
B3
330
1F
100
AcDbEntity
  8
0
  6
Continuous
 62
     7
370
    25
100
AcDbLine
 10
36.1509023069
 20
1.565011978499999
 30
0.0
 11
35.8132192517
 21
1.565011978499999
 31
0.0
  0
LINE
  5
B4
330
1F
100
AcDbEntity
  8
0
  6
Continuous
 62
     7
370
    25
100
AcDbLine
 10
-6.011414637899999
 20
1.565011978499999
 30
0.0
 11
-6.349097693099999
 21
1.565011978499999
 31
0.0
  0
SPLINE
  5
B5
330
1F
100
AcDbEntity
  8
DIMENSION
100
AcDbSpline
210
0.0
220
0.0
230
1.0
 70
     8
 71
     3
 72
    18
 73
    14
 74
     0
 42
0.00000001
 43
0.0000000001
 40
0.0
 40
0.0
 40
0.0
 40
0.0
 40
0.0891698522628428
 40
0.1812582365413476
 40
0.2703599545610101
 40
0.3616682101222261
 40
0.4590260568198003
 40
0.5584168028587651
 40
0.6731824454288239
 40
0.7913718163613501
 40
0.8692795925449654
 40
0.9491821110270423
 40
1.0
 40
1.0
 40
1.0
 40
1.0
 10
14.90090230686968
 20
31.36501197849164
 30
0.0
 10
15.67516880760393
 20
31.34144124307237
 30
0.0
 10
17.24904357552942
 20
31.29352830133635
 30
0.0
 10
19.52105760581973
 20
30.91648183241068
 30
0.0
 10
21.67033541200203
 20
30.34740940912006
 30
0.0
 10
23.67737736695524
 20
29.59700201992575
 30
0.0
 10
25.53287035558265
 20
28.69531146087856
 30
0.0
 10
27.26794319494991
 20
27.64666599264133
 30
0.0
 10
28.78890747139887
 20
26.52980042662651
 30
0.0
 10
29.85596913118374
 20
25.60104422959288
 30
0.0
 10
30.47998397117663
 20
25.00456298098894
 30
0.0
 10
30.77471607781811
 20
24.70635746117328
 30
0.0
 10
30.7723744333714
 20
24.70859725809618
 30
0.0
 10
30.77146411317103
 20
24.70946798481411
 30
0.0
  0
SPLINE
  5
B6
330
1F
100
AcDbEntity
  8
DIMENSION
100
AcDbSpline
210
0.0
220
0.0
230
1.0
 70
     8
 71
     3
 72
    18
 73
    14
 74
     0
 42
0.00000001
 43
0.0000000001
 40
0.0
 40
0.0
 40
0.0
 40
0.0
 40
0.016193132009489
 40
0.0897545344869767
 40
0.1653583717067752
 40
0.2639190227940156
 40
0.3652708898916189
 40
0.4669602031751284
 40
0.5707806948485233
 40
0.6888837360852849
 40
0.8115427380057425
 40
0.9041854555160128
 40
1.0
 40
1.0
 40
1.0
 40
1.0
 10
-0.9786426442506545
 20
24.70029039836355
 30
0.0
 10
-0.9849744374898216
 20
24.69384862231716
 30
0.0
 10
-1.020070004815299
 20
24.65814344743347
 30
0.0
 10
-0.8511875114494415
 20
24.8308653102458
 30
0.0
 10
-0.4313267234262175
 20
25.2452467755492
 30
0.0
 10
0.3545723923168986
 20
25.96931451603029
 30
0.0
 10
1.527273679999774
 20
26.92342391437333
 30
0.0
 10
3.024098926076301
 20
27.96375430550392
 30
0.0
 10
4.906269140276947
 20
29.03944013430182
 30
0.0
 10
7.245379732808699
 20
30.07031142630808
 30
0.0
 10
9.828415427231465
 20
30.83099272565953
 30
0.0
 10
12.43214460129048
 20
31.28431600864644
 30
0.0
 10
14.06880116419268
 20
31.3378131940318
 30
0.0
 10
14.90090230686968
 20
31.36501197849164
 30
0.0
  0
LINE
  5
B7
330
1F
100
AcDbEntity
  8
DIMENSION
100
AcDbLine
 10
14.9009023069
 20
42.6794747061
 30
0.0
 11
-0.9990976931
 21
42.6794747061
 31
0.0
  0
LINE
  5
B8
330
1F
100
AcDbEntity
  8
DIMENSION
100
AcDbLine
 10
30.8009023069
 20
42.6794747061
 30
0.0
 11
14.9009023069
 21
42.6794747061
 31
0.0
  0
LINE
  5
B9
330
1F
100
AcDbEntity
  8
0
  6
Continuous
 62
     7
370
    25
100
AcDbLine
 10
222.4009023083
 20
184.0311020166
 30
0.0
 11
222.4009023083
 21
184.4342532784
 31
0.0
  0
LINE
  5
BA
330
1F
100
AcDbEntity
  8
0
  6
Continuous
 62
     7
370
    25
100
AcDbLine
 10
261.4009023083
 20
184.0292559688
 30
0.0
 11
261.4009023083
 21
184.4342532784
 31
0.0
  0
LINE
  5
BB
330
1F
100
AcDbEntity
  8
0
  6
Continuous
 62
     7
370
    25
100
AcDbLine
 10
229.6009023083
 20
186.3294747061
 30
0.0
 11
229.6009023083
 21
185.8123228607
 31
0.0
  0
LINE
  5
BC
330
1F
100
AcDbEntity
  8
0
  6
Continuous
 62
     7
370
    25
100
AcDbLine
 10
226.7009023083
 20
185.8123228607
 30
0.0
 11
229.6009023083
 21
185.8123228607
 31
0.0
  0
LINE
  5
BD
330
1F
100
AcDbEntity
  8
0
  6
Continuous
 62
     7
370
    25
100
AcDbLine
 10
226.7009023083
 20
185.7438311178
 30
0.0
 11
226.7009023083
 21
185.8123228607
 31
0.0
  0
LINE
  5
BE
330
1F
100
AcDbEntity
  8
0
  6
Continuous
 62
     7
370
    25
100
AcDbLine
 10
229.6009023083
 20
185.7438311178
 30
0.0
 11
226.7009023083
 21
185.7438311178
 31
0.0
  0
LINE
  5
BF
330
1F
100
AcDbEntity
  8
0
  6
Continuous
 62
     7
370
    25
100
AcDbLine
 10
229.6009023083
 20
185.7438311178
 30
0.0
 11
229.6009023083
 21
185.7425352572
 31
0.0
  0
LINE
  5
C0
330
1F
100
AcDbEntity
  8
0
  6
Continuous
 62
     7
370
    25
100
AcDbLine
 10
229.6009023083
 20
185.7425352572
 30
0.0
 11
229.9009023083
 21
185.7425352572
 31
0.0
  0
LINE
  5
C1
330
1F
100
AcDbEntity
  8
0
  6
Continuous
 62
     7
370
    25
100
AcDbLine
 10
229.9009023083
 20
186.2903931782
 30
0.0
 11
229.9009023083
 21
185.7425352572
 31
0.0
  0
LINE
  5
C2
330
1F
100
AcDbEntity
  8
0
  6
Continuous
 62
     7
370
    25
100
AcDbLine
 10
234.9009023083
 20
186.2903931782
 30
0.0
 11
229.9009023083
 21
186.2903931782
 31
0.0
  0
LINE
  5
C3
330
1F
100
AcDbEntity
  8
0
  6
Continuous
 62
     7
370
    25
100
AcDbLine
 10
234.9009023083
 20
186.3033236132
 30
0.0
 11
234.9009023083
 21
186.2903931782
 31
0.0
  0
LINE
  5
C4
330
1F
100
AcDbEntity
  8
0
  6
Continuous
 62
     7
370
    25
100
AcDbLine
 10
234.9009023083
 20
186.3033236132
 30
0.0
 11
229.9009023083
 21
186.3033236132
 31
0.0
  0
LINE
  5
C5
330
1F
100
AcDbEntity
  8
0
  6
Continuous
 62
     7
370
    25
100
AcDbLine
 10
229.9009023083
 20
186.3178574493
 30
0.0
 11
229.9009023083
 21
186.3033236132
 31
0.0
  0
LINE
  5
C6
330
1F
100
AcDbEntity
  8
0
  6
Continuous
 62
     7
370
    25
100
AcDbLine
 10
234.9009023083
 20
186.3178574493
 30
0.0
 11
229.9009023083
 21
186.3178574493
 31
0.0
  0
LINE
  5
C7
330
1F
100
AcDbEntity
  8
0
  6
Continuous
 62
     7
370
    25
100
AcDbLine
 10
234.9009023083
 20
186.3243125562
 30
0.0
 11
234.9009023083
 21
186.3178574493
 31
0.0
  0
LINE
  5
C8
330
1F
100
AcDbEntity
  8
0
  6
Continuous
 62
     7
370
    25
100
AcDbLine
 10
234.9009023083
 20
186.3243125562
 30
0.0
 11
229.9009023083
 21
186.3243125562
 31
0.0
  0
LINE
  5
C9
330
1F
100
AcDbEntity
  8
0
  6
Continuous
 62
     7
370
    25
100
AcDbLine
 10
229.9009023083
 20
186.3291521221
 30
0.0
 11
229.9009023083
 21
186.3243125562
 31
0.0
  0
LINE
  5
CA
330
1F
100
AcDbEntity
  8
0
  6
Continuous
 62
     7
370
    25
100
AcDbLine
 10
234.9009023083
 20
186.3291521221
 30
0.0
 11
229.9009023083
 21
186.3291521221
 31
0.0
  0
LINE
  5
CB
330
1F
100
AcDbEntity
  8
0
  6
Continuous
 62
     7
370
    25
100
AcDbLine
 10
250.6009023083
 20
186.3294747061
 30
0.0
 11
250.6009023083
 21
185.8123228607
 31
0.0
  0
LINE
  5
CC
330
1F
100
AcDbEntity
  8
0
  6
Continuous
 62
     7
370
    25
100
AcDbLine
 10
247.7009023083
 20
185.8123228607
 30
0.0
 11
250.6009023083
 21
185.8123228607
 31
0.0
  0
LINE
  5
CD
330
1F
100
AcDbEntity
  8
0
  6
Continuous
 62
     7
370
    25
100
AcDbLine
 10
247.7009023083
 20
185.7438311178
 30
0.0
 11
247.7009023083
 21
185.8123228607
 31
0.0
  0
LINE
  5
CE
330
1F
100
AcDbEntity
  8
0
  6
Continuous
 62
     7
370
    25
100
AcDbLine
 10
250.6009023083
 20
185.7438311178
 30
0.0
 11
247.7009023083
 21
185.7438311178
 31
0.0
  0
LINE
  5
CF
330
1F
100
AcDbEntity
  8
0
  6
Continuous
 62
     7
370
    25
100
AcDbLine
 10
250.6009023083
 20
185.7438311178
 30
0.0
 11
250.6009023083
 21
185.7425352572
 31
0.0
  0
LINE
  5
D0
330
1F
100
AcDbEntity
  8
0
  6
Continuous
 62
     7
370
    25
100
AcDbLine
 10
250.6009023083
 20
185.7425352572
 30
0.0
 11
250.9009023083
 21
185.7425352572
 31
0.0
  0
LINE
  5
D1
330
1F
100
AcDbEntity
  8
0
  6
Continuous
 62
     7
370
    25
100
AcDbLine
 10
250.9009023083
 20
185.7635799688999
 30
0.0
 11
250.9009023083
 21
185.7425352572
 31
0.0
  0
LINE
  5
D2
330
1F
100
AcDbEntity
  8
0
  6
Continuous
 62
     7
370
    25
100
AcDbLine
 10
255.9009023083
 20
185.7635799688999
 30
0.0
 11
250.9009023083
 21
185.7635799688999
 31
0.0
  0
LINE
  5
D3
330
1F
100
AcDbEntity
  8
0
  6
Continuous
 62
     7
370
    25
100
AcDbLine
 10
255.9009023083
 20
185.8177201004
 30
0.0
 11
255.9009023083
 21
185.7635799688999
 31
0.0
  0
LINE
  5
D4
330
1F
100
AcDbEntity
  8
0
  6
Continuous
 62
     7
370
    25
100
AcDbLine
 10
255.9009023083
 20
185.8177201004
 30
0.0
 11
250.9009023083
 21
185.8177201004
 31
0.0
  0
LINE
  5
D5
330
1F
100
AcDbEntity
  8
0
  6
Continuous
 62
     7
370
    25
100
AcDbLine
 10
250.9009023083
 20
186.0744738862
 30
0.0
 11
250.9009023083
 21
185.8177201004
 31
0.0
  0
LINE
  5
D6
330
1F
100
AcDbEntity
  8
0
  6
Continuous
 62
     7
370
    25
100
AcDbLine
 10
255.9009023083
 20
186.0744738862
 30
0.0
 11
250.9009023083
 21
186.0744738862
 31
0.0
  0
LINE
  5
D7
330
1F
100
AcDbEntity
  8
0
  6
Continuous
 62
     7
370
    25
100
AcDbLine
 10
255.9009023083
 20
186.1098542826
 30
0.0
 11
255.9009023083
 21
186.0744738862
 31
0.0
  0
LINE
  5
D8
330
1F
100
AcDbEntity
  8
0
  6
Continuous
 62
     7
370
    25
100
AcDbLine
 10
255.9009023083
 20
186.1098542826
 30
0.0
 11
250.9009023083
 21
186.1098542826
 31
0.0
  0
LINE
  5
D9
330
1F
100
AcDbEntity
  8
0
  6
Continuous
 62
     7
370
    25
100
AcDbLine
 10
250.9009023083
 20
186.2615030886999
 30
0.0
 11
250.9009023083
 21
186.1098542826
 31
0.0
  0
LINE
  5
DA
330
1F
100
AcDbEntity
  8
0
  6
Continuous
 62
     7
370
    25
100
AcDbLine
 10
255.9009023083
 20
186.2615030886999
 30
0.0
 11
250.9009023083
 21
186.2615030886999
 31
0.0
  0
LINE
  5
DB
330
1F
100
AcDbEntity
  8
0
  6
Continuous
 62
     7
370
    25
100
AcDbLine
 10
255.9009023083
 20
186.2789892616
 30
0.0
 11
255.9009023083
 21
186.2615030886999
 31
0.0
  0
LINE
  5
DC
330
1F
100
AcDbEntity
  8
0
  6
Continuous
 62
     7
370
    25
100
AcDbLine
 10
255.9009023083
 20
186.2789892616
 30
0.0
 11
250.9009023083
 21
186.2789892616
 31
0.0
  0
LINE
  5
DD
330
1F
100
AcDbEntity
  8
0
  6
Continuous
 62
     7
370
    25
100
AcDbLine
 10
250.9009023083
 20
186.3291521221
 30
0.0
 11
250.9009023083
 21
186.2789892616
 31
0.0
  0
LINE
  5
DE
330
1F
100
AcDbEntity
  8
0
  6
Continuous
 62
     7
370
    25
100
AcDbLine
 10
255.9009023083
 20
186.3291521221
 30
0.0
 11
250.9009023083
 21
186.3291521221
 31
0.0
  0
LINE
  5
DF
330
1F
100
AcDbEntity
  8
0
  6
Continuous
 62
     7
370
    25
100
AcDbLine
 10
222.4009023083
 20
184.4342532784
 30
0.0
 11
222.4009023083
 21
186.1294747061
 31
0.0
  0
LINE
  5
E0
330
1F
100
AcDbEntity
  8
0
  6
Continuous
 62
     7
370
    25
100
AcDbLine
 10
261.4009023083
 20
186.1294747061
 30
0.0
 11
261.4009023083
 21
184.4342532784
 31
0.0
  0
LINE
  5
E1
330
1F
100
AcDbEntity
  8
0
  6
Continuous
 62
     7
370
    25
100
AcDbLine
 10
229.6009023083
 20
185.7438311178
 30
0.0
 11
229.6009023083
 21
185.8123228607
 31
0.0
  0
LINE
  5
E2
330
1F
100
AcDbEntity
  8
0
  6
Continuous
 62
     7
370
    25
100
AcDbLine
 10
250.6009023083
 20
185.7438311178
 30
0.0
 11
250.6009023083
 21
185.8123228607
 31
0.0
  0
LINE
  5
E3
330
1F
100
AcDbEntity
  8
0
  6
Continuous
 62
     7
370
    25
100
AcDbLine
 10
250.9009023083
 20
185.8177201004
 30
0.0
 11
250.9009023083
 21
185.7635799688999
 31
0.0
  0
LINE
  5
E4
330
1F
100
AcDbEntity
  8
0
  6
Continuous
 62
     7
370
    25
100
AcDbLine
 10
250.9009023083
 20
186.1098542826
 30
0.0
 11
250.9009023083
 21
186.0744738862
 31
0.0
  0
LINE
  5
E5
330
1F
100
AcDbEntity
  8
0
  6
Continuous
 62
     7
370
    25
100
AcDbLine
 10
250.9009023083
 20
186.2789892616
 30
0.0
 11
250.9009023083
 21
186.2615030886999
 31
0.0
  0
LINE
  5
E6
330
1F
100
AcDbEntity
  8
0
  6
Continuous
 62
     7
370
    25
100
AcDbLine
 10
229.9009023083
 20
186.3033236132
 30
0.0
 11
229.9009023083
 21
186.2903931782
 31
0.0
  0
LINE
  5
E7
330
1F
100
AcDbEntity
  8
0
  6
Continuous
 62
     7
370
    25
100
AcDbLine
 10
229.9009023083
 20
186.3243125562
 30
0.0
 11
229.9009023083
 21
186.3178574493
 31
0.0
  0
LINE
  5
E8
330
1F
100
AcDbEntity
  8
0
  6
Continuous
 62
     7
370
    25
100
AcDbLine
 10
250.6509023083
 20
146.3294747061
 30
0.0
 11
249.1509023083
 21
146.3294747061
 31
0.0
  0
LINE
  5
E9
330
1F
100
AcDbEntity
  8
0
  6
Continuous
 62
     7
370
    25
100
AcDbLine
 10
247.8970676684
 20
146.3294747061
 30
0.0
 11
246.3970676684
 21
146.3294747061
 31
0.0
  0
LINE
  5
EA
330
1F
100
AcDbEntity
  8
0
  6
Continuous
 62
     7
370
    25
100
AcDbLine
 10
253.4047369482
 20
146.3294747061
 30
0.0
 11
251.9047369482
 21
146.3294747061
 31
0.0
  0
LINE
  5
EB
330
1F
100
AcDbEntity
  8
0
  6
Continuous
 62
     7
370
    25
100
AcDbLine
 10
245.2304213611
 20
146.3294747061
 30
0.0
 11
243.8309023083
 21
146.3294747061
 31
0.0
  0
LINE
  5
EC
330
1F
100
AcDbEntity
  8
0
  6
Continuous
 62
     7
370
    25
100
AcDbLine
 10
245.3309023083
 20
146.3294747061
 30
0.0
 11
245.2304213611
 21
146.3294747061
 31
0.0
  0
LINE
  5
ED
330
1F
100
AcDbEntity
  8
0
  6
Continuous
 62
     7
370
    25
100
AcDbLine
 10
255.9709023083
 20
146.3294747061
 30
0.0
 11
254.4709023083
 21
146.3294747061
 31
0.0
  0
LINE
  5
EE
330
1F
100
AcDbEntity
  8
0
  6
Continuous
 62
     7
370
    25
100
AcDbLine
 10
242.9076162424
 20
146.3294747061
 30
0.0
 11
241.6272861565
 21
146.3294747061
 31
0.0
  0
LINE
  5
EF
330
1F
100
AcDbEntity
  8
0
  6
Continuous
 62
     7
370
    25
100
AcDbLine
 10
243.1272861565
 20
146.3294747061
 30
0.0
 11
242.9076162424
 21
146.3294747061
 31
0.0
  0
LINE
  5
F0
330
1F
100
AcDbEntity
  8
0
  6
Continuous
 62
     7
370
    25
100
AcDbLine
 10
258.1745184601
 20
146.3294747061
 30
0.0
 11
256.6745184601
 21
146.3294747061
 31
0.0
  0
LINE
  5
F1
330
1F
100
AcDbEntity
  8
0
  6
Continuous
 62
     7
370
    25
100
AcDbLine
 10
241.061392012
 20
146.3294747061
 30
0.0
 11
239.936392012
 21
146.3294747061
 31
0.0
  0
LINE
  5
F2
330
1F
100
AcDbEntity
  8
0
  6
Continuous
 62
     7
370
    25
100
AcDbLine
 10
241.436392012
 20
146.3294747061
 30
0.0
 11
241.061392012
 21
146.3294747061
 31
0.0
  0
LINE
  5
F3
330
1F
100
AcDbEntity
  8
0
  6
Continuous
 62
     7
370
    25
100
AcDbLine
 10
259.8654126046
 20
146.3294747061
 30
0.0
 11
258.3654126046
 21
146.3294747061
 31
0.0
  0
LINE
  5
F4
330
1F
100
AcDbEntity
  8
0
  6
Continuous
 62
     7
370
    25
100
AcDbLine
 10
239.936392012
 20
146.3294747061
 30
0.0
 11
238.8734515166
 21
146.3294747061
 31
0.0
  0
LINE
  5
F5
330
1F
100
AcDbEntity
  8
0
  6
Continuous
 62
     7
370
    25
100
AcDbLine
 10
260.9283531
 20
146.3294747061
 30
0.0
 11
259.8654126046
 21
146.3294747061
 31
0.0
  0
LINE
  5
F6
330
1F
100
AcDbEntity
  8
0
  6
Continuous
 62
     7
370
    25
100
AcDbLine
 10
238.8734515166
 20
146.3294747061
 30
0.0
 11
238.5109023083
 21
146.3294747061
 31
0.0
  0
LINE
  5
F7
330
1F
100
AcDbEntity
  8
0
  6
Continuous
 62
     7
370
    25
100
AcDbLine
 10
261.2909023083
 20
146.3294747061
 30
0.0
 11
260.9283531
 21
146.3294747061
 31
0.0
  0
LINE
  5
F8
330
1F
100
AcDbEntity
  8
0
  6
Continuous
 62
     7
370
    25
100
AcDbLine
 10
37.1070104143
 20
10.00619303
 30
0.0
 11
37.4472600543
 21
10.0057378286
 31
0.0
  0
ARC
  5
F9
330
1F
100
AcDbEntity
  8
0
  6
Continuous
 62
     7
370
    25
100
AcDbCircle
 10
14.9659023069
 20
9.090011978499999
 30
0.0
 40
22.50000000000001
100
AcDbArc
 50
340.365688422
 51
2.332520963799999
  0
ARC
  5
FA
330
1F
100
AcDbEntity
  8
0
  6
Continuous
 62
     7
370
    25
100
AcDbCircle
 10
14.9659023069
 20
9.090011978499999
 30
0.0
 40
22.49999999999999
100
AcDbArc
 50
177.5141733503
 51
199.5387584472
  0
LINE
  5
FB
330
1F
100
AcDbEntity
  8
0
  6
Continuous
 62
     7
370
    25
100
AcDbLine
 10
-7.512924770399999
 20
10.0658876
 30
0.0
 11
-7.302674897799999
 21
10.0656063182
 31
0.0
  0
ARC
  5
FC
330
1F
100
AcDbEntity
  8
DIMENSION
100
AcDbCircle
 10
14.9659023069
 20
9.090011978499999
 30
0.0
 40
22.5
100
AcDbArc
 50
135.1987656053
 51
177.5141733503
  0
ARC
  5
FD
330
1F
100
AcDbEntity
  8
DIMENSION
100
AcDbCircle
 10
14.9659023069
 20
9.090011978499999
 30
0.0
 40
22.50000000000001
100
AcDbArc
 50
2.332520963799999
 51
45.2691130387
  0
SPLINE
  5
FE
330
1F
100
AcDbEntity
  8
0
  6
Continuous
 62
     7
370
    25
100
AcDbSpline
210
0.0
220
0.0
230
1.0
 70
     8
 71
     3
 72
    25
 73
    21
 74
     0
 42
0.00000001
 43
0.0000000001
 40
0.0
 40
0.0
 40
0.0
 40
0.0
 40
0.0852373271076724
 40
0.1732231782646984
 40
0.2288373618506674
 40
0.2850237820605405
 40
0.3292872106841028
 40
0.3587521644836105
 40
0.3885214695308684
 40
0.427960773194094
 40
0.495423575225433
 40
0.564438164958526
 40
0.6506981652226922
 40
0.7395080559005806
 40
0.7941729947382236
 40
0.8501085551691527
 40
0.8953983110837521
 40
0.9419126822661704
 40
0.9872568579042184
 40
1.0
 40
1.0
 40
1.0
 40
1.0
 10
261.8083289825119
 20
159.0062221311435
 30
0.0
 10
261.0706897223318
 20
159.7140207590803
 30
0.0
 10
259.5716256221658
 20
161.152441367316
 30
0.0
 10
257.281242269022
 20
163.2921550054557
 30
0.0
 10
255.1668317142914
 20
165.1648499090305
 30
0.0
 10
253.4075250783788
 20
166.5871070861494
 30
0.0
 10
251.7973964624605
 20
167.6223464150078
 30
0.0
 10
250.3233104084248
 20
168.1127498863536
 30
0.0
 10
248.8287036683439
 20
167.9862149036609
 30
0.0
 10
247.0102982656586
 20
167.0587910520181
 30
0.0
 10
244.9912493750999
 20
165.4764278826098
 30
0.0
 10
242.6173680675789
 20
163.3835682034353
 30
0.0
 10
240.1987434460633
 20
161.1217986375122
 30
0.0
 10
238.1450983008516
 20
159.1550638123274
 30
0.0
 10
236.6055237177609
 20
157.6657508314003
 30
0.0
 10
235.5944007876218
 20
156.6826127736842
 30
0.0
 10
234.8482144870676
 20
155.9549085987638
 30
0.0
 10
234.3983784045298
 20
155.5154419061009
 30
0.0
 10
234.1899019267541
 20
155.3115785409426
 30
0.0
 10
234.22808026153
 20
155.3489083703501
 30
0.0
 10
234.236455789339
 20
155.3570977538354
 30
0.0
  0
SPLINE
  5
FF
330
1F
100
AcDbEntity
  8
0
  6
Continuous
 62
     7
370
    25
100
AcDbSpline
210
0.0
220
0.0
230
1.0
 70
     8
 71
     3
 72
    13
 73
     9
 74
     0
 42
0.00000001
 43
0.0000000001
 40
0.0
 40
0.0
 40
0.0
 40
0.0
 40
0.0449936814425589
 40
0.2140211885577775
 40
0.3693123852267599
 40
0.5283396157734397
 40
0.7602630496323865
 40
1.0
 40
1.0
 40
1.0
 40
1.0
 10
265.5694910101439
 20
155.3530479067923
 30
0.0
 10
265.5765683426894
 20
155.3461278283552
 30
0.0
 10
265.6102330501465
 20
155.3132111306207
 30
0.0
 10
265.4233982349901
 20
155.4959048767425
 30
0.0
 10
265.0257053698953
 20
155.8844931994786
 30
0.0
 10
264.3384152862364
 20
156.5548531297516
 30
0.0
 10
263.3001809007287
 20
157.5658284478131
 30
0.0
 10
262.3110747925976
 20
158.5208174603944
 30
0.0
 10
261.8083289825119
 20
159.0062221311434
 30
0.0
  0
LINE
  5
100
330
1F
100
AcDbEntity
  8
0
  6
Continuous
 62
     7
370
    25
100
AcDbLine
 10
249.9009023083
 20
146.5294747061
 30
0.0
 11
265.9009023083001
 21
146.5294747061
 31
0.0
  0
LINE
  5
101
330
1F
100
AcDbEntity
  8
0
  6
Continuous
 62
     7
370
    25
100
AcDbLine
 10
233.9009023083
 20
146.5294747061
 30
0.0
 11
249.9009023083
 21
146.5294747061
 31
0.0
  0
LINE
  5
102
330
1F
100
AcDbEntity
  8
0
  6
Continuous
 62
     7
370
    25
100
AcDbLine
 10
142.8009023083
 20
186.3294747061
 30
0.0
 11
142.8009023083
 21
155.3294747061
 31
0.0
  0
LINE
  5
103
330
1F
100
AcDbEntity
  8
0
  6
Continuous
 62
     7
370
    25
100
AcDbLine
 10
273.7009023083
 20
155.3294747061
 30
0.0
 11
273.7009023083
 21
186.3294747061
 31
0.0
  0
LINE
  5
104
330
1F
100
AcDbEntity
  8
0
  6
Continuous
 62
     7
370
    25
100
AcDbLine
 10
273.9009023083
 20
186.1294747061
 30
0.0
 11
273.9009023083
 21
155.5294747061
 31
0.0
  0
LINE
  5
105
330
1F
100
AcDbEntity
  8
0
  6
Continuous
 62
     7
370
    25
100
AcDbLine
 10
260.9009023083
 20
183.9153679468
 30
0.0
 11
260.9009023083
 21
183.9465177114
 31
0.0
  0
LINE
  5
106
330
1F
100
AcDbEntity
  8
0
  6
Continuous
 62
     7
370
    25
100
AcDbLine
 10
222.9009023083
 20
183.9153679468
 30
0.0
 11
222.9009023083
 21
183.9465177114
 31
0.0
  0
LINE
  5
107
330
1F
100
AcDbEntity
  8
0
  6
Continuous
 62
     7
370
    25
100
AcDbLine
 10
221.9009023083
 20
186.1294747061
 30
0.0
 11
221.9009023083
 21
184.4342532784
 31
0.0
  0
LINE
  5
108
330
1F
100
AcDbEntity
  8
0
  6
Continuous
 62
     7
370
    25
100
AcDbLine
 10
261.9009023083
 20
184.4342532784
 30
0.0
 11
261.9009023083
 21
186.1294747061
 31
0.0
  0
CIRCLE
  5
109
330
1F
100
AcDbEntity
  8
DIMENSION
100
AcDbCircle
 10
14.9009023069
 20
9.090011978499999
 30
0.0
 40
22.22499999999999
  0
LINE
  5
10A
330
1F
100
AcDbEntity
  8
DIMENSION
100
AcDbLine
 10
-0.4490976917000001
 20
42.87947470609999
 30
0.0
 11
30.2509023083
 21
42.87947470609999
 31
0.0
  0
LINE
  5
10B
330
1F
100
AcDbEntity
  8
DIMENSION
100
AcDbLine
 10
-0.4447586021000001
 20
55.2703417787
 30
0.0
 11
-0.4468926712
 21
55.25017840109999
 31
0.0
  0
SPLINE
  5
10C
330
1F
100
AcDbEntity
  8
DIMENSION
100
AcDbSpline
210
0.0
220
0.0
230
1.0
 70
     8
 71
     3
 72
    17
 73
    13
 74
     0
 42
0.00000001
 43
0.0000000001
 40
0.0
 40
0.0
 40
0.0
 40
0.0
 40
0.0004125112427043
 40
0.1153708611153374
 40
0.2303109003197012
 40
0.3458194155306283
 40
0.4616070298956369
 40
0.5769413506595832
 40
0.6917963998591406
 40
0.8068939030167655
 40
0.9225759478782322
 40
1.0
 40
1.0
 40
1.0
 40
1.0
 10
-0.449063076434414
 20
58.5291435362093
 30
0.0
 10
-0.4490746121944001
 20
58.52925390391877
 30
0.0
 10
-0.4523009256234002
 20
58.56012146911705
 30
0.0
 10
-0.4406165731724588
 20
58.45193942910315
 30
0.0
 10
-0.4157938767300474
 20
58.19808230530915
 30
0.0
 10
-0.3837836970667918
 20
57.77341988606019
 30
0.0
 10
-0.3614159938441219
 20
57.25304393489722
 30
0.0
 10
-0.3578739981154322
 20
56.68972394148199
 30
0.0
 10
-0.3748654362313308
 20
56.14887950363002
 30
0.0
 10
-0.404516627398155
 20
55.69241220771328
 30
0.0
 10
-0.4318670136582159
 20
55.39444127087996
 30
0.0
 10
-0.441069109413217
 20
55.30585828429472
 30
0.0
 10
-0.4447586021454343
 20
55.27034177871762
 30
0.0
  0
LINE
  5
10D
330
1F
100
AcDbEntity
  8
0
  6
Continuous
 62
     7
370
    25
100
AcDbLine
 10
142.7009023083
 20
157.7967644549
 30
0.0
 11
142.7009023083
 21
155.1294747061
 31
0.0
  0
LINE
  5
10E
330
1F
100
AcDbEntity
  8
0
  6
Continuous
 62
     7
370
    25
100
AcDbLine
 10
142.7009023083
 20
186.5294747061
 30
0.0
 11
142.7009023083
 21
157.7967644549
 31
0.0
  0
LINE
  5
10F
330
1F
100
AcDbEntity
  8
0
  6
Continuous
 62
     7
370
    25
100
AcDbLine
 10
134.9009023083
 20
157.7967644549
 30
0.0
 11
134.9009023083
 21
155.1294747061
 31
0.0
  0
LINE
  5
110
330
1F
100
AcDbEntity
  8
0
  6
Continuous
 62
     7
370
    25
100
AcDbLine
 10
134.9009023083
 20
186.5294747061
 30
0.0
 11
134.9009023083
 21
157.7967644549
 31
0.0
  0
LINE
  5
111
330
1F
100
AcDbEntity
  8
0
  6
Continuous
 62
     7
370
    25
100
AcDbLine
 10
41.61358465969999
 20
-78.68498802149999
 30
0.0
 11
41.9009023069
 21
-78.68498802149999
 31
0.0
  0
LINE
  5
112
330
1F
100
AcDbEntity
  8
0
  6
Continuous
 62
     7
370
    25
100
AcDbLine
 10
-12.0990976931
 20
-78.68498802149999
 30
0.0
 11
41.61358465969999
 21
-78.68498802149999
 31
0.0
  0
LINE
  5
113
330
1F
100
AcDbEntity
  8
0
  6
Continuous
 62
     7
370
    25
100
AcDbLine
 10
41.61358465969999
 20
-74.68498802149999
 30
0.0
 11
41.9009023069
 21
-74.68498802149999
 31
0.0
  0
LINE
  5
114
330
1F
100
AcDbEntity
  8
0
  6
Continuous
 62
     7
370
    25
100
AcDbLine
 10
-12.0990976931
 20
-74.68498802149999
 30
0.0
 11
41.61358465969999
 21
-74.68498802149999
 31
0.0
  0
POINT
  5
115
330
1F
100
AcDbEntity
  8
0
  6
Continuous
 62
     7
370
     0
100
AcDbPoint
 10
14.9009023069
 20
-78.68498802149999
 30
0.0
  0
POINT
  5
116
330
1F
100
AcDbEntity
  8
0
  6
Continuous
 62
     7
370
     0
100
AcDbPoint
 10
249.9009023083
 20
146.5294747061
 30
0.0
  0
DIMENSION
  5
117
102
{ACAD_XDICTIONARY
360
351
102
}
330
1F
100
AcDbEntity
  8
DIMENSION
100
AcDbDimension
280
     0
  2
*D21
 10
249.9009023083
 20
-112.6849880215
 30
0.0
 11
129.3038258325
 21
-112.6849880215
 31
0.0
 70
   160
  1
<>
 71
     2
 42
235.0000000014
 73
     0
 74
     0
 75
     0
  3
RG Dimension Lines
100
AcDbAlignedDimension
 13
14.9009023069
 23
-78.68498802149999
 33
0.0
 14
249.9009023083
 24
146.5294747061
 34
0.0
100
AcDbRotatedDimension
1001
AcadAnnotative
1000
AnnotativeData
1002
{
1070
     1
1070
     1
1002
}
  0
DIMENSION
  5
124
102
{ACAD_XDICTIONARY
360
343
102
}
330
1F
100
AcDbEntity
  8
DIMENSION
100
AcDbDimension
280
     0
  2
*D20
 10
301.9009023083
 20
146.5294747061
 30
0.0
 11
301.9009023083
 21
30.7685088847
 31
0.0
 70
   160
  1
<>
 71
     2
 42
225.2144627276
 73
     0
 74
     0
 75
     0
  3
RG Dimension Lines
100
AcDbAlignedDimension
 13
14.9009023069
 23
-78.68498802149999
 33
0.0
 14
249.9009023083
 24
146.5294747061
 34
0.0
 50
90.0
100
AcDbRotatedDimension
1001
AcadAnnotative
1000
AnnotativeData
1002
{
1070
     1
1070
     1
1002
}
  0
DIMENSION
  5
12C
102
{ACAD_XDICTIONARY
360
335
102
}
330
1F
100
AcDbEntity
  8
DIMENSION
100
AcDbDimension
280
     0
  2
*D19
 10
-46.09909769310006
 20
186.1794747061
 30
0.0
 11
-46.0990976931
 21
64.5365521855
 31
0.0
 70
   160
  1
<>
 71
     2
 42
264.8644627276
 73
     0
 74
     0
 75
     0
  3
RG Dimension Lines
100
AcDbAlignedDimension
 13
-12.0990976931
 23
-78.68498802149999
 33
0.0
 14
69.9009023083
 24
186.1794747061
 34
0.0
 50
90.0
100
AcDbRotatedDimension
1001
AcadAnnotative
1000
AnnotativeData
1002
{
1070
     1
1070
     1
1002
}
  0
LINE
  5
134
330
1F
100
AcDbEntity
  8
DIMENSION
100
AcDbLine
 10
451.6181892687
 20
-74.68498802149999
 30
0.0
 11
451.6181892687
 21
-13.1349880215
 31
0.0
  0
LINE
  5
135
330
1F
100
AcDbEntity
  8
DIMENSION
100
AcDbLine
 10
407.1681892687
 20
-13.1349880215
 30
0.0
 11
407.1681892687
 21
-74.68498802149999
 31
0.0
  0
LINE
  5
136
330
1F
100
AcDbEntity
  8
DIMENSION
100
AcDbLine
 10
445.1036156226999
 20
31.3421805799
 30
0.0
 11
445.1036156226999
 21
42.6794747061
 31
0.0
  0
LINE
  5
137
330
1F
100
AcDbEntity
  8
DIMENSION
100
AcDbLine
 10
413.3036156226999
 20
42.6794747061
 30
0.0
 11
413.3036156226999
 21
31.3650119785
 31
0.0
  0
LINE
  5
138
330
1F
100
AcDbEntity
  8
0
  6
Continuous
 62
     7
370
    25
100
AcDbLine
 10
428.4536156226999
 20
146.5294747061
 30
0.0
 11
428.4536156226999
 21
146.3294747061
 31
0.0
  0
LINE
  5
139
330
1F
100
AcDbEntity
  8
0
  6
Continuous
 62
     7
370
    25
100
AcDbLine
 10
429.9536156226999
 20
146.3294747061
 30
0.0
 11
429.9536156226999
 21
146.5294747061
 31
0.0
  0
LINE
  5
13A
330
1F
100
AcDbEntity
  8
0
  6
Continuous
 62
     7
370
    25
100
AcDbLine
 10
425.6997809828
 20
146.5294747061
 30
0.0
 11
425.6997809828
 21
146.3294747061
 31
0.0
  0
LINE
  5
13B
330
1F
100
AcDbEntity
  8
0
  6
Continuous
 62
     7
370
    25
100
AcDbLine
 10
427.1997809828
 20
146.3294747061
 30
0.0
 11
427.1997809828
 21
146.5294747061
 31
0.0
  0
LINE
  5
13C
330
1F
100
AcDbEntity
  8
0
  6
Continuous
 62
     7
370
    25
100
AcDbLine
 10
431.2074502626
 20
146.5294747061
 30
0.0
 11
431.2074502626
 21
146.3294747061
 31
0.0
  0
LINE
  5
13D
330
1F
100
AcDbEntity
  8
0
  6
Continuous
 62
     7
370
    25
100
AcDbLine
 10
432.7074502626
 20
146.3294747061
 30
0.0
 11
432.7074502626
 21
146.5294747061
 31
0.0
  0
LINE
  5
13E
330
1F
100
AcDbEntity
  8
0
  6
Continuous
 62
     7
370
    25
100
AcDbLine
 10
423.1336156226999
 20
146.5294747061
 30
0.0
 11
423.1336156226999
 21
146.3294747061
 31
0.0
  0
LINE
  5
13F
330
1F
100
AcDbEntity
  8
0
  6
Continuous
 62
     7
370
    25
100
AcDbLine
 10
424.6336156226999
 20
146.3294747061
 30
0.0
 11
424.6336156226999
 21
146.5294747061
 31
0.0
  0
LINE
  5
140
330
1F
100
AcDbEntity
  8
0
  6
Continuous
 62
     7
370
    25
100
AcDbLine
 10
433.7736156226999
 20
146.5294747061
 30
0.0
 11
433.7736156226999
 21
146.3294747061
 31
0.0
  0
LINE
  5
141
330
1F
100
AcDbEntity
  8
0
  6
Continuous
 62
     7
370
    25
100
AcDbLine
 10
435.2736156227
 20
146.3294747061
 30
0.0
 11
435.2736156227
 21
146.5294747061
 31
0.0
  0
LINE
  5
142
330
1F
100
AcDbEntity
  8
0
  6
Continuous
 62
     7
370
    25
100
AcDbLine
 10
420.9299994709
 20
146.5294747061
 30
0.0
 11
420.9299994709
 21
146.3294747061
 31
0.0
  0
LINE
  5
143
330
1F
100
AcDbEntity
  8
0
  6
Continuous
 62
     7
370
    25
100
AcDbLine
 10
422.4299994708999
 20
146.3294747061
 30
0.0
 11
422.4299994708999
 21
146.5294747061
 31
0.0
  0
LINE
  5
144
330
1F
100
AcDbEntity
  8
0
  6
Continuous
 62
     7
370
    25
100
AcDbLine
 10
435.9772317744999
 20
146.5294747061
 30
0.0
 11
435.9772317744999
 21
146.3294747061
 31
0.0
  0
LINE
  5
145
330
1F
100
AcDbEntity
  8
0
  6
Continuous
 62
     7
370
    25
100
AcDbLine
 10
437.4772317744999
 20
146.3294747061
 30
0.0
 11
437.4772317744999
 21
146.5294747061
 31
0.0
  0
LINE
  5
146
330
1F
100
AcDbEntity
  8
0
  6
Continuous
 62
     7
370
    25
100
AcDbLine
 10
419.2391053264
 20
146.5294747061
 30
0.0
 11
419.2391053264
 21
146.3294747061
 31
0.0
  0
LINE
  5
147
330
1F
100
AcDbEntity
  8
0
  6
Continuous
 62
     7
370
    25
100
AcDbLine
 10
420.7391053264
 20
146.3294747061
 30
0.0
 11
420.7391053264
 21
146.5294747061
 31
0.0
  0
LINE
  5
148
330
1F
100
AcDbEntity
  8
0
  6
Continuous
 62
     7
370
    25
100
AcDbLine
 10
437.668125919
 20
146.5294747061
 30
0.0
 11
437.668125919
 21
146.3294747061
 31
0.0
  0
LINE
  5
149
330
1F
100
AcDbEntity
  8
0
  6
Continuous
 62
     7
370
    25
100
AcDbLine
 10
439.168125919
 20
146.3294747061
 30
0.0
 11
439.168125919
 21
146.5294747061
 31
0.0
  0
LINE
  5
14A
330
1F
100
AcDbEntity
  8
0
  6
Continuous
 62
     7
370
    25
100
AcDbLine
 10
418.176164831
 20
146.5294747061
 30
0.0
 11
418.176164831
 21
146.3294747061
 31
0.0
  0
LINE
  5
14B
330
1F
100
AcDbEntity
  8
0
  6
Continuous
 62
     7
370
    25
100
AcDbLine
 10
440.2310664144
 20
146.3294747061
 30
0.0
 11
440.2310664144
 21
146.5294747061
 31
0.0
  0
LINE
  5
14C
330
1F
100
AcDbEntity
  8
0
  6
Continuous
 62
     7
370
    25
100
AcDbLine
 10
417.8136156226999
 20
146.5294747061
 30
0.0
 11
417.8136156226999
 21
146.3294747061
 31
0.0
  0
LINE
  5
14D
330
1F
100
AcDbEntity
  8
0
  6
Continuous
 62
     7
370
    25
100
AcDbLine
 10
440.5936156226999
 20
146.3294747061
 30
0.0
 11
440.5936156226999
 21
146.5294747061
 31
0.0
  0
LINE
  5
14E
330
1F
100
AcDbEntity
  8
DIMENSION
100
AcDbLine
 10
489.1036156226999
 20
111.5899202498
 30
0.0
 11
489.1036156226999
 21
31.5899918429
 31
0.0
  0
LINE
  5
14F
330
1F
100
AcDbEntity
  8
DIMENSION
100
AcDbLine
 10
497.1036156227
 20
31.5899918429
 30
0.0
 11
497.1036156227
 21
111.5899202498
 31
0.0
  0
LINE
  5
150
330
1F
100
AcDbEntity
  8
DIMENSION
100
AcDbLine
 10
490.3536156227
 20
31.586105757
 30
0.0
 11
490.3536156227
 21
31.3833522595
 31
0.0
  0
LINE
  5
151
330
1F
100
AcDbEntity
  8
DIMENSION
100
AcDbLine
 10
495.8536156226999
 20
31.3852094096
 30
0.0
 11
495.8536156226999
 21
31.586105757
 31
0.0
  0
LINE
  5
152
330
1F
100
AcDbEntity
  8
DIMENSION
100
AcDbLine
 10
489.0559144844
 20
31.5900119785
 30
0.0
 11
476.5036156226999
 21
31.5900119785
 31
0.0
  0
LINE
  5
153
330
1F
100
AcDbEntity
  8
DIMENSION
100
AcDbLine
 10
503.4036156226999
 20
31.5900119785
 30
0.0
 11
497.1890296053
 21
31.5900119785
 31
0.0
  0
LINE
  5
154
330
1F
100
AcDbEntity
  8
DIMENSION
100
AcDbLine
 10
485.5036078933999
 20
-13.4099880215
 30
0.0
 11
503.4036156226999
 21
-13.4099880215
 31
0.0
  0
ARC
  5
155
330
1F
100
AcDbEntity
  8
DIMENSION
100
AcDbCircle
 10
503.4036156226999
 20
-13.3099880215
 30
0.0
 40
0.0999999999999908
100
AcDbArc
 50
270.0
 51
0.0
  0
ARC
  5
156
330
1F
100
AcDbEntity
  8
DIMENSION
100
AcDbCircle
 10
503.4036156226999
 20
31.4900119785
 30
0.0
 40
0.0999999999999979
100
AcDbArc
 50
0.0
 51
90.0
  0
LINE
  5
157
330
1F
100
AcDbEntity
  8
DIMENSION
100
AcDbLine
 10
503.5036156227
 20
19.0967470557
 30
0.0
 11
503.5411156227
 21
19.0967470557
 31
0.0
  0
LINE
  5
158
330
1F
100
AcDbEntity
  8
DIMENSION
100
AcDbLine
 10
503.5411156227
 20
22.7578606238
 30
0.0
 11
503.5036156227
 21
22.7578606238
 31
0.0
  0
LINE
  5
159
330
1F
100
AcDbEntity
  8
DIMENSION
100
AcDbLine
 10
503.5411156227
 20
18.0644605202
 30
0.0
 11
503.5036156227
 21
18.0644605202
 31
0.0
  0
LINE
  5
15A
330
1F
100
AcDbEntity
  8
DIMENSION
100
AcDbLine
 10
503.5036156227
 20
16.0767421806
 30
0.0
 11
503.5411156227
 21
16.0767421806
 31
0.0
  0
LINE
  5
15B
330
1F
100
AcDbEntity
  8
DIMENSION
100
AcDbLine
 10
503.5411156227
 20
14.0634455183
 30
0.0
 11
503.5036156227
 21
14.0634455183
 31
0.0
  0
LINE
  5
15C
330
1F
100
AcDbEntity
  8
DIMENSION
100
AcDbLine
 10
503.5036156227
 20
12.2508719013
 30
0.0
 11
503.5411156227
 21
12.2508719013
 31
0.0
  0
LINE
  5
15D
330
1F
100
AcDbEntity
  8
DIMENSION
100
AcDbLine
 10
503.5036156227
 20
18.1575210864
 30
0.0
 11
503.5411156227
 21
18.1575210864
 31
0.0
  0
LINE
  5
15E
330
1F
100
AcDbEntity
  8
DIMENSION
100
AcDbLine
 10
503.5411156227
 20
20.1825782331
 30
0.0
 11
503.5036156227
 21
20.1825782331
 31
0.0
  0
LINE
  5
15F
330
1F
100
AcDbEntity
  8
DIMENSION
100
AcDbLine
 10
503.5036156227
 20
20.6595932578
 30
0.0
 11
503.5411156227
 21
20.6595932578
 31
0.0
  0
LINE
  5
160
330
1F
100
AcDbEntity
  8
0
  6
Continuous
 62
     7
370
    25
100
AcDbLine
 10
445.2036156226999
 20
146.5294747061
 30
0.0
 11
444.4536555687999
 21
168.0055207625
 31
0.0
  0
LINE
  5
161
330
1F
100
AcDbEntity
  8
0
  6
Continuous
 62
     7
370
    25
100
AcDbLine
 10
413.9531619322
 20
167.9936726726
 30
0.0
 11
413.2036156226999
 21
146.5294747061
 31
0.0
  0
LINE
  5
162
330
1F
100
AcDbEntity
  8
DIMENSION
100
AcDbLine
 10
383.5036156226999
 20
-13.1349880215
 30
0.0
 11
407.1681892687
 21
-13.1349880215
 31
0.0
  0
LINE
  5
163
330
1F
100
AcDbEntity
  8
DIMENSION
100
AcDbLine
 10
451.6181892687
 20
-13.1349880215
 30
0.0
 11
474.9036156226999
 21
-13.1349880215
 31
0.0
  0
LINE
  5
164
330
1F
100
AcDbEntity
  8
DIMENSION
100
AcDbLine
 10
474.9036156226999
 20
31.3150119785
 30
0.0
 11
445.0335573898
 21
31.3150119785
 31
0.0
  0
LINE
  5
165
330
1F
100
AcDbEntity
  8
DIMENSION
100
AcDbLine
 10
413.3737673608999
 20
31.3150119785
 30
0.0
 11
383.5036156226999
 21
31.3150119785
 31
0.0
  0
ARC
  5
166
330
1F
100
AcDbEntity
  8
DIMENSION
100
AcDbCircle
 10
473.354533204
 20
8.5721498948
 30
0.0
 40
19.99999999999999
100
AcDbArc
 50
274.4422434157
 51
300.9557978691
  0
LWPOLYLINE
  5
167
330
1F
100
AcDbEntity
  8
DIMENSION
100
AcDbPolyline
 90
        3
 70
   128
 43
0.0
 10
476.5036156226999
 20
29.3584001291
 10
475.7521751394
 20
29.4636367811
 10
474.9036156226999
 20
29.54779240860001
  0
LINE
  5
168
330
1F
100
AcDbEntity
  8
0
  6
Continuous
 62
     7
370
    25
100
AcDbLine
 10
413.8536156226999
 20
167.5328855598
 30
0.0
 11
413.8536156226999
 21
165.14303934
 31
0.0
  0
LINE
  5
169
330
1F
100
AcDbEntity
  8
0
  6
Continuous
 62
     7
370
    25
100
AcDbLine
 10
413.8536156226999
 20
146.5294747061
 30
0.0
 11
413.8536156226999
 21
115.8294747061
 31
0.0
  0
LINE
  5
16A
330
1F
100
AcDbEntity
  8
0
  6
Continuous
 62
     7
370
    25
100
AcDbLine
 10
444.5536156226999
 20
115.8294747061
 30
0.0
 11
444.5536156226999
 21
146.5294747061
 31
0.0
  0
LINE
  5
16B
330
1F
100
AcDbEntity
  8
0
  6
Continuous
 62
     7
370
    25
100
AcDbLine
 10
444.5536156226999
 20
165.14303934
 30
0.0
 11
444.5536156226999
 21
167.5328855598
 31
0.0
  0
LINE
  5
16C
330
1F
100
AcDbEntity
  8
DIMENSION
100
AcDbLine
 10
444.5536156226999
 20
42.87947470609999
 30
0.0
 11
444.5536156226999
 21
115.8294747061
 31
0.0
  0
LINE
  5
16D
330
1F
100
AcDbEntity
  8
DIMENSION
100
AcDbLine
 10
413.8536156226999
 20
115.8294747061
 30
0.0
 11
413.8536156226999
 21
42.87947470609999
 31
0.0
  0
LINE
  5
16E
330
1F
100
AcDbEntity
  8
DIMENSION
100
AcDbLine
 10
456.3931892687
 20
-78.68498802149999
 30
0.0
 11
456.3931892687
 21
-74.68498802149999
 31
0.0
  0
LINE
  5
16F
330
1F
100
AcDbEntity
  8
DIMENSION
100
AcDbLine
 10
402.3931892687
 20
-74.68498802149999
 30
0.0
 11
402.3931892687
 21
-78.68498802149999
 31
0.0
  0
LINE
  5
170
330
1F
100
AcDbEntity
  8
DIMENSION
100
AcDbLine
 10
451.6181892687
 20
-13.1349880215
 30
0.0
 11
444.2181892687
 21
-5.734988021499999
 31
0.0
  0
LINE
  5
171
330
1F
100
AcDbEntity
  8
DIMENSION
100
AcDbLine
 10
414.5681892687
 20
-5.734988021499999
 30
0.0
 11
407.1681892687
 21
-13.1349880215
 31
0.0
  0
LINE
  5
172
330
1F
100
AcDbEntity
  8
DIMENSION
100
AcDbLine
 10
444.2181892687
 20
-5.734988021499999
 30
0.0
 11
414.5681892687
 21
-5.734988021499999
 31
0.0
  0
SPLINE
  5
173
330
1F
100
AcDbEntity
  8
DIMENSION
100
AcDbSpline
210
0.0
220
0.0
230
1.0
 70
     8
 71
     3
 72
    14
 73
    10
 74
     0
 42
0.00000001
 43
0.0000000001
 40
0.0
 40
0.0
 40
0.0
 40
0.0
 40
0.2500000000000003
 40
0.2500000000000003
 40
0.5000000000000004
 40
0.5000000000000004
 40
0.7500000000000001
 40
0.7500000000000001
 40
1.0
 40
1.0
 40
1.0
 40
1.0
 10
444.2181892687446
 20
-5.734988021508263
 30
0.0
 10
443.4593734260071
 20
-5.054005755148236
 30
0.0
 10
442.6692220817846
 20
-4.368755964324885
 30
0.0
 10
441.0182973243158
 20
-3.013152764566443
 30
0.0
 10
440.1577547289898
 20
-2.342405385889332
 30
0.0
 10
438.3456522477366
 20
-1.050283910674847
 30
0.0
 10
437.3948180332241
 20
-0.4279689235689027
 30
0.0
 10
435.3564991616145
 20
0.7032972006615207
 30
0.0
 10
434.294804165511
 20
1.197975668566435
 30
0.0
 10
433.166450457712
 20
1.565011978484547
 30
0.0
  0
SPLINE
  5
174
330
1F
100
AcDbEntity
  8
DIMENSION
100
AcDbSpline
210
0.0
220
0.0
230
1.0
 70
     8
 71
     3
 72
    14
 73
    10
 74
     0
 42
0.00000001
 43
0.0000000001
 40
0.0
 40
0.0
 40
0.0
 40
0.0
 40
0.2500000000000001
 40
0.2500000000000001
 40
0.5000000000000001
 40
0.5000000000000001
 40
0.7500000000000002
 40
0.7500000000000002
 40
1.0
 40
1.0
 40
1.0
 40
1.0
 10
425.6199280797821
 20
1.565011978486061
 30
0.0
 10
424.4906770918469
 20
1.197683796978952
 30
0.0
 10
423.4410288202568
 20
0.707649356687809
 30
0.0
 10
421.4379274754948
 20
-0.4004514369700674
 30
0.0
 10
420.4853109471462
 20
-1.019908124273328
 30
0.0
 10
418.6476542621841
 20
-2.327468490741919
 30
0.0
 10
417.7773068231029
 20
-3.005708042148461
 30
0.0
 10
416.1165699591261
 20
-4.369107637135716
 30
0.0
 10
415.3252500334842
 20
-5.055580810550852
 30
0.0
 10
414.5681892687447
 20
-5.734988021508277
 30
0.0
  0
LINE
  5
175
330
1F
100
AcDbEntity
  8
DIMENSION
100
AcDbLine
 10
433.1664504576999
 20
1.565011978499999
 30
0.0
 11
425.6199280798
 21
1.565011978499999
 31
0.0
  0
LINE
  5
176
330
1F
100
AcDbEntity
  8
DIMENSION
100
AcDbLine
 10
445.1036156226999
 20
42.6794747061
 30
0.0
 11
413.3036156226999
 21
42.6794747061
 31
0.0
  0
SPLINE
  5
177
330
1F
100
AcDbEntity
  8
DIMENSION
100
AcDbSpline
210
0.0
220
0.0
230
1.0
 70
     8
 71
     3
 72
    28
 73
    24
 74
     0
 42
0.00000001
 43
0.0000000001
 40
0.0
 40
0.0
 40
0.0
 40
0.0
 40
0.0445874490160216
 40
0.090634246613965
 40
0.1351876265806728
 40
0.1808443377477728
 40
0.2295260156442674
 40
0.2792242007283235
 40
0.3366102690802138
 40
0.3957082984809601
 40
0.4346643908192007
 40
0.4746179107439599
 40
0.5136304785541794
 40
0.5539861251087417
 40
0.5981664808104124
 40
0.6436197136008093
 40
0.7016178213665695
 40
0.7612792038644021
 40
0.8196559327242008
 40
0.8800242915458929
 40
0.9235493147700053
 40
0.9682838433035502
 40
1.0
 40
1.0
 40
1.0
 40
1.0
 10
413.3036156226979
 20
31.36501197849164
 30
0.0
 10
413.3365155969626
 20
31.34144117866288
 30
0.0
 10
413.4033923626646
 20
31.29352810599975
 30
0.0
 10
413.9350385207148
 20
30.91648263268629
 30
0.0
 10
414.756414879936
 20
30.34740648946567
 30
0.0
 10
415.8782734074633
 20
29.59701354727579
 30
0.0
 10
417.3017514548273
 20
28.69526487963654
 30
0.0
 10
419.1005290440708
 20
27.64685512170421
 30
0.0
 10
421.2935688579649
 20
26.52896218718791
 30
0.0
 10
423.611927473502
 20
25.60379561139693
 30
0.0
 10
425.8482437469871
 20
24.99803877386469
 30
0.0
 10
427.858808634586
 20
24.69261774109515
 30
0.0
 10
429.9390917148575
 20
24.65067781454766
 30
0.0
 10
432.0669199757898
 20
24.89343817139792
 30
0.0
 10
434.2034329888859
 20
25.42060379455509
 30
0.0
 10
436.4556439288056
 20
26.24421334471744
 30
0.0
 10
438.7034061092881
 20
27.31526735137185
 30
0.0
 10
440.8174235396943
 20
28.51422937216925
 30
0.0
 10
442.610736347962
 20
29.64596696680393
 30
0.0
 10
443.8755199138237
 20
30.50091629256635
 30
0.0
 10
444.6612414424476
 20
31.04985001870675
 30
0.0
 10
445.0583303711487
 20
31.3326042047898
 30
0.0
 10
445.0677329448903
 20
31.3393726416225
 30
0.0
 10
445.0716336751618
 20
31.34218057987094
 30
0.0
  0
LINE
  5
178
330
1F
100
AcDbEntity
  8
0
  6
Continuous
 62
     7
370
    25
100
AcDbLine
 10
429.9536156226999
 20
146.3294747061
 30
0.0
 11
428.4536156226999
 21
146.3294747061
 31
0.0
  0
LINE
  5
179
330
1F
100
AcDbEntity
  8
0
  6
Continuous
 62
     7
370
    25
100
AcDbLine
 10
427.1997809828
 20
146.3294747061
 30
0.0
 11
425.6997809828
 21
146.3294747061
 31
0.0
  0
LINE
  5
17A
330
1F
100
AcDbEntity
  8
0
  6
Continuous
 62
     7
370
    25
100
AcDbLine
 10
432.7074502626
 20
146.3294747061
 30
0.0
 11
431.2074502626
 21
146.3294747061
 31
0.0
  0
LINE
  5
17B
330
1F
100
AcDbEntity
  8
0
  6
Continuous
 62
     7
370
    25
100
AcDbLine
 10
424.5331346755
 20
146.3294747061
 30
0.0
 11
423.1336156226999
 21
146.3294747061
 31
0.0
  0
LINE
  5
17C
330
1F
100
AcDbEntity
  8
0
  6
Continuous
 62
     7
370
    25
100
AcDbLine
 10
424.6336156226999
 20
146.3294747061
 30
0.0
 11
424.5331346755
 21
146.3294747061
 31
0.0
  0
LINE
  5
17D
330
1F
100
AcDbEntity
  8
0
  6
Continuous
 62
     7
370
    25
100
AcDbLine
 10
435.2736156227
 20
146.3294747061
 30
0.0
 11
433.7736156226999
 21
146.3294747061
 31
0.0
  0
LINE
  5
17E
330
1F
100
AcDbEntity
  8
0
  6
Continuous
 62
     7
370
    25
100
AcDbLine
 10
422.2103295568
 20
146.3294747061
 30
0.0
 11
420.9299994709
 21
146.3294747061
 31
0.0
  0
LINE
  5
17F
330
1F
100
AcDbEntity
  8
0
  6
Continuous
 62
     7
370
    25
100
AcDbLine
 10
422.4299994708999
 20
146.3294747061
 30
0.0
 11
422.2103295568
 21
146.3294747061
 31
0.0
  0
LINE
  5
180
330
1F
100
AcDbEntity
  8
0
  6
Continuous
 62
     7
370
    25
100
AcDbLine
 10
437.4772317744999
 20
146.3294747061
 30
0.0
 11
435.9772317744999
 21
146.3294747061
 31
0.0
  0
LINE
  5
181
330
1F
100
AcDbEntity
  8
0
  6
Continuous
 62
     7
370
    25
100
AcDbLine
 10
420.3641053264
 20
146.3294747061
 30
0.0
 11
419.2391053264
 21
146.3294747061
 31
0.0
  0
LINE
  5
182
330
1F
100
AcDbEntity
  8
0
  6
Continuous
 62
     7
370
    25
100
AcDbLine
 10
420.7391053264
 20
146.3294747061
 30
0.0
 11
420.3641053264
 21
146.3294747061
 31
0.0
  0
LINE
  5
183
330
1F
100
AcDbEntity
  8
0
  6
Continuous
 62
     7
370
    25
100
AcDbLine
 10
439.168125919
 20
146.3294747061
 30
0.0
 11
437.668125919
 21
146.3294747061
 31
0.0
  0
LINE
  5
184
330
1F
100
AcDbEntity
  8
0
  6
Continuous
 62
     7
370
    25
100
AcDbLine
 10
419.2391053264
 20
146.3294747061
 30
0.0
 11
418.176164831
 21
146.3294747061
 31
0.0
  0
LINE
  5
185
330
1F
100
AcDbEntity
  8
0
  6
Continuous
 62
     7
370
    25
100
AcDbLine
 10
440.2310664144
 20
146.3294747061
 30
0.0
 11
439.168125919
 21
146.3294747061
 31
0.0
  0
LINE
  5
186
330
1F
100
AcDbEntity
  8
0
  6
Continuous
 62
     7
370
    25
100
AcDbLine
 10
418.176164831
 20
146.3294747061
 30
0.0
 11
417.8136156226999
 21
146.3294747061
 31
0.0
  0
LINE
  5
187
330
1F
100
AcDbEntity
  8
0
  6
Continuous
 62
     7
370
    25
100
AcDbLine
 10
440.5936156226999
 20
146.3294747061
 30
0.0
 11
440.2310664144
 21
146.3294747061
 31
0.0
  0
LWPOLYLINE
  5
188
330
1F
100
AcDbEntity
  8
DIMENSION
100
AcDbPolyline
 90
       14
 70
   128
 43
0.0
 10
489.1036156226999
 20
31.5899918429
 10
489.1090446936
 20
31.5897131244
 10
489.3133820839
 20
31.5882816356
 10
489.7988237566
 20
31.586976985
 10
490.5293667237
 20
31.5858959327
 10
491.4508299551
 20
31.5851186552
 10
492.4948727384999
 20
31.5847027999
 10
493.5840631969
 20
31.5846792086
 10
494.6376210564999
 20
31.5850496311
 10
495.5774087508
 20
31.5857865949
 10
496.3337265255
 20
31.5868354427
 10
496.8504817513999
 20
31.5881183862
 10
497.0893490573
 20
31.5895402755
 10
497.1036156227
 20
31.5899918429
  0
LWPOLYLINE
  5
189
330
1F
100
AcDbEntity
  8
0
  6
Continuous
 62
     7
370
    25
100
AcDbPolyline
 90
       24
 70
   128
 43
0.0
 10
489.2009663551
 20
111.5910936914
 10
489.1090446936
 20
111.5896415313
 10
489.3133820839
 20
111.5882100425
 10
489.7988237566
 20
111.5869053919
 10
490.5293667237
 20
111.5858243396
 10
491.4508299551
 20
111.5850470621
 10
492.4948727384999
 20
111.5846312068
 10
493.5840631969
 20
111.5846076155
 10
494.6376210564999
 20
111.584978038
 10
495.5774087508
 20
111.5857150018
 10
496.3337265255
 20
111.5867638496
 10
496.8504817513999
 20
111.5880467931
 10
497.0893490573
 20
111.5894686824
 10
497.0326127479
 20
111.5909240623
 10
496.6844806955999
 20
111.5923049941
 10
496.0707722622999
 20
111.5935090603
 10
495.2370033948
 20
111.5944469608
 10
494.2450109159
 20
111.5950491359
 10
493.1683663697
 20
111.595270925
 10
492.0869195566999
 20
111.595095879
 10
491.0808764398999
 20
111.5945369802
 10
490.2248506348
 20
111.5936356797
 10
489.5823296594
 20
111.5924588227
 10
489.2009663551
 20
111.5910936914
  0
SPLINE
  5
18A
330
1F
100
AcDbEntity
  8
DIMENSION
100
AcDbSpline
210
0.0
220
0.0
230
1.0
 70
     8
 71
     3
 72
    18
 73
    14
 74
     0
 42
0.00000001
 43
0.0000000001
 40
0.0
 40
0.0
 40
0.0
 40
0.0
 40
0.0366472231071862
 40
0.1416725885761171
 40
0.247275081414588
 40
0.3544032902621847
 40
0.4616780963835731
 40
0.5674220234350774
 40
0.6723632987225291
 40
0.7784613633826557
 40
0.8858818245015243
 40
0.9927454812733948
 40
1.0
 40
1.0
 40
1.0
 40
1.0
 10
489.0559144843586
 20
31.58059367967222
 30
0.0
 10
489.0404540709964
 20
31.58317040091365
 30
0.0
 10
488.9806864652738
 20
31.59313161317918
 30
0.0
 10
489.3459640143924
 20
31.52521655236334
 30
0.0
 10
490.1121172762485
 20
31.4041173519642
 30
0.0
 10
491.2485139576595
 20
31.27389920928605
 30
0.0
 10
492.5904256663338
 20
31.1989850816169
 30
0.0
 10
493.9851881044656
 20
31.21154963865356
 30
0.0
 10
495.269408385437
 20
31.3036911233724
 30
0.0
 10
496.3322545352801
 20
31.43864359132009
 30
0.0
 10
496.9921147257196
 20
31.54886655292835
 30
0.0
 10
497.2727472838743
 20
31.60164983816181
 30
0.0
 10
497.1940334611621
 20
31.58828614943948
 30
0.0
 10
497.1890296053047
 20
31.58743661666637
 30
0.0
  0
ELLIPSE
  5
18B
330
1F
100
AcDbEntity
  8
DIMENSION
100
AcDbEllipse
 10
476.8666748344
 20
9.090011978499999
 30
0.0
 11
-8.636934917505241
 21
22.49999966970727
 31
0.0
210
0.0
220
0.0
230
1.0
 40
0.0004475963
 41
1.529914340101248
 42
3.141420837592094
  0
LINE
  5
18C
330
1F
100
AcDbEntity
  8
DIMENSION
100
AcDbLine
 10
476.5036156226999
 20
31.5900119785
 30
0.0
 11
476.5036156226999
 21
10.0057378286
 31
0.0
  0
LINE
  5
18D
330
1F
100
AcDbEntity
  8
DIMENSION
100
AcDbLine
 10
503.5036156227
 20
31.4900119785
 30
0.0
 11
503.5036156227
 21
-13.3099880215
 31
0.0
  0
LINE
  5
18E
330
1F
100
AcDbEntity
  8
0
  6
Continuous
 62
     7
370
    25
100
AcDbLine
 10
413.2036156226999
 20
146.5294747061
 30
0.0
 11
445.2036156226999
 21
146.5294747061
 31
0.0
  0
CIRCLE
  5
18F
330
1F
100
AcDbEntity
  8
0
  6
Continuous
 62
     7
370
    25
100
AcDbCircle
 10
429.2036156226999
 20
170.8294747061
 30
0.0
 40
15.30000000000001
  0
CIRCLE
  5
190
330
1F
100
AcDbEntity
  8
0
  6
Continuous
 62
     7
370
    25
100
AcDbCircle
 10
429.2036156226999
 20
170.8294747061
 30
0.0
 40
15.5
  0
LINE
  5
191
330
1F
100
AcDbEntity
  8
DIMENSION
100
AcDbLine
 10
474.9036156226999
 20
9.090011978499999
 30
0.0
 11
474.9036156226999
 21
31.3150119785
 31
0.0
  0
LINE
  5
192
330
1F
100
AcDbEntity
  8
DIMENSION
100
AcDbLine
 10
474.9036156226999
 20
-13.1349880215
 30
0.0
 11
474.9036156226999
 21
9.090011978499999
 31
0.0
  0
LINE
  5
193
330
1F
100
AcDbEntity
  8
DIMENSION
100
AcDbLine
 10
383.5036156226999
 20
-13.1349880215
 30
0.0
 11
383.5036156226999
 21
31.3150119785
 31
0.0
  0
LINE
  5
194
330
1F
100
AcDbEntity
  8
DIMENSION
100
AcDbLine
 10
429.2036156226999
 20
42.87947470609999
 30
0.0
 11
444.5536156226999
 21
42.87947470609999
 31
0.0
  0
LINE
  5
195
330
1F
100
AcDbEntity
  8
DIMENSION
100
AcDbLine
 10
413.8536156226999
 20
42.87947470609999
 30
0.0
 11
429.2036156226999
 21
42.87947470609999
 31
0.0
  0
ARC
  5
196
330
1F
100
AcDbEntity
  8
0
  6
Continuous
 62
     7
370
    25
100
AcDbCircle
 10
429.2036156226999
 20
170.8294747061
 30
0.0
 40
15.69999999999999
100
AcDbArc
 50
346.6812573749
 51
193.3187426251
  0
LINE
  5
197
330
1F
100
AcDbEntity
  8
DIMENSION
100
AcDbLine
 10
425.4647542728999
 20
-74.68498802149999
 30
0.0
 11
456.3931892687
 21
-74.68498802149999
 31
0.0
  0
LINE
  5
198
330
1F
100
AcDbEntity
  8
DIMENSION
100
AcDbLine
 10
402.3931892687
 20
-74.68498802149999
 30
0.0
 11
425.4647542728999
 21
-74.68498802149999
 31
0.0
  0
LINE
  5
199
330
1F
100
AcDbEntity
  8
DIMENSION
100
AcDbLine
 10
425.4647542728999
 20
-78.68498802149999
 30
0.0
 11
456.3931892687
 21
-78.68498802149999
 31
0.0
  0
LINE
  5
19A
330
1F
100
AcDbEntity
  8
DIMENSION
100
AcDbLine
 10
402.3931892687
 20
-78.68498802149999
 30
0.0
 11
425.4647542728999
 21
-78.68498802149999
 31
0.0
  0
DIMENSION
  5
19B
102
{ACAD_XDICTIONARY
360
389
102
}
330
1F
100
AcDbEntity
  8
DIMENSION
100
AcDbDimension
280
     0
  2
*D25
 10
402.3931892687
 20
-112.6849880215
 30
0.0
 11
427.5273699123
 21
-112.6849880215
 31
0.0
 70
   160
  1
%%c<>
 71
     2
 42
54.0
 73
     0
 74
     0
 75
     0
  3
RG Dimension Lines
100
AcDbAlignedDimension
 13
456.3931892687
 23
-78.68498802149999
 33
0.0
 14
402.3931892687
 24
-78.68498802149999
 34
0.0
100
AcDbRotatedDimension
1001
AcadAnnotative
1000
AnnotativeData
1002
{
1070
     1
1070
     1
1002
}
  0
DIMENSION
  5
1A4
102
{ACAD_XDICTIONARY
360
37B
102
}
330
1F
100
AcDbEntity
  8
DIMENSION
100
AcDbDimension
280
     0
  2
*D24
 10
537.5036156227
 20
111.5899202498
 30
0.0
 11
537.5036156226999
 21
48.9180503626
 31
0.0
 70
   160
  1
<>
 71
     2
 42
124.9999082713
 73
     0
 74
     0
 75
     0
  3
RG Dimension Lines
100
AcDbAlignedDimension
 13
503.4036156226999
 23
-13.4099880215
 33
0.0
 14
493.1036156226999
 24
111.5899202498
 34
0.0
 50
90.0
100
AcDbRotatedDimension
1001
AcadAnnotative
1000
AnnotativeData
1002
{
1070
     1
1070
     1
1002
}
  0
DIMENSION
  5
1AC
102
{ACAD_XDICTIONARY
360
397
102
}
330
1F
100
AcDbEntity
  8
DIMENSION
100
AcDbDimension
280
     0
  2
*D26
 10
444.9036156226999
 20
208.5294747061
 30
0.0
 11
427.5273699123
 21
208.5294747061
 31
0.0
 70
   160
  1
%%c<>
 71
     2
 42
31.39999999999998
 73
     0
 74
     0
 75
     0
  3
RG Dimension Lines
100
AcDbAlignedDimension
 13
413.5036156226999
 23
170.8294747061
 33
0.0
 14
444.9036156226999
 24
170.8294747061
 34
0.0
100
AcDbRotatedDimension
1001
AcadAnnotative
1000
AnnotativeData
1002
{
1070
     1
1070
     1
1002
}
1001
ACAD
1000
DSTYLE
1002
{
1070
    45
1040
2.0
1002
}
  0
LINE
  5
1B5
330
1F
100
AcDbEntity
  8
DIMENSION
100
AcDbLine
 10
15.10303132619999
 20
368.5420950786
 30
0.0
 11
14.9960037989
 21
368.5420950786
 31
0.0
  0
LINE
  5
1B6
330
1F
100
AcDbEntity
  8
DIMENSION
100
AcDbLine
 10
14.9960037989
 20
360.5420950786
 30
0.0
 11
15.10303132619999
 21
360.5420950786
 31
0.0
  0
LINE
  5
1B7
330
1F
100
AcDbEntity
  8
DIMENSION
100
AcDbLine
 10
-7.534097693099999
 20
374.8420950786
 30
0.0
 11
-7.534097693099999
 21
348.3167091705
 31
0.0
  0
LINE
  5
1B8
330
1F
100
AcDbEntity
  8
DIMENSION
100
AcDbLine
 10
37.4659023069
 20
348.2935994101
 30
0.0
 11
37.4659023069
 21
374.8420950786
 31
0.0
  0
ARC
  5
1B9
330
1F
100
AcDbEntity
  8
DIMENSION
100
AcDbCircle
 10
37.3659023069
 20
374.8420950786
 30
0.0
 40
0.1000000000000085
100
AcDbArc
 50
0.0
 51
90.0
  0
ARC
  5
1BA
330
1F
100
AcDbEntity
  8
DIMENSION
100
AcDbCircle
 10
-7.434097693099999
 20
374.8420950786
 30
0.0
 40
0.099999999999989
100
AcDbArc
 50
90.0
 51
180.0
  0
LINE
  5
1BB
330
1F
100
AcDbEntity
  8
DIMENSION
100
AcDbLine
 10
26.6239629033
 20
374.9795950786
 30
0.0
 11
26.6239629033
 21
374.9420950786
 31
0.0
  0
LINE
  5
1BC
330
1F
100
AcDbEntity
  8
DIMENSION
100
AcDbLine
 10
30.3377286349
 20
374.9420950786
 30
0.0
 11
30.3377286349
 21
374.9795950786
 31
0.0
  0
LINE
  5
1BD
330
1F
100
AcDbEntity
  8
DIMENSION
100
AcDbLine
 10
1.277448945099999
 20
374.9795950786
 30
0.0
 11
1.277448945099999
 21
374.9420950786
 31
0.0
  0
LINE
  5
1BE
330
1F
100
AcDbEntity
  8
DIMENSION
100
AcDbLine
 10
3.2651829418
 20
374.9420950786
 30
0.0
 11
3.2651829418
 21
374.9795950786
 31
0.0
  0
LINE
  5
1BF
330
1F
100
AcDbEntity
  8
DIMENSION
100
AcDbLine
 10
27.0465187961
 20
374.9420950786
 30
0.0
 11
27.0465187961
 21
374.9795950786
 31
0.0
  0
LINE
  5
1C0
330
1F
100
AcDbEntity
  8
DIMENSION
100
AcDbLine
 10
25.021462314
 20
374.9795950786
 30
0.0
 11
25.021462314
 21
374.9420950786
 31
0.0
  0
LINE
  5
1C1
330
1F
100
AcDbEntity
  8
DIMENSION
100
AcDbLine
 10
23.2083019206
 20
374.9420950786
 30
0.0
 11
23.2083019206
 21
374.9795950786
 31
0.0
  0
LINE
  5
1C2
330
1F
100
AcDbEntity
  8
DIMENSION
100
AcDbLine
 10
21.3635534493
 20
374.9795950786
 30
0.0
 11
21.3635534493
 21
374.9420950786
 31
0.0
  0
LINE
  5
1C3
330
1F
100
AcDbEntity
  8
0
  6
Continuous
 62
     7
370
    25
100
AcDbLine
 10
273.7009023083
 20
285.1420950786
 30
0.0
 11
273.9009023083
 21
285.3420950786
 31
0.0
  0
LINE
  5
1C4
330
1F
100
AcDbEntity
  8
0
  6
Continuous
 62
     7
370
    25
100
AcDbLine
 10
273.9009023083
 20
315.9420950786
 30
0.0
 11
273.7009023083
 21
316.1420950786
 31
0.0
  0
LINE
  5
1C5
330
1F
100
AcDbEntity
  8
0
  6
Continuous
 62
     7
370
    25
100
AcDbLine
 10
142.8009023083
 20
285.1420950786
 30
0.0
 11
273.7009023083
 21
285.1420950786
 31
0.0
  0
LINE
  5
1C6
330
1F
100
AcDbEntity
  8
0
  6
Continuous
 62
     7
370
    25
100
AcDbLine
 10
273.7009023083
 20
316.1420950786
 30
0.0
 11
142.8009023083
 21
316.1420950786
 31
0.0
  0
LINE
  5
1C7
330
1F
100
AcDbEntity
  8
0
  6
Continuous
 62
     7
370
    25
100
AcDbLine
 10
142.8009023083
 20
311.8920950786
 30
0.0
 11
142.7009023083
 21
311.8920950786
 31
0.0
  0
LINE
  5
1C8
330
1F
100
AcDbEntity
  8
0
  6
Continuous
 62
     7
370
    25
100
AcDbLine
 10
142.7009023083
 20
289.3920950786
 30
0.0
 11
142.8009023083
 21
289.3920950786
 31
0.0
  0
LINE
  5
1C9
330
1F
100
AcDbEntity
  8
DIMENSION
100
AcDbLine
 10
37.1259023069
 20
254.9420950786
 30
0.0
 11
37.1259023069
 21
285.2920950786
 31
0.0
  0
LINE
  5
1CA
330
1F
100
AcDbEntity
  8
DIMENSION
100
AcDbLine
 10
37.1259023069
 20
315.9920950786
 30
0.0
 11
37.1259023069
 21
346.3420950786
 31
0.0
  0
LINE
  5
1CB
330
1F
100
AcDbEntity
  8
DIMENSION
100
AcDbLine
 10
-7.324097693099999
 20
346.3420950786
 30
0.0
 11
-7.324097693099999
 21
254.9420950786
 31
0.0
  0
LWPOLYLINE
  5
1CC
330
1F
100
AcDbEntity
  8
DIMENSION
100
AcDbPolyline
 90
        3
 70
   128
 43
0.0
 10
35.358682737
 20
346.3420950786
 10
35.2745271095
 20
347.1906545953
 10
35.1692904575
 20
347.9420950786
  0
LWPOLYLINE
  5
1CD
330
1F
100
AcDbEntity
  8
DIMENSION
100
AcDbPolyline
 90
        3
 70
   128
 43
0.0
 10
-5.367485843799999
 20
347.9420950786
 10
-5.4727224957
 20
347.1906545953
 10
-5.5568781232
 20
346.3420950786
  0
LINE
  5
1CE
330
1F
100
AcDbEntity
  8
DIMENSION
100
AcDbLine
 10
134.9009023083
 20
315.9920950786
 30
0.0
 11
69.9009023083
 21
315.9920950786
 31
0.0
  0
LINE
  5
1CF
330
1F
100
AcDbEntity
  8
DIMENSION
100
AcDbLine
 10
69.9009023083
 20
285.2920950786
 30
0.0
 11
134.9009023083
 21
285.2920950786
 31
0.0
  0
LINE
  5
1D0
330
1F
100
AcDbEntity
  8
DIMENSION
100
AcDbLine
 10
14.9009023083
 20
285.2920950786
 30
0.0
 11
69.9009023083
 21
285.2920950786
 31
0.0
  0
LINE
  5
1D1
330
1F
100
AcDbEntity
  8
DIMENSION
100
AcDbLine
 10
69.9009023083
 20
315.9920950786
 30
0.0
 11
14.9009023083
 21
315.9920950786
 31
0.0
  0
LINE
  5
1D2
330
1F
100
AcDbEntity
  8
0
  6
Continuous
 62
     7
370
    25
100
AcDbLine
 10
142.7009023083
 20
316.3420950786
 30
0.0
 11
134.9009023083
 21
316.3420950786
 31
0.0
  0
LINE
  5
1D3
330
1F
100
AcDbEntity
  8
0
  6
Continuous
 62
     7
370
    25
100
AcDbLine
 10
134.9009023083
 20
284.9420950786
 30
0.0
 11
142.7009023083
 21
284.9420950786
 31
0.0
  0
ARC
  5
1D4
330
1F
100
AcDbEntity
  8
DIMENSION
100
AcDbCircle
 10
14.9009023069
 20
300.6420950786
 30
0.0
 40
15.90000000000003
100
AcDbArc
 50
74.8859684083
 51
270.0
  0
LWPOLYLINE
  5
1D5
330
1F
100
AcDbEntity
  8
DIMENSION
100
AcDbPolyline
 90
        3
 70
   128
 43
0.0
 10
19.0466832948
 20
285.2920950786
 10
17.0201648973
 20
284.8839630169
 10
14.9009023069
 20
284.7420950786
  0
LINE
  5
1D6
330
1F
100
AcDbEntity
  8
0
  6
Continuous
 62
     7
370
    25
100
AcDbLine
 10
234.9009023083
 20
301.5420950786
 30
0.0
 11
234.9009023083
 21
301.7420950786
 31
0.0
  0
LINE
  5
1D7
330
1F
100
AcDbEntity
  8
0
  6
Continuous
 62
     7
370
    25
100
AcDbLine
 10
229.9009023083
 20
301.7420950786
 30
0.0
 11
234.9009023083
 21
301.7420950786
 31
0.0
  0
LINE
  5
1D8
330
1F
100
AcDbEntity
  8
0
  6
Continuous
 62
     7
370
    25
100
AcDbLine
 10
229.9009023083
 20
304.8670950786
 30
0.0
 11
229.9009023083
 21
301.7420950786
 31
0.0
  0
LINE
  5
1D9
330
1F
100
AcDbEntity
  8
0
  6
Continuous
 62
     7
370
    25
100
AcDbLine
 10
229.9009023083
 20
304.8670950786
 30
0.0
 11
226.7009023083
 21
304.8670950786
 31
0.0
  0
LINE
  5
1DA
330
1F
100
AcDbEntity
  8
0
  6
Continuous
 62
     7
370
    25
100
AcDbLine
 10
226.7009023083
 20
304.8670950786
 30
0.0
 11
226.7009023083
 21
304.6124235662
 31
0.0
  0
LINE
  5
1DB
330
1F
100
AcDbEntity
  8
0
  6
Continuous
 62
     7
370
    25
100
AcDbLine
 10
229.6009023083
 20
304.6124235662
 30
0.0
 11
226.7009023083
 21
304.6124235662
 31
0.0
  0
LINE
  5
1DC
330
1F
100
AcDbEntity
  8
0
  6
Continuous
 62
     7
370
    25
100
AcDbLine
 10
229.6009023083
 20
304.6124235662
 30
0.0
 11
229.6009023083
 21
296.6716717791
 31
0.0
  0
LINE
  5
1DD
330
1F
100
AcDbEntity
  8
0
  6
Continuous
 62
     7
370
    25
100
AcDbLine
 10
226.7009023083
 20
296.6716717791
 30
0.0
 11
229.6009023083
 21
296.6716717791
 31
0.0
  0
LINE
  5
1DE
330
1F
100
AcDbEntity
  8
0
  6
Continuous
 62
     7
370
    25
100
AcDbLine
 10
226.7009023083
 20
296.4216717791
 30
0.0
 11
226.7009023083
 21
296.6716717791
 31
0.0
  0
LINE
  5
1DF
330
1F
100
AcDbEntity
  8
0
  6
Continuous
 62
     7
370
    25
100
AcDbLine
 10
229.6009023083
 20
296.4216717791
 30
0.0
 11
226.7009023083
 21
296.4216717791
 31
0.0
  0
LINE
  5
1E0
330
1F
100
AcDbEntity
  8
0
  6
Continuous
 62
     7
370
    25
100
AcDbLine
 10
229.6009023083
 20
296.4216717791
 30
0.0
 11
229.6009023083
 21
296.4170950786
 31
0.0
  0
LINE
  5
1E1
330
1F
100
AcDbEntity
  8
0
  6
Continuous
 62
     7
370
    25
100
AcDbLine
 10
229.6009023083
 20
296.4170950786
 30
0.0
 11
229.9009023083
 21
296.4170950786
 31
0.0
  0
LINE
  5
1E2
330
1F
100
AcDbEntity
  8
0
  6
Continuous
 62
     7
370
    25
100
AcDbLine
 10
229.9009023083
 20
299.5420950786
 30
0.0
 11
229.9009023083
 21
296.4170950786
 31
0.0
  0
LINE
  5
1E3
330
1F
100
AcDbEntity
  8
0
  6
Continuous
 62
     7
370
    25
100
AcDbLine
 10
234.9009023083
 20
299.5420950786
 30
0.0
 11
229.9009023083
 21
299.5420950786
 31
0.0
  0
LINE
  5
1E4
330
1F
100
AcDbEntity
  8
0
  6
Continuous
 62
     7
370
    25
100
AcDbLine
 10
234.9009023083
 20
299.7420950786
 30
0.0
 11
234.9009023083
 21
299.5420950786
 31
0.0
  0
LINE
  5
1E5
330
1F
100
AcDbEntity
  8
0
  6
Continuous
 62
     7
370
    25
100
AcDbLine
 10
234.9009023083
 20
299.7420950786
 30
0.0
 11
229.9009023083
 21
299.7420950786
 31
0.0
  0
LINE
  5
1E6
330
1F
100
AcDbEntity
  8
0
  6
Continuous
 62
     7
370
    25
100
AcDbLine
 10
229.9009023083
 20
300.0420950786
 30
0.0
 11
229.9009023083
 21
299.7420950786
 31
0.0
  0
LINE
  5
1E7
330
1F
100
AcDbEntity
  8
0
  6
Continuous
 62
     7
370
    25
100
AcDbLine
 10
234.9009023083
 20
300.0420950786
 30
0.0
 11
229.9009023083
 21
300.0420950786
 31
0.0
  0
LINE
  5
1E8
330
1F
100
AcDbEntity
  8
0
  6
Continuous
 62
     7
370
    25
100
AcDbLine
 10
234.9009023083
 20
300.2420950786
 30
0.0
 11
234.9009023083
 21
300.0420950786
 31
0.0
  0
LINE
  5
1E9
330
1F
100
AcDbEntity
  8
0
  6
Continuous
 62
     7
370
    25
100
AcDbLine
 10
234.9009023083
 20
300.2420950786
 30
0.0
 11
229.9009023083
 21
300.2420950786
 31
0.0
  0
LINE
  5
1EA
330
1F
100
AcDbEntity
  8
0
  6
Continuous
 62
     7
370
    25
100
AcDbLine
 10
229.9009023083
 20
300.5420950786
 30
0.0
 11
229.9009023083
 21
300.2420950786
 31
0.0
  0
LINE
  5
1EB
330
1F
100
AcDbEntity
  8
0
  6
Continuous
 62
     7
370
    25
100
AcDbLine
 10
234.9009023083
 20
300.5420950786
 30
0.0
 11
229.9009023083
 21
300.5420950786
 31
0.0
  0
LINE
  5
1EC
330
1F
100
AcDbEntity
  8
0
  6
Continuous
 62
     7
370
    25
100
AcDbLine
 10
234.9009023083
 20
300.7420950786
 30
0.0
 11
234.9009023083
 21
300.5420950786
 31
0.0
  0
LINE
  5
1ED
330
1F
100
AcDbEntity
  8
0
  6
Continuous
 62
     7
370
    25
100
AcDbLine
 10
234.9009023083
 20
300.7420950786
 30
0.0
 11
229.9009023083
 21
300.7420950786
 31
0.0
  0
LINE
  5
1EE
330
1F
100
AcDbEntity
  8
0
  6
Continuous
 62
     7
370
    25
100
AcDbLine
 10
229.9009023083
 20
301.0420950786
 30
0.0
 11
229.9009023083
 21
300.7420950786
 31
0.0
  0
LINE
  5
1EF
330
1F
100
AcDbEntity
  8
0
  6
Continuous
 62
     7
370
    25
100
AcDbLine
 10
229.9009023083
 20
301.0420950786
 30
0.0
 11
234.9009023083
 21
301.0420950786
 31
0.0
  0
LINE
  5
1F0
330
1F
100
AcDbEntity
  8
0
  6
Continuous
 62
     7
370
    25
100
AcDbLine
 10
234.9009023083
 20
301.0420950786
 30
0.0
 11
234.9009023083
 21
301.2420950786
 31
0.0
  0
LINE
  5
1F1
330
1F
100
AcDbEntity
  8
0
  6
Continuous
 62
     7
370
    25
100
AcDbLine
 10
229.9009023083
 20
301.2420950786
 30
0.0
 11
234.9009023083
 21
301.2420950786
 31
0.0
  0
LINE
  5
1F2
330
1F
100
AcDbEntity
  8
0
  6
Continuous
 62
     7
370
    25
100
AcDbLine
 10
229.9009023083
 20
301.5420950786
 30
0.0
 11
229.9009023083
 21
301.2420950786
 31
0.0
  0
LINE
  5
1F3
330
1F
100
AcDbEntity
  8
0
  6
Continuous
 62
     7
370
    25
100
AcDbLine
 10
229.9009023083
 20
301.5420950786
 30
0.0
 11
234.9009023083
 21
301.5420950786
 31
0.0
  0
LINE
  5
1F4
330
1F
100
AcDbEntity
  8
0
  6
Continuous
 62
     7
370
    25
100
AcDbLine
 10
250.6009023083
 20
304.6124235662
 30
0.0
 11
247.7009023083
 21
304.6124235662
 31
0.0
  0
LINE
  5
1F5
330
1F
100
AcDbEntity
  8
0
  6
Continuous
 62
     7
370
    25
100
AcDbLine
 10
250.6009023083
 20
304.6124235662
 30
0.0
 11
250.6009023083
 21
296.6716717791
 31
0.0
  0
LINE
  5
1F6
330
1F
100
AcDbEntity
  8
0
  6
Continuous
 62
     7
370
    25
100
AcDbLine
 10
247.7009023083
 20
296.6716717791
 30
0.0
 11
250.6009023083
 21
296.6716717791
 31
0.0
  0
LINE
  5
1F7
330
1F
100
AcDbEntity
  8
0
  6
Continuous
 62
     7
370
    25
100
AcDbLine
 10
247.7009023083
 20
296.4216717791
 30
0.0
 11
247.7009023083
 21
296.6716717791
 31
0.0
  0
LINE
  5
1F8
330
1F
100
AcDbEntity
  8
0
  6
Continuous
 62
     7
370
    25
100
AcDbLine
 10
250.6009023083
 20
296.4216717791
 30
0.0
 11
247.7009023083
 21
296.4216717791
 31
0.0
  0
LINE
  5
1F9
330
1F
100
AcDbEntity
  8
0
  6
Continuous
 62
     7
370
    25
100
AcDbLine
 10
250.6009023083
 20
296.4216717791
 30
0.0
 11
250.6009023083
 21
296.4170950786
 31
0.0
  0
LINE
  5
1FA
330
1F
100
AcDbEntity
  8
0
  6
Continuous
 62
     7
370
    25
100
AcDbLine
 10
250.6009023083
 20
296.4170950786
 30
0.0
 11
250.9009023083
 21
296.4170950786
 31
0.0
  0
LINE
  5
1FB
330
1F
100
AcDbEntity
  8
0
  6
Continuous
 62
     7
370
    25
100
AcDbLine
 10
250.9009023083
 20
296.4920950786
 30
0.0
 11
250.9009023083
 21
296.4170950786
 31
0.0
  0
LINE
  5
1FC
330
1F
100
AcDbEntity
  8
0
  6
Continuous
 62
     7
370
    25
100
AcDbLine
 10
255.9009023083
 20
296.4920950786
 30
0.0
 11
250.9009023083
 21
296.4920950786
 31
0.0
  0
LINE
  5
1FD
330
1F
100
AcDbEntity
  8
0
  6
Continuous
 62
     7
370
    25
100
AcDbLine
 10
255.9009023083
 20
296.6920950786
 30
0.0
 11
255.9009023083
 21
296.4920950786
 31
0.0
  0
LINE
  5
1FE
330
1F
100
AcDbEntity
  8
0
  6
Continuous
 62
     7
370
    25
100
AcDbLine
 10
255.9009023083
 20
296.6920950786
 30
0.0
 11
250.9009023083
 21
296.6920950786
 31
0.0
  0
LINE
  5
1FF
330
1F
100
AcDbEntity
  8
0
  6
Continuous
 62
     7
370
    25
100
AcDbLine
 10
250.9009023083
 20
297.8420950786
 30
0.0
 11
250.9009023083
 21
296.6920950786
 31
0.0
  0
LINE
  5
200
330
1F
100
AcDbEntity
  8
0
  6
Continuous
 62
     7
370
    25
100
AcDbLine
 10
255.9009023083
 20
297.8420950786
 30
0.0
 11
250.9009023083
 21
297.8420950786
 31
0.0
  0
LINE
  5
201
330
1F
100
AcDbEntity
  8
0
  6
Continuous
 62
     7
370
    25
100
AcDbLine
 10
255.9009023083
 20
298.0420950786
 30
0.0
 11
255.9009023083
 21
297.8420950786
 31
0.0
  0
LINE
  5
202
330
1F
100
AcDbEntity
  8
0
  6
Continuous
 62
     7
370
    25
100
AcDbLine
 10
255.9009023083
 20
298.0420950786
 30
0.0
 11
250.9009023083
 21
298.0420950786
 31
0.0
  0
LINE
  5
203
330
1F
100
AcDbEntity
  8
0
  6
Continuous
 62
     7
370
    25
100
AcDbLine
 10
250.9009023083
 20
299.1920950786
 30
0.0
 11
250.9009023083
 21
298.0420950786
 31
0.0
  0
LINE
  5
204
330
1F
100
AcDbEntity
  8
0
  6
Continuous
 62
     7
370
    25
100
AcDbLine
 10
255.9009023083
 20
299.1920950786
 30
0.0
 11
250.9009023083
 21
299.1920950786
 31
0.0
  0
LINE
  5
205
330
1F
100
AcDbEntity
  8
0
  6
Continuous
 62
     7
370
    25
100
AcDbLine
 10
255.9009023083
 20
299.3920950786
 30
0.0
 11
255.9009023083
 21
299.1920950786
 31
0.0
  0
LINE
  5
206
330
1F
100
AcDbEntity
  8
0
  6
Continuous
 62
     7
370
    25
100
AcDbLine
 10
255.9009023083
 20
299.3920950786
 30
0.0
 11
250.9009023083
 21
299.3920950786
 31
0.0
  0
LINE
  5
207
330
1F
100
AcDbEntity
  8
0
  6
Continuous
 62
     7
370
    25
100
AcDbLine
 10
250.9009023083
 20
300.5420950786
 30
0.0
 11
250.9009023083
 21
299.3920950786
 31
0.0
  0
LINE
  5
208
330
1F
100
AcDbEntity
  8
0
  6
Continuous
 62
     7
370
    25
100
AcDbLine
 10
255.9009023083
 20
300.5420950786
 30
0.0
 11
250.9009023083
 21
300.5420950786
 31
0.0
  0
LINE
  5
209
330
1F
100
AcDbEntity
  8
0
  6
Continuous
 62
     7
370
    25
100
AcDbLine
 10
255.9009023083
 20
300.7420950786
 30
0.0
 11
255.9009023083
 21
300.5420950786
 31
0.0
  0
LINE
  5
20A
330
1F
100
AcDbEntity
  8
0
  6
Continuous
 62
     7
370
    25
100
AcDbLine
 10
255.9009023083
 20
300.7420950786
 30
0.0
 11
250.9009023083
 21
300.7420950786
 31
0.0
  0
LINE
  5
20B
330
1F
100
AcDbEntity
  8
0
  6
Continuous
 62
     7
370
    25
100
AcDbLine
 10
250.9009023083
 20
301.8920950786
 30
0.0
 11
250.9009023083
 21
300.7420950786
 31
0.0
  0
LINE
  5
20C
330
1F
100
AcDbEntity
  8
0
  6
Continuous
 62
     7
370
    25
100
AcDbLine
 10
250.9009023083
 20
301.8920950786
 30
0.0
 11
255.9009023083
 21
301.8920950786
 31
0.0
  0
LINE
  5
20D
330
1F
100
AcDbEntity
  8
0
  6
Continuous
 62
     7
370
    25
100
AcDbLine
 10
255.9009023083
 20
301.8920950786
 30
0.0
 11
255.9009023083
 21
302.0920950786
 31
0.0
  0
LINE
  5
20E
330
1F
100
AcDbEntity
  8
0
  6
Continuous
 62
     7
370
    25
100
AcDbLine
 10
250.9009023083
 20
302.0920950786
 30
0.0
 11
255.9009023083
 21
302.0920950786
 31
0.0
  0
LINE
  5
20F
330
1F
100
AcDbEntity
  8
0
  6
Continuous
 62
     7
370
    25
100
AcDbLine
 10
250.9009023083
 20
303.2420950786
 30
0.0
 11
250.9009023083
 21
302.0920950786
 31
0.0
  0
LINE
  5
210
330
1F
100
AcDbEntity
  8
0
  6
Continuous
 62
     7
370
    25
100
AcDbLine
 10
250.9009023083
 20
303.2420950786
 30
0.0
 11
255.9009023083
 21
303.2420950786
 31
0.0
  0
LINE
  5
211
330
1F
100
AcDbEntity
  8
0
  6
Continuous
 62
     7
370
    25
100
AcDbLine
 10
255.9009023083
 20
303.2420950786
 30
0.0
 11
255.9009023083
 21
303.4420950786
 31
0.0
  0
LINE
  5
212
330
1F
100
AcDbEntity
  8
0
  6
Continuous
 62
     7
370
    25
100
AcDbLine
 10
250.9009023083
 20
303.4420950786
 30
0.0
 11
255.9009023083
 21
303.4420950786
 31
0.0
  0
LINE
  5
213
330
1F
100
AcDbEntity
  8
0
  6
Continuous
 62
     7
370
    25
100
AcDbLine
 10
250.9009023083
 20
304.5920950786
 30
0.0
 11
250.9009023083
 21
303.4420950786
 31
0.0
  0
LINE
  5
214
330
1F
100
AcDbEntity
  8
0
  6
Continuous
 62
     7
370
    25
100
AcDbLine
 10
250.9009023083
 20
304.5920950786
 30
0.0
 11
255.9009023083
 21
304.5920950786
 31
0.0
  0
LINE
  5
215
330
1F
100
AcDbEntity
  8
0
  6
Continuous
 62
     7
370
    25
100
AcDbLine
 10
255.9009023083
 20
304.5920950786
 30
0.0
 11
255.9009023083
 21
304.7920950786001
 31
0.0
  0
LINE
  5
216
330
1F
100
AcDbEntity
  8
0
  6
Continuous
 62
     7
370
    25
100
AcDbLine
 10
250.9009023083
 20
304.7920950786001
 30
0.0
 11
255.9009023083
 21
304.7920950786001
 31
0.0
  0
LINE
  5
217
330
1F
100
AcDbEntity
  8
0
  6
Continuous
 62
     7
370
    25
100
AcDbLine
 10
250.9009023083
 20
304.8670950786
 30
0.0
 11
250.9009023083
 21
304.7920950786001
 31
0.0
  0
LINE
  5
218
330
1F
100
AcDbEntity
  8
0
  6
Continuous
 62
     7
370
    25
100
AcDbLine
 10
250.9009023083
 20
304.8670950786
 30
0.0
 11
247.7009023083
 21
304.8670950786
 31
0.0
  0
LINE
  5
219
330
1F
100
AcDbEntity
  8
0
  6
Continuous
 62
     7
370
    25
100
AcDbLine
 10
247.7009023083
 20
304.8670950786
 30
0.0
 11
247.7009023083
 21
304.6124235662
 31
0.0
  0
LINE
  5
21A
330
1F
100
AcDbEntity
  8
0
  6
Continuous
 62
     7
370
    25
100
AcDbLine
 10
261.4009023083
 20
307.6420950786
 30
0.0
 11
261.4009023083
 21
293.6420950786
 31
0.0
  0
LINE
  5
21B
330
1F
100
AcDbEntity
  8
0
  6
Continuous
 62
     7
370
    25
100
AcDbLine
 10
222.4009023083
 20
293.6420950786
 30
0.0
 11
222.4009023083
 21
307.6420950786
 31
0.0
  0
LINE
  5
21C
330
1F
100
AcDbEntity
  8
0
  6
Continuous
 62
     7
370
    25
100
AcDbLine
 10
229.9009023083
 20
301.5420950786
 30
0.0
 11
229.9009023083
 21
301.7420950786
 31
0.0
  0
LINE
  5
21D
330
1F
100
AcDbEntity
  8
0
  6
Continuous
 62
     7
370
    25
100
AcDbLine
 10
250.9009023083
 20
299.3920950786
 30
0.0
 11
250.9009023083
 21
299.1920950786
 31
0.0
  0
LINE
  5
21E
330
1F
100
AcDbEntity
  8
0
  6
Continuous
 62
     7
370
    25
100
AcDbLine
 10
250.9009023083
 20
304.5920950786
 30
0.0
 11
250.9009023083
 21
304.7920950786001
 31
0.0
  0
LINE
  5
21F
330
1F
100
AcDbEntity
  8
0
  6
Continuous
 62
     7
370
    25
100
AcDbLine
 10
229.9009023083
 20
301.0420950786
 30
0.0
 11
229.9009023083
 21
301.2420950786
 31
0.0
  0
LINE
  5
220
330
1F
100
AcDbEntity
  8
0
  6
Continuous
 62
     7
370
    25
100
AcDbLine
 10
250.9009023083
 20
301.8920950786
 30
0.0
 11
250.9009023083
 21
302.0920950786
 31
0.0
  0
LINE
  5
221
330
1F
100
AcDbEntity
  8
0
  6
Continuous
 62
     7
370
    25
100
AcDbLine
 10
229.9009023083
 20
300.7420950786
 30
0.0
 11
229.9009023083
 21
300.5420950786
 31
0.0
  0
LINE
  5
222
330
1F
100
AcDbEntity
  8
0
  6
Continuous
 62
     7
370
    25
100
AcDbLine
 10
250.9009023083
 20
303.2420950786
 30
0.0
 11
250.9009023083
 21
303.4420950786
 31
0.0
  0
LINE
  5
223
330
1F
100
AcDbEntity
  8
0
  6
Continuous
 62
     7
370
    25
100
AcDbLine
 10
229.9009023083
 20
299.7420950786
 30
0.0
 11
229.9009023083
 21
299.5420950786
 31
0.0
  0
LINE
  5
224
330
1F
100
AcDbEntity
  8
0
  6
Continuous
 62
     7
370
    25
100
AcDbLine
 10
250.9009023083
 20
300.7420950786
 30
0.0
 11
250.9009023083
 21
300.5420950786
 31
0.0
  0
LINE
  5
225
330
1F
100
AcDbEntity
  8
0
  6
Continuous
 62
     7
370
    25
100
AcDbLine
 10
229.9009023083
 20
300.2420950786
 30
0.0
 11
229.9009023083
 21
300.0420950786
 31
0.0
  0
LINE
  5
226
330
1F
100
AcDbEntity
  8
0
  6
Continuous
 62
     7
370
    25
100
AcDbLine
 10
250.9009023083
 20
296.6920950786
 30
0.0
 11
250.9009023083
 21
296.4920950786
 31
0.0
  0
LINE
  5
227
330
1F
100
AcDbEntity
  8
0
  6
Continuous
 62
     7
370
    25
100
AcDbLine
 10
250.9009023083
 20
298.0420950786
 30
0.0
 11
250.9009023083
 21
297.8420950786
 31
0.0
  0
SPLINE
  5
228
330
1F
100
AcDbEntity
  8
0
  6
Continuous
 62
     7
370
    25
100
AcDbSpline
210
0.0
220
0.0
230
1.0
 70
     8
 71
     3
 72
    10
 73
     6
 74
     0
 42
0.00000001
 43
0.0000000001
 40
0.0
 40
0.0
 40
0.0
 40
0.0
 40
0.5
 40
0.5
 40
1.0
 40
1.0
 40
1.0
 40
1.0
 10
260.9009023082904
 20
308.1420950785819
 30
0.0
 10
261.0365876283178
 20
308.1420950785819
 30
0.0
 10
261.1667339120898
 20
308.0856111752336
 30
0.0
 10
261.3508279245747
 20
307.8969281796087
 30
0.0
 10
261.4009023082905
 20
307.7715277710748
 30
0.0
 10
261.4009023082905
 20
307.6420950785819
 30
0.0
  0
SPLINE
  5
229
330
1F
100
AcDbEntity
  8
0
  6
Continuous
 62
     7
370
    25
100
AcDbSpline
210
0.0
220
0.0
230
1.0
 70
     8
 71
     3
 72
    10
 73
     6
 74
     0
 42
0.00000001
 43
0.0000000001
 40
0.0
 40
0.0
 40
0.0
 40
0.0
 40
0.5
 40
0.5
 40
1.0
 40
1.0
 40
1.0
 40
1.0
 10
222.9009023082905
 20
293.1420950785819
 30
0.0
 10
222.7652169882629
 20
293.1420950785819
 30
0.0
 10
222.6350707044912
 20
293.1985789819303
 30
0.0
 10
222.4509766920062
 20
293.3872619775552
 30
0.0
 10
222.4009023082905
 20
293.5126623860891
 30
0.0
 10
222.4009023082905
 20
293.6420950785818
 30
0.0
  0
SPLINE
  5
22A
330
1F
100
AcDbEntity
  8
0
  6
Continuous
 62
     7
370
    25
100
AcDbSpline
210
0.0
220
0.0
230
1.0
 70
     8
 71
     3
 72
    10
 73
     6
 74
     0
 42
0.00000001
 43
0.0000000001
 40
0.0
 40
0.0
 40
0.0
 40
0.0
 40
0.5
 40
0.5
 40
1.0
 40
1.0
 40
1.0
 40
1.0
 10
222.4009023082905
 20
307.6420950785819
 30
0.0
 10
222.4009023082904
 20
307.7712333433039
 30
0.0
 10
222.4520738058984
 20
307.8981410753292
 30
0.0
 10
222.63430468713
 20
308.0847374685555
 30
0.0
 10
222.7655937022972
 20
308.1420950785819
 30
0.0
 10
222.9009023082905
 20
308.1420950785819
 30
0.0
  0
SPLINE
  5
22B
330
1F
100
AcDbEntity
  8
0
  6
Continuous
 62
     7
370
    25
100
AcDbSpline
210
0.0
220
0.0
230
1.0
 70
     8
 71
     3
 72
    10
 73
     6
 74
     0
 42
0.00000001
 43
0.0000000001
 40
0.0
 40
0.0
 40
0.0
 40
0.0
 40
0.5
 40
0.5
 40
1.0
 40
1.0
 40
1.0
 40
1.0
 10
261.4009023082905
 20
293.6420950785818
 30
0.0
 10
261.4009023082904
 20
293.5129568138599
 30
0.0
 10
261.3497308106826
 20
293.3860490818346
 30
0.0
 10
261.167499929451
 20
293.1994526886084
 30
0.0
 10
261.0362109142837
 20
293.1420950785819
 30
0.0
 10
260.9009023082904
 20
293.1420950785819
 30
0.0
  0
LINE
  5
22C
330
1F
100
AcDbEntity
  8
0
  6
Continuous
 62
     7
370
    25
100
AcDbLine
 10
222.9009023083
 20
308.1420950786
 30
0.0
 11
260.9009023083
 21
308.1420950786
 31
0.0
  0
LINE
  5
22D
330
1F
100
AcDbEntity
  8
0
  6
Continuous
 62
     7
370
    25
100
AcDbLine
 10
260.9009023083
 20
293.1420950786
 30
0.0
 11
222.9009023083
 21
293.1420950786
 31
0.0
  0
LINE
  5
22E
330
1F
100
AcDbEntity
  8
0
  6
Continuous
 62
     7
370
    25
100
AcDbLine
 10
261.4178463474
 20
308.6019945754
 30
0.0
 11
261.5366474936
 21
308.4273011762
 31
0.0
  0
CIRCLE
  5
22F
330
1F
100
AcDbEntity
  8
DIMENSION
100
AcDbCircle
 10
15.1030328938
 20
364.542092629
 30
0.0
 40
3.999997781678811
  0
LINE
  5
230
330
1F
100
AcDbEntity
  8
DIMENSION
100
AcDbLine
 10
14.1188907404
 20
360.639445811
 30
0.0
 11
14.9960037989
 21
360.5420950786
 31
0.0
  0
ARC
  5
231
330
1F
100
AcDbEntity
  8
DIMENSION
100
AcDbCircle
 10
14.9960069738
 20
364.5420948133
 30
0.0
 40
4.000000265256046
100
AcDbArc
 50
90.00004547620001
 51
257.3333086908
  0
SPLINE
  5
232
330
1F
100
AcDbEntity
  8
DIMENSION
100
AcDbSpline
210
0.0
220
0.0
230
1.0
 70
     8
 71
     3
 72
    12
 73
     8
 74
     0
 42
0.00000001
 43
0.0000000001
 40
0.0
 40
0.0
 40
0.0
 40
0.0
 40
0.2123062295498261
 40
0.4245263515833682
 40
0.6389741926693246
 40
0.8549312691986513
 40
1.0
 40
1.0
 40
1.0
 40
1.0
 10
10.89550349002047
 20
364.5420950785827
 30
0.0
 10
10.94007819817927
 20
364.0855833149147
 30
0.0
 10
11.02920953581203
 20
363.1727449403846
 30
0.0
 10
11.72291927686507
 20
361.9506623481948
 30
0.0
 10
12.75093974036132
 20
361.0279856676623
 30
0.0
 10
13.90724892625929
 20
360.4949716511792
 30
0.0
 10
14.68606745309557
 20
360.4931438856611
 30
0.0
 10
14.99901520618854
 20
360.4924094461321
 30
0.0
  0
SPLINE
  5
233
330
1F
100
AcDbEntity
  8
DIMENSION
100
AcDbSpline
210
0.0
220
0.0
230
1.0
 70
     8
 71
     3
 72
    12
 73
     8
 74
     0
 42
0.00000001
 43
0.0000000001
 40
0.0
 40
0.0
 40
0.0
 40
0.0
 40
0.2019867344591725
 40
0.4132786638613724
 40
0.6274605530942223
 40
0.8433891455810032
 40
1.0
 40
1.0
 40
1.0
 40
1.0
 10
14.99749246143692
 20
368.6323145268813
 30
0.0
 10
14.56245834548084
 20
368.5960470755543
 30
0.0
 10
13.67234881102139
 20
368.5218413913731
 30
0.0
 10
12.4631254433942
 20
367.8578822520201
 30
0.0
 10
11.51572638614828
 20
366.8499067828151
 30
0.0
 10
10.97824233864718
 20
365.6776747529425
 30
0.0
 10
10.9199914318106
 20
364.8781888171993
 30
0.0
 10
10.89550349002047
 20
364.5420950785827
 30
0.0
  0
ELLIPSE
  5
234
330
1F
100
AcDbEntity
  8
DIMENSION
100
AcDbEllipse
 10
14.9659023069
 20
348.3051542903
 30
0.0
 11
22.49999939864368
 21
-0.0135517473146933
 31
0.0
210
0.0
220
0.0
230
1.0
 40
0.3838635728
 41
6.242706337476134
 42
6.283416508165722
  0
ELLIPSE
  5
235
330
1F
100
AcDbEntity
  8
DIMENSION
100
AcDbEllipse
 10
14.9659023069
 20
348.3051542903
 30
0.0
 11
22.49999939864368
 21
-0.0135517473146933
 31
0.0
210
0.0
220
0.0
230
1.0
 40
0.3838635728
 41
3.141823854575971
 42
3.185209714246441
  0
LINE
  5
236
330
1F
100
AcDbEntity
  8
DIMENSION
100
AcDbLine
 10
-7.512924770399999
 20
347.9420950786
 30
0.0
 11
37.4472600543
 21
347.9420950786
 31
0.0
  0
LINE
  5
237
330
1F
100
AcDbEntity
  8
DIMENSION
100
AcDbLine
 10
-7.4340776471
 20
374.9420950786
 30
0.0
 11
37.3659023069
 21
374.9420950786
 31
0.0
  0
ARC
  5
238
330
1F
100
AcDbEntity
  8
DIMENSION
100
AcDbCircle
 10
14.9946649615
 20
364.5420914961
 30
0.0
 40
4.099996417470158
100
AcDbArc
 50
270.0000138811
 51
337.6330132674
  0
ARC
  5
239
330
1F
100
AcDbEntity
  8
DIMENSION
100
AcDbCircle
 10
14.9946647932
 20
364.5420984098
 30
0.0
 40
4.099996668756768
100
AcDbArc
 50
22.3669829781
 51
89.99998376639998
  0
LWPOLYLINE
  5
23A
330
1F
100
AcDbEntity
  8
0
  6
Continuous
 62
     7
370
    25
100
AcDbPolyline
 90
        3
 70
   128
 43
0.0
 10
249.9009023083
 20
284.6420950786
 10
252.0334935943
 20
284.7848552681
 10
253.8695292749
 20
285.1420950786
  0
ARC
  5
23B
330
1F
100
AcDbEntity
  8
0
  6
Continuous
 62
     7
370
    25
100
AcDbCircle
 10
249.9009023083
 20
300.6420950786
 30
0.0
 40
15.99999999999996
100
AcDbArc
 50
75.63848843709999
 51
104.3615115629
  0
LWPOLYLINE
  5
23C
330
1F
100
AcDbEntity
  8
0
  6
Continuous
 62
     7
370
    25
100
AcDbPolyline
 90
        3
 70
   128
 43
0.0
 10
245.9322753417
 20
285.1420950786
 10
247.7683110223
 20
284.7848552681
 10
249.9009023083
 20
284.6420950786
  0
LINE
  5
23D
330
1F
100
AcDbEntity
  8
0
  6
Continuous
 62
     7
370
    25
100
AcDbLine
 10
261.4178463474
 20
292.6821955817
 30
0.0
 11
261.5443344122
 21
292.8947010459999
 31
0.0
  0
LINE
  5
23E
330
1F
100
AcDbEntity
  8
0
  6
Continuous
 62
     7
370
    25
100
AcDbLine
 10
261.8408675474
 20
293.3928896432
 30
0.0
 11
262.0084742534
 21
293.6744762176
 31
0.0
  0
LINE
  5
23F
330
1F
100
AcDbEntity
  8
0
  6
Continuous
 62
     7
370
    25
100
AcDbLine
 10
262.0085196784
 20
307.6098289634
 30
0.0
 11
261.8625259461
 21
307.8550575071
 31
0.0
  0
LINE
  5
240
330
1F
100
AcDbEntity
  8
0
  6
Continuous
 62
     7
370
    25
100
AcDbLine
 10
261.5388419027
 20
308.3987559613
 30
0.0
 11
261.4178463474
 21
308.6019945754
 31
0.0
  0
LINE
  5
241
330
1F
100
AcDbEntity
  8
0
  6
Continuous
 62
     7
370
    25
100
AcDbLine
 10
261.4178463474
 20
308.6019945754
 30
0.0
 11
261.1669611741
 21
308.6019945754
 31
0.0
  0
LINE
  5
242
330
1F
100
AcDbEntity
  8
0
  6
Continuous
 62
     7
370
    25
100
AcDbLine
 10
261.1463369023
 20
292.6821955817
 30
0.0
 11
261.4178463474
 21
292.6821955817
 31
0.0
  0
LINE
  5
243
330
1F
100
AcDbEntity
  8
0
  6
Continuous
 62
     7
370
    25
100
AcDbLine
 10
273.9009023083
 20
315.9420950786
 30
0.0
 11
273.9009023083
 21
285.3420950786
 31
0.0
  0
LINE
  5
244
330
1F
100
AcDbEntity
  8
0
  6
Continuous
 62
     7
370
    25
100
AcDbLine
 10
273.7009023083
 20
285.1420950786
 30
0.0
 11
273.7009023083
 21
316.1420950786
 31
0.0
  0
LINE
  5
245
330
1F
100
AcDbEntity
  8
0
  6
Continuous
 62
     7
370
    25
100
AcDbLine
 10
142.8009023083
 20
316.1420950786
 30
0.0
 11
142.8009023083
 21
285.1420950786
 31
0.0
  0
LINE
  5
246
330
1F
100
AcDbEntity
  8
0
  6
Continuous
 62
     7
370
    25
100
AcDbLine
 10
261.9009023083
 20
293.6420950786
 30
0.0
 11
261.9009023083
 21
307.6420950786
 31
0.0
  0
LINE
  5
247
330
1F
100
AcDbEntity
  8
0
  6
Continuous
 62
     7
370
    25
100
AcDbLine
 10
221.9009023083
 20
307.6420950786
 30
0.0
 11
221.9009023083
 21
293.6420950786
 31
0.0
  0
SPLINE
  5
248
330
1F
100
AcDbEntity
  8
0
  6
Continuous
 62
     7
370
    25
100
AcDbSpline
210
0.0
220
0.0
230
1.0
 70
     8
 71
     3
 72
    14
 73
    10
 74
     0
 42
0.00000001
 43
0.0000000001
 40
0.0
 40
0.0
 40
0.0
 40
0.0
 40
0.25
 40
0.25
 40
0.5
 40
0.5
 40
0.75
 40
0.75
 40
1.0
 40
1.0
 40
1.0
 40
1.0
 10
222.9009023082905
 20
308.6420950785818
 30
0.0
 10
222.7540521688634
 20
308.6420950785818
 30
0.0
 10
222.6107555664906
 20
308.6092186490276
 30
0.0
 10
222.3568397538602
 20
308.4926884415677
 30
0.0
 10
222.251203246565
 20
308.4131483783952
 30
0.0
 10
222.0768366722288
 20
308.2230837957031
 30
0.0
 10
222.0121928059324
 20
308.1169719639312
 30
0.0
 10
221.9232452432148
 20
307.8860198598734
 30
0.0
 10
221.9009023082905
 20
307.7663042159392
 30
0.0
 10
221.9009023082905
 20
307.6420950785819
 30
0.0
  0
SPLINE
  5
249
330
1F
100
AcDbEntity
  8
0
  6
Continuous
 62
     7
370
    25
100
AcDbSpline
210
0.0
220
0.0
230
1.0
 70
     8
 71
     3
 72
    14
 73
    10
 74
     0
 42
0.00000001
 43
0.0000000001
 40
0.0
 40
0.0
 40
0.0
 40
0.0
 40
0.25
 40
0.25
 40
0.5
 40
0.5
 40
0.75
 40
0.75
 40
1.0
 40
1.0
 40
1.0
 40
1.0
 10
260.9009023082904
 20
292.6420950785819
 30
0.0
 10
261.0477524477176
 20
292.6420950785819
 30
0.0
 10
261.1910490500904
 20
292.6749715081363
 30
0.0
 10
261.4449648627207
 20
292.7915017155962
 30
0.0
 10
261.5506013700161
 20
292.8710417787686
 30
0.0
 10
261.724967944352
 20
293.0611063614607
 30
0.0
 10
261.7896118106485
 20
293.1672181932327
 30
0.0
 10
261.8785593733661
 20
293.3981702972904
 30
0.0
 10
261.9009023082905
 20
293.5178859412247
 30
0.0
 10
261.9009023082904
 20
293.6420950785818
 30
0.0
  0
SPLINE
  5
24A
330
1F
100
AcDbEntity
  8
0
  6
Continuous
 62
     7
370
    25
100
AcDbSpline
210
0.0
220
0.0
230
1.0
 70
     8
 71
     3
 72
    16
 73
    12
 74
     0
 42
0.00000001
 43
0.0000000001
 40
0.0
 40
0.0
 40
0.0
 40
0.0
 40
0.2500000000000033
 40
0.2500000000000033
 40
0.5000000000000066
 40
0.5000000000000066
 40
0.7500000000000098
 40
0.7500000000000098
 40
0.8750000000000049
 40
0.8750000000000049
 40
1.0
 40
1.0
 40
1.0
 40
1.0
 10
261.9009023082904
 20
307.6420950785819
 30
0.0
 10
261.9009023082905
 20
307.7662172409684
 30
0.0
 10
261.8784683388537
 20
307.8863542173512
 30
0.0
 10
261.7894978701811
 20
308.1171695973387
 30
0.0
 10
261.7238924203074
 20
308.2244998941387
 30
0.0
 10
261.5499329650849
 20
308.4136307551401
 30
0.0
 10
261.4411528170032
 20
308.4948260082705
 30
0.0
 10
261.2529123404036
 20
308.5806280294925
 30
0.0
 10
261.184838138308
 20
308.6035856529443
 30
0.0
 10
261.0455509288927
 20
308.6341436946857
 30
0.0
 10
260.9741727476865
 20
308.6420950785818
 30
0.0
 10
260.9009023082904
 20
308.6420950785818
 30
0.0
  0
SPLINE
  5
24B
330
1F
100
AcDbEntity
  8
0
  6
Continuous
 62
     7
370
    25
100
AcDbSpline
210
0.0
220
0.0
230
1.0
 70
     8
 71
     3
 72
    16
 73
    12
 74
     0
 42
0.00000001
 43
0.0000000001
 40
0.0
 40
0.0
 40
0.0
 40
0.0
 40
0.2500000000000037
 40
0.2500000000000037
 40
0.5000000000000073
 40
0.5000000000000073
 40
0.7500000000000111
 40
0.7500000000000111
 40
0.8750000000000055
 40
0.8750000000000055
 40
1.0
 40
1.0
 40
1.0
 40
1.0
 10
221.9009023082905
 20
293.6420950785818
 30
0.0
 10
221.9009023082905
 20
293.5179729161955
 30
0.0
 10
221.9233362777272
 20
293.3978359398127
 30
0.0
 10
222.0123067463999
 20
293.1670205598252
 30
0.0
 10
222.0779121962737
 20
293.0596902630252
 30
0.0
 10
222.251871651496
 20
292.8705594020238
 30
0.0
 10
222.3606517995776
 20
292.7893641488934
 30
0.0
 10
222.5488922761774
 20
292.7035621276713
 30
0.0
 10
222.616966478273
 20
292.6806045042195
 30
0.0
 10
222.7562536876883
 20
292.6500464624782
 30
0.0
 10
222.8276318688944
 20
292.6420950785819
 30
0.0
 10
222.9009023082905
 20
292.6420950785819
 30
0.0
  0
LINE
  5
24C
330
1F
100
AcDbEntity
  8
0
  6
Continuous
 62
     7
370
    25
100
AcDbLine
 10
260.9009023083
 20
308.6420950786
 30
0.0
 11
222.9009023083
 21
308.6420950786
 31
0.0
  0
LINE
  5
24D
330
1F
100
AcDbEntity
  8
0
  6
Continuous
 62
     7
370
    25
100
AcDbLine
 10
222.9009023083
 20
292.6420950786
 30
0.0
 11
260.9009023083
 21
292.6420950786
 31
0.0
  0
LINE
  5
24E
330
1F
100
AcDbEntity
  8
DIMENSION
100
AcDbLine
 10
37.1259023069
 20
346.3420950786
 30
0.0
 11
-7.324097693099999
 21
346.3420950786
 31
0.0
  0
LINE
  5
24F
330
1F
100
AcDbEntity
  8
0
  6
Continuous
 62
     7
370
    25
100
AcDbLine
 10
37.1259023069
 20
254.9420950786
 30
0.0
 11
-7.324097693099999
 21
254.9420950786
 31
0.0
  0
ARC
  5
250
330
1F
100
AcDbEntity
  8
DIMENSION
100
AcDbCircle
 10
14.9009023083
 20
300.6420950786
 30
0.0
 40
15.35000000000002
100
AcDbArc
 50
180.0
 51
270.0
  0
ARC
  5
251
330
1F
100
AcDbEntity
  8
DIMENSION
100
AcDbCircle
 10
14.9009023083
 20
300.6420950786
 30
0.0
 40
15.35000000000002
100
AcDbArc
 50
90.0
 51
180.0
  0
LINE
  5
252
330
1F
100
AcDbEntity
  8
0
  6
Continuous
 62
     7
370
    25
100
AcDbLine
 10
142.7009023083
 20
316.3420950786
 30
0.0
 11
142.7009023083
 21
284.9420950786
 31
0.0
  0
LINE
  5
253
330
1F
100
AcDbEntity
  8
0
  6
Continuous
 62
     7
370
    25
100
AcDbLine
 10
134.9009023083
 20
316.3420950786
 30
0.0
 11
134.9009023083
 21
284.9420950786
 31
0.0
  0
LINE
  5
254
330
1F
100
AcDbEntity
  8
DIMENSION
100
AcDbLine
 10
37.2428241751
 20
315.9920950786
 30
0.0
 11
37.1259023069
 21
316.1629887917
 31
0.0
  0
ARC
  5
255
330
1F
100
AcDbEntity
  8
DIMENSION
100
AcDbCircle
 10
14.9009023069
 20
300.8316687246
 30
0.0
 40
27.00000000000002
100
AcDbArc
 50
145.4011885881
 51
214.5988114119
  0
DIMENSION
  5
256
102
{ACAD_XDICTIONARY
360
327
102
}
330
1F
100
AcDbEntity
  8
DIMENSION
100
AcDbDimension
280
     0
  2
*D18
 10
-46.09909769310009
 20
254.9420950786001
 30
0.0
 11
-46.0990976931
 21
316.3255685991
 31
0.0
 70
   160
  1
<>
 71
     2
 42
120.0
 73
     0
 74
     0
 75
     0
  3
RG Dimension Lines
100
AcDbAlignedDimension
 13
6.3693744936
 23
374.9420950786
 33
0.0
 14
-7.324097693099999
 24
254.9420950786
 34
0.0
 50
90.0
100
AcDbRotatedDimension
1001
AcadAnnotative
1000
AnnotativeData
1002
{
1070
     1
1070
     1
1002
}
  0
DIMENSION
  5
25E
102
{ACAD_XDICTIONARY
360
319
102
}
330
1F
100
AcDbEntity
  8
DIMENSION
100
AcDbDimension
280
     0
  2
*D17
 10
-7.434097693099997
 20
408.9420950785999
 30
0.0
 11
12.7108404177
 21
408.9420950785999
 31
0.0
 70
   160
  1
%%c<>
 71
     2
 42
44.79999999999999
 73
     0
 74
     0
 75
     0
  3
RG Dimension Lines
100
AcDbAlignedDimension
 13
37.3659023069
 23
374.9420950786
 33
0.0
 14
-7.434097693099999
 24
374.9420950786
 34
0.0
100
AcDbRotatedDimension
1001
AcadAnnotative
1000
AnnotativeData
1002
{
1070
     1
1070
     1
1002
}
  0
DIMENSION
  5
2D7
102
{ACAD_XDICTIONARY
360
30B
102
}
330
1F
100
AcDbEntity
  8
DIMENSION
100
AcDbDimension
280
     0
  2
*D16
 10
-26.73759243738803
 20
374.9420950786001
 30
0.0
 11
-37.40425910405458
 21
337.7920950786
 31
0.0
 70
    32
 71
     5
 42
74.30000000000001
 73
     0
 74
     0
 75
     0
  3
RG Dimension Lines
100
AcDbAlignedDimension
 13
14.9009023069
 23
300.6420950786
 33
0.0
 14
14.9009023069
 24
374.9420950786
 34
0.0
 50
90.0
100
AcDbRotatedDimension
1001
AcadAnnotative
1000
AnnotativeData
1002
{
1070
     1
1070
     1
1002
}
  0
DIMENSION
  5
2E5
102
{ACAD_XDICTIONARY
360
36D
102
}
330
1F
100
AcDbEntity
  8
DIMENSION
100
AcDbDimension
280
     0
  2
*D23
 10
518.8711589280988
 20
9.09001197850001
 30
0.0
 11
529.5378255947652
 21
-34.79748802150014
 31
0.0
 70
    32
 71
     5
 42
87.77500000000001
 73
     0
 74
     0
 75
     0
  3
RG Dimension Lines
100
AcDbAlignedDimension
 13
425.4647542728999
 23
-78.68498802149999
 33
0.0
 14
474.9036156226999
 24
9.090011978499999
 34
0.0
 50
90.0
100
AcDbRotatedDimension
1001
AcadAnnotative
1000
AnnotativeData
1002
{
1070
     1
1070
     1
1002
}
  0
DIMENSION
  5
2F3
102
{ACAD_XDICTIONARY
360
35F
102
}
330
1F
100
AcDbEntity
  8
DIMENSION
100
AcDbDimension
280
     0
  2
*D22
 10
356.1917155280605
 20
31.31501197850001
 30
0.0
 11
344.8583821947271
 21
-23.68498802150011
 31
0.0
 70
    32
 71
     5
 42
110.0
 73
     0
 74
     0
 75
     0
  3
RG Dimension Lines
100
AcDbAlignedDimension
 13
425.4647542728999
 23
-78.68498802149999
 33
0.0
 14
383.5036156226999
 24
31.3150119785
 34
0.0
 50
90.0
100
AcDbRotatedDimension
1001
AcadAnnotative
1000
AnnotativeData
1002
{
1070
     1
1070
     1
1002
}
  0
ENDSEC
  0
SECTION
  2
OBJECTS
  0
DICTIONARY
  5
C
330
0
100
AcDbDictionary
281
     1
  3
ACAD_CIP_PREVIOUS_PRODUCT_INFO
350
2A7
  3
ACAD_COLOR
350
29C
  3
ACAD_DETAILVIEWSTYLE
350
2A3
  3
ACAD_GROUP
350
D
  3
ACAD_LAYOUT
350
1A
  3
ACAD_MATERIAL
350
26A
  3
ACAD_MLEADERSTYLE
350
29F
  3
ACAD_MLINESTYLE
350
17
  3
ACAD_PLOTSETTINGS
350
19
  3
ACAD_PLOTSTYLENAME
350
E
  3
ACAD_SCALELIST
350
47
  3
ACAD_SECTIONVIEWSTYLE
350
2A1
  3
ACAD_TABLESTYLE
350
29D
  3
ACAD_VISUALSTYLE
350
283
  3
ACDB_RECOMPOSE_DATA
350
3DA
  3
AcDbVariableDictionary
350
3CE
  0
DICTIONARY
  5
2BB
330
2
100
AcDbDictionary
280
     1
281
     1
  3
ACAD_LAYERSTATES
360
2BC
  0
DICTIONARY
  5
3BE
330
10
100
AcDbDictionary
280
     1
281
     1
  3
ADSK_XREC_LAYER_RECONCILED
360
3BF
  0
DICTIONARY
  5
3C0
330
73
100
AcDbDictionary
280
     1
281
     1
  3
ADSK_XREC_LAYER_RECONCILED
360
3C1
  0
DICTIONARY
  5
3C2
330
2B3
100
AcDbDictionary
280
     1
281
     1
  3
ADSK_XREC_LAYER_RECONCILED
360
3C3
  0
DICTIONARY
  5
351
330
117
100
AcDbDictionary
280
     1
281
     1
  3
AcDbContextDataManager
360
352
  0
DICTIONARY
  5
343
330
124
100
AcDbDictionary
280
     1
281
     1
  3
AcDbContextDataManager
360
344
  0
DICTIONARY
  5
335
330
12C
100
AcDbDictionary
280
     1
281
     1
  3
AcDbContextDataManager
360
336
  0
DICTIONARY
  5
389
330
19B
100
AcDbDictionary
280
     1
281
     1
  3
AcDbContextDataManager
360
38A
  0
DICTIONARY
  5
37B
330
1A4
100
AcDbDictionary
280
     1
281
     1
  3
AcDbContextDataManager
360
37C
  0
DICTIONARY
  5
397
330
1AC
100
AcDbDictionary
280
     1
281
     1
  3
AcDbContextDataManager
360
398
  0
DICTIONARY
  5
327
330
256
100
AcDbDictionary
280
     1
281
     1
  3
AcDbContextDataManager
360
328
  0
DICTIONARY
  5
319
330
25E
100
AcDbDictionary
280
     1
281
     1
  3
AcDbContextDataManager
360
31A
  0
DICTIONARY
  5
30B
330
2D7
100
AcDbDictionary
280
     1
281
     1
  3
AcDbContextDataManager
360
30C
  0
DICTIONARY
  5
36D
330
2E5
100
AcDbDictionary
280
     1
281
     1
  3
AcDbContextDataManager
360
36E
  0
DICTIONARY
  5
35F
330
2F3
100
AcDbDictionary
280
     1
281
     1
  3
AcDbContextDataManager
360
360
  0
XRECORD
  5
2A7
102
{ACAD_REACTORS
330
C
102
}
330
C
100
AcDbXrecord
280
     1
300
ACD
300
2021
300

  0
DICTIONARY
  5
29C
102
{ACAD_REACTORS
330
C
102
}
330
C
100
AcDbDictionary
281
     1
  0
DICTIONARY
  5
2A3
102
{ACAD_REACTORS
330
C
102
}
330
C
100
AcDbDictionary
281
     1
  3
Metric50
350
2A4
  0
DICTIONARY
  5
D
102
{ACAD_REACTORS
330
C
102
}
330
C
100
AcDbDictionary
281
     1
  0
DICTIONARY
  5
1A
102
{ACAD_REACTORS
330
C
102
}
330
C
100
AcDbDictionary
281
     1
  3
Layout1
350
1E
  3
Layout2
350
26
  3
Model
350
22
  0
DICTIONARY
  5
26A
102
{ACAD_REACTORS
330
C
102
}
330
C
100
AcDbDictionary
281
     1
  3
ByBlock
350
273
  3
ByLayer
350
26B
  3
Global
350
27B
  0
DICTIONARY
  5
29F
102
{ACAD_REACTORS
330
C
102
}
330
C
100
AcDbDictionary
281
     1
  3
Standard
350
2A0
  0
DICTIONARY
  5
17
102
{ACAD_REACTORS
330
C
102
}
330
C
100
AcDbDictionary
281
     1
  3
Standard
350
18
  0
DICTIONARY
  5
19
102
{ACAD_REACTORS
330
C
102
}
330
C
100
AcDbDictionary
281
     1
  0
ACDBDICTIONARYWDFLT
  5
E
102
{ACAD_REACTORS
330
C
102
}
330
C
100
AcDbDictionary
281
     1
  3
Normal
350
F
100
AcDbDictionaryWithDefault
340
F
  0
DICTIONARY
  5
47
102
{ACAD_REACTORS
330
C
102
}
330
C
100
AcDbDictionary
281
     1
  3
A0
350
48
  3
A1
350
49
  3
A2
350
4A
  3
A3
350
4B
  3
A4
350
4C
  3
A5
350
4D
  3
A6
350
4E
  3
A7
350
4F
  3
A8
350
50
  3
A9
350
51
  3
B0
350
52
  3
B1
350
53
  3
B2
350
54
  3
B3
350
55
  3
B4
350
56
  3
B5
350
57
  3
B6
350
58
  3
B7
350
59
  3
B8
350
5A
  3
B9
350
5B
  3
C0
350
5C
  3
C1
350
5D
  3
C2
350
5E
  3
C3
350
5F
  3
C4
350
60
  3
C5
350
61
  3
C6
350
62
  3
C7
350
63
  3
C8
350
64
  3
C9
350
65
  3
D0
350
66
  3
D1
350
67
  3
D2
350
68
  0
DICTIONARY
  5
2A1
102
{ACAD_REACTORS
330
C
102
}
330
C
100
AcDbDictionary
281
     1
  3
Metric50
350
2A2
  0
DICTIONARY
  5
29D
102
{ACAD_REACTORS
330
C
102
}
330
C
100
AcDbDictionary
281
     1
  3
Standard
350
29E
  0
DICTIONARY
  5
283
102
{ACAD_REACTORS
330
C
102
}
330
C
100
AcDbDictionary
281
     1
  3
2dWireframe
350
289
  3
Basic
350
288
  3
Brighten
350
28F
  3
ColorChange
350
293
  3
Conceptual
350
28C
  3
Dim
350
28E
  3
EdgeColorOff
350
29B
  3
Facepattern
350
292
  3
Flat
350
284
  3
FlatWithEdges
350
285
  3
Gouraud
350
286
  3
GouraudWithEdges
350
287
  3
Hidden
350
28B
  3
JitterOff
350
299
  3
Linepattern
350
291
  3
OverhangOff
350
29A
  3
Realistic
350
28D
  3
Shaded
350
298
  3
Shaded with edges
350
297
  3
Shades of Gray
350
294
  3
Sketchy
350
295
  3
Thicken
350
290
  3
Wireframe
350
28A
  3
X-Ray
350
296
  0
XRECORD
  5
3DA
102
{ACAD_REACTORS
330
C
102
}
330
C
100
AcDbXrecord
280
     1
 90
        1
330
29E
  0
DICTIONARY
  5
3CE
102
{ACAD_REACTORS
330
C
102
}
330
C
100
AcDbDictionary
281
     1
  3
CANNOSCALE
350
3D4
  3
CMLEADERSTYLE
350
3D0
  3
CTABLESTYLE
350
3CF
  3
CVIEWDETAILSTYLE
350
3D1
  3
CVIEWSECTIONSTYLE
350
3D2
  3
LAYEREVAL
350
3D6
  3
LAYERNOTIFY
350
3D7
  3
LIGHTINGUNITS
350
3D5
  3
MSLTSCALE
350
3D3
  0
DICTIONARY
  5
2BC
102
{ACAD_REACTORS
330
2BB
102
}
330
2BB
100
AcDbDictionary
281
     1
  0
XRECORD
  5
3BF
102
{ACAD_REACTORS
330
3BE
102
}
330
3BE
100
AcDbXrecord
280
     1
290
     1
  0
XRECORD
  5
3C1
102
{ACAD_REACTORS
330
3C0
102
}
330
3C0
100
AcDbXrecord
280
     1
290
     1
  0
XRECORD
  5
3C3
102
{ACAD_REACTORS
330
3C2
102
}
330
3C2
100
AcDbXrecord
280
     1
290
     1
  0
DICTIONARY
  5
352
102
{ACAD_REACTORS
330
351
102
}
330
351
100
AcDbDictionary
281
     1
  3
ACDB_ANNOTATIONSCALES
350
353
  0
DICTIONARY
  5
344
102
{ACAD_REACTORS
330
343
102
}
330
343
100
AcDbDictionary
281
     1
  3
ACDB_ANNOTATIONSCALES
350
345
  0
DICTIONARY
  5
336
102
{ACAD_REACTORS
330
335
102
}
330
335
100
AcDbDictionary
281
     1
  3
ACDB_ANNOTATIONSCALES
350
337
  0
DICTIONARY
  5
38A
102
{ACAD_REACTORS
330
389
102
}
330
389
100
AcDbDictionary
281
     1
  3
ACDB_ANNOTATIONSCALES
350
38B
  0
DICTIONARY
  5
37C
102
{ACAD_REACTORS
330
37B
102
}
330
37B
100
AcDbDictionary
281
     1
  3
ACDB_ANNOTATIONSCALES
350
37D
  0
DICTIONARY
  5
398
102
{ACAD_REACTORS
330
397
102
}
330
397
100
AcDbDictionary
281
     1
  3
ACDB_ANNOTATIONSCALES
350
399
  0
DICTIONARY
  5
328
102
{ACAD_REACTORS
330
327
102
}
330
327
100
AcDbDictionary
281
     1
  3
ACDB_ANNOTATIONSCALES
350
329
  0
DICTIONARY
  5
31A
102
{ACAD_REACTORS
330
319
102
}
330
319
100
AcDbDictionary
281
     1
  3
ACDB_ANNOTATIONSCALES
350
31B
  0
DICTIONARY
  5
30C
102
{ACAD_REACTORS
330
30B
102
}
330
30B
100
AcDbDictionary
281
     1
  3
ACDB_ANNOTATIONSCALES
350
30D
  0
DICTIONARY
  5
36E
102
{ACAD_REACTORS
330
36D
102
}
330
36D
100
AcDbDictionary
281
     1
  3
ACDB_ANNOTATIONSCALES
350
36F
  0
DICTIONARY
  5
360
102
{ACAD_REACTORS
330
35F
102
}
330
35F
100
AcDbDictionary
281
     1
  3
ACDB_ANNOTATIONSCALES
350
361
  0
ACDBDETAILVIEWSTYLE
  5
2A4
102
{ACAD_REACTORS
330
2A3
102
}
330
2A3
100
AcDbModelDocViewStyle
 70
     0
  3
Metric50
290
     0
300
Metric50
 90
        0
100
AcDbDetailViewStyle
 70
     0
 71
     0
 90
        3
 71
     1
340
11
 62
   256
 40
5.0
340
0
 62
   256
 40
5.0
300

 40
0.0
280
     1
 71
     2
340
16
 90
       25
 62
   256
 71
     3
340
11
 62
   256
 40
5.0
 90
        0
 40
15.0
 90
        1
300
%<\AcVar ViewDetailId>% (%<\AcVar ViewScale \f "%sn">%)
 71
     4
340
16
 90
       25
 62
   256
340
16
 90
       25
 62
   256
280
     0
  0
LAYOUT
  5
1E
102
{ACAD_REACTORS
330
1A
102
}
330
1A
100
AcDbPlotSettings
  1

  2
none_device
  4

  6

 40
0.0
 41
0.0
 42
0.0
 43
0.0
 44
0.0
 45
0.0
 46
0.0
 47
0.0
 48
0.0
 49
0.0
140
0.0
141
0.0
142
1.0
143
1.0
 70
   688
 72
     1
 73
     0
 74
     5
  7

 75
    16
147
1.0
 76
     0
 77
     2
 78
   300
148
0.0
149
0.0
100
AcDbLayout
  1
Layout1
 70
     1
 71
     1
 10
0.0
 20
0.0
 11
420.0
 21
297.0
 12
0.0
 22
0.0
 32
0.0
 14
1.000000000000000E+20
 24
1.000000000000000E+20
 34
1.000000000000000E+20
 15
-1.000000000000000E+20
 25
-1.000000000000000E+20
 35
-1.000000000000000E+20
146
0.0
 13
0.0
 23
0.0
 33
0.0
 16
1.0
 26
0.0
 36
0.0
 17
0.0
 27
1.0
 37
0.0
 76
     0
330
1B
  0
LAYOUT
  5
26
102
{ACAD_REACTORS
330
1A
102
}
330
1A
100
AcDbPlotSettings
  1

  2
none_device
  4

  6

 40
0.0
 41
0.0
 42
0.0
 43
0.0
 44
0.0
 45
0.0
 46
0.0
 47
0.0
 48
0.0
 49
0.0
140
0.0
141
0.0
142
1.0
143
1.0
 70
   688
 72
     1
 73
     0
 74
     5
  7

 75
    16
147
1.0
 76
     0
 77
     2
 78
   300
148
0.0
149
0.0
100
AcDbLayout
  1
Layout2
 70
     1
 71
     2
 10
0.0
 20
0.0
 11
0.0
 21
0.0
 12
0.0
 22
0.0
 32
0.0
 14
0.0
 24
0.0
 34
0.0
 15
0.0
 25
0.0
 35
0.0
146
0.0
 13
0.0
 23
0.0
 33
0.0
 16
1.0
 26
0.0
 36
0.0
 17
0.0
 27
1.0
 37
0.0
 76
     0
330
23
  0
LAYOUT
  5
22
102
{ACAD_REACTORS
330
1A
102
}
330
1A
100
AcDbPlotSettings
  1

  2
none_device
  4
Letter_(8.50_x_11.00_Inches)
  6

 40
6.349999999999999
 41
6.349999999999999
 42
6.350005079999999
 43
6.350005079999999
 44
215.9
 45
279.4
 46
0.0
 47
0.0
 48
0.0
 49
0.0
140
0.0
141
0.0
142
1.0
143
1.0
 70
  1712
 72
     1
 73
     0
 74
     0
  7

 75
     0
147
1.0
 76
     0
 77
     2
 78
   300
148
0.0
149
0.0
100
AcDbLayout
  1
Model
 70
     1
 71
     0
 10
0.0
 20
0.0
 11
420.0
 21
297.0
 12
0.0
 22
0.0
 32
0.0
 14
0.0
 24
0.0
 34
0.0
 15
420.0
 25
297.0
 35
0.0
146
0.0
 13
0.0
 23
0.0
 33
0.0
 16
1.0
 26
0.0
 36
0.0
 17
0.0
 27
1.0
 37
0.0
 76
     0
330
1F
331
29
  0
MATERIAL
  5
273
102
{ACAD_XDICTIONARY
360
274
102
}
102
{ACAD_REACTORS
330
26A
102
}
330
26A
100
AcDbMaterial
  1
ByBlock
 72
     0
 43
0.0008202099737533
 43
0.0
 43
0.0
 43
0.0
 43
0.0
 43
0.0008202099737533
 43
0.0
 43
0.0
 43
0.0
 43
0.0
 43
1.0
 43
0.0
 43
0.0
 43
0.0
 43
0.0
 43
1.0
 77
     0
 47
0.0008202099737533
 47
0.0
 47
0.0
 47
0.0
 47
0.0
 47
0.0008202099737533
 47
0.0
 47
0.0
 47
0.0
 47
0.0
 47
1.0
 47
0.0
 47
0.0
 47
0.0
 47
0.0
 47
1.0
171
     0
 49
0.0008202099737533
 49
0.0
 49
0.0
 49
0.0
 49
0.0
 49
0.0008202099737533
 49
0.0
 49
0.0
 49
0.0
 49
0.0
 49
1.0
 49
0.0
 49
0.0
 49
0.0
 49
0.0
 49
1.0
175
     0
142
0.0008202099737533
142
0.0
142
0.0
142
0.0
142
0.0
142
0.0008202099737533
142
0.0
142
0.0
142
0.0
142
0.0
142
1.0
142
0.0
142
0.0
142
0.0
142
0.0
142
1.0
179
     0
144
0.0008202099737533
144
0.0
144
0.0
144
0.0
144
0.0
144
0.0008202099737533
144
0.0
144
0.0
144
0.0
144
0.0
144
1.0
144
0.0
144
0.0
144
0.0
144
0.0
144
1.0
147
0.0008202099737533
147
0.0
147
0.0
147
0.0
147
0.0
147
0.0008202099737533
147
0.0
147
0.0
147
0.0
147
0.0
147
1.0
147
0.0
147
0.0
147
0.0
147
0.0
147
1.0
  0
MATERIAL
  5
26B
102
{ACAD_XDICTIONARY
360
26C
102
}
102
{ACAD_REACTORS
330
26A
102
}
330
26A
100
AcDbMaterial
  1
ByLayer
 72
     0
 43
0.0008202099737533
 43
0.0
 43
0.0
 43
0.0
 43
0.0
 43
0.0008202099737533
 43
0.0
 43
0.0
 43
0.0
 43
0.0
 43
1.0
 43
0.0
 43
0.0
 43
0.0
 43
0.0
 43
1.0
 77
     0
 47
0.0008202099737533
 47
0.0
 47
0.0
 47
0.0
 47
0.0
 47
0.0008202099737533
 47
0.0
 47
0.0
 47
0.0
 47
0.0
 47
1.0
 47
0.0
 47
0.0
 47
0.0
 47
0.0
 47
1.0
171
     0
 49
0.0008202099737533
 49
0.0
 49
0.0
 49
0.0
 49
0.0
 49
0.0008202099737533
 49
0.0
 49
0.0
 49
0.0
 49
0.0
 49
1.0
 49
0.0
 49
0.0
 49
0.0
 49
0.0
 49
1.0
175
     0
142
0.0008202099737533
142
0.0
142
0.0
142
0.0
142
0.0
142
0.0008202099737533
142
0.0
142
0.0
142
0.0
142
0.0
142
1.0
142
0.0
142
0.0
142
0.0
142
0.0
142
1.0
179
     0
144
0.0008202099737533
144
0.0
144
0.0
144
0.0
144
0.0
144
0.0008202099737533
144
0.0
144
0.0
144
0.0
144
0.0
144
1.0
144
0.0
144
0.0
144
0.0
144
0.0
144
1.0
147
0.0008202099737533
147
0.0
147
0.0
147
0.0
147
0.0
147
0.0008202099737533
147
0.0
147
0.0
147
0.0
147
0.0
147
1.0
147
0.0
147
0.0
147
0.0
147
0.0
147
1.0
  0
MATERIAL
  5
27B
102
{ACAD_XDICTIONARY
360
27C
102
}
102
{ACAD_REACTORS
330
26A
102
}
330
26A
100
AcDbMaterial
  1
Global
 72
     0
 43
0.0008202099737533
 43
0.0
 43
0.0
 43
0.0
 43
0.0
 43
0.0008202099737533
 43
0.0
 43
0.0
 43
0.0
 43
0.0
 43
1.0
 43
0.0
 43
0.0
 43
0.0
 43
0.0
 43
1.0
 77
     0
 47
0.0008202099737533
 47
0.0
 47
0.0
 47
0.0
 47
0.0
 47
0.0008202099737533
 47
0.0
 47
0.0
 47
0.0
 47
0.0
 47
1.0
 47
0.0
 47
0.0
 47
0.0
 47
0.0
 47
1.0
171
     0
 49
0.0008202099737533
 49
0.0
 49
0.0
 49
0.0
 49
0.0
 49
0.0008202099737533
 49
0.0
 49
0.0
 49
0.0
 49
0.0
 49
1.0
 49
0.0
 49
0.0
 49
0.0
 49
0.0
 49
1.0
175
     0
142
0.0008202099737533
142
0.0
142
0.0
142
0.0
142
0.0
142
0.0008202099737533
142
0.0
142
0.0
142
0.0
142
0.0
142
1.0
142
0.0
142
0.0
142
0.0
142
0.0
142
1.0
179
     0
144
0.0008202099737533
144
0.0
144
0.0
144
0.0
144
0.0
144
0.0008202099737533
144
0.0
144
0.0
144
0.0
144
0.0
144
1.0
144
0.0
144
0.0
144
0.0
144
0.0
144
1.0
147
0.0008202099737533
147
0.0
147
0.0
147
0.0
147
0.0
147
0.0008202099737533
147
0.0
147
0.0
147
0.0
147
0.0
147
1.0
147
0.0
147
0.0
147
0.0
147
0.0
147
1.0
  0
MLEADERSTYLE
  5
2A0
102
{ACAD_REACTORS
330
29F
102
}
330
29F
100
AcDbMLeaderStyle
179
     2
170
     2
171
     1
172
     0
 90
        2
 40
0.0
 41
0.0
173
     1
 91
-1056964608
340
14
 92
       -2
290
     1
 42
2.0
291
     1
 43
0.36
  3
Standard
 44
4.0
300

342
11
174
     1
178
     6
175
     1
176
     0
 93
-1056964608
 45
4.0
292
     0
297
     0
 46
4.0
 94
-1056964608
 47
1.0
 49
1.0
140
1.0
293
     1
141
0.0
294
     1
177
     0
142
1.0
295
     0
296
     0
143
0.125
271
     0
272
     9
273
     9
298
     0
  0
MLINESTYLE
  5
18
102
{ACAD_REACTORS
330
17
102
}
330
17
100
AcDbMlineStyle
  2
STANDARD
 70
     0
  3

 62
   256
 51
90.0
 52
90.0
 71
     2
 49
0.5
 62
   256
  6
BYLAYER
 49
-0.5
 62
   256
  6
BYLAYER
  0
ACDBPLACEHOLDER
  5
F
102
{ACAD_REACTORS
330
E
102
}
330
E
  0
SCALE
  5
48
102
{ACAD_REACTORS
330
47
102
}
330
47
100
AcDbScale
 70
     0
300
1:1
140
1.0
141
1.0
290
     1
  0
SCALE
  5
49
102
{ACAD_REACTORS
330
47
102
}
330
47
100
AcDbScale
 70
     0
300
1:2
140
1.0
141
2.0
290
     0
  0
SCALE
  5
4A
102
{ACAD_REACTORS
330
47
102
}
330
47
100
AcDbScale
 70
     0
300
1:4
140
1.0
141
4.0
290
     0
  0
SCALE
  5
4B
102
{ACAD_REACTORS
330
47
102
}
330
47
100
AcDbScale
 70
     0
300
1:5
140
1.0
141
5.0
290
     0
  0
SCALE
  5
4C
102
{ACAD_REACTORS
330
47
102
}
330
47
100
AcDbScale
 70
     0
300
1:8
140
1.0
141
8.0
290
     0
  0
SCALE
  5
4D
102
{ACAD_REACTORS
330
47
102
}
330
47
100
AcDbScale
 70
     0
300
1:10
140
1.0
141
10.0
290
     0
  0
SCALE
  5
4E
102
{ACAD_REACTORS
330
47
102
}
330
47
100
AcDbScale
 70
     0
300
1:16
140
1.0
141
16.0
290
     0
  0
SCALE
  5
4F
102
{ACAD_REACTORS
330
47
102
}
330
47
100
AcDbScale
 70
     0
300
1:20
140
1.0
141
20.0
290
     0
  0
SCALE
  5
50
102
{ACAD_REACTORS
330
47
102
}
330
47
100
AcDbScale
 70
     0
300
1:30
140
1.0
141
30.0
290
     0
  0
SCALE
  5
51
102
{ACAD_REACTORS
330
47
102
}
330
47
100
AcDbScale
 70
     0
300
1:40
140
1.0
141
40.0
290
     0
  0
SCALE
  5
52
102
{ACAD_REACTORS
330
47
102
}
330
47
100
AcDbScale
 70
     0
300
1:50
140
1.0
141
50.0
290
     0
  0
SCALE
  5
53
102
{ACAD_REACTORS
330
47
102
}
330
47
100
AcDbScale
 70
     0
300
1:100
140
1.0
141
100.0
290
     0
  0
SCALE
  5
54
102
{ACAD_REACTORS
330
47
102
}
330
47
100
AcDbScale
 70
     0
300
2:1
140
2.0
141
1.0
290
     0
  0
SCALE
  5
55
102
{ACAD_REACTORS
330
47
102
}
330
47
100
AcDbScale
 70
     0
300
4:1
140
4.0
141
1.0
290
     0
  0
SCALE
  5
56
102
{ACAD_REACTORS
330
47
102
}
330
47
100
AcDbScale
 70
     0
300
8:1
140
8.0
141
1.0
290
     0
  0
SCALE
  5
57
102
{ACAD_REACTORS
330
47
102
}
330
47
100
AcDbScale
 70
     0
300
10:1
140
10.0
141
1.0
290
     0
  0
SCALE
  5
58
102
{ACAD_REACTORS
330
47
102
}
330
47
100
AcDbScale
 70
     0
300
100:1
140
100.0
141
1.0
290
     0
  0
SCALE
  5
59
102
{ACAD_REACTORS
330
47
102
}
330
47
100
AcDbScale
 70
     0
300
1/128" = 1'-0"
140
0.0078125
141
12.0
290
     0
  0
SCALE
  5
5A
102
{ACAD_REACTORS
330
47
102
}
330
47
100
AcDbScale
 70
     0
300
1/64" = 1'-0"
140
0.015625
141
12.0
290
     0
  0
SCALE
  5
5B
102
{ACAD_REACTORS
330
47
102
}
330
47
100
AcDbScale
 70
     0
300
1/32" = 1'-0"
140
0.03125
141
12.0
290
     0
  0
SCALE
  5
5C
102
{ACAD_REACTORS
330
47
102
}
330
47
100
AcDbScale
 70
     0
300
1/16" = 1'-0"
140
0.0625
141
12.0
290
     0
  0
SCALE
  5
5D
102
{ACAD_REACTORS
330
47
102
}
330
47
100
AcDbScale
 70
     0
300
3/32" = 1'-0"
140
0.09375
141
12.0
290
     0
  0
SCALE
  5
5E
102
{ACAD_REACTORS
330
47
102
}
330
47
100
AcDbScale
 70
     0
300
1/8" = 1'-0"
140
0.125
141
12.0
290
     0
  0
SCALE
  5
5F
102
{ACAD_REACTORS
330
47
102
}
330
47
100
AcDbScale
 70
     0
300
3/16" = 1'-0"
140
0.1875
141
12.0
290
     0
  0
SCALE
  5
60
102
{ACAD_REACTORS
330
47
102
}
330
47
100
AcDbScale
 70
     0
300
1/4" = 1'-0"
140
0.25
141
12.0
290
     0
  0
SCALE
  5
61
102
{ACAD_REACTORS
330
47
102
}
330
47
100
AcDbScale
 70
     0
300
3/8" = 1'-0"
140
0.375
141
12.0
290
     0
  0
SCALE
  5
62
102
{ACAD_REACTORS
330
47
102
}
330
47
100
AcDbScale
 70
     0
300
1/2" = 1'-0"
140
0.5
141
12.0
290
     0
  0
SCALE
  5
63
102
{ACAD_REACTORS
330
47
102
}
330
47
100
AcDbScale
 70
     0
300
3/4" = 1'-0"
140
0.75
141
12.0
290
     0
  0
SCALE
  5
64
102
{ACAD_REACTORS
330
47
102
}
330
47
100
AcDbScale
 70
     0
300
1" = 1'-0"
140
1.0
141
12.0
290
     0
  0
SCALE
  5
65
102
{ACAD_REACTORS
330
47
102
}
330
47
100
AcDbScale
 70
     0
300
1-1/2" = 1'-0"
140
1.5
141
12.0
290
     0
  0
SCALE
  5
66
102
{ACAD_REACTORS
330
47
102
}
330
47
100
AcDbScale
 70
     0
300
3" = 1'-0"
140
3.0
141
12.0
290
     0
  0
SCALE
  5
67
102
{ACAD_REACTORS
330
47
102
}
330
47
100
AcDbScale
 70
     0
300
6" = 1'-0"
140
6.0
141
12.0
290
     0
  0
SCALE
  5
68
102
{ACAD_REACTORS
330
47
102
}
330
47
100
AcDbScale
 70
     0
300
1'-0" = 1'-0"
140
12.0
141
12.0
290
     0
  0
ACDBSECTIONVIEWSTYLE
  5
2A2
102
{ACAD_REACTORS
330
2A1
102
}
330
2A1
100
AcDbModelDocViewStyle
 70
     0
  3
Metric50
290
     0
300
Metric50
 90
        0
100
AcDbSectionViewStyle
 70
     0
 71
     0
 90
      102
 71
     1
340
11
 62
   256
 40
5.0
340
0
340
0
 62
   256
 40
5.0
300
I, O, Q, S, X, Z
 40
10.0
 90
        0
 40
2.5
 90
        0
 71
     2
340
16
 90
       25
 62
   256
340
16
 90
       50
 62
   256
 40
5.0
 40
2.5
 40
5.0
 71
     3
340
11
 62
   256
 40
5.0
 90
        0
 40
15.0
 90
        1
300
%<\AcVar ViewSectionStartId>%-%<\AcVar ViewSectionEndId>% (%<\AcVar ViewScale \f "%sn">%)
 71
     4
 62
   256
 62
   257
300
ANSI31
 40
1.0
 90
        0
290
     0
290
     0
 90
        6
 40
0.0
 40
1.570796326794896
 40
0.2617993877991494
 40
1.308996938995747
 40
-0.2617993877991494
 40
1.832595714594046
  0
TABLESTYLE
  5
29E
102
{ACAD_XDICTIONARY
360
3D8
102
}
102
{ACAD_REACTORS
330
29D
102
}
330
29D
100
AcDbTableStyle
280
     0
  3
Standard
 70
     0
 71
     0
 40
1.5
 41
1.5
280
     0
281
     0
  7
Standard
140
4.5
170
     2
 62
     0
 63
     7
283
     0
 90
      512
 91
        0
  1

274
    -2
284
     1
 64
     0
275
    -2
285
     1
 65
     0
276
    -2
286
     1
 66
     0
277
    -2
287
     1
 67
     0
278
    -2
288
     1
 68
     0
279
    -2
289
     1
 69
     0
  7
Standard
140
6.0
170
     5
 62
     0
 63
     7
283
     0
 90
      512
 91
        0
  1

274
    -2
284
     1
 64
     0
275
    -2
285
     1
 65
     0
276
    -2
286
     1
 66
     0
277
    -2
287
     1
 67
     0
278
    -2
288
     1
 68
     0
279
    -2
289
     1
 69
     0
  7
Standard
140
4.5
170
     5
 62
     0
 63
     7
283
     0
 90
      512
 91
        0
  1

274
    -2
284
     1
 64
     0
275
    -2
285
     1
 65
     0
276
    -2
286
     1
 66
     0
277
    -2
287
     1
 67
     0
278
    -2
288
     1
 68
     0
279
    -2
289
     1
 69
     0
  0
VISUALSTYLE
  5
289
102
{ACAD_REACTORS
330
283
102
}
330
283
100
AcDbVisualStyle
  2
2dWireframe
 70
     4
177
     3
291
     0
 70
    58
 90
        0
176
     1
 90
        2
176
     1
 90
        0
176
     1
 90
        0
176
     1
 40
0.6
176
     1
 40
30.0
176
     1
 62
     7
420
 16777215
176
     1
 90
        1
176
     1
 90
        4
176
     1
 62
     7
176
     1
 62
   257
176
     1
 90
        1
176
     1
 90
        1
176
     1
 40
1.0
176
     1
 90
        0
176
     1
 62
   257
176
     1
 40
1.0
176
     1
 90
        1
176
     1
 90
        6
176
     1
 90
        2
176
     1
 62
     7
176
     1
 90
        5
176
     1
 90
        0
176
     1
 90
        0
176
     1
290
     0
176
     1
 90
        1
176
     1
 40
0.0
176
     1
 90
        0
176
     1
290
     1
176
     1
290
     1
176
     1
290
     0
176
     1
290
     0
176
     1
290
     0
176
     1
290
     0
176
     1
290
     0
176
     1
290
     0
176
     1
290
     0
176
     1
 90
       50
176
     1
 40
0.0
176
     1
 40
1.0
176
     1
 90
        0
176
     1
 62
    18
420
        0
176
     1
 90
       50
176
     1
 90
        3
176
     1
 62
     5
420
      255
176
     1
290
     0
176
     1
 90
       50
176
     1
 90
       50
176
     1
 90
       50
176
     1
290
     0
176
     1
 90
       50
176
     1
 62
   256
176
     0
 40
1.0
176
     0
 90
        2
176
     1
  1
strokes_ogs.tif
176
     1
290
     0
176
     1
 40
1.0
176
     1
 40
1.0
176
     1
  0
VISUALSTYLE
  5
288
102
{ACAD_REACTORS
330
283
102
}
330
283
100
AcDbVisualStyle
  2
Basic
 70
     7
177
     3
291
     1
 70
    58
 90
        1
176
     1
 90
        0
176
     1
 90
        1
176
     1
 90
        0
176
     1
 40
0.6
176
     1
 40
30.0
176
     1
 62
     7
420
 16777215
176
     1
 90
        0
176
     1
 90
        4
176
     1
 62
     7
176
     1
 62
   257
176
     1
 90
        1
176
     1
 90
        1
176
     1
 40
1.0
176
     1
 90
        8
176
     1
 62
     7
176
     1
 40
1.0
176
     1
 90
        1
176
     1
 90
        6
176
     1
 90
        2
176
     1
 62
     7
176
     1
 90
        5
176
     1
 90
        0
176
     1
 90
        0
176
     1
290
     0
176
     1
 90
        1
176
     1
 40
0.0
176
     1
 90
        0
176
     1
290
     0
176
     1
290
     1
176
     1
290
     1
176
     1
290
     0
176
     1
290
     0
176
     1
290
     0
176
     1
290
     0
176
     1
290
     0
176
     1
290
     0
176
     1
 90
       50
176
     1
 40
0.0
176
     1
 40
1.0
176
     1
 90
        0
176
     1
 62
    18
420
        0
176
     1
 90
       50
176
     1
 90
        3
176
     1
 62
     5
420
      255
176
     1
290
     0
176
     1
 90
       50
176
     1
 90
       50
176
     1
 90
       50
176
     1
290
     0
176
     1
 90
       50
176
     1
 62
   256
176
     0
 40
1.0
176
     0
 90
        2
176
     1
  1
strokes_ogs.tif
176
     1
290
     0
176
     1
 40
1.0
176
     1
 40
1.0
176
     1
  0
VISUALSTYLE
  5
28F
102
{ACAD_REACTORS
330
283
102
}
330
283
100
AcDbVisualStyle
  2
Brighten
 70
    12
177
     3
291
     1
 70
    58
 90
        2
176
     1
 90
        2
176
     1
 90
        0
176
     1
 90
        0
176
     1
 40
0.6
176
     1
 40
30.0
176
     1
 62
     7
420
 16777215
176
     1
 90
        1
176
     1
 90
        4
176
     1
 62
     7
176
     1
 62
   257
176
     1
 90
        1
176
     1
 90
        1
176
     1
 40
1.0
176
     1
 90
        8
176
     1
 62
     7
176
     1
 40
1.0
176
     1
 90
        1
176
     1
 90
        6
176
     1
 90
        2
176
     1
 62
     7
176
     1
 90
        5
176
     1
 90
        0
176
     1
 90
        0
176
     1
290
     0
176
     1
 90
        1
176
     1
 40
50.0
176
     1
 90
        0
176
     1
290
     0
176
     1
290
     1
176
     1
290
     1
176
     1
290
     0
176
     1
290
     0
176
     1
290
     0
176
     1
290
     0
176
     1
290
     0
176
     1
290
     0
176
     1
 90
       50
176
     1
 40
0.0
176
     1
 40
1.0
176
     1
 90
        0
176
     1
 62
    18
420
        0
176
     1
 90
       50
176
     1
 90
        3
176
     1
 62
     5
420
      255
176
     1
290
     0
176
     1
 90
       50
176
     1
 90
       50
176
     1
 90
       50
176
     1
290
     0
176
     1
 90
       50
176
     1
 62
   256
176
     0
 40
1.0
176
     0
 90
        2
176
     1
  1
strokes_ogs.tif
176
     1
290
     0
176
     1
 40
1.0
176
     1
 40
1.0
176
     1
  0
VISUALSTYLE
  5
293
102
{ACAD_REACTORS
330
283
102
}
330
283
100
AcDbVisualStyle
  2
ColorChange
 70
    16
177
     3
291
     1
 70
    58
 90
        2
176
     1
 90
        2
176
     1
 90
        3
176
     1
 90
        0
176
     1
 40
0.6
176
     1
 40
30.0
176
     1
 62
     8
420
  8421504
176
     1
 90
        1
176
     1
 90
        4
176
     1
 62
     7
176
     1
 62
   257
176
     1
 90
        1
176
     1
 90
        1
176
     1
 40
1.0
176
     1
 90
        8
176
     1
 62
     8
420
  8421504
176
     1
 40
1.0
176
     1
 90
        1
176
     1
 90
        6
176
     1
 90
        2
176
     1
 62
     7
176
     1
 90
        5
176
     1
 90
        0
176
     1
 90
        0
176
     1
290
     0
176
     1
 90
        1
176
     1
 40
0.0
176
     1
 90
        0
176
     1
290
     0
176
     1
290
     1
176
     1
290
     1
176
     1
290
     0
176
     1
290
     0
176
     1
290
     0
176
     1
290
     0
176
     1
290
     0
176
     1
290
     0
176
     1
 90
       50
176
     1
 40
0.0
176
     1
 40
1.0
176
     1
 90
        0
176
     1
 62
    18
420
        0
176
     1
 90
       50
176
     1
 90
        3
176
     1
 62
     5
420
      255
176
     1
290
     0
176
     1
 90
       50
176
     1
 90
       50
176
     1
 90
       50
176
     1
290
     0
176
     1
 90
       50
176
     1
 62
   256
176
     0
 40
1.0
176
     0
 90
        2
176
     1
  1
strokes_ogs.tif
176
     1
290
     0
176
     1
 40
1.0
176
     1
 40
1.0
176
     1
  0
VISUALSTYLE
  5
28C
102
{ACAD_REACTORS
330
283
102
}
330
283
100
AcDbVisualStyle
  2
Conceptual
 70
     9
177
     3
291
     0
 70
    58
 90
        3
176
     1
 90
        2
176
     1
 90
        0
176
     1
 90
        0
176
     1
 40
0.6
176
     1
 40
30.0
176
     1
 62
     7
420
 16777215
176
     1
 90
        2
176
     1
 90
        2
176
     1
 62
     7
176
     1
 62
   257
176
     1
 90
        1
176
     1
 90
        1
176
     1
 40
179.0
176
     1
 90
        8
176
     1
 62
     7
176
     1
 40
1.0
176
     1
 90
        1
176
     1
 90
        6
176
     1
 90
        2
176
     1
 62
     7
176
     1
 90
        3
176
     1
 90
        0
176
     1
 90
        0
176
     1
290
     0
176
     1
 90
        1
176
     1
 40
0.0
176
     1
 90
        0
176
     1
290
     0
176
     1
290
     1
176
     1
290
     1
176
     1
290
     0
176
     1
290
     0
176
     1
290
     0
176
     1
290
     0
176
     1
290
     0
176
     1
290
     0
176
     1
 90
       50
176
     1
 40
0.0
176
     1
 40
1.0
176
     1
 90
        0
176
     1
 62
    18
420
        0
176
     1
 90
       50
176
     1
 90
        3
176
     1
 62
     5
420
      255
176
     1
290
     0
176
     1
 90
       50
176
     1
 90
       50
176
     1
 90
       50
176
     1
290
     0
176
     1
 90
       50
176
     1
 62
   256
176
     0
 40
1.0
176
     0
 90
        2
176
     1
  1
strokes_ogs.tif
176
     1
290
     0
176
     1
 40
1.0
176
     1
 40
1.0
176
     1
  0
VISUALSTYLE
  5
28E
102
{ACAD_REACTORS
330
283
102
}
330
283
100
AcDbVisualStyle
  2
Dim
 70
    11
177
     3
291
     1
 70
    58
 90
        2
176
     1
 90
        2
176
     1
 90
        0
176
     1
 90
        0
176
     1
 40
0.6
176
     1
 40
30.0
176
     1
 62
     7
420
 16777215
176
     1
 90
        1
176
     1
 90
        4
176
     1
 62
     7
176
     1
 62
   257
176
     1
 90
        1
176
     1
 90
        1
176
     1
 40
1.0
176
     1
 90
        8
176
     1
 62
     7
176
     1
 40
1.0
176
     1
 90
        1
176
     1
 90
        6
176
     1
 90
        2
176
     1
 62
     7
176
     1
 90
        5
176
     1
 90
        0
176
     1
 90
        0
176
     1
290
     0
176
     1
 90
        1
176
     1
 40
-50.0
176
     1
 90
        0
176
     1
290
     0
176
     1
290
     1
176
     1
290
     1
176
     1
290
     0
176
     1
290
     0
176
     1
290
     0
176
     1
290
     0
176
     1
290
     0
176
     1
290
     0
176
     1
 90
       50
176
     1
 40
0.0
176
     1
 40
1.0
176
     1
 90
        0
176
     1
 62
    18
420
        0
176
     1
 90
       50
176
     1
 90
        3
176
     1
 62
     5
420
      255
176
     1
290
     0
176
     1
 90
       50
176
     1
 90
       50
176
     1
 90
       50
176
     1
290
     0
176
     1
 90
       50
176
     1
 62
   256
176
     0
 40
1.0
176
     0
 90
        2
176
     1
  1
strokes_ogs.tif
176
     1
290
     0
176
     1
 40
1.0
176
     1
 40
1.0
176
     1
  0
VISUALSTYLE
  5
29B
102
{ACAD_REACTORS
330
283
102
}
330
283
100
AcDbVisualStyle
  2
EdgeColorOff
 70
    22
177
     3
291
     1
 70
    58
 90
        2
176
     0
 90
        2
176
     0
 90
        0
176
     0
 90
        0
176
     0
 40
0.6
176
     0
 40
30.0
176
     0
 62
     7
420
 16777215
176
     0
 90
        1
176
     0
 90
        4
176
     0
 62
     7
176
     0
 62
   257
176
     0
 90
        1
176
     0
 90
        1
176
     0
 40
1.0
176
     0
 90
        8
176
     2
 62
     7
176
     0
 40
1.0
176
     0
 90
        1
176
     0
 90
        6
176
     0
 90
        2
176
     0
 62
     7
176
     0
 90
        5
176
     0
 90
        0
176
     0
 90
        0
176
     0
290
     0
176
     0
 90
        1
176
     0
 40
0.0
176
     0
 90
        0
176
     0
290
     0
176
     1
290
     1
176
     1
290
     1
176
     1
290
     0
176
     1
290
     0
176
     1
290
     0
176
     1
290
     0
176
     1
290
     0
176
     1
290
     0
176
     1
 90
       50
176
     0
 40
0.0
176
     0
 40
1.0
176
     0
 90
        0
176
     0
 62
    18
420
        0
176
     0
 90
       50
176
     0
 90
        3
176
     0
 62
     5
420
      255
176
     0
290
     0
176
     1
 90
       50
176
     0
 90
       50
176
     0
 90
       50
176
     0
290
     0
176
     1
 90
       50
176
     0
 62
   256
176
     0
 40
1.0
176
     0
 90
        2
176
     0
  1
strokes_ogs.tif
176
     0
290
     0
176
     1
 40
1.0
176
     0
 40
1.0
176
     0
  0
VISUALSTYLE
  5
292
102
{ACAD_REACTORS
330
283
102
}
330
283
100
AcDbVisualStyle
  2
Facepattern
 70
    15
177
     3
291
     1
 70
    58
 90
        2
176
     1
 90
        2
176
     1
 90
        0
176
     1
 90
        0
176
     1
 40
0.6
176
     1
 40
30.0
176
     1
 62
     7
420
 16777215
176
     1
 90
        1
176
     1
 90
        4
176
     1
 62
     7
176
     1
 62
   257
176
     1
 90
        1
176
     1
 90
        1
176
     1
 40
1.0
176
     1
 90
        8
176
     1
 62
     7
176
     1
 40
1.0
176
     1
 90
        1
176
     1
 90
        6
176
     1
 90
        2
176
     1
 62
     7
176
     1
 90
        5
176
     1
 90
        0
176
     1
 90
        0
176
     1
290
     0
176
     1
 90
        1
176
     1
 40
0.0
176
     1
 90
        0
176
     1
290
     0
176
     1
290
     1
176
     1
290
     1
176
     1
290
     0
176
     1
290
     0
176
     1
290
     0
176
     1
290
     0
176
     1
290
     0
176
     1
290
     0
176
     1
 90
       50
176
     1
 40
0.0
176
     1
 40
1.0
176
     1
 90
        0
176
     1
 62
    18
420
        0
176
     1
 90
       50
176
     1
 90
        3
176
     1
 62
     5
420
      255
176
     1
290
     0
176
     1
 90
       50
176
     1
 90
       50
176
     1
 90
       50
176
     1
290
     0
176
     1
 90
       50
176
     1
 62
   256
176
     0
 40
1.0
176
     0
 90
        2
176
     1
  1
strokes_ogs.tif
176
     1
290
     0
176
     1
 40
1.0
176
     1
 40
1.0
176
     1
  0
VISUALSTYLE
  5
284
102
{ACAD_REACTORS
330
283
102
}
330
283
100
AcDbVisualStyle
  2
Flat
 70
     0
177
     3
291
     1
 70
    58
 90
        2
176
     1
 90
        1
176
     1
 90
        1
176
     1
 90
        2
176
     1
 40
0.6
176
     1
 40
30.0
176
     1
 62
     7
420
 16777215
176
     1
 90
        0
176
     1
 90
        0
176
     1
 62
     7
176
     1
 62
   257
176
     1
 90
        1
176
     1
 90
        1
176
     1
 40
1.0
176
     1
 90
        8
176
     1
 62
     7
176
     1
 40
1.0
176
     1
 90
        1
176
     1
 90
        6
176
     1
 90
        2
176
     1
 62
     7
176
     1
 90
        5
176
     1
 90
        0
176
     1
 90
        0
176
     1
290
     0
176
     1
 90
       13
176
     1
 40
0.0
176
     1
 90
        0
176
     1
290
     0
176
     1
290
     1
176
     1
290
     1
176
     1
290
     0
176
     1
290
     0
176
     1
290
     0
176
     1
290
     0
176
     1
290
     0
176
     1
290
     0
176
     1
 90
       50
176
     1
 40
0.0
176
     1
 40
1.0
176
     1
 90
        0
176
     1
 62
    18
420
        0
176
     1
 90
       50
176
     1
 90
        3
176
     1
 62
     5
420
      255
176
     1
290
     0
176
     1
 90
       50
176
     1
 90
       50
176
     1
 90
       50
176
     1
290
     0
176
     1
 90
       50
176
     1
 62
   256
176
     0
 40
1.0
176
     0
 90
        2
176
     1
  1
strokes_ogs.tif
176
     1
290
     0
176
     1
 40
1.0
176
     1
 40
1.0
176
     1
  0
VISUALSTYLE
  5
285
102
{ACAD_REACTORS
330
283
102
}
330
283
100
AcDbVisualStyle
  2
FlatWithEdges
 70
     1
177
     3
291
     1
 70
    58
 90
        2
176
     1
 90
        1
176
     1
 90
        1
176
     1
 90
        2
176
     1
 40
0.6
176
     1
 40
30.0
176
     1
 62
     7
420
 16777215
176
     1
 90
        1
176
     1
 90
        0
176
     1
 62
     7
176
     1
 62
   257
176
     1
 90
        1
176
     1
 90
        1
176
     1
 40
1.0
176
     1
 90
        0
176
     1
 62
   257
176
     1
 40
1.0
176
     1
 90
        1
176
     1
 90
        6
176
     1
 90
        2
176
     1
 62
     7
176
     1
 90
        5
176
     1
 90
        0
176
     1
 90
        0
176
     1
290
     0
176
     1
 90
       13
176
     1
 40
0.0
176
     1
 90
        0
176
     1
290
     0
176
     1
290
     1
176
     1
290
     1
176
     1
290
     0
176
     1
290
     0
176
     1
290
     0
176
     1
290
     0
176
     1
290
     0
176
     1
290
     0
176
     1
 90
       50
176
     1
 40
0.0
176
     1
 40
1.0
176
     1
 90
        0
176
     1
 62
    18
420
        0
176
     1
 90
       50
176
     1
 90
        3
176
     1
 62
     5
420
      255
176
     1
290
     0
176
     1
 90
       50
176
     1
 90
       50
176
     1
 90
       50
176
     1
290
     0
176
     1
 90
       50
176
     1
 62
   256
176
     0
 40
1.0
176
     0
 90
        2
176
     1
  1
strokes_ogs.tif
176
     1
290
     0
176
     1
 40
1.0
176
     1
 40
1.0
176
     1
  0
VISUALSTYLE
  5
286
102
{ACAD_REACTORS
330
283
102
}
330
283
100
AcDbVisualStyle
  2
Gouraud
 70
     2
177
     3
291
     1
 70
    58
 90
        2
176
     1
 90
        2
176
     1
 90
        1
176
     1
 90
        2
176
     1
 40
0.6
176
     1
 40
30.0
176
     1
 62
     7
420
 16777215
176
     1
 90
        0
176
     1
 90
        0
176
     1
 62
     7
176
     1
 62
   257
176
     1
 90
        1
176
     1
 90
        1
176
     1
 40
1.0
176
     1
 90
        0
176
     1
 62
     7
176
     1
 40
1.0
176
     1
 90
        1
176
     1
 90
        6
176
     1
 90
        2
176
     1
 62
     7
176
     1
 90
        5
176
     1
 90
        0
176
     1
 90
        0
176
     1
290
     0
176
     1
 90
       13
176
     1
 40
0.0
176
     1
 90
        0
176
     1
290
     0
176
     1
290
     1
176
     1
290
     1
176
     1
290
     0
176
     1
290
     0
176
     1
290
     0
176
     1
290
     0
176
     1
290
     0
176
     1
290
     0
176
     1
 90
       50
176
     1
 40
0.0
176
     1
 40
1.0
176
     1
 90
        0
176
     1
 62
    18
420
        0
176
     1
 90
       50
176
     1
 90
        3
176
     1
 62
     5
420
      255
176
     1
290
     0
176
     1
 90
       50
176
     1
 90
       50
176
     1
 90
       50
176
     1
290
     0
176
     1
 90
       50
176
     1
 62
   256
176
     0
 40
1.0
176
     0
 90
        2
176
     1
  1
strokes_ogs.tif
176
     1
290
     0
176
     1
 40
1.0
176
     1
 40
1.0
176
     1
  0
VISUALSTYLE
  5
287
102
{ACAD_REACTORS
330
283
102
}
330
283
100
AcDbVisualStyle
  2
GouraudWithEdges
 70
     3
177
     3
291
     1
 70
    58
 90
        2
176
     1
 90
        2
176
     1
 90
        1
176
     1
 90
        2
176
     1
 40
0.6
176
     1
 40
30.0
176
     1
 62
     7
420
 16777215
176
     1
 90
        1
176
     1
 90
        0
176
     1
 62
     7
176
     1
 62
   257
176
     1
 90
        1
176
     1
 90
        1
176
     1
 40
1.0
176
     1
 90
        0
176
     1
 62
   257
176
     1
 40
1.0
176
     1
 90
        1
176
     1
 90
        6
176
     1
 90
        2
176
     1
 62
     7
176
     1
 90
        5
176
     1
 90
        0
176
     1
 90
        0
176
     1
290
     0
176
     1
 90
       13
176
     1
 40
0.0
176
     1
 90
        0
176
     1
290
     0
176
     1
290
     1
176
     1
290
     1
176
     1
290
     0
176
     1
290
     0
176
     1
290
     0
176
     1
290
     0
176
     1
290
     0
176
     1
290
     0
176
     1
 90
       50
176
     1
 40
0.0
176
     1
 40
1.0
176
     1
 90
        0
176
     1
 62
    18
420
        0
176
     1
 90
       50
176
     1
 90
        3
176
     1
 62
     5
420
      255
176
     1
290
     0
176
     1
 90
       50
176
     1
 90
       50
176
     1
 90
       50
176
     1
290
     0
176
     1
 90
       50
176
     1
 62
   256
176
     0
 40
1.0
176
     0
 90
        2
176
     1
  1
strokes_ogs.tif
176
     1
290
     0
176
     1
 40
1.0
176
     1
 40
1.0
176
     1
  0
VISUALSTYLE
  5
28B
102
{ACAD_REACTORS
330
283
102
}
330
283
100
AcDbVisualStyle
  2
Hidden
 70
     6
177
     3
291
     0
 70
    58
 90
        1
176
     1
 90
        2
176
     1
 90
        2
176
     1
 90
        0
176
     1
 40
0.6
176
     1
 40
30.0
176
     1
 62
     7
420
 16777215
176
     1
 90
        2
176
     1
 90
        2
176
     1
 62
     7
176
     1
 62
   257
176
     1
 90
        2
176
     1
 90
        1
176
     1
 40
40.0
176
     1
 90
        0
176
     1
 62
   257
176
     1
 40
1.0
176
     1
 90
        1
176
     1
 90
        6
176
     1
 90
        2
176
     1
 62
     7
176
     1
 90
        3
176
     1
 90
        0
176
     1
 90
        0
176
     1
290
     0
176
     1
 90
        1
176
     1
 40
0.0
176
     1
 90
        0
176
     1
290
     0
176
     1
290
     1
176
     1
290
     1
176
     1
290
     0
176
     1
290
     0
176
     1
290
     0
176
     1
290
     0
176
     1
290
     0
176
     1
290
     0
176
     1
 90
       50
176
     1
 40
0.0
176
     1
 40
1.0
176
     1
 90
        0
176
     1
 62
    18
420
        0
176
     1
 90
       50
176
     1
 90
        3
176
     1
 62
     5
420
      255
176
     1
290
     0
176
     1
 90
       50
176
     1
 90
       50
176
     1
 90
       50
176
     1
290
     0
176
     1
 90
       50
176
     1
 62
   256
176
     0
 40
1.0
176
     0
 90
        2
176
     1
  1
strokes_ogs.tif
176
     1
290
     0
176
     1
 40
1.0
176
     1
 40
1.0
176
     1
  0
VISUALSTYLE
  5
299
102
{ACAD_REACTORS
330
283
102
}
330
283
100
AcDbVisualStyle
  2
JitterOff
 70
    20
177
     3
291
     1
 70
    58
 90
        2
176
     0
 90
        2
176
     0
 90
        0
176
     0
 90
        0
176
     0
 40
0.6
176
     0
 40
30.0
176
     0
 62
     7
420
 16777215
176
     0
 90
        1
176
     0
 90
        4
176
     0
 62
     7
176
     0
 62
   257
176
     0
 90
        1
176
     0
 90
        1
176
     0
 40
1.0
176
     0
 90
       10
176
     2
 62
     7
176
     0
 40
1.0
176
     0
 90
        1
176
     0
 90
        6
176
     0
 90
        2
176
     0
 62
     7
176
     0
 90
        5
176
     0
 90
        0
176
     0
 90
        0
176
     0
290
     0
176
     0
 90
        1
176
     0
 40
0.0
176
     0
 90
        0
176
     0
290
     0
176
     1
290
     1
176
     1
290
     1
176
     1
290
     0
176
     1
290
     0
176
     1
290
     0
176
     1
290
     0
176
     1
290
     0
176
     1
290
     0
176
     1
 90
       50
176
     0
 40
0.0
176
     0
 40
1.0
176
     0
 90
        0
176
     0
 62
    18
420
        0
176
     0
 90
       50
176
     0
 90
        3
176
     0
 62
     5
420
      255
176
     0
290
     0
176
     1
 90
       50
176
     0
 90
       50
176
     0
 90
       50
176
     0
290
     0
176
     1
 90
       50
176
     0
 62
   256
176
     0
 40
1.0
176
     0
 90
        2
176
     0
  1
strokes_ogs.tif
176
     0
290
     0
176
     1
 40
1.0
176
     0
 40
1.0
176
     0
  0
VISUALSTYLE
  5
291
102
{ACAD_REACTORS
330
283
102
}
330
283
100
AcDbVisualStyle
  2
Linepattern
 70
    14
177
     3
291
     1
 70
    58
 90
        2
176
     1
 90
        2
176
     1
 90
        0
176
     1
 90
        0
176
     1
 40
0.6
176
     1
 40
30.0
176
     1
 62
     7
420
 16777215
176
     1
 90
        1
176
     1
 90
        4
176
     1
 62
     7
176
     1
 62
   257
176
     1
 90
        7
176
     1
 90
        7
176
     1
 40
1.0
176
     1
 90
        8
176
     1
 62
     7
176
     1
 40
1.0
176
     1
 90
        1
176
     1
 90
        6
176
     1
 90
        2
176
     1
 62
     7
176
     1
 90
        5
176
     1
 90
        0
176
     1
 90
        0
176
     1
290
     0
176
     1
 90
        1
176
     1
 40
0.0
176
     1
 90
        0
176
     1
290
     0
176
     1
290
     1
176
     1
290
     1
176
     1
290
     0
176
     1
290
     0
176
     1
290
     0
176
     1
290
     0
176
     1
290
     0
176
     1
290
     0
176
     1
 90
       50
176
     1
 40
0.0
176
     1
 40
1.0
176
     1
 90
        0
176
     1
 62
    18
420
        0
176
     1
 90
       50
176
     1
 90
        3
176
     1
 62
     5
420
      255
176
     1
290
     0
176
     1
 90
       50
176
     1
 90
       50
176
     1
 90
       50
176
     1
290
     0
176
     1
 90
       50
176
     1
 62
   256
176
     0
 40
1.0
176
     0
 90
        2
176
     1
  1
strokes_ogs.tif
176
     1
290
     0
176
     1
 40
1.0
176
     1
 40
1.0
176
     1
  0
VISUALSTYLE
  5
29A
102
{ACAD_REACTORS
330
283
102
}
330
283
100
AcDbVisualStyle
  2
OverhangOff
 70
    21
177
     3
291
     1
 70
    58
 90
        2
176
     0
 90
        2
176
     0
 90
        0
176
     0
 90
        0
176
     0
 40
0.6
176
     0
 40
30.0
176
     0
 62
     7
420
 16777215
176
     0
 90
        1
176
     0
 90
        4
176
     0
 62
     7
176
     0
 62
   257
176
     0
 90
        1
176
     0
 90
        1
176
     0
 40
1.0
176
     0
 90
        9
176
     2
 62
     7
176
     0
 40
1.0
176
     0
 90
        1
176
     0
 90
        6
176
     0
 90
        2
176
     0
 62
     7
176
     0
 90
        5
176
     0
 90
        0
176
     0
 90
        0
176
     0
290
     0
176
     0
 90
        1
176
     0
 40
0.0
176
     0
 90
        0
176
     0
290
     0
176
     1
290
     1
176
     1
290
     1
176
     1
290
     0
176
     1
290
     0
176
     1
290
     0
176
     1
290
     0
176
     1
290
     0
176
     1
290
     0
176
     1
 90
       50
176
     0
 40
0.0
176
     0
 40
1.0
176
     0
 90
        0
176
     0
 62
    18
420
        0
176
     0
 90
       50
176
     0
 90
        3
176
     0
 62
     5
420
      255
176
     0
290
     0
176
     1
 90
       50
176
     0
 90
       50
176
     0
 90
       50
176
     0
290
     0
176
     1
 90
       50
176
     0
 62
   256
176
     0
 40
1.0
176
     0
 90
        2
176
     0
  1
strokes_ogs.tif
176
     0
290
     0
176
     1
 40
1.0
176
     0
 40
1.0
176
     0
  0
VISUALSTYLE
  5
28D
102
{ACAD_REACTORS
330
283
102
}
330
283
100
AcDbVisualStyle
  2
Realistic
 70
     8
177
     3
291
     0
 70
    58
 90
        2
176
     1
 90
        3
176
     1
 90
        0
176
     1
 90
        2
176
     1
 40
0.6
176
     1
 40
30.0
176
     1
 62
     7
420
 16777215
176
     1
 90
        0
176
     1
 90
        0
176
     1
 62
     7
176
     1
 62
   257
176
     1
 90
        1
176
     1
 90
        1
176
     1
 40
1.0
176
     1
 90
        8
176
     1
 62
   257
176
     1
 40
1.0
176
     1
 90
        1
176
     1
 90
        6
176
     1
 90
        2
176
     1
 62
     7
176
     1
 90
        3
176
     1
 90
        0
176
     1
 90
        0
176
     1
290
     0
176
     1
 90
       13
176
     1
 40
0.0
176
     1
 90
        0
176
     1
290
     0
176
     1
290
     1
176
     1
290
     1
176
     1
290
     0
176
     1
290
     0
176
     1
290
     0
176
     1
290
     0
176
     1
290
     0
176
     1
290
     0
176
     1
 90
       50
176
     1
 40
0.0
176
     1
 40
1.0
176
     1
 90
        0
176
     1
 62
    18
420
        0
176
     1
 90
       50
176
     1
 90
        3
176
     1
 62
     5
420
      255
176
     1
290
     0
176
     1
 90
       50
176
     1
 90
       50
176
     1
 90
       50
176
     1
290
     0
176
     1
 90
       50
176
     1
 62
   256
176
     0
 40
1.0
176
     0
 90
        2
176
     1
  1
strokes_ogs.tif
176
     1
290
     0
176
     1
 40
1.0
176
     1
 40
1.0
176
     1
  0
VISUALSTYLE
  5
298
102
{ACAD_REACTORS
330
283
102
}
330
283
100
AcDbVisualStyle
  2
Shaded
 70
    27
177
     3
291
     0
 70
    58
 90
        2
176
     1
 90
        2
176
     1
 90
        1
176
     1
 90
        2
176
     1
 40
0.6
176
     1
 40
30.0
176
     1
 62
     7
420
 16777215
176
     1
 90
        0
176
     1
 90
        4
176
     1
 62
     7
176
     1
 62
   257
176
     1
 90
        1
176
     1
 90
        1
176
     1
 40
1.0
176
     1
 90
        8
176
     1
 62
   257
176
     1
 40
1.0
176
     1
 90
        1
176
     1
 90
        6
176
     1
 90
        2
176
     1
 62
     8
420
  7895160
176
     1
 90
        3
176
     1
 90
        0
176
     1
 90
        0
176
     1
290
     0
176
     1
 90
        5
176
     1
 40
0.0
176
     1
 90
        0
176
     1
290
     0
176
     1
290
     1
176
     1
290
     1
176
     1
290
     0
176
     1
290
     0
176
     1
290
     0
176
     1
290
     0
176
     1
290
     0
176
     1
290
     0
176
     1
 90
       50
176
     1
 40
0.0
176
     1
 40
1.0
176
     1
 90
        0
176
     1
 62
    18
420
        0
176
     1
 90
       50
176
     1
 90
        3
176
     1
 62
     5
420
      255
176
     1
290
     0
176
     1
 90
       50
176
     1
 90
       50
176
     1
 90
       50
176
     1
290
     0
176
     1
 90
       50
176
     1
 62
   256
176
     0
 40
1.0
176
     0
 90
        2
176
     1
  1
strokes_ogs.tif
176
     1
290
     0
176
     1
 40
1.0
176
     1
 40
1.0
176
     1
  0
VISUALSTYLE
  5
297
102
{ACAD_REACTORS
330
283
102
}
330
283
100
AcDbVisualStyle
  2
Shaded with edges
 70
    26
177
     3
291
     0
 70
    58
 90
        2
176
     1
 90
        2
176
     1
 90
        1
176
     1
 90
        2
176
     1
 40
0.6
176
     1
 40
30.0
176
     1
 62
     7
420
 16777215
176
     1
 90
        1
176
     1
 90
        2
176
     1
 62
     7
176
     1
 62
   257
176
     1
 90
        2
176
     1
 90
        1
176
     1
 40
1.0
176
     1
 90
        8
176
     1
 62
   257
176
     1
 40
1.0
176
     1
 90
        1
176
     1
 90
        6
176
     1
 90
        2
176
     1
 62
     7
176
     1
 90
        3
176
     1
 90
        0
176
     1
 90
        0
176
     1
290
     0
176
     1
 90
        5
176
     1
 40
0.0
176
     1
 90
        0
176
     1
290
     0
176
     1
290
     1
176
     1
290
     1
176
     1
290
     0
176
     1
290
     0
176
     1
290
     0
176
     1
290
     0
176
     1
290
     0
176
     1
290
     0
176
     1
 90
       50
176
     1
 40
0.0
176
     1
 40
1.0
176
     1
 90
        0
176
     1
 62
    18
420
        0
176
     1
 90
       50
176
     1
 90
        3
176
     1
 62
     5
420
      255
176
     1
290
     0
176
     1
 90
       50
176
     1
 90
       50
176
     1
 90
       50
176
     1
290
     0
176
     1
 90
       50
176
     1
 62
   256
176
     0
 40
1.0
176
     0
 90
        2
176
     1
  1
strokes_ogs.tif
176
     1
290
     0
176
     1
 40
1.0
176
     1
 40
1.0
176
     1
  0
VISUALSTYLE
  5
294
102
{ACAD_REACTORS
330
283
102
}
330
283
100
AcDbVisualStyle
  2
Shades of Gray
 70
    23
177
     3
291
     0
 70
    58
 90
        2
176
     1
 90
        2
176
     1
 90
        3
176
     1
 90
        0
176
     1
 40
0.6
176
     1
 40
30.0
176
     1
 62
     7
420
 16777215
176
     1
 90
        2
176
     1
 90
        2
176
     1
 62
     7
176
     1
 62
     7
176
     1
 90
        1
176
     1
 90
        1
176
     1
 40
40.0
176
     1
 90
        8
176
     1
 62
     7
176
     1
 40
1.0
176
     1
 90
        1
176
     1
 90
        6
176
     1
 90
        2
176
     1
 62
     7
176
     1
 90
        3
176
     1
 90
        0
176
     1
 90
        0
176
     1
290
     0
176
     1
 90
        1
176
     1
 40
0.0
176
     1
 90
        0
176
     1
290
     0
176
     1
290
     1
176
     1
290
     1
176
     1
290
     0
176
     1
290
     0
176
     1
290
     0
176
     1
290
     0
176
     1
290
     0
176
     1
290
     0
176
     1
 90
       50
176
     1
 40
0.0
176
     1
 40
1.0
176
     1
 90
        0
176
     1
 62
    18
420
        0
176
     1
 90
       50
176
     1
 90
        3
176
     1
 62
     5
420
      255
176
     1
290
     0
176
     1
 90
       50
176
     1
 90
       50
176
     1
 90
       50
176
     1
290
     0
176
     1
 90
       50
176
     1
 62
   256
176
     0
 40
1.0
176
     0
 90
        2
176
     1
  1
strokes_ogs.tif
176
     1
290
     0
176
     1
 40
1.0
176
     1
 40
1.0
176
     1
  0
VISUALSTYLE
  5
295
102
{ACAD_REACTORS
330
283
102
}
330
283
100
AcDbVisualStyle
  2
Sketchy
 70
    24
177
     3
291
     0
 70
    58
 90
        1
176
     1
 90
        2
176
     1
 90
        2
176
     1
 90
        0
176
     1
 40
0.6
176
     1
 40
30.0
176
     1
 62
     7
420
 16777215
176
     1
 90
        2
176
     1
 90
        2
176
     1
 62
     7
176
     1
 62
     7
176
     1
 90
        1
176
     1
 90
        1
176
     1
 40
40.0
176
     1
 90
       11
176
     1
 62
     7
176
     1
 40
1.0
176
     1
 90
        1
176
     1
 90
        6
176
     1
 90
        2
176
     1
 62
     7
176
     1
 90
        6
176
     1
 90
        0
176
     1
 90
        0
176
     1
290
     0
176
     1
 90
        1
176
     1
 40
0.0
176
     1
 90
        0
176
     1
290
     0
176
     1
290
     1
176
     1
290
     1
176
     1
290
     0
176
     1
290
     0
176
     1
290
     0
176
     1
290
     0
176
     1
290
     0
176
     1
290
     0
176
     1
 90
       50
176
     1
 40
0.0
176
     1
 40
1.0
176
     1
 90
        0
176
     1
 62
    18
420
        0
176
     1
 90
       50
176
     1
 90
        3
176
     1
 62
     5
420
      255
176
     1
290
     0
176
     1
 90
       50
176
     1
 90
       50
176
     1
 90
       50
176
     1
290
     0
176
     1
 90
       50
176
     1
 62
   256
176
     0
 40
1.0
176
     0
 90
        2
176
     1
  1
strokes_ogs.tif
176
     1
290
     0
176
     1
 40
1.0
176
     1
 40
1.0
176
     1
  0
VISUALSTYLE
  5
290
102
{ACAD_REACTORS
330
283
102
}
330
283
100
AcDbVisualStyle
  2
Thicken
 70
    13
177
     3
291
     1
 70
    58
 90
        2
176
     1
 90
        2
176
     1
 90
        0
176
     1
 90
        0
176
     1
 40
0.6
176
     1
 40
30.0
176
     1
 62
     7
420
 16777215
176
     1
 90
        1
176
     1
 90
        4
176
     1
 62
     7
176
     1
 62
   257
176
     1
 90
        1
176
     1
 90
        1
176
     1
 40
1.0
176
     1
 90
       12
176
     1
 62
     7
176
     1
 40
1.0
176
     1
 90
        1
176
     1
 90
        6
176
     1
 90
        2
176
     1
 62
     7
176
     1
 90
        5
176
     1
 90
        0
176
     1
 90
        0
176
     1
290
     0
176
     1
 90
        1
176
     1
 40
0.0
176
     1
 90
        0
176
     1
290
     0
176
     1
290
     1
176
     1
290
     1
176
     1
290
     0
176
     1
290
     0
176
     1
290
     0
176
     1
290
     0
176
     1
290
     0
176
     1
290
     0
176
     1
 90
       50
176
     1
 40
0.0
176
     1
 40
1.0
176
     1
 90
        0
176
     1
 62
    18
420
        0
176
     1
 90
       50
176
     1
 90
        3
176
     1
 62
     5
420
      255
176
     1
290
     0
176
     1
 90
       50
176
     1
 90
       50
176
     1
 90
       50
176
     1
290
     0
176
     1
 90
       50
176
     1
 62
   256
176
     0
 40
1.0
176
     0
 90
        2
176
     1
  1
strokes_ogs.tif
176
     1
290
     0
176
     1
 40
1.0
176
     1
 40
1.0
176
     1
  0
VISUALSTYLE
  5
28A
102
{ACAD_REACTORS
330
283
102
}
330
283
100
AcDbVisualStyle
  2
Wireframe
 70
     5
177
     3
291
     0
 70
    58
 90
        0
176
     1
 90
        2
176
     1
 90
        0
176
     1
 90
        0
176
     1
 40
0.6
176
     1
 40
30.0
176
     1
 62
     7
420
 16777215
176
     1
 90
        1
176
     1
 90
        4
176
     1
 62
     7
176
     1
 62
   257
176
     1
 90
        1
176
     1
 90
        1
176
     1
 40
1.0
176
     1
 90
        0
176
     1
 62
   257
176
     1
 40
1.0
176
     1
 90
        1
176
     1
 90
        6
176
     1
 90
        2
176
     1
 62
     7
176
     1
 90
        3
176
     1
 90
        0
176
     1
 90
        0
176
     1
290
     0
176
     1
 90
        1
176
     1
 40
0.0
176
     1
 90
        0
176
     1
290
     0
176
     1
290
     1
176
     1
290
     1
176
     1
290
     0
176
     1
290
     0
176
     1
290
     0
176
     1
290
     0
176
     1
290
     0
176
     1
290
     0
176
     1
 90
       50
176
     1
 40
0.0
176
     1
 40
1.0
176
     1
 90
        0
176
     1
 62
    18
420
        0
176
     1
 90
       50
176
     1
 90
        3
176
     1
 62
     5
420
      255
176
     1
290
     0
176
     1
 90
       50
176
     1
 90
       50
176
     1
 90
       50
176
     1
290
     0
176
     1
 90
       50
176
     1
 62
   256
176
     0
 40
1.0
176
     0
 90
        2
176
     1
  1
strokes_ogs.tif
176
     1
290
     0
176
     1
 40
1.0
176
     1
 40
1.0
176
     1
  0
VISUALSTYLE
  5
296
102
{ACAD_REACTORS
330
283
102
}
330
283
100
AcDbVisualStyle
  2
X-Ray
 70
    25
177
     3
291
     0
 70
    58
 90
        2
176
     1
 90
        2
176
     1
 90
        1
176
     1
 90
        1
176
     1
 40
0.5
176
     1
 40
30.0
176
     1
 62
     7
420
 16777215
176
     1
 90
        1
176
     1
 90
        0
176
     1
 62
     7
176
     1
 62
   257
176
     1
 90
        1
176
     1
 90
        1
176
     1
 40
1.0
176
     1
 90
        8
176
     1
 62
     7
176
     1
 40
1.0
176
     1
 90
        1
176
     1
 90
        6
176
     1
 90
        2
176
     1
 62
     7
176
     1
 90
        3
176
     1
 90
        0
176
     1
 90
        0
176
     1
290
     0
176
     1
 90
       13
176
     1
 40
0.0
176
     1
 90
        0
176
     1
290
     0
176
     1
290
     1
176
     1
290
     1
176
     1
290
     0
176
     1
290
     0
176
     1
290
     0
176
     1
290
     0
176
     1
290
     0
176
     1
290
     0
176
     1
 90
       50
176
     1
 40
0.0
176
     1
 40
1.0
176
     1
 90
        0
176
     1
 62
    18
420
        0
176
     1
 90
       50
176
     1
 90
        3
176
     1
 62
     5
420
      255
176
     1
290
     0
176
     1
 90
       50
176
     1
 90
       50
176
     1
 90
       50
176
     1
290
     0
176
     1
 90
       50
176
     1
 62
   256
176
     0
 40
1.0
176
     0
 90
        2
176
     1
  1
strokes_ogs.tif
176
     1
290
     0
176
     1
 40
1.0
176
     1
 40
1.0
176
     1
  0
DICTIONARYVAR
  5
3D4
102
{ACAD_REACTORS
330
3CE
102
}
330
3CE
100
DictionaryVariables
280
     0
  1
1:1
  0
DICTIONARYVAR
  5
3D0
102
{ACAD_REACTORS
330
3CE
102
}
330
3CE
100
DictionaryVariables
280
     0
  1
STANDARD
  0
DICTIONARYVAR
  5
3CF
102
{ACAD_REACTORS
330
3CE
102
}
330
3CE
100
DictionaryVariables
280
     0
  1
STANDARD
  0
DICTIONARYVAR
  5
3D1
102
{ACAD_REACTORS
330
3CE
102
}
330
3CE
100
DictionaryVariables
280
     0
  1
Metric50
  0
DICTIONARYVAR
  5
3D2
102
{ACAD_REACTORS
330
3CE
102
}
330
3CE
100
DictionaryVariables
280
     0
  1
Metric50
  0
DICTIONARYVAR
  5
3D6
102
{ACAD_REACTORS
330
3CE
102
}
330
3CE
100
DictionaryVariables
280
     0
  1
1
  0
DICTIONARYVAR
  5
3D7
102
{ACAD_REACTORS
330
3CE
102
}
330
3CE
100
DictionaryVariables
280
     0
  1
15
  0
DICTIONARYVAR
  5
3D5
102
{ACAD_REACTORS
330
3CE
102
}
330
3CE
100
DictionaryVariables
280
     0
  1
0
  0
DICTIONARYVAR
  5
3D3
102
{ACAD_REACTORS
330
3CE
102
}
330
3CE
100
DictionaryVariables
280
     0
  1
0
  0
DICTIONARY
  5
353
102
{ACAD_REACTORS
330
352
102
}
330
352
100
AcDbDictionary
281
     1
  3
*A1
350
354
  0
DICTIONARY
  5
345
102
{ACAD_REACTORS
330
344
102
}
330
344
100
AcDbDictionary
281
     1
  3
*A1
350
346
  0
DICTIONARY
  5
337
102
{ACAD_REACTORS
330
336
102
}
330
336
100
AcDbDictionary
281
     1
  3
*A1
350
338
  0
DICTIONARY
  5
38B
102
{ACAD_REACTORS
330
38A
102
}
330
38A
100
AcDbDictionary
281
     1
  3
*A1
350
38C
  0
DICTIONARY
  5
37D
102
{ACAD_REACTORS
330
37C
102
}
330
37C
100
AcDbDictionary
281
     1
  3
*A1
350
37E
  0
DICTIONARY
  5
399
102
{ACAD_REACTORS
330
398
102
}
330
398
100
AcDbDictionary
281
     1
  3
*A1
350
39A
  0
DICTIONARY
  5
329
102
{ACAD_REACTORS
330
328
102
}
330
328
100
AcDbDictionary
281
     1
  3
*A1
350
32A
  0
DICTIONARY
  5
31B
102
{ACAD_REACTORS
330
31A
102
}
330
31A
100
AcDbDictionary
281
     1
  3
*A1
350
31C
  0
DICTIONARY
  5
30D
102
{ACAD_REACTORS
330
30C
102
}
330
30C
100
AcDbDictionary
281
     1
  3
*A1
350
30E
  0
DICTIONARY
  5
36F
102
{ACAD_REACTORS
330
36E
102
}
330
36E
100
AcDbDictionary
281
     1
  3
*A1
350
370
  0
DICTIONARY
  5
361
102
{ACAD_REACTORS
330
360
102
}
330
360
100
AcDbDictionary
281
     1
  3
*A1
350
362
  0
DICTIONARY
  5
274
330
273
100
AcDbDictionary
280
     1
281
     1
  3
BUMPTILE
360
276
  3
DIFFUSETILE
360
275
  3
OPACITYTILE
360
279
  3
REFLECTIONTILE
360
278
  3
REFRACTIONTILE
360
27A
  3
SPECULARTILE
360
277
  0
DICTIONARY
  5
26C
330
26B
100
AcDbDictionary
280
     1
281
     1
  3
BUMPTILE
360
26E
  3
DIFFUSETILE
360
26D
  3
OPACITYTILE
360
271
  3
REFLECTIONTILE
360
270
  3
REFRACTIONTILE
360
272
  3
SPECULARTILE
360
26F
  0
DICTIONARY
  5
27C
330
27B
100
AcDbDictionary
280
     1
281
     1
  3
BUMPTILE
360
27E
  3
DIFFUSETILE
360
27D
  3
OPACITYTILE
360
281
  3
REFLECTIONTILE
360
280
  3
REFRACTIONTILE
360
282
  3
SPECULARTILE
360
27F
  0
DICTIONARY
  5
3D8
330
29E
100
AcDbDictionary
280
     1
281
     1
  3
ACAD_ROUNDTRIP_2008_TABLESTYLE_CELLSTYLEMAP
360
3D9
  0
ACDB_ALDIMOBJECTCONTEXTDATA_CLASS
  5
354
102
{ACAD_REACTORS
330
353
102
}
330
353
100
AcDbObjectContextData
 70
     4
290
     1
100
AcDbAnnotScaleObjectContextData
340
48
100
AcDbDimensionObjectContextData
  2
*D21
293
     0
 10
129.3038258325
 20
-112.6849880215
294
     0
140
0.0
298
     0
291
     0
 70
     0
292
     0
 71
     0
280
     0
295
     0
296
     0
297
     0
100
AcDbAlignedDimensionObjectContextData
 11
249.9009023083
 21
-112.6849880215
 31
0.0
  0
ACDB_ALDIMOBJECTCONTEXTDATA_CLASS
  5
346
102
{ACAD_REACTORS
330
345
102
}
330
345
100
AcDbObjectContextData
 70
     4
290
     1
100
AcDbAnnotScaleObjectContextData
340
48
100
AcDbDimensionObjectContextData
  2
*D20
293
     0
 10
301.9009023083
 20
30.7685088847
294
     0
140
0.0
298
     0
291
     0
 70
     0
292
     0
 71
     0
280
     0
295
     0
296
     0
297
     0
100
AcDbAlignedDimensionObjectContextData
 11
301.9009023083
 21
146.5294747061
 31
0.0
  0
ACDB_ALDIMOBJECTCONTEXTDATA_CLASS
  5
338
102
{ACAD_REACTORS
330
337
102
}
330
337
100
AcDbObjectContextData
 70
     4
290
     1
100
AcDbAnnotScaleObjectContextData
340
48
100
AcDbDimensionObjectContextData
  2
*D19
293
     0
 10
-46.0990976931
 20
64.5365521855
294
     0
140
0.0
298
     0
291
     0
 70
     0
292
     0
 71
     0
280
     0
295
     0
296
     0
297
     0
100
AcDbAlignedDimensionObjectContextData
 11
-46.09909769310006
 21
186.1794747061
 31
0.0
  0
ACDB_ALDIMOBJECTCONTEXTDATA_CLASS
  5
38C
102
{ACAD_REACTORS
330
38B
102
}
330
38B
100
AcDbObjectContextData
 70
     4
290
     1
100
AcDbAnnotScaleObjectContextData
340
48
100
AcDbDimensionObjectContextData
  2
*D25
293
     0
 10
427.5273699123
 20
-112.6849880215
294
     0
140
0.0
298
     0
291
     0
 70
     0
292
     0
 71
     0
280
     0
295
     0
296
     0
297
     0
100
AcDbAlignedDimensionObjectContextData
 11
402.3931892687
 21
-112.6849880215
 31
0.0
  0
ACDB_ALDIMOBJECTCONTEXTDATA_CLASS
  5
37E
102
{ACAD_REACTORS
330
37D
102
}
330
37D
100
AcDbObjectContextData
 70
     4
290
     1
100
AcDbAnnotScaleObjectContextData
340
48
100
AcDbDimensionObjectContextData
  2
*D24
293
     0
 10
537.5036156226999
 20
48.9180503626
294
     0
140
0.0
298
     0
291
     0
 70
     0
292
     0
 71
     0
280
     0
295
     0
296
     0
297
     0
100
AcDbAlignedDimensionObjectContextData
 11
537.5036156227
 21
111.5899202498
 31
0.0
  0
ACDB_ALDIMOBJECTCONTEXTDATA_CLASS
  5
39A
102
{ACAD_REACTORS
330
399
102
}
330
399
100
AcDbObjectContextData
 70
     4
290
     1
100
AcDbAnnotScaleObjectContextData
340
48
100
AcDbDimensionObjectContextData
  2
*D26
293
     0
 10
427.5273699123
 20
208.5294747061
294
     0
140
0.0
298
     0
291
     0
 70
     0
292
     0
 71
     0
280
     0
295
     0
296
     0
297
     0
100
AcDbAlignedDimensionObjectContextData
 11
444.9036156226999
 21
208.5294747061
 31
0.0
  0
ACDB_ALDIMOBJECTCONTEXTDATA_CLASS
  5
32A
102
{ACAD_REACTORS
330
329
102
}
330
329
100
AcDbObjectContextData
 70
     4
290
     1
100
AcDbAnnotScaleObjectContextData
340
48
100
AcDbDimensionObjectContextData
  2
*D18
293
     0
 10
-46.0990976931
 20
316.3255685991
294
     0
140
0.0
298
     0
291
     0
 70
     0
292
     0
 71
     0
280
     0
295
     0
296
     0
297
     0
100
AcDbAlignedDimensionObjectContextData
 11
-46.09909769310009
 21
254.9420950786001
 31
0.0
  0
ACDB_ALDIMOBJECTCONTEXTDATA_CLASS
  5
31C
102
{ACAD_REACTORS
330
31B
102
}
330
31B
100
AcDbObjectContextData
 70
     4
290
     1
100
AcDbAnnotScaleObjectContextData
340
48
100
AcDbDimensionObjectContextData
  2
*D17
293
     0
 10
12.7108404177
 20
408.9420950785999
294
     0
140
0.0
298
     0
291
     0
 70
     0
292
     0
 71
     0
280
     0
295
     0
296
     0
297
     0
100
AcDbAlignedDimensionObjectContextData
 11
-7.434097693099997
 21
408.9420950785999
 31
0.0
  0
ACDB_ALDIMOBJECTCONTEXTDATA_CLASS
  5
30E
102
{ACAD_REACTORS
330
30D
102
}
330
30D
100
AcDbObjectContextData
 70
     4
290
     1
100
AcDbAnnotScaleObjectContextData
340
48
100
AcDbDimensionObjectContextData
  2
*D16
293
     0
 10
-37.40425910405458
 20
337.7920950786
294
     1
140
0.0
298
     0
291
     0
 70
     0
292
     0
 71
     0
280
     0
295
     0
296
     0
297
     0
100
AcDbAlignedDimensionObjectContextData
 11
-26.73759243738803
 21
374.9420950786001
 31
0.0
  0
ACDB_ALDIMOBJECTCONTEXTDATA_CLASS
  5
370
102
{ACAD_REACTORS
330
36F
102
}
330
36F
100
AcDbObjectContextData
 70
     4
290
     1
100
AcDbAnnotScaleObjectContextData
340
48
100
AcDbDimensionObjectContextData
  2
*D23
293
     0
 10
529.5378255947652
 20
-34.79748802150014
294
     1
140
0.0
298
     0
291
     0
 70
     0
292
     0
 71
     0
280
     0
295
     0
296
     0
297
     0
100
AcDbAlignedDimensionObjectContextData
 11
518.8711589280988
 21
9.09001197850001
 31
0.0
  0
ACDB_ALDIMOBJECTCONTEXTDATA_CLASS
  5
362
102
{ACAD_REACTORS
330
361
102
}
330
361
100
AcDbObjectContextData
 70
     4
290
     1
100
AcDbAnnotScaleObjectContextData
340
48
100
AcDbDimensionObjectContextData
  2
*D22
293
     0
 10
344.8583821947271
 20
-23.68498802150011
294
     1
140
0.0
298
     0
291
     0
 70
     0
292
     0
 71
     0
280
     0
295
     0
296
     0
297
     0
100
AcDbAlignedDimensionObjectContextData
 11
356.1917155280605
 21
31.31501197850001
 31
0.0
  0
XRECORD
  5
276
102
{ACAD_REACTORS
330
274
102
}
330
274
100
AcDbXrecord
280
     1
270
     1
271
     1
  0
XRECORD
  5
275
102
{ACAD_REACTORS
330
274
102
}
330
274
100
AcDbXrecord
280
     1
270
     1
271
     1
  0
XRECORD
  5
279
102
{ACAD_REACTORS
330
274
102
}
330
274
100
AcDbXrecord
280
     1
270
     1
271
     1
  0
XRECORD
  5
278
102
{ACAD_REACTORS
330
274
102
}
330
274
100
AcDbXrecord
280
     1
270
     1
271
     1
  0
XRECORD
  5
27A
102
{ACAD_REACTORS
330
274
102
}
330
274
100
AcDbXrecord
280
     1
270
     1
271
     1
  0
XRECORD
  5
277
102
{ACAD_REACTORS
330
274
102
}
330
274
100
AcDbXrecord
280
     1
270
     1
271
     1
  0
XRECORD
  5
26E
102
{ACAD_REACTORS
330
26C
102
}
330
26C
100
AcDbXrecord
280
     1
270
     1
271
     1
  0
XRECORD
  5
26D
102
{ACAD_REACTORS
330
26C
102
}
330
26C
100
AcDbXrecord
280
     1
270
     1
271
     1
  0
XRECORD
  5
271
102
{ACAD_REACTORS
330
26C
102
}
330
26C
100
AcDbXrecord
280
     1
270
     1
271
     1
  0
XRECORD
  5
270
102
{ACAD_REACTORS
330
26C
102
}
330
26C
100
AcDbXrecord
280
     1
270
     1
271
     1
  0
XRECORD
  5
272
102
{ACAD_REACTORS
330
26C
102
}
330
26C
100
AcDbXrecord
280
     1
270
     1
271
     1
  0
XRECORD
  5
26F
102
{ACAD_REACTORS
330
26C
102
}
330
26C
100
AcDbXrecord
280
     1
270
     1
271
     1
  0
XRECORD
  5
27E
102
{ACAD_REACTORS
330
27C
102
}
330
27C
100
AcDbXrecord
280
     1
270
     1
271
     1
  0
XRECORD
  5
27D
102
{ACAD_REACTORS
330
27C
102
}
330
27C
100
AcDbXrecord
280
     1
270
     1
271
     1
  0
XRECORD
  5
281
102
{ACAD_REACTORS
330
27C
102
}
330
27C
100
AcDbXrecord
280
     1
270
     1
271
     1
  0
XRECORD
  5
280
102
{ACAD_REACTORS
330
27C
102
}
330
27C
100
AcDbXrecord
280
     1
270
     1
271
     1
  0
XRECORD
  5
282
102
{ACAD_REACTORS
330
27C
102
}
330
27C
100
AcDbXrecord
280
     1
270
     1
271
     1
  0
XRECORD
  5
27F
102
{ACAD_REACTORS
330
27C
102
}
330
27C
100
AcDbXrecord
280
     1
270
     1
271
     1
  0
CELLSTYLEMAP
  5
3D9
102
{ACAD_REACTORS
330
3D8
102
}
330
3D8
100
AcDbCellStyleMap
 90
        3
300
CELLSTYLE
  1
TABLEFORMAT_BEGIN
 90
        5
170
     1
 91
        0
 92
    32768
 62
   257
 93
        1
300
CONTENTFORMAT
  1
CONTENTFORMAT_BEGIN
 90
        0
 91
        0
 92
      512
 93
        0
300

 40
0.0
140
1.0
 94
        5
 62
     0
340
11
144
6.0
309
CONTENTFORMAT_END
171
     1
301
MARGIN
  1
CELLMARGIN_BEGIN
 40
1.5
 40
1.5
 40
1.5
 40
1.5
 40
4.5
 40
4.5
309
CELLMARGIN_END
 94
        6
 95
        1
302
GRIDFORMAT
  1
GRIDFORMAT_BEGIN
 90
        0
 91
        1
 62
     0
 92
       -2
340
0
 93
        0
 40
1.125
309
GRIDFORMAT_END
 95
        2
302
GRIDFORMAT
  1
GRIDFORMAT_BEGIN
 90
        0
 91
        1
 62
     0
 92
       -2
340
0
 93
        0
 40
1.125
309
GRIDFORMAT_END
 95
        4
302
GRIDFORMAT
  1
GRIDFORMAT_BEGIN
 90
        0
 91
        1
 62
     0
 92
       -2
340
0
 93
        0
 40
1.125
309
GRIDFORMAT_END
 95
        8
302
GRIDFORMAT
  1
GRIDFORMAT_BEGIN
 90
        0
 91
        1
 62
     0
 92
       -2
340
0
 93
        0
 40
1.125
309
GRIDFORMAT_END
 95
       16
302
GRIDFORMAT
  1
GRIDFORMAT_BEGIN
 90
        0
 91
        1
 62
     0
 92
       -2
340
0
 93
        0
 40
1.125
309
GRIDFORMAT_END
 95
       32
302
GRIDFORMAT
  1
GRIDFORMAT_BEGIN
 90
        0
 91
        1
 62
     0
 92
       -2
340
0
 93
        0
 40
1.125
309
GRIDFORMAT_END
309
TABLEFORMAT_END
  1
CELLSTYLE_BEGIN
 90
        1
 91
        1
300
_TITLE
309
CELLSTYLE_END
300
CELLSTYLE
  1
TABLEFORMAT_BEGIN
 90
        5
170
     1
 91
        0
 92
        0
 62
   257
 93
        1
300
CONTENTFORMAT
  1
CONTENTFORMAT_BEGIN
 90
        0
 91
        0
 92
      512
 93
        0
300

 40
0.0
140
1.0
 94
        5
 62
     0
340
11
144
4.5
309
CONTENTFORMAT_END
171
     1
301
MARGIN
  1
CELLMARGIN_BEGIN
 40
1.5
 40
1.5
 40
1.5
 40
1.5
 40
4.5
 40
4.5
309
CELLMARGIN_END
 94
        6
 95
        1
302
GRIDFORMAT
  1
GRIDFORMAT_BEGIN
 90
        0
 91
        1
 62
     0
 92
       -2
340
0
 93
        0
 40
1.125
309
GRIDFORMAT_END
 95
        2
302
GRIDFORMAT
  1
GRIDFORMAT_BEGIN
 90
        0
 91
        1
 62
     0
 92
       -2
340
0
 93
        0
 40
1.125
309
GRIDFORMAT_END
 95
        4
302
GRIDFORMAT
  1
GRIDFORMAT_BEGIN
 90
        0
 91
        1
 62
     0
 92
       -2
340
0
 93
        0
 40
1.125
309
GRIDFORMAT_END
 95
        8
302
GRIDFORMAT
  1
GRIDFORMAT_BEGIN
 90
        0
 91
        1
 62
     0
 92
       -2
340
0
 93
        0
 40
1.125
309
GRIDFORMAT_END
 95
       16
302
GRIDFORMAT
  1
GRIDFORMAT_BEGIN
 90
        0
 91
        1
 62
     0
 92
       -2
340
0
 93
        0
 40
1.125
309
GRIDFORMAT_END
 95
       32
302
GRIDFORMAT
  1
GRIDFORMAT_BEGIN
 90
        0
 91
        1
 62
     0
 92
       -2
340
0
 93
        0
 40
1.125
309
GRIDFORMAT_END
309
TABLEFORMAT_END
  1
CELLSTYLE_BEGIN
 90
        2
 91
        1
300
_HEADER
309
CELLSTYLE_END
300
CELLSTYLE
  1
TABLEFORMAT_BEGIN
 90
        5
170
     1
 91
        0
 92
        0
 62
   257
 93
        1
300
CONTENTFORMAT
  1
CONTENTFORMAT_BEGIN
 90
        0
 91
        0
 92
      512
 93
        0
300

 40
0.0
140
1.0
 94
        2
 62
     0
340
11
144
4.5
309
CONTENTFORMAT_END
171
     1
301
MARGIN
  1
CELLMARGIN_BEGIN
 40
1.5
 40
1.5
 40
1.5
 40
1.5
 40
4.5
 40
4.5
309
CELLMARGIN_END
 94
        6
 95
        1
302
GRIDFORMAT
  1
GRIDFORMAT_BEGIN
 90
        0
 91
        1
 62
     0
 92
       -2
340
0
 93
        0
 40
1.125
309
GRIDFORMAT_END
 95
        2
302
GRIDFORMAT
  1
GRIDFORMAT_BEGIN
 90
        0
 91
        1
 62
     0
 92
       -2
340
0
 93
        0
 40
1.125
309
GRIDFORMAT_END
 95
        4
302
GRIDFORMAT
  1
GRIDFORMAT_BEGIN
 90
        0
 91
        1
 62
     0
 92
       -2
340
0
 93
        0
 40
1.125
309
GRIDFORMAT_END
 95
        8
302
GRIDFORMAT
  1
GRIDFORMAT_BEGIN
 90
        0
 91
        1
 62
     0
 92
       -2
340
0
 93
        0
 40
1.125
309
GRIDFORMAT_END
 95
       16
302
GRIDFORMAT
  1
GRIDFORMAT_BEGIN
 90
        0
 91
        1
 62
     0
 92
       -2
340
0
 93
        0
 40
1.125
309
GRIDFORMAT_END
 95
       32
302
GRIDFORMAT
  1
GRIDFORMAT_BEGIN
 90
        0
 91
        1
 62
     0
 92
       -2
340
0
 93
        0
 40
1.125
309
GRIDFORMAT_END
309
TABLEFORMAT_END
  1
CELLSTYLE_BEGIN
 90
        3
 91
        2
300
_DATA
309
CELLSTYLE_END
  0
ENDSEC
  0
EOF
