  0
SECTION
  2
HEADER
  9
$ACADVER
  1
AC1027
  9
$ACADMAINTVER
 70
   125
  9
$DWGCODEPAGE
  3
ANSI_1252
  9
$LASTSAVEDBY
  1
fleminab
  9
$REQUIREDVERSIONS
160
                 0
  9
$INSBASE
 10
0.0
 20
0.0
 30
0.0
  9
$EXTMIN
 10
0.0
 20
-7.591185991588645
 30
0.0
  9
$EXTMAX
 10
4757.042727914307
 20
2241.441415730631
 30
0.0
  9
$LIMMIN
 10
0.0
 20
0.0
  9
$LIMMAX
 10
1485.0
 20
1050.0
  9
$ORTHOMODE
 70
     0
  9
$REGENMODE
 70
     1
  9
$FILLMODE
 70
     1
  9
$QTEXTMODE
 70
     0
  9
$MIRRTEXT
 70
     0
  9
$LTSCALE
 40
81.675
  9
$ATTMODE
 70
     1
  9
$TEXTSIZE
 40
0.2
  9
$TRACEWID
 40
0.05
  9
$TEXTSTYLE
  7
STANDARD
  9
$CLAYER
  8
0
  9
$CELTYPE
  6
BYLAYER
  9
$CECOLOR
 62
   256
  9
$CELTSCALE
 40
1.0
  9
$DISPSILH
 70
     0
  9
$DIMSCALE
 40
1.0
  9
$DIMASZ
 40
15.0
  9
$DIMEXO
 40
1.0
  9
$DIMDLI
 40
56.43
  9
$DIMRND
 40
0.0
  9
$DIMDLE
 40
0.0
  9
$DIMEXE
 40
1.5
  9
$DIMTP
 40
0.01
  9
$DIMTM
 40
0.01
  9
$DIMTXT
 40
12.5
  9
$DIMCEN
 40
13.365
  9
$DIMTSZ
 40
0.0
  9
$DIMTOL
 70
     1
  9
$DIMLIM
 70
     0
  9
$DIMTIH
 70
     1
  9
$DIMTOH
 70
     1
  9
$DIMSE1
 70
     0
  9
$DIMSE2
 70
     0
  9
$DIMTAD
 70
     0
  9
$DIMZIN
 70
     0
  9
$DIMBLK
  1
_ARROW_FILLED
  9
$DIMASO
 70
     1
  9
$DIMSHO
 70
     1
  9
$DIMPOST
  1

  9
$DIMAPOST
  1

  9
$DIMALT
 70
     0
  9
$DIMALTD
 70
     2
  9
$DIMALTF
 40
25.4
  9
$DIMLFAC
 40
1.0
  9
$DIMTOFL
 70
     0
  9
$DIMTVP
 40
0.0
  9
$DIMTIX
 70
     0
  9
$DIMSOXD
 70
     0
  9
$DIMSAH
 70
     0
  9
$DIMBLK1
  1

  9
$DIMBLK2
  1

  9
$DIMSTYLE
  2
STANDARD
  9
$DIMCLRD
 70
     0
  9
$DIMCLRE
 70
     0
  9
$DIMCLRT
 70
     0
  9
$DIMTFAC
 40
1.0
  9
$DIMGAP
 40
0.625
  9
$DIMJUST
 70
     0
  9
$DIMSD1
 70
     0
  9
$DIMSD2
 70
     0
  9
$DIMTOLJ
 70
     1
  9
$DIMTZIN
 70
     0
  9
$DIMALTZ
 70
     0
  9
$DIMALTTZ
 70
     0
  9
$DIMUPT
 70
     0
  9
$DIMDEC
 70
     4
  9
$DIMTDEC
 70
     4
  9
$DIMALTU
 70
     2
  9
$DIMALTTD
 70
     2
  9
$DIMTXSTY
  7
STANDARD
  9
$DIMAUNIT
 70
     0
  9
$DIMADEC
 70
     0
  9
$DIMALTRND
 40
0.0
  9
$DIMAZIN
 70
     0
  9
$DIMDSEP
 70
    46
  9
$DIMATFIT
 70
     3
  9
$DIMFRAC
 70
     0
  9
$DIMLDRBLK
  1
_ARROW_FILLED
  9
$DIMLUNIT
 70
     2
  9
$DIMLWD
 70
    -2
  9
$DIMLWE
 70
    -2
  9
$DIMTMOVE
 70
     0
  9
$DIMFXL
 40
1.0
  9
$DIMFXLON
 70
     0
  9
$DIMJOGANG
 40
0.7853981633974483
  9
$DIMTFILL
 70
     0
  9
$DIMTFILLCLR
 70
     0
  9
$DIMARCSYM
 70
     0
  9
$DIMLTYPE
  6

  9
$DIMLTEX1
  6

  9
$DIMLTEX2
  6

  9
$DIMTXTDIRECTION
 70
     0
  9
$LUNITS
 70
     2
  9
$LUPREC
 70
     4
  9
$SKETCHINC
 40
0.1
  9
$FILLETRAD
 40
0.0
  9
$AUNITS
 70
     0
  9
$AUPREC
 70
     0
  9
$MENU
  1
.
  9
$ELEVATION
 40
0.0
  9
$PELEVATION
 40
0.0
  9
$THICKNESS
 40
0.0
  9
$LIMCHECK
 70
     0
  9
$CHAMFERA
 40
0.0
  9
$CHAMFERB
 40
0.0
  9
$CHAMFERC
 40
0.0
  9
$CHAMFERD
 40
0.0
  9
$SKPOLY
 70
     0
  9
$TDCREATE
 40
2457869.510578704
  9
$TDUCREATE
 40
2457869.093920822
  9
$TDUPDATE
 40
2458004.686481482
  9
$TDUUPDATE
 40
2458004.269814815
  9
$TDINDWG
 40
0.0992015741
  9
$TDUSRTIMER
 40
0.0992015741
  9
$USRTIMER
 70
     1
  9
$ANGBASE
 50
0.0
  9
$ANGDIR
 70
     0
  9
$PDMODE
 70
     3
  9
$PDSIZE
 40
8.0
  9
$PLINEWID
 40
0.0
  9
$SPLFRAME
 70
     0
  9
$SPLINETYPE
 70
     6
  9
$SPLINESEGS
 70
     8
  9
$HANDSEED
  5
46E9
  9
$SURFTAB1
 70
     6
  9
$SURFTAB2
 70
     6
  9
$SURFTYPE
 70
     6
  9
$SURFU
 70
     6
  9
$SURFV
 70
     6
  9
$UCSBASE
  2

  9
$UCSNAME
  2

  9
$UCSORG
 10
0.0
 20
0.0
 30
0.0
  9
$UCSXDIR
 10
1.0
 20
0.0
 30
0.0
  9
$UCSYDIR
 10
0.0
 20
1.0
 30
0.0
  9
$UCSORTHOREF
  2

  9
$UCSORTHOVIEW
 70
     0
  9
$UCSORGTOP
 10
0.0
 20
0.0
 30
0.0
  9
$UCSORGBOTTOM
 10
0.0
 20
0.0
 30
0.0
  9
$UCSORGLEFT
 10
0.0
 20
0.0
 30
0.0
  9
$UCSORGRIGHT
 10
0.0
 20
0.0
 30
0.0
  9
$UCSORGFRONT
 10
0.0
 20
0.0
 30
0.0
  9
$UCSORGBACK
 10
0.0
 20
0.0
 30
0.0
  9
$PUCSBASE
  2

  9
$PUCSNAME
  2

  9
$PUCSORG
 10
0.0
 20
0.0
 30
0.0
  9
$PUCSXDIR
 10
1.0
 20
0.0
 30
0.0
  9
$PUCSYDIR
 10
0.0
 20
1.0
 30
0.0
  9
$PUCSORTHOREF
  2

  9
$PUCSORTHOVIEW
 70
     0
  9
$PUCSORGTOP
 10
0.0
 20
0.0
 30
0.0
  9
$PUCSORGBOTTOM
 10
0.0
 20
0.0
 30
0.0
  9
$PUCSORGLEFT
 10
0.0
 20
0.0
 30
0.0
  9
$PUCSORGRIGHT
 10
0.0
 20
0.0
 30
0.0
  9
$PUCSORGFRONT
 10
0.0
 20
0.0
 30
0.0
  9
$PUCSORGBACK
 10
0.0
 20
0.0
 30
0.0
  9
$USERI1
 70
     0
  9
$USERI2
 70
     0
  9
$USERI3
 70
     0
  9
$USERI4
 70
     0
  9
$USERI5
 70
     0
  9
$USERR1
 40
0.0
  9
$USERR2
 40
0.0
  9
$USERR3
 40
0.0
  9
$USERR4
 40
0.0
  9
$USERR5
 40
0.0
  9
$WORLDVIEW
 70
     1
  9
$SHADEDGE
 70
     3
  9
$SHADEDIF
 70
    70
  9
$TILEMODE
 70
     1
  9
$MAXACTVP
 70
    48
  9
$PINSBASE
 10
0.0
 20
0.0
 30
0.0
  9
$PLIMCHECK
 70
     0
  9
$PEXTMIN
 10
1.000000000000000E+20
 20
1.000000000000000E+20
 30
1.000000000000000E+20
  9
$PEXTMAX
 10
-1.000000000000000E+20
 20
-1.000000000000000E+20
 30
-1.000000000000000E+20
  9
$PLIMMIN
 10
0.0
 20
0.0
  9
$PLIMMAX
 10
12.0
 20
9.0
  9
$UNITMODE
 70
     0
  9
$VISRETAIN
 70
     1
  9
$PLINEGEN
 70
     0
  9
$PSLTSCALE
 70
     1
  9
$TREEDEPTH
 70
  3020
  9
$CMLSTYLE
  2
STANDARD
  9
$CMLJUST
 70
     0
  9
$CMLSCALE
 40
1.0
  9
$PROXYGRAPHICS
 70
     1
  9
$MEASUREMENT
 70
     1
  9
$CELWEIGHT
370
    -1
  9
$ENDCAPS
280
     0
  9
$JOINSTYLE
280
     0
  9
$LWDISPLAY
290
     0
  9
$INSUNITS
 70
     0
  9
$HYPERLINKBASE
  1

  9
$STYLESHEET
  1
monochrome.ctb
  9
$XEDIT
290
     1
  9
$CEPSNTYPE
380
     0
  9
$PSTYLEMODE
290
     1
  9
$FINGERPRINTGUID
  2
{90BE4A97-C83B-4533-A917-1CB25141B7AE}
  9
$VERSIONGUID
  2
{D52BB9A7-57F7-044C-85A9-078C5C6904A3}
  9
$EXTNAMES
290
     1
  9
$PSVPSCALE
 40
0.0
  9
$OLESTARTUP
290
     0
  9
$SORTENTS
280
   127
  9
$INDEXCTL
280
     0
  9
$HIDETEXT
280
     0
  9
$XCLIPFRAME
280
     2
  9
$HALOGAP
280
     0
  9
$OBSCOLOR
 70
   257
  9
$OBSLTYPE
280
     0
  9
$INTERSECTIONDISPLAY
280
     0
  9
$INTERSECTIONCOLOR
 70
   257
  9
$DIMASSOC
280
     1
  9
$PROJECTNAME
  1

  9
$CAMERADISPLAY
290
     0
  9
$LENSLENGTH
 40
50.0
  9
$CAMERAHEIGHT
 40
0.0
  9
$STEPSPERSEC
 40
2.0
  9
$STEPSIZE
 40
6.0
  9
$3DDWFPREC
 40
2.0
  9
$PSOLWIDTH
 40
0.25
  9
$PSOLHEIGHT
 40
4.0
  9
$LOFTANG1
 40
1.570796326794896
  9
$LOFTANG2
 40
1.570796326794896
  9
$LOFTMAG1
 40
0.0
  9
$LOFTMAG2
 40
0.0
  9
$LOFTPARAM
 70
     7
  9
$LOFTNORMALS
280
     1
  9
$LATITUDE
 40
37.795
  9
$LONGITUDE
 40
-122.394
  9
$NORTHDIRECTION
 40
0.0
  9
$TIMEZONE
 70
 -8000
  9
$LIGHTGLYPHDISPLAY
280
     1
  9
$TILEMODELIGHTSYNCH
280
     1
  9
$CMATERIAL
347
12D0
  9
$SOLIDHIST
280
     1
  9
$SHOWHIST
280
     1
  9
$DWFFRAME
280
     2
  9
$DGNFRAME
280
     0
  9
$REALWORLDSCALE
290
     1
  9
$INTERFERECOLOR
 62
     1
  9
$INTERFEREOBJVS
345
12F2
  9
$INTERFEREVPVS
346
12EF
  9
$CSHADOW
280
     0
  9
$SHADOWPLANELOCATION
 40
0.0
  0
ENDSEC
  0
SECTION
  2
CLASSES
  0
CLASS
  1
ACDBDICTIONARYWDFLT
  2
AcDbDictionaryWithDefault
  3
ObjectDBX Classes
 90
        0
 91
        1
280
     0
281
     0
  0
CLASS
  1
MATERIAL
  2
AcDbMaterial
  3
ObjectDBX Classes
 90
     1153
 91
        3
280
     0
281
     0
  0
CLASS
  1
VISUALSTYLE
  2
AcDbVisualStyle
  3
ObjectDBX Classes
 90
     4095
 91
       26
280
     0
281
     0
  0
CLASS
  1
TABLESTYLE
  2
AcDbTableStyle
  3
ObjectDBX Classes
 90
     4095
 91
        1
280
     0
281
     0
  0
CLASS
  1
SCALE
  2
AcDbScale
  3
ObjectDBX Classes
 90
     1153
 91
       51
280
     0
281
     0
  0
CLASS
  1
MLEADERSTYLE
  2
AcDbMLeaderStyle
  3
ACDB_MLEADERSTYLE_CLASS
 90
     4095
 91
        4
280
     0
281
     0
  0
CLASS
  1
CELLSTYLEMAP
  2
AcDbCellStyleMap
  3
ObjectDBX Classes
 90
     1152
 91
        4
280
     0
281
     0
  0
CLASS
  1
DICTIONARYVAR
  2
AcDbDictionaryVar
  3
ObjectDBX Classes
 90
        0
 91
       19
280
     0
281
     0
  0
CLASS
  1
LWPOLYLINE
  2
AcDbPolyline
  3
ObjectDBX Classes
 90
        0
 91
      115
280
     0
281
     1
  0
CLASS
  1
XRECORD
  2
AcDbXrecord
  3
ObjectDBX Classes
 90
        0
 91
       91
280
     0
281
     0
  0
CLASS
  1
ACDBPLACEHOLDER
  2
AcDbPlaceHolder
  3
ObjectDBX Classes
 90
        0
 91
        1
280
     0
281
     0
  0
CLASS
  1
LAYOUT
  2
AcDbLayout
  3
ObjectDBX Classes
 90
        0
 91
        2
280
     0
281
     0
  0
CLASS
  1
SORTENTSTABLE
  2
AcDbSortentsTable
  3
ObjectDBX Classes
 90
        0
 91
        1
280
     0
281
     0
  0
CLASS
  1
ACDBSECTIONVIEWSTYLE
  2
AcDbSectionViewStyle
  3
ObjectDBX Classes
 90
     1025
 91
        1
280
     0
281
     0
  0
CLASS
  1
ACDBDETAILVIEWSTYLE
  2
AcDbDetailViewStyle
  3
ObjectDBX Classes
 90
     1025
 91
        1
280
     0
281
     0
  0
ENDSEC
  0
SECTION
  2
TABLES
  0
TABLE
  2
VPORT
  5
8
102
{ACAD_XDICTIONARY
360
133E
102
}
330
0
100
AcDbSymbolTable
 70
     1
1001
ACAD
1000
DbSaveVer
1071
        5
  0
VPORT
  5
1F4
330
8
100
AcDbSymbolTableRecord
100
AcDbViewportTableRecord
  2
*ACTIVE
 70
     0
 10
0.0
 20
0.0
 11
1.0
 21
1.0
 12
2655.374824048413
 22
490.9751159678485
 13
0.0
 23
0.0
 14
1.0
 24
1.0
 15
0.0
 25
0.0
 16
0.0
 26
0.0
 36
1.0
 17
0.0
 27
0.0
 37
0.0
 40
1514.293501773435
 41
2.292712066905615
 42
50.0
 43
0.0
 44
0.0
 50
0.0
 51
0.0
 71
     0
 72
 19999
 73
     1
 74
     1
 75
     0
 76
     0
 77
     0
 78
     0
281
     0
 65
     1
110
0.0
120
0.0
130
0.0
111
1.0
121
0.0
131
0.0
112
0.0
122
1.0
132
0.0
 79
     0
146
0.0
348
12EE
 60
     3
 61
     5
292
     1
282
     1
141
0.0
142
0.0
 63
   250
421
  3355443
1001
ACAD_NAV_VCDISPLAY
1070
     3
  0
ENDTAB
  0
TABLE
  2
LTYPE
  5
5
330
0
100
AcDbSymbolTable
 70
     6
  0
LTYPE
  5
14
330
5
100
AcDbSymbolTableRecord
100
AcDbLinetypeTableRecord
  2
BYBLOCK
 70
     0
  3

 72
    65
 73
     0
 40
0.0
  0
LTYPE
  5
15
330
5
100
AcDbSymbolTableRecord
100
AcDbLinetypeTableRecord
  2
BYLAYER
 70
     0
  3

 72
    65
 73
     0
 40
0.0
  0
LTYPE
  5
16
330
5
100
AcDbSymbolTableRecord
100
AcDbLinetypeTableRecord
  2
CONTINUOUS
 70
     0
  3
Solid line
 72
    65
 73
     0
 40
0.0
  0
LTYPE
  5
1F5
330
5
100
AcDbSymbolTableRecord
100
AcDbLinetypeTableRecord
  2
CENTER
 70
     0
  3
____ _ ____ _ ____ _ ____ _ ____ _ ____ _ ____
 72
    65
 73
     4
 40
0.6
 49
0.375
 74
     0
 49
-0.075
 74
     0
 49
0.075
 74
     0
 49
-0.075
 74
     0
  0
LTYPE
  5
1F6
330
5
100
AcDbSymbolTableRecord
100
AcDbLinetypeTableRecord
  2
HIDDEN
 70
     0
  3
- - - - - - - - - - - - - - - - - - - -
 72
    65
 73
     2
 40
0.2
 49
0.1
 74
     0
 49
-0.1
 74
     0
  0
LTYPE
  5
1F7
330
5
100
AcDbSymbolTableRecord
100
AcDbLinetypeTableRecord
  2
PHANTOM
 70
     0
  3
_____ _ _ _____ _ _ _____ _ _ _____
 72
    65
 73
     6
 40
0.8
 49
0.45
 74
     0
 49
-0.05
 74
     0
 49
0.1
 74
     0
 49
-0.05
 74
     0
 49
0.1
 74
     0
 49
-0.05
 74
     0
  0
LTYPE
  5
1F8
330
5
100
AcDbSymbolTableRecord
100
AcDbLinetypeTableRecord
  2
DOT
 70
     0
  3
. . . . . . . . . . . . . . . . . . . .
 72
    65
 73
     2
 40
0.2
 49
0.1
 74
     0
 49
-0.1
 74
     0
  0
LTYPE
  5
1F9
330
5
100
AcDbSymbolTableRecord
100
AcDbLinetypeTableRecord
  2
DASHED
 70
     0
  3
- - - - - - - - - - - - - - - - - - - -
 72
    65
 73
     2
 40
0.2
 49
0.1
 74
     0
 49
-0.1
 74
     0
  0
ENDTAB
  0
TABLE
  2
LAYER
  5
2
102
{ACAD_XDICTIONARY
360
14BC
102
}
330
0
100
AcDbSymbolTable
 70
    45
  0
LAYER
  5
10
102
{ACAD_XDICTIONARY
360
4679
102
}
330
2
100
AcDbSymbolTableRecord
100
AcDbLayerTableRecord
  2
0
 70
     0
 62
     7
  6
CONTINUOUS
370
    -3
390
12CE
347
12E0
348
0
  0
LAYER
  5
1FA
102
{ACAD_XDICTIONARY
360
467B
102
}
330
2
100
AcDbSymbolTableRecord
100
AcDbLayerTableRecord
  2
DEFAULT_1
 70
     0
 62
     7
  6
CENTER
370
    -3
390
12CE
347
12E0
348
0
  0
LAYER
  5
1FB
102
{ACAD_XDICTIONARY
360
467D
102
}
330
2
100
AcDbSymbolTableRecord
100
AcDbLayerTableRecord
  2
DEFAULT_2
 70
     0
 62
     8
  6
HIDDEN
370
    -3
390
12CE
347
12E0
348
0
  0
LAYER
  5
1FC
102
{ACAD_XDICTIONARY
360
467F
102
}
330
2
100
AcDbSymbolTableRecord
100
AcDbLayerTableRecord
  2
DEFAULT_3
 70
     0
 62
     7
  6
PHANTOM
370
    -3
390
12CE
347
12E0
348
0
  0
LAYER
  5
1FD
102
{ACAD_XDICTIONARY
360
4681
102
}
330
2
100
AcDbSymbolTableRecord
100
AcDbLayerTableRecord
  2
01_ALL_DTM_PLN
 70
     0
 62
     7
  6
CONTINUOUS
370
    -3
390
12CE
347
12E0
348
0
  0
LAYER
  5
1FE
102
{ACAD_XDICTIONARY
360
4683
102
}
330
2
100
AcDbSymbolTableRecord
100
AcDbLayerTableRecord
  2
01__ASM_ALL_DTM_PLN
 70
     0
 62
     7
  6
CONTINUOUS
370
    -3
390
12CE
347
12E0
348
0
  0
LAYER
  5
1FF
102
{ACAD_XDICTIONARY
360
4685
102
}
330
2
100
AcDbSymbolTableRecord
100
AcDbLayerTableRecord
  2
01__ASM_DEF_DTM_PLN
 70
     0
 62
     7
  6
CONTINUOUS
370
    -3
390
12CE
347
12E0
348
0
  0
LAYER
  5
200
102
{ACAD_XDICTIONARY
360
4687
102
}
330
2
100
AcDbSymbolTableRecord
100
AcDbLayerTableRecord
  2
01___PRT_ALL_DTM_PLN
 70
     0
 62
     7
  6
CONTINUOUS
370
    -3
390
12CE
347
12E0
348
0
  0
LAYER
  5
201
102
{ACAD_XDICTIONARY
360
4689
102
}
330
2
100
AcDbSymbolTableRecord
100
AcDbLayerTableRecord
  2
01___PRT_DEF_DTM_PLN
 70
     0
 62
     7
  6
CONTINUOUS
370
    -3
390
12CE
347
12E0
348
0
  0
LAYER
  5
202
102
{ACAD_XDICTIONARY
360
468B
102
}
330
2
100
AcDbSymbolTableRecord
100
AcDbLayerTableRecord
  2
02_ALL_AXES
 70
     0
 62
     7
  6
CONTINUOUS
370
    -3
390
12CE
347
12E0
348
0
  0
LAYER
  5
203
102
{ACAD_XDICTIONARY
360
468D
102
}
330
2
100
AcDbSymbolTableRecord
100
AcDbLayerTableRecord
  2
02__ASM_ALL_AXES
 70
     0
 62
     7
  6
CONTINUOUS
370
    -3
390
12CE
347
12E0
348
0
  0
LAYER
  5
204
102
{ACAD_XDICTIONARY
360
468F
102
}
330
2
100
AcDbSymbolTableRecord
100
AcDbLayerTableRecord
  2
02___PRT_ALL_AXES
 70
     0
 62
     7
  6
CONTINUOUS
370
    -3
390
12CE
347
12E0
348
0
  0
LAYER
  5
205
102
{ACAD_XDICTIONARY
360
4691
102
}
330
2
100
AcDbSymbolTableRecord
100
AcDbLayerTableRecord
  2
03_ALL_CURVES
 70
     0
 62
     7
  6
CONTINUOUS
370
    -3
390
12CE
347
12E0
348
0
  0
LAYER
  5
206
102
{ACAD_XDICTIONARY
360
4693
102
}
330
2
100
AcDbSymbolTableRecord
100
AcDbLayerTableRecord
  2
03__ASM_ALL_CURVES
 70
     0
 62
     7
  6
CONTINUOUS
370
    -3
390
12CE
347
12E0
348
0
  0
LAYER
  5
207
102
{ACAD_XDICTIONARY
360
4695
102
}
330
2
100
AcDbSymbolTableRecord
100
AcDbLayerTableRecord
  2
03___PRT_ALL_CURVES
 70
     0
 62
     7
  6
CONTINUOUS
370
    -3
390
12CE
347
12E0
348
0
  0
LAYER
  5
208
102
{ACAD_XDICTIONARY
360
4697
102
}
330
2
100
AcDbSymbolTableRecord
100
AcDbLayerTableRecord
  2
04_ALL_DTM_PNT
 70
     0
 62
     7
  6
CONTINUOUS
370
    -3
390
12CE
347
12E0
348
0
  0
LAYER
  5
209
102
{ACAD_XDICTIONARY
360
4699
102
}
330
2
100
AcDbSymbolTableRecord
100
AcDbLayerTableRecord
  2
04__ASM_ALL_DTM_PNT
 70
     0
 62
     7
  6
CONTINUOUS
370
    -3
390
12CE
347
12E0
348
0
  0
LAYER
  5
20A
102
{ACAD_XDICTIONARY
360
469B
102
}
330
2
100
AcDbSymbolTableRecord
100
AcDbLayerTableRecord
  2
04___PRT_ALL_DTM_PNT
 70
     0
 62
     7
  6
CONTINUOUS
370
    -3
390
12CE
347
12E0
348
0
  0
LAYER
  5
20B
102
{ACAD_XDICTIONARY
360
469D
102
}
330
2
100
AcDbSymbolTableRecord
100
AcDbLayerTableRecord
  2
05_ALL_DTM_CSYS
 70
     0
 62
     7
  6
CONTINUOUS
370
    -3
390
12CE
347
12E0
348
0
  0
LAYER
  5
20C
102
{ACAD_XDICTIONARY
360
469F
102
}
330
2
100
AcDbSymbolTableRecord
100
AcDbLayerTableRecord
  2
05__ASM_ALL_DTM_CSYS
 70
     0
 62
     7
  6
CONTINUOUS
370
    -3
390
12CE
347
12E0
348
0
  0
LAYER
  5
20D
102
{ACAD_XDICTIONARY
360
46A1
102
}
330
2
100
AcDbSymbolTableRecord
100
AcDbLayerTableRecord
  2
05__ASM_DEF_DTM_CSYS
 70
     0
 62
     7
  6
CONTINUOUS
370
    -3
390
12CE
347
12E0
348
0
  0
LAYER
  5
20E
102
{ACAD_XDICTIONARY
360
46A3
102
}
330
2
100
AcDbSymbolTableRecord
100
AcDbLayerTableRecord
  2
05___PRT_ALL_DTM_CSYS
 70
     0
 62
     7
  6
CONTINUOUS
370
    -3
390
12CE
347
12E0
348
0
  0
LAYER
  5
20F
102
{ACAD_XDICTIONARY
360
46A5
102
}
330
2
100
AcDbSymbolTableRecord
100
AcDbLayerTableRecord
  2
05___PRT_DEF_DTM_CSYS
 70
     0
 62
     7
  6
CONTINUOUS
370
    -3
390
12CE
347
12E0
348
0
  0
LAYER
  5
210
102
{ACAD_XDICTIONARY
360
46A7
102
}
330
2
100
AcDbSymbolTableRecord
100
AcDbLayerTableRecord
  2
06_ALL_SURFS
 70
     0
 62
     7
  6
CONTINUOUS
370
    -3
390
12CE
347
12E0
348
0
  0
LAYER
  5
211
102
{ACAD_XDICTIONARY
360
46A9
102
}
330
2
100
AcDbSymbolTableRecord
100
AcDbLayerTableRecord
  2
06__ASM_ALL_SURFS
 70
     0
 62
     7
  6
CONTINUOUS
370
    -3
390
12CE
347
12E0
348
0
  0
LAYER
  5
212
102
{ACAD_XDICTIONARY
360
46AB
102
}
330
2
100
AcDbSymbolTableRecord
100
AcDbLayerTableRecord
  2
06___PRT_ALL_SURFS
 70
     0
 62
     7
  6
CONTINUOUS
370
    -3
390
12CE
347
12E0
348
0
  0
LAYER
  5
213
102
{ACAD_XDICTIONARY
360
46AD
102
}
330
2
100
AcDbSymbolTableRecord
100
AcDbLayerTableRecord
  2
07__ASM_ALL_SKELETONS
 70
     0
 62
     7
  6
CONTINUOUS
370
    -3
390
12CE
347
12E0
348
0
  0
LAYER
  5
214
102
{ACAD_XDICTIONARY
360
46AF
102
}
330
2
100
AcDbSymbolTableRecord
100
AcDbLayerTableRecord
  2
AXIS
 70
     0
 62
     7
  6
CONTINUOUS
370
    -3
390
12CE
347
12E0
348
0
  0
LAYER
  5
215
102
{ACAD_XDICTIONARY
360
46B1
102
}
330
2
100
AcDbSymbolTableRecord
100
AcDbLayerTableRecord
  2
CSYS
 70
     0
 62
     7
  6
CONTINUOUS
370
    -3
390
12CE
347
12E0
348
0
  0
LAYER
  5
216
102
{ACAD_XDICTIONARY
360
46B3
102
}
330
2
100
AcDbSymbolTableRecord
100
AcDbLayerTableRecord
  2
CURVE
 70
     0
 62
     7
  6
CONTINUOUS
370
    -3
390
12CE
347
12E0
348
0
  0
LAYER
  5
217
102
{ACAD_XDICTIONARY
360
46B5
102
}
330
2
100
AcDbSymbolTableRecord
100
AcDbLayerTableRecord
  2
DATUM
 70
     0
 62
     7
  6
CONTINUOUS
370
    -3
390
12CE
347
12E0
348
0
  0
LAYER
  5
218
102
{ACAD_XDICTIONARY
360
46B7
102
}
330
2
100
AcDbSymbolTableRecord
100
AcDbLayerTableRecord
  2
DRIVEN_DIM
 70
     0
 62
     7
  6
CONTINUOUS
370
    -3
390
12CE
347
12E0
348
0
  0
LAYER
  5
219
102
{ACAD_XDICTIONARY
360
46B9
102
}
330
2
100
AcDbSymbolTableRecord
100
AcDbLayerTableRecord
  2
LAY0001
 70
     0
 62
     7
  6
CONTINUOUS
370
    -3
390
12CE
347
12E0
348
0
  0
LAYER
  5
21A
102
{ACAD_XDICTIONARY
360
46BB
102
}
330
2
100
AcDbSymbolTableRecord
100
AcDbLayerTableRecord
  2
LAY0002
 70
     0
 62
     7
  6
CONTINUOUS
370
    -3
390
12CE
347
12E0
348
0
  0
LAYER
  5
21B
102
{ACAD_XDICTIONARY
360
46BD
102
}
330
2
100
AcDbSymbolTableRecord
100
AcDbLayerTableRecord
  2
PARAMETER_DIM
 70
     0
 62
     7
  6
CONTINUOUS
370
    -3
390
12CE
347
12E0
348
0
  0
LAYER
  5
21C
102
{ACAD_XDICTIONARY
360
46BF
102
}
330
2
100
AcDbSymbolTableRecord
100
AcDbLayerTableRecord
  2
QUILT
 70
     0
 62
     7
  6
CONTINUOUS
370
    -3
390
12CE
347
12E0
348
0
  0
LAYER
  5
21D
102
{ACAD_XDICTIONARY
360
46C1
102
}
330
2
100
AcDbSymbolTableRecord
100
AcDbLayerTableRecord
  2
SURFACE
 70
     0
 62
     7
  6
CONTINUOUS
370
    -3
390
12CE
347
12E0
348
0
  0
LAYER
  5
21E
102
{ACAD_XDICTIONARY
360
46C3
102
}
330
2
100
AcDbSymbolTableRecord
100
AcDbLayerTableRecord
  2
THREAD
 70
     0
 62
     7
  6
CONTINUOUS
370
    -3
390
12CE
347
12E0
348
0
  0
LAYER
  5
1A2D
330
2
100
AcDbSymbolTableRecord
100
AcDbLayerTableRecord
  2
Defpoints
 70
     0
 62
     7
  6
CONTINUOUS
290
     0
370
    -3
390
12CE
347
12E0
348
0
  0
LAYER
  5
2768
102
{ACAD_XDICTIONARY
360
46C5
102
}
330
2
100
AcDbSymbolTableRecord
100
AcDbLayerTableRecord
  2
CAXA4
 70
     0
 62
     3
  6
CONTINUOUS
370
    25
390
12CE
347
12E0
348
0
  0
LAYER
  5
2769
102
{ACAD_XDICTIONARY
360
46C7
102
}
330
2
100
AcDbSymbolTableRecord
100
AcDbLayerTableRecord
  2
CENTER
 70
     0
 62
     1
  6
CENTER
370
     9
390
12CE
347
12E0
348
0
  0
LAYER
  5
276A
102
{ACAD_XDICTIONARY
360
46C9
102
}
330
2
100
AcDbSymbolTableRecord
100
AcDbLayerTableRecord
  2
尺寸线层
 70
     0
 62
     3
  6
CONTINUOUS
370
    18
390
12CE
347
12E0
348
0
1001
AcAecLayerStandard
1000

1000
尺寸线层
1001
AcadStringInfo
1000
MIFCodePage
1070
     5
  0
LAYER
  5
276B
102
{ACAD_XDICTIONARY
360
46CB
102
}
330
2
100
AcDbSymbolTableRecord
100
AcDbLayerTableRecord
  2
EB0
 70
     0
 62
     7
  6
CONTINUOUS
370
    35
390
12CE
347
12E0
348
0
1001
AcAecLayerStandard
1000

1000
0层
  0
LAYER
  5
276C
102
{ACAD_XDICTIONARY
360
46CD
102
}
330
2
100
AcDbSymbolTableRecord
100
AcDbLayerTableRecord
  2
ACAD0
 70
     0
 62
     7
  6
CONTINUOUS
370
     0
390
12CE
347
12E0
348
0
1001
AcAecLayerStandard
1000

1000
0
  0
LAYER
  5
276D
102
{ACAD_XDICTIONARY
360
46CF
102
}
330
2
100
AcDbSymbolTableRecord
100
AcDbLayerTableRecord
  2
DIMENSION
 70
     0
 62
     3
  6
CONTINUOUS
370
     9
390
12CE
347
12E0
348
0
  0
ENDTAB
  0
TABLE
  2
STYLE
  5
3
330
0
100
AcDbSymbolTable
 70
     7
  0
STYLE
  5
11
330
3
100
AcDbSymbolTableRecord
100
AcDbTextStyleTableRecord
  2
STANDARD
 70
     0
 40
0.0
 41
1.0
 50
0.0
 71
     0
 42
0.2
  3
simfang.ttf
  4

1001
ACAD
1000
FangSong
1071
    34353
  0
STYLE
  5
21F
330
3
100
AcDbSymbolTableRecord
100
AcDbTextStyleTableRecord
  2
TEXTSTYLE_1
 70
     0
 40
0.0
 41
0.8
 50
0.0
 71
     0
 42
0.2
  3
gdt_____.ttf
  4

1001
ACAD
1000
gdt
1071
        2
  0
STYLE
  5
220
330
3
100
AcDbSymbolTableRecord
100
AcDbTextStyleTableRecord
  2
TEXTSTYLE_2
 70
     0
 40
0.0
 41
1.0
 50
0.0
 71
     0
 42
0.2
  3
simfang.ttf
  4

1001
ACAD
1000
FangSong
1071
    34353
  0
STYLE
  5
221
330
3
100
AcDbSymbolTableRecord
100
AcDbTextStyleTableRecord
  2
TEXTSTYLE_3
 70
     0
 40
0.0
 41
1.0
 50
0.0
 71
     0
 42
0.2
  3
simfang.ttf
  4

1001
ACAD
1000
FangSong
1071
    34353
  0
STYLE
  5
222
330
3
100
AcDbSymbolTableRecord
100
AcDbTextStyleTableRecord
  2
TEXTSTYLE_4
 70
     0
 40
0.0
 41
0.75
 50
0.0
 71
     0
 42
0.2
  3
gdt_____.ttf
  4

1001
ACAD
1000
gdt
1071
        2
  0
STYLE
  5
223
330
3
100
AcDbSymbolTableRecord
100
AcDbTextStyleTableRecord
  2
TEXTSTYLE_5
 70
     0
 40
0.0
 41
1.0
 50
0.0
 71
     0
 42
0.2
  3
shanno.ttf
  4

  0
STYLE
  5
14BA
330
3
100
AcDbSymbolTableRecord
100
AcDbTextStyleTableRecord
  2
机械
 70
     0
 40
0.0
 41
0.667
 50
0.0
 71
     0
 42
0.0
  3
simfang.ttf
  4

1001
ACAD
1000
FangSong
1071
    34353
1001
AcadStringInfo
1000
MIFCodePage
1070
     5
  0
ENDTAB
  0
TABLE
  2
VIEW
  5
6
330
0
100
AcDbSymbolTable
 70
     0
  0
ENDTAB
  0
TABLE
  2
UCS
  5
7
330
0
100
AcDbSymbolTable
 70
     0
  0
ENDTAB
  0
TABLE
  2
APPID
  5
9
330
0
100
AcDbSymbolTable
 70
     8
  0
APPID
  5
224
330
9
100
AcDbSymbolTableRecord
100
AcDbRegAppTableRecord
  2
ACAD
 70
     0
  0
APPID
  5
13EE
330
9
100
AcDbSymbolTableRecord
100
AcDbRegAppTableRecord
  2
ACAD_MLEADERVER
 70
     0
  0
APPID
  5
1460
330
9
100
AcDbSymbolTableRecord
100
AcDbRegAppTableRecord
  2
ACAD_EXEMPT_FROM_CAD_STANDARDS
 70
     0
  0
APPID
  5
14BB
330
9
100
AcDbSymbolTableRecord
100
AcDbRegAppTableRecord
  2
ACAD_PSEXT
 70
     0
  0
APPID
  5
276E
330
9
100
AcDbSymbolTableRecord
100
AcDbRegAppTableRecord
  2
CAXA_DRAFT_TXTSCALE
 70
     0
  0
APPID
  5
276F
330
9
100
AcDbSymbolTableRecord
100
AcDbRegAppTableRecord
  2
AcAecLayerStandard
 70
     0
  0
APPID
  5
466C
330
9
100
AcDbSymbolTableRecord
100
AcDbRegAppTableRecord
  2
AcadStringInfo
 70
     0
  0
APPID
  5
46D1
330
9
100
AcDbSymbolTableRecord
100
AcDbRegAppTableRecord
  2
ACAD_NAV_VCDISPLAY
 70
     0
  0
ENDTAB
  0
TABLE
  2
DIMSTYLE
  5
A
330
0
100
AcDbSymbolTable
 70
     3
100
AcDbDimStyleTable
 71
     1
340
245
  0
DIMSTYLE
105
245
330
A
100
AcDbSymbolTableRecord
100
AcDbDimStyleTableRecord
  2
STANDARD
 70
     0
 41
15.0
 42
1.0
 44
1.5
 47
0.01
 48
0.01
 71
     1
 73
     0
 74
     0
 77
     1
 78
     8
140
12.5
147
0.625
178
     2
271
     2
272
     2
284
     8
340
11
341
225
342
225
343
225
344
225
  0
DIMSTYLE
105
246
102
{ACAD_REACTORS
330
1C03
330
1C07
330
1C08
330
1C09
330
1C0A
102
}
330
A
100
AcDbSymbolTableRecord
100
AcDbDimStyleTableRecord
  2
DIMSTYLE_1
 70
     0
 41
15.0
 42
1.0
 44
1.5
 47
0.01
 48
0.01
 73
     0
 74
     0
 77
     1
 78
     8
140
12.5
147
0.625
178
     2
271
     2
272
     2
284
     8
340
11
341
225
342
225
343
225
344
225
  0
DIMSTYLE
105
247
102
{ACAD_REACTORS
330
1C04
330
1C05
330
1C06
102
}
330
A
100
AcDbSymbolTableRecord
100
AcDbDimStyleTableRecord
  2
DIMSTYLE_2
 70
     0
 41
15.0
 42
1.0
 44
1.5
 47
0.01
 48
0.01
 73
     0
 74
     0
 77
     1
 78
     8
140
12.5
147
0.625
178
     2
271
     0
272
     0
284
     8
340
11
341
225
342
225
343
225
344
225
  0
ENDTAB
  0
TABLE
  2
BLOCK_RECORD
  5
1
330
0
100
AcDbSymbolTable
 70
    39
  0
BLOCK_RECORD
  5
1F
102
{ACAD_XDICTIONARY
360
1342
102
}
330
1
100
AcDbSymbolTableRecord
100
AcDbBlockTableRecord
  2
*MODEL_SPACE
340
1315
 70
     0
280
     1
281
     0
  0
BLOCK_RECORD
  5
1B
102
{ACAD_XDICTIONARY
360
1340
102
}
330
1
100
AcDbSymbolTableRecord
100
AcDbBlockTableRecord
  2
*PAPER_SPACE
340
1316
 70
     0
280
     1
281
     0
  0
BLOCK_RECORD
  5
225
330
1
100
AcDbSymbolTableRecord
100
AcDbBlockTableRecord
  2
_ARROW_FILLED
340
0
102
{BLKREFS
331
1F2D
331
1F2E
331
1F37
331
1F38
331
1F40
331
1F41
331
1F49
331
1F4A
331
1F52
331
1F53
331
1F5B
331
1F5C
331
1EAC
331
1EAD
331
1EF6
331
1EF7
331
2BAE
331
2BAF
331
2BB8
331
2BB9
331
2BC2
331
2BC3
331
2BCB
331
2BCC
331
2BD4
331
2BD5
102
}
 70
     0
280
     1
281
     0
  0
BLOCK_RECORD
  5
22D
330
1
100
AcDbSymbolTableRecord
100
AcDbBlockTableRecord
  2
BALLOON_BL23
340
0
 70
     0
280
     1
281
     0
  0
BLOCK_RECORD
  5
22E
330
1
100
AcDbSymbolTableRecord
100
AcDbBlockTableRecord
  2
BALLOON_BL22
340
0
 70
     0
280
     1
281
     0
  0
BLOCK_RECORD
  5
22F
330
1
100
AcDbSymbolTableRecord
100
AcDbBlockTableRecord
  2
BALLOON_BL21
340
0
 70
     0
280
     1
281
     0
  0
BLOCK_RECORD
  5
230
330
1
100
AcDbSymbolTableRecord
100
AcDbBlockTableRecord
  2
BALLOON_BL20
340
0
 70
     0
280
     1
281
     0
  0
BLOCK_RECORD
  5
231
330
1
100
AcDbSymbolTableRecord
100
AcDbBlockTableRecord
  2
BALLOON_BL19
340
0
 70
     0
280
     1
281
     0
  0
BLOCK_RECORD
  5
232
330
1
100
AcDbSymbolTableRecord
100
AcDbBlockTableRecord
  2
BALLOON_BL18
340
0
 70
     0
280
     1
281
     0
  0
BLOCK_RECORD
  5
233
330
1
100
AcDbSymbolTableRecord
100
AcDbBlockTableRecord
  2
BALLOON_BL17
340
0
 70
     0
280
     1
281
     0
  0
BLOCK_RECORD
  5
234
330
1
100
AcDbSymbolTableRecord
100
AcDbBlockTableRecord
  2
BALLOON_BL16
340
0
 70
     0
280
     1
281
     0
  0
BLOCK_RECORD
  5
235
330
1
100
AcDbSymbolTableRecord
100
AcDbBlockTableRecord
  2
BALLOON_BL15
340
0
 70
     0
280
     1
281
     0
  0
BLOCK_RECORD
  5
236
330
1
100
AcDbSymbolTableRecord
100
AcDbBlockTableRecord
  2
BALLOON_BL14
340
0
 70
     0
280
     1
281
     0
  0
BLOCK_RECORD
  5
237
330
1
100
AcDbSymbolTableRecord
100
AcDbBlockTableRecord
  2
BALLOON_BL13
340
0
 70
     0
280
     1
281
     0
  0
BLOCK_RECORD
  5
238
330
1
100
AcDbSymbolTableRecord
100
AcDbBlockTableRecord
  2
BALLOON_BL12
340
0
 70
     0
280
     1
281
     0
  0
BLOCK_RECORD
  5
239
330
1
100
AcDbSymbolTableRecord
100
AcDbBlockTableRecord
  2
BALLOON_BL11
340
0
 70
     0
280
     1
281
     0
  0
BLOCK_RECORD
  5
23A
330
1
100
AcDbSymbolTableRecord
100
AcDbBlockTableRecord
  2
BALLOON_BL10
340
0
 70
     0
280
     1
281
     0
  0
BLOCK_RECORD
  5
23B
330
1
100
AcDbSymbolTableRecord
100
AcDbBlockTableRecord
  2
BALLOON_BL9
340
0
 70
     0
280
     1
281
     0
  0
BLOCK_RECORD
  5
23C
330
1
100
AcDbSymbolTableRecord
100
AcDbBlockTableRecord
  2
BALLOON_BL8
340
0
 70
     0
280
     1
281
     0
  0
BLOCK_RECORD
  5
23D
330
1
100
AcDbSymbolTableRecord
100
AcDbBlockTableRecord
  2
BALLOON_BL7
340
0
 70
     0
280
     1
281
     0
  0
BLOCK_RECORD
  5
23E
330
1
100
AcDbSymbolTableRecord
100
AcDbBlockTableRecord
  2
BALLOON_BL6
340
0
 70
     0
280
     1
281
     0
  0
BLOCK_RECORD
  5
23F
330
1
100
AcDbSymbolTableRecord
100
AcDbBlockTableRecord
  2
BALLOON_BL5
340
0
 70
     0
280
     1
281
     0
  0
BLOCK_RECORD
  5
240
330
1
100
AcDbSymbolTableRecord
100
AcDbBlockTableRecord
  2
BALLOON_BL4
340
0
 70
     0
280
     1
281
     0
  0
BLOCK_RECORD
  5
241
330
1
100
AcDbSymbolTableRecord
100
AcDbBlockTableRecord
  2
SYMBOL_3_BL3
340
0
 70
     0
280
     1
281
     0
  0
BLOCK_RECORD
  5
242
330
1
100
AcDbSymbolTableRecord
100
AcDbBlockTableRecord
  2
SYMBOL_2_BL2
340
0
 70
     0
280
     1
281
     0
  0
BLOCK_RECORD
  5
243
330
1
100
AcDbSymbolTableRecord
100
AcDbBlockTableRecord
  2
SYMBOL_1_BL1
340
0
 70
     0
280
     1
281
     0
  0
BLOCK_RECORD
  5
244
330
1
100
AcDbSymbolTableRecord
100
AcDbBlockTableRecord
  2
SYMBOL_0_BL0
340
0
 70
     0
280
     1
281
     0
  0
BLOCK_RECORD
  5
185C
330
1
100
AcDbSymbolTableRecord
100
AcDbBlockTableRecord
  2
SYMBOL_3_BL2
340
0
 70
     0
280
     1
281
     0
  0
BLOCK_RECORD
  5
1C8B
330
1
100
AcDbSymbolTableRecord
100
AcDbBlockTableRecord
  2
*D26
340
0
 70
     0
280
     1
281
     0
  0
BLOCK_RECORD
  5
1C97
330
1
100
AcDbSymbolTableRecord
100
AcDbBlockTableRecord
  2
*D27
340
0
 70
     0
280
     1
281
     0
  0
BLOCK_RECORD
  5
1CA3
330
1
100
AcDbSymbolTableRecord
100
AcDbBlockTableRecord
  2
*D28
340
0
 70
     0
280
     1
281
     0
  0
BLOCK_RECORD
  5
1CAF
330
1
100
AcDbSymbolTableRecord
100
AcDbBlockTableRecord
  2
*D29
340
0
 70
     0
280
     1
281
     0
  0
BLOCK_RECORD
  5
1CBB
330
1
100
AcDbSymbolTableRecord
100
AcDbBlockTableRecord
  2
*D30
340
0
 70
     0
280
     1
281
     0
  0
BLOCK_RECORD
  5
1CC7
330
1
100
AcDbSymbolTableRecord
100
AcDbBlockTableRecord
  2
*D31
340
0
 70
     0
280
     1
281
     0
  0
BLOCK_RECORD
  5
1CD3
330
1
100
AcDbSymbolTableRecord
100
AcDbBlockTableRecord
  2
*D32
340
0
 70
     0
280
     1
281
     0
  0
BLOCK_RECORD
  5
1CE0
330
1
100
AcDbSymbolTableRecord
100
AcDbBlockTableRecord
  2
*D33
340
0
 70
     0
280
     1
281
     0
  0
BLOCK_RECORD
  5
2AE3
330
1
100
AcDbSymbolTableRecord
100
AcDbBlockTableRecord
  2
*D34
340
0
 70
     0
280
     1
281
     0
  0
BLOCK_RECORD
  5
2AEF
330
1
100
AcDbSymbolTableRecord
100
AcDbBlockTableRecord
  2
*D35
340
0
 70
     0
280
     1
281
     0
  0
BLOCK_RECORD
  5
2AFC
330
1
100
AcDbSymbolTableRecord
100
AcDbBlockTableRecord
  2
*D36
340
0
 70
     0
280
     1
281
     0
  0
BLOCK_RECORD
  5
2B09
330
1
100
AcDbSymbolTableRecord
100
AcDbBlockTableRecord
  2
*D37
340
0
 70
     0
280
     1
281
     0
  0
BLOCK_RECORD
  5
2B15
330
1
100
AcDbSymbolTableRecord
100
AcDbBlockTableRecord
  2
*D38
340
0
 70
     0
280
     1
281
     0
  0
ENDTAB
  0
ENDSEC
  0
SECTION
  2
BLOCKS
  0
BLOCK
  5
20
330
1F
100
AcDbEntity
  8
0
100
AcDbBlockBegin
  2
*MODEL_SPACE
 70
     0
 10
0.0
 20
0.0
 30
0.0
  3
*MODEL_SPACE
  1

  0
ENDBLK
  5
21
330
1F
100
AcDbEntity
  8
0
100
AcDbBlockEnd
  0
BLOCK
  5
1C
330
1B
100
AcDbEntity
 67
     1
  8
0
100
AcDbBlockBegin
  2
*PAPER_SPACE
 70
     0
 10
0.0
 20
0.0
 30
0.0
  3
*PAPER_SPACE
  1

  0
ENDBLK
  5
1D
330
1B
100
AcDbEntity
 67
     1
  8
0
100
AcDbBlockEnd
  0
BLOCK
  5
41F
330
225
100
AcDbEntity
  8
0
100
AcDbBlockBegin
  2
_ARROW_FILLED
 70
     0
 10
0.0
 20
0.0
 30
0.0
  3
_ARROW_FILLED
  1

  0
SOLID
  5
420
330
225
100
AcDbEntity
  8
0
  6
ByBlock
 62
     0
100
AcDbTrace
 10
0.0
 20
0.0
 30
0.0
 11
-1.0
 21
0.1333333333
 31
0.0
 12
-1.0
 22
-0.1333333333
 32
0.0
 13
-1.0
 23
-0.1333333333
 33
0.0
  0
ENDBLK
  5
421
330
225
100
AcDbEntity
  8
0
  6
ByBlock
 62
     0
100
AcDbBlockEnd
  0
BLOCK
  5
248
330
22D
100
AcDbEntity
  8
0
  6
Continuous
 62
     2
100
AcDbBlockBegin
  2
BALLOON_BL23
 70
     0
 10
720.4815374257
 20
482.894501273
 30
0.0
  3
BALLOON_BL23
  1

  0
CIRCLE
  5
249
330
22D
100
AcDbEntity
  8
0
  6
Continuous
 62
     2
100
AcDbCircle
 10
720.4815374257
 20
482.894501273
 30
0.0
 40
12.5
  0
MTEXT
  5
24A
330
22D
100
AcDbEntity
  8
0
  6
Continuous
 62
     2
100
AcDbMText
 10
702.1221624257
 20
489.144501273
 30
0.0
 40
12.5
 41
36.71875
 46
0.0
 71
     1
 72
     1
  1
 12 
 73
     1
 44
1.0
  0
ENDBLK
  5
24B
330
22D
100
AcDbEntity
  8
0
  6
ByBlock
 62
     0
100
AcDbBlockEnd
  0
BLOCK
  5
24C
330
22E
100
AcDbEntity
  8
0
  6
Continuous
 62
     2
100
AcDbBlockBegin
  2
BALLOON_BL22
 70
     0
 10
718.4795062486
 20
517.2277311108
 30
0.0
  3
BALLOON_BL22
  1

  0
CIRCLE
  5
24D
330
22E
100
AcDbEntity
  8
0
  6
Continuous
 62
     2
100
AcDbCircle
 10
718.4795062486
 20
517.2277311108
 30
0.0
 40
12.5
  0
MTEXT
  5
24E
330
22E
100
AcDbEntity
  8
0
  6
Continuous
 62
     2
100
AcDbMText
 10
700.1201312486
 20
523.4777311108
 30
0.0
 40
12.5
 41
36.71875
 46
0.0
 71
     1
 72
     1
  1
 11 
 73
     1
 44
1.0
  0
ENDBLK
  5
24F
330
22E
100
AcDbEntity
  8
0
  6
ByBlock
 62
     0
100
AcDbBlockEnd
  0
BLOCK
  5
250
330
22F
100
AcDbEntity
  8
0
  6
Continuous
 62
     2
100
AcDbBlockBegin
  2
BALLOON_BL21
 70
     0
 10
646.4595372414
 20
663.3809305719999
 30
0.0
  3
BALLOON_BL21
  1

  0
CIRCLE
  5
251
330
22F
100
AcDbEntity
  8
0
  6
Continuous
 62
     2
100
AcDbCircle
 10
646.4595372414
 20
663.3809305719999
 30
0.0
 40
12.5
  0
MTEXT
  5
252
330
22F
100
AcDbEntity
  8
0
  6
Continuous
 62
     2
100
AcDbMText
 10
632.6900059914
 20
669.6309305719999
 30
0.0
 40
12.5
 41
27.5390625
 46
0.0
 71
     1
 72
     1
  1
 9 
 73
     1
 44
1.0
  0
ENDBLK
  5
253
330
22F
100
AcDbEntity
  8
0
  6
ByBlock
 62
     0
100
AcDbBlockEnd
  0
BLOCK
  5
254
330
230
100
AcDbEntity
  8
0
  6
Continuous
 62
     2
100
AcDbBlockBegin
  2
BALLOON_BL20
 70
     0
 10
646.4595372414
 20
691.2902639357001
 30
0.0
  3
BALLOON_BL20
  1

  0
CIRCLE
  5
255
330
230
100
AcDbEntity
  8
0
  6
Continuous
 62
     2
100
AcDbCircle
 10
646.4595372414
 20
691.2902639357001
 30
0.0
 40
12.5
  0
MTEXT
  5
256
330
230
100
AcDbEntity
  8
0
  6
Continuous
 62
     2
100
AcDbMText
 10
632.6900059914
 20
697.5402639357001
 30
0.0
 40
12.5
 41
27.5390625
 46
0.0
 71
     1
 72
     1
  1
 8 
 73
     1
 44
1.0
  0
ENDBLK
  5
257
330
230
100
AcDbEntity
  8
0
  6
ByBlock
 62
     0
100
AcDbBlockEnd
  0
BLOCK
  5
258
330
231
100
AcDbEntity
  8
0
  6
Continuous
 62
     2
100
AcDbBlockBegin
  2
BALLOON_BL19
 70
     0
 10
421.8880463942999
 20
877.8833692275
 30
0.0
  3
BALLOON_BL19
  1

  0
CIRCLE
  5
259
330
231
100
AcDbEntity
  8
0
  6
Continuous
 62
     2
100
AcDbCircle
 10
421.8880463942999
 20
877.8833692275
 30
0.0
 40
12.5
  0
MTEXT
  5
25A
330
231
100
AcDbEntity
  8
0
  6
Continuous
 62
     2
100
AcDbMText
 10
408.1185151442999
 20
884.1333692275
 30
0.0
 40
12.5
 41
27.5390625
 46
0.0
 71
     1
 72
     1
  1
 1 
 73
     1
 44
1.0
  0
ENDBLK
  5
25B
330
231
100
AcDbEntity
  8
0
  6
ByBlock
 62
     0
100
AcDbBlockEnd
  0
BLOCK
  5
25C
330
232
100
AcDbEntity
  8
0
  6
Continuous
 62
     2
100
AcDbBlockBegin
  2
BALLOON_BL18
 70
     0
 10
446.6830408445999
 20
856.3110444005999
 30
0.0
  3
BALLOON_BL18
  1

  0
CIRCLE
  5
25D
330
232
100
AcDbEntity
  8
0
  6
Continuous
 62
     2
100
AcDbCircle
 10
446.6830408445999
 20
856.3110444005999
 30
0.0
 40
12.5
  0
MTEXT
  5
25E
330
232
100
AcDbEntity
  8
0
  6
Continuous
 62
     2
100
AcDbMText
 10
432.9135095945999
 20
862.5610444005999
 30
0.0
 40
12.5
 41
27.5390625
 46
0.0
 71
     1
 72
     1
  1
 2 
 73
     1
 44
1.0
  0
ENDBLK
  5
25F
330
232
100
AcDbEntity
  8
0
  6
ByBlock
 62
     0
100
AcDbBlockEnd
  0
BLOCK
  5
260
330
233
100
AcDbEntity
  8
0
  6
Continuous
 62
     2
100
AcDbBlockBegin
  2
BALLOON_BL17
 70
     0
 10
646.4595372414
 20
400.459818688
 30
0.0
  3
BALLOON_BL17
  1

  0
CIRCLE
  5
261
330
233
100
AcDbEntity
  8
0
  6
Continuous
 62
     2
100
AcDbCircle
 10
646.4595372414
 20
400.459818688
 30
0.0
 40
12.5
  0
MTEXT
  5
262
330
233
100
AcDbEntity
  8
0
  6
Continuous
 62
     2
100
AcDbMText
 10
628.1001622414
 20
406.709818688
 30
0.0
 40
12.5
 41
36.71875
 46
0.0
 71
     1
 72
     1
  1
 14 
 73
     1
 44
1.0
  0
ENDBLK
  5
263
330
233
100
AcDbEntity
  8
0
  6
ByBlock
 62
     0
100
AcDbBlockEnd
  0
BLOCK
  5
264
330
234
100
AcDbEntity
  8
0
  6
Continuous
 62
     2
100
AcDbBlockBegin
  2
BALLOON_BL16
 70
     0
 10
646.4595372414
 20
235.6197272594
 30
0.0
  3
BALLOON_BL16
  1

  0
CIRCLE
  5
265
330
234
100
AcDbEntity
  8
0
  6
Continuous
 62
     2
100
AcDbCircle
 10
646.4595372414
 20
235.6197272594
 30
0.0
 40
12.5
  0
MTEXT
  5
266
330
234
100
AcDbEntity
  8
0
  6
Continuous
 62
     2
100
AcDbMText
 10
628.1001622414
 20
241.8697272594
 30
0.0
 40
12.5
 41
36.71875
 46
0.0
 71
     1
 72
     1
  1
 18 
 73
     1
 44
1.0
  0
ENDBLK
  5
267
330
234
100
AcDbEntity
  8
0
  6
ByBlock
 62
     0
100
AcDbBlockEnd
  0
BLOCK
  5
268
330
235
100
AcDbEntity
  8
0
  6
Continuous
 62
     2
100
AcDbBlockBegin
  2
BALLOON_BL15
 70
     0
 10
646.4595372414
 20
288.1466885697
 30
0.0
  3
BALLOON_BL15
  1

  0
CIRCLE
  5
269
330
235
100
AcDbEntity
  8
0
  6
Continuous
 62
     2
100
AcDbCircle
 10
646.4595372414
 20
288.1466885697
 30
0.0
 40
12.5
  0
MTEXT
  5
26A
330
235
100
AcDbEntity
  8
0
  6
Continuous
 62
     2
100
AcDbMText
 10
628.1001622414
 20
294.3966885697
 30
0.0
 40
12.5
 41
36.71875
 46
0.0
 71
     1
 72
     1
  1
 17 
 73
     1
 44
1.0
  0
ENDBLK
  5
26B
330
235
100
AcDbEntity
  8
0
  6
ByBlock
 62
     0
100
AcDbBlockEnd
  0
BLOCK
  5
26C
330
236
100
AcDbEntity
  8
0
  6
Continuous
 62
     2
100
AcDbBlockBegin
  2
BALLOON_BL14
 70
     0
 10
646.4595372414
 20
326.2536728594
 30
0.0
  3
BALLOON_BL14
  1

  0
CIRCLE
  5
26D
330
236
100
AcDbEntity
  8
0
  6
Continuous
 62
     2
100
AcDbCircle
 10
646.4595372414
 20
326.2536728594
 30
0.0
 40
12.5
  0
MTEXT
  5
26E
330
236
100
AcDbEntity
  8
0
  6
Continuous
 62
     2
100
AcDbMText
 10
628.1001622414
 20
332.5036728594
 30
0.0
 40
12.5
 41
36.71875
 46
0.0
 71
     1
 72
     1
  1
 16 
 73
     1
 44
1.0
  0
ENDBLK
  5
26F
330
236
100
AcDbEntity
  8
0
  6
ByBlock
 62
     0
100
AcDbBlockEnd
  0
BLOCK
  5
270
330
237
100
AcDbEntity
  8
0
  6
Continuous
 62
     2
100
AcDbBlockBegin
  2
BALLOON_BL13
 70
     0
 10
646.4595372414
 20
363.930244288
 30
0.0
  3
BALLOON_BL13
  1

  0
CIRCLE
  5
271
330
237
100
AcDbEntity
  8
0
  6
Continuous
 62
     2
100
AcDbCircle
 10
646.4595372414
 20
363.930244288
 30
0.0
 40
12.5
  0
MTEXT
  5
272
330
237
100
AcDbEntity
  8
0
  6
Continuous
 62
     2
100
AcDbMText
 10
628.1001622414
 20
370.180244288
 30
0.0
 40
12.5
 41
36.71875
 46
0.0
 71
     1
 72
     1
  1
 15 
 73
     1
 44
1.0
  0
ENDBLK
  5
273
330
237
100
AcDbEntity
  8
0
  6
ByBlock
 62
     0
100
AcDbBlockEnd
  0
BLOCK
  5
274
330
238
100
AcDbEntity
  8
0
  6
Continuous
 62
     2
100
AcDbBlockBegin
  2
BALLOON_BL12
 70
     0
 10
646.4595372414
 20
717.2495723086
 30
0.0
  3
BALLOON_BL12
  1

  0
CIRCLE
  5
275
330
238
100
AcDbEntity
  8
0
  6
Continuous
 62
     2
100
AcDbCircle
 10
646.4595372414
 20
717.2495723086
 30
0.0
 40
12.5
  0
MTEXT
  5
276
330
238
100
AcDbEntity
  8
0
  6
Continuous
 62
     2
100
AcDbMText
 10
632.6900059914
 20
723.4995723086
 30
0.0
 40
12.5
 41
27.5390625
 46
0.0
 71
     1
 72
     1
  1
 8 
 73
     1
 44
1.0
  0
ENDBLK
  5
277
330
238
100
AcDbEntity
  8
0
  6
ByBlock
 62
     0
100
AcDbBlockEnd
  0
BLOCK
  5
278
330
239
100
AcDbEntity
  8
0
  6
Continuous
 62
     2
100
AcDbBlockBegin
  2
BALLOON_BL11
 70
     0
 10
646.4595372414
 20
889.6133199451
 30
0.0
  3
BALLOON_BL11
  1

  0
CIRCLE
  5
279
330
239
100
AcDbEntity
  8
0
  6
Continuous
 62
     2
100
AcDbCircle
 10
646.4595372414
 20
889.6133199451
 30
0.0
 40
12.5
  0
MTEXT
  5
27A
330
239
100
AcDbEntity
  8
0
  6
Continuous
 62
     2
100
AcDbMText
 10
632.6900059914
 20
895.8633199451
 30
0.0
 40
12.5
 41
27.5390625
 46
0.0
 71
     1
 72
     1
  1
 3 
 73
     1
 44
1.0
  0
ENDBLK
  5
27B
330
239
100
AcDbEntity
  8
0
  6
ByBlock
 62
     0
100
AcDbBlockEnd
  0
BLOCK
  5
27C
330
23A
100
AcDbEntity
  8
0
  6
Continuous
 62
     2
100
AcDbBlockBegin
  2
BALLOON_BL10
 70
     0
 10
646.4595372414
 20
846.8249542307999
 30
0.0
  3
BALLOON_BL10
  1

  0
CIRCLE
  5
27D
330
23A
100
AcDbEntity
  8
0
  6
Continuous
 62
     2
100
AcDbCircle
 10
646.4595372414
 20
846.8249542307999
 30
0.0
 40
12.5
  0
MTEXT
  5
27E
330
23A
100
AcDbEntity
  8
0
  6
Continuous
 62
     2
100
AcDbMText
 10
632.6900059914
 20
853.0749542307999
 30
0.0
 40
12.5
 41
27.5390625
 46
0.0
 71
     1
 72
     1
  1
 4 
 73
     1
 44
1.0
  0
ENDBLK
  5
27F
330
23A
100
AcDbEntity
  8
0
  6
ByBlock
 62
     0
100
AcDbBlockEnd
  0
BLOCK
  5
280
330
23B
100
AcDbEntity
  8
0
  6
Continuous
 62
     2
100
AcDbBlockBegin
  2
BALLOON_BL9
 70
     0
 10
646.4595372414
 20
810.3917556353
 30
0.0
  3
BALLOON_BL9
  1

  0
CIRCLE
  5
281
330
23B
100
AcDbEntity
  8
0
  6
Continuous
 62
     2
100
AcDbCircle
 10
646.4595372414
 20
810.3917556353
 30
0.0
 40
12.5
  0
MTEXT
  5
282
330
23B
100
AcDbEntity
  8
0
  6
Continuous
 62
     2
100
AcDbMText
 10
632.6900059914
 20
816.6417556353
 30
0.0
 40
12.5
 41
27.5390625
 46
0.0
 71
     1
 72
     1
  1
 5 
 73
     1
 44
1.0
  0
ENDBLK
  5
283
330
23B
100
AcDbEntity
  8
0
  6
ByBlock
 62
     0
100
AcDbBlockEnd
  0
BLOCK
  5
284
330
23C
100
AcDbEntity
  8
0
  6
Continuous
 62
     2
100
AcDbBlockBegin
  2
BALLOON_BL8
 70
     0
 10
646.4595372414
 20
744.2986586753
 30
0.0
  3
BALLOON_BL8
  1

  0
CIRCLE
  5
285
330
23C
100
AcDbEntity
  8
0
  6
Continuous
 62
     2
100
AcDbCircle
 10
646.4595372414
 20
744.2986586753
 30
0.0
 40
12.5
  0
MTEXT
  5
286
330
23C
100
AcDbEntity
  8
0
  6
Continuous
 62
     2
100
AcDbMText
 10
632.6900059914
 20
750.5486586753
 30
0.0
 40
12.5
 41
27.5390625
 46
0.0
 71
     1
 72
     1
  1
 7 
 73
     1
 44
1.0
  0
ENDBLK
  5
287
330
23C
100
AcDbEntity
  8
0
  6
ByBlock
 62
     0
100
AcDbBlockEnd
  0
BLOCK
  5
288
330
23D
100
AcDbEntity
  8
0
  6
Continuous
 62
     2
100
AcDbBlockBegin
  2
BALLOON_BL7
 70
     0
 10
646.4595372414
 20
433.2879269233999
 30
0.0
  3
BALLOON_BL7
  1

  0
CIRCLE
  5
289
330
23D
100
AcDbEntity
  8
0
  6
Continuous
 62
     2
100
AcDbCircle
 10
646.4595372414
 20
433.2879269233999
 30
0.0
 40
12.5
  0
MTEXT
  5
28A
330
23D
100
AcDbEntity
  8
0
  6
Continuous
 62
     2
100
AcDbMText
 10
628.1001622414
 20
439.5379269233999
 30
0.0
 40
12.5
 41
36.71875
 46
0.0
 71
     1
 72
     1
  1
 13 
 73
     1
 44
1.0
  0
ENDBLK
  5
28B
330
23D
100
AcDbEntity
  8
0
  6
ByBlock
 62
     0
100
AcDbBlockEnd
  0
BLOCK
  5
28C
330
23E
100
AcDbEntity
  8
0
  6
Continuous
 62
     2
100
AcDbBlockBegin
  2
BALLOON_BL6
 70
     0
 10
646.4595372414
 20
777.405565888
 30
0.0
  3
BALLOON_BL6
  1

  0
CIRCLE
  5
28D
330
23E
100
AcDbEntity
  8
0
  6
Continuous
 62
     2
100
AcDbCircle
 10
646.4595372414
 20
777.405565888
 30
0.0
 40
12.5
  0
MTEXT
  5
28E
330
23E
100
AcDbEntity
  8
0
  6
Continuous
 62
     2
100
AcDbMText
 10
632.6900059914
 20
783.655565888
 30
0.0
 40
12.5
 41
27.5390625
 46
0.0
 71
     1
 72
     1
  1
 6 
 73
     1
 44
1.0
  0
ENDBLK
  5
28F
330
23E
100
AcDbEntity
  8
0
  6
ByBlock
 62
     0
100
AcDbBlockEnd
  0
BLOCK
  5
290
330
23F
100
AcDbEntity
  8
0
  6
Continuous
 62
     2
100
AcDbBlockBegin
  2
BALLOON_BL5
 70
     0
 10
339.8037722731
 20
624.2449334947
 30
0.0
  3
BALLOON_BL5
  1

  0
CIRCLE
  5
291
330
23F
100
AcDbEntity
  8
0
  6
Continuous
 62
     2
100
AcDbCircle
 10
339.8037722731
 20
624.2449334947
 30
0.0
 40
12.5
  0
MTEXT
  5
292
330
23F
100
AcDbEntity
  8
0
  6
Continuous
 62
     2
100
AcDbMText
 10
321.4443972731
 20
630.4949334947
 30
0.0
 40
12.5
 41
36.71875
 46
0.0
 71
     1
 72
     1
  1
 19 
 73
     1
 44
1.0
  0
ENDBLK
  5
293
330
23F
100
AcDbEntity
  8
0
  6
ByBlock
 62
     0
100
AcDbBlockEnd
  0
BLOCK
  5
294
330
240
100
AcDbEntity
  8
0
  6
Continuous
 62
     2
100
AcDbBlockBegin
  2
BALLOON_BL4
 70
     0
 10
720.4815374257
 20
615.0846054101999
 30
0.0
  3
BALLOON_BL4
  1

  0
CIRCLE
  5
295
330
240
100
AcDbEntity
  8
0
  6
Continuous
 62
     2
100
AcDbCircle
 10
720.4815374257
 20
615.0846054101999
 30
0.0
 40
12.5
  0
MTEXT
  5
296
330
240
100
AcDbEntity
  8
0
  6
Continuous
 62
     2
100
AcDbMText
 10
702.1221624257
 20
621.3346054101999
 30
0.0
 40
12.5
 41
36.71875
 46
0.0
 71
     1
 72
     1
  1
 10 
 73
     1
 44
1.0
  0
ENDBLK
  5
297
330
240
100
AcDbEntity
  8
0
  6
ByBlock
 62
     0
100
AcDbBlockEnd
  0
BLOCK
  5
298
330
241
100
AcDbEntity
  8
0
  6
Continuous
 62
     2
100
AcDbBlockBegin
  2
SYMBOL_3_BL3
 70
     0
 10
1183.210262345
 20
154.1487671632
 30
0.0
  3
SYMBOL_3_BL3
  1

  0
LINE
  5
299
330
241
100
AcDbEntity
  8
0
  6
Continuous
 62
     2
100
AcDbLine
 10
1161.3644606255
 20
174.1487671632
 30
0.0
 11
1173.2075338933
 21
174.1487671632
 31
0.0
  0
LINE
  5
29A
330
241
100
AcDbEntity
  8
0
  6
Continuous
 62
     2
100
AcDbLine
 10
1161.3644606255
 20
174.1487671632
 30
0.0
 11
1173.2075338933
 21
174.1487671632
 31
0.0
  0
LINE
  5
29B
330
241
100
AcDbEntity
  8
0
  6
Continuous
 62
     2
100
AcDbLine
 10
1205.0560640645
 20
174.1487671632
 30
0.0
 11
1205.0560640645
 21
134.1487671632
 31
0.0
  0
LINE
  5
29C
330
241
100
AcDbEntity
  8
0
  6
Continuous
 62
     2
100
AcDbLine
 10
1205.0560640645
 20
134.1487671632
 30
0.0
 11
1193.8599983277
 21
134.1487671632
 31
0.0
  0
LINE
  5
29D
330
241
100
AcDbEntity
  8
0
  6
Continuous
 62
     2
100
AcDbLine
 10
1161.3644606255
 20
134.1487671632
 30
0.0
 11
1161.3644606255
 21
174.1487671632
 31
0.0
  0
LINE
  5
29E
330
241
100
AcDbEntity
  8
0
  6
Continuous
 62
     2
100
AcDbLine
 10
1183.6523145637
 20
161.1017759367
 30
0.0
 11
1194.0970952341
 21
174.1487671632
 31
0.0
  0
CIRCLE
  5
29F
330
241
100
AcDbEntity
  8
0
  6
Continuous
 62
     2
100
AcDbCircle
 10
1173.0728243838
 20
162.0252952834
 30
0.0
 40
3.7316469672
  0
LINE
  5
2A0
330
241
100
AcDbEntity
  8
0
  6
Continuous
 62
     2
100
AcDbLine
 10
1193.8599983277
 20
154.8037601768
 30
0.0
 11
1189.0295764502
 21
154.8037601768
 31
0.0
  0
LINE
  5
2A1
330
241
100
AcDbEntity
  8
0
  6
Continuous
 62
     2
100
AcDbLine
 10
1193.8599983277
 20
134.1487671632
 30
0.0
 11
1193.8599983277
 21
154.8037601768
 31
0.0
  0
LINE
  5
2A2
330
241
100
AcDbEntity
  8
0
  6
Continuous
 62
     2
100
AcDbLine
 10
1189.0295764502
 20
134.1487671632
 30
0.0
 11
1189.0295764502
 21
154.8037601768
 31
0.0
  0
LINE
  5
2A3
330
241
100
AcDbEntity
  8
0
  6
Continuous
 62
     2
100
AcDbLine
 10
1173.0800715128
 20
134.1487671632
 30
0.0
 11
1173.0800715128
 21
154.8037601768
 31
0.0
  0
LINE
  5
2A4
330
241
100
AcDbEntity
  8
0
  6
Continuous
 62
     2
100
AcDbLine
 10
1178.2750526772
 20
134.1487671632
 30
0.0
 11
1178.2750526772
 21
154.8037601768
 31
0.0
  0
LINE
  5
2A5
330
241
100
AcDbEntity
  8
0
  6
Continuous
 62
     2
100
AcDbLine
 10
1183.6523145637
 20
154.8037601768
 30
0.0
 11
1183.6523145637
 21
161.1017759367
 31
0.0
  0
LINE
  5
2A6
330
241
100
AcDbEntity
  8
0
  6
Continuous
 62
     2
100
AcDbLine
 10
1183.6523145637
 20
161.1017759367
 30
0.0
 11
1173.2075338933
 21
174.1487671632
 31
0.0
  0
LINE
  5
2A7
330
241
100
AcDbEntity
  8
0
  6
Continuous
 62
     2
100
AcDbLine
 10
1173.0800715128
 20
134.1487671632
 30
0.0
 11
1161.3644606255
 21
134.1487671632
 31
0.0
  0
LINE
  5
2A8
330
241
100
AcDbEntity
  8
0
  6
Continuous
 62
     2
100
AcDbLine
 10
1194.0970952341
 20
174.1487671632
 30
0.0
 11
1205.0560640645
 21
174.1487671632
 31
0.0
  0
LINE
  5
2A9
330
241
100
AcDbEntity
  8
0
  6
Continuous
 62
     2
100
AcDbLine
 10
1183.6523145637
 20
154.8037601768
 30
0.0
 11
1173.0800715128
 21
154.8037601768
 31
0.0
  0
LINE
  5
2AA
330
241
100
AcDbEntity
  8
0
  6
Continuous
 62
     2
100
AcDbLine
 10
1189.0295764502
 20
134.1487671632
 30
0.0
 11
1178.2750526772
 21
134.1487671632
 31
0.0
  0
LINE
  5
2AB
330
241
100
AcDbEntity
  8
0
  6
Continuous
 62
     2
100
AcDbLine
 10
1174.604875954
 20
172.4032915824
 30
0.0
 11
1172.8594003732
 21
174.1487671632
 31
0.0
  0
LINE
  5
2AC
330
241
100
AcDbEntity
  8
0
  6
Continuous
 62
     2
100
AcDbLine
 10
1176.175580513
 20
170.4412620055
 30
0.0
 11
1172.4680753552
 21
174.1487671632
 31
0.0
  0
LINE
  5
2AD
330
241
100
AcDbEntity
  8
0
  6
Continuous
 62
     2
100
AcDbLine
 10
1177.7462850719
 20
168.4792324286
 30
0.0
 11
1172.0767503373
 21
174.1487671632
 31
0.0
  0
LINE
  5
2AE
330
241
100
AcDbEntity
  8
0
  6
Continuous
 62
     2
100
AcDbLine
 10
1179.3169896308
 20
166.5172028516
 30
0.0
 11
1171.6854253193
 21
174.1487671632
 31
0.0
  0
LINE
  5
2AF
330
241
100
AcDbEntity
  8
0
  6
Continuous
 62
     2
100
AcDbLine
 10
1180.8876941897
 20
164.5551732747
 30
0.0
 11
1171.2941003013
 21
174.1487671632
 31
0.0
  0
LINE
  5
2B0
330
241
100
AcDbEntity
  8
0
  6
Continuous
 62
     2
100
AcDbLine
 10
1182.4583987487
 20
162.5931436978
 30
0.0
 11
1170.9027752833
 21
174.1487671632
 31
0.0
  0
LINE
  5
2B1
330
241
100
AcDbEntity
  8
0
  6
Continuous
 62
     2
100
AcDbLine
 10
1183.6523145637
 20
161.0079028648
 30
0.0
 11
1170.5114502653
 21
174.1487671632
 31
0.0
  0
LINE
  5
2B2
330
241
100
AcDbEntity
  8
0
  6
Continuous
 62
     2
100
AcDbLine
 10
1183.6523145637
 20
160.6165778468
 30
0.0
 11
1170.1201252473
 21
174.1487671632
 31
0.0
  0
LINE
  5
2B3
330
241
100
AcDbEntity
  8
0
  6
Continuous
 62
     2
100
AcDbLine
 10
1183.6523145637
 20
160.2252528288
 30
0.0
 11
1169.7288002293
 21
174.1487671632
 31
0.0
  0
LINE
  5
2B4
330
241
100
AcDbEntity
  8
0
  6
Continuous
 62
     2
100
AcDbLine
 10
1183.6523145637
 20
159.8339278108
 30
0.0
 11
1169.3374752113
 21
174.1487671632
 31
0.0
  0
LINE
  5
2B5
330
241
100
AcDbEntity
  8
0
  6
Continuous
 62
     2
100
AcDbLine
 10
1183.6523145637
 20
159.4426027929
 30
0.0
 11
1168.9461501933
 21
174.1487671632
 31
0.0
  0
LINE
  5
2B6
330
241
100
AcDbEntity
  8
0
  6
Continuous
 62
     2
100
AcDbLine
 10
1183.6523145637
 20
159.0512777749
 30
0.0
 11
1168.5548251754
 21
174.1487671632
 31
0.0
  0
LINE
  5
2B7
330
241
100
AcDbEntity
  8
0
  6
Continuous
 62
     2
100
AcDbLine
 10
1183.6523145637
 20
158.6599527569
 30
0.0
 11
1168.1635001574
 21
174.1487671632
 31
0.0
  0
LINE
  5
2B8
330
241
100
AcDbEntity
  8
0
  6
Continuous
 62
     2
100
AcDbLine
 10
1183.6523145637
 20
158.2686277389
 30
0.0
 11
1167.7721751394
 21
174.1487671632
 31
0.0
  0
LINE
  5
2B9
330
241
100
AcDbEntity
  8
0
  6
Continuous
 62
     2
100
AcDbLine
 10
1183.6523145637
 20
157.8773027209
 30
0.0
 11
1167.3808501214
 21
174.1487671632
 31
0.0
  0
LINE
  5
2BA
330
241
100
AcDbEntity
  8
0
  6
Continuous
 62
     2
100
AcDbLine
 10
1183.6523145637
 20
157.4859777029
 30
0.0
 11
1166.9895251034
 21
174.1487671632
 31
0.0
  0
LINE
  5
2BB
330
241
100
AcDbEntity
  8
0
  6
Continuous
 62
     2
100
AcDbLine
 10
1183.6523145637
 20
157.0946526849
 30
0.0
 11
1166.5982000854
 21
174.1487671632
 31
0.0
  0
LINE
  5
2BC
330
241
100
AcDbEntity
  8
0
  6
Continuous
 62
     2
100
AcDbLine
 10
1183.6523145637
 20
156.7033276669
 30
0.0
 11
1175.9265984266
 21
164.429043804
 31
0.0
  0
LINE
  5
2BD
330
241
100
AcDbEntity
  8
0
  6
Continuous
 62
     2
100
AcDbLine
 10
1175.4975842107
 20
164.8580580199
 30
0.0
 11
1166.2068750674
 21
174.1487671632
 31
0.0
  0
LINE
  5
2BE
330
241
100
AcDbEntity
  8
0
  6
Continuous
 62
     2
100
AcDbLine
 10
1183.6523145637
 20
156.3120026489
 30
0.0
 11
1176.5218456609
 21
163.4424715517
 31
0.0
  0
LINE
  5
2BF
330
241
100
AcDbEntity
  8
0
  6
Continuous
 62
     2
100
AcDbLine
 10
1174.4959380887
 20
165.4683791239
 30
0.0
 11
1165.8155500494
 21
174.1487671632
 31
0.0
  0
LINE
  5
2C0
330
241
100
AcDbEntity
  8
0
  6
Continuous
 62
     2
100
AcDbLine
 10
1183.6523145637
 20
155.920677631
 30
0.0
 11
1176.7021233905
 21
162.8708688042
 31
0.0
  0
LINE
  5
2C1
330
241
100
AcDbEntity
  8
0
  6
Continuous
 62
     2
100
AcDbLine
 10
1173.9220863874
 20
165.6509058072
 30
0.0
 11
1165.4242250314
 21
174.1487671632
 31
0.0
  0
LINE
  5
2C2
330
241
100
AcDbEntity
  8
0
  6
Continuous
 62
     2
100
AcDbLine
 10
1183.6523145637
 20
155.529352613
 30
0.0
 11
1176.7859273321
 21
162.3957398446
 31
0.0
  0
LINE
  5
2C3
330
241
100
AcDbEntity
  8
0
  6
Continuous
 62
     2
100
AcDbLine
 10
1173.4477312215
 20
165.7339359552
 30
0.0
 11
1165.0329000135
 21
174.1487671632
 31
0.0
  0
LINE
  5
2C4
330
241
100
AcDbEntity
  8
0
  6
Continuous
 62
     2
100
AcDbLine
 10
1183.6523145637
 20
155.138027595
 30
0.0
 11
1176.795807223
 21
161.9945349357
 31
0.0
  0
LINE
  5
2C5
330
241
100
AcDbEntity
  8
0
  6
Continuous
 62
     2
100
AcDbLine
 10
1173.039267424
 20
165.7510747346
 30
0.0
 11
1164.6415749955
 21
174.1487671632
 31
0.0
  0
LINE
  5
2C6
330
241
100
AcDbEntity
  8
0
  6
Continuous
 62
     2
100
AcDbLine
 10
1183.5952569639
 20
154.8037601768
 30
0.0
 11
1176.7730584274
 21
161.6259587132
 31
0.0
  0
LINE
  5
2C7
330
241
100
AcDbEntity
  8
0
  6
Continuous
 62
     2
100
AcDbLine
 10
1172.6740513184
 20
165.7249658223
 30
0.0
 11
1164.2502499775
 21
174.1487671632
 31
0.0
  0
LINE
  5
2C8
330
241
100
AcDbEntity
  8
0
  6
Continuous
 62
     2
100
AcDbLine
 10
1183.2039319459
 20
154.8037601768
 30
0.0
 11
1176.728921796
 21
161.2787703267
 31
0.0
  0
LINE
  5
2C9
330
241
100
AcDbEntity
  8
0
  6
Continuous
 62
     2
100
AcDbLine
 10
1172.3297923736
 20
165.6778997491
 30
0.0
 11
1163.8589249595
 21
174.1487671632
 31
0.0
  0
LINE
  5
2CA
330
241
100
AcDbEntity
  8
0
  6
Continuous
 62
     2
100
AcDbLine
 10
1182.8126069279
 20
154.8037601768
 30
0.0
 11
1176.642491829
 21
160.9738752757
 31
0.0
  0
LINE
  5
2CB
330
241
100
AcDbEntity
  8
0
  6
Continuous
 62
     2
100
AcDbLine
 10
1172.020409984
 20
165.5959571207
 30
0.0
 11
1163.4675999415
 21
174.1487671632
 31
0.0
  0
LINE
  5
2CC
330
241
100
AcDbEntity
  8
0
  6
Continuous
 62
     2
100
AcDbLine
 10
1182.4212819099
 20
154.8037601768
 30
0.0
 11
1176.5476283321
 21
160.6774137546
 31
0.0
  0
LINE
  5
2CD
330
241
100
AcDbEntity
  8
0
  6
Continuous
 62
     2
100
AcDbLine
 10
1171.7272948223
 20
165.4977472644
 30
0.0
 11
1163.0762749235
 21
174.1487671632
 31
0.0
  0
LINE
  5
2CE
330
241
100
AcDbEntity
  8
0
  6
Continuous
 62
     2
100
AcDbLine
 10
1182.0299568919
 20
154.8037601768
 30
0.0
 11
1176.4253338395
 21
160.4083832292
 31
0.0
  0
LINE
  5
2CF
330
241
100
AcDbEntity
  8
0
  6
Continuous
 62
     2
100
AcDbLine
 10
1171.4543746423
 20
165.3793424265
 30
0.0
 11
1162.6849499055
 21
174.1487671632
 31
0.0
  0
LINE
  5
2D0
330
241
100
AcDbEntity
  8
0
  6
Continuous
 62
     2
100
AcDbLine
 10
1181.6386318739
 20
154.8037601768
 30
0.0
 11
1176.2922372841
 21
160.1501547667
 31
0.0
  0
LINE
  5
2D1
330
241
100
AcDbEntity
  8
0
  6
Continuous
 62
     2
100
AcDbLine
 10
1171.1996023216
 20
165.2427897292
 30
0.0
 11
1162.2936248875
 21
174.1487671632
 31
0.0
  0
LINE
  5
2D2
330
241
100
AcDbEntity
  8
0
  6
Continuous
 62
     2
100
AcDbLine
 10
1181.2473068559
 20
154.8037601768
 30
0.0
 11
1176.1379356949
 21
159.9131313378
 31
0.0
  0
LINE
  5
2D3
330
241
100
AcDbEntity
  8
0
  6
Continuous
 62
     2
100
AcDbLine
 10
1170.959026466
 20
165.0920405667
 30
0.0
 11
1161.9022998695
 21
174.1487671632
 31
0.0
  0
LINE
  5
2D4
330
241
100
AcDbEntity
  8
0
  6
Continuous
 62
     2
100
AcDbLine
 10
1180.8559818379
 20
154.8037601768
 30
0.0
 11
1175.9729883609
 21
159.6867536538
 31
0.0
  0
LINE
  5
2D5
330
241
100
AcDbEntity
  8
0
  6
Continuous
 62
     2
100
AcDbLine
 10
1170.7361229848
 20
164.92361903
 30
0.0
 11
1161.5109748516
 21
174.1487671632
 31
0.0
  0
LINE
  5
2D6
330
241
100
AcDbEntity
  8
0
  6
Continuous
 62
     2
100
AcDbLine
 10
1180.46465682
 20
154.8037601768
 30
0.0
 11
1175.7886670182
 21
159.4797499785
 31
0.0
  0
LINE
  5
2D7
330
241
100
AcDbEntity
  8
0
  6
Continuous
 62
     2
100
AcDbLine
 10
1170.525716483
 20
164.7427005137
 30
0.0
 11
1161.3644606255
 21
173.9039563712
 31
0.0
  0
LINE
  5
2D8
330
241
100
AcDbEntity
  8
0
  6
Continuous
 62
     2
100
AcDbLine
 10
1180.073331802
 20
154.8037601768
 30
0.0
 11
1175.5945722594
 21
159.2825197193
 31
0.0
  0
LINE
  5
2D9
330
241
100
AcDbEntity
  8
0
  6
Continuous
 62
     2
100
AcDbLine
 10
1170.3300433669
 20
164.5470486118
 30
0.0
 11
1161.3644606255
 21
173.5126313532
 31
0.0
  0
LINE
  5
2DA
330
241
100
AcDbEntity
  8
0
  6
Continuous
 62
     2
100
AcDbLine
 10
1179.682006784
 20
154.8037601768
 30
0.0
 11
1175.3807540395
 21
159.1050129212
 31
0.0
  0
LINE
  5
2DB
330
241
100
AcDbEntity
  8
0
  6
Continuous
 62
     2
100
AcDbLine
 10
1170.1458994493
 20
164.3398675114999
 30
0.0
 11
1161.3644606255
 21
173.1213063353
 31
0.0
  0
LINE
  5
2DC
330
241
100
AcDbEntity
  8
0
  6
Continuous
 62
     2
100
AcDbLine
 10
1179.290681766
 20
154.8037601768
 30
0.0
 11
1175.1574300934
 21
158.9370118494
 31
0.0
  0
LINE
  5
2DD
330
241
100
AcDbEntity
  8
0
  6
Continuous
 62
     2
100
AcDbLine
 10
1169.9880713448
 20
164.106370598
 30
0.0
 11
1161.3644606255
 21
172.7299813173
 31
0.0
  0
LINE
  5
2DE
330
241
100
AcDbEntity
  8
0
  6
Continuous
 62
     2
100
AcDbLine
 10
1178.899356748
 20
154.8037601768
 30
0.0
 11
1174.9132734586
 21
158.7898434662
 31
0.0
  0
LINE
  5
2DF
330
241
100
AcDbEntity
  8
0
  6
Continuous
 62
     2
100
AcDbLine
 10
1169.8307779947
 20
163.8723389301
 30
0.0
 11
1161.3644606255
 21
172.3386562993
 31
0.0
  0
LINE
  5
2E0
330
241
100
AcDbEntity
  8
0
  6
Continuous
 62
     2
100
AcDbLine
 10
1178.50803173
 20
154.8037601768
 30
0.0
 11
1174.6577951053
 21
158.6539968015
 31
0.0
  0
LINE
  5
2E1
330
241
100
AcDbEntity
  8
0
  6
Continuous
 62
     2
100
AcDbLine
 10
1169.704644032
 20
163.6071478748
 30
0.0
 11
1161.3644606255
 21
171.9473312813
 31
0.0
  0
LINE
  5
2E2
330
241
100
AcDbEntity
  8
0
  6
Continuous
 62
     2
100
AcDbLine
 10
1178.116706712
 20
154.8037601768
 30
0.0
 11
1174.3809317164
 21
158.5395351724
 31
0.0
  0
LINE
  5
2E3
330
241
100
AcDbEntity
  8
0
  6
Continuous
 62
     2
100
AcDbLine
 10
1169.5822937047
 20
163.3381731842
 30
0.0
 11
1161.3644606255
 21
171.5560062633
 31
0.0
  0
LINE
  5
2E4
330
241
100
AcDbEntity
  8
0
  6
Continuous
 62
     2
100
AcDbLine
 10
1177.725381694
 20
154.8037601768
 30
0.0
 11
1174.086474012
 21
158.4426678589
 31
0.0
  0
LINE
  5
2E5
330
241
100
AcDbEntity
  8
0
  6
Continuous
 62
     2
100
AcDbLine
 10
1169.4914623252
 20
163.0376795457
 30
0.0
 11
1161.3644606255
 21
171.1646812453
 31
0.0
  0
LINE
  5
2E6
330
241
100
AcDbEntity
  8
0
  6
Continuous
 62
     2
100
AcDbLine
 10
1177.334056676
 20
154.8037601768
 30
0.0
 11
1173.7725130449
 21
158.3653038079
 31
0.0
  0
LINE
  5
2E7
330
241
100
AcDbEntity
  8
0
  6
Continuous
 62
     2
100
AcDbLine
 10
1169.4139555184
 20
162.7238613345
 30
0.0
 11
1161.3644606255
 21
170.7733562273
 31
0.0
  0
LINE
  5
2E8
330
241
100
AcDbEntity
  8
0
  6
Continuous
 62
     2
100
AcDbLine
 10
1176.9427316581
 20
154.8037601768
 30
0.0
 11
1173.4255636476
 21
158.3209281872
 31
0.0
  0
LINE
  5
2E9
330
241
100
AcDbEntity
  8
0
  6
Continuous
 62
     2
100
AcDbLine
 10
1169.3646671156
 20
162.3818247192
 30
0.0
 11
1161.3644606255
 21
170.3820312093
 31
0.0
  0
LINE
  5
2EA
330
241
100
AcDbEntity
  8
0
  6
Continuous
 62
     2
100
AcDbLine
 10
1176.5514066401
 20
154.8037601768
 30
0.0
 11
1173.056543857
 21
158.2986229598
 31
0.0
  0
LINE
  5
2EB
330
241
100
AcDbEntity
  8
0
  6
Continuous
 62
     2
100
AcDbLine
 10
1169.3517879404
 20
162.0033788764
 30
0.0
 11
1161.3644606255
 21
169.9907061913
 31
0.0
  0
LINE
  5
2EC
330
241
100
AcDbEntity
  8
0
  6
Continuous
 62
     2
100
AcDbLine
 10
1176.1600816221
 20
154.8037601768
 30
0.0
 11
1172.6405425185
 21
158.3232992804
 31
0.0
  0
LINE
  5
2ED
330
241
100
AcDbEntity
  8
0
  6
Continuous
 62
     2
100
AcDbLine
 10
1169.3742539408
 20
161.5895878581
 30
0.0
 11
1161.3644606255
 21
169.5993811734
 31
0.0
  0
LINE
  5
2EE
330
241
100
AcDbEntity
  8
0
  6
Continuous
 62
     2
100
AcDbLine
 10
1175.7687566041
 20
154.8037601768
 30
0.0
 11
1172.1566840209
 21
158.41583276
 31
0.0
  0
LINE
  5
2EF
330
241
100
AcDbEntity
  8
0
  6
Continuous
 62
     2
100
AcDbLine
 10
1169.457523023
 20
161.1149937579
 30
0.0
 11
1161.3644606255
 21
169.2080561554
 31
0.0
  0
LINE
  5
2F0
330
241
100
AcDbEntity
  8
0
  6
Continuous
 62
     2
100
AcDbLine
 10
1175.3774315861
 20
154.8037601768
 30
0.0
 11
1171.5638690648
 21
158.6173226981
 31
0.0
  0
LINE
  5
2F1
330
241
100
AcDbEntity
  8
0
  6
Continuous
 62
     2
100
AcDbLine
 10
1169.6709040609
 20
160.510287702
 30
0.0
 11
1161.3644606255
 21
168.8167311374
 31
0.0
  0
LINE
  5
2F2
330
241
100
AcDbEntity
  8
0
  6
Continuous
 62
     2
100
AcDbLine
 10
1174.9861065681
 20
154.8037601768
 30
0.0
 11
1161.3644606255
 21
168.4254061194
 31
0.0
  0
LINE
  5
2F3
330
241
100
AcDbEntity
  8
0
  6
Continuous
 62
     2
100
AcDbLine
 10
1174.5947815501
 20
154.8037601768
 30
0.0
 11
1161.3644606255
 21
168.0340811014
 31
0.0
  0
LINE
  5
2F4
330
241
100
AcDbEntity
  8
0
  6
Continuous
 62
     2
100
AcDbLine
 10
1174.2034565321
 20
154.8037601768
 30
0.0
 11
1161.3644606255
 21
167.6427560834
 31
0.0
  0
LINE
  5
2F5
330
241
100
AcDbEntity
  8
0
  6
Continuous
 62
     2
100
AcDbLine
 10
1173.8121315141
 20
154.8037601768
 30
0.0
 11
1161.3644606255
 21
167.2514310654
 31
0.0
  0
LINE
  5
2F6
330
241
100
AcDbEntity
  8
0
  6
Continuous
 62
     2
100
AcDbLine
 10
1173.4208064962
 20
154.8037601768
 30
0.0
 11
1161.3644606255
 21
166.8601060474
 31
0.0
  0
LINE
  5
2F7
330
241
100
AcDbEntity
  8
0
  6
Continuous
 62
     2
100
AcDbLine
 10
1173.0800715128
 20
154.7531701421
 30
0.0
 11
1161.3644606255
 21
166.4687810294
 31
0.0
  0
LINE
  5
2F8
330
241
100
AcDbEntity
  8
0
  6
Continuous
 62
     2
100
AcDbLine
 10
1173.0800715128
 20
154.3618451241
 30
0.0
 11
1161.3644606255
 21
166.0774560115
 31
0.0
  0
LINE
  5
2F9
330
241
100
AcDbEntity
  8
0
  6
Continuous
 62
     2
100
AcDbLine
 10
1173.0800715128
 20
153.9705201061
 30
0.0
 11
1161.3644606255
 21
165.6861309935
 31
0.0
  0
LINE
  5
2FA
330
241
100
AcDbEntity
  8
0
  6
Continuous
 62
     2
100
AcDbLine
 10
1173.0800715128
 20
153.5791950882
 30
0.0
 11
1161.3644606255
 21
165.2948059755
 31
0.0
  0
LINE
  5
2FB
330
241
100
AcDbEntity
  8
0
  6
Continuous
 62
     2
100
AcDbLine
 10
1173.0800715128
 20
153.1878700702
 30
0.0
 11
1161.3644606255
 21
164.9034809575
 31
0.0
  0
LINE
  5
2FC
330
241
100
AcDbEntity
  8
0
  6
Continuous
 62
     2
100
AcDbLine
 10
1173.0800715128
 20
152.7965450522
 30
0.0
 11
1161.3644606255
 21
164.5121559395
 31
0.0
  0
LINE
  5
2FD
330
241
100
AcDbEntity
  8
0
  6
Continuous
 62
     2
100
AcDbLine
 10
1173.0800715128
 20
152.4052200342
 30
0.0
 11
1161.3644606255
 21
164.1208309215
 31
0.0
  0
LINE
  5
2FE
330
241
100
AcDbEntity
  8
0
  6
Continuous
 62
     2
100
AcDbLine
 10
1173.0800715128
 20
152.0138950162
 30
0.0
 11
1161.3644606255
 21
163.7295059035
 31
0.0
  0
LINE
  5
2FF
330
241
100
AcDbEntity
  8
0
  6
Continuous
 62
     2
100
AcDbLine
 10
1173.0800715128
 20
151.6225699982
 30
0.0
 11
1161.3644606255
 21
163.3381808855
 31
0.0
  0
LINE
  5
300
330
241
100
AcDbEntity
  8
0
  6
Continuous
 62
     2
100
AcDbLine
 10
1173.0800715128
 20
151.2312449802
 30
0.0
 11
1161.3644606255
 21
162.9468558675
 31
0.0
  0
LINE
  5
301
330
241
100
AcDbEntity
  8
0
  6
Continuous
 62
     2
100
AcDbLine
 10
1173.0800715128
 20
150.8399199622
 30
0.0
 11
1161.3644606255
 21
162.5555308496
 31
0.0
  0
LINE
  5
302
330
241
100
AcDbEntity
  8
0
  6
Continuous
 62
     2
100
AcDbLine
 10
1173.0800715128
 20
150.4485949442
 30
0.0
 11
1161.3644606255
 21
162.1642058316
 31
0.0
  0
LINE
  5
303
330
241
100
AcDbEntity
  8
0
  6
Continuous
 62
     2
100
AcDbLine
 10
1173.0800715128
 20
150.0572699263
 30
0.0
 11
1161.3644606255
 21
161.7728808136
 31
0.0
  0
LINE
  5
304
330
241
100
AcDbEntity
  8
0
  6
Continuous
 62
     2
100
AcDbLine
 10
1173.0800715128
 20
149.6659449083
 30
0.0
 11
1161.3644606255
 21
161.3815557956
 31
0.0
  0
LINE
  5
305
330
241
100
AcDbEntity
  8
0
  6
Continuous
 62
     2
100
AcDbLine
 10
1173.0800715128
 20
149.2746198903
 30
0.0
 11
1161.3644606255
 21
160.9902307776
 31
0.0
  0
LINE
  5
306
330
241
100
AcDbEntity
  8
0
  6
Continuous
 62
     2
100
AcDbLine
 10
1173.0800715128
 20
148.8832948723
 30
0.0
 11
1161.3644606255
 21
160.5989057596
 31
0.0
  0
LINE
  5
307
330
241
100
AcDbEntity
  8
0
  6
Continuous
 62
     2
100
AcDbLine
 10
1173.0800715128
 20
148.4919698543
 30
0.0
 11
1161.3644606255
 21
160.2075807416
 31
0.0
  0
LINE
  5
308
330
241
100
AcDbEntity
  8
0
  6
Continuous
 62
     2
100
AcDbLine
 10
1173.0800715128
 20
148.1006448363
 30
0.0
 11
1161.3644606255
 21
159.8162557236
 31
0.0
  0
LINE
  5
309
330
241
100
AcDbEntity
  8
0
  6
Continuous
 62
     2
100
AcDbLine
 10
1173.0800715128
 20
147.7093198183
 30
0.0
 11
1161.3644606255
 21
159.4249307056
 31
0.0
  0
LINE
  5
30A
330
241
100
AcDbEntity
  8
0
  6
Continuous
 62
     2
100
AcDbLine
 10
1173.0800715128
 20
147.3179948003
 30
0.0
 11
1161.3644606255
 21
159.0336056877
 31
0.0
  0
LINE
  5
30B
330
241
100
AcDbEntity
  8
0
  6
Continuous
 62
     2
100
AcDbLine
 10
1173.0800715128
 20
146.9266697823
 30
0.0
 11
1161.3644606255
 21
158.6422806697
 31
0.0
  0
LINE
  5
30C
330
241
100
AcDbEntity
  8
0
  6
Continuous
 62
     2
100
AcDbLine
 10
1173.0800715128
 20
146.5353447644
 30
0.0
 11
1161.3644606255
 21
158.2509556517
 31
0.0
  0
LINE
  5
30D
330
241
100
AcDbEntity
  8
0
  6
Continuous
 62
     2
100
AcDbLine
 10
1173.0800715128
 20
146.1440197464
 30
0.0
 11
1161.3644606255
 21
157.8596306337
 31
0.0
  0
LINE
  5
30E
330
241
100
AcDbEntity
  8
0
  6
Continuous
 62
     2
100
AcDbLine
 10
1173.0800715128
 20
145.7526947284
 30
0.0
 11
1161.3644606255
 21
157.4683056157
 31
0.0
  0
LINE
  5
30F
330
241
100
AcDbEntity
  8
0
  6
Continuous
 62
     2
100
AcDbLine
 10
1173.0800715128
 20
145.3613697104
 30
0.0
 11
1161.3644606255
 21
157.0769805977
 31
0.0
  0
LINE
  5
310
330
241
100
AcDbEntity
  8
0
  6
Continuous
 62
     2
100
AcDbLine
 10
1173.0800715128
 20
144.9700446924
 30
0.0
 11
1161.3644606255
 21
156.6856555797
 31
0.0
  0
LINE
  5
311
330
241
100
AcDbEntity
  8
0
  6
Continuous
 62
     2
100
AcDbLine
 10
1173.0800715128
 20
144.5787196744
 30
0.0
 11
1161.3644606255
 21
156.2943305617
 31
0.0
  0
LINE
  5
312
330
241
100
AcDbEntity
  8
0
  6
Continuous
 62
     2
100
AcDbLine
 10
1173.0800715128
 20
144.1873946563999
 30
0.0
 11
1161.3644606255
 21
155.9030055437
 31
0.0
  0
LINE
  5
313
330
241
100
AcDbEntity
  8
0
  6
Continuous
 62
     2
100
AcDbLine
 10
1173.0800715128
 20
143.7960696384
 30
0.0
 11
1161.3644606255
 21
155.5116805258
 31
0.0
  0
LINE
  5
314
330
241
100
AcDbEntity
  8
0
  6
Continuous
 62
     2
100
AcDbLine
 10
1173.0800715128
 20
143.4047446204
 30
0.0
 11
1161.3644606255
 21
155.1203555078
 31
0.0
  0
LINE
  5
315
330
241
100
AcDbEntity
  8
0
  6
Continuous
 62
     2
100
AcDbLine
 10
1173.0800715128
 20
143.0134196025
 30
0.0
 11
1161.3644606255
 21
154.7290304898
 31
0.0
  0
LINE
  5
316
330
241
100
AcDbEntity
  8
0
  6
Continuous
 62
     2
100
AcDbLine
 10
1173.0800715128
 20
142.6220945845
 30
0.0
 11
1161.3644606255
 21
154.3377054718
 31
0.0
  0
LINE
  5
317
330
241
100
AcDbEntity
  8
0
  6
Continuous
 62
     2
100
AcDbLine
 10
1173.0800715128
 20
142.2307695665
 30
0.0
 11
1161.3644606255
 21
153.9463804538
 31
0.0
  0
LINE
  5
318
330
241
100
AcDbEntity
  8
0
  6
Continuous
 62
     2
100
AcDbLine
 10
1173.0800715128
 20
141.8394445485
 30
0.0
 11
1161.3644606255
 21
153.5550554358
 31
0.0
  0
LINE
  5
319
330
241
100
AcDbEntity
  8
0
  6
Continuous
 62
     2
100
AcDbLine
 10
1173.0800715128
 20
141.4481195305
 30
0.0
 11
1161.3644606255
 21
153.1637304178
 31
0.0
  0
LINE
  5
31A
330
241
100
AcDbEntity
  8
0
  6
Continuous
 62
     2
100
AcDbLine
 10
1173.0800715128
 20
141.0567945125
 30
0.0
 11
1161.3644606255
 21
152.7724053998
 31
0.0
  0
LINE
  5
31B
330
241
100
AcDbEntity
  8
0
  6
Continuous
 62
     2
100
AcDbLine
 10
1173.0800715128
 20
140.6654694945
 30
0.0
 11
1161.3644606255
 21
152.3810803818
 31
0.0
  0
LINE
  5
31C
330
241
100
AcDbEntity
  8
0
  6
Continuous
 62
     2
100
AcDbLine
 10
1173.0800715128
 20
140.2741444765
 30
0.0
 11
1161.3644606255
 21
151.9897553639
 31
0.0
  0
LINE
  5
31D
330
241
100
AcDbEntity
  8
0
  6
Continuous
 62
     2
100
AcDbLine
 10
1173.0800715128
 20
139.8828194585
 30
0.0
 11
1161.3644606255
 21
151.5984303459
 31
0.0
  0
LINE
  5
31E
330
241
100
AcDbEntity
  8
0
  6
Continuous
 62
     2
100
AcDbLine
 10
1173.0800715128
 20
139.4914944406
 30
0.0
 11
1161.3644606255
 21
151.2071053279
 31
0.0
  0
LINE
  5
31F
330
241
100
AcDbEntity
  8
0
  6
Continuous
 62
     2
100
AcDbLine
 10
1173.0800715128
 20
139.1001694226
 30
0.0
 11
1161.3644606255
 21
150.8157803099
 31
0.0
  0
LINE
  5
320
330
241
100
AcDbEntity
  8
0
  6
Continuous
 62
     2
100
AcDbLine
 10
1173.0800715128
 20
138.7088444046
 30
0.0
 11
1161.3644606255
 21
150.4244552919
 31
0.0
  0
LINE
  5
321
330
241
100
AcDbEntity
  8
0
  6
Continuous
 62
     2
100
AcDbLine
 10
1173.0800715128
 20
138.3175193866
 30
0.0
 11
1161.3644606255
 21
150.0331302739
 31
0.0
  0
LINE
  5
322
330
241
100
AcDbEntity
  8
0
  6
Continuous
 62
     2
100
AcDbLine
 10
1173.0800715128
 20
137.9261943686
 30
0.0
 11
1161.3644606255
 21
149.6418052559
 31
0.0
  0
LINE
  5
323
330
241
100
AcDbEntity
  8
0
  6
Continuous
 62
     2
100
AcDbLine
 10
1173.0800715128
 20
137.5348693506
 30
0.0
 11
1161.3644606255
 21
149.2504802379
 31
0.0
  0
LINE
  5
324
330
241
100
AcDbEntity
  8
0
  6
Continuous
 62
     2
100
AcDbLine
 10
1173.0800715128
 20
137.1435443326
 30
0.0
 11
1161.3644606255
 21
148.8591552199
 31
0.0
  0
LINE
  5
325
330
241
100
AcDbEntity
  8
0
  6
Continuous
 62
     2
100
AcDbLine
 10
1173.0800715128
 20
136.7522193145999
 30
0.0
 11
1161.3644606255
 21
148.467830202
 31
0.0
  0
LINE
  5
326
330
241
100
AcDbEntity
  8
0
  6
Continuous
 62
     2
100
AcDbLine
 10
1173.0800715128
 20
136.3608942966
 30
0.0
 11
1161.3644606255
 21
148.076505184
 31
0.0
  0
LINE
  5
327
330
241
100
AcDbEntity
  8
0
  6
Continuous
 62
     2
100
AcDbLine
 10
1173.0800715128
 20
135.9695692787
 30
0.0
 11
1161.3644606255
 21
147.685180166
 31
0.0
  0
LINE
  5
328
330
241
100
AcDbEntity
  8
0
  6
Continuous
 62
     2
100
AcDbLine
 10
1173.0800715128
 20
135.5782442607
 30
0.0
 11
1161.3644606255
 21
147.293855148
 31
0.0
  0
LINE
  5
329
330
241
100
AcDbEntity
  8
0
  6
Continuous
 62
     2
100
AcDbLine
 10
1173.0800715128
 20
135.1869192427
 30
0.0
 11
1161.3644606255
 21
146.90253013
 31
0.0
  0
LINE
  5
32A
330
241
100
AcDbEntity
  8
0
  6
Continuous
 62
     2
100
AcDbLine
 10
1173.0800715128
 20
134.7955942246999
 30
0.0
 11
1161.3644606255
 21
146.511205112
 31
0.0
  0
LINE
  5
32B
330
241
100
AcDbEntity
  8
0
  6
Continuous
 62
     2
100
AcDbLine
 10
1173.0800715128
 20
134.4042692067
 30
0.0
 11
1161.3644606255
 21
146.119880094
 31
0.0
  0
LINE
  5
32C
330
241
100
AcDbEntity
  8
0
  6
Continuous
 62
     2
100
AcDbLine
 10
1172.9442485384
 20
134.1487671632
 30
0.0
 11
1161.3644606255
 21
145.728555076
 31
0.0
  0
LINE
  5
32D
330
241
100
AcDbEntity
  8
0
  6
Continuous
 62
     2
100
AcDbLine
 10
1172.5529235204
 20
134.1487671632
 30
0.0
 11
1161.3644606255
 21
145.337230058
 31
0.0
  0
LINE
  5
32E
330
241
100
AcDbEntity
  8
0
  6
Continuous
 62
     2
100
AcDbLine
 10
1172.1615985024
 20
134.1487671632
 30
0.0
 11
1161.3644606255
 21
144.9459050401
 31
0.0
  0
LINE
  5
32F
330
241
100
AcDbEntity
  8
0
  6
Continuous
 62
     2
100
AcDbLine
 10
1171.7702734844
 20
134.1487671632
 30
0.0
 11
1161.3644606255
 21
144.5545800221
 31
0.0
  0
LINE
  5
330
330
241
100
AcDbEntity
  8
0
  6
Continuous
 62
     2
100
AcDbLine
 10
1171.3789484664
 20
134.1487671632
 30
0.0
 11
1161.3644606255
 21
144.1632550041
 31
0.0
  0
LINE
  5
331
330
241
100
AcDbEntity
  8
0
  6
Continuous
 62
     2
100
AcDbLine
 10
1170.9876234484
 20
134.1487671632
 30
0.0
 11
1161.3644606255
 21
143.7719299861
 31
0.0
  0
LINE
  5
332
330
241
100
AcDbEntity
  8
0
  6
Continuous
 62
     2
100
AcDbLine
 10
1170.5962984304
 20
134.1487671632
 30
0.0
 11
1161.3644606255
 21
143.3806049681
 31
0.0
  0
LINE
  5
333
330
241
100
AcDbEntity
  8
0
  6
Continuous
 62
     2
100
AcDbLine
 10
1170.2049734124
 20
134.1487671632
 30
0.0
 11
1161.3644606255
 21
142.9892799501
 31
0.0
  0
LINE
  5
334
330
241
100
AcDbEntity
  8
0
  6
Continuous
 62
     2
100
AcDbLine
 10
1169.8136483945
 20
134.1487671632
 30
0.0
 11
1161.3644606255
 21
142.5979549321
 31
0.0
  0
LINE
  5
335
330
241
100
AcDbEntity
  8
0
  6
Continuous
 62
     2
100
AcDbLine
 10
1169.4223233765
 20
134.1487671632
 30
0.0
 11
1161.3644606255
 21
142.2066299141
 31
0.0
  0
LINE
  5
336
330
241
100
AcDbEntity
  8
0
  6
Continuous
 62
     2
100
AcDbLine
 10
1169.0309983585
 20
134.1487671632
 30
0.0
 11
1161.3644606255
 21
141.8153048961
 31
0.0
  0
LINE
  5
337
330
241
100
AcDbEntity
  8
0
  6
Continuous
 62
     2
100
AcDbLine
 10
1168.6396733405
 20
134.1487671632
 30
0.0
 11
1161.3644606255
 21
141.4239798782
 31
0.0
  0
LINE
  5
338
330
241
100
AcDbEntity
  8
0
  6
Continuous
 62
     2
100
AcDbLine
 10
1168.2483483225
 20
134.1487671632
 30
0.0
 11
1161.3644606255
 21
141.0326548602
 31
0.0
  0
LINE
  5
339
330
241
100
AcDbEntity
  8
0
  6
Continuous
 62
     2
100
AcDbLine
 10
1167.8570233045
 20
134.1487671632
 30
0.0
 11
1161.3644606255
 21
140.6413298422
 31
0.0
  0
LINE
  5
33A
330
241
100
AcDbEntity
  8
0
  6
Continuous
 62
     2
100
AcDbLine
 10
1167.4656982865
 20
134.1487671632
 30
0.0
 11
1161.3644606255
 21
140.2500048242
 31
0.0
  0
LINE
  5
33B
330
241
100
AcDbEntity
  8
0
  6
Continuous
 62
     2
100
AcDbLine
 10
1167.0743732685
 20
134.1487671632
 30
0.0
 11
1161.3644606255
 21
139.8586798062
 31
0.0
  0
LINE
  5
33C
330
241
100
AcDbEntity
  8
0
  6
Continuous
 62
     2
100
AcDbLine
 10
1166.6830482505
 20
134.1487671632
 30
0.0
 11
1161.3644606255
 21
139.4673547882
 31
0.0
  0
LINE
  5
33D
330
241
100
AcDbEntity
  8
0
  6
Continuous
 62
     2
100
AcDbLine
 10
1166.2917232326
 20
134.1487671632
 30
0.0
 11
1161.3644606255
 21
139.0760297702
 31
0.0
  0
LINE
  5
33E
330
241
100
AcDbEntity
  8
0
  6
Continuous
 62
     2
100
AcDbLine
 10
1165.9003982146
 20
134.1487671632
 30
0.0
 11
1161.3644606255
 21
138.6847047522
 31
0.0
  0
LINE
  5
33F
330
241
100
AcDbEntity
  8
0
  6
Continuous
 62
     2
100
AcDbLine
 10
1165.5090731966
 20
134.1487671632
 30
0.0
 11
1161.3644606255
 21
138.2933797342
 31
0.0
  0
LINE
  5
340
330
241
100
AcDbEntity
  8
0
  6
Continuous
 62
     2
100
AcDbLine
 10
1165.1177481786
 20
134.1487671632
 30
0.0
 11
1161.3644606255
 21
137.9020547163
 31
0.0
  0
LINE
  5
341
330
241
100
AcDbEntity
  8
0
  6
Continuous
 62
     2
100
AcDbLine
 10
1164.7264231606
 20
134.1487671632
 30
0.0
 11
1161.3644606255
 21
137.5107296983
 31
0.0
  0
LINE
  5
342
330
241
100
AcDbEntity
  8
0
  6
Continuous
 62
     2
100
AcDbLine
 10
1164.3350981426
 20
134.1487671632
 30
0.0
 11
1161.3644606255
 21
137.1194046803
 31
0.0
  0
LINE
  5
343
330
241
100
AcDbEntity
  8
0
  6
Continuous
 62
     2
100
AcDbLine
 10
1163.9437731246
 20
134.1487671632
 30
0.0
 11
1161.3644606255
 21
136.7280796623
 31
0.0
  0
LINE
  5
344
330
241
100
AcDbEntity
  8
0
  6
Continuous
 62
     2
100
AcDbLine
 10
1163.5524481066
 20
134.1487671632
 30
0.0
 11
1161.3644606255
 21
136.3367546443
 31
0.0
  0
LINE
  5
345
330
241
100
AcDbEntity
  8
0
  6
Continuous
 62
     2
100
AcDbLine
 10
1163.1611230886
 20
134.1487671632
 30
0.0
 11
1161.3644606255
 21
135.9454296263
 31
0.0
  0
LINE
  5
346
330
241
100
AcDbEntity
  8
0
  6
Continuous
 62
     2
100
AcDbLine
 10
1162.7697980707
 20
134.1487671632
 30
0.0
 11
1161.3644606255
 21
135.5541046083
 31
0.0
  0
LINE
  5
347
330
241
100
AcDbEntity
  8
0
  6
Continuous
 62
     2
100
AcDbLine
 10
1162.3784730527
 20
134.1487671632
 30
0.0
 11
1161.3644606255
 21
135.1627795903
 31
0.0
  0
LINE
  5
348
330
241
100
AcDbEntity
  8
0
  6
Continuous
 62
     2
100
AcDbLine
 10
1161.9871480347
 20
134.1487671632
 30
0.0
 11
1161.3644606255
 21
134.7714545723
 31
0.0
  0
LINE
  5
349
330
241
100
AcDbEntity
  8
0
  6
Continuous
 62
     2
100
AcDbLine
 10
1161.5958230167
 20
134.1487671632
 30
0.0
 11
1161.3644606255
 21
134.3801295544
 31
0.0
  0
LINE
  5
34A
330
241
100
AcDbEntity
  8
0
  6
Continuous
 62
     2
100
AcDbLine
 10
1173.0732261819
 20
134.1487671632
 30
0.0
 11
1173.0800715128
 21
134.1556124942
 31
0.0
  0
LINE
  5
34B
330
241
100
AcDbEntity
  8
0
  6
Continuous
 62
     2
100
AcDbLine
 10
1172.6819011639
 20
134.1487671632
 30
0.0
 11
1173.0800715128
 21
134.5469375122
 31
0.0
  0
LINE
  5
34C
330
241
100
AcDbEntity
  8
0
  6
Continuous
 62
     2
100
AcDbLine
 10
1172.2905761459
 20
134.1487671632
 30
0.0
 11
1173.0800715128
 21
134.9382625302
 31
0.0
  0
LINE
  5
34D
330
241
100
AcDbEntity
  8
0
  6
Continuous
 62
     2
100
AcDbLine
 10
1171.8992511279
 20
134.1487671632
 30
0.0
 11
1173.0800715128
 21
135.3295875481
 31
0.0
  0
LINE
  5
34E
330
241
100
AcDbEntity
  8
0
  6
Continuous
 62
     2
100
AcDbLine
 10
1171.5079261099
 20
134.1487671632
 30
0.0
 11
1173.0800715128
 21
135.7209125661
 31
0.0
  0
LINE
  5
34F
330
241
100
AcDbEntity
  8
0
  6
Continuous
 62
     2
100
AcDbLine
 10
1171.1166010919
 20
134.1487671632
 30
0.0
 11
1173.0800715128
 21
136.1122375841
 31
0.0
  0
LINE
  5
350
330
241
100
AcDbEntity
  8
0
  6
Continuous
 62
     2
100
AcDbLine
 10
1170.7252760739
 20
134.1487671632
 30
0.0
 11
1173.0800715128
 21
136.5035626021
 31
0.0
  0
LINE
  5
351
330
241
100
AcDbEntity
  8
0
  6
Continuous
 62
     2
100
AcDbLine
 10
1170.3339510559
 20
134.1487671632
 30
0.0
 11
1173.0800715128
 21
136.8948876201
 31
0.0
  0
LINE
  5
352
330
241
100
AcDbEntity
  8
0
  6
Continuous
 62
     2
100
AcDbLine
 10
1169.9426260379
 20
134.1487671632
 30
0.0
 11
1173.0800715128
 21
137.2862126381
 31
0.0
  0
LINE
  5
353
330
241
100
AcDbEntity
  8
0
  6
Continuous
 62
     2
100
AcDbLine
 10
1169.55130102
 20
134.1487671632
 30
0.0
 11
1173.0800715128
 21
137.6775376561
 31
0.0
  0
LINE
  5
354
330
241
100
AcDbEntity
  8
0
  6
Continuous
 62
     2
100
AcDbLine
 10
1169.159976002
 20
134.1487671632
 30
0.0
 11
1173.0800715128
 21
138.0688626741
 31
0.0
  0
LINE
  5
355
330
241
100
AcDbEntity
  8
0
  6
Continuous
 62
     2
100
AcDbLine
 10
1168.768650984
 20
134.1487671632
 30
0.0
 11
1173.0800715128
 21
138.4601876921
 31
0.0
  0
LINE
  5
356
330
241
100
AcDbEntity
  8
0
  6
Continuous
 62
     2
100
AcDbLine
 10
1168.377325966
 20
134.1487671632
 30
0.0
 11
1173.0800715128
 21
138.85151271
 31
0.0
  0
LINE
  5
357
330
241
100
AcDbEntity
  8
0
  6
Continuous
 62
     2
100
AcDbLine
 10
1167.986000948
 20
134.1487671632
 30
0.0
 11
1173.0800715128
 21
139.242837728
 31
0.0
  0
LINE
  5
358
330
241
100
AcDbEntity
  8
0
  6
Continuous
 62
     2
100
AcDbLine
 10
1167.59467593
 20
134.1487671632
 30
0.0
 11
1173.0800715128
 21
139.634162746
 31
0.0
  0
LINE
  5
359
330
241
100
AcDbEntity
  8
0
  6
Continuous
 62
     2
100
AcDbLine
 10
1167.203350912
 20
134.1487671632
 30
0.0
 11
1173.0800715128
 21
140.025487764
 31
0.0
  0
LINE
  5
35A
330
241
100
AcDbEntity
  8
0
  6
Continuous
 62
     2
100
AcDbLine
 10
1166.812025894
 20
134.1487671632
 30
0.0
 11
1173.0800715128
 21
140.416812782
 31
0.0
  0
LINE
  5
35B
330
241
100
AcDbEntity
  8
0
  6
Continuous
 62
     2
100
AcDbLine
 10
1166.420700876
 20
134.1487671632
 30
0.0
 11
1173.0800715128
 21
140.8081378
 31
0.0
  0
LINE
  5
35C
330
241
100
AcDbEntity
  8
0
  6
Continuous
 62
     2
100
AcDbLine
 10
1166.0293758581
 20
134.1487671632
 30
0.0
 11
1173.0800715128
 21
141.199462818
 31
0.0
  0
LINE
  5
35D
330
241
100
AcDbEntity
  8
0
  6
Continuous
 62
     2
100
AcDbLine
 10
1165.6380508401
 20
134.1487671632
 30
0.0
 11
1173.0800715128
 21
141.590787836
 31
0.0
  0
LINE
  5
35E
330
241
100
AcDbEntity
  8
0
  6
Continuous
 62
     2
100
AcDbLine
 10
1165.2467258221
 20
134.1487671632
 30
0.0
 11
1173.0800715128
 21
141.982112854
 31
0.0
  0
LINE
  5
35F
330
241
100
AcDbEntity
  8
0
  6
Continuous
 62
     2
100
AcDbLine
 10
1164.8554008041
 20
134.1487671632
 30
0.0
 11
1173.0800715128
 21
142.3734378719
 31
0.0
  0
LINE
  5
360
330
241
100
AcDbEntity
  8
0
  6
Continuous
 62
     2
100
AcDbLine
 10
1164.4640757861
 20
134.1487671632
 30
0.0
 11
1173.0800715128
 21
142.7647628899
 31
0.0
  0
LINE
  5
361
330
241
100
AcDbEntity
  8
0
  6
Continuous
 62
     2
100
AcDbLine
 10
1164.0727507681
 20
134.1487671632
 30
0.0
 11
1173.0800715128
 21
143.1560879079
 31
0.0
  0
LINE
  5
362
330
241
100
AcDbEntity
  8
0
  6
Continuous
 62
     2
100
AcDbLine
 10
1163.6814257501
 20
134.1487671632
 30
0.0
 11
1173.0800715128
 21
143.5474129259
 31
0.0
  0
LINE
  5
363
330
241
100
AcDbEntity
  8
0
  6
Continuous
 62
     2
100
AcDbLine
 10
1163.2901007321
 20
134.1487671632
 30
0.0
 11
1173.0800715128
 21
143.9387379439
 31
0.0
  0
LINE
  5
364
330
241
100
AcDbEntity
  8
0
  6
Continuous
 62
     2
100
AcDbLine
 10
1162.8987757141
 20
134.1487671632
 30
0.0
 11
1173.0800715128
 21
144.3300629619
 31
0.0
  0
LINE
  5
365
330
241
100
AcDbEntity
  8
0
  6
Continuous
 62
     2
100
AcDbLine
 10
1183.5537687278
 20
154.8037601768
 30
0.0
 11
1183.6523145637
 21
154.9023060127
 31
0.0
  0
LINE
  5
366
330
241
100
AcDbEntity
  8
0
  6
Continuous
 62
     2
100
AcDbLine
 10
1162.5074506962
 20
134.1487671632
 30
0.0
 11
1173.0800715128
 21
144.7213879799
 31
0.0
  0
LINE
  5
367
330
241
100
AcDbEntity
  8
0
  6
Continuous
 62
     2
100
AcDbLine
 10
1183.1624437098
 20
154.8037601768
 30
0.0
 11
1183.6523145637
 21
155.2936310307
 31
0.0
  0
LINE
  5
368
330
241
100
AcDbEntity
  8
0
  6
Continuous
 62
     2
100
AcDbLine
 10
1162.1161256782
 20
134.1487671632
 30
0.0
 11
1173.0800715128
 21
145.1127129979
 31
0.0
  0
LINE
  5
369
330
241
100
AcDbEntity
  8
0
  6
Continuous
 62
     2
100
AcDbLine
 10
1182.7711186918
 20
154.8037601768
 30
0.0
 11
1183.6523145637
 21
155.6849560487
 31
0.0
  0
LINE
  5
36A
330
241
100
AcDbEntity
  8
0
  6
Continuous
 62
     2
100
AcDbLine
 10
1161.7248006602
 20
134.1487671632
 30
0.0
 11
1173.0800715128
 21
145.5040380159
 31
0.0
  0
LINE
  5
36B
330
241
100
AcDbEntity
  8
0
  6
Continuous
 62
     2
100
AcDbLine
 10
1182.3797936738
 20
154.8037601768
 30
0.0
 11
1183.6523145637
 21
156.0762810667
 31
0.0
  0
LINE
  5
36C
330
241
100
AcDbEntity
  8
0
  6
Continuous
 62
     2
100
AcDbLine
 10
1161.3644606255
 20
134.1797521465
 30
0.0
 11
1173.0800715128
 21
145.8953630337999
 31
0.0
  0
LINE
  5
36D
330
241
100
AcDbEntity
  8
0
  6
Continuous
 62
     2
100
AcDbLine
 10
1181.9884686558
 20
154.8037601768
 30
0.0
 11
1183.6523145637
 21
156.4676060847
 31
0.0
  0
LINE
  5
36E
330
241
100
AcDbEntity
  8
0
  6
Continuous
 62
     2
100
AcDbLine
 10
1161.3644606255
 20
134.5710771645
 30
0.0
 11
1173.0800715128
 21
146.2866880518
 31
0.0
  0
LINE
  5
36F
330
241
100
AcDbEntity
  8
0
  6
Continuous
 62
     2
100
AcDbLine
 10
1181.5971436378
 20
154.8037601768
 30
0.0
 11
1183.6523145637
 21
156.8589311027
 31
0.0
  0
LINE
  5
370
330
241
100
AcDbEntity
  8
0
  6
Continuous
 62
     2
100
AcDbLine
 10
1161.3644606255
 20
134.9624021825
 30
0.0
 11
1173.0800715128
 21
146.6780130698
 31
0.0
  0
LINE
  5
371
330
241
100
AcDbEntity
  8
0
  6
Continuous
 62
     2
100
AcDbLine
 10
1181.2058186198
 20
154.8037601768
 30
0.0
 11
1183.6523145637
 21
157.2502561207
 31
0.0
  0
LINE
  5
372
330
241
100
AcDbEntity
  8
0
  6
Continuous
 62
     2
100
AcDbLine
 10
1161.3644606255
 20
135.3537272005
 30
0.0
 11
1173.0800715128
 21
147.0693380878
 31
0.0
  0
LINE
  5
373
330
241
100
AcDbEntity
  8
0
  6
Continuous
 62
     2
100
AcDbLine
 10
1180.8144936018
 20
154.8037601768
 30
0.0
 11
1183.6523145637
 21
157.6415811386
 31
0.0
  0
LINE
  5
374
330
241
100
AcDbEntity
  8
0
  6
Continuous
 62
     2
100
AcDbLine
 10
1161.3644606255
 20
135.7450522185
 30
0.0
 11
1173.0800715128
 21
147.4606631058
 31
0.0
  0
LINE
  5
375
330
241
100
AcDbEntity
  8
0
  6
Continuous
 62
     2
100
AcDbLine
 10
1180.4231685838
 20
154.8037601768
 30
0.0
 11
1183.6523145637
 21
158.0329061566
 31
0.0
  0
LINE
  5
376
330
241
100
AcDbEntity
  8
0
  6
Continuous
 62
     2
100
AcDbLine
 10
1161.3644606255
 20
136.1363772365
 30
0.0
 11
1173.0800715128
 21
147.8519881238
 31
0.0
  0
LINE
  5
377
330
241
100
AcDbEntity
  8
0
  6
Continuous
 62
     2
100
AcDbLine
 10
1180.0318435659
 20
154.8037601768
 30
0.0
 11
1183.6523145637
 21
158.4242311746
 31
0.0
  0
LINE
  5
378
330
241
100
AcDbEntity
  8
0
  6
Continuous
 62
     2
100
AcDbLine
 10
1161.3644606255
 20
136.5277022545
 30
0.0
 11
1173.0800715128
 21
148.2433131418
 31
0.0
  0
LINE
  5
379
330
241
100
AcDbEntity
  8
0
  6
Continuous
 62
     2
100
AcDbLine
 10
1179.6405185479
 20
154.8037601768
 30
0.0
 11
1183.6523145637
 21
158.8155561926
 31
0.0
  0
LINE
  5
37A
330
241
100
AcDbEntity
  8
0
  6
Continuous
 62
     2
100
AcDbLine
 10
1161.3644606255
 20
136.9190272724
 30
0.0
 11
1173.0800715128
 21
148.6346381598
 31
0.0
  0
LINE
  5
37B
330
241
100
AcDbEntity
  8
0
  6
Continuous
 62
     2
100
AcDbLine
 10
1179.2491935299
 20
154.8037601768
 30
0.0
 11
1183.6523145637
 21
159.2068812106
 31
0.0
  0
LINE
  5
37C
330
241
100
AcDbEntity
  8
0
  6
Continuous
 62
     2
100
AcDbLine
 10
1161.3644606255
 20
137.3103522904
 30
0.0
 11
1173.0800715128
 21
149.0259631778
 31
0.0
  0
LINE
  5
37D
330
241
100
AcDbEntity
  8
0
  6
Continuous
 62
     2
100
AcDbLine
 10
1178.8578685119
 20
154.8037601768
 30
0.0
 11
1183.6523145637
 21
159.5982062286
 31
0.0
  0
LINE
  5
37E
330
241
100
AcDbEntity
  8
0
  6
Continuous
 62
     2
100
AcDbLine
 10
1161.3644606255
 20
137.7016773084
 30
0.0
 11
1173.0800715128
 21
149.4172881957
 31
0.0
  0
LINE
  5
37F
330
241
100
AcDbEntity
  8
0
  6
Continuous
 62
     2
100
AcDbLine
 10
1178.4665434939
 20
154.8037601768
 30
0.0
 11
1183.6523145637
 21
159.9895312466
 31
0.0
  0
LINE
  5
380
330
241
100
AcDbEntity
  8
0
  6
Continuous
 62
     2
100
AcDbLine
 10
1161.3644606255
 20
138.0930023264
 30
0.0
 11
1173.0800715128
 21
149.8086132137
 31
0.0
  0
LINE
  5
381
330
241
100
AcDbEntity
  8
0
  6
Continuous
 62
     2
100
AcDbLine
 10
1178.0752184759
 20
154.8037601768
 30
0.0
 11
1183.6523145637
 21
160.3808562646
 31
0.0
  0
LINE
  5
382
330
241
100
AcDbEntity
  8
0
  6
Continuous
 62
     2
100
AcDbLine
 10
1161.3644606255
 20
138.4843273444
 30
0.0
 11
1173.0800715128
 21
150.1999382317
 31
0.0
  0
LINE
  5
383
330
241
100
AcDbEntity
  8
0
  6
Continuous
 62
     2
100
AcDbLine
 10
1177.6838934579
 20
154.8037601768
 30
0.0
 11
1183.6523145637
 21
160.7721812826
 31
0.0
  0
LINE
  5
384
330
241
100
AcDbEntity
  8
0
  6
Continuous
 62
     2
100
AcDbLine
 10
1161.3644606255
 20
138.8756523624
 30
0.0
 11
1173.0800715128
 21
150.5912632497
 31
0.0
  0
LINE
  5
385
330
241
100
AcDbEntity
  8
0
  6
Continuous
 62
     2
100
AcDbLine
 10
1177.2925684399
 20
154.8037601768
 30
0.0
 11
1183.6248683534
 21
161.1360600903
 31
0.0
  0
LINE
  5
386
330
241
100
AcDbEntity
  8
0
  6
Continuous
 62
     2
100
AcDbLine
 10
1161.3644606255
 20
139.2669773804
 30
0.0
 11
1173.0800715128
 21
150.9825882677
 31
0.0
  0
LINE
  5
387
330
241
100
AcDbEntity
  8
0
  6
Continuous
 62
     2
100
AcDbLine
 10
1176.9012434219
 20
154.8037601768
 30
0.0
 11
1183.4508796053
 21
161.3533963601
 31
0.0
  0
LINE
  5
388
330
241
100
AcDbEntity
  8
0
  6
Continuous
 62
     2
100
AcDbLine
 10
1161.3644606255
 20
139.6583023984
 30
0.0
 11
1173.0800715128
 21
151.3739132857
 31
0.0
  0
LINE
  5
389
330
241
100
AcDbEntity
  8
0
  6
Continuous
 62
     2
100
AcDbLine
 10
1176.509918404
 20
154.8037601768
 30
0.0
 11
1183.2768908571
 21
161.57073263
 31
0.0
  0
LINE
  5
38A
330
241
100
AcDbEntity
  8
0
  6
Continuous
 62
     2
100
AcDbLine
 10
1161.3644606255
 20
140.0496274164
 30
0.0
 11
1173.0800715128
 21
151.7652383037
 31
0.0
  0
LINE
  5
38B
330
241
100
AcDbEntity
  8
0
  6
Continuous
 62
     2
100
AcDbLine
 10
1176.118593386
 20
154.8037601768
 30
0.0
 11
1183.102902109
 21
161.7880688999
 31
0.0
  0
LINE
  5
38C
330
241
100
AcDbEntity
  8
0
  6
Continuous
 62
     2
100
AcDbLine
 10
1161.3644606255
 20
140.4409524343
 30
0.0
 11
1173.0800715128
 21
152.1565633217
 31
0.0
  0
LINE
  5
38D
330
241
100
AcDbEntity
  8
0
  6
Continuous
 62
     2
100
AcDbLine
 10
1175.727268368
 20
154.8037601768
 30
0.0
 11
1182.9289133609
 21
162.0054051697
 31
0.0
  0
LINE
  5
38E
330
241
100
AcDbEntity
  8
0
  6
Continuous
 62
     2
100
AcDbLine
 10
1161.3644606255
 20
140.8322774523
 30
0.0
 11
1173.0800715128
 21
152.5478883397
 31
0.0
  0
LINE
  5
38F
330
241
100
AcDbEntity
  8
0
  6
Continuous
 62
     2
100
AcDbLine
 10
1175.33594335
 20
154.8037601768
 30
0.0
 11
1182.7549246128
 21
162.2227414396
 31
0.0
  0
LINE
  5
390
330
241
100
AcDbEntity
  8
0
  6
Continuous
 62
     2
100
AcDbLine
 10
1161.3644606255
 20
141.2236024703
 30
0.0
 11
1173.0800715128
 21
152.9392133576
 31
0.0
  0
LINE
  5
391
330
241
100
AcDbEntity
  8
0
  6
Continuous
 62
     2
100
AcDbLine
 10
1174.944618332
 20
154.8037601768
 30
0.0
 11
1182.5809358646
 21
162.4400777094
 31
0.0
  0
LINE
  5
392
330
241
100
AcDbEntity
  8
0
  6
Continuous
 62
     2
100
AcDbLine
 10
1161.3644606255
 20
141.6149274883
 30
0.0
 11
1173.0800715128
 21
153.3305383755999
 31
0.0
  0
LINE
  5
393
330
241
100
AcDbEntity
  8
0
  6
Continuous
 62
     2
100
AcDbLine
 10
1174.553293314
 20
154.8037601768
 30
0.0
 11
1182.4069471165
 21
162.6574139793
 31
0.0
  0
LINE
  5
394
330
241
100
AcDbEntity
  8
0
  6
Continuous
 62
     2
100
AcDbLine
 10
1161.3644606255
 20
142.0062525063
 30
0.0
 11
1173.0800715128
 21
153.7218633936
 31
0.0
  0
LINE
  5
395
330
241
100
AcDbEntity
  8
0
  6
Continuous
 62
     2
100
AcDbLine
 10
1174.161968296
 20
154.8037601768
 30
0.0
 11
1182.2329583684
 21
162.8747502491
 31
0.0
  0
LINE
  5
396
330
241
100
AcDbEntity
  8
0
  6
Continuous
 62
     2
100
AcDbLine
 10
1161.3644606255
 20
142.3975775243
 30
0.0
 11
1173.0800715128
 21
154.1131884116
 31
0.0
  0
LINE
  5
397
330
241
100
AcDbEntity
  8
0
  6
Continuous
 62
     2
100
AcDbLine
 10
1173.770643278
 20
154.8037601768
 30
0.0
 11
1182.0589696202
 21
163.092086519
 31
0.0
  0
LINE
  5
398
330
241
100
AcDbEntity
  8
0
  6
Continuous
 62
     2
100
AcDbLine
 10
1161.3644606255
 20
142.7889025423
 30
0.0
 11
1173.0800715128
 21
154.5045134296
 31
0.0
  0
LINE
  5
399
330
241
100
AcDbEntity
  8
0
  6
Continuous
 62
     2
100
AcDbLine
 10
1173.37931826
 20
154.8037601768
 30
0.0
 11
1181.8849808721
 21
163.3094227889
 31
0.0
  0
LINE
  5
39A
330
241
100
AcDbEntity
  8
0
  6
Continuous
 62
     2
100
AcDbLine
 10
1161.3644606255
 20
143.1802275603
 30
0.0
 11
1181.710992124
 21
163.5267590587
 31
0.0
  0
LINE
  5
39B
330
241
100
AcDbEntity
  8
0
  6
Continuous
 62
     2
100
AcDbLine
 10
1161.3644606255
 20
143.5715525783
 30
0.0
 11
1181.5370033758
 21
163.7440953286
 31
0.0
  0
LINE
  5
39C
330
241
100
AcDbEntity
  8
0
  6
Continuous
 62
     2
100
AcDbLine
 10
1161.3644606255
 20
143.9628775962
 30
0.0
 11
1181.3630146277
 21
163.9614315984
 31
0.0
  0
LINE
  5
39D
330
241
100
AcDbEntity
  8
0
  6
Continuous
 62
     2
100
AcDbLine
 10
1161.3644606255
 20
144.3542026142
 30
0.0
 11
1181.1890258796
 21
164.1787678683
 31
0.0
  0
LINE
  5
39E
330
241
100
AcDbEntity
  8
0
  6
Continuous
 62
     2
100
AcDbLine
 10
1161.3644606255
 20
144.7455276322
 30
0.0
 11
1181.0150371314
 21
164.3961041381
 31
0.0
  0
LINE
  5
39F
330
241
100
AcDbEntity
  8
0
  6
Continuous
 62
     2
100
AcDbLine
 10
1161.3644606255
 20
145.1368526502
 30
0.0
 11
1175.1964983733
 21
158.968890398
 31
0.0
  0
LINE
  5
3A0
330
241
100
AcDbEntity
  8
0
  6
Continuous
 62
     2
100
AcDbLine
 10
1176.1381699195
 20
159.9105619442
 30
0.0
 11
1180.8410483833
 21
164.613440408
 31
0.0
  0
LINE
  5
3A1
330
241
100
AcDbEntity
  8
0
  6
Continuous
 62
     2
100
AcDbLine
 10
1161.3644606255
 20
145.5281776682
 30
0.0
 11
1174.3731098318
 21
158.5368268744
 31
0.0
  0
LINE
  5
3A2
330
241
100
AcDbEntity
  8
0
  6
Continuous
 62
     2
100
AcDbLine
 10
1176.558881562
 20
160.7225986047
 30
0.0
 11
1180.6670596352
 21
164.8307766779
 31
0.0
  0
LINE
  5
3A3
330
241
100
AcDbEntity
  8
0
  6
Continuous
 62
     2
100
AcDbLine
 10
1161.3644606255
 20
145.9195026862
 30
0.0
 11
1173.8243152565
 21
158.3793573171
 31
0.0
  0
LINE
  5
3A4
330
241
100
AcDbEntity
  8
0
  6
Continuous
 62
     2
100
AcDbLine
 10
1176.7171667017
 20
161.2722087624
 30
0.0
 11
1180.493070887
 21
165.0481129477
 31
0.0
  0
LINE
  5
3A5
330
241
100
AcDbEntity
  8
0
  6
Continuous
 62
     2
100
AcDbLine
 10
1161.3644606255
 20
146.3108277042
 30
0.0
 11
1173.3638700142
 21
158.3102370929
 31
0.0
  0
LINE
  5
3A6
330
241
100
AcDbEntity
  8
0
  6
Continuous
 62
     2
100
AcDbLine
 10
1176.7848568405
 20
161.7312239192
 30
0.0
 11
1180.3190821389
 21
165.2654492176
 31
0.0
  0
LINE
  5
3A7
330
241
100
AcDbEntity
  8
0
  6
Continuous
 62
     2
100
AcDbLine
 10
1161.3644606255
 20
146.7021527222
 30
0.0
 11
1172.9626651053
 21
158.3003572019
 31
0.0
  0
LINE
  5
3A8
330
241
100
AcDbEntity
  8
0
  6
Continuous
 62
     2
100
AcDbLine
 10
1176.80199562
 20
162.1396877166
 30
0.0
 11
1180.1450933908
 21
165.4827854874
 31
0.0
  0
LINE
  5
3A9
330
241
100
AcDbEntity
  8
0
  6
Continuous
 62
     2
100
AcDbLine
 10
1161.3644606255
 20
147.0934777402
 30
0.0
 11
1172.6047389003
 21
158.333756015
 31
0.0
  0
LINE
  5
3AA
330
241
100
AcDbEntity
  8
0
  6
Continuous
 62
     2
100
AcDbLine
 10
1176.764888445
 20
162.4939055596
 30
0.0
 11
1179.9711046426
 21
165.7001217573
 31
0.0
  0
LINE
  5
3AB
330
241
100
AcDbEntity
  8
0
  6
Continuous
 62
     2
100
AcDbLine
 10
1161.3644606255
 20
147.4848027581
 30
0.0
 11
1172.2659603323
 21
158.3863024649
 31
0.0
  0
LINE
  5
3AC
330
241
100
AcDbEntity
  8
0
  6
Continuous
 62
     2
100
AcDbLine
 10
1176.7092123054
 20
162.8295544381
 30
0.0
 11
1179.7971158945
 21
165.9174580271
 31
0.0
  0
LINE
  5
3AD
330
241
100
AcDbEntity
  8
0
  6
Continuous
 62
     2
100
AcDbLine
 10
1161.3644606255
 20
147.8761277761
 30
0.0
 11
1171.9610652812
 21
158.4727324318
 31
0.0
  0
LINE
  5
3AE
330
241
100
AcDbEntity
  8
0
  6
Continuous
 62
     2
100
AcDbLine
 10
1176.6272696771
 20
163.1389368277
 30
0.0
 11
1179.6231271464
 21
166.134794297
 31
0.0
  0
LINE
  5
3AF
330
241
100
AcDbEntity
  8
0
  6
Continuous
 62
     2
100
AcDbLine
 10
1161.3644606255
 20
148.2674527941
 30
0.0
 11
1171.6717013927
 21
158.5746935613
 31
0.0
  0
LINE
  5
3B0
330
241
100
AcDbEntity
  8
0
  6
Continuous
 62
     2
100
AcDbLine
 10
1176.5218439059
 20
163.4248360745
 30
0.0
 11
1179.4491383983
 21
166.3521305669
 31
0.0
  0
LINE
  5
3B1
330
241
100
AcDbEntity
  8
0
  6
Continuous
 62
     2
100
AcDbLine
 10
1161.3644606255
 20
148.6587778121
 30
0.0
 11
1171.4026708672
 21
158.6969880538
 31
0.0
  0
LINE
  5
3B2
330
241
100
AcDbEntity
  8
0
  6
Continuous
 62
     2
100
AcDbLine
 10
1176.403439068
 20
163.6977562546
 30
0.0
 11
1179.2751496501
 21
166.5694668367
 31
0.0
  0
LINE
  5
3B3
330
241
100
AcDbEntity
  8
0
  6
Continuous
 62
     2
100
AcDbLine
 10
1161.3644606255
 20
149.0501028301
 30
0.0
 11
1171.1507766473
 21
158.8364188519
 31
0.0
  0
LINE
  5
3B4
330
241
100
AcDbEntity
  8
0
  6
Continuous
 62
     2
100
AcDbLine
 10
1176.2604853902
 20
163.9461275948
 30
0.0
 11
1179.101160902
 21
166.7868031066
 31
0.0
  0
LINE
  5
3B5
330
241
100
AcDbEntity
  8
0
  6
Continuous
 62
     2
100
AcDbLine
 10
1161.3644606255
 20
149.4414278481
 30
0.0
 11
1170.9137532185
 21
158.9907204411
 31
0.0
  0
LINE
  5
3B6
330
241
100
AcDbEntity
  8
0
  6
Continuous
 62
     2
100
AcDbLine
 10
1176.1097362278
 20
164.1867034504
 30
0.0
 11
1178.9271721539
 21
167.0041393764
 31
0.0
  0
LINE
  5
3B7
330
241
100
AcDbEntity
  8
0
  6
Continuous
 62
     2
100
AcDbLine
 10
1161.3644606255
 20
149.8327528661
 30
0.0
 11
1170.6933164796
 21
159.1616087201
 31
0.0
  0
LINE
  5
3B8
330
241
100
AcDbEntity
  8
0
  6
Continuous
 62
     2
100
AcDbLine
 10
1175.9353441399
 20
164.4036363804
 30
0.0
 11
1178.7531834057
 21
167.2214756463
 31
0.0
  0
LINE
  5
3B9
330
241
100
AcDbEntity
  8
0
  6
Continuous
 62
     2
100
AcDbLine
 10
1161.3644606255
 20
150.2240778841
 30
0.0
 11
1170.4863128043
 21
159.3459300628
 31
0.0
  0
LINE
  5
3BA
330
241
100
AcDbEntity
  8
0
  6
Continuous
 62
     2
100
AcDbLine
 10
1175.7544256236
 20
164.6140428822
 30
0.0
 11
1178.5791946576
 21
167.4388119161
 31
0.0
  0
LINE
  5
3BB
330
241
100
AcDbEntity
  8
0
  6
Continuous
 62
     2
100
AcDbLine
 10
1161.3644606255
 20
150.6154029021
 30
0.0
 11
1170.2949200124
 21
159.5458622889
 31
0.0
  0
LINE
  5
3BC
330
241
100
AcDbEntity
  8
0
  6
Continuous
 62
     2
100
AcDbLine
 10
1175.5536114376
 20
164.8045537141
 30
0.0
 11
1178.4052059095
 21
167.656148186
 31
0.0
  0
LINE
  5
3BD
330
241
100
AcDbEntity
  8
0
  6
Continuous
 62
     2
100
AcDbLine
 10
1161.3644606255
 20
151.00672792
 30
0.0
 11
1170.1174132142
 21
159.7596805088
 31
0.0
  0
LINE
  5
3BE
330
241
100
AcDbEntity
  8
0
  6
Continuous
 62
     2
100
AcDbLine
 10
1175.3411872938
 20
164.9834545883
 30
0.0
 11
1178.2312171613
 21
167.8734844559
 31
0.0
  0
LINE
  5
3BF
330
241
100
AcDbEntity
  8
0
  6
Continuous
 62
     2
100
AcDbLine
 10
1161.3644606255
 20
151.398052938
 30
0.0
 11
1169.955416151
 21
159.9890084635
 31
0.0
  0
LINE
  5
3C0
330
241
100
AcDbEntity
  8
0
  6
Continuous
 62
     2
100
AcDbLine
 10
1175.1076903803
 20
165.1412826928
 30
0.0
 11
1178.0572284132
 21
168.0908207257
 31
0.0
  0
LINE
  5
3C1
330
241
100
AcDbEntity
  8
0
  6
Continuous
 62
     2
100
AcDbLine
 10
1161.3644606255
 20
151.789377956
 30
0.0
 11
1169.8082477678
 21
160.2331650983
 31
0.0
  0
LINE
  5
3C2
330
241
100
AcDbEntity
  8
0
  6
Continuous
 62
     2
100
AcDbLine
 10
1174.8673864038
 20
165.2923037343
 30
0.0
 11
1177.8832396651
 21
168.3081569956
 31
0.0
  0
LINE
  5
3C3
330
241
100
AcDbEntity
  8
0
  6
Continuous
 62
     2
100
AcDbLine
 10
1161.3644606255
 20
152.180702974
 30
0.0
 11
1169.6788738088
 21
160.4951161573
 31
0.0
  0
LINE
  5
3C4
330
241
100
AcDbEntity
  8
0
  6
Continuous
 62
     2
100
AcDbLine
 10
1174.6021953485
 20
165.418437697
 30
0.0
 11
1177.7092509169
 21
168.5254932654
 31
0.0
  0
LINE
  5
3C5
330
241
100
AcDbEntity
  8
0
  6
Continuous
 62
     2
100
AcDbLine
 10
1161.3644606255
 20
152.572027992
 30
0.0
 11
1169.5644121797
 21
160.7719795462
 31
0.0
  0
LINE
  5
3C6
330
241
100
AcDbEntity
  8
0
  6
Continuous
 62
     2
100
AcDbLine
 10
1174.3262342345
 20
165.533801601
 30
0.0
 11
1177.5352621688
 21
168.7428295353
 31
0.0
  0
LINE
  5
3C7
330
241
100
AcDbEntity
  8
0
  6
Continuous
 62
     2
100
AcDbLine
 10
1161.3644606255
 20
152.96335301
 30
0.0
 11
1169.4748865212
 21
161.0737789057
 31
0.0
  0
LINE
  5
3C8
330
241
100
AcDbEntity
  8
0
  6
Continuous
 62
     2
100
AcDbLine
 10
1174.025740596
 20
165.6246329805
 30
0.0
 11
1177.3612734207
 21
168.9601658051
 31
0.0
  0
LINE
  5
3C9
330
241
100
AcDbEntity
  8
0
  6
Continuous
 62
     2
100
AcDbLine
 10
1161.3644606255
 20
153.354678028
 30
0.0
 11
1169.3975224702
 21
161.3877398727
 31
0.0
  0
LINE
  5
3CA
330
241
100
AcDbEntity
  8
0
  6
Continuous
 62
     2
100
AcDbLine
 10
1173.7037009801
 20
165.6939183825
 30
0.0
 11
1177.1872846725
 21
169.177502075
 31
0.0
  0
LINE
  5
3CB
330
241
100
AcDbEntity
  8
0
  6
Continuous
 62
     2
100
AcDbLine
 10
1161.3644606255
 20
153.746003046
 30
0.0
 11
1169.3619698205
 21
161.7435122409
 31
0.0
  0
LINE
  5
3CC
330
241
100
AcDbEntity
  8
0
  6
Continuous
 62
     2
100
AcDbLine
 10
1173.3616643649
 20
165.7432067853
 30
0.0
 11
1177.0132959244
 21
169.3948383449
 31
0.0
  0
LINE
  5
3CD
330
241
100
AcDbEntity
  8
0
  6
Continuous
 62
     2
100
AcDbLine
 10
1161.3644606255
 20
154.137328064
 30
0.0
 11
1169.3510355336
 21
162.123902972
 31
0.0
  0
LINE
  5
3CE
330
241
100
AcDbEntity
  8
0
  6
Continuous
 62
     2
100
AcDbLine
 10
1172.9728942609
 20
165.7457616994
 30
0.0
 11
1176.8393071763
 21
169.6121746147
 31
0.0
  0
LINE
  5
3CF
330
241
100
AcDbEntity
  8
0
  6
Continuous
 62
     2
100
AcDbLine
 10
1161.3644606255
 20
154.5286530819
 30
0.0
 11
1169.3785117354
 21
162.5427041918
 31
0.0
  0
LINE
  5
3D0
330
241
100
AcDbEntity
  8
0
  6
Continuous
 62
     2
100
AcDbLine
 10
1172.5450260265
 20
165.709218483
 30
0.0
 11
1176.6653184281
 21
169.8295108846
 31
0.0
  0
LINE
  5
3D1
330
241
100
AcDbEntity
  8
0
  6
Continuous
 62
     2
100
AcDbLine
 10
1161.3644606255
 20
154.9199780999
 30
0.0
 11
1169.4842968637
 21
163.0398143381
 31
0.0
  0
LINE
  5
3D2
330
241
100
AcDbEntity
  8
0
  6
Continuous
 62
     2
100
AcDbLine
 10
1172.0489200483
 20
165.6044375227
 30
0.0
 11
1176.49132968
 21
170.0468471544
 31
0.0
  0
LINE
  5
3D3
330
241
100
AcDbEntity
  8
0
  6
Continuous
 62
     2
100
AcDbLine
 10
1161.3644606255
 20
155.3113031179
 30
0.0
 11
1169.736466995
 21
163.6833094874
 31
0.0
  0
LINE
  5
3D4
330
241
100
AcDbEntity
  8
0
  6
Continuous
 62
     2
100
AcDbLine
 10
1171.4048627039
 20
165.3517051963
 30
0.0
 11
1176.3173409319
 21
170.2641834243
 31
0.0
  0
LINE
  5
3D5
330
241
100
AcDbEntity
  8
0
  6
Continuous
 62
     2
100
AcDbLine
 10
1161.3644606255
 20
155.7026281359
 30
0.0
 11
1176.1433521837
 21
170.4815196941
 31
0.0
  0
LINE
  5
3D6
330
241
100
AcDbEntity
  8
0
  6
Continuous
 62
     2
100
AcDbLine
 10
1161.3644606255
 20
156.0939531539
 30
0.0
 11
1175.9693634356
 21
170.698855964
 31
0.0
  0
LINE
  5
3D7
330
241
100
AcDbEntity
  8
0
  6
Continuous
 62
     2
100
AcDbLine
 10
1161.3644606255
 20
156.4852781719
 30
0.0
 11
1175.7953746875
 21
170.9161922339
 31
0.0
  0
LINE
  5
3D8
330
241
100
AcDbEntity
  8
0
  6
Continuous
 62
     2
100
AcDbLine
 10
1161.3644606255
 20
156.8766031899
 30
0.0
 11
1175.6213859394
 21
171.1335285037
 31
0.0
  0
LINE
  5
3D9
330
241
100
AcDbEntity
  8
0
  6
Continuous
 62
     2
100
AcDbLine
 10
1161.3644606255
 20
157.2679282079
 30
0.0
 11
1175.4473971912
 21
171.3508647736
 31
0.0
  0
LINE
  5
3DA
330
241
100
AcDbEntity
  8
0
  6
Continuous
 62
     2
100
AcDbLine
 10
1161.3644606255
 20
157.6592532259
 30
0.0
 11
1175.2734084431
 21
171.5682010434
 31
0.0
  0
LINE
  5
3DB
330
241
100
AcDbEntity
  8
0
  6
Continuous
 62
     2
100
AcDbLine
 10
1161.3644606255
 20
158.0505782438
 30
0.0
 11
1175.099419695
 21
171.7855373133
 31
0.0
  0
LINE
  5
3DC
330
241
100
AcDbEntity
  8
0
  6
Continuous
 62
     2
100
AcDbLine
 10
1161.3644606255
 20
158.4419032618
 30
0.0
 11
1174.9254309468
 21
172.0028735831
 31
0.0
  0
LINE
  5
3DD
330
241
100
AcDbEntity
  8
0
  6
Continuous
 62
     2
100
AcDbLine
 10
1161.3644606255
 20
158.8332282797999
 30
0.0
 11
1174.7514421987
 21
172.220209853
 31
0.0
  0
LINE
  5
3DE
330
241
100
AcDbEntity
  8
0
  6
Continuous
 62
     2
100
AcDbLine
 10
1161.3644606255
 20
159.2245532978
 30
0.0
 11
1174.5774534506
 21
172.4375461229
 31
0.0
  0
LINE
  5
3DF
330
241
100
AcDbEntity
  8
0
  6
Continuous
 62
     2
100
AcDbLine
 10
1161.3644606255
 20
159.6158783158
 30
0.0
 11
1174.4034647024
 21
172.6548823927
 31
0.0
  0
LINE
  5
3E0
330
241
100
AcDbEntity
  8
0
  6
Continuous
 62
     2
100
AcDbLine
 10
1161.3644606255
 20
160.0072033338
 30
0.0
 11
1174.2294759543
 21
172.8722186626
 31
0.0
  0
LINE
  5
3E1
330
241
100
AcDbEntity
  8
0
  6
Continuous
 62
     2
100
AcDbLine
 10
1161.3644606255
 20
160.3985283518
 30
0.0
 11
1174.0554872062
 21
173.0895549324
 31
0.0
  0
LINE
  5
3E2
330
241
100
AcDbEntity
  8
0
  6
Continuous
 62
     2
100
AcDbLine
 10
1161.3644606255
 20
160.7898533698
 30
0.0
 11
1173.881498458
 21
173.3068912023
 31
0.0
  0
LINE
  5
3E3
330
241
100
AcDbEntity
  8
0
  6
Continuous
 62
     2
100
AcDbLine
 10
1161.3644606255
 20
161.1811783878
 30
0.0
 11
1173.7075097099
 21
173.5242274721
 31
0.0
  0
LINE
  5
3E4
330
241
100
AcDbEntity
  8
0
  6
Continuous
 62
     2
100
AcDbLine
 10
1161.3644606255
 20
161.5725034057
 30
0.0
 11
1173.5335209618
 21
173.741563742
 31
0.0
  0
LINE
  5
3E5
330
241
100
AcDbEntity
  8
0
  6
Continuous
 62
     2
100
AcDbLine
 10
1161.3644606255
 20
161.9638284237
 30
0.0
 11
1173.3595322136
 21
173.9589000119
 31
0.0
  0
LINE
  5
3E6
330
241
100
AcDbEntity
  8
0
  6
Continuous
 62
     2
100
AcDbLine
 10
1161.3644606255
 20
162.3551534417
 30
0.0
 11
1173.158074347
 21
174.1487671632
 31
0.0
  0
LINE
  5
3E7
330
241
100
AcDbEntity
  8
0
  6
Continuous
 62
     2
100
AcDbLine
 10
1161.3644606255
 20
162.7464784597
 30
0.0
 11
1172.766749329
 21
174.1487671632
 31
0.0
  0
LINE
  5
3E8
330
241
100
AcDbEntity
  8
0
  6
Continuous
 62
     2
100
AcDbLine
 10
1161.3644606255
 20
163.1378034777
 30
0.0
 11
1172.375424311
 21
174.1487671632
 31
0.0
  0
LINE
  5
3E9
330
241
100
AcDbEntity
  8
0
  6
Continuous
 62
     2
100
AcDbLine
 10
1161.3644606255
 20
163.5291284957
 30
0.0
 11
1171.984099293
 21
174.1487671632
 31
0.0
  0
LINE
  5
3EA
330
241
100
AcDbEntity
  8
0
  6
Continuous
 62
     2
100
AcDbLine
 10
1161.3644606255
 20
163.9204535137
 30
0.0
 11
1171.592774275
 21
174.1487671632
 31
0.0
  0
LINE
  5
3EB
330
241
100
AcDbEntity
  8
0
  6
Continuous
 62
     2
100
AcDbLine
 10
1161.3644606255
 20
164.3117785317
 30
0.0
 11
1171.201449257
 21
174.1487671632
 31
0.0
  0
LINE
  5
3EC
330
241
100
AcDbEntity
  8
0
  6
Continuous
 62
     2
100
AcDbLine
 10
1161.3644606255
 20
164.7031035497
 30
0.0
 11
1170.8101242391
 21
174.1487671632
 31
0.0
  0
LINE
  5
3ED
330
241
100
AcDbEntity
  8
0
  6
Continuous
 62
     2
100
AcDbLine
 10
1161.3644606255
 20
165.0944285676
 30
0.0
 11
1170.4187992211
 21
174.1487671632
 31
0.0
  0
LINE
  5
3EE
330
241
100
AcDbEntity
  8
0
  6
Continuous
 62
     2
100
AcDbLine
 10
1161.3644606255
 20
165.4857535856
 30
0.0
 11
1170.0274742031
 21
174.1487671632
 31
0.0
  0
LINE
  5
3EF
330
241
100
AcDbEntity
  8
0
  6
Continuous
 62
     2
100
AcDbLine
 10
1161.3644606255
 20
165.8770786036
 30
0.0
 11
1169.6361491851
 21
174.1487671632
 31
0.0
  0
LINE
  5
3F0
330
241
100
AcDbEntity
  8
0
  6
Continuous
 62
     2
100
AcDbLine
 10
1161.3644606255
 20
166.2684036216
 30
0.0
 11
1169.2448241671
 21
174.1487671632
 31
0.0
  0
LINE
  5
3F1
330
241
100
AcDbEntity
  8
0
  6
Continuous
 62
     2
100
AcDbLine
 10
1161.3644606255
 20
166.6597286396
 30
0.0
 11
1168.8534991491
 21
174.1487671632
 31
0.0
  0
LINE
  5
3F2
330
241
100
AcDbEntity
  8
0
  6
Continuous
 62
     2
100
AcDbLine
 10
1161.3644606255
 20
167.0510536576
 30
0.0
 11
1168.4621741311
 21
174.1487671632
 31
0.0
  0
LINE
  5
3F3
330
241
100
AcDbEntity
  8
0
  6
Continuous
 62
     2
100
AcDbLine
 10
1161.3644606255
 20
167.4423786756
 30
0.0
 11
1168.0708491131
 21
174.1487671632
 31
0.0
  0
LINE
  5
3F4
330
241
100
AcDbEntity
  8
0
  6
Continuous
 62
     2
100
AcDbLine
 10
1161.3644606255
 20
167.8337036936
 30
0.0
 11
1167.6795240951
 21
174.1487671632
 31
0.0
  0
LINE
  5
3F5
330
241
100
AcDbEntity
  8
0
  6
Continuous
 62
     2
100
AcDbLine
 10
1161.3644606255
 20
168.2250287116
 30
0.0
 11
1167.2881990772
 21
174.1487671632
 31
0.0
  0
LINE
  5
3F6
330
241
100
AcDbEntity
  8
0
  6
Continuous
 62
     2
100
AcDbLine
 10
1161.3644606255
 20
168.6163537295
 30
0.0
 11
1166.8968740592
 21
174.1487671632
 31
0.0
  0
LINE
  5
3F7
330
241
100
AcDbEntity
  8
0
  6
Continuous
 62
     2
100
AcDbLine
 10
1161.3644606255
 20
169.0076787475
 30
0.0
 11
1166.5055490412
 21
174.1487671632
 31
0.0
  0
LINE
  5
3F8
330
241
100
AcDbEntity
  8
0
  6
Continuous
 62
     2
100
AcDbLine
 10
1161.3644606255
 20
169.3990037655
 30
0.0
 11
1166.1142240232
 21
174.1487671632
 31
0.0
  0
LINE
  5
3F9
330
241
100
AcDbEntity
  8
0
  6
Continuous
 62
     2
100
AcDbLine
 10
1161.3644606255
 20
169.7903287835
 30
0.0
 11
1165.7228990052
 21
174.1487671632
 31
0.0
  0
LINE
  5
3FA
330
241
100
AcDbEntity
  8
0
  6
Continuous
 62
     2
100
AcDbLine
 10
1161.3644606255
 20
170.1816538015
 30
0.0
 11
1165.3315739872
 21
174.1487671632
 31
0.0
  0
LINE
  5
3FB
330
241
100
AcDbEntity
  8
0
  6
Continuous
 62
     2
100
AcDbLine
 10
1161.3644606255
 20
170.5729788195
 30
0.0
 11
1164.9402489692
 21
174.1487671632
 31
0.0
  0
LINE
  5
3FC
330
241
100
AcDbEntity
  8
0
  6
Continuous
 62
     2
100
AcDbLine
 10
1161.3644606255
 20
170.9643038375
 30
0.0
 11
1164.5489239512
 21
174.1487671632
 31
0.0
  0
LINE
  5
3FD
330
241
100
AcDbEntity
  8
0
  6
Continuous
 62
     2
100
AcDbLine
 10
1161.3644606255
 20
171.3556288555
 30
0.0
 11
1164.1575989332
 21
174.1487671632
 31
0.0
  0
LINE
  5
3FE
330
241
100
AcDbEntity
  8
0
  6
Continuous
 62
     2
100
AcDbLine
 10
1161.3644606255
 20
171.7469538735
 30
0.0
 11
1163.7662739153
 21
174.1487671632
 31
0.0
  0
LINE
  5
3FF
330
241
100
AcDbEntity
  8
0
  6
Continuous
 62
     2
100
AcDbLine
 10
1161.3644606255
 20
172.1382788914
 30
0.0
 11
1163.3749488973
 21
174.1487671632
 31
0.0
  0
LINE
  5
400
330
241
100
AcDbEntity
  8
0
  6
Continuous
 62
     2
100
AcDbLine
 10
1161.3644606255
 20
172.5296039094
 30
0.0
 11
1162.9836238793
 21
174.1487671632
 31
0.0
  0
LINE
  5
401
330
241
100
AcDbEntity
  8
0
  6
Continuous
 62
     2
100
AcDbLine
 10
1161.3644606255
 20
172.9209289274
 30
0.0
 11
1162.5922988613
 21
174.1487671632
 31
0.0
  0
LINE
  5
402
330
241
100
AcDbEntity
  8
0
  6
Continuous
 62
     2
100
AcDbLine
 10
1161.3644606255
 20
173.3122539454
 30
0.0
 11
1162.2009738433
 21
174.1487671632
 31
0.0
  0
LINE
  5
403
330
241
100
AcDbEntity
  8
0
  6
Continuous
 62
     2
100
AcDbLine
 10
1161.3644606255
 20
173.7035789634
 30
0.0
 11
1161.8096488253
 21
174.1487671632
 31
0.0
  0
LINE
  5
404
330
241
100
AcDbEntity
  8
0
  6
Continuous
 62
     2
100
AcDbLine
 10
1161.3644606255
 20
174.0949039814
 30
0.0
 11
1161.4183238073
 21
174.1487671632
 31
0.0
  0
ENDBLK
  5
405
330
241
100
AcDbEntity
  8
0
  6
ByBlock
 62
     0
100
AcDbBlockEnd
  0
BLOCK
  5
406
330
242
100
AcDbEntity
  8
0
  6
Continuous
 62
     2
100
AcDbBlockBegin
  2
SYMBOL_2_BL2
 70
     0
 10
188.0598491781
 20
986.5858277871
 30
0.0
  3
SYMBOL_2_BL2
  1

  0
LINE
  5
407
330
242
100
AcDbEntity
  8
0
  6
Continuous
 62
     2
100
AcDbLine
 10
188.7835165921
 20
989.8498365972999
 30
0.0
 11
188.7835165921
 21
983.43830798
 31
0.0
  0
CIRCLE
  5
408
330
242
100
AcDbEntity
  8
0
  6
Continuous
 62
     2
100
AcDbCircle
 10
179.7102919995
 20
986.6440722886
 30
0.0
 40
3.2057643086
  0
CIRCLE
  5
409
330
242
100
AcDbEntity
  8
0
  6
Continuous
 62
     2
100
AcDbCircle
 10
179.7102919995
 20
986.6440722886
 30
0.0
 40
5.962905907799999
  0
LINE
  5
40A
330
242
100
AcDbEntity
  8
0
  6
Continuous
 62
     2
100
AcDbLine
 10
202.5812739759
 20
992.6069781964999
 30
0.0
 11
202.5812739759
 21
980.6811663808
 31
0.0
  0
LINE
  5
40B
330
242
100
AcDbEntity
  8
0
  6
Continuous
 62
     2
100
AcDbLine
 10
188.7835165921
 20
989.8498365972999
 30
0.0
 11
202.5812739759
 21
992.6069781964999
 31
0.0
  0
LINE
  5
40C
330
242
100
AcDbEntity
  8
0
  6
Continuous
 62
     2
100
AcDbLine
 10
188.7835165921
 20
983.43830798
 30
0.0
 11
202.5812739759
 21
980.6811663808
 31
0.0
  0
LINE
  5
40D
330
242
100
AcDbEntity
  8
DEFAULT_1
  6
CENTER
 62
     2
100
AcDbLine
 10
187.5770471029
 20
986.6440722886
 30
0.0
 11
203.6341567258
 21
986.6440722886
 31
0.0
  0
LINE
  5
40E
330
242
100
AcDbEntity
  8
DEFAULT_1
  6
CENTER
 62
     2
100
AcDbLine
 10
172.4855416305
 20
986.6440722886
 30
0.0
 11
186.4976423285
 21
986.6440722886
 31
0.0
  0
LINE
  5
40F
330
242
100
AcDbEntity
  8
DEFAULT_1
  6
CENTER
 62
     2
100
AcDbLine
 10
179.7102919995
 20
979.5858277870999
 30
0.0
 11
179.7102919995
 21
993.5858277871
 31
0.0
  0
ENDBLK
  5
410
330
242
100
AcDbEntity
  8
0
  6
ByBlock
 62
     0
100
AcDbBlockEnd
  0
BLOCK
  5
411
330
243
100
AcDbEntity
  8
0
  6
Continuous
 62
     2
100
AcDbBlockBegin
  2
SYMBOL_1_BL1
 70
     0
 10
98.49772382250002
 20
947.3230318864001
 30
0.0
  3
SYMBOL_1_BL1
  1

  0
LINE
  5
412
330
243
100
AcDbEntity
  8
0
  6
Continuous
 62
     2
100
AcDbLine
 10
93.3473647701
 20
953.2701542571
 30
0.0
 11
93.3473647701
 21
941.3759095157999
 31
0.0
  0
LINE
  5
413
330
243
100
AcDbEntity
  8
0
  6
Continuous
 62
     2
100
AcDbLine
 10
93.3473647701
 20
941.3759095157999
 30
0.0
 11
103.6480828749
 21
947.3230318864001
 31
0.0
  0
LINE
  5
414
330
243
100
AcDbEntity
  8
0
  6
Continuous
 62
     2
100
AcDbLine
 10
103.6480828749
 20
947.3230318864001
 30
0.0
 11
93.3473647701
 21
953.2701542571
 31
0.0
  0
SOLID
  5
415
330
243
100
AcDbEntity
  8
0
  6
Continuous
 62
     2
100
AcDbTrace
 10
93.3473647701
 20
953.2701542571
 30
0.0
 11
103.6480828749
 21
947.3230318864001
 31
0.0
 12
93.3473647701
 22
941.3759095157999
 32
0.0
 13
93.3473647701
 23
941.3759095157999
 33
0.0
  0
ENDBLK
  5
416
330
243
100
AcDbEntity
  8
0
  6
ByBlock
 62
     0
100
AcDbBlockEnd
  0
BLOCK
  5
417
330
244
100
AcDbEntity
  8
0
  6
Continuous
 62
     2
100
AcDbBlockBegin
  2
SYMBOL_0_BL0
 70
     0
 10
98.89136969129999
 20
966.6429604021001
 30
0.0
  3
SYMBOL_0_BL0
  1

  0
LINE
  5
418
330
244
100
AcDbEntity
  8
0
  6
Continuous
 62
     2
100
AcDbLine
 10
93.74100435829999
 20
960.6957409021001
 30
0.0
 11
93.74119713629999
 21
972.5901799021
 31
0.0
  0
LINE
  5
419
330
244
100
AcDbEntity
  8
0
  6
Continuous
 62
     2
100
AcDbLine
 10
104.0353170203
 20
966.6464423905999
 30
0.0
 11
98.8881606892
 21
969.6182212696001
 31
0.0
  0
LINE
  5
41A
330
244
100
AcDbEntity
  8
0
  6
Continuous
 62
     2
100
AcDbLine
 10
104.0417350244
 20
966.6428705255999
 30
0.0
 11
93.7410043582
 21
960.6957409026
 31
0.0
  0
LINE
  5
41B
330
244
100
AcDbEntity
  8
0
  6
Continuous
 62
     2
100
AcDbLine
 10
93.74100435829999
 20
960.6957409021001
 30
0.0
 11
98.8881606892
 21
969.6182212696001
 31
0.0
  0
LINE
  5
41C
330
244
100
AcDbEntity
  8
0
  6
Continuous
 62
     2
100
AcDbLine
 10
98.8881606892
 20
969.6182212696001
 30
0.0
 11
93.7410043582
 21
972.5900001485999
 31
0.0
  0
SOLID
  5
41D
330
244
100
AcDbEntity
  8
0
  6
Continuous
 62
     2
100
AcDbTrace
 10
104.0417350244
 20
966.6428705255999
 30
0.0
 11
93.7410043582
 21
960.6957409026
 31
0.0
 12
98.8881606892
 22
969.6182212696001
 32
0.0
 13
98.8881606892
 23
969.6182212696001
 33
0.0
  0
ENDBLK
  5
41E
330
244
100
AcDbEntity
  8
0
  6
ByBlock
 62
     0
100
AcDbBlockEnd
  0
BLOCK
  5
185D
330
185C
100
AcDbEntity
  8
0
  6
Continuous
 62
     5
100
AcDbBlockBegin
  2
SYMBOL_3_BL2
 70
     0
 10
946.568209876
 20
123.3190137305
 30
0.0
  3
SYMBOL_3_BL2
  1

  0
LINE
  5
185E
330
185C
100
AcDbEntity
  8
0
  6
Continuous
 62
     5
100
AcDbLine
 10
929.0915685004
 20
139.3190137305
 30
0.0
 11
938.5660271146001
 21
139.3190137305
 31
0.0
  0
LINE
  5
185F
330
185C
100
AcDbEntity
  8
0
  6
Continuous
 62
     5
100
AcDbLine
 10
929.0915685004
 20
139.3190137305
 30
0.0
 11
938.5660271146001
 21
139.3190137305
 31
0.0
  0
LINE
  5
1860
330
185C
100
AcDbEntity
  8
0
  6
Continuous
 62
     5
100
AcDbLine
 10
964.0448512516
 20
139.3190137305
 30
0.0
 11
964.0448512516
 21
107.3190137305
 31
0.0
  0
LINE
  5
1861
330
185C
100
AcDbEntity
  8
0
  6
Continuous
 62
     5
100
AcDbLine
 10
964.0448512516
 20
107.3190137305
 30
0.0
 11
955.0879986621
 21
107.3190137305
 31
0.0
  0
LINE
  5
1862
330
185C
100
AcDbEntity
  8
0
  6
Continuous
 62
     5
100
AcDbLine
 10
929.0915685004
 20
107.3190137305
 30
0.0
 11
929.0915685004
 21
139.3190137305
 31
0.0
  0
LINE
  5
1863
330
185C
100
AcDbEntity
  8
0
  6
Continuous
 62
     5
100
AcDbLine
 10
946.9218516509
 20
128.8814207494
 30
0.0
 11
955.2776761872999
 21
139.3190137305
 31
0.0
  0
CIRCLE
  5
1864
330
185C
100
AcDbEntity
  8
0
  6
Continuous
 62
     5
100
AcDbCircle
 10
938.458259507
 20
129.6202362267
 30
0.0
 40
2.9853175737
  0
LINE
  5
1865
330
185C
100
AcDbEntity
  8
0
  6
Continuous
 62
     5
100
AcDbLine
 10
955.0879986621
 20
123.8430081414
 30
0.0
 11
951.2236611600998
 21
123.8430081414
 31
0.0
  0
LINE
  5
1866
330
185C
100
AcDbEntity
  8
0
  6
Continuous
 62
     5
100
AcDbLine
 10
955.0879986621
 20
107.3190137305
 30
0.0
 11
955.0879986621
 21
123.8430081414
 31
0.0
  0
LINE
  5
1867
330
185C
100
AcDbEntity
  8
0
  6
Continuous
 62
     5
100
AcDbLine
 10
951.2236611600998
 20
107.3190137305
 30
0.0
 11
951.2236611600998
 21
123.8430081414
 31
0.0
  0
LINE
  5
1868
330
185C
100
AcDbEntity
  8
0
  6
Continuous
 62
     5
100
AcDbLine
 10
938.4640572103
 20
107.3190137305
 30
0.0
 11
938.4640572103
 21
123.8430081414
 31
0.0
  0
LINE
  5
1869
330
185C
100
AcDbEntity
  8
0
  6
Continuous
 62
     5
100
AcDbLine
 10
942.6200421417
 20
107.3190137305
 30
0.0
 11
942.6200421417
 21
123.8430081414
 31
0.0
  0
LINE
  5
186A
330
185C
100
AcDbEntity
  8
0
  6
Continuous
 62
     5
100
AcDbLine
 10
946.9218516509
 20
123.8430081414
 30
0.0
 11
946.9218516509
 21
128.8814207494
 31
0.0
  0
LINE
  5
186B
330
185C
100
AcDbEntity
  8
0
  6
Continuous
 62
     5
100
AcDbLine
 10
946.9218516509
 20
128.8814207494
 30
0.0
 11
938.5660271146001
 21
139.3190137305
 31
0.0
  0
LINE
  5
186C
330
185C
100
AcDbEntity
  8
0
  6
Continuous
 62
     5
100
AcDbLine
 10
938.4640572103
 20
107.3190137305
 30
0.0
 11
929.0915685004
 21
107.3190137305
 31
0.0
  0
LINE
  5
186D
330
185C
100
AcDbEntity
  8
0
  6
Continuous
 62
     5
100
AcDbLine
 10
955.2776761872999
 20
139.3190137305
 30
0.0
 11
964.0448512516
 21
139.3190137305
 31
0.0
  0
LINE
  5
186E
330
185C
100
AcDbEntity
  8
0
  6
Continuous
 62
     5
100
AcDbLine
 10
946.9218516509
 20
123.8430081414
 30
0.0
 11
938.4640572103
 21
123.8430081414
 31
0.0
  0
LINE
  5
186F
330
185C
100
AcDbEntity
  8
0
  6
Continuous
 62
     5
100
AcDbLine
 10
951.2236611600998
 20
107.3190137305
 30
0.0
 11
942.6200421417
 21
107.3190137305
 31
0.0
  0
LINE
  5
1870
330
185C
100
AcDbEntity
  8
0
  6
Continuous
 62
     5
100
AcDbLine
 10
939.6839007632001
 20
137.9226332659
 30
0.0
 11
938.2875202985999
 21
139.3190137305
 31
0.0
  0
LINE
  5
1871
330
185C
100
AcDbEntity
  8
0
  6
Continuous
 62
     5
100
AcDbLine
 10
940.9404644103998
 20
136.3530096044
 30
0.0
 11
937.9744602841999
 21
139.3190137305
 31
0.0
  0
LINE
  5
1872
330
185C
100
AcDbEntity
  8
0
  6
Continuous
 62
     5
100
AcDbLine
 10
942.1970280574999
 20
134.7833859429
 30
0.0
 11
937.6614002698
 21
139.3190137305
 31
0.0
  0
LINE
  5
1873
330
185C
100
AcDbEntity
  8
0
  6
Continuous
 62
     5
100
AcDbLine
 10
943.4535917046
 20
133.2137622812999
 30
0.0
 11
937.3483402553999
 21
139.3190137305
 31
0.0
  0
LINE
  5
1874
330
185C
100
AcDbEntity
  8
0
  6
Continuous
 62
     5
100
AcDbLine
 10
944.7101553517999
 20
131.6441386198
 30
0.0
 11
937.035280241
 21
139.3190137305
 31
0.0
  0
LINE
  5
1875
330
185C
100
AcDbEntity
  8
0
  6
Continuous
 62
     5
100
AcDbLine
 10
945.9667189989
 20
130.0745149583
 30
0.0
 11
936.7222202266001
 21
139.3190137305
 31
0.0
  0
LINE
  5
1876
330
185C
100
AcDbEntity
  8
0
  6
Continuous
 62
     5
100
AcDbLine
 10
946.9218516509
 20
128.8063222918
 30
0.0
 11
936.4091602122
 21
139.3190137305
 31
0.0
  0
LINE
  5
1877
330
185C
100
AcDbEntity
  8
0
  6
Continuous
 62
     5
100
AcDbLine
 10
946.9218516509
 20
128.4932622775
 30
0.0
 11
936.0961001977999
 21
139.3190137305
 31
0.0
  0
LINE
  5
1878
330
185C
100
AcDbEntity
  8
0
  6
Continuous
 62
     5
100
AcDbLine
 10
946.9218516509
 20
128.1802022631
 30
0.0
 11
935.7830401835
 21
139.3190137305
 31
0.0
  0
LINE
  5
1879
330
185C
100
AcDbEntity
  8
0
  6
Continuous
 62
     5
100
AcDbLine
 10
946.9218516509
 20
127.8671422487
 30
0.0
 11
935.4699801690999
 21
139.3190137305
 31
0.0
  0
LINE
  5
187A
330
185C
100
AcDbEntity
  8
0
  6
Continuous
 62
     5
100
AcDbLine
 10
946.9218516509
 20
127.5540822343
 30
0.0
 11
935.1569201547
 21
139.3190137305
 31
0.0
  0
LINE
  5
187B
330
185C
100
AcDbEntity
  8
0
  6
Continuous
 62
     5
100
AcDbLine
 10
946.9218516509
 20
127.2410222199
 30
0.0
 11
934.8438601403
 21
139.3190137305
 31
0.0
  0
LINE
  5
187C
330
185C
100
AcDbEntity
  8
0
  6
Continuous
 62
     5
100
AcDbLine
 10
946.9218516509
 20
126.9279622055
 30
0.0
 11
934.5308001258999
 21
139.3190137305
 31
0.0
  0
LINE
  5
187D
330
185C
100
AcDbEntity
  8
0
  6
Continuous
 62
     5
100
AcDbLine
 10
946.9218516509
 20
126.6149021911
 30
0.0
 11
934.2177401114998
 21
139.3190137305
 31
0.0
  0
LINE
  5
187E
330
185C
100
AcDbEntity
  8
0
  6
Continuous
 62
     5
100
AcDbLine
 10
946.9218516509
 20
126.3018421767
 30
0.0
 11
933.9046800971001
 21
139.3190137305
 31
0.0
  0
LINE
  5
187F
330
185C
100
AcDbEntity
  8
0
  6
Continuous
 62
     5
100
AcDbLine
 10
946.9218516509
 20
125.9887821623
 30
0.0
 11
933.5916200827
 21
139.3190137305
 31
0.0
  0
LINE
  5
1880
330
185C
100
AcDbEntity
  8
0
  6
Continuous
 62
     5
100
AcDbLine
 10
946.9218516509
 20
125.6757221479
 30
0.0
 11
933.2785600683001
 21
139.3190137305
 31
0.0
  0
LINE
  5
1881
330
185C
100
AcDbEntity
  8
0
  6
Continuous
 62
     5
100
AcDbLine
 10
946.9218516509
 20
125.3626621335
 30
0.0
 11
940.7412787412999
 21
131.5432350432
 31
0.0
  0
LINE
  5
1882
330
185C
100
AcDbEntity
  8
0
  6
Continuous
 62
     5
100
AcDbLine
 10
940.3980673686
 20
131.8864464159
 30
0.0
 11
932.9655000539
 21
139.3190137305
 31
0.0
  0
LINE
  5
1883
330
185C
100
AcDbEntity
  8
0
  6
Continuous
 62
     5
100
AcDbLine
 10
946.9218516509
 20
125.0496021192
 30
0.0
 11
941.2174765287
 21
130.7539772413
 31
0.0
  0
LINE
  5
1884
330
185C
100
AcDbEntity
  8
0
  6
Continuous
 62
     5
100
AcDbLine
 10
939.5967504709
 20
132.3747032992
 30
0.0
 11
932.6524400394999
 21
139.3190137305
 31
0.0
  0
LINE
  5
1885
330
185C
100
AcDbEntity
  8
0
  6
Continuous
 62
     5
100
AcDbLine
 10
946.9218516509
 20
124.7365421048
 30
0.0
 11
941.3616987124001
 21
130.2966950433
 31
0.0
  0
LINE
  5
1886
330
185C
100
AcDbEntity
  8
0
  6
Continuous
 62
     5
100
AcDbLine
 10
939.1376691098999
 20
132.5207246458
 30
0.0
 11
932.3393800252
 21
139.3190137305
 31
0.0
  0
LINE
  5
1887
330
185C
100
AcDbEntity
  8
0
  6
Continuous
 62
     5
100
AcDbLine
 10
946.9218516509
 20
124.4234820904
 30
0.0
 11
941.4287418656
 21
129.9165918757
 31
0.0
  0
LINE
  5
1888
330
185C
100
AcDbEntity
  8
0
  6
Continuous
 62
     5
100
AcDbLine
 10
938.7581849772001
 20
132.5871487641
 30
0.0
 11
932.0263200108
 21
139.3190137305
 31
0.0
  0
LINE
  5
1889
330
185C
100
AcDbEntity
  8
0
  6
Continuous
 62
     5
100
AcDbLine
 10
946.9218516509
 20
124.110422076
 30
0.0
 11
941.4366457783998
 21
129.5956279485
 31
0.0
  0
LINE
  5
188A
330
185C
100
AcDbEntity
  8
0
  6
Continuous
 62
     5
100
AcDbLine
 10
938.4314139391999
 20
132.6008597877
 30
0.0
 11
931.7132599963999
 21
139.3190137305
 31
0.0
  0
LINE
  5
188B
330
185C
100
AcDbEntity
  8
0
  6
Continuous
 62
     5
100
AcDbLine
 10
946.8762055711
 20
123.8430081414
 30
0.0
 11
941.418446742
 21
129.3007669706
 31
0.0
  0
LINE
  5
188C
330
185C
100
AcDbEntity
  8
0
  6
Continuous
 62
     5
100
AcDbLine
 10
938.1392410547
 20
132.5799726578
 30
0.0
 11
931.400199982
 21
139.3190137305
 31
0.0
  0
LINE
  5
188D
330
185C
100
AcDbEntity
  8
0
  6
Continuous
 62
     5
100
AcDbLine
 10
946.5631455566999
 20
123.8430081414
 30
0.0
 11
941.3831374367999
 21
129.0230162614
 31
0.0
  0
LINE
  5
188E
330
185C
100
AcDbEntity
  8
0
  6
Continuous
 62
     5
100
AcDbLine
 10
937.8638338989
 20
132.5423197993
 30
0.0
 11
931.0871399675999
 21
139.3190137305
 31
0.0
  0
LINE
  5
188F
330
185C
100
AcDbEntity
  8
0
  6
Continuous
 62
     5
100
AcDbLine
 10
946.2500855423
 20
123.8430081414
 30
0.0
 11
941.3139934632001
 21
128.7791002205
 31
0.0
  0
LINE
  5
1890
330
185C
100
AcDbEntity
  8
0
  6
Continuous
 62
     5
100
AcDbLine
 10
937.6163279872001
 20
132.4767656966
 30
0.0
 11
930.7740799532
 21
139.3190137305
 31
0.0
  0
LINE
  5
1891
330
185C
100
AcDbEntity
  8
0
  6
Continuous
 62
     5
100
AcDbLine
 10
945.9370255278999
 20
123.8430081414
 30
0.0
 11
941.2381026655999
 21
128.5419310037
 31
0.0
  0
LINE
  5
1892
330
185C
100
AcDbEntity
  8
0
  6
Continuous
 62
     5
100
AcDbLine
 10
937.3818358577999
 20
132.3981978115
 30
0.0
 11
930.4610199388001
 21
139.3190137305
 31
0.0
  0
LINE
  5
1893
330
185C
100
AcDbEntity
  8
0
  6
Continuous
 62
     5
100
AcDbLine
 10
945.6239655135
 20
123.8430081414
 30
0.0
 11
941.1402670716
 21
128.3267065833
 31
0.0
  0
LINE
  5
1894
330
185C
100
AcDbEntity
  8
0
  6
Continuous
 62
     5
100
AcDbLine
 10
937.1634997138
 20
132.3034739412
 30
0.0
 11
930.1479599244
 21
139.3190137305
 31
0.0
  0
LINE
  5
1895
330
185C
100
AcDbEntity
  8
0
  6
Continuous
 62
     5
100
AcDbLine
 10
945.3109054991001
 20
123.8430081414
 30
0.0
 11
941.0337898272999
 21
128.1201238133
 31
0.0
  0
LINE
  5
1896
330
185C
100
AcDbEntity
  8
0
  6
Continuous
 62
     5
100
AcDbLine
 10
936.9596818572999
 20
132.1942317833
 30
0.0
 11
929.8348999099999
 21
139.3190137305
 31
0.0
  0
LINE
  5
1897
330
185C
100
AcDbEntity
  8
0
  6
Continuous
 62
     5
100
AcDbLine
 10
944.9978454847
 20
123.8430081414
 30
0.0
 11
940.9103485558999
 21
127.9305050702
 31
0.0
  0
LINE
  5
1898
330
185C
100
AcDbEntity
  8
0
  6
Continuous
 62
     5
100
AcDbLine
 10
936.7672211727999
 20
132.0736324534
 30
0.0
 11
929.5218398956
 21
139.3190137305
 31
0.0
  0
LINE
  5
1899
330
185C
100
AcDbEntity
  8
0
  6
Continuous
 62
     5
100
AcDbLine
 10
944.6847854704
 20
123.8430081414
 30
0.0
 11
940.7783906886999
 21
127.7494029231
 31
0.0
  0
LINE
  5
189A
330
185C
100
AcDbEntity
  8
0
  6
Continuous
 62
     5
100
AcDbLine
 10
936.5888983877999
 20
131.938895224
 30
0.0
 11
929.2087798812
 21
139.3190137305
 31
0.0
  0
LINE
  5
189B
330
185C
100
AcDbEntity
  8
0
  6
Continuous
 62
     5
100
AcDbLine
 10
944.371725456
 20
123.8430081414
 30
0.0
 11
940.6309336146
 21
127.5837999828
 31
0.0
  0
LINE
  5
189C
330
185C
100
AcDbEntity
  8
0
  6
Continuous
 62
     5
100
AcDbLine
 10
936.4205731864
 20
131.794160411
 30
0.0
 11
929.0915685004
 21
139.123165097
 31
0.0
  0
LINE
  5
189D
330
185C
100
AcDbEntity
  8
0
  6
Continuous
 62
     5
100
AcDbLine
 10
944.0586654416
 20
123.8430081414
 30
0.0
 11
940.4756578075
 21
127.4260157755
 31
0.0
  0
LINE
  5
189E
330
185C
100
AcDbEntity
  8
0
  6
Continuous
 62
     5
100
AcDbLine
 10
936.2640346935
 20
131.6376388895
 30
0.0
 11
929.0915685004
 21
138.8101050826
 31
0.0
  0
LINE
  5
189F
330
185C
100
AcDbEntity
  8
0
  6
Continuous
 62
     5
100
AcDbLine
 10
943.7456054271999
 20
123.8430081414
 30
0.0
 11
940.3046032316
 21
127.284010337
 31
0.0
  0
LINE
  5
18A0
330
185C
100
AcDbEntity
  8
0
  6
Continuous
 62
     5
100
AcDbLine
 10
936.1167195594001
 20
131.4718940092
 30
0.0
 11
929.0915685004
 21
138.4970450682
 31
0.0
  0
LINE
  5
18A1
330
185C
100
AcDbEntity
  8
0
  6
Continuous
 62
     5
100
AcDbLine
 10
943.4325454128
 20
123.8430081414
 30
0.0
 11
940.1259440746999
 21
127.1496094795
 31
0.0
  0
LINE
  5
18A2
330
185C
100
AcDbEntity
  8
0
  6
Continuous
 62
     5
100
AcDbLine
 10
935.9904570758001
 20
131.2850964784
 30
0.0
 11
929.0915685004
 21
138.1839850538
 31
0.0
  0
LINE
  5
18A3
330
185C
100
AcDbEntity
  8
0
  6
Continuous
 62
     5
100
AcDbLine
 10
943.1194853983999
 20
123.8430081414
 30
0.0
 11
939.9306187667999
 21
127.031874773
 31
0.0
  0
LINE
  5
18A4
330
185C
100
AcDbEntity
  8
0
  6
Continuous
 62
     5
100
AcDbLine
 10
935.8646223958
 20
131.0978711441
 30
0.0
 11
929.0915685004
 21
137.8709250394
 31
0.0
  0
LINE
  5
18A5
330
185C
100
AcDbEntity
  8
0
  6
Continuous
 62
     5
100
AcDbLine
 10
942.8064253839998
 20
123.8430081414
 30
0.0
 11
939.7262360841999
 21
126.9231974412
 31
0.0
  0
LINE
  5
18A6
330
185C
100
AcDbEntity
  8
0
  6
Continuous
 62
     5
100
AcDbLine
 10
935.7637152256
 20
130.8857182998
 30
0.0
 11
929.0915685004
 21
137.557865025
 31
0.0
  0
LINE
  5
18A7
330
185C
100
AcDbEntity
  8
0
  6
Continuous
 62
     5
100
AcDbLine
 10
942.4933653695999
 20
123.8430081414
 30
0.0
 11
939.5047453730999
 21
126.8316281379
 31
0.0
  0
LINE
  5
18A8
330
185C
100
AcDbEntity
  8
0
  6
Continuous
 62
     5
100
AcDbLine
 10
935.6658349636999
 20
130.6705385473
 30
0.0
 11
929.0915685004
 21
137.2448050106
 31
0.0
  0
LINE
  5
18A9
330
185C
100
AcDbEntity
  8
0
  6
Continuous
 62
     5
100
AcDbLine
 10
942.1803053552
 20
123.8430081414
 30
0.0
 11
939.2691792096
 21
126.7541342871
 31
0.0
  0
LINE
  5
18AA
330
185C
100
AcDbEntity
  8
0
  6
Continuous
 62
     5
100
AcDbLine
 10
935.5931698600999
 20
130.4301436365
 30
0.0
 11
929.0915685004
 21
136.9317449963
 31
0.0
  0
LINE
  5
18AB
330
185C
100
AcDbEntity
  8
0
  6
Continuous
 62
     5
100
AcDbLine
 10
941.8672453407999
 20
123.8430081414
 30
0.0
 11
939.0180104359
 21
126.6922430463
 31
0.0
  0
LINE
  5
18AC
330
185C
100
AcDbEntity
  8
0
  6
Continuous
 62
     5
100
AcDbLine
 10
935.5311644147001
 20
130.1790890676
 30
0.0
 11
929.0915685004
 21
136.6186849819
 31
0.0
  0
LINE
  5
18AD
330
185C
100
AcDbEntity
  8
0
  6
Continuous
 62
     5
100
AcDbLine
 10
941.5541853264
 20
123.8430081414
 30
0.0
 11
938.7404509180999
 21
126.6567425498
 31
0.0
  0
LINE
  5
18AE
330
185C
100
AcDbEntity
  8
0
  6
Continuous
 62
     5
100
AcDbLine
 10
935.4917336925
 20
129.9054597754
 30
0.0
 11
929.0915685004
 21
136.3056249675
 31
0.0
  0
LINE
  5
18AF
330
185C
100
AcDbEntity
  8
0
  6
Continuous
 62
     5
100
AcDbLine
 10
941.241125312
 20
123.8430081414
 30
0.0
 11
938.4452350855999
 21
126.6388983679
 31
0.0
  0
LINE
  5
18B0
330
185C
100
AcDbEntity
  8
0
  6
Continuous
 62
     5
100
AcDbLine
 10
935.4814303522999
 20
129.6027031012
 30
0.0
 11
929.0915685004
 21
135.9925649531
 31
0.0
  0
LINE
  5
18B1
330
185C
100
AcDbEntity
  8
0
  6
Continuous
 62
     5
100
AcDbLine
 10
940.9280652977001
 20
123.8430081414
 30
0.0
 11
938.1124340148
 21
126.6586394243
 31
0.0
  0
LINE
  5
18B2
330
185C
100
AcDbEntity
  8
0
  6
Continuous
 62
     5
100
AcDbLine
 10
935.4994031525999
 20
129.2716702865
 30
0.0
 11
929.0915685004
 21
135.6795049387
 31
0.0
  0
LINE
  5
18B3
330
185C
100
AcDbEntity
  8
0
  6
Continuous
 62
     5
100
AcDbLine
 10
940.6150052833
 20
123.8430081414
 30
0.0
 11
937.7253472167
 21
126.732666208
 31
0.0
  0
LINE
  5
18B4
330
185C
100
AcDbEntity
  8
0
  6
Continuous
 62
     5
100
AcDbLine
 10
935.5660184183999
 20
128.8919950063
 30
0.0
 11
929.0915685004
 21
135.3664449243
 31
0.0
  0
LINE
  5
18B5
330
185C
100
AcDbEntity
  8
0
  6
Continuous
 62
     5
100
AcDbLine
 10
940.3019452688999
 20
123.8430081414
 30
0.0
 11
937.2510952517998
 21
126.8938581585
 31
0.0
  0
LINE
  5
18B6
330
185C
100
AcDbEntity
  8
0
  6
Continuous
 62
     5
100
AcDbLine
 10
935.7367232487
 20
128.4082301616
 30
0.0
 11
929.0915685004
 21
135.0533849099
 31
0.0
  0
LINE
  5
18B7
330
185C
100
AcDbEntity
  8
0
  6
Continuous
 62
     5
100
AcDbLine
 10
939.9888852545
 20
123.8430081414
 30
0.0
 11
929.0915685004
 21
134.7403248955
 31
0.0
  0
LINE
  5
18B8
330
185C
100
AcDbEntity
  8
0
  6
Continuous
 62
     5
100
AcDbLine
 10
939.6758252400999
 20
123.8430081414
 30
0.0
 11
929.0915685004
 21
134.4272648811
 31
0.0
  0
LINE
  5
18B9
330
185C
100
AcDbEntity
  8
0
  6
Continuous
 62
     5
100
AcDbLine
 10
939.3627652257
 20
123.8430081414
 30
0.0
 11
929.0915685004
 21
134.1142048667
 31
0.0
  0
LINE
  5
18BA
330
185C
100
AcDbEntity
  8
0
  6
Continuous
 62
     5
100
AcDbLine
 10
939.0497052113001
 20
123.8430081414
 30
0.0
 11
929.0915685004
 21
133.8011448523
 31
0.0
  0
LINE
  5
18BB
330
185C
100
AcDbEntity
  8
0
  6
Continuous
 62
     5
100
AcDbLine
 10
938.7366451968999
 20
123.8430081414
 30
0.0
 11
929.0915685004
 21
133.488084838
 31
0.0
  0
LINE
  5
18BC
330
185C
100
AcDbEntity
  8
0
  6
Continuous
 62
     5
100
AcDbLine
 10
938.4640572103
 20
123.8025361137
 30
0.0
 11
929.0915685004
 21
133.1750248236
 31
0.0
  0
LINE
  5
18BD
330
185C
100
AcDbEntity
  8
0
  6
Continuous
 62
     5
100
AcDbLine
 10
938.4640572103
 20
123.4894760993
 30
0.0
 11
929.0915685004
 21
132.8619648092
 31
0.0
  0
LINE
  5
18BE
330
185C
100
AcDbEntity
  8
0
  6
Continuous
 62
     5
100
AcDbLine
 10
938.4640572103
 20
123.1764160849
 30
0.0
 11
929.0915685004
 21
132.5489047948
 31
0.0
  0
LINE
  5
18BF
330
185C
100
AcDbEntity
  8
0
  6
Continuous
 62
     5
100
AcDbLine
 10
938.4640572103
 20
122.8633560705
 30
0.0
 11
929.0915685004
 21
132.2358447804
 31
0.0
  0
LINE
  5
18C0
330
185C
100
AcDbEntity
  8
0
  6
Continuous
 62
     5
100
AcDbLine
 10
938.4640572103
 20
122.5502960561
 30
0.0
 11
929.0915685004
 21
131.922784766
 31
0.0
  0
LINE
  5
18C1
330
185C
100
AcDbEntity
  8
0
  6
Continuous
 62
     5
100
AcDbLine
 10
938.4640572103
 20
122.2372360417
 30
0.0
 11
929.0915685004
 21
131.6097247516
 31
0.0
  0
LINE
  5
18C2
330
185C
100
AcDbEntity
  8
0
  6
Continuous
 62
     5
100
AcDbLine
 10
938.4640572103
 20
121.9241760274
 30
0.0
 11
929.0915685004
 21
131.2966647372
 31
0.0
  0
LINE
  5
18C3
330
185C
100
AcDbEntity
  8
0
  6
Continuous
 62
     5
100
AcDbLine
 10
938.4640572103
 20
121.611116013
 30
0.0
 11
929.0915685004
 21
130.9836047228
 31
0.0
  0
LINE
  5
18C4
330
185C
100
AcDbEntity
  8
0
  6
Continuous
 62
     5
100
AcDbLine
 10
938.4640572103
 20
121.2980559986
 30
0.0
 11
929.0915685004
 21
130.6705447084
 31
0.0
  0
LINE
  5
18C5
330
185C
100
AcDbEntity
  8
0
  6
Continuous
 62
     5
100
AcDbLine
 10
938.4640572103
 20
120.9849959842
 30
0.0
 11
929.0915685004
 21
130.357484694
 31
0.0
  0
LINE
  5
18C6
330
185C
100
AcDbEntity
  8
0
  6
Continuous
 62
     5
100
AcDbLine
 10
938.4640572103
 20
120.6719359698
 30
0.0
 11
929.0915685004
 21
130.0444246796
 31
0.0
  0
LINE
  5
18C7
330
185C
100
AcDbEntity
  8
0
  6
Continuous
 62
     5
100
AcDbLine
 10
938.4640572103
 20
120.3588759554
 30
0.0
 11
929.0915685004
 21
129.7313646653
 31
0.0
  0
LINE
  5
18C8
330
185C
100
AcDbEntity
  8
0
  6
Continuous
 62
     5
100
AcDbLine
 10
938.4640572103
 20
120.045815941
 30
0.0
 11
929.0915685004
 21
129.4183046509
 31
0.0
  0
LINE
  5
18C9
330
185C
100
AcDbEntity
  8
0
  6
Continuous
 62
     5
100
AcDbLine
 10
938.4640572103
 20
119.7327559266
 30
0.0
 11
929.0915685004
 21
129.1052446365
 31
0.0
  0
LINE
  5
18CA
330
185C
100
AcDbEntity
  8
0
  6
Continuous
 62
     5
100
AcDbLine
 10
938.4640572103
 20
119.4196959122
 30
0.0
 11
929.0915685004
 21
128.7921846221
 31
0.0
  0
LINE
  5
18CB
330
185C
100
AcDbEntity
  8
0
  6
Continuous
 62
     5
100
AcDbLine
 10
938.4640572103
 20
119.1066358978
 30
0.0
 11
929.0915685004
 21
128.4791246077
 31
0.0
  0
LINE
  5
18CC
330
185C
100
AcDbEntity
  8
0
  6
Continuous
 62
     5
100
AcDbLine
 10
938.4640572103
 20
118.7935758834
 30
0.0
 11
929.0915685004
 21
128.1660645933
 31
0.0
  0
LINE
  5
18CD
330
185C
100
AcDbEntity
  8
0
  6
Continuous
 62
     5
100
AcDbLine
 10
938.4640572103
 20
118.480515869
 30
0.0
 11
929.0915685004
 21
127.8530045789
 31
0.0
  0
LINE
  5
18CE
330
185C
100
AcDbEntity
  8
0
  6
Continuous
 62
     5
100
AcDbLine
 10
938.4640572103
 20
118.1674558547
 30
0.0
 11
929.0915685004
 21
127.5399445645
 31
0.0
  0
LINE
  5
18CF
330
185C
100
AcDbEntity
  8
0
  6
Continuous
 62
     5
100
AcDbLine
 10
938.4640572103
 20
117.8543958403
 30
0.0
 11
929.0915685004
 21
127.2268845501
 31
0.0
  0
LINE
  5
18D0
330
185C
100
AcDbEntity
  8
0
  6
Continuous
 62
     5
100
AcDbLine
 10
938.4640572103
 20
117.5413358259
 30
0.0
 11
929.0915685004
 21
126.9138245357
 31
0.0
  0
LINE
  5
18D1
330
185C
100
AcDbEntity
  8
0
  6
Continuous
 62
     5
100
AcDbLine
 10
938.4640572103
 20
117.2282758115
 30
0.0
 11
929.0915685004
 21
126.6007645213
 31
0.0
  0
LINE
  5
18D2
330
185C
100
AcDbEntity
  8
0
  6
Continuous
 62
     5
100
AcDbLine
 10
938.4640572103
 20
116.9152157971
 30
0.0
 11
929.0915685004
 21
126.287704507
 31
0.0
  0
LINE
  5
18D3
330
185C
100
AcDbEntity
  8
0
  6
Continuous
 62
     5
100
AcDbLine
 10
938.4640572103
 20
116.6021557827
 30
0.0
 11
929.0915685004
 21
125.9746444926
 31
0.0
  0
LINE
  5
18D4
330
185C
100
AcDbEntity
  8
0
  6
Continuous
 62
     5
100
AcDbLine
 10
938.4640572103
 20
116.2890957683
 30
0.0
 11
929.0915685004
 21
125.6615844782
 31
0.0
  0
LINE
  5
18D5
330
185C
100
AcDbEntity
  8
0
  6
Continuous
 62
     5
100
AcDbLine
 10
938.4640572103
 20
115.9760357539
 30
0.0
 11
929.0915685004
 21
125.3485244638
 31
0.0
  0
LINE
  5
18D6
330
185C
100
AcDbEntity
  8
0
  6
Continuous
 62
     5
100
AcDbLine
 10
938.4640572103
 20
115.6629757395
 30
0.0
 11
929.0915685004
 21
125.0354644494
 31
0.0
  0
LINE
  5
18D7
330
185C
100
AcDbEntity
  8
0
  6
Continuous
 62
     5
100
AcDbLine
 10
938.4640572103
 20
115.3499157251
 30
0.0
 11
929.0915685004
 21
124.722404435
 31
0.0
  0
LINE
  5
18D8
330
185C
100
AcDbEntity
  8
0
  6
Continuous
 62
     5
100
AcDbLine
 10
938.4640572103
 20
115.0368557107
 30
0.0
 11
929.0915685004
 21
124.4093444206
 31
0.0
  0
LINE
  5
18D9
330
185C
100
AcDbEntity
  8
0
  6
Continuous
 62
     5
100
AcDbLine
 10
938.4640572103
 20
114.7237956964
 30
0.0
 11
929.0915685004
 21
124.0962844062
 31
0.0
  0
LINE
  5
18DA
330
185C
100
AcDbEntity
  8
0
  6
Continuous
 62
     5
100
AcDbLine
 10
938.4640572103
 20
114.410735682
 30
0.0
 11
929.0915685004
 21
123.7832243918
 31
0.0
  0
LINE
  5
18DB
330
185C
100
AcDbEntity
  8
0
  6
Continuous
 62
     5
100
AcDbLine
 10
938.4640572103
 20
114.0976756676
 30
0.0
 11
929.0915685004
 21
123.4701643774
 31
0.0
  0
LINE
  5
18DC
330
185C
100
AcDbEntity
  8
0
  6
Continuous
 62
     5
100
AcDbLine
 10
938.4640572103
 20
113.7846156532
 30
0.0
 11
929.0915685004
 21
123.157104363
 31
0.0
  0
LINE
  5
18DD
330
185C
100
AcDbEntity
  8
0
  6
Continuous
 62
     5
100
AcDbLine
 10
938.4640572103
 20
113.4715556388
 30
0.0
 11
929.0915685004
 21
122.8440443487
 31
0.0
  0
LINE
  5
18DE
330
185C
100
AcDbEntity
  8
0
  6
Continuous
 62
     5
100
AcDbLine
 10
938.4640572103
 20
113.1584956244
 30
0.0
 11
929.0915685004
 21
122.5309843343
 31
0.0
  0
LINE
  5
18DF
330
185C
100
AcDbEntity
  8
0
  6
Continuous
 62
     5
100
AcDbLine
 10
938.4640572103
 20
112.84543561
 30
0.0
 11
929.0915685004
 21
122.2179243199
 31
0.0
  0
LINE
  5
18E0
330
185C
100
AcDbEntity
  8
0
  6
Continuous
 62
     5
100
AcDbLine
 10
938.4640572103
 20
112.5323755956
 30
0.0
 11
929.0915685004
 21
121.9048643055
 31
0.0
  0
LINE
  5
18E1
330
185C
100
AcDbEntity
  8
0
  6
Continuous
 62
     5
100
AcDbLine
 10
938.4640572103
 20
112.2193155812
 30
0.0
 11
929.0915685004
 21
121.5918042911
 31
0.0
  0
LINE
  5
18E2
330
185C
100
AcDbEntity
  8
0
  6
Continuous
 62
     5
100
AcDbLine
 10
938.4640572103
 20
111.9062555668
 30
0.0
 11
929.0915685004
 21
121.2787442767
 31
0.0
  0
LINE
  5
18E3
330
185C
100
AcDbEntity
  8
0
  6
Continuous
 62
     5
100
AcDbLine
 10
938.4640572103
 20
111.5931955524
 30
0.0
 11
929.0915685004
 21
120.9656842623
 31
0.0
  0
LINE
  5
18E4
330
185C
100
AcDbEntity
  8
0
  6
Continuous
 62
     5
100
AcDbLine
 10
938.4640572103
 20
111.2801355381
 30
0.0
 11
929.0915685004
 21
120.6526242479
 31
0.0
  0
LINE
  5
18E5
330
185C
100
AcDbEntity
  8
0
  6
Continuous
 62
     5
100
AcDbLine
 10
938.4640572103
 20
110.9670755237
 30
0.0
 11
929.0915685004
 21
120.3395642335
 31
0.0
  0
LINE
  5
18E6
330
185C
100
AcDbEntity
  8
0
  6
Continuous
 62
     5
100
AcDbLine
 10
938.4640572103
 20
110.6540155093
 30
0.0
 11
929.0915685004
 21
120.0265042191
 31
0.0
  0
LINE
  5
18E7
330
185C
100
AcDbEntity
  8
0
  6
Continuous
 62
     5
100
AcDbLine
 10
938.4640572103
 20
110.3409554949
 30
0.0
 11
929.0915685004
 21
119.7134442047
 31
0.0
  0
LINE
  5
18E8
330
185C
100
AcDbEntity
  8
0
  6
Continuous
 62
     5
100
AcDbLine
 10
938.4640572103
 20
110.0278954805
 30
0.0
 11
929.0915685004
 21
119.4003841904
 31
0.0
  0
LINE
  5
18E9
330
185C
100
AcDbEntity
  8
0
  6
Continuous
 62
     5
100
AcDbLine
 10
938.4640572103
 20
109.7148354661
 30
0.0
 11
929.0915685004
 21
119.087324176
 31
0.0
  0
LINE
  5
18EA
330
185C
100
AcDbEntity
  8
0
  6
Continuous
 62
     5
100
AcDbLine
 10
938.4640572103
 20
109.4017754517
 30
0.0
 11
929.0915685004
 21
118.7742641616
 31
0.0
  0
LINE
  5
18EB
330
185C
100
AcDbEntity
  8
0
  6
Continuous
 62
     5
100
AcDbLine
 10
938.4640572103
 20
109.0887154373
 30
0.0
 11
929.0915685004
 21
118.4612041472
 31
0.0
  0
LINE
  5
18EC
330
185C
100
AcDbEntity
  8
0
  6
Continuous
 62
     5
100
AcDbLine
 10
938.4640572103
 20
108.7756554229
 30
0.0
 11
929.0915685004
 21
118.1481441328
 31
0.0
  0
LINE
  5
18ED
330
185C
100
AcDbEntity
  8
0
  6
Continuous
 62
     5
100
AcDbLine
 10
938.4640572103
 20
108.4625954085
 30
0.0
 11
929.0915685004
 21
117.8350841184
 31
0.0
  0
LINE
  5
18EE
330
185C
100
AcDbEntity
  8
0
  6
Continuous
 62
     5
100
AcDbLine
 10
938.4640572103
 20
108.1495353941
 30
0.0
 11
929.0915685004
 21
117.522024104
 31
0.0
  0
LINE
  5
18EF
330
185C
100
AcDbEntity
  8
0
  6
Continuous
 62
     5
100
AcDbLine
 10
938.4640572103
 20
107.8364753798
 30
0.0
 11
929.0915685004
 21
117.2089640896
 31
0.0
  0
LINE
  5
18F0
330
185C
100
AcDbEntity
  8
0
  6
Continuous
 62
     5
100
AcDbLine
 10
938.4640572103
 20
107.5234153654
 30
0.0
 11
929.0915685004
 21
116.8959040752
 31
0.0
  0
LINE
  5
18F1
330
185C
100
AcDbEntity
  8
0
  6
Continuous
 62
     5
100
AcDbLine
 10
938.3553988307001
 20
107.3190137305
 30
0.0
 11
929.0915685004
 21
116.5828440608
 31
0.0
  0
LINE
  5
18F2
330
185C
100
AcDbEntity
  8
0
  6
Continuous
 62
     5
100
AcDbLine
 10
938.0423388163
 20
107.3190137305
 30
0.0
 11
929.0915685004
 21
116.2697840464
 31
0.0
  0
LINE
  5
18F3
330
185C
100
AcDbEntity
  8
0
  6
Continuous
 62
     5
100
AcDbLine
 10
937.7292788019
 20
107.3190137305
 30
0.0
 11
929.0915685004
 21
115.956724032
 31
0.0
  0
LINE
  5
18F4
330
185C
100
AcDbEntity
  8
0
  6
Continuous
 62
     5
100
AcDbLine
 10
937.4162187875
 20
107.3190137305
 30
0.0
 11
929.0915685004
 21
115.6436640177
 31
0.0
  0
LINE
  5
18F5
330
185C
100
AcDbEntity
  8
0
  6
Continuous
 62
     5
100
AcDbLine
 10
937.1031587731
 20
107.3190137305
 30
0.0
 11
929.0915685004
 21
115.3306040033
 31
0.0
  0
LINE
  5
18F6
330
185C
100
AcDbEntity
  8
0
  6
Continuous
 62
     5
100
AcDbLine
 10
936.7900987586999
 20
107.3190137305
 30
0.0
 11
929.0915685004
 21
115.0175439889
 31
0.0
  0
LINE
  5
18F7
330
185C
100
AcDbEntity
  8
0
  6
Continuous
 62
     5
100
AcDbLine
 10
936.4770387442998
 20
107.3190137305
 30
0.0
 11
929.0915685004
 21
114.7044839745
 31
0.0
  0
LINE
  5
18F8
330
185C
100
AcDbEntity
  8
0
  6
Continuous
 62
     5
100
AcDbLine
 10
936.1639787300001
 20
107.3190137305
 30
0.0
 11
929.0915685004
 21
114.3914239601
 31
0.0
  0
LINE
  5
18F9
330
185C
100
AcDbEntity
  8
0
  6
Continuous
 62
     5
100
AcDbLine
 10
935.8509187156
 20
107.3190137305
 30
0.0
 11
929.0915685004
 21
114.0783639457
 31
0.0
  0
LINE
  5
18FA
330
185C
100
AcDbEntity
  8
0
  6
Continuous
 62
     5
100
AcDbLine
 10
935.5378587011999
 20
107.3190137305
 30
0.0
 11
929.0915685004
 21
113.7653039313
 31
0.0
  0
LINE
  5
18FB
330
185C
100
AcDbEntity
  8
0
  6
Continuous
 62
     5
100
AcDbLine
 10
935.2247986867999
 20
107.3190137305
 30
0.0
 11
929.0915685004
 21
113.4522439169
 31
0.0
  0
LINE
  5
18FC
330
185C
100
AcDbEntity
  8
0
  6
Continuous
 62
     5
100
AcDbLine
 10
934.9117386724
 20
107.3190137305
 30
0.0
 11
929.0915685004
 21
113.1391839025
 31
0.0
  0
LINE
  5
18FD
330
185C
100
AcDbEntity
  8
0
  6
Continuous
 62
     5
100
AcDbLine
 10
934.5986786580001
 20
107.3190137305
 30
0.0
 11
929.0915685004
 21
112.8261238881
 31
0.0
  0
LINE
  5
18FE
330
185C
100
AcDbEntity
  8
0
  6
Continuous
 62
     5
100
AcDbLine
 10
934.2856186436
 20
107.3190137305
 30
0.0
 11
929.0915685004
 21
112.5130638737
 31
0.0
  0
LINE
  5
18FF
330
185C
100
AcDbEntity
  8
0
  6
Continuous
 62
     5
100
AcDbLine
 10
933.9725586291999
 20
107.3190137305
 30
0.0
 11
929.0915685004
 21
112.2000038594
 31
0.0
  0
LINE
  5
1900
330
185C
100
AcDbEntity
  8
0
  6
Continuous
 62
     5
100
AcDbLine
 10
933.6594986148
 20
107.3190137305
 30
0.0
 11
929.0915685004
 21
111.886943845
 31
0.0
  0
LINE
  5
1901
330
185C
100
AcDbEntity
  8
0
  6
Continuous
 62
     5
100
AcDbLine
 10
933.3464386003999
 20
107.3190137305
 30
0.0
 11
929.0915685004
 21
111.5738838306
 31
0.0
  0
LINE
  5
1902
330
185C
100
AcDbEntity
  8
0
  6
Continuous
 62
     5
100
AcDbLine
 10
933.033378586
 20
107.3190137305
 30
0.0
 11
929.0915685004
 21
111.2608238162
 31
0.0
  0
LINE
  5
1903
330
185C
100
AcDbEntity
  8
0
  6
Continuous
 62
     5
100
AcDbLine
 10
932.7203185716999
 20
107.3190137305
 30
0.0
 11
929.0915685004
 21
110.9477638018
 31
0.0
  0
LINE
  5
1904
330
185C
100
AcDbEntity
  8
0
  6
Continuous
 62
     5
100
AcDbLine
 10
932.4072585573
 20
107.3190137305
 30
0.0
 11
929.0915685004
 21
110.6347037874
 31
0.0
  0
LINE
  5
1905
330
185C
100
AcDbEntity
  8
0
  6
Continuous
 62
     5
100
AcDbLine
 10
932.0941985429
 20
107.3190137305
 30
0.0
 11
929.0915685004
 21
110.321643773
 31
0.0
  0
LINE
  5
1906
330
185C
100
AcDbEntity
  8
0
  6
Continuous
 62
     5
100
AcDbLine
 10
931.7811385285001
 20
107.3190137305
 30
0.0
 11
929.0915685004
 21
110.0085837586
 31
0.0
  0
LINE
  5
1907
330
185C
100
AcDbEntity
  8
0
  6
Continuous
 62
     5
100
AcDbLine
 10
931.4680785141
 20
107.3190137305
 30
0.0
 11
929.0915685004
 21
109.6955237442
 31
0.0
  0
LINE
  5
1908
330
185C
100
AcDbEntity
  8
0
  6
Continuous
 62
     5
100
AcDbLine
 10
931.1550184996999
 20
107.3190137305
 30
0.0
 11
929.0915685004
 21
109.3824637298
 31
0.0
  0
LINE
  5
1909
330
185C
100
AcDbEntity
  8
0
  6
Continuous
 62
     5
100
AcDbLine
 10
930.8419584853
 20
107.3190137305
 30
0.0
 11
929.0915685004
 21
109.0694037154
 31
0.0
  0
LINE
  5
190A
330
185C
100
AcDbEntity
  8
0
  6
Continuous
 62
     5
100
AcDbLine
 10
930.5288984708999
 20
107.3190137305
 30
0.0
 11
929.0915685004
 21
108.7563437011
 31
0.0
  0
LINE
  5
190B
330
185C
100
AcDbEntity
  8
0
  6
Continuous
 62
     5
100
AcDbLine
 10
930.2158384564998
 20
107.3190137305
 30
0.0
 11
929.0915685004
 21
108.4432836867
 31
0.0
  0
LINE
  5
190C
330
185C
100
AcDbEntity
  8
0
  6
Continuous
 62
     5
100
AcDbLine
 10
929.9027784420999
 20
107.3190137305
 30
0.0
 11
929.0915685004
 21
108.1302236723
 31
0.0
  0
LINE
  5
190D
330
185C
100
AcDbEntity
  8
0
  6
Continuous
 62
     5
100
AcDbLine
 10
929.5897184277
 20
107.3190137305
 30
0.0
 11
929.0915685004
 21
107.8171636579
 31
0.0
  0
LINE
  5
190E
330
185C
100
AcDbEntity
  8
0
  6
Continuous
 62
     5
100
AcDbLine
 10
929.2766584134
 20
107.3190137305
 30
0.0
 11
929.0915685004
 21
107.5041036435
 31
0.0
  0
LINE
  5
190F
330
185C
100
AcDbEntity
  8
0
  6
Continuous
 62
     5
100
AcDbLine
 10
938.4585809455
 20
107.3190137305
 30
0.0
 11
938.4640572103
 21
107.3244899953
 31
0.0
  0
LINE
  5
1910
330
185C
100
AcDbEntity
  8
0
  6
Continuous
 62
     5
100
AcDbLine
 10
938.1455209310999
 20
107.3190137305
 30
0.0
 11
938.4640572103
 21
107.6375500097
 31
0.0
  0
LINE
  5
1911
330
185C
100
AcDbEntity
  8
0
  6
Continuous
 62
     5
100
AcDbLine
 10
937.8324609167
 20
107.3190137305
 30
0.0
 11
938.4640572103
 21
107.9506100241
 31
0.0
  0
LINE
  5
1912
330
185C
100
AcDbEntity
  8
0
  6
Continuous
 62
     5
100
AcDbLine
 10
937.5194009022999
 20
107.3190137305
 30
0.0
 11
938.4640572103
 21
108.2636700385
 31
0.0
  0
LINE
  5
1913
330
185C
100
AcDbEntity
  8
0
  6
Continuous
 62
     5
100
AcDbLine
 10
937.2063408878998
 20
107.3190137305
 30
0.0
 11
938.4640572103
 21
108.5767300529
 31
0.0
  0
LINE
  5
1914
330
185C
100
AcDbEntity
  8
0
  6
Continuous
 62
     5
100
AcDbLine
 10
936.8932808735001
 20
107.3190137305
 30
0.0
 11
938.4640572103
 21
108.8897900673
 31
0.0
  0
LINE
  5
1915
330
185C
100
AcDbEntity
  8
0
  6
Continuous
 62
     5
100
AcDbLine
 10
936.5802208591
 20
107.3190137305
 30
0.0
 11
938.4640572103
 21
109.2028500817
 31
0.0
  0
LINE
  5
1916
330
185C
100
AcDbEntity
  8
0
  6
Continuous
 62
     5
100
AcDbLine
 10
936.2671608447
 20
107.3190137305
 30
0.0
 11
938.4640572103
 21
109.5159100961
 31
0.0
  0
LINE
  5
1917
330
185C
100
AcDbEntity
  8
0
  6
Continuous
 62
     5
100
AcDbLine
 10
935.9541008303999
 20
107.3190137305
 30
0.0
 11
938.4640572103
 21
109.8289701105
 31
0.0
  0
LINE
  5
1918
330
185C
100
AcDbEntity
  8
0
  6
Continuous
 62
     5
100
AcDbLine
 10
935.641040816
 20
107.3190137305
 30
0.0
 11
938.4640572103
 21
110.1420301249
 31
0.0
  0
LINE
  5
1919
330
185C
100
AcDbEntity
  8
0
  6
Continuous
 62
     5
100
AcDbLine
 10
935.3279808015999
 20
107.3190137305
 30
0.0
 11
938.4640572103
 21
110.4550901393
 31
0.0
  0
LINE
  5
191A
330
185C
100
AcDbEntity
  8
0
  6
Continuous
 62
     5
100
AcDbLine
 10
935.0149207872
 20
107.3190137305
 30
0.0
 11
938.4640572103
 21
110.7681501536
 31
0.0
  0
LINE
  5
191B
330
185C
100
AcDbEntity
  8
0
  6
Continuous
 62
     5
100
AcDbLine
 10
934.7018607727999
 20
107.3190137305
 30
0.0
 11
938.4640572103
 21
111.081210168
 31
0.0
  0
LINE
  5
191C
330
185C
100
AcDbEntity
  8
0
  6
Continuous
 62
     5
100
AcDbLine
 10
934.3888007583998
 20
107.3190137305
 30
0.0
 11
938.4640572103
 21
111.3942701824
 31
0.0
  0
LINE
  5
191D
330
185C
100
AcDbEntity
  8
0
  6
Continuous
 62
     5
100
AcDbLine
 10
934.0757407439999
 20
107.3190137305
 30
0.0
 11
938.4640572103
 21
111.7073301968
 31
0.0
  0
LINE
  5
191E
330
185C
100
AcDbEntity
  8
0
  6
Continuous
 62
     5
100
AcDbLine
 10
933.7626807296
 20
107.3190137305
 30
0.0
 11
938.4640572103
 21
112.0203902112
 31
0.0
  0
LINE
  5
191F
330
185C
100
AcDbEntity
  8
0
  6
Continuous
 62
     5
100
AcDbLine
 10
933.4496207152
 20
107.3190137305
 30
0.0
 11
938.4640572103
 21
112.3334502256
 31
0.0
  0
LINE
  5
1920
330
185C
100
AcDbEntity
  8
0
  6
Continuous
 62
     5
100
AcDbLine
 10
933.1365607008001
 20
107.3190137305
 30
0.0
 11
938.4640572103
 21
112.64651024
 31
0.0
  0
LINE
  5
1921
330
185C
100
AcDbEntity
  8
0
  6
Continuous
 62
     5
100
AcDbLine
 10
932.8235006864
 20
107.3190137305
 30
0.0
 11
938.4640572103
 21
112.9595702544
 31
0.0
  0
LINE
  5
1922
330
185C
100
AcDbEntity
  8
0
  6
Continuous
 62
     5
100
AcDbLine
 10
932.5104406719999
 20
107.3190137305
 30
0.0
 11
938.4640572103
 21
113.2726302688
 31
0.0
  0
LINE
  5
1923
330
185C
100
AcDbEntity
  8
0
  6
Continuous
 62
     5
100
AcDbLine
 10
932.1973806577
 20
107.3190137305
 30
0.0
 11
938.4640572103
 21
113.5856902832
 31
0.0
  0
LINE
  5
1924
330
185C
100
AcDbEntity
  8
0
  6
Continuous
 62
     5
100
AcDbLine
 10
931.8843206432999
 20
107.3190137305
 30
0.0
 11
938.4640572103
 21
113.8987502976
 31
0.0
  0
LINE
  5
1925
330
185C
100
AcDbEntity
  8
0
  6
Continuous
 62
     5
100
AcDbLine
 10
931.5712606288998
 20
107.3190137305
 30
0.0
 11
938.4640572103
 21
114.2118103119
 31
0.0
  0
LINE
  5
1926
330
185C
100
AcDbEntity
  8
0
  6
Continuous
 62
     5
100
AcDbLine
 10
931.2582006144999
 20
107.3190137305
 30
0.0
 11
938.4640572103
 21
114.5248703263
 31
0.0
  0
LINE
  5
1927
330
185C
100
AcDbEntity
  8
0
  6
Continuous
 62
     5
100
AcDbLine
 10
930.9451406001
 20
107.3190137305
 30
0.0
 11
938.4640572103
 21
114.8379303407
 31
0.0
  0
LINE
  5
1928
330
185C
100
AcDbEntity
  8
0
  6
Continuous
 62
     5
100
AcDbLine
 10
930.6320805857001
 20
107.3190137305
 30
0.0
 11
938.4640572103
 21
115.1509903551
 31
0.0
  0
LINE
  5
1929
330
185C
100
AcDbEntity
  8
0
  6
Continuous
 62
     5
100
AcDbLine
 10
930.3190205713001
 20
107.3190137305
 30
0.0
 11
938.4640572103
 21
115.4640503695
 31
0.0
  0
LINE
  5
192A
330
185C
100
AcDbEntity
  8
0
  6
Continuous
 62
     5
100
AcDbLine
 10
946.8430149821999
 20
123.8430081414
 30
0.0
 11
946.9218516509
 21
123.9218448102
 31
0.0
  0
LINE
  5
192B
330
185C
100
AcDbEntity
  8
0
  6
Continuous
 62
     5
100
AcDbLine
 10
930.0059605569
 20
107.3190137305
 30
0.0
 11
938.4640572103
 21
115.7771103839
 31
0.0
  0
LINE
  5
192C
330
185C
100
AcDbEntity
  8
0
  6
Continuous
 62
     5
100
AcDbLine
 10
946.5299549678
 20
123.8430081414
 30
0.0
 11
946.9218516509
 21
124.2349048246
 31
0.0
  0
LINE
  5
192D
330
185C
100
AcDbEntity
  8
0
  6
Continuous
 62
     5
100
AcDbLine
 10
929.6929005424999
 20
107.3190137305
 30
0.0
 11
938.4640572103
 21
116.0901703983
 31
0.0
  0
LINE
  5
192E
330
185C
100
AcDbEntity
  8
0
  6
Continuous
 62
     5
100
AcDbLine
 10
946.2168949534
 20
123.8430081414
 30
0.0
 11
946.9218516509
 21
124.547964839
 31
0.0
  0
LINE
  5
192F
330
185C
100
AcDbEntity
  8
0
  6
Continuous
 62
     5
100
AcDbLine
 10
929.3798405281
 20
107.3190137305
 30
0.0
 11
938.4640572103
 21
116.4032304127
 31
0.0
  0
LINE
  5
1930
330
185C
100
AcDbEntity
  8
0
  6
Continuous
 62
     5
100
AcDbLine
 10
945.9038349389999
 20
123.8430081414
 30
0.0
 11
946.9218516509
 21
124.8610248534
 31
0.0
  0
LINE
  5
1931
330
185C
100
AcDbEntity
  8
0
  6
Continuous
 62
     5
100
AcDbLine
 10
929.0915685004
 20
107.3438017172
 30
0.0
 11
938.4640572103
 21
116.7162904271
 31
0.0
  0
LINE
  5
1932
330
185C
100
AcDbEntity
  8
0
  6
Continuous
 62
     5
100
AcDbLine
 10
945.5907749246
 20
123.8430081414
 30
0.0
 11
946.9218516509
 21
125.1740848677
 31
0.0
  0
LINE
  5
1933
330
185C
100
AcDbEntity
  8
0
  6
Continuous
 62
     5
100
AcDbLine
 10
929.0915685004
 20
107.6568617316
 30
0.0
 11
938.4640572103
 21
117.0293504415
 31
0.0
  0
LINE
  5
1934
330
185C
100
AcDbEntity
  8
0
  6
Continuous
 62
     5
100
AcDbLine
 10
945.2777149102001
 20
123.8430081414
 30
0.0
 11
946.9218516509
 21
125.4871448821
 31
0.0
  0
LINE
  5
1935
330
185C
100
AcDbEntity
  8
0
  6
Continuous
 62
     5
100
AcDbLine
 10
929.0915685004
 20
107.969921746
 30
0.0
 11
938.4640572103
 21
117.3424104559
 31
0.0
  0
LINE
  5
1936
330
185C
100
AcDbEntity
  8
0
  6
Continuous
 62
     5
100
AcDbLine
 10
944.9646548958998
 20
123.8430081414
 30
0.0
 11
946.9218516509
 21
125.8002048965
 31
0.0
  0
LINE
  5
1937
330
185C
100
AcDbEntity
  8
0
  6
Continuous
 62
     5
100
AcDbLine
 10
929.0915685004
 20
108.2829817604
 30
0.0
 11
938.4640572103
 21
117.6554704702
 31
0.0
  0
LINE
  5
1938
330
185C
100
AcDbEntity
  8
0
  6
Continuous
 62
     5
100
AcDbLine
 10
944.6515948814999
 20
123.8430081414
 30
0.0
 11
946.9218516509
 21
126.1132649109
 31
0.0
  0
LINE
  5
1939
330
185C
100
AcDbEntity
  8
0
  6
Continuous
 62
     5
100
AcDbLine
 10
929.0915685004
 20
108.5960417748
 30
0.0
 11
938.4640572103
 21
117.9685304846
 31
0.0
  0
LINE
  5
193A
330
185C
100
AcDbEntity
  8
0
  6
Continuous
 62
     5
100
AcDbLine
 10
944.3385348671
 20
123.8430081414
 30
0.0
 11
946.9218516509
 21
126.4263249253
 31
0.0
  0
LINE
  5
193B
330
185C
100
AcDbEntity
  8
0
  6
Continuous
 62
     5
100
AcDbLine
 10
929.0915685004
 20
108.9091017892
 30
0.0
 11
938.4640572103
 21
118.281590499
 31
0.0
  0
LINE
  5
193C
330
185C
100
AcDbEntity
  8
0
  6
Continuous
 62
     5
100
AcDbLine
 10
944.0254748527001
 20
123.8430081414
 30
0.0
 11
946.9218516509
 21
126.7393849397
 31
0.0
  0
LINE
  5
193D
330
185C
100
AcDbEntity
  8
0
  6
Continuous
 62
     5
100
AcDbLine
 10
929.0915685004
 20
109.2221618036
 30
0.0
 11
938.4640572103
 21
118.5946505134
 31
0.0
  0
LINE
  5
193E
330
185C
100
AcDbEntity
  8
0
  6
Continuous
 62
     5
100
AcDbLine
 10
943.7124148383
 20
123.8430081414
 30
0.0
 11
946.9218516509
 21
127.0524449541
 31
0.0
  0
LINE
  5
193F
330
185C
100
AcDbEntity
  8
0
  6
Continuous
 62
     5
100
AcDbLine
 10
929.0915685004
 20
109.535221818
 30
0.0
 11
938.4640572103
 21
118.9077105278
 31
0.0
  0
LINE
  5
1940
330
185C
100
AcDbEntity
  8
0
  6
Continuous
 62
     5
100
AcDbLine
 10
943.3993548239
 20
123.8430081414
 30
0.0
 11
946.9218516509
 21
127.3655049685
 31
0.0
  0
LINE
  5
1941
330
185C
100
AcDbEntity
  8
0
  6
Continuous
 62
     5
100
AcDbLine
 10
929.0915685004
 20
109.8482818323
 30
0.0
 11
938.4640572103
 21
119.2207705422
 31
0.0
  0
LINE
  5
1942
330
185C
100
AcDbEntity
  8
0
  6
Continuous
 62
     5
100
AcDbLine
 10
943.0862948094999
 20
123.8430081414
 30
0.0
 11
946.9218516509
 21
127.6785649829
 31
0.0
  0
LINE
  5
1943
330
185C
100
AcDbEntity
  8
0
  6
Continuous
 62
     5
100
AcDbLine
 10
929.0915685004
 20
110.1613418467
 30
0.0
 11
938.4640572103
 21
119.5338305566
 31
0.0
  0
LINE
  5
1944
330
185C
100
AcDbEntity
  8
0
  6
Continuous
 62
     5
100
AcDbLine
 10
942.7732347951
 20
123.8430081414
 30
0.0
 11
946.9218516509
 21
127.9916249973
 31
0.0
  0
LINE
  5
1945
330
185C
100
AcDbEntity
  8
0
  6
Continuous
 62
     5
100
AcDbLine
 10
929.0915685004
 20
110.4744018611
 30
0.0
 11
938.4640572103
 21
119.846890571
 31
0.0
  0
LINE
  5
1946
330
185C
100
AcDbEntity
  8
0
  6
Continuous
 62
     5
100
AcDbLine
 10
942.4601747807001
 20
123.8430081414
 30
0.0
 11
946.9218516509
 21
128.3046850117
 31
0.0
  0
LINE
  5
1947
330
185C
100
AcDbEntity
  8
0
  6
Continuous
 62
     5
100
AcDbLine
 10
929.0915685004
 20
110.7874618755
 30
0.0
 11
938.4640572103
 21
120.1599505854
 31
0.0
  0
LINE
  5
1948
330
185C
100
AcDbEntity
  8
0
  6
Continuous
 62
     5
100
AcDbLine
 10
942.1471147663
 20
123.8430081414
 30
0.0
 11
946.9218516509
 21
128.617745026
 31
0.0
  0
LINE
  5
1949
330
185C
100
AcDbEntity
  8
0
  6
Continuous
 62
     5
100
AcDbLine
 10
929.0915685004
 20
111.1005218899
 30
0.0
 11
938.4640572103
 21
120.4730105998
 31
0.0
  0
LINE
  5
194A
330
185C
100
AcDbEntity
  8
0
  6
Continuous
 62
     5
100
AcDbLine
 10
941.8340547518999
 20
123.8430081414
 30
0.0
 11
946.8998946826999
 21
128.9088480722
 31
0.0
  0
LINE
  5
194B
330
185C
100
AcDbEntity
  8
0
  6
Continuous
 62
     5
100
AcDbLine
 10
929.0915685004
 20
111.4135819043
 30
0.0
 11
938.4640572103
 21
120.7860706142
 31
0.0
  0
LINE
  5
194C
330
185C
100
AcDbEntity
  8
0
  6
Continuous
 62
     5
100
AcDbLine
 10
941.5209947375998
 20
123.8430081414
 30
0.0
 11
946.7607036841998
 21
129.0827170881
 31
0.0
  0
LINE
  5
194D
330
185C
100
AcDbEntity
  8
0
  6
Continuous
 62
     5
100
AcDbLine
 10
929.0915685004
 20
111.7266419187
 30
0.0
 11
938.4640572103
 21
121.0991306286
 31
0.0
  0
LINE
  5
194E
330
185C
100
AcDbEntity
  8
0
  6
Continuous
 62
     5
100
AcDbLine
 10
941.2079347232001
 20
123.8430081414
 30
0.0
 11
946.6215126857001
 21
129.256586104
 31
0.0
  0
LINE
  5
194F
330
185C
100
AcDbEntity
  8
0
  6
Continuous
 62
     5
100
AcDbLine
 10
929.0915685004
 20
112.0397019331
 30
0.0
 11
938.4640572103
 21
121.4121906429
 31
0.0
  0
LINE
  5
1950
330
185C
100
AcDbEntity
  8
0
  6
Continuous
 62
     5
100
AcDbLine
 10
940.8948747088
 20
123.8430081414
 30
0.0
 11
946.4823216872
 21
129.4304551199
 31
0.0
  0
LINE
  5
1951
330
185C
100
AcDbEntity
  8
0
  6
Continuous
 62
     5
100
AcDbLine
 10
929.0915685004
 20
112.3527619475
 30
0.0
 11
938.4640572103
 21
121.7252506573
 31
0.0
  0
LINE
  5
1952
330
185C
100
AcDbEntity
  8
0
  6
Continuous
 62
     5
100
AcDbLine
 10
940.5818146944
 20
123.8430081414
 30
0.0
 11
946.3431306886999
 21
129.6043241358
 31
0.0
  0
LINE
  5
1953
330
185C
100
AcDbEntity
  8
0
  6
Continuous
 62
     5
100
AcDbLine
 10
929.0915685004
 20
112.6658219619
 30
0.0
 11
938.4640572103
 21
122.0383106717
 31
0.0
  0
LINE
  5
1954
330
185C
100
AcDbEntity
  8
0
  6
Continuous
 62
     5
100
AcDbLine
 10
940.2687546800001
 20
123.8430081414
 30
0.0
 11
946.2039396902
 21
129.7781931517
 31
0.0
  0
LINE
  5
1955
330
185C
100
AcDbEntity
  8
0
  6
Continuous
 62
     5
100
AcDbLine
 10
929.0915685004
 20
112.9788819763
 30
0.0
 11
938.4640572103
 21
122.3513706861
 31
0.0
  0
LINE
  5
1956
330
185C
100
AcDbEntity
  8
0
  6
Continuous
 62
     5
100
AcDbLine
 10
939.9556946656
 20
123.8430081414
 30
0.0
 11
946.0647486916998
 21
129.9520621675
 31
0.0
  0
LINE
  5
1957
330
185C
100
AcDbEntity
  8
0
  6
Continuous
 62
     5
100
AcDbLine
 10
929.0915685004
 20
113.2919419906
 30
0.0
 11
938.4640572103
 21
122.6644307005
 31
0.0
  0
LINE
  5
1958
330
185C
100
AcDbEntity
  8
0
  6
Continuous
 62
     5
100
AcDbLine
 10
939.6426346511999
 20
123.8430081414
 30
0.0
 11
945.9255576932001
 21
130.1259311834
 31
0.0
  0
LINE
  5
1959
330
185C
100
AcDbEntity
  8
0
  6
Continuous
 62
     5
100
AcDbLine
 10
929.0915685004
 20
113.605002005
 30
0.0
 11
938.4640572103
 21
122.9774907149
 31
0.0
  0
LINE
  5
195A
330
185C
100
AcDbEntity
  8
0
  6
Continuous
 62
     5
100
AcDbLine
 10
939.3295746368
 20
123.8430081414
 30
0.0
 11
945.7863666947
 21
130.2998001993
 31
0.0
  0
LINE
  5
195B
330
185C
100
AcDbEntity
  8
0
  6
Continuous
 62
     5
100
AcDbLine
 10
929.0915685004
 20
113.9180620194
 30
0.0
 11
938.4640572103
 21
123.2905507293
 31
0.0
  0
LINE
  5
195C
330
185C
100
AcDbEntity
  8
0
  6
Continuous
 62
     5
100
AcDbLine
 10
939.0165146224001
 20
123.8430081414
 30
0.0
 11
945.6471756961999
 21
130.4736692152
 31
0.0
  0
LINE
  5
195D
330
185C
100
AcDbEntity
  8
0
  6
Continuous
 62
     5
100
AcDbLine
 10
929.0915685004
 20
114.2311220338
 30
0.0
 11
938.4640572103
 21
123.6036107437
 31
0.0
  0
LINE
  5
195E
330
185C
100
AcDbEntity
  8
0
  6
Continuous
 62
     5
100
AcDbLine
 10
938.703454608
 20
123.8430081414
 30
0.0
 11
945.5079846977
 21
130.6475382311
 31
0.0
  0
LINE
  5
195F
330
185C
100
AcDbEntity
  8
0
  6
Continuous
 62
     5
100
AcDbLine
 10
929.0915685004
 20
114.5441820482
 30
0.0
 11
945.3687936991999
 21
130.821407247
 31
0.0
  0
LINE
  5
1960
330
185C
100
AcDbEntity
  8
0
  6
Continuous
 62
     5
100
AcDbLine
 10
929.0915685004
 20
114.8572420626
 30
0.0
 11
945.2296027007001
 21
130.9952762629
 31
0.0
  0
LINE
  5
1961
330
185C
100
AcDbEntity
  8
0
  6
Continuous
 62
     5
100
AcDbLine
 10
929.0915685004
 20
115.170302077
 30
0.0
 11
945.0904117022
 21
131.1691452787
 31
0.0
  0
LINE
  5
1962
330
185C
100
AcDbEntity
  8
0
  6
Continuous
 62
     5
100
AcDbLine
 10
929.0915685004
 20
115.4833620914
 30
0.0
 11
944.9512207036999
 21
131.3430142946
 31
0.0
  0
LINE
  5
1963
330
185C
100
AcDbEntity
  8
0
  6
Continuous
 62
     5
100
AcDbLine
 10
929.0915685004
 20
115.7964221058
 30
0.0
 11
944.8120297051
 21
131.5168833105
 31
0.0
  0
LINE
  5
1964
330
185C
100
AcDbEntity
  8
0
  6
Continuous
 62
     5
100
AcDbLine
 10
929.0915685004
 20
116.1094821202
 30
0.0
 11
940.1571986986001
 21
127.1751123184
 31
0.0
  0
LINE
  5
1965
330
185C
100
AcDbEntity
  8
0
  6
Continuous
 62
     5
100
AcDbLine
 10
940.9105359356001
 20
127.9284495554
 30
0.0
 11
944.6728387066
 21
131.6907523264
 31
0.0
  0
LINE
  5
1966
330
185C
100
AcDbEntity
  8
0
  6
Continuous
 62
     5
100
AcDbLine
 10
929.0915685004
 20
116.4225421346
 30
0.0
 11
939.4984878654
 21
126.8294614996
 31
0.0
  0
LINE
  5
1967
330
185C
100
AcDbEntity
  8
0
  6
Continuous
 62
     5
100
AcDbLine
 10
941.2471052496
 20
128.5780788838
 30
0.0
 11
944.5336477080999
 21
131.8646213423
 31
0.0
  0
LINE
  5
1968
330
185C
100
AcDbEntity
  8
0
  6
Continuous
 62
     5
100
AcDbLine
 10
929.0915685004
 20
116.7356021489
 30
0.0
 11
939.0594522051999
 21
126.7034858537
 31
0.0
  0
LINE
  5
1969
330
185C
100
AcDbEntity
  8
0
  6
Continuous
 62
     5
100
AcDbLine
 10
941.3737333613999
 20
129.0177670099
 30
0.0
 11
944.3944567096
 21
132.0384903582
 31
0.0
  0
LINE
  5
196A
330
185C
100
AcDbEntity
  8
0
  6
Continuous
 62
     5
100
AcDbLine
 10
929.0915685004
 20
117.0486621633
 30
0.0
 11
938.6910960113999
 21
126.6481896743
 31
0.0
  0
LINE
  5
196B
330
185C
100
AcDbEntity
  8
0
  6
Continuous
 62
     5
100
AcDbLine
 10
941.4278854724001
 20
129.3849791353
 30
0.0
 11
944.2552657111001
 21
132.2123593741
 31
0.0
  0
LINE
  5
196C
330
185C
100
AcDbEntity
  8
0
  6
Continuous
 62
     5
100
AcDbLine
 10
929.0915685004
 20
117.3617221777
 30
0.0
 11
938.3701320842
 21
126.6402857615
 31
0.0
  0
LINE
  5
196D
330
185C
100
AcDbEntity
  8
0
  6
Continuous
 62
     5
100
AcDbLine
 10
941.4415964960001
 20
129.7117501733
 30
0.0
 11
944.1160747126
 21
132.3862283899
 31
0.0
  0
LINE
  5
196E
330
185C
100
AcDbEntity
  8
0
  6
Continuous
 62
     5
100
AcDbLine
 10
929.0915685004
 20
117.6747821921
 30
0.0
 11
938.0837911203
 21
126.667004812
 31
0.0
  0
LINE
  5
196F
330
185C
100
AcDbEntity
  8
0
  6
Continuous
 62
     5
100
AcDbLine
 10
941.4119107560001
 20
129.9951244477
 30
0.0
 11
943.9768837141
 21
132.5600974058
 31
0.0
  0
LINE
  5
1970
330
185C
100
AcDbEntity
  8
0
  6
Continuous
 62
     5
100
AcDbLine
 10
929.0915685004
 20
117.9878422065
 30
0.0
 11
937.8127682658
 21
126.7090419719
 31
0.0
  0
LINE
  5
1971
330
185C
100
AcDbEntity
  8
0
  6
Continuous
 62
     5
100
AcDbLine
 10
941.3673698444
 20
130.2636435505
 30
0.0
 11
943.8376927155999
 21
132.7339664217
 31
0.0
  0
LINE
  5
1972
330
185C
100
AcDbEntity
  8
0
  6
Continuous
 62
     5
100
AcDbLine
 10
929.0915685004
 20
118.3009022209
 30
0.0
 11
937.5688522249999
 21
126.7781859455
 31
0.0
  0
LINE
  5
1973
330
185C
100
AcDbEntity
  8
0
  6
Continuous
 62
     5
100
AcDbLine
 10
941.3018157416999
 20
130.5111494621
 30
0.0
 11
943.6985017171
 21
132.9078354376
 31
0.0
  0
LINE
  5
1974
330
185C
100
AcDbEntity
  8
0
  6
Continuous
 62
     5
100
AcDbLine
 10
929.0915685004
 20
118.6139622353
 30
0.0
 11
937.3373611141001
 21
126.859754849
 31
0.0
  0
LINE
  5
1975
330
185C
100
AcDbEntity
  8
0
  6
Continuous
 62
     5
100
AcDbLine
 10
941.2174751248
 20
130.7398688596
 30
0.0
 11
943.5593107186001
 21
133.0817044535
 31
0.0
  0
LINE
  5
1976
330
185C
100
AcDbEntity
  8
0
  6
Continuous
 62
     5
100
AcDbLine
 10
929.0915685004
 20
118.9270222497
 30
0.0
 11
937.1221366938
 21
126.957590443
 31
0.0
  0
LINE
  5
1977
330
185C
100
AcDbEntity
  8
0
  6
Continuous
 62
     5
100
AcDbLine
 10
941.1227512544
 20
130.9582050037
 30
0.0
 11
943.4201197201
 21
133.2555734694
 31
0.0
  0
LINE
  5
1978
330
185C
100
AcDbEntity
  8
0
  6
Continuous
 62
     5
100
AcDbLine
 10
929.0915685004
 20
119.2400822641
 30
0.0
 11
936.9206213178999
 21
127.0691350815
 31
0.0
  0
LINE
  5
1979
330
185C
100
AcDbEntity
  8
0
  6
Continuous
 62
     5
100
AcDbLine
 10
941.0083883122
 20
131.1569020759
 30
0.0
 11
943.2809287216
 21
133.4294424853
 31
0.0
  0
LINE
  5
197A
330
185C
100
AcDbEntity
  8
0
  6
Continuous
 62
     5
100
AcDbLine
 10
929.0915685004
 20
119.5531422785
 30
0.0
 11
936.7310025747999
 21
127.1925763528
 31
0.0
  0
LINE
  5
197B
330
185C
100
AcDbEntity
  8
0
  6
Continuous
 62
     5
100
AcDbLine
 10
940.8877889822999
 20
131.3493627603
 30
0.0
 11
943.1417377230999
 21
133.6033115011
 31
0.0
  0
LINE
  5
197C
330
185C
100
AcDbEntity
  8
0
  6
Continuous
 62
     5
100
AcDbLine
 10
929.0915685004
 20
119.8662022929
 30
0.0
 11
936.5546531836999
 21
127.3292869761
 31
0.0
  0
LINE
  5
197D
330
185C
100
AcDbEntity
  8
0
  6
Continuous
 62
     5
100
AcDbLine
 10
940.7482753118999
 20
131.5229091043
 30
0.0
 11
943.0025467246
 21
133.777180517
 31
0.0
  0
LINE
  5
197E
330
185C
100
AcDbEntity
  8
0
  6
Continuous
 62
     5
100
AcDbLine
 10
929.0915685004
 20
120.1792623072
 30
0.0
 11
936.3890502433999
 21
127.4767440503
 31
0.0
  0
LINE
  5
197F
330
185C
100
AcDbEntity
  8
0
  6
Continuous
 62
     5
100
AcDbLine
 10
940.6035404988999
 20
131.6912343058
 30
0.0
 11
942.8633557261001
 21
133.9510495329
 31
0.0
  0
LINE
  5
1980
330
185C
100
AcDbEntity
  8
0
  6
Continuous
 62
     5
100
AcDbLine
 10
929.0915685004
 20
120.4923223216
 30
0.0
 11
936.2359360099
 21
127.6366898311
 31
0.0
  0
LINE
  5
1981
330
185C
100
AcDbEntity
  8
0
  6
Continuous
 62
     5
100
AcDbLine
 10
940.4428891501
 20
131.8436429713
 30
0.0
 11
942.7241647276
 21
134.1249185488
 31
0.0
  0
LINE
  5
1982
330
185C
100
AcDbEntity
  8
0
  6
Continuous
 62
     5
100
AcDbLine
 10
929.0915685004
 20
120.805382336
 30
0.0
 11
936.0939305714
 21
127.807744407
 31
0.0
  0
LINE
  5
1983
330
185C
100
AcDbEntity
  8
0
  6
Continuous
 62
     5
100
AcDbLine
 10
940.272949835
 20
131.9867636707
 30
0.0
 11
942.5849737291001
 21
134.2987875647
 31
0.0
  0
LINE
  5
1984
330
185C
100
AcDbEntity
  8
0
  6
Continuous
 62
     5
100
AcDbLine
 10
929.0915685004
 20
121.1184423504
 30
0.0
 11
935.9643329208001
 21
127.9912067708
 31
0.0
  0
LINE
  5
1985
330
185C
100
AcDbEntity
  8
0
  6
Continuous
 62
     5
100
AcDbLine
 10
940.0861523042999
 20
132.1130261543
 30
0.0
 11
942.4457827306
 21
134.4726565806
 31
0.0
  0
LINE
  5
1986
330
185C
100
AcDbEntity
  8
0
  6
Continuous
 62
     5
100
AcDbLine
 10
929.0915685004
 20
121.4315023648
 30
0.0
 11
935.8465982142998
 21
128.1865320787
 31
0.0
  0
LINE
  5
1987
330
185C
100
AcDbEntity
  8
0
  6
Continuous
 62
     5
100
AcDbLine
 10
939.8939091231
 20
132.2338429875
 30
0.0
 11
942.3065917321
 21
134.6465255965
 31
0.0
  0
LINE
  5
1988
330
185C
100
AcDbEntity
  8
0
  6
Continuous
 62
     5
100
AcDbLine
 10
929.0915685004
 20
121.7445623792
 30
0.0
 11
935.743099047
 21
128.3960929258
 31
0.0
  0
LINE
  5
1989
330
185C
100
AcDbEntity
  8
0
  6
Continuous
 62
     5
100
AcDbLine
 10
939.6817562788001
 20
132.3347501576
 30
0.0
 11
942.1674007334999
 21
134.8203946123
 31
0.0
  0
LINE
  5
198A
330
185C
100
AcDbEntity
  8
0
  6
Continuous
 62
     5
100
AcDbLine
 10
929.0915685004
 20
122.0576223936
 30
0.0
 11
935.6515297436999
 21
128.6175836369
 31
0.0
  0
LINE
  5
198B
330
185C
100
AcDbEntity
  8
0
  6
Continuous
 62
     5
100
AcDbLine
 10
939.4609873875999
 20
132.4270412808
 30
0.0
 11
942.028209735
 21
134.9942636282
 31
0.0
  0
LINE
  5
198C
330
185C
100
AcDbEntity
  8
0
  6
Continuous
 62
     5
100
AcDbLine
 10
929.0915685004
 20
122.370682408
 30
0.0
 11
935.579909217
 21
128.8590231245
 31
0.0
  0
LINE
  5
198D
330
185C
100
AcDbEntity
  8
0
  6
Continuous
 62
     5
100
AcDbLine
 10
939.2205924767999
 20
132.4997063844
 30
0.0
 11
941.8890187364999
 21
135.1681326441
 31
0.0
  0
LINE
  5
198E
330
185C
100
AcDbEntity
  8
0
  6
Continuous
 62
     5
100
AcDbLine
 10
929.0915685004
 20
122.6837424224
 30
0.0
 11
935.5180179761999
 21
129.1101918982
 31
0.0
  0
LINE
  5
198F
330
185C
100
AcDbEntity
  8
0
  6
Continuous
 62
     5
100
AcDbLine
 10
938.9629607840999
 20
132.555134706
 30
0.0
 11
941.749827738
 21
135.34200166
 31
0.0
  0
LINE
  5
1990
330
185C
100
AcDbEntity
  8
0
  6
Continuous
 62
     5
100
AcDbLine
 10
929.0915685004
 20
122.9968024368
 30
0.0
 11
935.4895758564
 21
129.3948097927
 31
0.0
  0
LINE
  5
1991
330
185C
100
AcDbEntity
  8
0
  6
Continuous
 62
     5
100
AcDbLine
 10
938.6893314918999
 20
132.5945654283
 30
0.0
 11
941.6106367395
 21
135.5158706759
 31
0.0
  0
LINE
  5
1992
330
185C
100
AcDbEntity
  8
0
  6
Continuous
 62
     5
100
AcDbLine
 10
929.0915685004
 20
123.3098624512
 30
0.0
 11
935.4808284269001
 21
129.6991223776
 31
0.0
  0
LINE
  5
1993
330
185C
100
AcDbEntity
  8
0
  6
Continuous
 62
     5
100
AcDbLine
 10
938.3783154088
 20
132.5966093595
 30
0.0
 11
941.4714457409999
 21
135.6897396918
 31
0.0
  0
LINE
  5
1994
330
185C
100
AcDbEntity
  8
0
  6
Continuous
 62
     5
100
AcDbLine
 10
929.0915685004
 20
123.6229224656
 30
0.0
 11
935.5028093882999
 21
130.0341633535
 31
0.0
  0
LINE
  5
1995
330
185C
100
AcDbEntity
  8
0
  6
Continuous
 62
     5
100
AcDbLine
 10
938.0360208212
 20
132.5673747864
 30
0.0
 11
941.3322547425
 21
135.8636087077
 31
0.0
  0
LINE
  5
1996
330
185C
100
AcDbEntity
  8
0
  6
Continuous
 62
     5
100
AcDbLine
 10
929.0915685004
 20
123.9359824799
 30
0.0
 11
935.5874374909999
 21
130.4318514705
 31
0.0
  0
LINE
  5
1997
330
185C
100
AcDbEntity
  8
0
  6
Continuous
 62
     5
100
AcDbLine
 10
937.6391360386
 20
132.4835500181
 30
0.0
 11
941.1930637439999
 21
136.0374777235
 31
0.0
  0
LINE
  5
1998
330
185C
100
AcDbEntity
  8
0
  6
Continuous
 62
     5
100
AcDbLine
 10
929.0915685004
 20
124.2490424943
 30
0.0
 11
935.789173596
 21
130.9466475899
 31
0.0
  0
LINE
  5
1999
330
185C
100
AcDbEntity
  8
0
  6
Continuous
 62
     5
100
AcDbLine
 10
937.1238901631
 20
132.2813641571
 30
0.0
 11
941.0538727455
 21
136.2113467394
 31
0.0
  0
LINE
  5
199A
330
185C
100
AcDbEntity
  8
0
  6
Continuous
 62
     5
100
AcDbLine
 10
929.0915685004
 20
124.5621025087
 30
0.0
 11
940.9146817469999
 21
136.3852157553
 31
0.0
  0
LINE
  5
199B
330
185C
100
AcDbEntity
  8
0
  6
Continuous
 62
     5
100
AcDbLine
 10
929.0915685004
 20
124.8751625231
 30
0.0
 11
940.7754907484999
 21
136.5590847712
 31
0.0
  0
LINE
  5
199C
330
185C
100
AcDbEntity
  8
0
  6
Continuous
 62
     5
100
AcDbLine
 10
929.0915685004
 20
125.1882225375
 30
0.0
 11
940.63629975
 21
136.7329537871
 31
0.0
  0
LINE
  5
199D
330
185C
100
AcDbEntity
  8
0
  6
Continuous
 62
     5
100
AcDbLine
 10
929.0915685004
 20
125.5012825519
 30
0.0
 11
940.4971087514999
 21
136.906822803
 31
0.0
  0
LINE
  5
199E
330
185C
100
AcDbEntity
  8
0
  6
Continuous
 62
     5
100
AcDbLine
 10
929.0915685004
 20
125.8143425663
 30
0.0
 11
940.357917753
 21
137.0806918189
 31
0.0
  0
LINE
  5
199F
330
185C
100
AcDbEntity
  8
0
  6
Continuous
 62
     5
100
AcDbLine
 10
929.0915685004
 20
126.1274025807
 30
0.0
 11
940.2187267544999
 21
137.2545608347
 31
0.0
  0
LINE
  5
19A0
330
185C
100
AcDbEntity
  8
0
  6
Continuous
 62
     5
100
AcDbLine
 10
929.0915685004
 20
126.4404625951
 30
0.0
 11
940.0795357559999
 21
137.4284298506
 31
0.0
  0
LINE
  5
19A1
330
185C
100
AcDbEntity
  8
0
  6
Continuous
 62
     5
100
AcDbLine
 10
929.0915685004
 20
126.7535226095
 30
0.0
 11
939.9403447575
 21
137.6022988665
 31
0.0
  0
LINE
  5
19A2
330
185C
100
AcDbEntity
  8
0
  6
Continuous
 62
     5
100
AcDbLine
 10
929.0915685004
 20
127.0665826239
 30
0.0
 11
939.8011537589999
 21
137.7761678824
 31
0.0
  0
LINE
  5
19A3
330
185C
100
AcDbEntity
  8
0
  6
Continuous
 62
     5
100
AcDbLine
 10
929.0915685004
 20
127.3796426382
 30
0.0
 11
939.6619627605
 21
137.9500368983
 31
0.0
  0
LINE
  5
19A4
330
185C
100
AcDbEntity
  8
0
  6
Continuous
 62
     5
100
AcDbLine
 10
929.0915685004
 20
127.6927026526
 30
0.0
 11
939.5227717619
 21
138.1239059142
 31
0.0
  0
LINE
  5
19A5
330
185C
100
AcDbEntity
  8
0
  6
Continuous
 62
     5
100
AcDbLine
 10
929.0915685004
 20
128.005762667
 30
0.0
 11
939.3835807633999
 21
138.2977749301
 31
0.0
  0
LINE
  5
19A6
330
185C
100
AcDbEntity
  8
0
  6
Continuous
 62
     5
100
AcDbLine
 10
929.0915685004
 20
128.3188226814
 30
0.0
 11
939.2443897649
 21
138.4716439459
 31
0.0
  0
LINE
  5
19A7
330
185C
100
AcDbEntity
  8
0
  6
Continuous
 62
     5
100
AcDbLine
 10
929.0915685004
 20
128.6318826958
 30
0.0
 11
939.1051987663999
 21
138.6455129618
 31
0.0
  0
LINE
  5
19A8
330
185C
100
AcDbEntity
  8
0
  6
Continuous
 62
     5
100
AcDbLine
 10
929.0915685004
 20
128.9449427102
 30
0.0
 11
938.9660077678998
 21
138.8193819777
 31
0.0
  0
LINE
  5
19A9
330
185C
100
AcDbEntity
  8
0
  6
Continuous
 62
     5
100
AcDbLine
 10
929.0915685004
 20
129.2580027246
 30
0.0
 11
938.8268167694
 21
138.9932509936
 31
0.0
  0
LINE
  5
19AA
330
185C
100
AcDbEntity
  8
0
  6
Continuous
 62
     5
100
AcDbLine
 10
929.0915685004
 20
129.571062739
 30
0.0
 11
938.6876257708999
 21
139.1671200095
 31
0.0
  0
LINE
  5
19AB
330
185C
100
AcDbEntity
  8
0
  6
Continuous
 62
     5
100
AcDbLine
 10
929.0915685004
 20
129.8841227534
 30
0.0
 11
938.5264594776
 21
139.3190137305
 31
0.0
  0
LINE
  5
19AC
330
185C
100
AcDbEntity
  8
0
  6
Continuous
 62
     5
100
AcDbLine
 10
929.0915685004
 20
130.1971827678
 30
0.0
 11
938.2133994632001
 21
139.3190137305
 31
0.0
  0
LINE
  5
19AD
330
185C
100
AcDbEntity
  8
0
  6
Continuous
 62
     5
100
AcDbLine
 10
929.0915685004
 20
130.5102427822
 30
0.0
 11
937.9003394488
 21
139.3190137305
 31
0.0
  0
LINE
  5
19AE
330
185C
100
AcDbEntity
  8
0
  6
Continuous
 62
     5
100
AcDbLine
 10
929.0915685004
 20
130.8233027965
 30
0.0
 11
937.5872794343999
 21
139.3190137305
 31
0.0
  0
LINE
  5
19AF
330
185C
100
AcDbEntity
  8
0
  6
Continuous
 62
     5
100
AcDbLine
 10
929.0915685004
 20
131.1363628109
 30
0.0
 11
937.27421942
 21
139.3190137305
 31
0.0
  0
LINE
  5
19B0
330
185C
100
AcDbEntity
  8
0
  6
Continuous
 62
     5
100
AcDbLine
 10
929.0915685004
 20
131.4494228253
 30
0.0
 11
936.9611594055999
 21
139.3190137305
 31
0.0
  0
LINE
  5
19B1
330
185C
100
AcDbEntity
  8
0
  6
Continuous
 62
     5
100
AcDbLine
 10
929.0915685004
 20
131.7624828397
 30
0.0
 11
936.6480993911999
 21
139.3190137305
 31
0.0
  0
LINE
  5
19B2
330
185C
100
AcDbEntity
  8
0
  6
Continuous
 62
     5
100
AcDbLine
 10
929.0915685004
 20
132.0755428541
 30
0.0
 11
936.3350393769
 21
139.3190137305
 31
0.0
  0
LINE
  5
19B3
330
185C
100
AcDbEntity
  8
0
  6
Continuous
 62
     5
100
AcDbLine
 10
929.0915685004
 20
132.3886028685
 30
0.0
 11
936.0219793625001
 21
139.3190137305
 31
0.0
  0
LINE
  5
19B4
330
185C
100
AcDbEntity
  8
0
  6
Continuous
 62
     5
100
AcDbLine
 10
929.0915685004
 20
132.7016628829
 30
0.0
 11
935.7089193481
 21
139.3190137305
 31
0.0
  0
LINE
  5
19B5
330
185C
100
AcDbEntity
  8
0
  6
Continuous
 62
     5
100
AcDbLine
 10
929.0915685004
 20
133.0147228973
 30
0.0
 11
935.3958593336999
 21
139.3190137305
 31
0.0
  0
LINE
  5
19B6
330
185C
100
AcDbEntity
  8
0
  6
Continuous
 62
     5
100
AcDbLine
 10
929.0915685004
 20
133.3277829117
 30
0.0
 11
935.0827993193
 21
139.3190137305
 31
0.0
  0
LINE
  5
19B7
330
185C
100
AcDbEntity
  8
0
  6
Continuous
 62
     5
100
AcDbLine
 10
929.0915685004
 20
133.6408429261
 30
0.0
 11
934.7697393049001
 21
139.3190137305
 31
0.0
  0
LINE
  5
19B8
330
185C
100
AcDbEntity
  8
0
  6
Continuous
 62
     5
100
AcDbLine
 10
929.0915685004
 20
133.9539029405
 30
0.0
 11
934.4566792905
 21
139.3190137305
 31
0.0
  0
LINE
  5
19B9
330
185C
100
AcDbEntity
  8
0
  6
Continuous
 62
     5
100
AcDbLine
 10
929.0915685004
 20
134.2669629548
 30
0.0
 11
934.1436192760999
 21
139.3190137305
 31
0.0
  0
LINE
  5
19BA
330
185C
100
AcDbEntity
  8
0
  6
Continuous
 62
     5
100
AcDbLine
 10
929.0915685004
 20
134.5800229692
 30
0.0
 11
933.8305592616999
 21
139.3190137305
 31
0.0
  0
LINE
  5
19BB
330
185C
100
AcDbEntity
  8
0
  6
Continuous
 62
     5
100
AcDbLine
 10
929.0915685004
 20
134.8930829836
 30
0.0
 11
933.5174992473
 21
139.3190137305
 31
0.0
  0
LINE
  5
19BC
330
185C
100
AcDbEntity
  8
0
  6
Continuous
 62
     5
100
AcDbLine
 10
929.0915685004
 20
135.206142998
 30
0.0
 11
933.2044392328999
 21
139.3190137305
 31
0.0
  0
LINE
  5
19BD
330
185C
100
AcDbEntity
  8
0
  6
Continuous
 62
     5
100
AcDbLine
 10
929.0915685004
 20
135.5192030124
 30
0.0
 11
932.8913792185002
 21
139.3190137305
 31
0.0
  0
LINE
  5
19BE
330
185C
100
AcDbEntity
  8
0
  6
Continuous
 62
     5
100
AcDbLine
 10
929.0915685004
 20
135.8322630268
 30
0.0
 11
932.5783192041999
 21
139.3190137305
 31
0.0
  0
LINE
  5
19BF
330
185C
100
AcDbEntity
  8
0
  6
Continuous
 62
     5
100
AcDbLine
 10
929.0915685004
 20
136.1453230412
 30
0.0
 11
932.2652591898
 21
139.3190137305
 31
0.0
  0
LINE
  5
19C0
330
185C
100
AcDbEntity
  8
0
  6
Continuous
 62
     5
100
AcDbLine
 10
929.0915685004
 20
136.4583830556
 30
0.0
 11
931.9521991753999
 21
139.3190137305
 31
0.0
  0
LINE
  5
19C1
330
185C
100
AcDbEntity
  8
0
  6
Continuous
 62
     5
100
AcDbLine
 10
929.0915685004
 20
136.77144307
 30
0.0
 11
931.639139161
 21
139.3190137305
 31
0.0
  0
LINE
  5
19C2
330
185C
100
AcDbEntity
  8
0
  6
Continuous
 62
     5
100
AcDbLine
 10
929.0915685004
 20
137.0845030844
 30
0.0
 11
931.3260791465999
 21
139.3190137305
 31
0.0
  0
LINE
  5
19C3
330
185C
100
AcDbEntity
  8
0
  6
Continuous
 62
     5
100
AcDbLine
 10
929.0915685004
 20
137.3975630988
 30
0.0
 11
931.0130191322
 21
139.3190137305
 31
0.0
  0
LINE
  5
19C4
330
185C
100
AcDbEntity
  8
0
  6
Continuous
 62
     5
100
AcDbLine
 10
929.0915685004
 20
137.7106231132
 30
0.0
 11
930.6999591178
 21
139.3190137305
 31
0.0
  0
LINE
  5
19C5
330
185C
100
AcDbEntity
  8
0
  6
Continuous
 62
     5
100
AcDbLine
 10
929.0915685004
 20
138.0236831275
 30
0.0
 11
930.3868991033999
 21
139.3190137305
 31
0.0
  0
LINE
  5
19C6
330
185C
100
AcDbEntity
  8
0
  6
Continuous
 62
     5
100
AcDbLine
 10
929.0915685004
 20
138.3367431419
 30
0.0
 11
930.073839089
 21
139.3190137305
 31
0.0
  0
LINE
  5
19C7
330
185C
100
AcDbEntity
  8
0
  6
Continuous
 62
     5
100
AcDbLine
 10
929.0915685004
 20
138.6498031562999
 30
0.0
 11
929.7607790746001
 21
139.3190137305
 31
0.0
  0
LINE
  5
19C8
330
185C
100
AcDbEntity
  8
0
  6
Continuous
 62
     5
100
AcDbLine
 10
929.0915685004
 20
138.9628631707
 30
0.0
 11
929.4477190602
 21
139.3190137305
 31
0.0
  0
LINE
  5
19C9
330
185C
100
AcDbEntity
  8
0
  6
Continuous
 62
     5
100
AcDbLine
 10
929.0915685004
 20
139.2759231851
 30
0.0
 11
929.1346590458999
 21
139.3190137305
 31
0.0
  0
ENDBLK
  5
19CA
330
185C
100
AcDbEntity
  8
0
  6
ByBlock
 62
     0
100
AcDbBlockEnd
  0
BLOCK
  5
1C95
330
1C8B
100
AcDbEntity
  8
0
100
AcDbBlockBegin
  2
*D26
 70
     1
 10
0.0
 20
0.0
 30
0.0
  3
*D26
  1

  0
LINE
  5
1EA9
330
1C8B
100
AcDbEntity
  8
0
  6
Continuous
 62
     0
440
 16777216
370
    -2
100
AcDbLine
 10
2680.761077808029
 20
838.1235460058791
 30
0.0
 11
2680.761077808029
 21
866.7011833031272
 31
0.0
  0
LINE
  5
1EAA
330
1C8B
100
AcDbEntity
  8
0
  6
Continuous
 62
     0
440
 16777216
370
    -2
100
AcDbLine
 10
2424.215333739653
 20
850.5484829428231
 30
0.0
 11
2424.215333739653
 21
866.7011833031272
 31
0.0
  0
LINE
  5
1EAB
330
1C8B
100
AcDbEntity
  8
0
  6
Continuous
 62
     0
440
 16777216
370
    -2
100
AcDbLine
 10
2665.76107780803
 20
865.2011833031272
 30
0.0
 11
2439.215333739654
 21
865.2011833031272
 31
0.0
  0
INSERT
  5
1EAC
330
1C8B
100
AcDbEntity
  8
0
  6
Continuous
 62
     0
440
 16777216
370
    -2
100
AcDbBlockReference
  2
_ARROW_FILLED
 10
2680.761077808029
 20
865.2011833031272
 30
0.0
 41
15.0
 42
15.0
 43
15.0
  0
INSERT
  5
1EAD
330
1C8B
100
AcDbEntity
  8
0
  6
Continuous
 62
     0
440
 16777216
370
    -2
100
AcDbBlockReference
  2
_ARROW_FILLED
 10
2424.215333739653
 20
865.2011833031272
 30
0.0
 41
15.0
 42
15.0
 43
15.0
 50
180.0
  0
MTEXT
  5
1EAE
330
1C8B
100
AcDbEntity
  8
0
  6
Continuous
 62
     2
440
 16777216
100
AcDbMText
 10
2552.488205773757
 20
872.1476118745558
 30
0.0
 40
12.5
 41
0.0
 46
0.0
 71
     5
 72
     1
  1
\A1;150
 73
     1
 44
1.0
  0
POINT
  5
1EAF
330
1C8B
100
AcDbEntity
  8
Defpoints
  6
Continuous
 62
     0
440
 16777216
100
AcDbPoint
 10
2680.761077808029
 20
837.1235460058791
 30
0.0
  0
POINT
  5
1EB0
330
1C8B
100
AcDbEntity
  8
Defpoints
  6
Continuous
 62
     0
440
 16777216
100
AcDbPoint
 10
2424.215333739653
 20
849.5484829428232
 30
0.0
  0
POINT
  5
1EB1
330
1C8B
100
AcDbEntity
  8
Defpoints
  6
Continuous
 62
     0
440
 16777216
100
AcDbPoint
 10
2424.215333739653
 20
865.2011833031272
 30
0.0
  0
ENDBLK
  5
1C96
330
1C8B
100
AcDbEntity
  8
0
100
AcDbBlockEnd
  0
BLOCK
  5
1CA1
330
1C97
100
AcDbEntity
  8
0
100
AcDbBlockBegin
  2
*D27
 70
     1
 10
0.0
 20
0.0
 30
0.0
  3
*D27
  1

  0
LINE
  5
1EF3
330
1C97
100
AcDbEntity
  8
0
  6
Continuous
 62
     0
440
 16777216
370
    -2
100
AcDbLine
 10
2382.215333739654
 20
847.6556541140311
 30
0.0
 11
2382.215333739654
 21
903.5272003063431
 31
0.0
  0
LINE
  5
1EF4
330
1C97
100
AcDbEntity
  8
0
  6
Continuous
 62
     0
440
 16777216
370
    -2
100
AcDbLine
 10
2703.935333739654
 20
834.9739243843831
 30
0.0
 11
2703.935333739654
 21
903.5272003063431
 31
0.0
  0
LINE
  5
1EF5
330
1C97
100
AcDbEntity
  8
0
  6
Continuous
 62
     0
440
 16777216
370
    -2
100
AcDbLine
 10
2397.215333739653
 20
902.0272003063432
 30
0.0
 11
2688.935333739653
 21
902.0272003063432
 31
0.0
  0
INSERT
  5
1EF6
330
1C97
100
AcDbEntity
  8
0
  6
Continuous
 62
     0
440
 16777216
370
    -2
100
AcDbBlockReference
  2
_ARROW_FILLED
 10
2382.215333739654
 20
902.0272003063432
 30
0.0
 41
15.0
 42
15.0
 43
15.0
 50
180.0
  0
INSERT
  5
1EF7
330
1C97
100
AcDbEntity
  8
0
  6
Continuous
 62
     0
440
 16777216
370
    -2
100
AcDbBlockReference
  2
_ARROW_FILLED
 10
2703.935333739654
 20
902.0272003063432
 30
0.0
 41
15.0
 42
15.0
 43
15.0
  0
MTEXT
  5
1EF8
330
1C97
100
AcDbEntity
  8
0
  6
Continuous
 62
     2
440
 16777216
100
AcDbMText
 10
2543.075333739653
 20
908.9736288777716
 30
0.0
 40
12.5
 41
0.0
 46
0.0
 71
     5
 72
     1
  1
\A1;192
 73
     1
 44
1.0
  0
POINT
  5
1EF9
330
1C97
100
AcDbEntity
  8
Defpoints
  6
Continuous
 62
     0
440
 16777216
100
AcDbPoint
 10
2382.215333739654
 20
846.6556541140311
 30
0.0
  0
POINT
  5
1EFA
330
1C97
100
AcDbEntity
  8
Defpoints
  6
Continuous
 62
     0
440
 16777216
100
AcDbPoint
 10
2703.935333739654
 20
833.9739243843832
 30
0.0
  0
POINT
  5
1EFB
330
1C97
100
AcDbEntity
  8
Defpoints
  6
Continuous
 62
     0
440
 16777216
100
AcDbPoint
 10
2703.935333739654
 20
902.0272003063432
 30
0.0
  0
ENDBLK
  5
1CA2
330
1C97
100
AcDbEntity
  8
0
100
AcDbBlockEnd
  0
BLOCK
  5
1CAD
330
1CA3
100
AcDbEntity
  8
0
100
AcDbBlockBegin
  2
*D28
 70
     1
 10
0.0
 20
0.0
 30
0.0
  3
*D28
  1

  0
LINE
  5
1F4F
330
1CA3
100
AcDbEntity
  8
0
  6
Continuous
 62
     0
440
 16777216
370
    -2
100
AcDbLine
 10
2715.869459865766
 20
710.4253117716711
 30
0.0
 11
2745.648703052021
 21
710.4253117716711
 31
0.0
  0
LINE
  5
1F50
330
1CA3
100
AcDbEntity
  8
0
  6
Continuous
 62
     0
440
 16777216
370
    -2
100
AcDbLine
 10
2694.138432838797
 20
304.7053117716712
 30
0.0
 11
2745.648703052021
 21
304.7053117716712
 31
0.0
  0
LINE
  5
1F51
330
1CA3
100
AcDbEntity
  8
0
  6
Continuous
 62
     0
440
 16777216
370
    -2
100
AcDbLine
 10
2744.148703052021
 20
695.4253117716712
 30
0.0
 11
2744.148703052021
 21
319.7053117716712
 31
0.0
  0
INSERT
  5
1F52
330
1CA3
100
AcDbEntity
  8
0
  6
Continuous
 62
     0
440
 16777216
370
    -2
100
AcDbBlockReference
  2
_ARROW_FILLED
 10
2744.148703052021
 20
710.4253117716711
 30
0.0
 41
15.0
 42
15.0
 43
15.0
 50
90.0
  0
INSERT
  5
1F53
330
1CA3
100
AcDbEntity
  8
0
  6
Continuous
 62
     0
440
 16777216
370
    -2
100
AcDbBlockReference
  2
_ARROW_FILLED
 10
2744.148703052021
 20
304.7053117716712
 30
0.0
 41
15.0
 42
15.0
 43
15.0
 50
270.0
  0
MTEXT
  5
1F54
330
1CA3
100
AcDbEntity
  8
0
  6
Continuous
 62
     2
440
 16777216
100
AcDbMText
 10
2737.202274480593
 20
507.5653117716711
 30
0.0
 40
12.5
 41
0.0
 46
0.0
 71
     5
 72
     1
  1
\A1;225
 11
0.0000000000000001
 21
1.0
 31
0.0
 73
     1
 44
1.0
  0
POINT
  5
1F55
330
1CA3
100
AcDbEntity
  8
Defpoints
  6
Continuous
 62
     0
440
 16777216
100
AcDbPoint
 10
2714.869459865765
 20
710.4253117716711
 30
0.0
  0
POINT
  5
1F56
330
1CA3
100
AcDbEntity
  8
Defpoints
  6
Continuous
 62
     0
440
 16777216
100
AcDbPoint
 10
2693.138432838797
 20
304.7053117716712
 30
0.0
  0
POINT
  5
1F57
330
1CA3
100
AcDbEntity
  8
Defpoints
  6
Continuous
 62
     0
440
 16777216
100
AcDbPoint
 10
2744.148703052021
 20
304.7053117716712
 30
0.0
  0
ENDBLK
  5
1CAE
330
1CA3
100
AcDbEntity
  8
0
100
AcDbBlockEnd
  0
BLOCK
  5
1CB9
330
1CAF
100
AcDbEntity
  8
0
100
AcDbBlockBegin
  2
*D29
 70
     1
 10
0.0
 20
0.0
 30
0.0
  3
*D29
  1

  0
LINE
  5
1F58
330
1CAF
100
AcDbEntity
  8
0
  6
Continuous
 62
     0
440
 16777216
370
    -2
100
AcDbLine
 10
2762.296486892733
 20
843.3133117716712
 30
0.0
 11
2809.657512826973
 21
843.3133117716712
 31
0.0
  0
LINE
  5
1F59
330
1CAF
100
AcDbEntity
  8
0
  6
Continuous
 62
     0
440
 16777216
370
    -2
100
AcDbLine
 10
2769.057351757726
 20
304.7053117716712
 30
0.0
 11
2809.657512826973
 21
304.7053117716712
 31
0.0
  0
LINE
  5
1F5A
330
1CAF
100
AcDbEntity
  8
0
  6
Continuous
 62
     0
440
 16777216
370
    -2
100
AcDbLine
 10
2808.157512826973
 20
828.3133117716712
 30
0.0
 11
2808.157512826973
 21
319.7053117716712
 31
0.0
  0
INSERT
  5
1F5B
330
1CAF
100
AcDbEntity
  8
0
  6
Continuous
 62
     0
440
 16777216
370
    -2
100
AcDbBlockReference
  2
_ARROW_FILLED
 10
2808.157512826973
 20
843.3133117716712
 30
0.0
 41
15.0
 42
15.0
 43
15.0
 50
90.0
  0
INSERT
  5
1F5C
330
1CAF
100
AcDbEntity
  8
0
  6
Continuous
 62
     0
440
 16777216
370
    -2
100
AcDbBlockReference
  2
_ARROW_FILLED
 10
2808.157512826973
 20
304.7053117716712
 30
0.0
 41
15.0
 42
15.0
 43
15.0
 50
270.0
  0
MTEXT
  5
1F5D
330
1CAF
100
AcDbEntity
  8
0
  6
Continuous
 62
     2
440
 16777216
100
AcDbMText
 10
2801.211084255545
 20
574.0093117716712
 30
0.0
 40
12.5
 41
0.0
 46
0.0
 71
     5
 72
     1
  1
\A1;305
 11
0.0000000000000001
 21
1.0
 31
0.0
 73
     1
 44
1.0
  0
POINT
  5
1F5E
330
1CAF
100
AcDbEntity
  8
Defpoints
  6
Continuous
 62
     0
440
 16777216
100
AcDbPoint
 10
2761.296486892734
 20
843.3133117716712
 30
0.0
  0
POINT
  5
1F5F
330
1CAF
100
AcDbEntity
  8
Defpoints
  6
Continuous
 62
     0
440
 16777216
100
AcDbPoint
 10
2768.057351757726
 20
304.7053117716712
 30
0.0
  0
POINT
  5
1F60
330
1CAF
100
AcDbEntity
  8
Defpoints
  6
Continuous
 62
     0
440
 16777216
100
AcDbPoint
 10
2808.157512826973
 20
304.7053117716712
 30
0.0
  0
ENDBLK
  5
1CBA
330
1CAF
100
AcDbEntity
  8
0
100
AcDbBlockEnd
  0
BLOCK
  5
1CC5
330
1CBB
100
AcDbEntity
  8
0
100
AcDbBlockBegin
  2
*D30
 70
     1
 10
0.0
 20
0.0
 30
0.0
  3
*D30
  1

  0
LINE
  5
1F46
330
1CBB
100
AcDbEntity
  8
0
  6
Continuous
 62
     0
440
 16777216
370
    -2
100
AcDbLine
 10
2388.935333739653
 20
314.1053117716712
 30
0.0
 11
2388.935333739653
 21
322.1113926229191
 31
0.0
  0
LINE
  5
1F47
330
1CBB
100
AcDbEntity
  8
0
  6
Continuous
 62
     0
440
 16777216
370
    -2
100
AcDbLine
 10
2459.495333739653
 20
314.1053117716712
 30
0.0
 11
2459.495333739653
 21
322.1113926229191
 31
0.0
  0
LINE
  5
1F48
330
1CBB
100
AcDbEntity
  8
0
  6
Continuous
 62
     0
440
 16777216
370
    -2
100
AcDbLine
 10
2403.935333739653
 20
320.6113926229191
 30
0.0
 11
2444.495333739653
 21
320.6113926229191
 31
0.0
  0
INSERT
  5
1F49
330
1CBB
100
AcDbEntity
  8
0
  6
Continuous
 62
     0
440
 16777216
370
    -2
100
AcDbBlockReference
  2
_ARROW_FILLED
 10
2388.935333739653
 20
320.6113926229191
 30
0.0
 41
15.0
 42
15.0
 43
15.0
 50
180.0
  0
INSERT
  5
1F4A
330
1CBB
100
AcDbEntity
  8
0
  6
Continuous
 62
     0
440
 16777216
370
    -2
100
AcDbBlockReference
  2
_ARROW_FILLED
 10
2459.495333739653
 20
320.6113926229191
 30
0.0
 41
15.0
 42
15.0
 43
15.0
  0
MTEXT
  5
1F4B
330
1CBB
100
AcDbEntity
  8
0
  6
Continuous
 62
     2
440
 16777216
100
AcDbMText
 10
2424.215333739653
 20
327.4863926229191
 30
0.0
 40
12.5
 41
0.0
 46
0.0
 71
     5
 72
     1
  1
\A1;{\fSimSun|b0|i0|c134|p2;%%C42}
  7
TEXTSTYLE_2
 73
     1
 44
1.0
  0
POINT
  5
1F4C
330
1CBB
100
AcDbEntity
  8
Defpoints
  6
Continuous
 62
     0
440
 16777216
100
AcDbPoint
 10
2388.935333739653
 20
313.1053117716712
 30
0.0
  0
POINT
  5
1F4D
330
1CBB
100
AcDbEntity
  8
Defpoints
  6
Continuous
 62
     0
440
 16777216
100
AcDbPoint
 10
2459.495333739653
 20
313.1053117716712
 30
0.0
  0
POINT
  5
1F4E
330
1CBB
100
AcDbEntity
  8
Defpoints
  6
Continuous
 62
     0
440
 16777216
100
AcDbPoint
 10
2459.495333739653
 20
320.6113926229191
 30
0.0
  0
ENDBLK
  5
1CC6
330
1CBB
100
AcDbEntity
  8
0
100
AcDbBlockEnd
  0
BLOCK
  5
1CD1
330
1CC7
100
AcDbEntity
  8
0
100
AcDbBlockBegin
  2
*D31
 70
     1
 10
0.0
 20
0.0
 30
0.0
  3
*D31
  1

  0
LINE
  5
1F3D
330
1CC7
100
AcDbEntity
  8
0
  6
Continuous
 62
     0
440
 16777216
370
    -2
100
AcDbLine
 10
2466.215333739654
 20
290.3011315914552
 30
0.0
 11
2466.215333739654
 21
269.6214308251672
 31
0.0
  0
LINE
  5
1F3E
330
1CC7
100
AcDbEntity
  8
0
  6
Continuous
 62
     0
440
 16777216
370
    -2
100
AcDbLine
 10
2382.215333739654
 20
282.2098883482391
 30
0.0
 11
2382.215333739654
 21
269.6214308251672
 31
0.0
  0
LINE
  5
1F3F
330
1CC7
100
AcDbEntity
  8
0
  6
Continuous
 62
     0
440
 16777216
370
    -2
100
AcDbLine
 10
2451.215333739654
 20
271.1214308251672
 30
0.0
 11
2397.215333739653
 21
271.1214308251672
 31
0.0
  0
INSERT
  5
1F40
330
1CC7
100
AcDbEntity
  8
0
  6
Continuous
 62
     0
440
 16777216
370
    -2
100
AcDbBlockReference
  2
_ARROW_FILLED
 10
2466.215333739654
 20
271.1214308251672
 30
0.0
 41
15.0
 42
15.0
 43
15.0
  0
INSERT
  5
1F41
330
1CC7
100
AcDbEntity
  8
0
  6
Continuous
 62
     0
440
 16777216
370
    -2
100
AcDbBlockReference
  2
_ARROW_FILLED
 10
2382.215333739654
 20
271.1214308251672
 30
0.0
 41
15.0
 42
15.0
 43
15.0
 50
180.0
  0
MTEXT
  5
1F42
330
1CC7
100
AcDbEntity
  8
0
  6
Continuous
 62
     2
440
 16777216
100
AcDbMText
 10
2424.215333739653
 20
277.9964308251672
 30
0.0
 40
12.5
 41
0.0
 46
0.0
 71
     5
 72
     1
  1
\A1;{\fSimSun|b0|i0|c134|p2;%%C50}
  7
TEXTSTYLE_2
 73
     1
 44
1.0
  0
POINT
  5
1F43
330
1CC7
100
AcDbEntity
  8
Defpoints
  6
Continuous
 62
     0
440
 16777216
100
AcDbPoint
 10
2466.215333739654
 20
291.3011315914551
 30
0.0
  0
POINT
  5
1F44
330
1CC7
100
AcDbEntity
  8
Defpoints
  6
Continuous
 62
     0
440
 16777216
100
AcDbPoint
 10
2382.215333739654
 20
283.2098883482391
 30
0.0
  0
POINT
  5
1F45
330
1CC7
100
AcDbEntity
  8
Defpoints
  6
Continuous
 62
     0
440
 16777216
100
AcDbPoint
 10
2382.215333739654
 20
271.1214308251672
 30
0.0
  0
ENDBLK
  5
1CD2
330
1CC7
100
AcDbEntity
  8
0
100
AcDbBlockEnd
  0
BLOCK
  5
1CDE
330
1CD3
100
AcDbEntity
  8
0
100
AcDbBlockBegin
  2
*D32
 70
     1
 10
0.0
 20
0.0
 30
0.0
  3
*D32
  1

  0
LINE
  5
1F29
330
1CD3
100
AcDbEntity
  8
0
  6
Continuous
 62
     0
440
 16777216
370
    -2
100
AcDbLine
 10
2377.850288694613
 20
304.7053117716712
 30
0.0
 11
2356.760013568157
 21
304.7053117716712
 31
0.0
  0
LINE
  5
1F2A
330
1CD3
100
AcDbEntity
  8
0
  6
Continuous
 62
     0
440
 16777216
370
    -2
100
AcDbLine
 10
2391.68821396367
 20
247.5853117716712
 30
0.0
 11
2356.760013568157
 21
247.5853117716712
 31
0.0
  0
LINE
  5
1F2B
330
1CD3
100
AcDbEntity
  8
0
  6
Continuous
 62
     0
440
 16777216
370
    -2
100
AcDbLine
 10
2358.260013568157
 20
289.7053117716712
 30
0.0
 11
2358.260013568157
 21
262.5853117716712
 31
0.0
  0
LINE
  5
1F2C
330
1CD3
100
AcDbEntity
  8
0
  6
Continuous
 62
     0
440
 16777216
370
    -2
100
AcDbLine
 10
2358.260013568157
 20
247.5853117716712
 30
0.0
 11
2358.260013568157
 21
177.7638832002426
 31
0.0
  0
INSERT
  5
1F2D
330
1CD3
100
AcDbEntity
  8
0
  6
Continuous
 62
     0
440
 16777216
370
    -2
100
AcDbBlockReference
  2
_ARROW_FILLED
 10
2358.260013568157
 20
304.7053117716712
 30
0.0
 41
15.0
 42
15.0
 43
15.0
 50
90.0
  0
INSERT
  5
1F2E
330
1CD3
100
AcDbEntity
  8
0
  6
Continuous
 62
     0
440
 16777216
370
    -2
100
AcDbBlockReference
  2
_ARROW_FILLED
 10
2358.260013568157
 20
247.5853117716712
 30
0.0
 41
15.0
 42
15.0
 43
15.0
 50
270.0
  0
MTEXT
  5
1F2F
330
1CD3
100
AcDbEntity
  8
0
  6
Continuous
 62
     2
440
 16777216
100
AcDbMText
 10
2351.313584996729
 20
205.1745974859573
 30
0.0
 40
12.5
 41
0.0
 46
0.0
 71
     5
 72
     1
  1
\A1;MAX=35
 11
0.0000000000000001
 21
1.0
 31
0.0
 73
     1
 44
1.0
  0
POINT
  5
1F30
330
1CD3
100
AcDbEntity
  8
Defpoints
  6
Continuous
 62
     0
440
 16777216
100
AcDbPoint
 10
2378.850288694613
 20
304.7053117716712
 30
0.0
  0
POINT
  5
1F31
330
1CD3
100
AcDbEntity
  8
Defpoints
  6
Continuous
 62
     0
440
 16777216
100
AcDbPoint
 10
2392.68821396367
 20
247.5853117716712
 30
0.0
  0
POINT
  5
1F32
330
1CD3
100
AcDbEntity
  8
Defpoints
  6
Continuous
 62
     0
440
 16777216
100
AcDbPoint
 10
2358.260013568157
 20
247.5853117716712
 30
0.0
  0
ENDBLK
  5
1CDF
330
1CD3
100
AcDbEntity
  8
0
100
AcDbBlockEnd
  0
BLOCK
  5
1CEB
330
1CE0
100
AcDbEntity
  8
0
100
AcDbBlockBegin
  2
*D33
 70
     1
 10
0.0
 20
0.0
 30
0.0
  3
*D33
  1

  0
LINE
  5
1F33
330
1CE0
100
AcDbEntity
  8
0
  6
Continuous
 62
     0
440
 16777216
370
    -2
100
AcDbLine
 10
2398.847333739653
 20
203.7402667266312
 30
0.0
 11
2398.847333739653
 21
193.5649469759751
 31
0.0
  0
LINE
  5
1F34
330
1CE0
100
AcDbEntity
  8
0
  6
Continuous
 62
     0
440
 16777216
370
    -2
100
AcDbLine
 10
2409.263333739654
 20
203.7402667266312
 30
0.0
 11
2409.263333739654
 21
193.5649469759751
 31
0.0
  0
LINE
  5
1F35
330
1CE0
100
AcDbEntity
  8
0
  6
Continuous
 62
     0
440
 16777216
370
    -2
100
AcDbLine
 10
2383.847333739653
 20
195.0649469759752
 30
0.0
 11
2368.847333739653
 21
195.0649469759752
 31
0.0
  0
LINE
  5
1F36
330
1CE0
100
AcDbEntity
  8
0
  6
Continuous
 62
     0
440
 16777216
370
    -2
100
AcDbLine
 10
2424.263333739653
 20
195.0649469759752
 30
0.0
 11
2457.584762311082
 21
195.0649469759752
 31
0.0
  0
INSERT
  5
1F37
330
1CE0
100
AcDbEntity
  8
0
  6
Continuous
 62
     0
440
 16777216
370
    -2
100
AcDbBlockReference
  2
_ARROW_FILLED
 10
2398.847333739653
 20
195.0649469759752
 30
0.0
 41
15.0
 42
15.0
 43
15.0
  0
INSERT
  5
1F38
330
1CE0
100
AcDbEntity
  8
0
  6
Continuous
 62
     0
440
 16777216
370
    -2
100
AcDbBlockReference
  2
_ARROW_FILLED
 10
2409.263333739654
 20
195.0649469759752
 30
0.0
 41
15.0
 42
15.0
 43
15.0
 50
180.0
  0
MTEXT
  5
1F39
330
1CE0
100
AcDbEntity
  8
0
  6
Continuous
 62
     2
440
 16777216
100
AcDbMText
 10
2448.424048025368
 20
202.0113755474038
 30
0.0
 40
12.5
 41
0.0
 46
0.0
 71
     5
 72
     1
  1
\A1;M8
 73
     1
 44
1.0
  0
POINT
  5
1F3A
330
1CE0
100
AcDbEntity
  8
Defpoints
  6
Continuous
 62
     0
440
 16777216
100
AcDbPoint
 10
2398.847333739653
 20
204.7402667266312
 30
0.0
  0
POINT
  5
1F3B
330
1CE0
100
AcDbEntity
  8
Defpoints
  6
Continuous
 62
     0
440
 16777216
100
AcDbPoint
 10
2409.263333739654
 20
204.7402667266312
 30
0.0
  0
POINT
  5
1F3C
330
1CE0
100
AcDbEntity
  8
Defpoints
  6
Continuous
 62
     0
440
 16777216
100
AcDbPoint
 10
2409.263333739654
 20
195.0649469759752
 30
0.0
  0
ENDBLK
  5
1CEC
330
1CE0
100
AcDbEntity
  8
0
100
AcDbBlockEnd
  0
BLOCK
  5
2AED
330
2AE3
100
AcDbEntity
  8
0
100
AcDbBlockBegin
  2
*D34
 70
     1
 10
0.0
 20
0.0
 30
0.0
  3
*D34
  1

  0
LINE
  5
2BAB
330
2AE3
100
AcDbEntity
  8
CAXA4
  6
Continuous
 62
     0
440
 16777216
370
    -2
100
AcDbLine
 10
3730.946882767399
 20
320.1350054303655
 30
0.0
 11
3710.441544923189
 21
320.1350054303655
 31
0.0
  0
LINE
  5
2BAC
330
2AE3
100
AcDbEntity
  8
CAXA4
  6
Continuous
 62
     0
440
 16777216
370
    -2
100
AcDbLine
 10
3724.904827510162
 20
448.1350054303654
 30
0.0
 11
3710.441544923189
 21
448.1350054303655
 31
0.0
  0
LINE
  5
2BAD
330
2AE3
100
AcDbEntity
  8
CAXA4
  6
Continuous
 62
     0
440
 16777216
370
    -2
100
AcDbLine
 10
3711.941544923189
 20
335.1350054303655
 30
0.0
 11
3711.941544923189
 21
433.1350054303655
 31
0.0
  0
INSERT
  5
2BAE
330
2AE3
100
AcDbEntity
  8
CAXA4
  6
Continuous
 62
     0
440
 16777216
370
    -2
100
AcDbBlockReference
  2
_ARROW_FILLED
 10
3711.941544923189
 20
320.1350054303655
 30
0.0
 41
15.0
 42
15.0
 43
15.0
 50
270.0
  0
INSERT
  5
2BAF
330
2AE3
100
AcDbEntity
  8
CAXA4
  6
Continuous
 62
     0
440
 16777216
370
    -2
100
AcDbBlockReference
  2
_ARROW_FILLED
 10
3711.941544923189
 20
448.1350054303655
 30
0.0
 41
15.0
 42
15.0
 43
15.0
 50
90.0
  0
MTEXT
  5
2BB0
330
2AE3
100
AcDbEntity
  8
CAXA4
  6
Continuous
 62
     2
440
 16777216
370
     0
100
AcDbMText
 10
3704.99511635176
 20
384.1350054303661
 30
0.0
 40
12.5
 41
0.0
 46
0.0
 71
     5
 72
     1
  1
\A1;32
 11
0.0000000000000001
 21
1.0
 31
0.0
 73
     1
 44
1.0
  0
POINT
  5
2BB1
330
2AE3
100
AcDbEntity
  8
Defpoints
  6
Continuous
 62
     0
440
 16777216
100
AcDbPoint
 10
3731.946882767399
 20
320.1350054303655
 30
0.0
  0
POINT
  5
2BB2
330
2AE3
100
AcDbEntity
  8
Defpoints
  6
Continuous
 62
     0
440
 16777216
100
AcDbPoint
 10
3725.904827510162
 20
448.1350054303654
 30
0.0
  0
POINT
  5
2BB3
330
2AE3
100
AcDbEntity
  8
Defpoints
  6
Continuous
 62
     0
440
 16777216
100
AcDbPoint
 10
3711.941544923189
 20
448.1350054303655
 30
0.0
  0
ENDBLK
  5
2AEE
330
2AE3
100
AcDbEntity
  8
0
100
AcDbBlockEnd
  0
BLOCK
  5
2AFA
330
2AEF
100
AcDbEntity
  8
0
100
AcDbBlockBegin
  2
*D35
 70
     1
 10
0.0
 20
0.0
 30
0.0
  3
*D35
  1

  0
LINE
  5
2BB4
330
2AEF
100
AcDbEntity
  8
CAXA4
  6
Continuous
 62
     0
440
 16777216
370
    -2
100
AcDbLine
 10
3755.347077148602
 20
449.5594092281205
 30
0.0
 11
3755.347077148602
 21
505.4408850323786
 31
0.0
  0
LINE
  5
2BB5
330
2AEF
100
AcDbEntity
  8
CAXA4
  6
Continuous
 62
     0
440
 16777216
370
    -2
100
AcDbLine
 10
3771.867284446142
 20
449.1085519789837
 30
0.0
 11
3771.867284446142
 21
505.4408850323786
 31
0.0
  0
LINE
  5
2BB6
330
2AEF
100
AcDbEntity
  8
CAXA4
  6
Continuous
 62
     0
440
 16777216
370
    -2
100
AcDbLine
 10
3740.347077148602
 20
503.9408850323787
 30
0.0
 11
3725.347077148602
 21
503.9408850323787
 31
0.0
  0
LINE
  5
2BB7
330
2AEF
100
AcDbEntity
  8
CAXA4
  6
Continuous
 62
     0
440
 16777216
370
    -2
100
AcDbLine
 10
3786.867284446143
 20
503.9408850323787
 30
0.0
 11
3801.867284446143
 21
503.9408850323787
 31
0.0
  0
INSERT
  5
2BB8
330
2AEF
100
AcDbEntity
  8
CAXA4
  6
Continuous
 62
     0
440
 16777216
370
    -2
100
AcDbBlockReference
  2
_ARROW_FILLED
 10
3755.347077148602
 20
503.9408850323787
 30
0.0
 41
15.0
 42
15.0
 43
15.0
  0
INSERT
  5
2BB9
330
2AEF
100
AcDbEntity
  8
CAXA4
  6
Continuous
 62
     0
440
 16777216
370
    -2
100
AcDbBlockReference
  2
_ARROW_FILLED
 10
3771.867284446142
 20
503.9408850323787
 30
0.0
 41
15.0
 42
15.0
 43
15.0
 50
180.0
  0
MTEXT
  5
2BBA
330
2AEF
100
AcDbEntity
  8
CAXA4
  6
Continuous
 62
     2
440
 16777216
370
     0
100
AcDbMText
 10
3763.607180797372
 20
510.8158850323786
 30
0.0
 40
12.5
 41
0.0
 46
0.0
 71
     5
 72
     1
  1
\A1;4
 73
     1
 44
1.0
  0
POINT
  5
2BBB
330
2AEF
100
AcDbEntity
  8
Defpoints
  6
Continuous
 62
     0
440
 16777216
100
AcDbPoint
 10
3755.347077148602
 20
448.5594092281205
 30
0.0
  0
POINT
  5
2BBC
330
2AEF
100
AcDbEntity
  8
Defpoints
  6
Continuous
 62
     0
440
 16777216
100
AcDbPoint
 10
3771.867284446142
 20
448.1085519789838
 30
0.0
  0
POINT
  5
2BBD
330
2AEF
100
AcDbEntity
  8
Defpoints
  6
Continuous
 62
     0
440
 16777216
100
AcDbPoint
 10
3771.867284446142
 20
503.9408850323787
 30
0.0
  0
ENDBLK
  5
2AFB
330
2AEF
100
AcDbEntity
  8
0
100
AcDbBlockEnd
  0
BLOCK
  5
2B07
330
2AFC
100
AcDbEntity
  8
0
100
AcDbBlockBegin
  2
*D36
 70
     1
 10
0.0
 20
0.0
 30
0.0
  3
*D36
  1

  0
LINE
  5
2BBE
330
2AFC
100
AcDbEntity
  8
CAXA4
  6
Continuous
 62
     0
440
 16777216
370
    -2
100
AcDbLine
 10
4469.015472541362
 20
580.2746599861773
 30
0.0
 11
4424.103584382414
 21
580.2746599861773
 31
0.0
  0
LINE
  5
2BBF
330
2AFC
100
AcDbEntity
  8
CAXA4
  6
Continuous
 62
     0
440
 16777216
370
    -2
100
AcDbLine
 10
4470.215472541362
 20
559.0746599861774
 30
0.0
 11
4424.103584382414
 21
559.0746599861774
 31
0.0
  0
LINE
  5
2BC0
330
2AFC
100
AcDbEntity
  8
CAXA4
  6
Continuous
 62
     0
440
 16777216
370
    -2
100
AcDbLine
 10
4425.603584382414
 20
595.2746599861773
 30
0.0
 11
4425.603584382414
 21
610.2746599861773
 31
0.0
  0
LINE
  5
2BC1
330
2AFC
100
AcDbEntity
  8
CAXA4
  6
Continuous
 62
     0
440
 16777216
370
    -2
100
AcDbLine
 10
4425.603584382414
 20
544.0746599861775
 30
0.0
 11
4425.603584382414
 21
529.0746599861774
 31
0.0
  0
INSERT
  5
2BC2
330
2AFC
100
AcDbEntity
  8
CAXA4
  6
Continuous
 62
     0
440
 16777216
370
    -2
100
AcDbBlockReference
  2
_ARROW_FILLED
 10
4425.603584382414
 20
580.2746599861773
 30
0.0
 41
15.0
 42
15.0
 43
15.0
 50
270.0
  0
INSERT
  5
2BC3
330
2AFC
100
AcDbEntity
  8
CAXA4
  6
Continuous
 62
     0
440
 16777216
370
    -2
100
AcDbBlockReference
  2
_ARROW_FILLED
 10
4425.603584382414
 20
559.0746599861774
 30
0.0
 41
15.0
 42
15.0
 43
15.0
 50
90.0
  0
MTEXT
  5
2BC4
330
2AFC
100
AcDbEntity
  8
CAXA4
  6
Continuous
 62
     2
440
 16777216
370
     0
100
AcDbMText
 10
4418.657155810985
 20
569.6746599861781
 30
0.0
 40
12.5
 41
0.0
 46
0.0
 71
     5
 72
     1
  1
\A1;10
 11
0.0000000000000001
 21
1.0
 31
0.0
 73
     1
 44
1.0
  0
POINT
  5
2BC5
330
2AFC
100
AcDbEntity
  8
Defpoints
  6
Continuous
 62
     0
440
 16777216
100
AcDbPoint
 10
4470.015472541362
 20
580.2746599861773
 30
0.0
  0
POINT
  5
2BC6
330
2AFC
100
AcDbEntity
  8
Defpoints
  6
Continuous
 62
     0
440
 16777216
100
AcDbPoint
 10
4471.215472541362
 20
559.0746599861774
 30
0.0
  0
POINT
  5
2BC7
330
2AFC
100
AcDbEntity
  8
Defpoints
  6
Continuous
 62
     0
440
 16777216
100
AcDbPoint
 10
4425.603584382414
 20
559.0746599861774
 30
0.0
  0
ENDBLK
  5
2B08
330
2AFC
100
AcDbEntity
  8
0
100
AcDbBlockEnd
  0
BLOCK
  5
2B13
330
2B09
100
AcDbEntity
  8
0
100
AcDbBlockBegin
  2
*D37
 70
     1
 10
0.0
 20
0.0
 30
0.0
  3
*D37
  1

  0
LINE
  5
2BC8
330
2B09
100
AcDbEntity
  8
CAXA4
  6
Continuous
 62
     0
440
 16777216
370
    -2
100
AcDbLine
 10
4528.426600710135
 20
598.789108608478
 30
0.0
 11
4528.426600710135
 21
634.419600318725
 31
0.0
  0
LINE
  5
2BC9
330
2B09
100
AcDbEntity
  8
CAXA4
  6
Continuous
 62
     0
440
 16777216
370
    -2
100
AcDbLine
 10
4580.412042795293
 20
598.789108608478
 30
0.0
 11
4580.412042795293
 21
634.419600318725
 31
0.0
  0
LINE
  5
2BCA
330
2B09
100
AcDbEntity
  8
CAXA4
  6
Continuous
 62
     0
440
 16777216
370
    -2
100
AcDbLine
 10
4543.426600710135
 20
632.919600318725
 30
0.0
 11
4565.412042795293
 21
632.919600318725
 31
0.0
  0
INSERT
  5
2BCB
330
2B09
100
AcDbEntity
  8
CAXA4
  6
Continuous
 62
     0
440
 16777216
370
    -2
100
AcDbBlockReference
  2
_ARROW_FILLED
 10
4528.426600710135
 20
632.919600318725
 30
0.0
 41
15.0
 42
15.0
 43
15.0
 50
180.0
  0
INSERT
  5
2BCC
330
2B09
100
AcDbEntity
  8
CAXA4
  6
Continuous
 62
     0
440
 16777216
370
    -2
100
AcDbBlockReference
  2
_ARROW_FILLED
 10
4580.412042795293
 20
632.919600318725
 30
0.0
 41
15.0
 42
15.0
 43
15.0
  0
MTEXT
  5
2BCD
330
2B09
100
AcDbEntity
  8
CAXA4
  6
Continuous
 62
     2
440
 16777216
370
     0
100
AcDbMText
 10
4554.419321752713
 20
639.8660288901536
 30
0.0
 40
12.5
 41
0.0
 46
0.0
 71
     5
 72
     1
  1
\A1;13
 73
     1
 44
1.0
  0
POINT
  5
2BCE
330
2B09
100
AcDbEntity
  8
Defpoints
  6
Continuous
 62
     0
440
 16777216
100
AcDbPoint
 10
4528.426600710135
 20
597.789108608478
 30
0.0
  0
POINT
  5
2BCF
330
2B09
100
AcDbEntity
  8
Defpoints
  6
Continuous
 62
     0
440
 16777216
100
AcDbPoint
 10
4580.412042795293
 20
597.789108608478
 30
0.0
  0
POINT
  5
2BD0
330
2B09
100
AcDbEntity
  8
Defpoints
  6
Continuous
 62
     0
440
 16777216
100
AcDbPoint
 10
4580.412042795293
 20
632.919600318725
 30
0.0
  0
ENDBLK
  5
2B14
330
2B09
100
AcDbEntity
  8
0
100
AcDbBlockEnd
  0
BLOCK
  5
2B1F
330
2B15
100
AcDbEntity
  8
0
100
AcDbBlockBegin
  2
*D38
 70
     1
 10
0.0
 20
0.0
 30
0.0
  3
*D38
  1

  0
LINE
  5
2BD1
330
2B15
100
AcDbEntity
  8
CAXA4
  6
Continuous
 62
     0
440
 16777216
370
    -2
100
AcDbLine
 10
4575.126560980109
 20
625.3667966130203
 30
0.0
 11
4618.219135532291
 21
625.3667966130203
 31
0.0
  0
LINE
  5
2BD2
330
2B15
100
AcDbEntity
  8
CAXA4
  6
Continuous
 62
     0
440
 16777216
370
    -2
100
AcDbLine
 10
4605.290294984639
 20
580.2746599861773
 30
0.0
 11
4618.219135532291
 21
580.2746599861773
 31
0.0
  0
LINE
  5
2BD3
330
2B15
100
AcDbEntity
  8
CAXA4
  6
Continuous
 62
     0
440
 16777216
370
    -2
100
AcDbLine
 10
4616.719135532291
 20
610.3667966130204
 30
0.0
 11
4616.719135532291
 21
595.2746599861773
 31
0.0
  0
INSERT
  5
2BD4
330
2B15
100
AcDbEntity
  8
CAXA4
  6
Continuous
 62
     0
440
 16777216
370
    -2
100
AcDbBlockReference
  2
_ARROW_FILLED
 10
4616.719135532291
 20
625.3667966130203
 30
0.0
 41
15.0
 42
15.0
 43
15.0
 50
90.0
  0
INSERT
  5
2BD5
330
2B15
100
AcDbEntity
  8
CAXA4
  6
Continuous
 62
     0
440
 16777216
370
    -2
100
AcDbBlockReference
  2
_ARROW_FILLED
 10
4616.719135532291
 20
580.2746599861773
 30
0.0
 41
15.0
 42
15.0
 43
15.0
 50
270.0
  0
MTEXT
  5
2BD6
330
2B15
100
AcDbEntity
  8
CAXA4
  6
Continuous
 62
     2
440
 16777216
370
     0
100
AcDbMText
 10
4609.736992675149
 20
602.8207282995996
 30
0.0
 40
12.5
 41
0.0
 46
0.0
 71
     5
 72
     1
  1
\A1;11.5
 11
0.0000000000000001
 21
1.0
 31
0.0
 73
     1
 44
1.0
  0
POINT
  5
2BD7
330
2B15
100
AcDbEntity
  8
Defpoints
  6
Continuous
 62
     0
440
 16777216
100
AcDbPoint
 10
4574.12656098011
 20
625.3667966130203
 30
0.0
  0
POINT
  5
2BD8
330
2B15
100
AcDbEntity
  8
Defpoints
  6
Continuous
 62
     0
440
 16777216
100
AcDbPoint
 10
4604.290294984639
 20
580.2746599861773
 30
0.0
  0
POINT
  5
2BD9
330
2B15
100
AcDbEntity
  8
Defpoints
  6
Continuous
 62
     0
440
 16777216
100
AcDbPoint
 10
4616.719135532291
 20
580.2746599861773
 30
0.0
  0
ENDBLK
  5
2B20
330
2B15
100
AcDbEntity
  8
0
100
AcDbBlockEnd
  0
ENDSEC
  0
SECTION
  2
ENTITIES
  0
DIMENSION
  5
1C03
330
1F
100
AcDbEntity
  8
0
  6
Continuous
 62
     2
100
AcDbDimension
280
     0
  2
*D26
 10
2424.215333739653
 20
865.2011833031272
 30
0.0
 11
2552.488205773757
 21
865.2011833031272
 31
0.0
 70
   160
  1
150
 71
     5
 42
256.5457440683758
 73
     0
 74
     0
 75
     0
  3
DIMSTYLE_1
100
AcDbAlignedDimension
 13
2680.761077808029
 23
837.1235460058791
 33
0.0
 14
2424.215333739653
 24
849.5484829428232
 34
0.0
 50
180.0
100
AcDbRotatedDimension
  0
DIMENSION
  5
1C04
330
1F
100
AcDbEntity
  8
0
  6
Continuous
 62
     2
100
AcDbDimension
280
     0
  2
*D27
 10
2703.935333739654
 20
902.0272003063432
 30
0.0
 11
2543.075333739653
 21
902.0272003063432
 31
0.0
 70
   160
  1
192
 71
     5
 42
321.7199999999998
 73
     0
 74
     0
 75
     0
  3
DIMSTYLE_2
100
AcDbAlignedDimension
 13
2382.215333739654
 23
846.6556541140311
 33
0.0
 14
2703.935333739654
 24
833.9739243843832
 34
0.0
100
AcDbRotatedDimension
  0
DIMENSION
  5
1C05
330
1F
100
AcDbEntity
  8
0
  6
Continuous
 62
     2
100
AcDbDimension
280
     0
  2
*D28
 10
2744.148703052021
 20
304.7053117716712
 30
0.0
 11
2744.148703052021
 21
507.5653117716711
 31
0.0
 70
   160
  1
225
 71
     5
 42
405.7199999999999
 73
     0
 74
     0
 75
     0
  3
DIMSTYLE_2
100
AcDbAlignedDimension
 13
2714.869459865765
 23
710.4253117716711
 33
0.0
 14
2693.138432838797
 24
304.7053117716712
 34
0.0
 50
270.0
100
AcDbRotatedDimension
  0
DIMENSION
  5
1C06
330
1F
100
AcDbEntity
  8
0
  6
Continuous
 62
     2
100
AcDbDimension
280
     0
  2
*D29
 10
2808.157512826973
 20
304.7053117716712
 30
0.0
 11
2808.157512826973
 21
574.0093117716712
 31
0.0
 70
   160
  1
305
 71
     5
 42
538.6079999999999
 73
     0
 74
     0
 75
     0
  3
DIMSTYLE_2
100
AcDbAlignedDimension
 13
2761.296486892734
 23
843.3133117716712
 33
0.0
 14
2768.057351757726
 24
304.7053117716712
 34
0.0
 50
270.0
100
AcDbRotatedDimension
  0
DIMENSION
  5
1C07
330
1F
100
AcDbEntity
  8
0
  6
Continuous
 62
     2
100
AcDbDimension
280
     0
  2
*D30
 10
2459.495333739653
 20
320.6113926229191
 30
0.0
 11
2424.215333739653
 21
320.6113926229191
 31
0.0
 70
   160
  1
{\fSimSun|b0|i0|c134|p2;%%C42}
 71
     5
 42
70.55999999999994
 73
     0
 74
     0
 75
     0
  3
DIMSTYLE_1
100
AcDbAlignedDimension
 13
2388.935333739653
 23
313.1053117716712
 33
0.0
 14
2459.495333739653
 24
313.1053117716712
 34
0.0
100
AcDbRotatedDimension
1001
ACAD
1000
DSTYLE
1002
{
1070
   340
1005
220
1002
}
  0
DIMENSION
  5
1C08
330
1F
100
AcDbEntity
  8
0
  6
Continuous
 62
     2
100
AcDbDimension
280
     0
  2
*D31
 10
2382.215333739654
 20
271.1214308251672
 30
0.0
 11
2424.215333739653
 21
271.1214308251672
 31
0.0
 70
   160
  1
{\fSimSun|b0|i0|c134|p2;%%C50}
 71
     5
 42
84.0
 73
     0
 74
     0
 75
     0
  3
DIMSTYLE_1
100
AcDbAlignedDimension
 13
2466.215333739654
 23
291.3011315914551
 33
0.0
 14
2382.215333739654
 24
283.2098883482391
 34
0.0
 50
180.0
100
AcDbRotatedDimension
1001
ACAD
1000
DSTYLE
1002
{
1070
   340
1005
220
1002
}
  0
DIMENSION
  5
1C09
330
1F
100
AcDbEntity
  8
0
  6
Continuous
 62
     2
100
AcDbDimension
280
     0
  2
*D32
 10
2358.260013568157
 20
247.5853117716712
 30
0.0
 11
2358.260013568157
 21
205.1745974859573
 31
0.0
 70
   160
  1
MAX=35
 71
     5
 42
57.11999999999997
 73
     0
 74
     0
 75
     0
  3
DIMSTYLE_1
100
AcDbAlignedDimension
 13
2378.850288694613
 23
304.7053117716712
 33
0.0
 14
2392.68821396367
 24
247.5853117716712
 34
0.0
 50
270.0
100
AcDbRotatedDimension
  0
DIMENSION
  5
1C0A
330
1F
100
AcDbEntity
  8
0
  6
Continuous
 62
     2
100
AcDbDimension
280
     0
  2
*D33
 10
2409.263333739654
 20
195.0649469759752
 30
0.0
 11
2448.424048025368
 21
195.0649469759752
 31
0.0
 70
   160
  1
M8
 71
     5
 42
10.41600000000062
 73
     0
 74
     0
 75
     0
  3
DIMSTYLE_1
100
AcDbAlignedDimension
 13
2398.847333739653
 23
204.7402667266312
 33
0.0
 14
2409.263333739654
 24
204.7402667266312
 34
0.0
100
AcDbRotatedDimension
  0
LINE
  5
1C0B
330
1F
100
AcDbEntity
  8
0
  6
Continuous
 62
     7
100
AcDbLine
 10
2392.41595231275
 20
214.8253117716712
 30
0.0
 11
2393.870874991133
 21
213.9853117716712
 31
0.0
  0
LINE
  5
1C0C
330
1F
100
AcDbEntity
  8
0
  6
Continuous
 62
     7
100
AcDbLine
 10
2399.687333739653
 20
207.2653117716712
 30
0.0
 11
2403.215333739654
 21
207.2653117716712
 31
0.0
  0
LINE
  5
1C0D
330
1F
100
AcDbEntity
  8
0
  6
Continuous
 62
     7
100
AcDbLine
 10
2404.895333739653
 20
207.2653117716712
 30
0.0
 11
2408.423333739654
 21
207.2653117716712
 31
0.0
  0
LINE
  5
1C0E
330
1F
100
AcDbEntity
  8
0
  6
Continuous
 62
     7
100
AcDbLine
 10
2398.847333739653
 20
208.1053117716712
 30
0.0
 11
2403.215333739654
 21
208.1053117716712
 31
0.0
  0
LINE
  5
1C0F
330
1F
100
AcDbEntity
  8
0
  6
Continuous
 62
     7
100
AcDbLine
 10
2404.895333739653
 20
208.1053117716712
 30
0.0
 11
2409.263333739654
 21
208.1053117716712
 31
0.0
  0
LINE
  5
1C10
330
1F
100
AcDbEntity
  8
0
  6
Continuous
 62
     7
100
AcDbLine
 10
2403.215333739654
 20
208.9453117716712
 30
0.0
 11
2404.895333739653
 21
208.9453117716712
 31
0.0
  0
LINE
  5
1C11
330
1F
100
AcDbEntity
  8
0
  6
Continuous
 62
     7
100
AcDbLine
 10
2414.239663744061
 20
213.9853117716712
 30
0.0
 11
2393.871003735245
 21
213.9853117716712
 31
0.0
  0
LINE
  5
1C12
330
1F
100
AcDbEntity
  8
0
  6
Continuous
 62
     7
100
AcDbLine
 10
2399.687333739653
 20
207.2653117716712
 30
0.0
 11
2398.847333739653
 21
208.1053117716712
 31
0.0
  0
LINE
  5
1C13
330
1F
100
AcDbEntity
  8
02___PRT_ALL_AXES
  6
Continuous
 62
     7
100
AcDbLine
 10
2414.239792488173
 20
247.5853117716712
 30
0.0
 11
2415.694715166557
 21
246.7453117716712
 31
0.0
  0
LINE
  5
1C14
330
1F
100
AcDbEntity
  8
02___PRT_ALL_AXES
  6
Continuous
 62
     7
100
AcDbLine
 10
2393.871003735245
 20
247.5853117716712
 30
0.0
 11
2414.239663744061
 21
247.5853117716712
 31
0.0
  0
LINE
  5
1C15
330
1F
100
AcDbEntity
  8
0
  6
Continuous
 62
     7
100
AcDbLine
 10
2446.055333739654
 20
297.9853117716711
 30
0.0
 11
2382.215333739654
 21
297.9853117716711
 31
0.0
  0
LINE
  5
1C16
330
1F
100
AcDbEntity
  8
0
  6
Continuous
 62
     7
100
AcDbLine
 10
2449.415333739653
 20
301.3453117716712
 30
0.0
 11
2382.215333739654
 21
301.3453117716712
 31
0.0
  0
LINE
  5
1C17
330
1F
100
AcDbEntity
  8
02___PRT_ALL_AXES
  6
Continuous
 62
     7
100
AcDbLine
 10
2449.415333739653
 20
303.8653117716711
 30
0.0
 11
2461.175333739654
 21
303.8653117716711
 31
0.0
  0
LINE
  5
1C18
330
1F
100
AcDbEntity
  8
02___PRT_ALL_AXES
  6
Continuous
 62
     7
100
AcDbLine
 10
2466.215333739654
 20
304.7053117716712
 30
0.0
 11
2382.215333739654
 21
304.7053117716712
 31
0.0
  0
LINE
  5
1C19
330
1F
100
AcDbEntity
  8
0
  6
Continuous
 62
     7
100
AcDbLine
 10
2382.215333739654
 20
304.7053117716712
 30
0.0
 11
2448.607057943213
 21
304.7053117716712
 31
0.0
  0
LINE
  5
1C1A
330
1F
100
AcDbEntity
  8
0
  6
Continuous
 62
     9
100
AcDbLine
 10
2382.215333739654
 20
312.2653117716712
 30
0.0
 11
2466.215333739654
 21
312.2653117716712
 31
0.0
  0
LINE
  5
1C1B
330
1F
100
AcDbEntity
  8
0
  6
Continuous
 62
     7
100
AcDbLine
 10
2383.055333739653
 20
313.1053117716712
 30
0.0
 11
2465.375333739654
 21
313.1053117716712
 31
0.0
  0
LINE
  5
1C1C
330
1F
100
AcDbEntity
  8
02___PRT_ALL_AXES
  6
Continuous
 62
     7
100
AcDbLine
 10
2382.215333739654
 20
304.7053117716712
 30
0.0
 11
2382.215333739654
 21
297.9853117716711
 31
0.0
  0
LINE
  5
1C1D
330
1F
100
AcDbEntity
  8
0
  6
Continuous
 62
     7
100
AcDbLine
 10
2382.215333739654
 20
304.7053117716712
 30
0.0
 11
2382.215333739654
 21
312.2653117716712
 31
0.0
  0
LINE
  5
1C1E
330
1F
100
AcDbEntity
  8
0
  6
Continuous
 62
     9
100
AcDbLine
 10
2386.535651389469
 20
811.9333117717912
 30
0.0
 11
2386.535651389469
 21
825.9733117717191
 31
0.0
  0
LINE
  5
1C1F
330
1F
100
AcDbEntity
  8
0
  6
Continuous
 62
     9
100
AcDbLine
 10
2387.320253199293
 20
811.3933117716712
 30
0.0
 11
2387.320253199293
 21
826.5133117716713
 31
0.0
  0
LINE
  5
1C20
330
1F
100
AcDbEntity
  8
02___PRT_ALL_AXES
  6
Continuous
 62
     7
100
AcDbLine
 10
2388.095333739653
 20
841.6333117716712
 30
0.0
 11
2388.095333739653
 21
826.5133117716713
 31
0.0
  0
LINE
  5
1C21
330
1F
100
AcDbEntity
  8
0
  6
Continuous
 62
     7
100
AcDbLine
 10
2388.095333739653
 20
826.5133117716713
 30
0.0
 11
2388.095333739653
 21
811.3933117716712
 31
0.0
  0
LINE
  5
1C22
330
1F
100
AcDbEntity
  8
02___PRT_ALL_AXES
  6
Continuous
 62
     7
100
AcDbLine
 10
2388.095333739653
 20
811.3933117716712
 30
0.0
 11
2388.095333739653
 21
808.9949718851272
 31
0.0
  0
LINE
  5
1C23
330
1F
100
AcDbEntity
  8
AXIS
  6
Continuous
 62
     7
100
AcDbLine
 10
2388.935333739653
 20
313.1053117716712
 30
0.0
 11
2388.935333739653
 21
788.5453117716711
 31
0.0
  0
LINE
  5
1C24
330
1F
100
AcDbEntity
  8
02___PRT_ALL_AXES
  6
Continuous
 62
     7
100
AcDbLine
 10
2392.41595231275
 20
246.7453117716712
 30
0.0
 11
2392.41595231275
 21
214.8253117716712
 31
0.0
  0
LINE
  5
1C25
330
1F
100
AcDbEntity
  8
02___PRT_ALL_AXES
  6
Continuous
 62
     7
100
AcDbLine
 10
2398.235643026118
 20
246.7453117716712
 30
0.0
 11
2398.235643026118
 21
214.8253117716712
 31
0.0
  0
LINE
  5
1C26
330
1F
100
AcDbEntity
  8
0
  6
Continuous
 62
     7
100
AcDbLine
 10
2398.847333739653
 20
208.1053117716712
 30
0.0
 11
2398.847333739653
 21
213.9853117716712
 31
0.0
  0
LINE
  5
1C27
330
1F
100
AcDbEntity
  8
0
  6
Continuous
 62
     7
100
AcDbLine
 10
2398.847333739653
 20
247.5853117716712
 30
0.0
 11
2398.847333739653
 21
297.9853117716711
 31
0.0
  0
LINE
  5
1C28
330
1F
100
AcDbEntity
  8
0
  6
Continuous
 62
     7
100
AcDbLine
 10
2403.215333739654
 20
207.2653117716712
 30
0.0
 11
2403.215333739654
 21
208.9453117716712
 31
0.0
  0
LINE
  5
1C29
330
1F
100
AcDbEntity
  8
0
  6
Continuous
 62
     7
100
AcDbLine
 10
2404.895333739653
 20
207.2653117716712
 30
0.0
 11
2404.895333739653
 21
208.9453117716712
 31
0.0
  0
LINE
  5
1C2A
330
1F
100
AcDbEntity
  8
0
  6
Continuous
 62
     7
100
AcDbLine
 10
2409.263333739654
 20
208.1053117716712
 30
0.0
 11
2409.263333739654
 21
213.9853117716712
 31
0.0
  0
LINE
  5
1C2B
330
1F
100
AcDbEntity
  8
0
  6
Continuous
 62
     7
100
AcDbLine
 10
2409.263333739654
 20
247.5853117716712
 30
0.0
 11
2409.263333739654
 21
297.9853117716711
 31
0.0
  0
LINE
  5
1C2C
330
1F
100
AcDbEntity
  8
02___PRT_ALL_AXES
  6
Continuous
 62
     7
100
AcDbLine
 10
2409.875024453021
 20
246.7453117716712
 30
0.0
 11
2409.875024453021
 21
214.8253117716712
 31
0.0
  0
LINE
  5
1C2D
330
1F
100
AcDbEntity
  8
02___PRT_ALL_AXES
  6
Continuous
 62
     7
100
AcDbLine
 10
2415.694715166557
 20
246.7453117716712
 30
0.0
 11
2415.694715166557
 21
214.8253117716712
 31
0.0
  0
LINE
  5
1C2E
330
1F
100
AcDbEntity
  8
AXIS
  6
CENTER
 62
     7
100
AcDbLine
 10
2424.215333739653
 20
793.5903568167112
 30
0.0
 11
2424.215333739653
 21
340.2702265430152
 31
0.0
  0
LINE
  5
1C2F
330
1F
100
AcDbEntity
  8
0
  6
Continuous
 62
     9
100
AcDbLine
 10
2444.302290261342
 20
297.9853117716711
 30
0.0
 11
2444.302290261342
 21
301.3453117716712
 31
0.0
  0
LINE
  5
1C30
330
1F
100
AcDbEntity
  8
0
  6
Continuous
 62
     7
100
AcDbLine
 10
2446.055333739654
 20
297.9853117716711
 30
0.0
 11
2446.055333739654
 21
301.3453117716712
 31
0.0
  0
LINE
  5
1C31
330
1F
100
AcDbEntity
  8
0
  6
Continuous
 62
     9
100
AcDbLine
 10
2448.342993314021
 20
301.3453117716712
 30
0.0
 11
2448.342993314021
 21
304.7053117716712
 31
0.0
  0
LINE
  5
1C32
330
1F
100
AcDbEntity
  8
0
  6
Continuous
 62
     7
100
AcDbLine
 10
2449.415333739653
 20
301.3453117716712
 30
0.0
 11
2449.415333739653
 21
304.7053117716712
 31
0.0
  0
LINE
  5
1C33
330
1F
100
AcDbEntity
  8
0
  6
Continuous
 62
     9
100
AcDbLine
 10
2453.71733784807
 20
693.6253117716712
 30
0.0
 11
2453.71733784807
 21
755.7853117716712
 31
0.0
  0
LINE
  5
1C34
330
1F
100
AcDbEntity
  8
0
  6
Continuous
 62
     9
100
AcDbLine
 10
2457.611692822565
 20
841.6333117716712
 30
0.0
 11
2457.611692822565
 21
801.3133117716712
 31
0.0
  0
LINE
  5
1C35
330
1F
100
AcDbEntity
  8
AXIS
  6
Continuous
 62
     7
100
AcDbLine
 10
2459.495333739653
 20
313.1053117716712
 30
0.0
 11
2459.495333739653
 21
693.6253117716712
 31
0.0
  0
LINE
  5
1C36
330
1F
100
AcDbEntity
  8
AXIS
  6
Continuous
 62
     7
100
AcDbLine
 10
2459.495333739653
 20
755.7853117716712
 30
0.0
 11
2459.495333739653
 21
788.5453117716711
 31
0.0
  0
LINE
  5
1C37
330
1F
100
AcDbEntity
  8
02___PRT_ALL_AXES
  6
Continuous
 62
     7
100
AcDbLine
 10
2460.335333739653
 20
801.3133117716712
 30
0.0
 11
2460.335333739653
 21
792.9133117716713
 31
0.0
  0
LINE
  5
1C38
330
1F
100
AcDbEntity
  8
02___PRT_ALL_AXES
  6
Continuous
 62
     7
100
AcDbLine
 10
2461.175333739654
 20
303.8653117716711
 30
0.0
 11
2461.175333739654
 21
304.7053117716712
 31
0.0
  0
LINE
  5
1C39
330
1F
100
AcDbEntity
  8
0
  6
Continuous
 62
     7
100
AcDbLine
 10
2466.215333739654
 20
304.7053117716712
 30
0.0
 11
2466.215333739654
 21
312.2653117716712
 31
0.0
  0
LINE
  5
1C3A
330
1F
100
AcDbEntity
  8
0
  6
Continuous
 62
     9
100
AcDbLine
 10
2467.765911232901
 20
752.4253117716711
 30
0.0
 11
2467.765911232901
 21
750.7453117716712
 31
0.0
  0
LINE
  5
1C3B
330
1F
100
AcDbEntity
  8
0
  6
Continuous
 62
     9
100
AcDbLine
 10
2467.766866997837
 20
710.5688998050712
 30
0.0
 11
2467.765911232901
 21
750.7453117716712
 31
0.0
  0
LINE
  5
1C3C
330
1F
100
AcDbEntity
  8
0
  6
Continuous
 62
     9
100
AcDbLine
 10
2473.144883093765
 20
843.3133117716712
 30
0.0
 11
2473.144883093765
 21
841.6333117716712
 31
0.0
  0
LINE
  5
1C3D
330
1F
100
AcDbEntity
  8
0
  6
Continuous
 62
     9
100
AcDbLine
 10
2473.145524399493
 20
819.3638020095352
 30
0.0
 11
2473.144883093765
 21
841.6333117716712
 31
0.0
  0
LINE
  5
1C3E
330
1F
100
AcDbEntity
  8
0
  6
Continuous
 62
     9
100
AcDbLine
 10
2475.310538994174
 20
710.4253117716711
 30
0.0
 11
2475.310538994174
 21
712.1053117713351
 31
0.0
  0
LINE
  5
1C3F
330
1F
100
AcDbEntity
  8
0
  6
Continuous
 62
     9
100
AcDbLine
 10
2477.108660350925
 20
818.1133117716711
 30
0.0
 11
2477.108660350925
 21
819.7933117716711
 31
0.0
  0
LINE
  5
1C40
330
1F
100
AcDbEntity
  8
0
  6
Continuous
 62
     9
100
AcDbLine
 10
2468.419444234925
 20
709.0281045519831
 30
0.0
 11
2467.765911237437
 21
710.5685679914633
 31
0.0
  0
LINE
  5
1C41
330
1F
100
AcDbEntity
  8
0
  6
Continuous
 62
     9
100
AcDbLine
 10
2473.504827711749
 20
817.7226982762311
 30
0.0
 11
2473.144883095613
 21
819.363685325975
 31
0.0
  0
LINE
  5
1C42
330
1F
100
AcDbEntity
  8
0
  6
Continuous
 62
     9
100
AcDbLine
 10
2560.295333739654
 20
818.1133117716711
 30
0.0
 11
2560.295333739654
 21
843.3133117716712
 31
0.0
  0
LINE
  5
1C43
330
1F
100
AcDbEntity
  8
0
  6
Continuous
 62
     7
100
AcDbLine
 10
2561.975333739653
 20
841.6333117716712
 30
0.0
 11
2561.975333739653
 21
819.7933117716711
 31
0.0
  0
LINE
  5
1C44
330
1F
100
AcDbEntity
  8
02___PRT_ALL_AXES
  6
CENTER
 62
     7
100
AcDbLine
 10
2680.761077808029
 20
699.9857022221272
 30
0.0
 11
2680.761077808029
 21
762.4552373571831
 31
0.0
  0
LINE
  5
1C45
330
1F
100
AcDbEntity
  8
0
  6
Continuous
 62
     7
100
AcDbLine
 10
2408.423333739654
 20
207.2653117716712
 30
0.0
 11
2409.263333739654
 21
208.1053117716712
 31
0.0
  0
LINE
  5
1C46
330
1F
100
AcDbEntity
  8
0
  6
Continuous
 62
     9
100
AcDbLine
 10
2692.175333739653
 20
710.4253117716711
 30
0.0
 11
2692.175333739653
 21
752.4253117716711
 31
0.0
  0
LINE
  5
1C47
330
1F
100
AcDbEntity
  8
0
  6
Continuous
 62
     7
100
AcDbLine
 10
2703.935333739654
 20
750.7453117716712
 30
0.0
 11
2703.935333739654
 21
712.1053117716711
 31
0.0
  0
LINE
  5
1C48
330
1F
100
AcDbEntity
  8
02___PRT_ALL_AXES
  6
Continuous
 62
     7
100
AcDbLine
 10
2393.870874991133
 20
247.5853117716712
 30
0.0
 11
2392.41595231275
 21
246.7453117716712
 31
0.0
  0
LINE
  5
1C49
330
1F
100
AcDbEntity
  8
0
  6
Continuous
 62
     9
100
AcDbLine
 10
2459.495333739653
 20
693.6253117716712
 30
0.0
 11
2453.71733784807
 21
693.6253117716712
 31
0.0
  0
LINE
  5
1C4A
330
1F
100
AcDbEntity
  8
0
  6
Continuous
 62
     7
100
AcDbLine
 10
2702.255333739654
 20
710.4253117716711
 30
0.0
 11
2475.311158376069
 21
710.4253117716711
 31
0.0
  0
LINE
  5
1C4B
330
1F
100
AcDbEntity
  8
0
  6
Continuous
 62
     9
100
AcDbLine
 10
2703.935333739654
 20
712.1053117716711
 30
0.0
 11
2475.310538994174
 21
712.1053117716711
 31
0.0
  0
LINE
  5
1C4C
330
1F
100
AcDbEntity
  8
0
  6
Continuous
 62
     7
100
AcDbLine
 10
2415.694715166557
 20
214.8253117716712
 30
0.0
 11
2414.239792488173
 21
213.9853117716712
 31
0.0
  0
LINE
  5
1C4D
330
1F
100
AcDbEntity
  8
CURVE
  6
Continuous
 62
     2
100
AcDbLine
 10
2387.298085770149
 20
739.8253117716712
 30
0.0
 11
2388.935333739653
 21
739.8253117716712
 31
0.0
  0
LINE
  5
1C4E
330
1F
100
AcDbEntity
  8
0
  6
Continuous
 62
     7
100
AcDbLine
 10
2424.215333739653
 20
792.9133117716713
 30
0.0
 11
2388.095333741501
 21
808.9949718842872
 31
0.0
  0
LINE
  5
1C4F
330
1F
100
AcDbEntity
  8
0
  6
Continuous
 62
     9
100
AcDbLine
 10
2461.766502433349
 20
750.7453117716712
 30
0.0
 11
2703.935333739654
 21
750.7453117716712
 31
0.0
  0
LINE
  5
1C50
330
1F
100
AcDbEntity
  8
0
  6
Continuous
 62
     7
100
AcDbLine
 10
2461.164817736981
 20
752.4253117716711
 30
0.0
 11
2702.255333739654
 21
752.4253117716711
 31
0.0
  0
LINE
  5
1C51
330
1F
100
AcDbEntity
  8
0
  6
Continuous
 62
     9
100
AcDbLine
 10
2453.71733784807
 20
755.7853643501272
 30
0.0
 11
2459.495333739653
 21
755.7853117716712
 31
0.0
  0
LINE
  5
1C52
330
1F
100
AcDbEntity
  8
AXIS
  6
Continuous
 62
     7
100
AcDbLine
 10
2388.935333739653
 20
788.5453117716711
 30
0.0
 11
2459.495333739653
 21
788.5453117716711
 31
0.0
  0
LINE
  5
1C53
330
1F
100
AcDbEntity
  8
0
  6
Continuous
 62
     7
100
AcDbLine
 10
2460.335333739653
 20
792.9133117716713
 30
0.0
 11
2424.215333739653
 21
792.9133117716713
 31
0.0
  0
LINE
  5
1C54
330
1F
100
AcDbEntity
  8
0
  6
Continuous
 62
     9
100
AcDbLine
 10
2457.611692822565
 20
801.3133117716712
 30
0.0
 11
2460.335333739653
 21
801.3133117716712
 31
0.0
  0
LINE
  5
1C55
330
1F
100
AcDbEntity
  8
0
  6
Continuous
 62
     7
100
AcDbLine
 10
2388.095333739653
 20
811.3933117716712
 30
0.0
 11
2387.320253199293
 21
811.3933117716712
 31
0.0
  0
LINE
  5
1C56
330
1F
100
AcDbEntity
  8
0
  6
Continuous
 62
     9
100
AcDbLine
 10
2388.095333739653
 20
816.5444882422791
 30
0.0
 11
2388.616807438302
 21
816.5444882422791
 31
0.0
  0
LINE
  5
1C57
330
1F
100
AcDbEntity
  8
0
  6
Continuous
 62
     7
100
AcDbLine
 10
2388.095333739653
 20
817.6933117716712
 30
0.0
 11
2388.681327685253
 21
817.6933117716712
 31
0.0
  0
LINE
  5
1C58
330
1F
100
AcDbEntity
  8
0
  6
Continuous
 62
     7
100
AcDbLine
 10
2560.295333739654
 20
818.1133117716711
 30
0.0
 11
2477.108743009782
 21
818.1133117716711
 31
0.0
  0
LINE
  5
1C59
330
1F
100
AcDbEntity
  8
0
  6
Continuous
 62
     9
100
AcDbLine
 10
2477.108660350925
 20
819.7933117716711
 30
0.0
 11
2561.975333739653
 21
819.7933117716711
 31
0.0
  0
LINE
  5
1C5A
330
1F
100
AcDbEntity
  8
0
  6
Continuous
 62
     7
100
AcDbLine
 10
2388.681288385853
 20
820.2133117716712
 30
0.0
 11
2388.095333739653
 21
820.2133117716712
 31
0.0
  0
LINE
  5
1C5B
330
1F
100
AcDbEntity
  8
0
  6
Continuous
 62
     9
100
AcDbLine
 10
2388.616785200813
 20
821.3621353010633
 30
0.0
 11
2388.095333739653
 21
821.3621353010633
 31
0.0
  0
LINE
  5
1C5C
330
1F
100
AcDbEntity
  8
0
  6
Continuous
 62
     7
100
AcDbLine
 10
2388.095333739653
 20
826.5133117716713
 30
0.0
 11
2387.320253199293
 21
826.5133117716713
 31
0.0
  0
LINE
  5
1C5D
330
1F
100
AcDbEntity
  8
0
  6
Continuous
 62
     9
100
AcDbLine
 10
2388.095333739653
 20
841.6333117716712
 30
0.0
 11
2561.975333739653
 21
841.6333117716712
 31
0.0
  0
LINE
  5
1C5E
330
1F
100
AcDbEntity
  8
0
  6
Continuous
 62
     7
100
AcDbLine
 10
2389.775333739653
 20
843.3133117716712
 30
0.0
 11
2560.295333739654
 21
843.3133117716712
 31
0.0
  0
ARC
  5
1C5F
330
1F
100
AcDbEntity
  8
AXIS
  6
Continuous
 62
     7
100
AcDbCircle
 10
2442.227311065317
 20
786.3456801216232
 30
0.0
 40
50.4
100
AcDbArc
 50
157.5100267832042
 51
177.4457175727
  0
ARC
  5
1C60
330
1F
100
AcDbEntity
  8
AXIS
  6
Continuous
 62
     7
100
AcDbCircle
 10
2406.203356413989
 20
786.3456801216232
 30
0.0
 40
50.4
100
AcDbArc
 50
2.554282427299942
 51
7.490277652299636
  0
ARC
  5
1C61
330
1F
100
AcDbEntity
  8
0
  6
Continuous
 62
     7
100
AcDbCircle
 10
2354.748978373637
 20
818.9532873815991
 30
0.0
 40
33.95851286772
100
AcDbArc
 50
357.8683812518005
 51
2.131772686899528
  0
ARC
  5
1C62
330
1F
100
AcDbEntity
  8
0
  6
Continuous
 62
     7
100
AcDbCircle
 10
2404.895333739653
 20
818.9533117716711
 30
0.0
 40
19.656
100
AcDbArc
 50
159.0751675724043
 51
200.9248324275956
  0
ARC
  5
1C63
330
1F
100
AcDbEntity
  8
0
  6
Continuous
 62
     9
100
AcDbCircle
 10
2475.315151428965
 20
692.7950162269913
 30
0.0
 40
19.310296095552
100
AcDbArc
 50
90.01368560340887
 51
113.010156021498
  0
ARC
  5
1C64
330
1F
100
AcDbEntity
  8
0
  6
Continuous
 62
     9
100
AcDbCircle
 10
2477.114499148254
 20
801.2405261278312
 30
0.0
 40
18.552786562632
100
AcDbArc
 50
90.01803170910028
 51
102.3526879990033
  0
ARC
  5
1C65
330
1F
100
AcDbEntity
  8
0
  6
Continuous
 62
     7
100
AcDbCircle
 10
2477.111296555014
 20
801.2609134145272
 30
0.0
 40
16.852398550512
100
AcDbArc
 50
90.0086816578954
 51
99.68704288039168
  0
ARC
  5
1C66
330
1F
100
AcDbEntity
  8
0
  6
Continuous
 62
     7
100
AcDbCircle
 10
2477.110565849429
 20
801.280531426199
 30
0.0
 40
16.832937505944
100
AcDbArc
 50
99.69582726709314
 51
100.1254012292035
  0
ARC
  5
1C67
330
1F
100
AcDbEntity
  8
0
  6
Continuous
 62
     7
100
AcDbCircle
 10
2477.10970905195
 20
801.2851133965432
 30
0.0
 40
16.828276270344
100
AcDbArc
 50
100.1252720937004
 51
102.3695531399984
  0
ARC
  5
1C68
330
1F
100
AcDbEntity
  8
0
  6
Continuous
 62
     7
100
AcDbCircle
 10
2477.135333739653
 20
801.3133117716712
 30
0.0
 40
16.8
100
AcDbArc
 50
90.09045639039687
 51
180.0
  0
ARC
  5
1C69
330
1F
100
AcDbEntity
  8
0
  6
Continuous
 62
     7
100
AcDbCircle
 10
2476.295333739654
 20
693.6253117716712
 30
0.0
 40
16.8
100
AcDbArc
 50
93.3424017273011
 51
180.0
  0
ARC
  5
1C6A
330
1F
100
AcDbEntity
  8
0
  6
Continuous
 62
     7
100
AcDbCircle
 10
2462.855333739654
 20
755.7853117716712
 30
0.0
 40
3.359999999999999
100
AcDbArc
 50
180.0
 51
270.0
  0
ARC
  5
1C6B
330
1F
100
AcDbEntity
  8
0
  6
Continuous
 62
     7
100
AcDbCircle
 10
2389.775333739653
 20
841.6333117716712
 30
0.0
 40
1.679999999999999
100
AcDbArc
 50
90.0
 51
180.0
  0
ARC
  5
1C6C
330
1F
100
AcDbEntity
  8
0
  6
Continuous
 62
     7
100
AcDbCircle
 10
2560.295333739654
 20
841.6333117716712
 30
0.0
 40
1.679999999999999
100
AcDbArc
 50
0.0
 51
90.0
  0
ARC
  5
1C6D
330
1F
100
AcDbEntity
  8
0
  6
Continuous
 62
     7
100
AcDbCircle
 10
2560.295333739654
 20
819.7933117716711
 30
0.0
 40
1.679999999999999
100
AcDbArc
 50
270.0
 51
0.0
  0
ARC
  5
1C6E
330
1F
100
AcDbEntity
  8
0
  6
Continuous
 62
     7
100
AcDbCircle
 10
2702.255333739654
 20
712.1053117716711
 30
0.0
 40
1.679999999999999
100
AcDbArc
 50
270.0
 51
0.0
  0
ARC
  5
1C6F
330
1F
100
AcDbEntity
  8
0
  6
Continuous
 62
     7
100
AcDbCircle
 10
2702.255333739654
 20
750.7453117716712
 30
0.0
 40
1.679999999999999
100
AcDbArc
 50
0.0
 51
90.0
  0
ARC
  5
1C70
330
1F
100
AcDbEntity
  8
0
  6
Continuous
 62
     7
100
AcDbCircle
 10
2387.320253199293
 20
812.2333117716712
 30
0.0
 40
0.84
100
AcDbArc
 50
200.9248324275956
 51
270.0
  0
ARC
  5
1C71
330
1F
100
AcDbEntity
  8
0
  6
Continuous
 62
     7
100
AcDbCircle
 10
2387.320253199293
 20
825.6733117716713
 30
0.0
 40
0.84
100
AcDbArc
 50
90.0
 51
159.0751675724043
  0
ARC
  5
1C72
330
1F
100
AcDbEntity
  8
0
  6
Continuous
 62
     7
100
AcDbCircle
 10
2383.055333739653
 20
312.2653117716712
 30
0.0
 40
0.84
100
AcDbArc
 50
90.0
 51
180.0
  0
ARC
  5
1C73
330
1F
100
AcDbEntity
  8
0
  6
Continuous
 62
     7
100
AcDbCircle
 10
2465.375333739654
 20
312.2653117716712
 30
0.0
 40
0.84
100
AcDbArc
 50
0.0
 51
90.0
  0
SPLINE
  5
1C74
330
1F
100
AcDbEntity
  8
02___PRT_ALL_AXES
  6
Continuous
 62
     7
100
AcDbSpline
210
0.0
220
0.0
230
1.0
 70
     8
 71
     3
 72
     9
 73
     5
 74
     0
 42
0.000000001
 43
0.0000000001
 40
0.0
 40
0.0
 40
0.0
 40
0.0
 40
0.4875211211
 40
1.0
 40
1.0
 40
1.0
 40
1.0
 10
2412.057408470595
 20
247.585311771671
 30
0.0
 10
2411.6809381573
 20
247.523210275487
 30
0.0
 10
2410.923549318773
 20
247.2995693550471
 30
0.0
 10
2410.222379576549
 20
246.945857345711
 30
0.0
 10
2409.875024453021
 20
246.7453117716711
 30
0.0
  0
SPLINE
  5
1C75
330
1F
100
AcDbEntity
  8
02___PRT_ALL_AXES
  6
Continuous
 62
     7
100
AcDbSpline
210
0.0
220
0.0
230
1.0
 70
     8
 71
     3
 72
     9
 73
     5
 74
     0
 42
0.000000001
 43
0.0000000001
 40
0.0
 40
0.0
 40
0.0
 40
0.0
 40
0.5000352169
 40
1.0
 40
1.0
 40
1.0
 40
1.0
 10
2409.875024453021
 20
246.7453117716711
 30
0.0
 10
2409.162341202075
 20
246.9510457051671
 30
0.0
 10
2407.72120776478
 20
247.3107362903511
 30
0.0
 10
2406.249426255988
 20
247.5243460710711
 30
0.0
 10
2405.510256418037
 20
247.585311771671
 30
0.0
  0
SPLINE
  5
1C76
330
1F
100
AcDbEntity
  8
0
  6
Continuous
 62
     7
100
AcDbSpline
210
0.0
220
0.0
230
1.0
 70
     8
 71
     3
 72
     9
 73
     5
 74
     0
 42
0.000000001
 43
0.0000000001
 40
0.0
 40
0.0
 40
0.0
 40
0.0
 40
0.5000352169
 40
1.0
 40
1.0
 40
1.0
 40
1.0
 10
2409.875024453021
 20
214.8253117716711
 30
0.0
 10
2409.162341202075
 20
214.6195778383431
 30
0.0
 10
2407.72120776478
 20
214.2598872531591
 30
0.0
 10
2406.249426255988
 20
214.0462774724391
 30
0.0
 10
2405.510256418037
 20
213.9853117716711
 30
0.0
  0
SPLINE
  5
1C77
330
1F
100
AcDbEntity
  8
0
  6
Continuous
 62
     7
100
AcDbSpline
210
0.0
220
0.0
230
1.0
 70
     8
 71
     3
 72
     9
 73
     5
 74
     0
 42
0.000000001
 43
0.0000000001
 40
0.0
 40
0.0
 40
0.0
 40
0.0
 40
0.4999652667000001
 40
1.0
 40
1.0
 40
1.0
 40
1.0
 10
2402.600411061269
 20
213.9853117716711
 30
0.0
 10
2401.861240505284
 20
214.0462775315751
 30
0.0
 10
2400.389458935006
 20
214.2598870374471
 30
0.0
 10
2398.948325590612
 20
214.6195780364151
 30
0.0
 10
2398.235643026117
 20
214.8253117716711
 30
0.0
  0
SPLINE
  5
1C78
330
1F
100
AcDbEntity
  8
02___PRT_ALL_AXES
  6
Continuous
 62
     7
100
AcDbSpline
210
0.0
220
0.0
230
1.0
 70
     8
 71
     3
 72
     9
 73
     5
 74
     0
 42
0.000000001
 43
0.0000000001
 40
0.0
 40
0.0
 40
0.0
 40
0.0
 40
0.4999652667000001
 40
1.0
 40
1.0
 40
1.0
 40
1.0
 10
2402.600411061269
 20
247.585311771671
 30
0.0
 10
2401.861240505284
 20
247.524346011767
 30
0.0
 10
2400.389458935006
 20
247.310736506063
 30
0.0
 10
2398.948325590612
 20
246.951045506927
 30
0.0
 10
2398.235643026117
 20
246.7453117716711
 30
0.0
  0
SPLINE
  5
1C79
330
1F
100
AcDbEntity
  8
02___PRT_ALL_AXES
  6
Continuous
 62
     7
100
AcDbSpline
210
0.0
220
0.0
230
1.0
 70
     8
 71
     3
 72
     9
 73
     5
 74
     0
 42
0.000000001
 43
0.0000000001
 40
0.0
 40
0.0
 40
0.0
 40
0.0
 40
0.5124793403
 40
1.0
 40
1.0
 40
1.0
 40
1.0
 10
2398.235643026117
 20
246.7453117716711
 30
0.0
 10
2397.888287594307
 20
246.9458575237911
 30
0.0
 10
2397.187117694164
 20
247.2995691766311
 30
0.0
 10
2396.429728960973
 20
247.5232103351272
 30
0.0
 10
2396.053259008708
 20
247.585311771671
 30
0.0
  0
SPLINE
  5
1C7A
330
1F
100
AcDbEntity
  8
0
  6
Continuous
 62
     7
100
AcDbSpline
210
0.0
220
0.0
230
1.0
 70
     8
 71
     3
 72
     9
 73
     5
 74
     0
 42
0.000000001
 43
0.0000000001
 40
0.0
 40
0.0
 40
0.0
 40
0.0
 40
0.5124793403
 40
1.0
 40
1.0
 40
1.0
 40
1.0
 10
2398.235643026117
 20
214.8253117716711
 30
0.0
 10
2397.888287594307
 20
214.624766019551
 30
0.0
 10
2397.187117694164
 20
214.2710543667111
 30
0.0
 10
2396.429728960973
 20
214.0474132083832
 30
0.0
 10
2396.053259008708
 20
213.9853117716711
 30
0.0
  0
SPLINE
  5
1C7B
330
1F
100
AcDbEntity
  8
0
  6
Continuous
 62
     7
100
AcDbSpline
210
0.0
220
0.0
230
1.0
 70
     8
 71
     3
 72
     9
 73
     5
 74
     0
 42
0.000000001
 43
0.0000000001
 40
0.0
 40
0.0
 40
0.0
 40
0.0
 40
0.4875211211
 40
1.0
 40
1.0
 40
1.0
 40
1.0
 10
2394.598336330323
 20
213.9853117716711
 30
0.0
 10
2394.221866017028
 20
214.0474132678551
 30
0.0
 10
2393.464477178333
 20
214.2710541884631
 30
0.0
 10
2392.763307436277
 20
214.6247661976311
 30
0.0
 10
2392.415952312749
 20
214.8253117716711
 30
0.0
  0
SPLINE
  5
1C7C
330
1F
100
AcDbEntity
  8
02___PRT_ALL_AXES
  6
Continuous
 62
     7
100
AcDbSpline
210
0.0
220
0.0
230
1.0
 70
     8
 71
     3
 72
     9
 73
     5
 74
     0
 42
0.000000001
 43
0.0000000001
 40
0.0
 40
0.0
 40
0.0
 40
0.0
 40
0.4875211211
 40
1.0
 40
1.0
 40
1.0
 40
1.0
 10
2394.598336330323
 20
247.585311771671
 30
0.0
 10
2394.221866017028
 20
247.523210275487
 30
0.0
 10
2393.464477178333
 20
247.2995693550471
 30
0.0
 10
2392.763307436277
 20
246.945857345711
 30
0.0
 10
2392.415952312749
 20
246.7453117716711
 30
0.0
  0
SPLINE
  5
1C7D
330
1F
100
AcDbEntity
  8
02___PRT_ALL_AXES
  6
Continuous
 62
     7
100
AcDbSpline
210
0.0
220
0.0
230
1.0
 70
     8
 71
     3
 72
     9
 73
     5
 74
     0
 42
0.000000001
 43
0.0000000001
 40
0.0
 40
0.0
 40
0.0
 40
0.0
 40
0.5124793403
 40
1.0
 40
1.0
 40
1.0
 40
1.0
 10
2415.694715166556
 20
246.7453117716711
 30
0.0
 10
2415.34735973458
 20
246.9458575237911
 30
0.0
 10
2414.646189834437
 20
247.2995691766311
 30
0.0
 10
2413.888801101245
 20
247.5232103351272
 30
0.0
 10
2413.512331148981
 20
247.585311771671
 30
0.0
  0
SPLINE
  5
1C7E
330
1F
100
AcDbEntity
  8
0
  6
Continuous
 62
     7
100
AcDbSpline
210
0.0
220
0.0
230
1.0
 70
     8
 71
     3
 72
     9
 73
     5
 74
     0
 42
0.000000001
 43
0.0000000001
 40
0.0
 40
0.0
 40
0.0
 40
0.0
 40
0.5124793403
 40
1.0
 40
1.0
 40
1.0
 40
1.0
 10
2415.694715166556
 20
214.8253117716711
 30
0.0
 10
2415.34735973458
 20
214.624766019551
 30
0.0
 10
2414.646189834437
 20
214.2710543667111
 30
0.0
 10
2413.888801101245
 20
214.0474132083832
 30
0.0
 10
2413.512331148981
 20
213.9853117716711
 30
0.0
  0
SPLINE
  5
1C7F
330
1F
100
AcDbEntity
  8
0
  6
Continuous
 62
     7
100
AcDbSpline
210
0.0
220
0.0
230
1.0
 70
     8
 71
     3
 72
     9
 73
     5
 74
     0
 42
0.000000001
 43
0.0000000001
 40
0.0
 40
0.0
 40
0.0
 40
0.0
 40
0.4875211211
 40
1.0
 40
1.0
 40
1.0
 40
1.0
 10
2412.057408470595
 20
213.9853117716711
 30
0.0
 10
2411.6809381573
 20
214.0474132678551
 30
0.0
 10
2410.923549318773
 20
214.2710541884631
 30
0.0
 10
2410.222379576549
 20
214.6247661976311
 30
0.0
 10
2409.875024453021
 20
214.8253117716711
 30
0.0
  0
SPLINE
  5
1C80
330
1F
100
AcDbEntity
  8
0
  6
Continuous
 62
     7
100
AcDbSpline
210
0.0
220
0.0
230
1.0
 70
     8
 71
     3
 72
    16
 73
    12
 74
     0
 42
0.000000001
 43
0.0000000001
 40
0.0
 40
0.0
 40
0.0
 40
0.0
 40
0.0045422537
 40
0.0182088054
 40
0.040846386
 40
0.0722692559
 40
0.1605281936
 40
0.2805578747
 40
0.4289765932
 40
0.6017117442000001
 40
1.0
 40
1.0
 40
1.0
 40
1.0
 10
2388.095333739653
 20
825.4213117716709
 30
0.0
 10
2388.095333739653
 20
825.4292493160548
 30
0.0
 10
2388.104872957395
 20
825.3595991282871
 30
0.0
 10
2388.114322999228
 20
825.326432359631
 30
0.0
 10
2388.137644703621
 20
825.1891998851746
 30
0.0
 10
2388.180466696708
 20
824.956870986527
 30
0.0
 10
2388.251834600477
 20
824.5348792794949
 30
0.0
 10
2388.34720321726
 20
823.9231233928789
 30
0.0
 10
2388.450962087188
 20
823.1575330013273
 30
0.0
 10
2388.590148422142
 20
821.9086534916872
 30
0.0
 10
2388.658116175923
 20
820.911995492567
 30
0.0
 10
2388.683989226932
 20
820.216471681487
 30
0.0
  0
SPLINE
  5
1C81
330
1F
100
AcDbEntity
  8
0
  6
Continuous
 62
     7
100
AcDbSpline
210
0.0
220
0.0
230
1.0
 70
     8
 71
     3
 72
    16
 73
    12
 74
     0
 42
0.000000001
 43
0.0000000001
 40
0.0
 40
0.0
 40
0.0
 40
0.0
 40
0.3982846733
 40
0.5710193134
 40
0.7194380293000001
 40
0.8394696463999999
 40
0.9277305579
 40
0.9591487146999998
 40
0.981773077
 40
0.9954325054999999
 40
1.0
 40
1.0
 40
1.0
 40
1.0
 10
2388.683992620702
 20
817.6901942561508
 30
0.0
 10
2388.658119685107
 20
816.9946711093427
 30
0.0
 10
2388.590147612883
 20
815.998012860407
 30
0.0
 10
2388.450963373228
 20
814.7491294971828
 30
0.0
 10
2388.347206421861
 20
813.983531703551
 30
0.0
 10
2388.251830832909
 20
813.371760438215
 30
0.0
 10
2388.180482034773
 20
812.949773531951
 30
0.0
 10
2388.137640237846
 20
812.7174582433189
 30
0.0
 10
2388.114348775301
 20
812.580301001279
 30
0.0
 10
2388.104825564429
 20
812.547094030727
 30
0.0
 10
2388.095333739653
 20
812.4773300552149
 30
0.0
 10
2388.095333739653
 20
812.4853117716709
 30
0.0
  0
SPLINE
  5
1C82
330
1F
100
AcDbEntity
  8
0
  6
Continuous
 62
     9
100
AcDbSpline
210
0.0
220
0.0
230
1.0
 70
     8
 71
     3
 72
    12
 73
     8
 74
     0
 42
0.000000001
 43
0.0000000001
 40
0.0
 40
0.0
 40
0.0
 40
0.0
 40
0.1364041195
 40
0.2695262307
 40
0.5233163261
 40
0.7659264565
 40
1.0
 40
1.0
 40
1.0
 40
1.0
 10
2473.145524396974
 20
819.3638885759026
 30
0.0
 10
2472.044698428435
 20
819.0980962520152
 30
0.0
 10
2469.920451651532
 20
818.3325600359269
 30
0.0
 10
2466.192043057131
 20
816.0567789506147
 30
0.0
 10
2462.519112513894
 20
812.2174098270951
 30
0.0
 10
2459.489996267932
 20
806.923534325495
 30
0.0
 10
2458.134751859093
 20
803.1849298369669
 30
0.0
 10
2457.611692822564
 20
801.313311771671
 30
0.0
  0
SPLINE
  5
1C83
330
1F
100
AcDbEntity
  8
0
  6
Continuous
 62
     9
100
AcDbSpline
210
0.0
220
0.0
230
1.0
 70
     8
 71
     3
 72
    13
 73
     9
 74
     0
 42
0.000000001
 43
0.0000000001
 40
0.0
 40
0.0
 40
0.0
 40
0.0
 40
0.1414764944
 40
0.2783078589
 40
0.4091378603
 40
0.5345917026000001
 40
0.7732169870000001
 40
1.0
 40
1.0
 40
1.0
 40
1.0
 10
2473.504818054268
 20
817.7227422745909
 30
0.0
 10
2472.406926189772
 20
817.4818727508709
 30
0.0
 10
2470.288741732855
 20
816.7903619203428
 30
0.0
 10
2467.430315903069
 20
815.2078088372389
 30
0.0
 10
2464.981194941116
 20
813.2486825107671
 30
0.0
 10
2462.286502493789
 20
810.3709363790871
 30
0.0
 10
2459.702226722284
 20
806.4116902724389
 30
0.0
 10
2458.214003930956
 20
803.011403920655
 30
0.0
 10
2457.611692822564
 20
801.313311771671
 30
0.0
  0
SPLINE
  5
1C84
330
1F
100
AcDbEntity
  8
0
  6
Continuous
 62
     9
100
AcDbSpline
210
0.0
220
0.0
230
1.0
 70
     8
 71
     3
 72
    11
 73
     7
 74
     0
 42
0.000000001
 43
0.0000000001
 40
0.0
 40
0.0
 40
0.0
 40
0.0
 40
0.2409173929
 40
0.4872128638000001
 40
0.7409906626
 40
1.0
 40
1.0
 40
1.0
 40
1.0
 10
2456.058373795444
 20
843.313311771671
 30
0.0
 10
2456.261074091284
 20
843.313311771671
 30
0.0
 10
2456.675956958955
 20
843.2233327163508
 30
0.0
 10
2457.191839210372
 20
842.8444364785189
 30
0.0
 10
2457.532933836916
 20
842.2869170439351
 30
0.0
 10
2457.611692822059
 20
841.8512340587989
 30
0.0
 10
2457.611692822059
 20
841.6333117716712
 30
0.0
  0
SPLINE
  5
1C85
330
1F
100
AcDbEntity
  8
0
  6
Continuous
 62
     9
100
AcDbSpline
210
0.0
220
0.0
230
1.0
 70
     8
 71
     3
 72
    11
 73
     7
 74
     0
 42
0.000000001
 43
0.0000000001
 40
0.0
 40
0.0
 40
0.0
 40
0.0
 40
0.2634691849
 40
0.5179839086
 40
0.7633605965000001
 40
1.0
 40
1.0
 40
1.0
 40
1.0
 10
2467.766866992797
 20
710.569107569327
 30
0.0
 10
2465.977780727452
 20
709.7336989621189
 30
0.0
 10
2462.717812813734
 20
707.5112760508789
 30
0.0
 10
2458.86736249186
 20
703.2356731898389
 30
0.0
 10
2455.906803169299
 20
698.5539886726792
 30
0.0
 10
2454.376728046613
 20
695.2716207743029
 30
0.0
 10
2453.717337848068
 20
693.6253117716709
 30
0.0
  0
SPLINE
  5
1C86
330
1F
100
AcDbEntity
  8
0
  6
Continuous
 62
     9
100
AcDbSpline
210
0.0
220
0.0
230
1.0
 70
     8
 71
     3
 72
    11
 73
     7
 74
     0
 42
0.000000001
 43
0.0000000001
 40
0.0
 40
0.0
 40
0.0
 40
0.0
 40
0.2291196009
 40
0.4722112393
 40
0.7284611617
 40
1.0
 40
1.0
 40
1.0
 40
1.0
 10
2453.717337848068
 20
755.7853117716708
 30
0.0
 10
2454.172517344589
 20
755.1916749360469
 30
0.0
 10
2455.177530646806
 20
754.0173837167991
 30
0.0
 10
2456.965013106027
 20
752.4323275234069
 30
0.0
 10
2459.150444821347
 20
751.1461201688631
 30
0.0
 10
2460.879947289579
 20
750.7446522323991
 30
0.0
 10
2461.766502433348
 20
750.745311771671
 30
0.0
  0
SPLINE
  5
1C87
330
1F
100
AcDbEntity
  8
0
  6
Continuous
 62
     9
100
AcDbSpline
210
0.0
220
0.0
230
1.0
 70
     8
 71
     3
 72
    11
 73
     7
 74
     0
 42
0.000000001
 43
0.0000000001
 40
0.0
 40
0.0
 40
0.0
 40
0.0
 40
0.1396996812
 40
0.3591812436
 40
0.6576682612
 40
1.0
 40
1.0
 40
1.0
 40
1.0
 10
2461.166561553796
 20
752.425311771671
 30
0.0
 10
2461.254122600067
 20
752.4253117715028
 30
0.0
 10
2461.459129561949
 20
752.2707770754951
 30
0.0
 10
2461.619741802268
 20
751.8913892474871
 30
0.0
 10
2461.740952955379
 20
751.3621634764549
 30
0.0
 10
2461.766502434692
 20
750.959878655111
 30
0.0
 10
2461.766502434861
 20
750.745311771671
 30
0.0
  0
SPLINE
  5
1C88
330
1F
100
AcDbEntity
  8
0
  6
Continuous
 62
     9
100
AcDbSpline
210
0.0
220
0.0
230
1.0
 70
     8
 71
     3
 72
    11
 73
     7
 74
     0
 42
0.000000001
 43
0.0000000001
 40
0.0
 40
0.0
 40
0.0
 40
0.0
 40
0.2697581412
 40
0.525665276
 40
0.7684511800000001
 40
1.0
 40
1.0
 40
1.0
 40
1.0
 10
2468.41937317126
 20
709.028271958943
 30
0.0
 10
2466.622262291837
 20
708.270152010287
 30
0.0
 10
2463.332633689157
 20
706.259074612727
 30
0.0
 10
2459.342006534406
 20
702.3519609986871
 30
0.0
 10
2456.188819644796
 20
698.0973379326232
 30
0.0
 10
2454.476733865589
 20
695.117383323383
 30
0.0
 10
2453.717337848068
 20
693.6253117716709
 30
0.0
  0
SPLINE
  5
1C89
330
1F
100
AcDbEntity
  8
0
  6
Continuous
 62
     9
100
AcDbSpline
210
0.0
220
0.0
230
1.0
 70
     8
 71
     3
 72
     8
 73
     4
 74
     0
 42
0.000000001
 43
0.0000000001
 40
0.0
 40
0.0
 40
0.0
 40
0.0
 40
1.0
 40
1.0
 40
1.0
 40
1.0
 10
2475.311161929435
 20
710.425311760751
 30
0.0
 10
2472.967175001076
 20
710.4252704124231
 30
0.0
 10
2470.579170153317
 20
709.9390692569269
 30
0.0
 10
2468.41937317126
 20
709.028271958943
 30
0.0
  0
SPLINE
  5
1C8A
330
1F
100
AcDbEntity
  8
0
  6
Continuous
 62
     9
100
AcDbSpline
210
0.0
220
0.0
230
1.0
 70
     8
 71
     3
 72
     9
 73
     5
 74
     0
 42
0.000000001
 43
0.0000000001
 40
0.0
 40
0.0
 40
0.0
 40
0.0
 40
0.4694560792000001
 40
1.0
 40
1.0
 40
1.0
 40
1.0
 10
2453.717268120509
 20
755.785364351303
 30
0.0
 10
2454.749746362269
 20
755.0081993571591
 30
0.0
 10
2456.998381205718
 20
753.4511211319672
 30
0.0
 10
2459.704105211092
 20
752.425065101471
 30
0.0
 10
2461.16454676642
 20
752.4253121017909
 30
0.0
  0
ENDSEC
  0
SECTION
  2
OBJECTS
  0
DICTIONARY
  5
12C7
330
0
100
AcDbDictionary
281
     1
  3
ACAD_CIP_PREVIOUS_PRODUCT_INFO
350
4678
  3
ACAD_COLOR
350
12FC
  3
ACAD_DETAILVIEWSTYLE
350
466E
  3
ACAD_GROUP
350
12C8
  3
ACAD_LAYOUT
350
1313
  3
ACAD_MATERIAL
350
12CF
  3
ACAD_MLEADERSTYLE
350
1311
  3
ACAD_MLINESTYLE
350
12C9
  3
ACAD_PLOTSETTINGS
350
1314
  3
ACAD_PLOTSTYLENAME
350
12CD
  3
ACAD_SCALELIST
350
12FF
  3
ACAD_SECTIONVIEWSTYLE
350
466B
  3
ACAD_TABLESTYLE
350
12FD
  3
ACAD_VISUALSTYLE
350
12E8
  3
ACDB_RECOMPOSE_DATA
350
46E8
  3
AcDbVariableDictionary
350
13F7
  0
DICTIONARY
  5
133E
330
8
100
AcDbDictionary
280
     1
281
     1
  0
DICTIONARY
  5
14BC
330
2
100
AcDbDictionary
280
     1
281
     1
  3
ACAD_LAYERSTATES
360
14BD
  0
DICTIONARY
  5
4679
330
10
100
AcDbDictionary
280
     1
281
     1
  3
ADSK_XREC_LAYER_RECONCILED
360
467A
  0
DICTIONARY
  5
467B
330
1FA
100
AcDbDictionary
280
     1
281
     1
  3
ADSK_XREC_LAYER_RECONCILED
360
467C
  0
DICTIONARY
  5
467D
330
1FB
100
AcDbDictionary
280
     1
281
     1
  3
ADSK_XREC_LAYER_RECONCILED
360
467E
  0
DICTIONARY
  5
467F
330
1FC
100
AcDbDictionary
280
     1
281
     1
  3
ADSK_XREC_LAYER_RECONCILED
360
4680
  0
DICTIONARY
  5
4681
330
1FD
100
AcDbDictionary
280
     1
281
     1
  3
ADSK_XREC_LAYER_RECONCILED
360
4682
  0
DICTIONARY
  5
4683
330
1FE
100
AcDbDictionary
280
     1
281
     1
  3
ADSK_XREC_LAYER_RECONCILED
360
4684
  0
DICTIONARY
  5
4685
330
1FF
100
AcDbDictionary
280
     1
281
     1
  3
ADSK_XREC_LAYER_RECONCILED
360
4686
  0
DICTIONARY
  5
4687
330
200
100
AcDbDictionary
280
     1
281
     1
  3
ADSK_XREC_LAYER_RECONCILED
360
4688
  0
DICTIONARY
  5
4689
330
201
100
AcDbDictionary
280
     1
281
     1
  3
ADSK_XREC_LAYER_RECONCILED
360
468A
  0
DICTIONARY
  5
468B
330
202
100
AcDbDictionary
280
     1
281
     1
  3
ADSK_XREC_LAYER_RECONCILED
360
468C
  0
DICTIONARY
  5
468D
330
203
100
AcDbDictionary
280
     1
281
     1
  3
ADSK_XREC_LAYER_RECONCILED
360
468E
  0
DICTIONARY
  5
468F
330
204
100
AcDbDictionary
280
     1
281
     1
  3
ADSK_XREC_LAYER_RECONCILED
360
4690
  0
DICTIONARY
  5
4691
330
205
100
AcDbDictionary
280
     1
281
     1
  3
ADSK_XREC_LAYER_RECONCILED
360
4692
  0
DICTIONARY
  5
4693
330
206
100
AcDbDictionary
280
     1
281
     1
  3
ADSK_XREC_LAYER_RECONCILED
360
4694
  0
DICTIONARY
  5
4695
330
207
100
AcDbDictionary
280
     1
281
     1
  3
ADSK_XREC_LAYER_RECONCILED
360
4696
  0
DICTIONARY
  5
4697
330
208
100
AcDbDictionary
280
     1
281
     1
  3
ADSK_XREC_LAYER_RECONCILED
360
4698
  0
DICTIONARY
  5
4699
330
209
100
AcDbDictionary
280
     1
281
     1
  3
ADSK_XREC_LAYER_RECONCILED
360
469A
  0
DICTIONARY
  5
469B
330
20A
100
AcDbDictionary
280
     1
281
     1
  3
ADSK_XREC_LAYER_RECONCILED
360
469C
  0
DICTIONARY
  5
469D
330
20B
100
AcDbDictionary
280
     1
281
     1
  3
ADSK_XREC_LAYER_RECONCILED
360
469E
  0
DICTIONARY
  5
469F
330
20C
100
AcDbDictionary
280
     1
281
     1
  3
ADSK_XREC_LAYER_RECONCILED
360
46A0
  0
DICTIONARY
  5
46A1
330
20D
100
AcDbDictionary
280
     1
281
     1
  3
ADSK_XREC_LAYER_RECONCILED
360
46A2
  0
DICTIONARY
  5
46A3
330
20E
100
AcDbDictionary
280
     1
281
     1
  3
ADSK_XREC_LAYER_RECONCILED
360
46A4
  0
DICTIONARY
  5
46A5
330
20F
100
AcDbDictionary
280
     1
281
     1
  3
ADSK_XREC_LAYER_RECONCILED
360
46A6
  0
DICTIONARY
  5
46A7
330
210
100
AcDbDictionary
280
     1
281
     1
  3
ADSK_XREC_LAYER_RECONCILED
360
46A8
  0
DICTIONARY
  5
46A9
330
211
100
AcDbDictionary
280
     1
281
     1
  3
ADSK_XREC_LAYER_RECONCILED
360
46AA
  0
DICTIONARY
  5
46AB
330
212
100
AcDbDictionary
280
     1
281
     1
  3
ADSK_XREC_LAYER_RECONCILED
360
46AC
  0
DICTIONARY
  5
46AD
330
213
100
AcDbDictionary
280
     1
281
     1
  3
ADSK_XREC_LAYER_RECONCILED
360
46AE
  0
DICTIONARY
  5
46AF
330
214
100
AcDbDictionary
280
     1
281
     1
  3
ADSK_XREC_LAYER_RECONCILED
360
46B0
  0
DICTIONARY
  5
46B1
330
215
100
AcDbDictionary
280
     1
281
     1
  3
ADSK_XREC_LAYER_RECONCILED
360
46B2
  0
DICTIONARY
  5
46B3
330
216
100
AcDbDictionary
280
     1
281
     1
  3
ADSK_XREC_LAYER_RECONCILED
360
46B4
  0
DICTIONARY
  5
46B5
330
217
100
AcDbDictionary
280
     1
281
     1
  3
ADSK_XREC_LAYER_RECONCILED
360
46B6
  0
DICTIONARY
  5
46B7
330
218
100
AcDbDictionary
280
     1
281
     1
  3
ADSK_XREC_LAYER_RECONCILED
360
46B8
  0
DICTIONARY
  5
46B9
330
219
100
AcDbDictionary
280
     1
281
     1
  3
ADSK_XREC_LAYER_RECONCILED
360
46BA
  0
DICTIONARY
  5
46BB
330
21A
100
AcDbDictionary
280
     1
281
     1
  3
ADSK_XREC_LAYER_RECONCILED
360
46BC
  0
DICTIONARY
  5
46BD
330
21B
100
AcDbDictionary
280
     1
281
     1
  3
ADSK_XREC_LAYER_RECONCILED
360
46BE
  0
DICTIONARY
  5
46BF
330
21C
100
AcDbDictionary
280
     1
281
     1
  3
ADSK_XREC_LAYER_RECONCILED
360
46C0
  0
DICTIONARY
  5
46C1
330
21D
100
AcDbDictionary
280
     1
281
     1
  3
ADSK_XREC_LAYER_RECONCILED
360
46C2
  0
DICTIONARY
  5
46C3
330
21E
100
AcDbDictionary
280
     1
281
     1
  3
ADSK_XREC_LAYER_RECONCILED
360
46C4
  0
DICTIONARY
  5
46C5
330
2768
100
AcDbDictionary
280
     1
281
     1
  3
ADSK_XREC_LAYER_RECONCILED
360
46C6
  0
DICTIONARY
  5
46C7
330
2769
100
AcDbDictionary
280
     1
281
     1
  3
ADSK_XREC_LAYER_RECONCILED
360
46C8
  0
DICTIONARY
  5
46C9
330
276A
100
AcDbDictionary
280
     1
281
     1
  3
ADSK_XREC_LAYER_RECONCILED
360
46CA
  0
DICTIONARY
  5
46CB
330
276B
100
AcDbDictionary
280
     1
281
     1
  3
ADSK_XREC_LAYER_RECONCILED
360
46CC
  0
DICTIONARY
  5
46CD
330
276C
100
AcDbDictionary
280
     1
281
     1
  3
ADSK_XREC_LAYER_RECONCILED
360
46CE
  0
DICTIONARY
  5
46CF
330
276D
100
AcDbDictionary
280
     1
281
     1
  3
ADSK_XREC_LAYER_RECONCILED
360
46D0
  0
DICTIONARY
  5
1342
330
1F
100
AcDbDictionary
280
     1
281
     1
  3
ACAD_LAYOUTSELFREF
360
1343
  3
ACAD_SORTENTS
360
142E
  0
DICTIONARY
  5
1340
330
1B
100
AcDbDictionary
280
     1
281
     1
  3
ACAD_LAYOUTSELFREF
360
1341
  0
XRECORD
  5
4678
102
{ACAD_REACTORS
330
12C7
102
}
330
12C7
100
AcDbXrecord
280
     1
300
ACD
300
2017
300
ACD_F_S
  0
DICTIONARY
  5
12FC
102
{ACAD_REACTORS
330
12C7
102
}
330
12C7
100
AcDbDictionary
281
     1
  0
DICTIONARY
  5
466E
102
{ACAD_REACTORS
330
12C7
102
}
330
12C7
100
AcDbDictionary
281
     1
  3
Metric50
350
466F
  0
DICTIONARY
  5
12C8
102
{ACAD_REACTORS
330
12C7
102
}
330
12C7
100
AcDbDictionary
281
     1
  0
DICTIONARY
  5
1313
102
{ACAD_REACTORS
330
12C7
102
}
330
12C7
100
AcDbDictionary
281
     1
  3
Layout1
350
1316
  3
Model
350
1315
  0
DICTIONARY
  5
12CF
102
{ACAD_REACTORS
330
12C7
102
}
330
12C7
100
AcDbDictionary
281
     1
  3
ByBlock
350
12D8
  3
ByLayer
350
12D0
  3
Global
350
12E0
  0
DICTIONARY
  5
1311
102
{ACAD_REACTORS
330
12C7
102
}
330
12C7
100
AcDbDictionary
281
     1
  3
Standard
350
1312
  0
DICTIONARY
  5
12C9
102
{ACAD_REACTORS
330
12C7
102
}
330
12C7
100
AcDbDictionary
281
     1
  3
STANDARD
350
12CA
  0
DICTIONARY
  5
1314
102
{ACAD_REACTORS
330
12C7
102
}
330
12C7
100
AcDbDictionary
281
     1
  0
ACDBDICTIONARYWDFLT
  5
12CD
102
{ACAD_REACTORS
330
12C7
102
}
330
12C7
100
AcDbDictionary
281
     1
  3
Normal
350
12CE
100
AcDbDictionaryWithDefault
340
12CE
  0
DICTIONARY
  5
12FF
102
{ACAD_REACTORS
330
12C7
102
}
330
12C7
100
AcDbDictionary
281
     1
  3
A0
350
1300
  3
A1
350
1301
  3
A2
350
1302
  3
A3
350
1303
  3
A4
350
1304
  3
A5
350
1305
  3
A6
350
1306
  3
A7
350
1307
  3
A8
350
1308
  3
A9
350
1309
  3
B0
350
130A
  3
B1
350
130B
  3
B2
350
130C
  3
B3
350
130D
  3
B4
350
130E
  3
B5
350
130F
  3
B6
350
1310
  0
DICTIONARY
  5
466B
102
{ACAD_REACTORS
330
12C7
102
}
330
12C7
100
AcDbDictionary
281
     1
  3
Metric50
350
466D
  0
DICTIONARY
  5
12FD
102
{ACAD_REACTORS
330
12C7
102
}
330
12C7
100
AcDbDictionary
281
     1
  3
Standard
350
12FE
  0
DICTIONARY
  5
12E8
102
{ACAD_REACTORS
330
12C7
102
}
330
12C7
100
AcDbDictionary
281
     1
  3
2dWireframe
350
12EE
  3
3D Hidden
350
12F0
  3
3dWireframe
350
12EF
  3
Basic
350
12ED
  3
Brighten
350
12F4
  3
ColorChange
350
12F8
  3
Conceptual
350
12F1
  3
Dim
350
12F3
  3
EdgeColorOff
350
12FB
  3
Facepattern
350
12F7
  3
Flat
350
12E9
  3
FlatWithEdges
350
12EA
  3
Gouraud
350
12EB
  3
GouraudWithEdges
350
12EC
  3
Hidden
350
4665
  3
JitterOff
350
12F9
  3
Linepattern
350
12F6
  3
OverhangOff
350
12FA
  3
Realistic
350
12F2
  3
Shaded
350
466A
  3
Shaded with edges
350
4669
  3
Shades of Gray
350
4666
  3
Sketchy
350
4667
  3
Thicken
350
12F5
  3
Wireframe
350
4664
  3
X-Ray
350
4668
  0
XRECORD
  5
46E8
102
{ACAD_REACTORS
330
12C7
102
}
330
12C7
100
AcDbXrecord
280
     1
 90
        1
330
12FE
330
466D
330
466F
  0
DICTIONARY
  5
13F7
102
{ACAD_REACTORS
330
12C7
102
}
330
12C7
100
AcDbDictionary
281
     1
  3
CANNOSCALE
350
13FA
  3
CMLEADERSTYLE
350
13F9
  3
CTABLESTYLE
350
13F8
  3
CVIEWDETAILSTYLE
350
46DD
  3
CVIEWSECTIONSTYLE
350
46DE
  3
DIMASSOC
350
13FD
  3
INDEXCTL
350
13FC
  3
LAYEREVAL
350
46E1
  3
LAYERNOTIFY
350
46E2
  3
LIGHTINGUNITS
350
46E0
  3
MSLTSCALE
350
46DF
  3
SORTENTS
350
13FB
  0
DICTIONARY
  5
14BD
102
{ACAD_REACTORS
330
14BC
102
}
330
14BC
100
AcDbDictionary
281
     1
  0
XRECORD
  5
467A
102
{ACAD_REACTORS
330
4679
102
}
330
4679
100
AcDbXrecord
280
     1
290
     1
  0
XRECORD
  5
467C
102
{ACAD_REACTORS
330
467B
102
}
330
467B
100
AcDbXrecord
280
     1
290
     1
  0
XRECORD
  5
467E
102
{ACAD_REACTORS
330
467D
102
}
330
467D
100
AcDbXrecord
280
     1
290
     1
  0
XRECORD
  5
4680
102
{ACAD_REACTORS
330
467F
102
}
330
467F
100
AcDbXrecord
280
     1
290
     1
  0
XRECORD
  5
4682
102
{ACAD_REACTORS
330
4681
102
}
330
4681
100
AcDbXrecord
280
     1
290
     1
  0
XRECORD
  5
4684
102
{ACAD_REACTORS
330
4683
102
}
330
4683
100
AcDbXrecord
280
     1
290
     1
  0
XRECORD
  5
4686
102
{ACAD_REACTORS
330
4685
102
}
330
4685
100
AcDbXrecord
280
     1
290
     1
  0
XRECORD
  5
4688
102
{ACAD_REACTORS
330
4687
102
}
330
4687
100
AcDbXrecord
280
     1
290
     1
  0
XRECORD
  5
468A
102
{ACAD_REACTORS
330
4689
102
}
330
4689
100
AcDbXrecord
280
     1
290
     1
  0
XRECORD
  5
468C
102
{ACAD_REACTORS
330
468B
102
}
330
468B
100
AcDbXrecord
280
     1
290
     1
  0
XRECORD
  5
468E
102
{ACAD_REACTORS
330
468D
102
}
330
468D
100
AcDbXrecord
280
     1
290
     1
  0
XRECORD
  5
4690
102
{ACAD_REACTORS
330
468F
102
}
330
468F
100
AcDbXrecord
280
     1
290
     1
  0
XRECORD
  5
4692
102
{ACAD_REACTORS
330
4691
102
}
330
4691
100
AcDbXrecord
280
     1
290
     1
  0
XRECORD
  5
4694
102
{ACAD_REACTORS
330
4693
102
}
330
4693
100
AcDbXrecord
280
     1
290
     1
  0
XRECORD
  5
4696
102
{ACAD_REACTORS
330
4695
102
}
330
4695
100
AcDbXrecord
280
     1
290
     1
  0
XRECORD
  5
4698
102
{ACAD_REACTORS
330
4697
102
}
330
4697
100
AcDbXrecord
280
     1
290
     1
  0
XRECORD
  5
469A
102
{ACAD_REACTORS
330
4699
102
}
330
4699
100
AcDbXrecord
280
     1
290
     1
  0
XRECORD
  5
469C
102
{ACAD_REACTORS
330
469B
102
}
330
469B
100
AcDbXrecord
280
     1
290
     1
  0
XRECORD
  5
469E
102
{ACAD_REACTORS
330
469D
102
}
330
469D
100
AcDbXrecord
280
     1
290
     1
  0
XRECORD
  5
46A0
102
{ACAD_REACTORS
330
469F
102
}
330
469F
100
AcDbXrecord
280
     1
290
     1
  0
XRECORD
  5
46A2
102
{ACAD_REACTORS
330
46A1
102
}
330
46A1
100
AcDbXrecord
280
     1
290
     1
  0
XRECORD
  5
46A4
102
{ACAD_REACTORS
330
46A3
102
}
330
46A3
100
AcDbXrecord
280
     1
290
     1
  0
XRECORD
  5
46A6
102
{ACAD_REACTORS
330
46A5
102
}
330
46A5
100
AcDbXrecord
280
     1
290
     1
  0
XRECORD
  5
46A8
102
{ACAD_REACTORS
330
46A7
102
}
330
46A7
100
AcDbXrecord
280
     1
290
     1
  0
XRECORD
  5
46AA
102
{ACAD_REACTORS
330
46A9
102
}
330
46A9
100
AcDbXrecord
280
     1
290
     1
  0
XRECORD
  5
46AC
102
{ACAD_REACTORS
330
46AB
102
}
330
46AB
100
AcDbXrecord
280
     1
290
     1
  0
XRECORD
  5
46AE
102
{ACAD_REACTORS
330
46AD
102
}
330
46AD
100
AcDbXrecord
280
     1
290
     1
  0
XRECORD
  5
46B0
102
{ACAD_REACTORS
330
46AF
102
}
330
46AF
100
AcDbXrecord
280
     1
290
     1
  0
XRECORD
  5
46B2
102
{ACAD_REACTORS
330
46B1
102
}
330
46B1
100
AcDbXrecord
280
     1
290
     1
  0
XRECORD
  5
46B4
102
{ACAD_REACTORS
330
46B3
102
}
330
46B3
100
AcDbXrecord
280
     1
290
     1
  0
XRECORD
  5
46B6
102
{ACAD_REACTORS
330
46B5
102
}
330
46B5
100
AcDbXrecord
280
     1
290
     1
  0
XRECORD
  5
46B8
102
{ACAD_REACTORS
330
46B7
102
}
330
46B7
100
AcDbXrecord
280
     1
290
     1
  0
XRECORD
  5
46BA
102
{ACAD_REACTORS
330
46B9
102
}
330
46B9
100
AcDbXrecord
280
     1
290
     1
  0
XRECORD
  5
46BC
102
{ACAD_REACTORS
330
46BB
102
}
330
46BB
100
AcDbXrecord
280
     1
290
     1
  0
XRECORD
  5
46BE
102
{ACAD_REACTORS
330
46BD
102
}
330
46BD
100
AcDbXrecord
280
     1
290
     1
  0
XRECORD
  5
46C0
102
{ACAD_REACTORS
330
46BF
102
}
330
46BF
100
AcDbXrecord
280
     1
290
     1
  0
XRECORD
  5
46C2
102
{ACAD_REACTORS
330
46C1
102
}
330
46C1
100
AcDbXrecord
280
     1
290
     1
  0
XRECORD
  5
46C4
102
{ACAD_REACTORS
330
46C3
102
}
330
46C3
100
AcDbXrecord
280
     1
290
     1
  0
XRECORD
  5
46C6
102
{ACAD_REACTORS
330
46C5
102
}
330
46C5
100
AcDbXrecord
280
     1
290
     1
  0
XRECORD
  5
46C8
102
{ACAD_REACTORS
330
46C7
102
}
330
46C7
100
AcDbXrecord
280
     1
290
     1
  0
XRECORD
  5
46CA
102
{ACAD_REACTORS
330
46C9
102
}
330
46C9
100
AcDbXrecord
280
     1
290
     1
  0
XRECORD
  5
46CC
102
{ACAD_REACTORS
330
46CB
102
}
330
46CB
100
AcDbXrecord
280
     1
290
     1
  0
XRECORD
  5
46CE
102
{ACAD_REACTORS
330
46CD
102
}
330
46CD
100
AcDbXrecord
280
     1
290
     1
  0
XRECORD
  5
46D0
102
{ACAD_REACTORS
330
46CF
102
}
330
46CF
100
AcDbXrecord
280
     1
290
     1
  0
XRECORD
  5
1343
102
{ACAD_REACTORS
330
1342
102
}
330
1342
100
AcDbXrecord
280
     1
340
1F
  0
SORTENTSTABLE
  5
142E
102
{ACAD_REACTORS
330
1342
102
}
330
1342
100
AcDbSortentsTable
330
1F
331
1C26
  5
1C26
331
1C61
  5
1C61
331
1C33
  5
1C33
331
1C7F
  5
1C7F
331
1C48
  5
1C48
331
1C88
  5
1C88
331
1C1A
  5
1C1A
331
1C55
  5
1C55
331
1C6A
  5
1C6A
331
1C3C
  5
1C3C
331
1C77
  5
1C77
331
1C09
  5
1C09
331
1C40
  5
1C40
331
1C5E
  5
1C5E
331
1C12
  5
1C12
331
1C2B
  5
1C2B
331
1C62
  5
1C62
331
1C34
  5
1C34
331
1C80
  5
1C80
331
1C4D
  5
1C4D
331
1C1F
  5
1C1F
331
1C56
  5
1C56
331
1C6F
  5
1C6F
331
1C23
  5
1C23
331
1C78
  5
1C78
331
1C0A
  5
1C0A
331
1C45
  5
1C45
331
1C17
  5
1C17
331
1C2C
  5
1C2C
331
1C67
  5
1C67
331
1C39
  5
1C39
331
1C70
  5
1C70
331
1C85
  5
1C85
331
1C4E
  5
1C4E
331
1C5B
  5
1C5B
331
1C24
  5
1C24
331
1C31
  5
1C31
331
1C7D
  5
1C7D
331
1C0F
  5
1C0F
331
1C46
  5
1C46
331
1C18
  5
1C18
331
1C53
  5
1C53
331
1C68
  5
1C68
331
1C3A
  5
1C3A
331
1C75
  5
1C75
331
1C86
  5
1C86
331
1C07
  5
1C07
331
1C5C
  5
1C5C
331
1C10
  5
1C10
331
1C29
  5
1C29
331
1C60
  5
1C60
331
1C32
  5
1C32
331
1C7E
  5
1C7E
331
1C4B
  5
1C4B
331
1C1D
  5
1C1D
331
1C54
  5
1C54
331
1C6D
  5
1C6D
331
1C21
  5
1C21
331
1C3F
  5
1C3F
331
1C76
  5
1C76
331
1C08
  5
1C08
331
1C43
  5
1C43
331
1C15
  5
1C15
331
1C2A
  5
1C2A
331
1C65
  5
1C65
331
1C37
  5
1C37
331
1C83
  5
1C83
331
1C4C
  5
1C4C
331
1C1E
  5
1C1E
331
1C59
  5
1C59
331
1C6E
  5
1C6E
331
1C22
  5
1C22
331
1C7B
  5
1C7B
331
1C0D
  5
1C0D
331
1C44
  5
1C44
331
1C16
  5
1C16
331
1C51
  5
1C51
331
1C2F
  5
1C2F
331
1C66
  5
1C66
331
1C38
  5
1C38
331
1C73
  5
1C73
331
1C84
  5
1C84
331
1C05
  5
1C05
331
1C5A
  5
1C5A
331
1C27
  5
1C27
331
1C30
  5
1C30
331
1C7C
  5
1C7C
331
1C0E
  5
1C0E
331
1C49
  5
1C49
331
1C89
  5
1C89
331
1C1B
  5
1C1B
331
1C52
  5
1C52
331
1C6B
  5
1C6B
331
1C3D
  5
1C3D
331
1C74
  5
1C74
331
1C06
  5
1C06
331
1C41
  5
1C41
331
1C5F
  5
1C5F
331
1C13
  5
1C13
331
1C28
  5
1C28
331
1C63
  5
1C63
331
1C35
  5
1C35
331
1C81
  5
1C81
331
1C4A
  5
1C4A
331
1C8A
  5
1C8A
331
1C1C
  5
1C1C
331
1C57
  5
1C57
331
1C6C
  5
1C6C
331
1C20
  5
1C20
331
1C3E
  5
1C3E
331
1C79
  5
1C79
331
1C0B
  5
1C0B
331
1C42
  5
1C42
331
1C14
  5
1C14
331
1C2D
  5
1C2D
331
1C64
  5
1C64
331
1C36
  5
1C36
331
1C71
  5
1C71
331
1C82
  5
1C82
331
1C4F
  5
1C4F
331
1C03
  5
1C03
331
1C58
  5
1C58
331
1C25
  5
1C25
331
1C7A
  5
1C7A
331
1C0C
  5
1C0C
331
1C47
  5
1C47
331
1C19
  5
1C19
331
1C50
  5
1C50
331
1C2E
  5
1C2E
331
1C69
  5
1C69
331
1C3B
  5
1C3B
331
1C72
  5
1C72
331
1C87
  5
1C87
331
1C04
  5
1C04
331
1C5D
  5
1C5D
331
1C11
  5
1C11
  0
XRECORD
  5
1341
102
{ACAD_REACTORS
330
1340
102
}
330
1340
100
AcDbXrecord
280
     1
340
1B
  0
ACDBDETAILVIEWSTYLE
  5
466F
102
{ACAD_XDICTIONARY
360
46E6
102
}
102
{ACAD_REACTORS
330
466E
102
}
330
466E
100
AcDbModelDocViewStyle
 70
     0
  3
Metric50
290
     0
100
AcDbDetailViewStyle
 70
     0
 71
     0
 90
        3
 71
     1
340
11
 62
   256
 40
5.0
340
0
 62
   256
 40
5.0
300

 40
0.0
280
     1
 71
     2
340
16
 90
       25
 62
   256
 71
     3
340
11
 62
   256
 40
5.0
 90
        0
 40
15.0
 90
        1
300
%<\AcVar ViewDetailId>% (%<\AcVar ViewScale \f "%sn">%)
 71
     4
340
16
 90
       25
 62
   256
340
16
 90
       25
 62
   256
280
     0
  0
LAYOUT
  5
1316
102
{ACAD_REACTORS
330
1313
102
}
330
1313
100
AcDbPlotSettings
  1

  2

  4

  6

 40
0.0
 41
0.0
 42
0.0
 43
0.0
 44
0.0
 45
0.0
 46
0.0
 47
0.0
 48
0.0
 49
0.0
140
0.0
141
0.0
142
1.0
143
1.0
 70
   688
 72
     0
 73
     0
 74
     5
  7

 75
    16
147
1.0
 76
     0
 77
     2
 78
   300
148
0.0
149
0.0
100
AcDbLayout
  1
Layout1
 70
     1
 71
     1
 10
0.0
 20
0.0
 11
12.0
 21
9.0
 12
0.0
 22
0.0
 32
0.0
 14
1.000000000000000E+20
 24
1.000000000000000E+20
 34
1.000000000000000E+20
 15
-1.000000000000000E+20
 25
-1.000000000000000E+20
 35
-1.000000000000000E+20
146
0.0
 13
0.0
 23
0.0
 33
0.0
 16
1.0
 26
0.0
 36
0.0
 17
0.0
 27
1.0
 37
0.0
 76
     0
330
1B
  0
LAYOUT
  5
1315
102
{ACAD_REACTORS
330
1313
102
}
330
1313
100
AcDbPlotSettings
  1

  2
Kyocera FS-6025MFP KX
  4
A4
  6

 40
4.984749794006347
 41
5.154074668884277
 42
5.111740112304687
 43
4.9847412109375
 44
210.0156707763672
 45
297.0106506347656
 46
0.0
 47
0.0
 48
0.0
 49
0.0
140
0.0
141
0.0
142
1.0
143
16.66066498262614
 70
 11952
 72
     1
 73
     1
 74
     0
  7

 75
     0
147
0.0600216138457143
 76
     0
 77
     2
 78
   300
148
1363.583862162939
149
454.6274719897292
100
AcDbLayout
  1
Model
 70
     1
 71
     0
 10
0.0
 20
0.0
 11
12.0
 21
9.0
 12
0.0
 22
0.0
 32
0.0
 14
0.0
 24
0.0
 34
0.0
 15
0.0
 25
0.0
 35
0.0
146
0.0
 13
0.0
 23
0.0
 33
0.0
 16
1.0
 26
0.0
 36
0.0
 17
0.0
 27
1.0
 37
0.0
 76
     0
330
1F
331
1F4
1001
ACAD_PSEXT
1000
Kyocera FS-6025MFP KX
1000
Kyocera FS-6025MFP KX
1000
192.168.105.5
1000

1070
     0
  0
MATERIAL
  5
12D8
102
{ACAD_XDICTIONARY
360
12D9
102
}
102
{ACAD_REACTORS
330
12CF
102
}
330
12CF
100
AcDbMaterial
  1
ByBlock
 72
     0
 43
0.0208333333333333
 43
0.0
 43
0.0
 43
0.0
 43
0.0
 43
0.0208333333333333
 43
0.0
 43
0.0
 43
0.0
 43
0.0
 43
1.0
 43
0.0
 43
0.0
 43
0.0
 43
0.0
 43
1.0
 77
     0
 47
0.0208333333333333
 47
0.0
 47
0.0
 47
0.0
 47
0.0
 47
0.0208333333333333
 47
0.0
 47
0.0
 47
0.0
 47
0.0
 47
1.0
 47
0.0
 47
0.0
 47
0.0
 47
0.0
 47
1.0
171
     0
 49
0.0208333333333333
 49
0.0
 49
0.0
 49
0.0
 49
0.0
 49
0.0208333333333333
 49
0.0
 49
0.0
 49
0.0
 49
0.0
 49
1.0
 49
0.0
 49
0.0
 49
0.0
 49
0.0
 49
1.0
175
     0
142
0.0208333333333333
142
0.0
142
0.0
142
0.0
142
0.0
142
0.0208333333333333
142
0.0
142
0.0
142
0.0
142
0.0
142
1.0
142
0.0
142
0.0
142
0.0
142
0.0
142
1.0
179
     0
144
0.0208333333333333
144
0.0
144
0.0
144
0.0
144
0.0
144
0.0208333333333333
144
0.0
144
0.0
144
0.0
144
0.0
144
1.0
144
0.0
144
0.0
144
0.0
144
0.0
144
1.0
147
0.0208333333333333
147
0.0
147
0.0
147
0.0
147
0.0
147
0.0208333333333333
147
0.0
147
0.0
147
0.0
147
0.0
147
1.0
147
0.0
147
0.0
147
0.0
147
0.0
147
1.0
  0
MATERIAL
  5
12D0
102
{ACAD_XDICTIONARY
360
12D1
102
}
102
{ACAD_REACTORS
330
12CF
102
}
330
12CF
100
AcDbMaterial
  1
ByLayer
 72
     0
 43
0.0208333333333333
 43
0.0
 43
0.0
 43
0.0
 43
0.0
 43
0.0208333333333333
 43
0.0
 43
0.0
 43
0.0
 43
0.0
 43
1.0
 43
0.0
 43
0.0
 43
0.0
 43
0.0
 43
1.0
 77
     0
 47
0.0208333333333333
 47
0.0
 47
0.0
 47
0.0
 47
0.0
 47
0.0208333333333333
 47
0.0
 47
0.0
 47
0.0
 47
0.0
 47
1.0
 47
0.0
 47
0.0
 47
0.0
 47
0.0
 47
1.0
171
     0
 49
0.0208333333333333
 49
0.0
 49
0.0
 49
0.0
 49
0.0
 49
0.0208333333333333
 49
0.0
 49
0.0
 49
0.0
 49
0.0
 49
1.0
 49
0.0
 49
0.0
 49
0.0
 49
0.0
 49
1.0
175
     0
142
0.0208333333333333
142
0.0
142
0.0
142
0.0
142
0.0
142
0.0208333333333333
142
0.0
142
0.0
142
0.0
142
0.0
142
1.0
142
0.0
142
0.0
142
0.0
142
0.0
142
1.0
179
     0
144
0.0208333333333333
144
0.0
144
0.0
144
0.0
144
0.0
144
0.0208333333333333
144
0.0
144
0.0
144
0.0
144
0.0
144
1.0
144
0.0
144
0.0
144
0.0
144
0.0
144
1.0
147
0.0208333333333333
147
0.0
147
0.0
147
0.0
147
0.0
147
0.0208333333333333
147
0.0
147
0.0
147
0.0
147
0.0
147
1.0
147
0.0
147
0.0
147
0.0
147
0.0
147
1.0
  0
MATERIAL
  5
12E0
102
{ACAD_XDICTIONARY
360
12E1
102
}
102
{ACAD_REACTORS
330
12CF
102
}
330
12CF
100
AcDbMaterial
  1
Global
 72
     0
 43
0.0208333333333333
 43
0.0
 43
0.0
 43
0.0
 43
0.0
 43
0.0208333333333333
 43
0.0
 43
0.0
 43
0.0
 43
0.0
 43
1.0
 43
0.0
 43
0.0
 43
0.0
 43
0.0
 43
1.0
 77
     0
 47
0.0208333333333333
 47
0.0
 47
0.0
 47
0.0
 47
0.0
 47
0.0208333333333333
 47
0.0
 47
0.0
 47
0.0
 47
0.0
 47
1.0
 47
0.0
 47
0.0
 47
0.0
 47
0.0
 47
1.0
171
     0
 49
0.0208333333333333
 49
0.0
 49
0.0
 49
0.0
 49
0.0
 49
0.0208333333333333
 49
0.0
 49
0.0
 49
0.0
 49
0.0
 49
1.0
 49
0.0
 49
0.0
 49
0.0
 49
0.0
 49
1.0
175
     0
142
0.0208333333333333
142
0.0
142
0.0
142
0.0
142
0.0
142
0.0208333333333333
142
0.0
142
0.0
142
0.0
142
0.0
142
1.0
142
0.0
142
0.0
142
0.0
142
0.0
142
1.0
179
     0
144
0.0208333333333333
144
0.0
144
0.0
144
0.0
144
0.0
144
0.0208333333333333
144
0.0
144
0.0
144
0.0
144
0.0
144
1.0
144
0.0
144
0.0
144
0.0
144
0.0
144
1.0
147
0.0208333333333333
147
0.0
147
0.0
147
0.0
147
0.0
147
0.0208333333333333
147
0.0
147
0.0
147
0.0
147
0.0
147
1.0
147
0.0
147
0.0
147
0.0
147
0.0
147
1.0
  0
MLEADERSTYLE
  5
1312
102
{ACAD_REACTORS
330
1311
102
}
330
1311
100
AcDbMLeaderStyle
179
     2
170
     2
171
     1
172
     0
 90
        2
 40
0.0
 41
0.0
173
     1
 91
-1056964608
340
14
 92
       -2
290
     1
 42
2.0
291
     1
 43
0.36
  3
Standard
 44
4.0
300

342
11
174
     1
178
     6
175
     1
176
     0
 93
-1056964608
 45
4.0
292
     0
297
     0
 46
4.0
 94
-1056964608
 47
1.0
 49
1.0
140
1.0
293
     1
141
0.0
294
     1
177
     0
142
1.0
295
     1
296
     0
143
0.125
271
     0
272
     9
273
     9
298
     1
  0
MLINESTYLE
  5
12CA
102
{ACAD_REACTORS
330
12C9
102
}
330
12C9
100
AcDbMlineStyle
  2
STANDARD
 70
     0
  3

 62
   256
 51
90.0
 52
90.0
 71
     2
 49
0.5
 62
   256
  6
BYLAYER
 49
-0.5
 62
   256
  6
BYLAYER
  0
ACDBPLACEHOLDER
  5
12CE
102
{ACAD_REACTORS
330
12CD
102
}
330
12CD
  0
SCALE
  5
1300
102
{ACAD_REACTORS
330
12FF
102
}
330
12FF
100
AcDbScale
 70
     0
300
1:1
140
1.0
141
1.0
290
     1
  0
SCALE
  5
1301
102
{ACAD_REACTORS
330
12FF
102
}
330
12FF
100
AcDbScale
 70
     0
300
1:2
140
1.0
141
2.0
290
     0
  0
SCALE
  5
1302
102
{ACAD_REACTORS
330
12FF
102
}
330
12FF
100
AcDbScale
 70
     0
300
1:4
140
1.0
141
4.0
290
     0
  0
SCALE
  5
1303
102
{ACAD_REACTORS
330
12FF
102
}
330
12FF
100
AcDbScale
 70
     0
300
1:5
140
1.0
141
5.0
290
     0
  0
SCALE
  5
1304
102
{ACAD_REACTORS
330
12FF
102
}
330
12FF
100
AcDbScale
 70
     0
300
1:8
140
1.0
141
8.0
290
     0
  0
SCALE
  5
1305
102
{ACAD_REACTORS
330
12FF
102
}
330
12FF
100
AcDbScale
 70
     0
300
1:10
140
1.0
141
10.0
290
     0
  0
SCALE
  5
1306
102
{ACAD_REACTORS
330
12FF
102
}
330
12FF
100
AcDbScale
 70
     0
300
1:16
140
1.0
141
16.0
290
     0
  0
SCALE
  5
1307
102
{ACAD_REACTORS
330
12FF
102
}
330
12FF
100
AcDbScale
 70
     0
300
1:20
140
1.0
141
20.0
290
     0
  0
SCALE
  5
1308
102
{ACAD_REACTORS
330
12FF
102
}
330
12FF
100
AcDbScale
 70
     0
300
1:30
140
1.0
141
30.0
290
     0
  0
SCALE
  5
1309
102
{ACAD_REACTORS
330
12FF
102
}
330
12FF
100
AcDbScale
 70
     0
300
1:40
140
1.0
141
40.0
290
     0
  0
SCALE
  5
130A
102
{ACAD_REACTORS
330
12FF
102
}
330
12FF
100
AcDbScale
 70
     0
300
1:50
140
1.0
141
50.0
290
     0
  0
SCALE
  5
130B
102
{ACAD_REACTORS
330
12FF
102
}
330
12FF
100
AcDbScale
 70
     0
300
1:100
140
1.0
141
100.0
290
     0
  0
SCALE
  5
130C
102
{ACAD_REACTORS
330
12FF
102
}
330
12FF
100
AcDbScale
 70
     0
300
2:1
140
2.0
141
1.0
290
     0
  0
SCALE
  5
130D
102
{ACAD_REACTORS
330
12FF
102
}
330
12FF
100
AcDbScale
 70
     0
300
4:1
140
4.0
141
1.0
290
     0
  0
SCALE
  5
130E
102
{ACAD_REACTORS
330
12FF
102
}
330
12FF
100
AcDbScale
 70
     0
300
8:1
140
8.0
141
1.0
290
     0
  0
SCALE
  5
130F
102
{ACAD_REACTORS
330
12FF
102
}
330
12FF
100
AcDbScale
 70
     0
300
10:1
140
10.0
141
1.0
290
     0
  0
SCALE
  5
1310
102
{ACAD_REACTORS
330
12FF
102
}
330
12FF
100
AcDbScale
 70
     0
300
100:1
140
100.0
141
1.0
290
     0
  0
ACDBSECTIONVIEWSTYLE
  5
466D
102
{ACAD_XDICTIONARY
360
46E4
102
}
102
{ACAD_REACTORS
330
466B
102
}
330
466B
100
AcDbModelDocViewStyle
 70
     0
  3
Metric50
290
     0
100
AcDbSectionViewStyle
 70
     0
 71
     0
 90
      102
 71
     1
340
11
 62
   256
 40
5.0
340
0
340
0
 62
   256
 40
5.0
300
I, O, Q, S, X, Z
 40
10.0
 90
        0
 40
2.5
 90
        0
 71
     2
340
16
 90
       25
 62
   256
340
16
 90
       50
 62
   256
 40
5.0
 40
2.5
 40
5.0
 71
     3
340
11
 62
   256
 40
5.0
 90
        0
 40
15.0
 90
        1
300
%<\AcVar ViewSectionStartId>%-%<\AcVar ViewSectionEndId>% (%<\AcVar ViewScale \f "%sn">%)
 71
     4
 62
   256
 62
   257
300
ANSI31
 40
1.0
 90
        0
290
     0
290
     0
 90
        6
 40
0.0
 40
1.570796326794896
 40
0.2617993877991494
 40
1.308996938995747
 40
-0.2617993877991494
 40
1.832595714594046
  0
TABLESTYLE
  5
12FE
102
{ACAD_XDICTIONARY
360
1319
102
}
102
{ACAD_REACTORS
330
12FD
102
}
330
12FD
100
AcDbTableStyle
280
     0
  3
Standard
 70
     0
 71
     0
 40
1.5
 41
1.5
280
     0
281
     0
  7
STANDARD
140
4.5
170
     2
 62
     0
 63
     7
283
     0
 90
      512
 91
        0
  1

274
    -2
284
     1
 64
     0
275
    -2
285
     1
 65
     0
276
    -2
286
     1
 66
     0
277
    -2
287
     1
 67
     0
278
    -2
288
     1
 68
     0
279
    -2
289
     1
 69
     0
  7
STANDARD
140
6.0
170
     5
 62
     0
 63
     7
283
     0
 90
      512
 91
        0
  1

274
    -2
284
     1
 64
     0
275
    -2
285
     1
 65
     0
276
    -2
286
     1
 66
     0
277
    -2
287
     1
 67
     0
278
    -2
288
     1
 68
     0
279
    -2
289
     1
 69
     0
  7
STANDARD
140
4.5
170
     5
 62
     0
 63
     7
283
     0
 90
      512
 91
        0
  1

274
    -2
284
     1
 64
     0
275
    -2
285
     1
 65
     0
276
    -2
286
     1
 66
     0
277
    -2
287
     1
 67
     0
278
    -2
288
     1
 68
     0
279
    -2
289
     1
 69
     0
  0
VISUALSTYLE
  5
12EE
102
{ACAD_REACTORS
330
12E8
102
}
330
12E8
100
AcDbVisualStyle
  2
2dWireframe
 70
     4
177
     3
291
     0
 70
    58
 90
        0
176
     1
 90
        2
176
     1
 90
        0
176
     1
 90
        0
176
     1
 40
0.6
176
     1
 40
30.0
176
     1
 62
     7
176
     1
 90
        1
176
     1
 90
        4
176
     1
 62
     7
176
     1
 62
   257
176
     1
 90
        1
176
     1
 90
        1
176
     1
 40
1.0
176
     1
 90
        0
176
     1
 62
   257
176
     1
 40
1.0
176
     1
 90
        1
176
     1
 90
        6
176
     1
 90
        2
176
     1
 62
     7
176
     1
 90
        5
176
     1
 90
        0
176
     1
 90
        0
176
     1
290
     0
176
     1
 90
        1
176
     1
 40
0.0
176
     1
 90
        0
176
     1
290
     1
176
     1
290
     1
176
     1
290
     0
176
     1
290
     0
176
     1
290
     0
176
     1
290
     0
176
     1
290
     0
176
     1
290
     0
176
     1
290
     0
176
     1
 90
       50
176
     1
 40
0.0
176
     1
 40
1.0
176
     1
 90
        0
176
     1
 62
    18
420
        0
176
     1
 90
       50
176
     1
 90
        3
176
     1
 62
     5
420
      255
176
     1
290
     0
176
     1
 90
       50
176
     1
 90
       50
176
     1
 90
       50
176
     1
290
     0
176
     1
 90
       50
176
     1
 62
   256
176
     0
 40
1.0
176
     0
 90
        2
176
     1
  1
strokes_ogs.tif
176
     1
290
     0
176
     1
 40
1.0
176
     1
 40
1.0
176
     1
  0
VISUALSTYLE
  5
12F0
102
{ACAD_REACTORS
330
12E8
102
}
330
12E8
100
AcDbVisualStyle
  2
3D Hidden
 70
     6
177
     3
291
     0
 70
    58
 90
        1
176
     1
 90
        2
176
     1
 90
        2
176
     1
 90
        0
176
     1
 40
0.6
176
     1
 40
30.0
176
     1
 62
     7
176
     1
 90
        2
176
     1
 90
        2
176
     1
 62
     7
176
     1
 62
   257
176
     1
 90
        2
176
     1
 90
        1
176
     1
 40
179.0
176
     1
 90
        0
176
     1
 62
   257
176
     1
 40
1.0
176
     1
 90
        1
176
     1
 90
        6
176
     1
 90
        2
176
     1
 62
     7
176
     1
 90
        3
176
     1
 90
        0
176
     1
 90
        0
176
     1
290
     0
176
     1
 90
        1
176
     1
 40
0.0
176
     1
 90
        0
176
     1
290
     0
176
     1
290
     1
176
     1
290
     1
176
     1
290
     0
176
     1
290
     0
176
     1
290
     0
176
     1
290
     0
176
     1
290
     0
176
     1
290
     0
176
     1
 90
       50
176
     1
 40
0.0
176
     1
 40
1.0
176
     1
 90
        0
176
     1
 62
    18
420
        0
176
     1
 90
       50
176
     1
 90
        3
176
     1
 62
     5
420
      255
176
     1
290
     0
176
     1
 90
       50
176
     1
 90
       50
176
     1
 90
       50
176
     1
290
     0
176
     1
 90
       50
176
     1
 62
   256
176
     0
 40
1.0
176
     0
 90
        2
176
     1
  1
strokes_ogs.tif
176
     1
290
     0
176
     1
 40
1.0
176
     1
 40
1.0
176
     1
  0
VISUALSTYLE
  5
12EF
102
{ACAD_REACTORS
330
12E8
102
}
330
12E8
100
AcDbVisualStyle
  2
3dWireframe
 70
     5
177
     3
291
     0
 70
    58
 90
        0
176
     1
 90
        2
176
     1
 90
        0
176
     1
 90
        0
176
     1
 40
0.6
176
     1
 40
30.0
176
     1
 62
     7
176
     1
 90
        1
176
     1
 90
        4
176
     1
 62
     7
176
     1
 62
   257
176
     1
 90
        1
176
     1
 90
        1
176
     1
 40
1.0
176
     1
 90
        0
176
     1
 62
   257
176
     1
 40
1.0
176
     1
 90
        1
176
     1
 90
        6
176
     1
 90
        2
176
     1
 62
     7
176
     1
 90
        5
176
     1
 90
        0
176
     1
 90
        0
176
     1
290
     0
176
     1
 90
        1
176
     1
 40
0.0
176
     1
 90
        0
176
     1
290
     0
176
     1
290
     1
176
     1
290
     1
176
     1
290
     0
176
     1
290
     0
176
     1
290
     0
176
     1
290
     0
176
     1
290
     0
176
     1
290
     0
176
     1
 90
       50
176
     1
 40
0.0
176
     1
 40
1.0
176
     1
 90
        0
176
     1
 62
    18
420
        0
176
     1
 90
       50
176
     1
 90
        3
176
     1
 62
     5
420
      255
176
     1
290
     0
176
     1
 90
       50
176
     1
 90
       50
176
     1
 90
       50
176
     1
290
     0
176
     1
 90
       50
176
     1
 62
   256
176
     0
 40
1.0
176
     0
 90
        2
176
     1
  1
strokes_ogs.tif
176
     1
290
     0
176
     1
 40
1.0
176
     1
 40
1.0
176
     1
  0
VISUALSTYLE
  5
12ED
102
{ACAD_REACTORS
330
12E8
102
}
330
12E8
100
AcDbVisualStyle
  2
Basic
 70
     7
177
     3
291
     1
 70
    58
 90
        1
176
     1
 90
        0
176
     1
 90
        1
176
     1
 90
        0
176
     1
 40
0.6
176
     1
 40
30.0
176
     1
 62
     7
176
     1
 90
        0
176
     1
 90
        4
176
     1
 62
     7
176
     1
 62
   257
176
     1
 90
        1
176
     1
 90
        1
176
     1
 40
1.0
176
     1
 90
        8
176
     1
 62
     7
176
     1
 40
1.0
176
     1
 90
        1
176
     1
 90
        6
176
     1
 90
        2
176
     1
 62
     7
176
     1
 90
        5
176
     1
 90
        0
176
     1
 90
        0
176
     1
290
     0
176
     1
 90
        1
176
     1
 40
0.0
176
     1
 90
        0
176
     1
290
     0
176
     1
290
     1
176
     1
290
     1
176
     1
290
     0
176
     1
290
     0
176
     1
290
     0
176
     1
290
     0
176
     1
290
     0
176
     1
290
     0
176
     1
 90
       50
176
     1
 40
0.0
176
     1
 40
1.0
176
     1
 90
        0
176
     1
 62
    18
420
        0
176
     1
 90
       50
176
     1
 90
        3
176
     1
 62
     5
420
      255
176
     1
290
     0
176
     1
 90
       50
176
     1
 90
       50
176
     1
 90
       50
176
     1
290
     0
176
     1
 90
       50
176
     1
 62
   256
176
     0
 40
1.0
176
     0
 90
        2
176
     1
  1
strokes_ogs.tif
176
     1
290
     0
176
     1
 40
1.0
176
     1
 40
1.0
176
     1
  0
VISUALSTYLE
  5
12F4
102
{ACAD_REACTORS
330
12E8
102
}
330
12E8
100
AcDbVisualStyle
  2
Brighten
 70
    12
177
     3
291
     1
 70
    58
 90
        2
176
     1
 90
        2
176
     1
 90
        0
176
     1
 90
        0
176
     1
 40
0.6
176
     1
 40
30.0
176
     1
 62
     7
176
     1
 90
        1
176
     1
 90
        4
176
     1
 62
     7
176
     1
 62
   257
176
     1
 90
        1
176
     1
 90
        1
176
     1
 40
1.0
176
     1
 90
        8
176
     1
 62
     7
176
     1
 40
1.0
176
     1
 90
        1
176
     1
 90
        6
176
     1
 90
        2
176
     1
 62
     7
176
     1
 90
        5
176
     1
 90
        0
176
     1
 90
        0
176
     1
290
     0
176
     1
 90
        1
176
     1
 40
50.0
176
     1
 90
        0
176
     1
290
     0
176
     1
290
     1
176
     1
290
     1
176
     1
290
     0
176
     1
290
     0
176
     1
290
     0
176
     1
290
     0
176
     1
290
     0
176
     1
290
     0
176
     1
 90
       50
176
     1
 40
0.0
176
     1
 40
1.0
176
     1
 90
        0
176
     1
 62
    18
420
        0
176
     1
 90
       50
176
     1
 90
        3
176
     1
 62
     5
420
      255
176
     1
290
     0
176
     1
 90
       50
176
     1
 90
       50
176
     1
 90
       50
176
     1
290
     0
176
     1
 90
       50
176
     1
 62
   256
176
     0
 40
1.0
176
     0
 90
        2
176
     1
  1
strokes_ogs.tif
176
     1
290
     0
176
     1
 40
1.0
176
     1
 40
1.0
176
     1
  0
VISUALSTYLE
  5
12F8
102
{ACAD_REACTORS
330
12E8
102
}
330
12E8
100
AcDbVisualStyle
  2
ColorChange
 70
    16
177
     3
291
     1
 70
    58
 90
        2
176
     1
 90
        2
176
     1
 90
        3
176
     1
 90
        0
176
     1
 40
0.6
176
     1
 40
30.0
176
     1
 62
     8
176
     1
 90
        1
176
     1
 90
        4
176
     1
 62
     7
176
     1
 62
   257
176
     1
 90
        1
176
     1
 90
        1
176
     1
 40
1.0
176
     1
 90
        8
176
     1
 62
     8
176
     1
 40
1.0
176
     1
 90
        1
176
     1
 90
        6
176
     1
 90
        2
176
     1
 62
     7
176
     1
 90
        5
176
     1
 90
        0
176
     1
 90
        0
176
     1
290
     0
176
     1
 90
        1
176
     1
 40
0.0
176
     1
 90
        0
176
     1
290
     0
176
     1
290
     1
176
     1
290
     1
176
     1
290
     0
176
     1
290
     0
176
     1
290
     0
176
     1
290
     0
176
     1
290
     0
176
     1
290
     0
176
     1
 90
       50
176
     1
 40
0.0
176
     1
 40
1.0
176
     1
 90
        0
176
     1
 62
    18
420
        0
176
     1
 90
       50
176
     1
 90
        3
176
     1
 62
     5
420
      255
176
     1
290
     0
176
     1
 90
       50
176
     1
 90
       50
176
     1
 90
       50
176
     1
290
     0
176
     1
 90
       50
176
     1
 62
   256
176
     0
 40
1.0
176
     0
 90
        2
176
     1
  1
strokes_ogs.tif
176
     1
290
     0
176
     1
 40
1.0
176
     1
 40
1.0
176
     1
  0
VISUALSTYLE
  5
12F1
102
{ACAD_REACTORS
330
12E8
102
}
330
12E8
100
AcDbVisualStyle
  2
Conceptual
 70
     9
177
     3
291
     0
 70
    58
 90
        3
176
     1
 90
        2
176
     1
 90
        0
176
     1
 90
        0
176
     1
 40
0.6
176
     1
 40
30.0
176
     1
 62
     7
176
     1
 90
        2
176
     1
 90
        2
176
     1
 62
     7
176
     1
 62
   257
176
     1
 90
        1
176
     1
 90
        1
176
     1
 40
179.0
176
     1
 90
        8
176
     1
 62
     7
176
     1
 40
1.0
176
     1
 90
        1
176
     1
 90
        6
176
     1
 90
        2
176
     1
 62
     7
176
     1
 90
        3
176
     1
 90
        0
176
     1
 90
        0
176
     1
290
     0
176
     1
 90
        1
176
     1
 40
0.0
176
     1
 90
        0
176
     1
290
     0
176
     1
290
     1
176
     1
290
     1
176
     1
290
     0
176
     1
290
     0
176
     1
290
     0
176
     1
290
     0
176
     1
290
     0
176
     1
290
     0
176
     1
 90
       50
176
     1
 40
0.0
176
     1
 40
1.0
176
     1
 90
        0
176
     1
 62
    18
420
        0
176
     1
 90
       50
176
     1
 90
        3
176
     1
 62
     5
420
      255
176
     1
290
     0
176
     1
 90
       50
176
     1
 90
       50
176
     1
 90
       50
176
     1
290
     0
176
     1
 90
       50
176
     1
 62
   256
176
     0
 40
1.0
176
     0
 90
        2
176
     1
  1
strokes_ogs.tif
176
     1
290
     0
176
     1
 40
1.0
176
     1
 40
1.0
176
     1
  0
VISUALSTYLE
  5
12F3
102
{ACAD_REACTORS
330
12E8
102
}
330
12E8
100
AcDbVisualStyle
  2
Dim
 70
    11
177
     3
291
     1
 70
    58
 90
        2
176
     1
 90
        2
176
     1
 90
        0
176
     1
 90
        0
176
     1
 40
0.6
176
     1
 40
30.0
176
     1
 62
     7
176
     1
 90
        1
176
     1
 90
        4
176
     1
 62
     7
176
     1
 62
   257
176
     1
 90
        1
176
     1
 90
        1
176
     1
 40
1.0
176
     1
 90
        8
176
     1
 62
     7
176
     1
 40
1.0
176
     1
 90
        1
176
     1
 90
        6
176
     1
 90
        2
176
     1
 62
     7
176
     1
 90
        5
176
     1
 90
        0
176
     1
 90
        0
176
     1
290
     0
176
     1
 90
        1
176
     1
 40
-50.0
176
     1
 90
        0
176
     1
290
     0
176
     1
290
     1
176
     1
290
     1
176
     1
290
     0
176
     1
290
     0
176
     1
290
     0
176
     1
290
     0
176
     1
290
     0
176
     1
290
     0
176
     1
 90
       50
176
     1
 40
0.0
176
     1
 40
1.0
176
     1
 90
        0
176
     1
 62
    18
420
        0
176
     1
 90
       50
176
     1
 90
        3
176
     1
 62
     5
420
      255
176
     1
290
     0
176
     1
 90
       50
176
     1
 90
       50
176
     1
 90
       50
176
     1
290
     0
176
     1
 90
       50
176
     1
 62
   256
176
     0
 40
1.0
176
     0
 90
        2
176
     1
  1
strokes_ogs.tif
176
     1
290
     0
176
     1
 40
1.0
176
     1
 40
1.0
176
     1
  0
VISUALSTYLE
  5
12FB
102
{ACAD_REACTORS
330
12E8
102
}
330
12E8
100
AcDbVisualStyle
  2
EdgeColorOff
 70
    22
177
     3
291
     1
 70
    58
 90
        2
176
     0
 90
        2
176
     0
 90
        0
176
     0
 90
        0
176
     0
 40
0.6
176
     0
 40
30.0
176
     0
 62
     7
176
     0
 90
        1
176
     0
 90
        4
176
     0
 62
     7
176
     0
 62
   257
176
     0
 90
        1
176
     0
 90
        1
176
     0
 40
1.0
176
     0
 90
        8
176
     2
 62
     7
176
     0
 40
1.0
176
     0
 90
        1
176
     0
 90
        6
176
     0
 90
        2
176
     0
 62
     7
176
     0
 90
        5
176
     0
 90
        0
176
     0
 90
        0
176
     0
290
     0
176
     0
 90
        1
176
     0
 40
0.0
176
     0
 90
        0
176
     0
290
     0
176
     1
290
     1
176
     1
290
     1
176
     1
290
     0
176
     1
290
     0
176
     1
290
     0
176
     1
290
     0
176
     1
290
     0
176
     1
290
     0
176
     1
 90
       50
176
     1
 40
0.0
176
     1
 40
1.0
176
     1
 90
        0
176
     1
 62
    18
420
        0
176
     1
 90
       50
176
     1
 90
        3
176
     1
 62
     5
420
      255
176
     1
290
     0
176
     1
 90
       50
176
     1
 90
       50
176
     1
 90
       50
176
     1
290
     0
176
     1
 90
       50
176
     1
 62
   256
176
     0
 40
1.0
176
     0
 90
        2
176
     1
  1
strokes_ogs.tif
176
     1
290
     0
176
     1
 40
1.0
176
     1
 40
1.0
176
     1
  0
VISUALSTYLE
  5
12F7
102
{ACAD_REACTORS
330
12E8
102
}
330
12E8
100
AcDbVisualStyle
  2
Facepattern
 70
    15
177
     3
291
     1
 70
    58
 90
        2
176
     1
 90
        2
176
     1
 90
        0
176
     1
 90
        0
176
     1
 40
0.6
176
     1
 40
30.0
176
     1
 62
     7
176
     1
 90
        1
176
     1
 90
        4
176
     1
 62
     7
176
     1
 62
   257
176
     1
 90
        1
176
     1
 90
        1
176
     1
 40
1.0
176
     1
 90
        8
176
     1
 62
     7
176
     1
 40
1.0
176
     1
 90
        1
176
     1
 90
        6
176
     1
 90
        2
176
     1
 62
     7
176
     1
 90
        5
176
     1
 90
        0
176
     1
 90
        0
176
     1
290
     0
176
     1
 90
        1
176
     1
 40
0.0
176
     1
 90
        0
176
     1
290
     0
176
     1
290
     1
176
     1
290
     1
176
     1
290
     0
176
     1
290
     0
176
     1
290
     0
176
     1
290
     0
176
     1
290
     0
176
     1
290
     0
176
     1
 90
       50
176
     1
 40
0.0
176
     1
 40
1.0
176
     1
 90
        0
176
     1
 62
    18
420
        0
176
     1
 90
       50
176
     1
 90
        3
176
     1
 62
     5
420
      255
176
     1
290
     0
176
     1
 90
       50
176
     1
 90
       50
176
     1
 90
       50
176
     1
290
     0
176
     1
 90
       50
176
     1
 62
   256
176
     0
 40
1.0
176
     0
 90
        2
176
     1
  1
strokes_ogs.tif
176
     1
290
     0
176
     1
 40
1.0
176
     1
 40
1.0
176
     1
  0
VISUALSTYLE
  5
12E9
102
{ACAD_REACTORS
330
12E8
102
}
330
12E8
100
AcDbVisualStyle
  2
Flat
 70
     0
177
     3
291
     1
 70
    58
 90
        2
176
     1
 90
        1
176
     1
 90
        1
176
     1
 90
        2
176
     1
 40
0.6
176
     1
 40
30.0
176
     1
 62
     7
176
     1
 90
        0
176
     1
 90
        4
176
     1
 62
     7
176
     1
 62
   257
176
     1
 90
        1
176
     1
 90
        1
176
     1
 40
1.0
176
     1
 90
        8
176
     1
 62
     7
176
     1
 40
1.0
176
     1
 90
        1
176
     1
 90
        6
176
     1
 90
        2
176
     1
 62
     7
176
     1
 90
        5
176
     1
 90
        0
176
     1
 90
        0
176
     1
290
     0
176
     1
 90
       13
176
     1
 40
0.0
176
     1
 90
        0
176
     1
290
     0
176
     1
290
     1
176
     1
290
     1
176
     1
290
     0
176
     1
290
     0
176
     1
290
     0
176
     1
290
     0
176
     1
290
     0
176
     1
290
     0
176
     1
 90
       50
176
     1
 40
0.0
176
     1
 40
1.0
176
     1
 90
        0
176
     1
 62
    18
420
        0
176
     1
 90
       50
176
     1
 90
        3
176
     1
 62
     5
420
      255
176
     1
290
     0
176
     1
 90
       50
176
     1
 90
       50
176
     1
 90
       50
176
     1
290
     0
176
     1
 90
       50
176
     1
 62
   256
176
     0
 40
1.0
176
     0
 90
        2
176
     1
  1
strokes_ogs.tif
176
     1
290
     0
176
     1
 40
1.0
176
     1
 40
1.0
176
     1
  0
VISUALSTYLE
  5
12EA
102
{ACAD_REACTORS
330
12E8
102
}
330
12E8
100
AcDbVisualStyle
  2
FlatWithEdges
 70
     1
177
     3
291
     1
 70
    58
 90
        2
176
     1
 90
        1
176
     1
 90
        1
176
     1
 90
        2
176
     1
 40
0.6
176
     1
 40
30.0
176
     1
 62
     7
176
     1
 90
        1
176
     1
 90
        4
176
     1
 62
     7
176
     1
 62
   257
176
     1
 90
        1
176
     1
 90
        1
176
     1
 40
1.0
176
     1
 90
        0
176
     1
 62
   257
176
     1
 40
1.0
176
     1
 90
        1
176
     1
 90
        6
176
     1
 90
        2
176
     1
 62
     7
176
     1
 90
        5
176
     1
 90
        0
176
     1
 90
        0
176
     1
290
     0
176
     1
 90
       13
176
     1
 40
0.0
176
     1
 90
        0
176
     1
290
     0
176
     1
290
     1
176
     1
290
     1
176
     1
290
     0
176
     1
290
     0
176
     1
290
     0
176
     1
290
     0
176
     1
290
     0
176
     1
290
     0
176
     1
 90
       50
176
     1
 40
0.0
176
     1
 40
1.0
176
     1
 90
        0
176
     1
 62
    18
420
        0
176
     1
 90
       50
176
     1
 90
        3
176
     1
 62
     5
420
      255
176
     1
290
     0
176
     1
 90
       50
176
     1
 90
       50
176
     1
 90
       50
176
     1
290
     0
176
     1
 90
       50
176
     1
 62
   256
176
     0
 40
1.0
176
     0
 90
        2
176
     1
  1
strokes_ogs.tif
176
     1
290
     0
176
     1
 40
1.0
176
     1
 40
1.0
176
     1
  0
VISUALSTYLE
  5
12EB
102
{ACAD_REACTORS
330
12E8
102
}
330
12E8
100
AcDbVisualStyle
  2
Gouraud
 70
     2
177
     3
291
     1
 70
    58
 90
        2
176
     1
 90
        2
176
     1
 90
        1
176
     1
 90
        2
176
     1
 40
0.6
176
     1
 40
30.0
176
     1
 62
     7
176
     1
 90
        0
176
     1
 90
        4
176
     1
 62
     7
176
     1
 62
   257
176
     1
 90
        1
176
     1
 90
        1
176
     1
 40
1.0
176
     1
 90
        0
176
     1
 62
     7
176
     1
 40
1.0
176
     1
 90
        1
176
     1
 90
        6
176
     1
 90
        2
176
     1
 62
     7
176
     1
 90
        5
176
     1
 90
        0
176
     1
 90
        0
176
     1
290
     0
176
     1
 90
       13
176
     1
 40
0.0
176
     1
 90
        0
176
     1
290
     0
176
     1
290
     1
176
     1
290
     1
176
     1
290
     0
176
     1
290
     0
176
     1
290
     0
176
     1
290
     0
176
     1
290
     0
176
     1
290
     0
176
     1
 90
       50
176
     1
 40
0.0
176
     1
 40
1.0
176
     1
 90
        0
176
     1
 62
    18
420
        0
176
     1
 90
       50
176
     1
 90
        3
176
     1
 62
     5
420
      255
176
     1
290
     0
176
     1
 90
       50
176
     1
 90
       50
176
     1
 90
       50
176
     1
290
     0
176
     1
 90
       50
176
     1
 62
   256
176
     0
 40
1.0
176
     0
 90
        2
176
     1
  1
strokes_ogs.tif
176
     1
290
     0
176
     1
 40
1.0
176
     1
 40
1.0
176
     1
  0
VISUALSTYLE
  5
12EC
102
{ACAD_REACTORS
330
12E8
102
}
330
12E8
100
AcDbVisualStyle
  2
GouraudWithEdges
 70
     3
177
     3
291
     1
 70
    58
 90
        2
176
     1
 90
        2
176
     1
 90
        1
176
     1
 90
        2
176
     1
 40
0.6
176
     1
 40
30.0
176
     1
 62
     7
176
     1
 90
        1
176
     1
 90
        4
176
     1
 62
     7
176
     1
 62
   257
176
     1
 90
        1
176
     1
 90
        1
176
     1
 40
1.0
176
     1
 90
        0
176
     1
 62
   257
176
     1
 40
1.0
176
     1
 90
        1
176
     1
 90
        6
176
     1
 90
        2
176
     1
 62
     7
176
     1
 90
        5
176
     1
 90
        0
176
     1
 90
        0
176
     1
290
     0
176
     1
 90
       13
176
     1
 40
0.0
176
     1
 90
        0
176
     1
290
     0
176
     1
290
     1
176
     1
290
     1
176
     1
290
     0
176
     1
290
     0
176
     1
290
     0
176
     1
290
     0
176
     1
290
     0
176
     1
290
     0
176
     1
 90
       50
176
     1
 40
0.0
176
     1
 40
1.0
176
     1
 90
        0
176
     1
 62
    18
420
        0
176
     1
 90
       50
176
     1
 90
        3
176
     1
 62
     5
420
      255
176
     1
290
     0
176
     1
 90
       50
176
     1
 90
       50
176
     1
 90
       50
176
     1
290
     0
176
     1
 90
       50
176
     1
 62
   256
176
     0
 40
1.0
176
     0
 90
        2
176
     1
  1
strokes_ogs.tif
176
     1
290
     0
176
     1
 40
1.0
176
     1
 40
1.0
176
     1
  0
VISUALSTYLE
  5
4665
102
{ACAD_REACTORS
330
12E8
102
}
330
12E8
100
AcDbVisualStyle
  2
Hidden
 70
     6
177
     3
291
     0
 70
    58
 90
        1
176
     1
 90
        2
176
     1
 90
        2
176
     1
 90
        0
176
     1
 40
0.6
176
     1
 40
30.0
176
     1
 62
     7
420
 16777215
176
     1
 90
        2
176
     1
 90
        2
176
     1
 62
     7
176
     1
 62
   257
176
     1
 90
        2
176
     1
 90
        1
176
     1
 40
40.0
176
     1
 90
        0
176
     1
 62
   257
176
     1
 40
1.0
176
     1
 90
        1
176
     1
 90
        6
176
     1
 90
        2
176
     1
 62
     7
176
     1
 90
        3
176
     1
 90
        0
176
     1
 90
        0
176
     1
290
     0
176
     1
 90
        1
176
     1
 40
0.0
176
     1
 90
        0
176
     1
290
     0
176
     1
290
     1
176
     1
290
     1
176
     1
290
     0
176
     1
290
     0
176
     1
290
     0
176
     1
290
     0
176
     1
290
     0
176
     1
290
     0
176
     1
 90
       50
176
     1
 40
0.0
176
     1
 40
1.0
176
     1
 90
        0
176
     1
 62
    18
420
        0
176
     1
 90
       50
176
     1
 90
        3
176
     1
 62
     5
420
      255
176
     1
290
     0
176
     1
 90
       50
176
     1
 90
       50
176
     1
 90
       50
176
     1
290
     0
176
     1
 90
       50
176
     1
 62
   256
176
     0
 40
1.0
176
     0
 90
        2
176
     1
  1
strokes_ogs.tif
176
     1
290
     0
176
     1
 40
1.0
176
     1
 40
1.0
176
     1
  0
VISUALSTYLE
  5
12F9
102
{ACAD_REACTORS
330
12E8
102
}
330
12E8
100
AcDbVisualStyle
  2
JitterOff
 70
    20
177
     3
291
     1
 70
    58
 90
        2
176
     0
 90
        2
176
     0
 90
        0
176
     0
 90
        0
176
     0
 40
0.6
176
     0
 40
30.0
176
     0
 62
     7
176
     0
 90
        1
176
     0
 90
        4
176
     0
 62
     7
176
     0
 62
   257
176
     0
 90
        1
176
     0
 90
        1
176
     0
 40
1.0
176
     0
 90
       10
176
     2
 62
     7
176
     0
 40
1.0
176
     0
 90
        1
176
     0
 90
        6
176
     0
 90
        2
176
     0
 62
     7
176
     0
 90
        5
176
     0
 90
        0
176
     0
 90
        0
176
     0
290
     0
176
     0
 90
        1
176
     0
 40
0.0
176
     0
 90
        0
176
     0
290
     0
176
     1
290
     1
176
     1
290
     1
176
     1
290
     0
176
     1
290
     0
176
     1
290
     0
176
     1
290
     0
176
     1
290
     0
176
     1
290
     0
176
     1
 90
       50
176
     1
 40
0.0
176
     1
 40
1.0
176
     1
 90
        0
176
     1
 62
    18
420
        0
176
     1
 90
       50
176
     1
 90
        3
176
     1
 62
     5
420
      255
176
     1
290
     0
176
     1
 90
       50
176
     1
 90
       50
176
     1
 90
       50
176
     1
290
     0
176
     1
 90
       50
176
     1
 62
   256
176
     0
 40
1.0
176
     0
 90
        2
176
     1
  1
strokes_ogs.tif
176
     1
290
     0
176
     1
 40
1.0
176
     1
 40
1.0
176
     1
  0
VISUALSTYLE
  5
12F6
102
{ACAD_REACTORS
330
12E8
102
}
330
12E8
100
AcDbVisualStyle
  2
Linepattern
 70
    14
177
     3
291
     1
 70
    58
 90
        2
176
     1
 90
        2
176
     1
 90
        0
176
     1
 90
        0
176
     1
 40
0.6
176
     1
 40
30.0
176
     1
 62
     7
176
     1
 90
        1
176
     1
 90
        4
176
     1
 62
     7
176
     1
 62
   257
176
     1
 90
        7
176
     1
 90
        7
176
     1
 40
1.0
176
     1
 90
        8
176
     1
 62
     7
176
     1
 40
1.0
176
     1
 90
        1
176
     1
 90
        6
176
     1
 90
        2
176
     1
 62
     7
176
     1
 90
        5
176
     1
 90
        0
176
     1
 90
        0
176
     1
290
     0
176
     1
 90
        1
176
     1
 40
0.0
176
     1
 90
        0
176
     1
290
     0
176
     1
290
     1
176
     1
290
     1
176
     1
290
     0
176
     1
290
     0
176
     1
290
     0
176
     1
290
     0
176
     1
290
     0
176
     1
290
     0
176
     1
 90
       50
176
     1
 40
0.0
176
     1
 40
1.0
176
     1
 90
        0
176
     1
 62
    18
420
        0
176
     1
 90
       50
176
     1
 90
        3
176
     1
 62
     5
420
      255
176
     1
290
     0
176
     1
 90
       50
176
     1
 90
       50
176
     1
 90
       50
176
     1
290
     0
176
     1
 90
       50
176
     1
 62
   256
176
     0
 40
1.0
176
     0
 90
        2
176
     1
  1
strokes_ogs.tif
176
     1
290
     0
176
     1
 40
1.0
176
     1
 40
1.0
176
     1
  0
VISUALSTYLE
  5
12FA
102
{ACAD_REACTORS
330
12E8
102
}
330
12E8
100
AcDbVisualStyle
  2
OverhangOff
 70
    21
177
     3
291
     1
 70
    58
 90
        2
176
     0
 90
        2
176
     0
 90
        0
176
     0
 90
        0
176
     0
 40
0.6
176
     0
 40
30.0
176
     0
 62
     7
176
     0
 90
        1
176
     0
 90
        4
176
     0
 62
     7
176
     0
 62
   257
176
     0
 90
        1
176
     0
 90
        1
176
     0
 40
1.0
176
     0
 90
        9
176
     2
 62
     7
176
     0
 40
1.0
176
     0
 90
        1
176
     0
 90
        6
176
     0
 90
        2
176
     0
 62
     7
176
     0
 90
        5
176
     0
 90
        0
176
     0
 90
        0
176
     0
290
     0
176
     0
 90
        1
176
     0
 40
0.0
176
     0
 90
        0
176
     0
290
     0
176
     1
290
     1
176
     1
290
     1
176
     1
290
     0
176
     1
290
     0
176
     1
290
     0
176
     1
290
     0
176
     1
290
     0
176
     1
290
     0
176
     1
 90
       50
176
     1
 40
0.0
176
     1
 40
1.0
176
     1
 90
        0
176
     1
 62
    18
420
        0
176
     1
 90
       50
176
     1
 90
        3
176
     1
 62
     5
420
      255
176
     1
290
     0
176
     1
 90
       50
176
     1
 90
       50
176
     1
 90
       50
176
     1
290
     0
176
     1
 90
       50
176
     1
 62
   256
176
     0
 40
1.0
176
     0
 90
        2
176
     1
  1
strokes_ogs.tif
176
     1
290
     0
176
     1
 40
1.0
176
     1
 40
1.0
176
     1
  0
VISUALSTYLE
  5
12F2
102
{ACAD_REACTORS
330
12E8
102
}
330
12E8
100
AcDbVisualStyle
  2
Realistic
 70
     8
177
     3
291
     0
 70
    58
 90
        2
176
     1
 90
        2
176
     1
 90
        0
176
     1
 90
        0
176
     1
 40
0.6
176
     1
 40
30.0
176
     1
 62
     7
176
     1
 90
        1
176
     1
 90
        0
176
     1
 62
     7
176
     1
 62
   257
176
     1
 90
        1
176
     1
 90
        1
176
     1
 40
1.0
176
     1
 90
        8
176
     1
 62
     8
176
     1
 40
1.0
176
     1
 90
        1
176
     1
 90
        6
176
     1
 90
        2
176
     1
 62
     7
176
     1
 90
        5
176
     1
 90
        0
176
     1
 90
        0
176
     1
290
     0
176
     1
 90
       13
176
     1
 40
0.0
176
     1
 90
        0
176
     1
290
     0
176
     1
290
     1
176
     1
290
     1
176
     1
290
     0
176
     1
290
     0
176
     1
290
     0
176
     1
290
     0
176
     1
290
     0
176
     1
290
     0
176
     1
 90
       50
176
     1
 40
0.0
176
     1
 40
1.0
176
     1
 90
        0
176
     1
 62
    18
420
        0
176
     1
 90
       50
176
     1
 90
        3
176
     1
 62
     5
420
      255
176
     1
290
     0
176
     1
 90
       50
176
     1
 90
       50
176
     1
 90
       50
176
     1
290
     0
176
     1
 90
       50
176
     1
 62
   256
176
     0
 40
1.0
176
     0
 90
        2
176
     1
  1
strokes_ogs.tif
176
     1
290
     0
176
     1
 40
1.0
176
     1
 40
1.0
176
     1
  0
VISUALSTYLE
  5
466A
102
{ACAD_REACTORS
330
12E8
102
}
330
12E8
100
AcDbVisualStyle
  2
Shaded
 70
    27
177
     3
291
     0
 70
    58
 90
        2
176
     1
 90
        2
176
     1
 90
        1
176
     1
 90
        2
176
     1
 40
0.6
176
     1
 40
30.0
176
     1
 62
     7
420
 16777215
176
     1
 90
        0
176
     1
 90
        4
176
     1
 62
     7
176
     1
 62
   257
176
     1
 90
        1
176
     1
 90
        1
176
     1
 40
1.0
176
     1
 90
        8
176
     1
 62
   257
176
     1
 40
1.0
176
     1
 90
        1
176
     1
 90
        6
176
     1
 90
        2
176
     1
 62
     8
420
  7895160
176
     1
 90
        3
176
     1
 90
        0
176
     1
 90
        0
176
     1
290
     0
176
     1
 90
        5
176
     1
 40
0.0
176
     1
 90
        0
176
     1
290
     0
176
     1
290
     1
176
     1
290
     1
176
     1
290
     0
176
     1
290
     0
176
     1
290
     0
176
     1
290
     0
176
     1
290
     0
176
     1
290
     0
176
     1
 90
       50
176
     1
 40
0.0
176
     1
 40
1.0
176
     1
 90
        0
176
     1
 62
    18
420
        0
176
     1
 90
       50
176
     1
 90
        3
176
     1
 62
     5
420
      255
176
     1
290
     0
176
     1
 90
       50
176
     1
 90
       50
176
     1
 90
       50
176
     1
290
     0
176
     1
 90
       50
176
     1
 62
   256
176
     0
 40
1.0
176
     0
 90
        2
176
     1
  1
strokes_ogs.tif
176
     1
290
     0
176
     1
 40
1.0
176
     1
 40
1.0
176
     1
  0
VISUALSTYLE
  5
4669
102
{ACAD_REACTORS
330
12E8
102
}
330
12E8
100
AcDbVisualStyle
  2
Shaded with edges
 70
    26
177
     3
291
     0
 70
    58
 90
        2
176
     1
 90
        2
176
     1
 90
        1
176
     1
 90
        2
176
     1
 40
0.6
176
     1
 40
30.0
176
     1
 62
     7
420
 16777215
176
     1
 90
        1
176
     1
 90
        2
176
     1
 62
     7
176
     1
 62
   257
176
     1
 90
        2
176
     1
 90
        1
176
     1
 40
1.0
176
     1
 90
        8
176
     1
 62
   257
176
     1
 40
1.0
176
     1
 90
        1
176
     1
 90
        6
176
     1
 90
        2
176
     1
 62
     7
176
     1
 90
        3
176
     1
 90
        0
176
     1
 90
        0
176
     1
290
     0
176
     1
 90
        5
176
     1
 40
0.0
176
     1
 90
        0
176
     1
290
     0
176
     1
290
     1
176
     1
290
     1
176
     1
290
     0
176
     1
290
     0
176
     1
290
     0
176
     1
290
     0
176
     1
290
     0
176
     1
290
     0
176
     1
 90
       50
176
     1
 40
0.0
176
     1
 40
1.0
176
     1
 90
        0
176
     1
 62
    18
420
        0
176
     1
 90
       50
176
     1
 90
        3
176
     1
 62
     5
420
      255
176
     1
290
     0
176
     1
 90
       50
176
     1
 90
       50
176
     1
 90
       50
176
     1
290
     0
176
     1
 90
       50
176
     1
 62
   256
176
     0
 40
1.0
176
     0
 90
        2
176
     1
  1
strokes_ogs.tif
176
     1
290
     0
176
     1
 40
1.0
176
     1
 40
1.0
176
     1
  0
VISUALSTYLE
  5
4666
102
{ACAD_REACTORS
330
12E8
102
}
330
12E8
100
AcDbVisualStyle
  2
Shades of Gray
 70
    23
177
     3
291
     0
 70
    58
 90
        2
176
     1
 90
        2
176
     1
 90
        3
176
     1
 90
        0
176
     1
 40
0.6
176
     1
 40
30.0
176
     1
 62
     7
420
 16777215
176
     1
 90
        2
176
     1
 90
        2
176
     1
 62
     7
176
     1
 62
     7
176
     1
 90
        1
176
     1
 90
        1
176
     1
 40
40.0
176
     1
 90
        8
176
     1
 62
     7
176
     1
 40
1.0
176
     1
 90
        1
176
     1
 90
        6
176
     1
 90
        2
176
     1
 62
     7
176
     1
 90
        3
176
     1
 90
        0
176
     1
 90
        0
176
     1
290
     0
176
     1
 90
        1
176
     1
 40
0.0
176
     1
 90
        0
176
     1
290
     0
176
     1
290
     1
176
     1
290
     1
176
     1
290
     0
176
     1
290
     0
176
     1
290
     0
176
     1
290
     0
176
     1
290
     0
176
     1
290
     0
176
     1
 90
       50
176
     1
 40
0.0
176
     1
 40
1.0
176
     1
 90
        0
176
     1
 62
    18
420
        0
176
     1
 90
       50
176
     1
 90
        3
176
     1
 62
     5
420
      255
176
     1
290
     0
176
     1
 90
       50
176
     1
 90
       50
176
     1
 90
       50
176
     1
290
     0
176
     1
 90
       50
176
     1
 62
   256
176
     0
 40
1.0
176
     0
 90
        2
176
     1
  1
strokes_ogs.tif
176
     1
290
     0
176
     1
 40
1.0
176
     1
 40
1.0
176
     1
  0
VISUALSTYLE
  5
4667
102
{ACAD_REACTORS
330
12E8
102
}
330
12E8
100
AcDbVisualStyle
  2
Sketchy
 70
    24
177
     3
291
     0
 70
    58
 90
        1
176
     1
 90
        2
176
     1
 90
        2
176
     1
 90
        0
176
     1
 40
0.6
176
     1
 40
30.0
176
     1
 62
     7
420
 16777215
176
     1
 90
        2
176
     1
 90
        2
176
     1
 62
     7
176
     1
 62
     7
176
     1
 90
        1
176
     1
 90
        1
176
     1
 40
40.0
176
     1
 90
       11
176
     1
 62
     7
176
     1
 40
1.0
176
     1
 90
        1
176
     1
 90
        6
176
     1
 90
        2
176
     1
 62
     7
176
     1
 90
        6
176
     1
 90
        0
176
     1
 90
        0
176
     1
290
     0
176
     1
 90
        1
176
     1
 40
0.0
176
     1
 90
        0
176
     1
290
     0
176
     1
290
     1
176
     1
290
     1
176
     1
290
     0
176
     1
290
     0
176
     1
290
     0
176
     1
290
     0
176
     1
290
     0
176
     1
290
     0
176
     1
 90
       50
176
     1
 40
0.0
176
     1
 40
1.0
176
     1
 90
        0
176
     1
 62
    18
420
        0
176
     1
 90
       50
176
     1
 90
        3
176
     1
 62
     5
420
      255
176
     1
290
     0
176
     1
 90
       50
176
     1
 90
       50
176
     1
 90
       50
176
     1
290
     0
176
     1
 90
       50
176
     1
 62
   256
176
     0
 40
1.0
176
     0
 90
        2
176
     1
  1
strokes_ogs.tif
176
     1
290
     0
176
     1
 40
1.0
176
     1
 40
1.0
176
     1
  0
VISUALSTYLE
  5
12F5
102
{ACAD_REACTORS
330
12E8
102
}
330
12E8
100
AcDbVisualStyle
  2
Thicken
 70
    13
177
     3
291
     1
 70
    58
 90
        2
176
     1
 90
        2
176
     1
 90
        0
176
     1
 90
        0
176
     1
 40
0.6
176
     1
 40
30.0
176
     1
 62
     7
176
     1
 90
        1
176
     1
 90
        4
176
     1
 62
     7
176
     1
 62
   257
176
     1
 90
        1
176
     1
 90
        1
176
     1
 40
1.0
176
     1
 90
       12
176
     1
 62
     7
176
     1
 40
1.0
176
     1
 90
        1
176
     1
 90
        6
176
     1
 90
        2
176
     1
 62
     7
176
     1
 90
        5
176
     1
 90
        0
176
     1
 90
        0
176
     1
290
     0
176
     1
 90
        1
176
     1
 40
0.0
176
     1
 90
        0
176
     1
290
     0
176
     1
290
     1
176
     1
290
     1
176
     1
290
     0
176
     1
290
     0
176
     1
290
     0
176
     1
290
     0
176
     1
290
     0
176
     1
290
     0
176
     1
 90
       50
176
     1
 40
0.0
176
     1
 40
1.0
176
     1
 90
        0
176
     1
 62
    18
420
        0
176
     1
 90
       50
176
     1
 90
        3
176
     1
 62
     5
420
      255
176
     1
290
     0
176
     1
 90
       50
176
     1
 90
       50
176
     1
 90
       50
176
     1
290
     0
176
     1
 90
       50
176
     1
 62
   256
176
     0
 40
1.0
176
     0
 90
        2
176
     1
  1
strokes_ogs.tif
176
     1
290
     0
176
     1
 40
1.0
176
     1
 40
1.0
176
     1
  0
VISUALSTYLE
  5
4664
102
{ACAD_REACTORS
330
12E8
102
}
330
12E8
100
AcDbVisualStyle
  2
Wireframe
 70
     5
177
     3
291
     0
 70
    58
 90
        0
176
     1
 90
        2
176
     1
 90
        0
176
     1
 90
        0
176
     1
 40
0.6
176
     1
 40
30.0
176
     1
 62
     7
420
 16777215
176
     1
 90
        1
176
     1
 90
        4
176
     1
 62
     7
176
     1
 62
   257
176
     1
 90
        1
176
     1
 90
        1
176
     1
 40
1.0
176
     1
 90
        0
176
     1
 62
   257
176
     1
 40
1.0
176
     1
 90
        1
176
     1
 90
        6
176
     1
 90
        2
176
     1
 62
     7
176
     1
 90
        3
176
     1
 90
        0
176
     1
 90
        0
176
     1
290
     0
176
     1
 90
        1
176
     1
 40
0.0
176
     1
 90
        0
176
     1
290
     0
176
     1
290
     1
176
     1
290
     1
176
     1
290
     0
176
     1
290
     0
176
     1
290
     0
176
     1
290
     0
176
     1
290
     0
176
     1
290
     0
176
     1
 90
       50
176
     1
 40
0.0
176
     1
 40
1.0
176
     1
 90
        0
176
     1
 62
    18
420
        0
176
     1
 90
       50
176
     1
 90
        3
176
     1
 62
     5
420
      255
176
     1
290
     0
176
     1
 90
       50
176
     1
 90
       50
176
     1
 90
       50
176
     1
290
     0
176
     1
 90
       50
176
     1
 62
   256
176
     0
 40
1.0
176
     0
 90
        2
176
     1
  1
strokes_ogs.tif
176
     1
290
     0
176
     1
 40
1.0
176
     1
 40
1.0
176
     1
  0
VISUALSTYLE
  5
4668
102
{ACAD_REACTORS
330
12E8
102
}
330
12E8
100
AcDbVisualStyle
  2
X-Ray
 70
    25
177
     3
291
     0
 70
    58
 90
        2
176
     1
 90
        2
176
     1
 90
        1
176
     1
 90
        1
176
     1
 40
0.5
176
     1
 40
30.0
176
     1
 62
     7
420
 16777215
176
     1
 90
        1
176
     1
 90
        0
176
     1
 62
     7
176
     1
 62
   257
176
     1
 90
        1
176
     1
 90
        1
176
     1
 40
1.0
176
     1
 90
        8
176
     1
 62
     7
176
     1
 40
1.0
176
     1
 90
        1
176
     1
 90
        6
176
     1
 90
        2
176
     1
 62
     7
176
     1
 90
        3
176
     1
 90
        0
176
     1
 90
        0
176
     1
290
     0
176
     1
 90
       13
176
     1
 40
0.0
176
     1
 90
        0
176
     1
290
     0
176
     1
290
     1
176
     1
290
     1
176
     1
290
     0
176
     1
290
     0
176
     1
290
     0
176
     1
290
     0
176
     1
290
     0
176
     1
290
     0
176
     1
 90
       50
176
     1
 40
0.0
176
     1
 40
1.0
176
     1
 90
        0
176
     1
 62
    18
420
        0
176
     1
 90
       50
176
     1
 90
        3
176
     1
 62
     5
420
      255
176
     1
290
     0
176
     1
 90
       50
176
     1
 90
       50
176
     1
 90
       50
176
     1
290
     0
176
     1
 90
       50
176
     1
 62
   256
176
     0
 40
1.0
176
     0
 90
        2
176
     1
  1
strokes_ogs.tif
176
     1
290
     0
176
     1
 40
1.0
176
     1
 40
1.0
176
     1
  0
DICTIONARYVAR
  5
13FA
102
{ACAD_REACTORS
330
13F7
102
}
330
13F7
100
DictionaryVariables
280
     0
  1
1:1
  0
DICTIONARYVAR
  5
13F9
102
{ACAD_REACTORS
330
13F7
102
}
330
13F7
100
DictionaryVariables
280
     0
  1
STANDARD
  0
DICTIONARYVAR
  5
13F8
102
{ACAD_REACTORS
330
13F7
102
}
330
13F7
100
DictionaryVariables
280
     0
  1
STANDARD
  0
DICTIONARYVAR
  5
46DD
102
{ACAD_REACTORS
330
13F7
102
}
330
13F7
100
DictionaryVariables
280
     0
  1
Metric50
  0
DICTIONARYVAR
  5
46DE
102
{ACAD_REACTORS
330
13F7
102
}
330
13F7
100
DictionaryVariables
280
     0
  1
Metric50
  0
DICTIONARYVAR
  5
13FD
102
{ACAD_REACTORS
330
13F7
102
}
330
13F7
100
DictionaryVariables
280
     0
  1
1
  0
DICTIONARYVAR
  5
13FC
102
{ACAD_REACTORS
330
13F7
102
}
330
13F7
100
DictionaryVariables
280
     0
  1
0
  0
DICTIONARYVAR
  5
46E1
102
{ACAD_REACTORS
330
13F7
102
}
330
13F7
100
DictionaryVariables
280
     0
  1
1
  0
DICTIONARYVAR
  5
46E2
102
{ACAD_REACTORS
330
13F7
102
}
330
13F7
100
DictionaryVariables
280
     0
  1
15
  0
DICTIONARYVAR
  5
46E0
102
{ACAD_REACTORS
330
13F7
102
}
330
13F7
100
DictionaryVariables
280
     0
  1
0
  0
DICTIONARYVAR
  5
46DF
102
{ACAD_REACTORS
330
13F7
102
}
330
13F7
100
DictionaryVariables
280
     0
  1
0
  0
DICTIONARYVAR
  5
13FB
102
{ACAD_REACTORS
330
13F7
102
}
330
13F7
100
DictionaryVariables
280
     0
  1
127
  0
DICTIONARY
  5
46E6
330
466F
100
AcDbDictionary
280
     1
281
     1
  3
ACAD_XREC_ROUNDTRIP
360
46E7
  0
DICTIONARY
  5
12D9
330
12D8
100
AcDbDictionary
280
     1
281
     1
  3
BUMPTILE
360
12DB
  3
DIFFUSETILE
360
12DA
  3
OPACITYTILE
360
12DE
  3
REFLECTIONTILE
360
12DD
  3
REFRACTIONTILE
360
12DF
  3
SPECULARTILE
360
12DC
  0
DICTIONARY
  5
12D1
330
12D0
100
AcDbDictionary
280
     1
281
     1
  3
BUMPTILE
360
12D3
  3
DIFFUSETILE
360
12D2
  3
OPACITYTILE
360
12D6
  3
REFLECTIONTILE
360
12D5
  3
REFRACTIONTILE
360
12D7
  3
SPECULARTILE
360
12D4
  0
DICTIONARY
  5
12E1
330
12E0
100
AcDbDictionary
280
     1
281
     1
  3
BUMPTILE
360
12E3
  3
DIFFUSETILE
360
12E2
  3
OPACITYTILE
360
12E6
  3
REFLECTIONTILE
360
12E5
  3
REFRACTIONTILE
360
12E7
  3
SPECULARTILE
360
12E4
  0
DICTIONARY
  5
46E4
330
466D
100
AcDbDictionary
280
     1
281
     1
  3
ACAD_XREC_ROUNDTRIP
360
46E5
  0
DICTIONARY
  5
1319
330
12FE
100
AcDbDictionary
280
     1
281
     1
  3
ACAD_ROUNDTRIP_2008_TABLESTYLE_CELLSTYLEMAP
360
46E3
  0
XRECORD
  5
46E7
102
{ACAD_REACTORS
330
46E6
102
}
330
46E6
100
AcDbXrecord
280
     1
102
DISPLAYNAME
  1
Metric50
102
FLAGS
 90
        0
  0
XRECORD
  5
12DB
102
{ACAD_REACTORS
330
12D9
102
}
330
12D9
100
AcDbXrecord
280
     1
270
     1
271
     1
  0
XRECORD
  5
12DA
102
{ACAD_REACTORS
330
12D9
102
}
330
12D9
100
AcDbXrecord
280
     1
270
     1
271
     1
  0
XRECORD
  5
12DE
102
{ACAD_REACTORS
330
12D9
102
}
330
12D9
100
AcDbXrecord
280
     1
270
     1
271
     1
  0
XRECORD
  5
12DD
102
{ACAD_REACTORS
330
12D9
102
}
330
12D9
100
AcDbXrecord
280
     1
270
     1
271
     1
  0
XRECORD
  5
12DF
102
{ACAD_REACTORS
330
12D9
102
}
330
12D9
100
AcDbXrecord
280
     1
270
     1
271
     1
  0
XRECORD
  5
12DC
102
{ACAD_REACTORS
330
12D9
102
}
330
12D9
100
AcDbXrecord
280
     1
270
     1
271
     1
  0
XRECORD
  5
12D3
102
{ACAD_REACTORS
330
12D1
102
}
330
12D1
100
AcDbXrecord
280
     1
270
     1
271
     1
  0
XRECORD
  5
12D2
102
{ACAD_REACTORS
330
12D1
102
}
330
12D1
100
AcDbXrecord
280
     1
270
     1
271
     1
  0
XRECORD
  5
12D6
102
{ACAD_REACTORS
330
12D1
102
}
330
12D1
100
AcDbXrecord
280
     1
270
     1
271
     1
  0
XRECORD
  5
12D5
102
{ACAD_REACTORS
330
12D1
102
}
330
12D1
100
AcDbXrecord
280
     1
270
     1
271
     1
  0
XRECORD
  5
12D7
102
{ACAD_REACTORS
330
12D1
102
}
330
12D1
100
AcDbXrecord
280
     1
270
     1
271
     1
  0
XRECORD
  5
12D4
102
{ACAD_REACTORS
330
12D1
102
}
330
12D1
100
AcDbXrecord
280
     1
270
     1
271
     1
  0
XRECORD
  5
12E3
102
{ACAD_REACTORS
330
12E1
102
}
330
12E1
100
AcDbXrecord
280
     1
270
     1
271
     1
  0
XRECORD
  5
12E2
102
{ACAD_REACTORS
330
12E1
102
}
330
12E1
100
AcDbXrecord
280
     1
270
     1
271
     1
  0
XRECORD
  5
12E6
102
{ACAD_REACTORS
330
12E1
102
}
330
12E1
100
AcDbXrecord
280
     1
270
     1
271
     1
  0
XRECORD
  5
12E5
102
{ACAD_REACTORS
330
12E1
102
}
330
12E1
100
AcDbXrecord
280
     1
270
     1
271
     1
  0
XRECORD
  5
12E7
102
{ACAD_REACTORS
330
12E1
102
}
330
12E1
100
AcDbXrecord
280
     1
270
     1
271
     1
  0
XRECORD
  5
12E4
102
{ACAD_REACTORS
330
12E1
102
}
330
12E1
100
AcDbXrecord
280
     1
270
     1
271
     1
  0
XRECORD
  5
46E5
102
{ACAD_REACTORS
330
46E4
102
}
330
46E4
100
AcDbXrecord
280
     1
102
DISPLAYNAME
  1
Metric50
102
FLAGS
 90
        0
  0
CELLSTYLEMAP
  5
46E3
102
{ACAD_REACTORS
330
1319
102
}
330
1319
100
AcDbCellStyleMap
 90
        3
300
CELLSTYLE
  1
TABLEFORMAT_BEGIN
 90
        5
170
     1
 91
        0
 92
    32768
 62
   257
 93
        1
300
CONTENTFORMAT
  1
CONTENTFORMAT_BEGIN
 90
        0
 91
        0
 92
      512
 93
        0
300

 40
0.0
140
1.0
 94
        5
 62
     0
340
11
144
6.0
309
CONTENTFORMAT_END
171
     1
301
MARGIN
  1
CELLMARGIN_BEGIN
 40
1.5
 40
1.5
 40
1.5
 40
1.5
 40
0.18
 40
0.18
309
CELLMARGIN_END
 94
        6
 95
        1
302
GRIDFORMAT
  1
GRIDFORMAT_BEGIN
 90
        0
 91
        1
 62
     0
 92
       -2
340
0
 93
        0
 40
1.125
309
GRIDFORMAT_END
 95
        2
302
GRIDFORMAT
  1
GRIDFORMAT_BEGIN
 90
        0
 91
        1
 62
     0
 92
       -2
340
0
 93
        0
 40
1.125
309
GRIDFORMAT_END
 95
        4
302
GRIDFORMAT
  1
GRIDFORMAT_BEGIN
 90
        0
 91
        1
 62
     0
 92
       -2
340
0
 93
        0
 40
1.125
309
GRIDFORMAT_END
 95
        8
302
GRIDFORMAT
  1
GRIDFORMAT_BEGIN
 90
        0
 91
        1
 62
     0
 92
       -2
340
0
 93
        0
 40
1.125
309
GRIDFORMAT_END
 95
       16
302
GRIDFORMAT
  1
GRIDFORMAT_BEGIN
 90
        0
 91
        1
 62
     0
 92
       -2
340
0
 93
        0
 40
1.125
309
GRIDFORMAT_END
 95
       32
302
GRIDFORMAT
  1
GRIDFORMAT_BEGIN
 90
        0
 91
        1
 62
     0
 92
       -2
340
0
 93
        0
 40
1.125
309
GRIDFORMAT_END
309
TABLEFORMAT_END
  1
CELLSTYLE_BEGIN
 90
        1
 91
        1
300
_TITLE
309
CELLSTYLE_END
300
CELLSTYLE
  1
TABLEFORMAT_BEGIN
 90
        5
170
     1
 91
        0
 92
        0
 62
   257
 93
        1
300
CONTENTFORMAT
  1
CONTENTFORMAT_BEGIN
 90
        0
 91
        0
 92
      512
 93
        0
300

 40
0.0
140
1.0
 94
        5
 62
     0
340
11
144
4.5
309
CONTENTFORMAT_END
171
     1
301
MARGIN
  1
CELLMARGIN_BEGIN
 40
1.5
 40
1.5
 40
1.5
 40
1.5
 40
0.18
 40
0.18
309
CELLMARGIN_END
 94
        6
 95
        1
302
GRIDFORMAT
  1
GRIDFORMAT_BEGIN
 90
        0
 91
        1
 62
     0
 92
       -2
340
0
 93
        0
 40
1.125
309
GRIDFORMAT_END
 95
        2
302
GRIDFORMAT
  1
GRIDFORMAT_BEGIN
 90
        0
 91
        1
 62
     0
 92
       -2
340
0
 93
        0
 40
1.125
309
GRIDFORMAT_END
 95
        4
302
GRIDFORMAT
  1
GRIDFORMAT_BEGIN
 90
        0
 91
        1
 62
     0
 92
       -2
340
0
 93
        0
 40
1.125
309
GRIDFORMAT_END
 95
        8
302
GRIDFORMAT
  1
GRIDFORMAT_BEGIN
 90
        0
 91
        1
 62
     0
 92
       -2
340
0
 93
        0
 40
1.125
309
GRIDFORMAT_END
 95
       16
302
GRIDFORMAT
  1
GRIDFORMAT_BEGIN
 90
        0
 91
        1
 62
     0
 92
       -2
340
0
 93
        0
 40
1.125
309
GRIDFORMAT_END
 95
       32
302
GRIDFORMAT
  1
GRIDFORMAT_BEGIN
 90
        0
 91
        1
 62
     0
 92
       -2
340
0
 93
        0
 40
1.125
309
GRIDFORMAT_END
309
TABLEFORMAT_END
  1
CELLSTYLE_BEGIN
 90
        2
 91
        1
300
_HEADER
309
CELLSTYLE_END
300
CELLSTYLE
  1
TABLEFORMAT_BEGIN
 90
        5
170
     1
 91
        0
 92
        0
 62
   257
 93
        1
300
CONTENTFORMAT
  1
CONTENTFORMAT_BEGIN
 90
        0
 91
        0
 92
      512
 93
        0
300

 40
0.0
140
1.0
 94
        2
 62
     0
340
11
144
4.5
309
CONTENTFORMAT_END
171
     1
301
MARGIN
  1
CELLMARGIN_BEGIN
 40
1.5
 40
1.5
 40
1.5
 40
1.5
 40
0.18
 40
0.18
309
CELLMARGIN_END
 94
        6
 95
        1
302
GRIDFORMAT
  1
GRIDFORMAT_BEGIN
 90
        0
 91
        1
 62
     0
 92
       -2
340
0
 93
        0
 40
1.125
309
GRIDFORMAT_END
 95
        2
302
GRIDFORMAT
  1
GRIDFORMAT_BEGIN
 90
        0
 91
        1
 62
     0
 92
       -2
340
0
 93
        0
 40
1.125
309
GRIDFORMAT_END
 95
        4
302
GRIDFORMAT
  1
GRIDFORMAT_BEGIN
 90
        0
 91
        1
 62
     0
 92
       -2
340
0
 93
        0
 40
1.125
309
GRIDFORMAT_END
 95
        8
302
GRIDFORMAT
  1
GRIDFORMAT_BEGIN
 90
        0
 91
        1
 62
     0
 92
       -2
340
0
 93
        0
 40
1.125
309
GRIDFORMAT_END
 95
       16
302
GRIDFORMAT
  1
GRIDFORMAT_BEGIN
 90
        0
 91
        1
 62
     0
 92
       -2
340
0
 93
        0
 40
1.125
309
GRIDFORMAT_END
 95
       32
302
GRIDFORMAT
  1
GRIDFORMAT_BEGIN
 90
        0
 91
        1
 62
     0
 92
       -2
340
0
 93
        0
 40
1.125
309
GRIDFORMAT_END
309
TABLEFORMAT_END
  1
CELLSTYLE_BEGIN
 90
        3
 91
        2
300
_DATA
309
CELLSTYLE_END
  0
ENDSEC
  0
EOF
