  0
SECTION
  2
HEADER
  9
$ACADVER
  1
AC1027
  9
$ACADMAINTVER
 70
   125
  9
$DWGCODEPAGE
  3
ANSI_1252
  9
$LASTSAVEDBY
  1
fleminab
  9
$REQUIREDVERSIONS
160
                 0
  9
$INSBASE
 10
0.0
 20
0.0
 30
0.0
  9
$EXTMIN
 10
657.3357869002607
 20
-2149.184263486112
 30
-0.0000000000000053
  9
$EXTMAX
 10
989.6548558552362
 20
-1951.211245639532
 30
0.0000000000000099
  9
$LIMMIN
 10
0.0
 20
0.0
  9
$LIMMAX
 10
0.0
 20
0.0
  9
$ORTHOMODE
 70
     0
  9
$REGENMODE
 70
     1
  9
$FILLMODE
 70
     1
  9
$QTEXTMODE
 70
     0
  9
$MIRRTEXT
 70
     1
  9
$LTSCALE
 40
5.0
  9
$ATTMODE
 70
     1
  9
$TEXTSIZE
 40
2.5
  9
$TRACEWID
 40
1.0
  9
$TEXTSTYLE
  7
Standard
  9
$CLAYER
  8
0
  9
$CELTYPE
  6
ByLayer
  9
$CECOLOR
 62
   256
  9
$CELTSCALE
 40
0.5
  9
$DISPSILH
 70
     0
  9
$DIMSCALE
 40
1.0
  9
$DIMASZ
 40
5.0
  9
$DIMEXO
 40
0.625
  9
$DIMDLI
 40
3.75
  9
$DIMRND
 40
0.0
  9
$DIMDLE
 40
0.0
  9
$DIMEXE
 40
1.25
  9
$DIMTP
 40
0.0
  9
$DIMTM
 40
0.0
  9
$DIMTXT
 40
6.0
  9
$DIMCEN
 40
2.5
  9
$DIMTSZ
 40
0.0
  9
$DIMTOL
 70
     0
  9
$DIMLIM
 70
     0
  9
$DIMTIH
 70
     0
  9
$DIMTOH
 70
     0
  9
$DIMSE1
 70
     0
  9
$DIMSE2
 70
     0
  9
$DIMTAD
 70
     1
  9
$DIMZIN
 70
     8
  9
$DIMBLK
  1

  9
$DIMASO
 70
     1
  9
$DIMSHO
 70
     1
  9
$DIMPOST
  1

  9
$DIMAPOST
  1

  9
$DIMALT
 70
     0
  9
$DIMALTD
 70
     3
  9
$DIMALTF
 40
0.03937007874016
  9
$DIMLFAC
 40
1.0
  9
$DIMTOFL
 70
     1
  9
$DIMTVP
 40
0.0
  9
$DIMTIX
 70
     0
  9
$DIMSOXD
 70
     0
  9
$DIMSAH
 70
     0
  9
$DIMBLK1
  1

  9
$DIMBLK2
  1

  9
$DIMSTYLE
  2
ISO-25
  9
$DIMCLRD
 70
     0
  9
$DIMCLRE
 70
     0
  9
$DIMCLRT
 70
     0
  9
$DIMTFAC
 40
1.0
  9
$DIMGAP
 40
0.625
  9
$DIMJUST
 70
     0
  9
$DIMSD1
 70
     0
  9
$DIMSD2
 70
     0
  9
$DIMTOLJ
 70
     0
  9
$DIMTZIN
 70
     8
  9
$DIMALTZ
 70
     0
  9
$DIMALTTZ
 70
     0
  9
$DIMUPT
 70
     0
  9
$DIMDEC
 70
     2
  9
$DIMTDEC
 70
     2
  9
$DIMALTU
 70
     2
  9
$DIMALTTD
 70
     3
  9
$DIMTXSTY
  7
Standard
  9
$DIMAUNIT
 70
     0
  9
$DIMADEC
 70
     0
  9
$DIMALTRND
 40
0.0
  9
$DIMAZIN
 70
     0
  9
$DIMDSEP
 70
    46
  9
$DIMATFIT
 70
     3
  9
$DIMFRAC
 70
     0
  9
$DIMLDRBLK
  1

  9
$DIMLUNIT
 70
     2
  9
$DIMLWD
 70
    -2
  9
$DIMLWE
 70
    -2
  9
$DIMTMOVE
 70
     0
  9
$DIMFXL
 40
1.25
  9
$DIMFXLON
 70
     0
  9
$DIMJOGANG
 40
1.570796326794896
  9
$DIMTFILL
 70
     0
  9
$DIMTFILLCLR
 70
     0
  9
$DIMARCSYM
 70
     0
  9
$DIMLTYPE
  6

  9
$DIMLTEX1
  6

  9
$DIMLTEX2
  6

  9
$DIMTXTDIRECTION
 70
     0
  9
$LUNITS
 70
     2
  9
$LUPREC
 70
     4
  9
$SKETCHINC
 40
1.0
  9
$FILLETRAD
 40
1.5
  9
$AUNITS
 70
     0
  9
$AUPREC
 70
     0
  9
$MENU
  1
.
  9
$ELEVATION
 40
0.0
  9
$PELEVATION
 40
0.0
  9
$THICKNESS
 40
0.0
  9
$LIMCHECK
 70
     0
  9
$CHAMFERA
 40
0.5
  9
$CHAMFERB
 40
0.5
  9
$CHAMFERC
 40
20.0
  9
$CHAMFERD
 40
0.0
  9
$SKPOLY
 70
     0
  9
$TDCREATE
 40
2454454.816539352
  9
$TDUCREATE
 40
2454454.358216864
  9
$TDUPDATE
 40
2458225.669687500
  9
$TDUUPDATE
 40
2458225.253020833
  9
$TDINDWG
 40
8.6260736227
  9
$TDUSRTIMER
 40
8.6260736227
  9
$USRTIMER
 70
     1
  9
$ANGBASE
 50
0.0
  9
$ANGDIR
 70
     0
  9
$PDMODE
 70
     0
  9
$PDSIZE
 40
-1.0
  9
$PLINEWID
 40
0.0
  9
$SPLFRAME
 70
     0
  9
$SPLINETYPE
 70
     6
  9
$SPLINESEGS
 70
     8
  9
$HANDSEED
  5
101F0A9
  9
$SURFTAB1
 70
     6
  9
$SURFTAB2
 70
     6
  9
$SURFTYPE
 70
     6
  9
$SURFU
 70
     6
  9
$SURFV
 70
     6
  9
$UCSBASE
  2

  9
$UCSNAME
  2

  9
$UCSORG
 10
0.0
 20
0.0
 30
0.0
  9
$UCSXDIR
 10
1.0
 20
0.0
 30
0.0
  9
$UCSYDIR
 10
0.0
 20
1.0
 30
0.0
  9
$UCSORTHOREF
  2

  9
$UCSORTHOVIEW
 70
     0
  9
$UCSORGTOP
 10
0.0
 20
0.0
 30
0.0
  9
$UCSORGBOTTOM
 10
0.0
 20
0.0
 30
0.0
  9
$UCSORGLEFT
 10
0.0
 20
0.0
 30
0.0
  9
$UCSORGRIGHT
 10
0.0
 20
0.0
 30
0.0
  9
$UCSORGFRONT
 10
0.0
 20
0.0
 30
0.0
  9
$UCSORGBACK
 10
0.0
 20
0.0
 30
0.0
  9
$PUCSBASE
  2

  9
$PUCSNAME
  2

  9
$PUCSORG
 10
0.0
 20
0.0
 30
0.0
  9
$PUCSXDIR
 10
1.0
 20
0.0
 30
0.0
  9
$PUCSYDIR
 10
0.0
 20
1.0
 30
0.0
  9
$PUCSORTHOREF
  2

  9
$PUCSORTHOVIEW
 70
     0
  9
$PUCSORGTOP
 10
0.0
 20
0.0
 30
0.0
  9
$PUCSORGBOTTOM
 10
0.0
 20
0.0
 30
0.0
  9
$PUCSORGLEFT
 10
0.0
 20
0.0
 30
0.0
  9
$PUCSORGRIGHT
 10
0.0
 20
0.0
 30
0.0
  9
$PUCSORGFRONT
 10
0.0
 20
0.0
 30
0.0
  9
$PUCSORGBACK
 10
0.0
 20
0.0
 30
0.0
  9
$USERI1
 70
     0
  9
$USERI2
 70
     0
  9
$USERI3
 70
     0
  9
$USERI4
 70
     0
  9
$USERI5
 70
     0
  9
$USERR1
 40
0.0
  9
$USERR2
 40
0.0
  9
$USERR3
 40
0.0
  9
$USERR4
 40
0.0
  9
$USERR5
 40
2.5
  9
$WORLDVIEW
 70
     1
  9
$SHADEDGE
 70
     3
  9
$SHADEDIF
 70
    70
  9
$TILEMODE
 70
     1
  9
$MAXACTVP
 70
    64
  9
$PINSBASE
 10
0.0
 20
0.0
 30
0.0
  9
$PLIMCHECK
 70
     0
  9
$PEXTMIN
 10
1.000000000000000E+20
 20
1.000000000000000E+20
 30
1.000000000000000E+20
  9
$PEXTMAX
 10
-1.000000000000000E+20
 20
-1.000000000000000E+20
 30
-1.000000000000000E+20
  9
$PLIMMIN
 10
0.0
 20
0.0
  9
$PLIMMAX
 10
420.0
 20
297.0
  9
$UNITMODE
 70
     0
  9
$VISRETAIN
 70
     1
  9
$PLINEGEN
 70
     0
  9
$PSLTSCALE
 70
     1
  9
$TREEDEPTH
 70
  3020
  9
$CMLSTYLE
  2
Standard
  9
$CMLJUST
 70
     0
  9
$CMLSCALE
 40
20.0
  9
$PROXYGRAPHICS
 70
     1
  9
$MEASUREMENT
 70
     1
  9
$CELWEIGHT
370
    -2
  9
$ENDCAPS
280
     0
  9
$JOINSTYLE
280
     0
  9
$LWDISPLAY
290
     0
  9
$INSUNITS
 70
     4
  9
$HYPERLINKBASE
  1

  9
$STYLESHEET
  1
monochrome.ctb
  9
$XEDIT
290
     1
  9
$CEPSNTYPE
380
     0
  9
$PSTYLEMODE
290
     1
  9
$FINGERPRINTGUID
  2
{A12051D7-B147-4678-A729-AB49B70941BD}
  9
$VERSIONGUID
  2
{6A75750E-2667-FD49-83C4-8A70543A8B57}
  9
$EXTNAMES
290
     1
  9
$PSVPSCALE
 40
0.0
  9
$OLESTARTUP
290
     0
  9
$SORTENTS
280
   127
  9
$INDEXCTL
280
     0
  9
$HIDETEXT
280
     0
  9
$XCLIPFRAME
280
     0
  9
$HALOGAP
280
     0
  9
$OBSCOLOR
 70
   257
  9
$OBSLTYPE
280
     0
  9
$INTERSECTIONDISPLAY
280
     0
  9
$INTERSECTIONCOLOR
 70
   257
  9
$DIMASSOC
280
     1
  9
$PROJECTNAME
  1

  9
$CAMERADISPLAY
290
     0
  9
$LENSLENGTH
 40
50.0
  9
$CAMERAHEIGHT
 40
0.0
  9
$STEPSPERSEC
 40
2.0
  9
$STEPSIZE
 40
6.0
  9
$3DDWFPREC
 40
2.0
  9
$PSOLWIDTH
 40
0.25
  9
$PSOLHEIGHT
 40
4.0
  9
$LOFTANG1
 40
1.570796326794896
  9
$LOFTANG2
 40
1.570796326794896
  9
$LOFTMAG1
 40
0.0
  9
$LOFTMAG2
 40
0.0
  9
$LOFTPARAM
 70
     7
  9
$LOFTNORMALS
280
     1
  9
$LATITUDE
 40
37.795
  9
$LONGITUDE
 40
-122.394
  9
$NORTHDIRECTION
 40
0.0
  9
$TIMEZONE
 70
 -8000
  9
$LIGHTGLYPHDISPLAY
280
     1
  9
$TILEMODELIGHTSYNCH
280
     1
  9
$CMATERIAL
347
1D246
  9
$SOLIDHIST
280
     1
  9
$SHOWHIST
280
     1
  9
$DWFFRAME
280
     2
  9
$DGNFRAME
280
     0
  9
$REALWORLDSCALE
290
     1
  9
$INTERFERECOLOR
 62
     1
  9
$INTERFEREOBJVS
345
1D260
  9
$INTERFEREVPVS
346
1D25D
  9
$CSHADOW
280
     0
  9
$SHADOWPLANELOCATION
 40
0.0
  0
ENDSEC
  0
SECTION
  2
CLASSES
  0
CLASS
  1
ACDBDICTIONARYWDFLT
  2
AcDbDictionaryWithDefault
  3
ObjectDBX Classes
 90
        0
 91
        1
280
     0
281
     0
  0
CLASS
  1
TABLESTYLE
  2
AcDbTableStyle
  3
ObjectDBX Classes
 90
     4095
 91
        1
280
     0
281
     0
  0
CLASS
  1
SORTENTSTABLE
  2
AcDbSortentsTable
  3
ObjectDBX Classes
 90
        0
 91
        1
280
     0
281
     0
  0
CLASS
  1
DICTIONARYVAR
  2
AcDbDictionaryVar
  3
ObjectDBX Classes
 90
        0
 91
       18
280
     0
281
     0
  0
CLASS
  1
DIMASSOC
  2
AcDbDimAssoc
  3
"AcDbDimAssoc|Product Desc:     AcDim ARX App For Dimension|Company:          Autodesk, Inc.|WEB Address:      www.autodesk.com"
 90
        0
 91
        0
280
     0
281
     0
  0
CLASS
  1
ARC_DIMENSION
  2
AcDbArcDimension
  3
ObjectDBX Classes
 90
     1025
 91
        0
280
     0
281
     1
  0
CLASS
  1
VLO-VL
  2
vlo_VL
  3
VL|AutoLISP based application
 90
      129
 91
        1
280
     0
281
     0
  0
CLASS
  1
MATERIAL
  2
AcDbMaterial
  3
ObjectDBX Classes
 90
     1153
 91
        3
280
     0
281
     0
  0
CLASS
  1
VISUALSTYLE
  2
AcDbVisualStyle
  3
ObjectDBX Classes
 90
     4095
 91
       26
280
     0
281
     0
  0
CLASS
  1
SCALE
  2
AcDbScale
  3
ObjectDBX Classes
 90
     1153
 91
       17
280
     0
281
     0
  0
CLASS
  1
MLEADERSTYLE
  2
AcDbMLeaderStyle
  3
ACDB_MLEADERSTYLE_CLASS
 90
     4095
 91
        1
280
     0
281
     0
  0
CLASS
  1
CELLSTYLEMAP
  2
AcDbCellStyleMap
  3
ObjectDBX Classes
 90
     1152
 91
        3
280
     0
281
     0
  0
CLASS
  1
ACDBSECTIONVIEWSTYLE
  2
AcDbSectionViewStyle
  3
ObjectDBX Classes
 90
     1025
 91
        1
280
     0
281
     0
  0
CLASS
  1
ACDBDETAILVIEWSTYLE
  2
AcDbDetailViewStyle
  3
ObjectDBX Classes
 90
     1025
 91
        1
280
     0
281
     0
  0
ENDSEC
  0
SECTION
  2
TABLES
  0
TABLE
  2
VPORT
  5
8
102
{ACAD_XDICTIONARY
360
1E3BE
102
}
330
0
100
AcDbSymbolTable
 70
     1
1001
ACAD
1000
DbSaveVer
1071
        5
  0
VPORT
  5
1D244
330
8
100
AcDbSymbolTableRecord
100
AcDbViewportTableRecord
  2
*Active
 70
     0
 10
0.0
 20
0.0
 11
1.0
 21
1.0
 12
823.4953213777485
 22
-2050.197754562823
 13
0.0
 23
0.0
 14
10.0
 24
10.0
 15
10.0
 25
10.0
 16
0.0
 26
0.0
 36
1.0
 17
0.0
 27
0.0
 37
0.0
 40
199.3904857547893
 41
2.292712066905615
 42
50.0
 43
0.0
 44
0.0
 50
0.0
 51
0.0
 71
     0
 72
  2000
 73
     1
 74
     3
 75
     0
 76
     0
 77
     0
 78
     2
281
     0
 65
     1
110
0.0
120
0.0
130
0.0
111
1.0
121
0.0
131
0.0
112
0.0
122
1.0
132
0.0
 79
     0
146
0.0
348
1D25C
 60
     3
 61
     5
292
     1
282
     1
141
0.0
142
0.0
 63
   250
421
  3355443
1001
ACAD_NAV_VCDISPLAY
1070
     3
  0
ENDTAB
  0
TABLE
  2
LTYPE
  5
5
330
0
100
AcDbSymbolTable
 70
     6
  0
LTYPE
  5
14
330
5
100
AcDbSymbolTableRecord
100
AcDbLinetypeTableRecord
  2
ByBlock
 70
     0
  3

 72
    65
 73
     0
 40
0.0
  0
LTYPE
  5
15
330
5
100
AcDbSymbolTableRecord
100
AcDbLinetypeTableRecord
  2
ByLayer
 70
     0
  3

 72
    65
 73
     0
 40
0.0
  0
LTYPE
  5
16
330
5
100
AcDbSymbolTableRecord
100
AcDbLinetypeTableRecord
  2
Continuous
 70
     0
  3
Solid line
 72
    65
 73
     0
 40
0.0
  0
LTYPE
  5
40E
330
5
100
AcDbSymbolTableRecord
100
AcDbLinetypeTableRecord
  2
CENTER2
 70
     0
  3
Center (.5x) ___ _ ___ _ ___ _ ___ _ ___ _ ___
 72
    65
 73
     4
 40
28.575
 49
19.05
 74
     0
 49
-3.174999999999999
 74
     0
 49
3.174999999999999
 74
     0
 49
-3.174999999999999
 74
     0
  0
LTYPE
  5
1ADDC
330
5
100
AcDbSymbolTableRecord
100
AcDbLinetypeTableRecord
  2
CENTER
 70
     0
  3
Center ____ _ ____ _ ____ _ ____ _ ____ _ ____
 72
    65
 73
     4
 40
50.8
 49
31.75
 74
     0
 49
-6.349999999999999
 74
     0
 49
6.349999999999999
 74
     0
 49
-6.349999999999999
 74
     0
  0
LTYPE
  5
1C3BF
330
5
100
AcDbSymbolTableRecord
100
AcDbLinetypeTableRecord
  2
HIDDEN
 70
     0
  3
- - - - - - - - - - - - - - - - - - - -
 72
    65
 73
     2
 40
0.2
 49
0.1
 74
     0
 49
-0.1
 74
     0
  0
LTYPE
  5
1E0D9
330
5
100
AcDbSymbolTableRecord
100
AcDbLinetypeTableRecord
  2
DASHED2
 70
     0
  3
Dashed (.5x) _ _ _ _ _ _ _ _ _ _ _ _ _ _ _ _ _
 72
    65
 73
     2
 40
9.524999999999998
 49
6.349999999999999
 74
     0
 49
-3.174999999999999
 74
     0
  0
ENDTAB
  0
TABLE
  2
LAYER
  5
2
102
{ACAD_XDICTIONARY
360
411
102
}
330
0
100
AcDbSymbolTable
 70
    10
  0
LAYER
  5
10
102
{ACAD_XDICTIONARY
360
1D4B7
102
}
330
2
100
AcDbSymbolTableRecord
100
AcDbLayerTableRecord
  2
0
 70
     0
 62
     7
  6
Continuous
370
    50
390
F
347
1B62A
348
0
  0
LAYER
  5
20A
330
2
100
AcDbSymbolTableRecord
100
AcDbLayerTableRecord
  2
Defpoints
 70
     0
 62
     7
  6
Continuous
290
     0
370
    -3
390
F
347
1B62A
348
0
  0
LAYER
  5
40A
102
{ACAD_XDICTIONARY
360
1D4B9
102
}
330
2
100
AcDbSymbolTableRecord
100
AcDbLayerTableRecord
  2
中心线
 70
     0
 62
     1
  6
CENTER2
370
    -3
390
F
347
1B62A
348
0
1001
AcAecLayerStandard
1000

1000

1001
AcadStringInfo
1000
MIFCodePage
1070
     5
  0
LAYER
  5
CAF2
102
{ACAD_XDICTIONARY
360
1D4C5
102
}
330
2
100
AcDbSymbolTableRecord
100
AcDbLayerTableRecord
  2
图层7
 70
     0
 62
     7
  6
Continuous
370
    15
390
F
347
1B62A
348
0
1001
AcadStringInfo
1000
MIFCodePage
1070
     5
  0
LAYER
  5
1ADDE
102
{ACAD_XDICTIONARY
360
1D4C7
102
}
330
2
100
AcDbSymbolTableRecord
100
AcDbLayerTableRecord
  2
图层1
 70
     0
 62
     1
  6
CENTER
370
     9
390
F
347
1B62A
348
0
1001
AcadStringInfo
1000
MIFCodePage
1070
     5
  0
LAYER
  5
1C3C0
102
{ACAD_XDICTIONARY
360
1D4CD
102
}
330
2
100
AcDbSymbolTableRecord
100
AcDbLayerTableRecord
  2
DEFAULT_2
 70
     0
 62
     8
  6
HIDDEN
370
    -3
390
F
347
1B62A
348
0
  0
LAYER
  5
1C3C1
102
{ACAD_XDICTIONARY
360
1D4CF
102
}
330
2
100
AcDbSymbolTableRecord
100
AcDbLayerTableRecord
  2
02___PRT_ALL_AXES
 70
     0
 62
     7
  6
Continuous
370
    -3
390
F
347
1B62A
348
0
  0
LAYER
  5
1E0DA
102
{ACAD_XDICTIONARY
360
1E0DB
102
}
330
2
100
AcDbSymbolTableRecord
100
AcDbLayerTableRecord
  2
图层2
 70
     0
 62
     1
  6
CENTER2
370
     9
390
F
347
1B62A
348
0
1001
AcadStringInfo
1000
MIFCodePage
1070
     5
  0
LAYER
  5
1E0DC
102
{ACAD_XDICTIONARY
360
1E0DD
102
}
330
2
100
AcDbSymbolTableRecord
100
AcDbLayerTableRecord
  2
图层3
 70
     0
 62
     3
  6
DASHED2
370
    15
390
F
347
1B62A
348
0
1001
AcadStringInfo
1000
MIFCodePage
1070
     5
  0
LAYER
  5
1E0DE
102
{ACAD_XDICTIONARY
360
1E0DF
102
}
330
2
100
AcDbSymbolTableRecord
100
AcDbLayerTableRecord
  2
图层4
 70
     0
 62
     5
  6
Continuous
370
    15
390
F
347
1B62A
348
0
1001
AcadStringInfo
1000
MIFCodePage
1070
     5
  0
ENDTAB
  0
TABLE
  2
STYLE
  5
3
330
0
100
AcDbSymbolTable
 70
     2
  0
STYLE
  5
11
330
3
100
AcDbSymbolTableRecord
100
AcDbTextStyleTableRecord
  2
Standard
 70
     0
 40
0.0
 41
1.0
 50
0.0
 71
     0
 42
2.5
  3
times.ttf
  4

1001
ACAD
1000
Times New Roman
1071
       18
  0
STYLE
  5
281F
330
3
100
AcDbSymbolTableRecord
100
AcDbTextStyleTableRecord
  2
样式 1
 70
     0
 40
2.5
 41
1.0
 50
0.0
 71
     0
 42
2.5
  3

  4

1001
ACAD
1000
SimSun
1071
    34306
1001
AcadStringInfo
1000
MIFCodePage
1070
     5
  0
ENDTAB
  0
TABLE
  2
VIEW
  5
6
330
0
100
AcDbSymbolTable
 70
     0
  0
ENDTAB
  0
TABLE
  2
UCS
  5
7
330
0
100
AcDbSymbolTable
 70
     0
  0
ENDTAB
  0
TABLE
  2
APPID
  5
9
330
0
100
AcDbSymbolTable
 70
    24
  0
APPID
  5
12
330
9
100
AcDbSymbolTableRecord
100
AcDbRegAppTableRecord
  2
ACAD
 70
     0
  0
APPID
  5
26F
330
9
100
AcDbSymbolTableRecord
100
AcDbRegAppTableRecord
  2
ACAD_DSTYLE_DIMTEXT_FILL
 70
     0
  0
APPID
  5
270
330
9
100
AcDbSymbolTableRecord
100
AcDbRegAppTableRecord
  2
ACAD_DSTYLE_DIMEXT_LENGTH
 70
     0
  0
APPID
  5
271
330
9
100
AcDbSymbolTableRecord
100
AcDbRegAppTableRecord
  2
ACAD_DSTYLE_DIMEXT_ENABLED
 70
     0
  0
APPID
  5
272
330
9
100
AcDbSymbolTableRecord
100
AcDbRegAppTableRecord
  2
ACAD_DSTYLE_DIM_LINETYPE
 70
     0
  0
APPID
  5
273
330
9
100
AcDbSymbolTableRecord
100
AcDbRegAppTableRecord
  2
ACAD_DSTYLE_DIM_EXT1_LINETYPE
 70
     0
  0
APPID
  5
274
330
9
100
AcDbSymbolTableRecord
100
AcDbRegAppTableRecord
  2
ACAD_DSTYLE_DIM_EXT2_LINETYPE
 70
     0
  0
APPID
  5
330
330
9
100
AcDbSymbolTableRecord
100
AcDbRegAppTableRecord
  2
ACAD_DSTYLE_DIMJOGGED_JOGANGLE_SYMBOL
 70
     0
  0
APPID
  5
3C4
330
9
100
AcDbSymbolTableRecord
100
AcDbRegAppTableRecord
  2
ACAD_DSTYLE_DIMARC_LENGTH_SYMBOL
 70
     0
  0
APPID
  5
3FB
330
9
100
AcDbSymbolTableRecord
100
AcDbRegAppTableRecord
  2
ACAD_EXEMPT_FROM_CAD_STANDARDS
 70
     0
  0
APPID
  5
40B
330
9
100
AcDbSymbolTableRecord
100
AcDbRegAppTableRecord
  2
AcAecLayerStandard
 70
     0
  0
APPID
  5
5D3
330
9
100
AcDbSymbolTableRecord
100
AcDbRegAppTableRecord
  2
ACAD_PSEXT
 70
     0
  0
APPID
  5
AB62
330
9
100
AcDbSymbolTableRecord
100
AcDbRegAppTableRecord
  2
DCO15
 70
     0
  0
APPID
  5
1B627
330
9
100
AcDbSymbolTableRecord
100
AcDbRegAppTableRecord
  2
ACAD_DSTYLE_DIMJAG
 70
     0
  0
APPID
  5
1B628
330
9
100
AcDbSymbolTableRecord
100
AcDbRegAppTableRecord
  2
ACAD_DSTYLE_DIMTALN
 70
     0
  0
APPID
  5
1B629
330
9
100
AcDbSymbolTableRecord
100
AcDbRegAppTableRecord
  2
ACAD_DSTYLE_DIMBREAK
 70
     0
  0
APPID
  5
1D5E0
330
9
100
AcDbSymbolTableRecord
100
AcDbRegAppTableRecord
  2
ACAD_MLEADERVER
 70
     0
  0
APPID
  5
1D8EC
330
9
100
AcDbSymbolTableRecord
100
AcDbRegAppTableRecord
  2
ACAD_DSTYLE_DIMRADIAL_EXTENSION
 70
     0
  0
APPID
  5
1D9D3
330
9
100
AcDbSymbolTableRecord
100
AcDbRegAppTableRecord
  2
ACAD_NAV_VCDISPLAY
 70
     0
  0
APPID
  5
1E024
330
9
100
AcDbSymbolTableRecord
100
AcDbRegAppTableRecord
  2
GradientColor1ACI
 70
     0
  0
APPID
  5
1E025
330
9
100
AcDbSymbolTableRecord
100
AcDbRegAppTableRecord
  2
GradientColor2ACI
 70
     0
  0
APPID
  5
1E757
330
9
100
AcDbSymbolTableRecord
100
AcDbRegAppTableRecord
  2
AcadAnnoPO
 70
     0
  0
APPID
  5
101F066
330
9
100
AcDbSymbolTableRecord
100
AcDbRegAppTableRecord
  2
AcadStringInfo
 70
     0
  0
APPID
  5
101F072
330
9
100
AcDbSymbolTableRecord
100
AcDbRegAppTableRecord
  2
AcadAnnoMonitorAlertIconDisabled
 70
     0
  0
ENDTAB
  0
TABLE
  2
DIMSTYLE
  5
A
330
0
100
AcDbSymbolTable
 70
     1
100
AcDbDimStyleTable
 71
     1
340
27
  0
DIMSTYLE
105
27
102
{ACAD_REACTORS
330
1E759
330
1E789
330
1E7A8
330
1B10D
330
1D6C3
330
1D6CD
330
1E814
330
1E825
330
1E834
102
}
330
A
100
AcDbSymbolTableRecord
100
AcDbDimStyleTableRecord
  2
ISO-25
 70
     0
 41
5.0
 42
0.625
 43
3.75
 44
1.25
 49
1.25
 50
90.0
 73
     0
 74
     0
 77
     1
 78
     8
140
6.0
141
2.5
143
0.03937007874016
147
0.625
171
     3
172
     1
271
     2
272
     2
274
     3
283
     0
284
     8
340
11
1001
ACAD_DSTYLE_DIMJAG
1070
   388
1040
1.5
1001
ACAD_DSTYLE_DIMTALN
1070
   392
1070
     0
1001
ACAD_DSTYLE_DIMJOGGED_JOGANGLE_SYMBOL
1070
   384
1040
1.570796326794896
  0
ENDTAB
  0
TABLE
  2
BLOCK_RECORD
  5
1
330
0
100
AcDbSymbolTable
 70
     9
  0
BLOCK_RECORD
  5
1F
102
{ACAD_XDICTIONARY
360
206
102
}
330
1
100
AcDbSymbolTableRecord
100
AcDbBlockTableRecord
  2
*Model_Space
340
22
 70
     0
280
     1
281
     0
  0
BLOCK_RECORD
  5
1B
330
1
100
AcDbSymbolTableRecord
100
AcDbBlockTableRecord
  2
*Paper_Space
340
1E
 70
     0
280
     1
281
     0
  0
BLOCK_RECORD
  5
23
330
1
100
AcDbSymbolTableRecord
100
AcDbBlockTableRecord
  2
*Paper_Space0
340
26
 70
     0
280
     1
281
     0
  0
BLOCK_RECORD
  5
111D
330
1
100
AcDbSymbolTableRecord
100
AcDbBlockTableRecord
  2
_Open30
340
0
 70
     0
280
     1
281
     0
  0
BLOCK_RECORD
  5
12E9
330
1
100
AcDbSymbolTableRecord
100
AcDbBlockTableRecord
  2
_DotSmall
340
0
 70
     0
280
     1
281
     0
  0
BLOCK_RECORD
  5
1E75A
330
1
100
AcDbSymbolTableRecord
100
AcDbBlockTableRecord
  2
*D3
340
0
 70
     0
280
     1
281
     0
  0
BLOCK_RECORD
  5
1E78A
330
1
100
AcDbSymbolTableRecord
100
AcDbBlockTableRecord
  2
*D4
340
0
 70
     0
280
     1
281
     0
  0
BLOCK_RECORD
  5
1E7A9
330
1
100
AcDbSymbolTableRecord
100
AcDbBlockTableRecord
  2
*D5
340
0
 70
     0
280
     1
281
     0
  0
BLOCK_RECORD
  5
1E815
330
1
100
AcDbSymbolTableRecord
100
AcDbBlockTableRecord
  2
*D6
340
0
 70
     0
280
     1
281
     0
  0
BLOCK_RECORD
  5
1E826
330
1
100
AcDbSymbolTableRecord
100
AcDbBlockTableRecord
  2
*D7
340
0
 70
     0
280
     1
281
     0
  0
BLOCK_RECORD
  5
1E835
330
1
100
AcDbSymbolTableRecord
100
AcDbBlockTableRecord
  2
*D8
340
0
 70
     0
280
     1
281
     0
  0
ENDTAB
  0
ENDSEC
  0
SECTION
  2
BLOCKS
  0
BLOCK
  5
20
330
1F
100
AcDbEntity
  8
0
100
AcDbBlockBegin
  2
*Model_Space
 70
     0
 10
0.0
 20
0.0
 30
0.0
  3
*Model_Space
  1

  0
ENDBLK
  5
21
330
1F
100
AcDbEntity
  8
0
100
AcDbBlockEnd
  0
BLOCK
  5
1C
330
1B
100
AcDbEntity
 67
     1
  8
0
100
AcDbBlockBegin
  2
*Paper_Space
 70
     0
 10
0.0
 20
0.0
 30
0.0
  3
*Paper_Space
  1

  0
ENDBLK
  5
1D
330
1B
100
AcDbEntity
 67
     1
  8
0
100
AcDbBlockEnd
  0
BLOCK
  5
24
330
23
100
AcDbEntity
 67
     1
  8
0
100
AcDbBlockBegin
  2
*Paper_Space0
 70
     0
 10
0.0
 20
0.0
 30
0.0
  3
*Paper_Space0
  1

  0
ENDBLK
  5
25
330
23
100
AcDbEntity
 67
     1
  8
0
100
AcDbBlockEnd
  0
BLOCK
  5
1121
330
111D
100
AcDbEntity
  8
0
 48
0.5
100
AcDbBlockBegin
  2
_Open30
 70
     0
 10
0.0
 20
0.0
 30
0.0
  3
_Open30
  1

  0
LINE
  5
111E
330
111D
100
AcDbEntity
  8
0
  6
ByBlock
 62
     0
370
    -2
100
AcDbLine
 10
-1.0
 20
0.26794919
 30
0.0
 11
0.0
 21
0.0
 31
0.0
  0
LINE
  5
111F
330
111D
100
AcDbEntity
  8
0
  6
ByBlock
 62
     0
370
    -2
100
AcDbLine
 10
0.0
 20
0.0
 30
0.0
 11
-1.0
 21
-0.26794919
 31
0.0
  0
LINE
  5
1120
330
111D
100
AcDbEntity
  8
0
  6
ByBlock
 62
     0
370
    -2
100
AcDbLine
 10
0.0
 20
0.0
 30
0.0
 11
-1.0
 21
0.0
 31
0.0
  0
ENDBLK
  5
1122
330
111D
100
AcDbEntity
  8
0
 48
0.5
100
AcDbBlockEnd
  0
BLOCK
  5
12EB
330
12E9
100
AcDbEntity
  8
0
 48
0.5
100
AcDbBlockBegin
  2
_DotSmall
 70
     0
 10
0.0
 20
0.0
 30
0.0
  3
_DotSmall
  1

  0
LWPOLYLINE
  5
12EA
330
12E9
100
AcDbEntity
  8
0
  6
ByBlock
 62
     0
100
AcDbPolyline
 90
        2
 70
     1
 43
0.5
 10
-0.0625
 20
0.0
 42
1.0
 10
0.0625
 20
0.0
 42
1.0
  0
ENDBLK
  5
12EC
330
12E9
100
AcDbEntity
  8
0
 48
0.5
100
AcDbBlockEnd
  0
BLOCK
  5
1E75B
330
1E75A
100
AcDbEntity
  8
0
 48
0.5
370
    -2
100
AcDbBlockBegin
  2
*D3
 70
     1
 10
0.0
 20
0.0
 30
0.0
  3
*D3
  1

  0
LINE
  5
1E99B
330
1E75A
100
AcDbEntity
  8
0
 62
     0
440
 16777216
 48
0.5
370
    -2
100
AcDbLine
 10
812.7525617649645
 20
-2083.008995659226
 30
0.0
 11
835.1565605935565
 21
-2083.008995659226
 31
0.0
  0
LINE
  5
1E99C
330
1E75A
100
AcDbEntity
  8
0
 62
     0
440
 16777216
 48
0.5
370
    -2
100
AcDbLine
 10
812.7525617649645
 20
-2073.008995659226
 30
0.0
 11
835.1565605935565
 21
-2073.008995659226
 31
0.0
  0
LINE
  5
1E99D
330
1E75A
100
AcDbEntity
  8
0
 62
     0
440
 16777216
 48
0.5
370
    -2
100
AcDbLine
 10
833.9065605935566
 20
-2088.008995659226
 30
0.0
 11
833.9065605935566
 21
-2093.008995659226
 31
0.0
  0
LINE
  5
1E99E
330
1E75A
100
AcDbEntity
  8
0
 62
     0
440
 16777216
 48
0.5
370
    -2
100
AcDbLine
 10
833.9065605935566
 20
-2068.008995659226
 30
0.0
 11
833.9065605935566
 21
-2047.133184556126
 31
0.0
  0
LINE
  5
1E99F
330
1E75A
100
AcDbEntity
  8
0
 62
     0
440
 16777216
 48
0.5
370
    -2
100
AcDbLine
 10
833.9065605935566
 20
-2083.008995659226
 30
0.0
 11
833.9065605935566
 21
-2073.008995659226
 31
0.0
  0
SOLID
  5
1E9A0
330
1E75A
100
AcDbEntity
  8
0
 62
     0
440
 16777216
 48
0.5
370
    -2
100
AcDbTrace
 10
833.0732272602231
 20
-2088.008995659226
 30
0.0
 11
834.7398939268899
 21
-2088.008995659226
 31
0.0
 12
833.9065605935566
 22
-2083.008995659226
 32
0.0
 13
833.9065605935566
 23
-2083.008995659226
 33
0.0
  0
SOLID
  5
1E9A1
330
1E75A
100
AcDbEntity
  8
0
 62
     0
440
 16777216
 48
0.5
370
    -2
100
AcDbTrace
 10
833.0732272602231
 20
-2068.008995659226
 30
0.0
 11
834.7398939268899
 21
-2068.008995659226
 31
0.0
 12
833.9065605935566
 22
-2073.008995659226
 32
0.0
 13
833.9065605935566
 23
-2073.008995659226
 33
0.0
  0
MTEXT
  5
1E9A2
330
1E75A
100
AcDbEntity
  8
0
 62
     0
440
 16777216
 48
0.5
370
    -2
100
AcDbMText
 10
830.1517840975222
 20
-2055.071090107676
 30
0.0
 40
6.0
 41
0.0
 46
0.0
 71
     5
 72
     1
  1
%%C10
 11
0.0000000000000001
 21
1.0
 31
0.0
 73
     1
 44
1.0
  0
POINT
  5
1E9A3
330
1E75A
100
AcDbEntity
  8
Defpoints
 62
     0
440
 16777216
 48
0.5
370
    -2
100
AcDbPoint
 10
812.1275617649645
 20
-2083.008995659226
 30
0.0
  0
POINT
  5
1E9A4
330
1E75A
100
AcDbEntity
  8
Defpoints
 62
     0
440
 16777216
 48
0.5
370
    -2
100
AcDbPoint
 10
812.1275617649645
 20
-2073.008995659226
 30
0.0
  0
POINT
  5
1E9A5
330
1E75A
100
AcDbEntity
  8
Defpoints
 62
     0
440
 16777216
 48
0.5
370
    -2
100
AcDbPoint
 10
833.9065605935566
 20
-2073.008995659226
 30
0.0
  0
ENDBLK
  5
1E75C
330
1E75A
100
AcDbEntity
  8
0
 48
0.5
370
    -2
100
AcDbBlockEnd
  0
BLOCK
  5
1E78B
330
1E78A
100
AcDbEntity
  8
0
 48
0.5
370
    -2
100
AcDbBlockBegin
  2
*D4
 70
     1
 10
0.0
 20
0.0
 30
0.0
  3
*D4
  1

  0
LINE
  5
1E976
330
1E78A
100
AcDbEntity
  8
0
 62
     0
440
 16777216
 48
0.5
370
    -2
100
AcDbLine
 10
820.4264326127116
 20
-1983.594225820126
 30
0.0
 11
833.6356800997673
 21
-1983.594225820126
 31
0.0
  0
LINE
  5
1E977
330
1E78A
100
AcDbEntity
  8
0
 62
     0
440
 16777216
 48
0.5
370
    -2
100
AcDbLine
 10
820.4264326127116
 20
-1958.594225820126
 30
0.0
 11
833.6356800997673
 21
-1958.594225820126
 31
0.0
  0
LINE
  5
1E978
330
1E78A
100
AcDbEntity
  8
0
 62
     0
440
 16777216
 48
0.5
370
    -2
100
AcDbLine
 10
832.3856800997672
 20
-1978.594225820126
 30
0.0
 11
832.3856800997672
 21
-1963.594225820126
 31
0.0
  0
SOLID
  5
1E979
330
1E78A
100
AcDbEntity
  8
0
 62
     0
440
 16777216
 48
0.5
370
    -2
100
AcDbTrace
 10
831.5523467664339
 20
-1978.594225820126
 30
0.0
 11
833.2190134331007
 21
-1978.594225820126
 31
0.0
 12
832.3856800997672
 22
-1983.594225820126
 32
0.0
 13
832.3856800997672
 23
-1983.594225820126
 33
0.0
  0
SOLID
  5
1E97A
330
1E78A
100
AcDbEntity
  8
0
 62
     0
440
 16777216
 48
0.5
370
    -2
100
AcDbTrace
 10
831.5523467664339
 20
-1963.594225820126
 30
0.0
 11
833.2190134331007
 21
-1963.594225820126
 31
0.0
 12
832.3856800997672
 22
-1958.594225820126
 32
0.0
 13
832.3856800997672
 23
-1958.594225820126
 33
0.0
  0
MTEXT
  5
1E97B
330
1E78A
100
AcDbEntity
  8
0
 62
     0
440
 16777216
 48
0.5
370
    -2
100
AcDbMText
 10
828.630903603733
 20
-1971.094225820126
 30
0.0
 40
6.0
 41
0.0
 46
0.0
 71
     5
 72
     1
  1
%%C25
 11
0.0000000000000001
 21
1.0
 31
0.0
 73
     1
 44
1.0
  0
POINT
  5
1E97C
330
1E78A
100
AcDbEntity
  8
Defpoints
 62
     0
440
 16777216
 48
0.5
370
    -2
100
AcDbPoint
 10
819.8014326127117
 20
-1983.594225820126
 30
0.0
  0
POINT
  5
1E97D
330
1E78A
100
AcDbEntity
  8
Defpoints
 62
     0
440
 16777216
 48
0.5
370
    -2
100
AcDbPoint
 10
819.8014326127117
 20
-1958.594225820126
 30
0.0
  0
POINT
  5
1E97E
330
1E78A
100
AcDbEntity
  8
Defpoints
 62
     0
440
 16777216
 48
0.5
370
    -2
100
AcDbPoint
 10
832.3856800997672
 20
-1958.594225820126
 30
0.0
  0
ENDBLK
  5
1E78C
330
1E78A
100
AcDbEntity
  8
0
 48
0.5
370
    -2
100
AcDbBlockEnd
  0
BLOCK
  5
1E7AA
330
1E7A9
100
AcDbEntity
  8
0
 48
0.5
370
    -2
100
AcDbBlockBegin
  2
*D5
 70
     1
 10
0.0
 20
0.0
 30
0.0
  3
*D5
  1

  0
LINE
  5
101F07D
330
1E7A9
100
AcDbEntity
  8
0
 62
     0
440
 16777216
 48
0.5
370
    -2
100
AcDbLine
 10
900.2206806862981
 20
-2027.094225820127
 30
0.0
 11
890.66922832094
 21
-2027.094225820127
 31
0.0
  0
LINE
  5
101F07E
330
1E7A9
100
AcDbEntity
  8
0
 62
     0
440
 16777216
 48
0.5
370
    -2
100
AcDbLine
 10
920.820680686298
 20
-1958.594225820127
 30
0.0
 11
890.66922832094
 21
-1958.594225820127
 31
0.0
  0
LINE
  5
101F07F
330
1E7A9
100
AcDbEntity
  8
0
 62
     0
440
 16777216
 48
0.5
370
    -2
100
AcDbLine
 10
891.9192283209399
 20
-2022.094225820127
 30
0.0
 11
891.9192283209399
 21
-1963.594225820127
 31
0.0
  0
SOLID
  5
101F080
330
1E7A9
100
AcDbEntity
  8
0
 62
     0
440
 16777216
 48
0.5
370
    -2
100
AcDbTrace
 10
891.0858949876066
 20
-2022.094225820127
 30
0.0
 11
892.7525616542734
 21
-2022.094225820127
 31
0.0
 12
891.9192283209399
 22
-2027.094225820127
 32
0.0
 13
891.9192283209399
 23
-2027.094225820127
 33
0.0
  0
SOLID
  5
101F081
330
1E7A9
100
AcDbEntity
  8
0
 62
     0
440
 16777216
 48
0.5
370
    -2
100
AcDbTrace
 10
891.0858949876066
 20
-1963.594225820127
 30
0.0
 11
892.7525616542734
 21
-1963.594225820127
 31
0.0
 12
891.9192283209399
 22
-1958.594225820127
 32
0.0
 13
891.9192283209399
 23
-1958.594225820127
 33
0.0
  0
MTEXT
  5
101F082
330
1E7A9
100
AcDbEntity
  8
0
 62
     0
440
 16777216
 48
0.5
370
    -2
100
AcDbMText
 10
888.2423177225252
 20
-1992.844225820127
 30
0.0
 40
6.0
 41
0.0
 46
0.0
 71
     5
 72
     1
  1
68
 11
0.0000000000000001
 21
1.0
 31
0.0
 73
     1
 44
1.0
  0
POINT
  5
101F083
330
1E7A9
100
AcDbEntity
  8
Defpoints
 62
     0
440
 16777216
 48
0.5
370
    -2
100
AcDbPoint
 10
900.845680686298
 20
-2027.094225820127
 30
0.0
  0
POINT
  5
101F084
330
1E7A9
100
AcDbEntity
  8
Defpoints
 62
     0
440
 16777216
 48
0.5
370
    -2
100
AcDbPoint
 10
921.445680686298
 20
-1958.594225820127
 30
0.0
  0
POINT
  5
101F085
330
1E7A9
100
AcDbEntity
  8
Defpoints
 62
     0
440
 16777216
 48
0.5
370
    -2
100
AcDbPoint
 10
891.9192283209399
 20
-1958.594225820127
 30
0.0
  0
ENDBLK
  5
1E7AB
330
1E7A9
100
AcDbEntity
  8
0
 48
0.5
370
    -2
100
AcDbBlockEnd
  0
BLOCK
  5
1E816
330
1E815
100
AcDbEntity
  8
0
 48
0.5
370
    -2
100
AcDbBlockBegin
  2
*D6
 70
     1
 10
0.0
 20
0.0
 30
0.0
  3
*D6
  1

  0
LINE
  5
1E990
330
1E815
100
AcDbEntity
  8
0
 62
     0
440
 16777216
 48
0.5
370
    -2
100
AcDbLine
 10
815.1275617649645
 20
-2064.883995659226
 30
0.0
 11
815.1275617649645
 21
-2058.010183244871
 31
0.0
  0
LINE
  5
1E991
330
1E815
100
AcDbEntity
  8
0
 62
     0
440
 16777216
 48
0.5
370
    -2
100
AcDbLine
 10
812.1275617649645
 20
-2064.883995659226
 30
0.0
 11
812.1275617649645
 21
-2058.010183244871
 31
0.0
  0
LINE
  5
1E992
330
1E815
100
AcDbEntity
  8
0
 62
     0
440
 16777216
 48
0.5
370
    -2
100
AcDbLine
 10
820.1275617649645
 20
-2059.26018324487
 30
0.0
 11
825.1275617649644
 21
-2059.26018324487
 31
0.0
  0
LINE
  5
1E993
330
1E815
100
AcDbEntity
  8
0
 62
     0
440
 16777216
 48
0.5
370
    -2
100
AcDbLine
 10
807.1275617649645
 20
-2059.26018324487
 30
0.0
 11
797.5423058168751
 21
-2059.26018324487
 31
0.0
  0
LINE
  5
1E994
330
1E815
100
AcDbEntity
  8
0
 62
     0
440
 16777216
 48
0.5
370
    -2
100
AcDbLine
 10
815.1275617649645
 20
-2059.26018324487
 30
0.0
 11
812.1275617649645
 21
-2059.26018324487
 31
0.0
  0
SOLID
  5
1E995
330
1E815
100
AcDbEntity
  8
0
 62
     0
440
 16777216
 48
0.5
370
    -2
100
AcDbTrace
 10
820.1275617649645
 20
-2058.426849911537
 30
0.0
 11
820.1275617649645
 21
-2060.093516578204
 31
0.0
 12
815.1275617649645
 22
-2059.26018324487
 32
0.0
 13
815.1275617649645
 23
-2059.26018324487
 33
0.0
  0
SOLID
  5
1E996
330
1E815
100
AcDbEntity
  8
0
 62
     0
440
 16777216
 48
0.5
370
    -2
100
AcDbTrace
 10
807.1275617649645
 20
-2058.426849911537
 30
0.0
 11
807.1275617649645
 21
-2060.093516578204
 31
0.0
 12
812.1275617649645
 22
-2059.26018324487
 32
0.0
 13
812.1275617649645
 23
-2059.26018324487
 33
0.0
  0
MTEXT
  5
1E997
330
1E815
100
AcDbEntity
  8
0
 62
     0
440
 16777216
 48
0.5
370
    -2
100
AcDbMText
 10
799.8349337909198
 20
-2055.583272646456
 30
0.0
 40
6.0
 41
0.0
 46
0.0
 71
     5
 72
     1
  1
3
 73
     1
 44
1.0
  0
POINT
  5
1E998
330
1E815
100
AcDbEntity
  8
Defpoints
 62
     0
440
 16777216
 48
0.5
370
    -2
100
AcDbPoint
 10
815.1275617649645
 20
-2065.508995659226
 30
0.0
  0
POINT
  5
1E999
330
1E815
100
AcDbEntity
  8
Defpoints
 62
     0
440
 16777216
 48
0.5
370
    -2
100
AcDbPoint
 10
812.1275617649645
 20
-2065.508995659226
 30
0.0
  0
POINT
  5
1E99A
330
1E815
100
AcDbEntity
  8
Defpoints
 62
     0
440
 16777216
 48
0.5
370
    -2
100
AcDbPoint
 10
812.1275617649645
 20
-2059.26018324487
 30
0.0
  0
ENDBLK
  5
1E817
330
1E815
100
AcDbEntity
  8
0
 48
0.5
370
    -2
100
AcDbBlockEnd
  0
BLOCK
  5
1E827
330
1E826
100
AcDbEntity
  8
0
 48
0.5
370
    -2
100
AcDbBlockBegin
  2
*D7
 70
     1
 10
0.0
 20
0.0
 30
0.0
  3
*D7
  1

  0
LINE
  5
1E987
330
1E826
100
AcDbEntity
  8
0
 62
     0
440
 16777216
 48
0.5
370
    -2
100
AcDbLine
 10
665.1275617649645
 20
-2078.633995659226
 30
0.0
 11
665.1275617649645
 21
-2110.398852623504
 31
0.0
  0
LINE
  5
1E988
330
1E826
100
AcDbEntity
  8
0
 62
     0
440
 16777216
 48
0.5
370
    -2
100
AcDbLine
 10
815.1275617649645
 20
-2091.133995659226
 30
0.0
 11
815.1275617649645
 21
-2110.398852623504
 31
0.0
  0
LINE
  5
1E989
330
1E826
100
AcDbEntity
  8
0
 62
     0
440
 16777216
 48
0.5
370
    -2
100
AcDbLine
 10
670.1275617649645
 20
-2109.148852623504
 30
0.0
 11
810.1275617649644
 21
-2109.148852623504
 31
0.0
  0
SOLID
  5
1E98A
330
1E826
100
AcDbEntity
  8
0
 62
     0
440
 16777216
 48
0.5
370
    -2
100
AcDbTrace
 10
670.1275617649645
 20
-2108.31551929017
 30
0.0
 11
670.1275617649645
 21
-2109.982185956837
 31
0.0
 12
665.1275617649645
 22
-2109.148852623504
 32
0.0
 13
665.1275617649645
 23
-2109.148852623504
 33
0.0
  0
SOLID
  5
1E98B
330
1E826
100
AcDbEntity
  8
0
 62
     0
440
 16777216
 48
0.5
370
    -2
100
AcDbTrace
 10
810.1275617649644
 20
-2108.31551929017
 30
0.0
 11
810.1275617649644
 21
-2109.982185956837
 31
0.0
 12
815.1275617649645
 22
-2109.148852623504
 32
0.0
 13
815.1275617649645
 23
-2109.148852623504
 33
0.0
  0
MTEXT
  5
1E98C
330
1E826
100
AcDbEntity
  8
0
 62
     0
440
 16777216
 48
0.5
370
    -2
100
AcDbMText
 10
740.1275617649645
 20
-2105.47194202509
 30
0.0
 40
6.0
 41
0.0
 46
0.0
 71
     5
 72
     1
  1
150
 73
     1
 44
1.0
  0
POINT
  5
1E98D
330
1E826
100
AcDbEntity
  8
Defpoints
 62
     0
440
 16777216
 48
0.5
370
    -2
100
AcDbPoint
 10
665.1275617649645
 20
-2078.008995659226
 30
0.0
  0
POINT
  5
1E98E
330
1E826
100
AcDbEntity
  8
Defpoints
 62
     0
440
 16777216
 48
0.5
370
    -2
100
AcDbPoint
 10
815.1275617649645
 20
-2090.508995659226
 30
0.0
  0
POINT
  5
1E98F
330
1E826
100
AcDbEntity
  8
Defpoints
 62
     0
440
 16777216
 48
0.5
370
    -2
100
AcDbPoint
 10
815.1275617649645
 20
-2109.148852623504
 30
0.0
  0
ENDBLK
  5
1E828
330
1E826
100
AcDbEntity
  8
0
 48
0.5
370
    -2
100
AcDbBlockEnd
  0
BLOCK
  5
1E836
330
1E835
100
AcDbEntity
  8
0
 48
0.5
370
    -2
100
AcDbBlockBegin
  2
*D8
 70
     1
 10
0.0
 20
0.0
 30
0.0
  3
*D8
  1

  0
LINE
  5
1E97F
330
1E835
100
AcDbEntity
  8
0
 62
     0
440
 16777216
 48
0.5
370
    -2
100
AcDbLine
 10
719.0305698485791
 20
-2047.103072485023
 30
0.0
 11
703.6029888301241
 21
-2061.166828495824
 31
0.0
  0
LINE
  5
1E980
330
1E835
100
AcDbEntity
  8
0
 62
     0
440
 16777216
 48
0.5
370
    -2
100
AcDbLine
 10
666.6521346998053
 20
-2094.851162822627
 30
0.0
 11
662.9570492867735
 21
-2098.219596255308
 31
0.0
  0
MTEXT
  5
1E981
102
{ACAD_XDICTIONARY
360
1F062
102
}
330
1E835
100
AcDbEntity
  8
0
 62
     0
440
 16777216
 48
0.5
370
    -2
100
AcDbMText
 10
710.6347791095705
 20
-2049.675889802144
 30
0.0
 40
6.0
 41
0.0
 46
0.0
 71
     5
 72
     1
  1
∅40
 11
0.7390170826063822
 21
0.673686686536072
 31
0.0
 73
     1
 44
1.0
  0
LINE
  5
1E982
330
1E835
100
AcDbEntity
  8
0
 62
     0
440
 16777216
 48
0.5
370
    -2
100
AcDbLine
 10
670.3472201128374
 20
-2091.482729389947
 30
0.0
 11
699.9079034170921
 21
-2064.535261928504
 31
0.0
  0
SOLID
  5
1E983
330
1E835
100
AcDbEntity
  8
0
 62
     0
440
 16777216
 48
0.5
370
    -2
100
AcDbTrace
 10
666.0907291276919
 20
-2094.235315253788
 30
0.0
 11
667.2135402719186
 21
-2095.467010391466
 31
0.0
 12
670.3472201128374
 22
-2091.482729389947
 32
0.0
 13
670.3472201128374
 23
-2091.482729389947
 33
0.0
  0
SOLID
  5
1E984
330
1E835
100
AcDbEntity
  8
0
 62
     0
440
 16777216
 48
0.5
370
    -2
100
AcDbTrace
 10
703.0415832580106
 20
-2060.550980926985
 30
0.0
 11
704.1643944022373
 21
-2061.782676064662
 31
0.0
 12
699.9079034170921
 22
-2064.535261928504
 32
0.0
 13
699.9079034170921
 23
-2064.535261928504
 33
0.0
  0
POINT
  5
1E985
330
1E835
100
AcDbEntity
  8
Defpoints
 62
     0
440
 16777216
 48
0.5
370
    -2
100
AcDbPoint
 10
699.9079034170921
 20
-2064.535261928504
 30
0.0
  0
POINT
  5
1E986
330
1E835
100
AcDbEntity
  8
Defpoints
 62
     0
440
 16777216
 48
0.5
370
    -2
100
AcDbPoint
 10
670.3472201128374
 20
-2091.482729389947
 30
0.0
  0
ENDBLK
  5
1E837
330
1E835
100
AcDbEntity
  8
0
 48
0.5
370
    -2
100
AcDbBlockEnd
  0
ENDSEC
  0
SECTION
  2
ENTITIES
  0
HATCH
  5
1E4F3
330
1F
100
AcDbEntity
  8
0
370
    -2
100
AcDbHatch
 10
0.0
 20
0.0
 30
0.0
210
0.0
220
0.0
230
1.0
  2
ANSI31
 70
     0
 71
     0
 91
        2
 92
        1
 93
        8
 72
     1
 10
902.8458409112976
 20
-2020.094225820126
 11
914.1456806862976
 21
-2020.094225820126
 72
     1
 10
914.1456806862976
 20
-2020.094225820126
 11
914.1456806862976
 21
-2020.894225820127
 72
     1
 10
902.8458409112976
 20
-2020.894225820126
 11
914.1456806862976
 21
-2020.894225820126
 72
     4
 94
        3
 73
     1
 74
     0
 95
        8
 96
        4
 40
0.0
 40
0.0
 40
0.0
 40
0.0
 40
1.0
 40
1.0
 40
1.0
 40
1.0
 10
902.8456806862974
 20
-2020.894225820126
 42
1.0
 10
902.1427369610977
 20
-2020.894225820126
 42
0.8047378541
 10
901.6456806862976
 20
-2021.391282094926
 42
0.8047378541
 10
901.6456806862976
 20
-2022.094225820126
 42
1.0
 97
        0
 72
     1
 10
901.6456806862976
 20
-2022.094225820126
 11
901.6456806862976
 21
-2027.094225820126
 72
     1
 10
900.8456806862975
 20
-2027.094225820126
 11
901.6456806862974
 21
-2027.094225820126
 72
     1
 10
900.8456806862975
 20
-2022.094225820126
 11
900.8456806862975
 21
-2027.094225820126
 72
     4
 94
        3
 73
     1
 74
     0
 95
        8
 96
        4
 40
0.0
 40
0.0
 40
0.0
 40
0.0
 40
1.0
 40
1.0
 40
1.0
 40
1.0
 10
902.8456806862974
 20
-2020.094225820126
 42
1.0
 10
901.6741078109976
 20
-2020.094225820126
 42
0.8047378541
 10
900.8456806862975
 20
-2020.922652944826
 42
0.8047378541
 10
900.8456806862975
 20
-2022.094225820126
 42
1.0
 97
        0
 97
        0
 92
        1
 93
        8
 72
     1
 10
928.7456806862977
 20
-2020.094225820126
 11
940.0455204611976
 21
-2020.094225820126
 72
     4
 94
        3
 73
     1
 74
     0
 95
        8
 96
        4
 40
0.0
 40
0.0
 40
0.0
 40
0.0
 40
1.0
 40
1.0
 40
1.0
 40
1.0
 10
940.0456806862976
 20
-2020.094225820126
 42
1.0
 10
941.2172535614974
 20
-2020.094225820126
 42
0.8047378541
 10
942.0456806862974
 20
-2020.922652944826
 42
0.8047378541
 10
942.0456806862976
 20
-2022.094225820126
 42
1.0
 97
        0
 72
     1
 10
942.0456806862976
 20
-2022.094225820126
 11
942.0456806862976
 21
-2027.094225820126
 72
     1
 10
941.2456806862977
 20
-2027.094225820126
 11
942.0456806862976
 21
-2027.094225820126
 72
     1
 10
941.2456806862977
 20
-2022.094225820126
 11
941.2456806862977
 21
-2027.094225820126
 72
     4
 94
        3
 73
     1
 74
     0
 95
        8
 96
        4
 40
0.0
 40
0.0
 40
0.0
 40
0.0
 40
1.0
 40
1.0
 40
1.0
 40
1.0
 10
940.0456806862976
 20
-2020.894225820126
 42
1.0
 10
940.7486244113975
 20
-2020.894225820126
 42
0.8047378541
 10
941.2456806862975
 20
-2021.391282094926
 42
0.8047378541
 10
941.2456806862977
 20
-2022.094225820126
 42
1.0
 97
        0
 72
     1
 10
928.7456806862977
 20
-2020.894225820126
 11
940.0455204611976
 21
-2020.894225820126
 72
     1
 10
928.7456806862977
 20
-2020.094225820126
 11
928.7456806862977
 21
-2020.894225820127
 97
        0
 75
     0
 76
     1
 52
0.0
 41
1.0
 77
     0
 78
     1
 53
45.0
 43
703.1289065636379
 44
63.42691916270542
 45
-2.245064030267287
 46
2.245064030267288
 79
     0
 98
        1
 10
500.1453143879976
 20
-2213.678859510626
1001
GradientColor1ACI
1070
     5
1001
GradientColor2ACI
1070
     2
1001
ACAD
1010
0.0
1020
0.0
1030
0.0
  0
HATCH
  5
1E4F4
330
1F
100
AcDbEntity
  8
0
370
    30
100
AcDbHatch
 10
0.0
 20
0.0
 30
0.0
210
0.0
220
0.0
230
1.0
  2
ANSI31
 70
     0
 71
     0
 91
        2
 92
        1
 93
       14
 72
     1
 10
912.4456806862976
 20
-2020.094225820126
 11
915.3456806862974
 21
-2020.094225820126
 72
     1
 10
912.4456806862976
 20
-2020.094225820126
 11
912.4456806862976
 21
-1962.094225820126
 72
     1
 10
912.4456806862976
 20
-1962.094225820126
 11
930.4456806862976
 21
-1962.094225820126
 72
     1
 10
930.4456806862976
 20
-2007.994225820127
 11
930.4456806862976
 21
-1962.094225820126
 72
     1
 10
926.5456806862976
 20
-2007.994225820127
 11
930.4456806862976
 21
-2007.994225820127
 72
     1
 10
926.5456806862976
 20
-2007.994225820127
 11
926.5456806862976
 21
-1981.094225820126
 72
     1
 10
926.5456806862976
 20
-1981.094225820126
 11
923.5456806862975
 21
-1981.094225820126
 72
     1
 10
923.5456806862975
 20
-1975.741805835526
 11
923.5456806862975
 21
-1981.094225820126
 72
     4
 94
        3
 73
     1
 74
     0
 95
        8
 96
        4
 40
0.0
 40
0.0
 40
0.0
 40
0.0
 40
1.0
 40
1.0
 40
1.0
 40
1.0
 10
923.5456806862975
 20
-1975.741805835526
 42
1.0
 10
929.9392930912976
 20
-1972.852864492726
 42
0.4737373542000001
 10
928.4616810901976
 20
-1965.994225820126
 42
0.4737373542000001
 10
921.4456806862976
 20
-1965.994225820126
 42
1.0
 97
        0
 72
     4
 94
        3
 73
     1
 74
     0
 95
        8
 96
        4
 40
0.0
 40
0.0
 40
0.0
 40
0.0
 40
1.0
 40
1.0
 40
1.0
 40
1.0
 10
921.4456806862976
 20
-1965.994225820126
 42
1.0
 10
914.4296802823976
 20
-1965.994225820126
 42
0.4737373542000001
 10
912.9520682811977
 20
-1972.852864492726
 42
0.4737373542000001
 10
919.3456806862975
 20
-1975.741805835526
 42
1.0
 97
        0
 72
     1
 10
919.3456806862975
 20
-1975.741805835526
 11
919.3456806862975
 21
-1981.094225820126
 72
     1
 10
919.3456806862975
 20
-1981.094225820126
 11
916.3456806862976
 21
-1981.094225820126
 72
     1
 10
916.3456806862976
 20
-2019.094225820126
 11
916.3456806862976
 21
-1981.094225820126
 72
     1
 10
915.3456806862974
 20
-2020.094225820126
 11
916.3456806862976
 21
-2019.094225820126
 97
        0
 92
        1
 93
        5
 72
     1
 10
927.5456806862976
 20
-2020.094225820126
 11
930.4456806862976
 21
-2020.094225820126
 72
     1
 10
927.5456806862976
 20
-2020.094225820126
 11
926.5456806862976
 21
-2019.094225820126
 72
     1
 10
926.5456806862976
 20
-2019.094225820126
 11
926.5456806862976
 21
-2012.194225820126
 72
     1
 10
926.5456806862976
 20
-2012.194225820126
 11
930.4456806862976
 21
-2012.194225820126
 72
     1
 10
930.4456806862976
 20
-2020.094225820126
 11
930.4456806862976
 21
-2012.194225820126
 97
        0
 75
     0
 76
     1
 52
90.0
 41
2.0
 77
     0
 78
     1
 53
135.0
 43
703.1289065636379
 44
63.42691916270542
 45
-4.490128060534576
 46
-4.490128060534575
 79
     0
 98
        1
 10
500.1453143879976
 20
-2213.678859510626
1001
GradientColor1ACI
1070
     5
1001
GradientColor2ACI
1070
     2
1001
ACAD
1010
0.0
1020
0.0
1030
0.0
  0
HATCH
  5
1E4F6
330
1F
100
AcDbEntity
  8
0
370
    -2
100
AcDbHatch
 10
0.0
 20
0.0
 30
0.0
210
0.0
220
0.0
230
1.0
  2
ANSI31
 70
     0
 71
     0
 91
        1
 92
        1
 93
        9
 72
     1
 10
918.9544550803724
 20
-1980.201115012553
 11
920.2044550803725
 21
-1980.201115012553
 72
     1
 10
918.9544550803724
 20
-1980.201115012553
 11
918.9544550803724
 21
-1977.644490685453
 72
     1
 10
918.9544550803724
 20
-1977.644490685453
 11
921.4544550803724
 21
-1976.201115012553
 72
     1
 10
923.9544550803724
 20
-1977.644490685453
 11
921.4544550803724
 21
-1976.201115012553
 72
     1
 10
923.9544550803724
 20
-1980.201115012553
 11
923.9544550803724
 21
-1977.644490685453
 72
     1
 10
922.7044550803723
 20
-1980.201115012553
 11
923.9544550803724
 21
-1980.201115012553
 72
     1
 10
922.7044550803723
 20
-1978.701115012553
 11
922.7044550803723
 21
-1980.201115012553
 72
     1
 10
920.2044550803725
 20
-1978.701115012553
 11
922.7044550803723
 21
-1978.701115012553
 72
     1
 10
920.2044550803725
 20
-1980.201115012553
 11
920.2044550803725
 21
-1978.701115012553
 97
        0
 75
     0
 76
     1
 52
0.0
 41
0.5
 77
     0
 78
     1
 53
45.0
 43
703.1376809577127
 44
63.12002997027821
 45
-1.122532015133643
 46
1.122532015133644
 79
     0
 98
        1
 10
500.1540887820724
 20
-2213.985748703054
1001
GradientColor1ACI
1070
     5
1001
GradientColor2ACI
1070
     2
1001
ACAD
1010
0.0
1020
0.0
1030
0.0
  0
HATCH
  5
1E4F7
330
1F
100
AcDbEntity
  8
0
370
    -2
100
AcDbHatch
 10
0.0
 20
0.0
 30
0.0
210
0.0
220
0.0
230
1.0
  2
ANSI31
 70
     0
 71
     0
 91
        3
 92
        1
 93
        7
 72
     1
 10
902.5456806862976
 20
-2027.094225820126
 11
907.3456806862976
 21
-2027.094225820126
 72
     1
 10
902.5456806862976
 20
-2025.594225820126
 11
902.5456806862976
 21
-2027.094225820126
 72
     4
 94
        3
 73
     1
 74
     0
 95
        8
 96
        4
 40
0.0
 40
0.0
 40
0.0
 40
0.0
 40
1.0
 40
1.0
 40
1.0
 40
1.0
 10
905.0456806862976
 20
-2023.094225820126
 42
1.0
 10
903.5812145921974
 20
-2023.094225820126
 42
0.8047378541
 10
902.5456806862976
 20
-2024.129759726027
 42
0.8047378541
 10
902.5456806862976
 20
-2025.594225820126
 42
1.0
 97
        0
 72
     1
 10
905.0456806862976
 20
-2023.094225820126
 11
905.3456806862975
 21
-2023.094225820126
 72
     1
 10
905.3456806862975
 20
-2025.094225820126
 11
905.3456806862975
 21
-2023.094225820126
 72
     1
 10
905.3456806862975
 20
-2025.094225820126
 11
907.3456806862976
 21
-2025.094225820126
 72
     1
 10
907.3456806862976
 20
-2027.094225820126
 11
907.3456806862976
 21
-2025.094225820126
 97
        0
 92
        1
 93
       21
 72
     1
 10
911.5456806862976
 20
-2027.094225820126
 11
931.3456806862975
 21
-2027.094225820126
 72
     1
 10
911.5456806862976
 20
-2027.094225820126
 11
911.5456806862976
 21
-2025.094225820126
 72
     1
 10
911.5456806862976
 20
-2025.094225820126
 11
913.5456806862976
 21
-2025.094225820126
 72
     1
 10
913.5456806862976
 20
-2025.094225820126
 11
913.5456806862976
 21
-2023.094225820126
 72
     1
 10
913.5456806862976
 20
-2023.094225820126
 11
914.3456806862975
 21
-2023.094225820126
 72
     1
 10
914.3456806862975
 20
-2020.394225820126
 11
914.3456806862975
 21
-2023.094225820126
 72
     1
 10
914.3456806862975
 20
-2020.394225820126
 11
916.4456806862974
 21
-2020.394225820126
 72
     1
 10
916.4456806862975
 20
-2006.094225820126
 11
916.4456806862975
 21
-2020.394225820126
 72
     1
 10
916.4456806862975
 20
-2006.094225820126
 11
917.4456806862975
 21
-2005.094225820126
 72
     1
 10
917.4456806862975
 20
-2005.094225820126
 11
925.4456806862975
 21
-2005.094225820126
 72
     1
 10
926.4456806862975
 20
-2006.094225820126
 11
925.4456806862975
 21
-2005.094225820126
 72
     1
 10
926.4456806862975
 20
-2006.094225820126
 11
926.4456806862975
 21
-2008.044225820126
 72
     1
 10
926.4456806862975
 20
-2008.044225820126
 11
924.1956806862976
 21
-2010.294225820126
 72
     1
 10
926.4456806862975
 20
-2012.544225820126
 11
924.1956806862976
 21
-2010.294225820126
 72
     1
 10
926.4456806862975
 20
-2012.544225820126
 11
926.4456806862975
 21
-2020.394225820126
 72
     1
 10
926.4456806862975
 20
-2020.394225820126
 11
928.5456806862976
 21
-2020.394225820126
 72
     1
 10
928.5456806862976
 20
-2020.394225820126
 11
928.5456806862976
 21
-2023.094225820126
 72
     1
 10
928.5456806862976
 20
-2023.094225820126
 11
929.3456806862975
 21
-2023.094225820126
 72
     1
 10
929.3456806862975
 20
-2025.094225820126
 11
929.3456806862975
 21
-2023.094225820126
 72
     1
 10
929.3456806862975
 20
-2025.094225820126
 11
931.3456806862975
 21
-2025.094225820126
 72
     1
 10
931.3456806862975
 20
-2027.094225820126
 11
931.3456806862975
 21
-2025.094225820126
 97
        0
 92
        1
 93
        7
 72
     1
 10
935.5456806862976
 20
-2027.094225820126
 11
940.3456806862974
 21
-2027.094225820126
 72
     1
 10
935.5456806862976
 20
-2027.094225820126
 11
935.5456806862976
 21
-2025.094225820126
 72
     1
 10
935.5456806862976
 20
-2025.094225820126
 11
937.5456806862976
 21
-2025.094225820126
 72
     1
 10
937.5456806862976
 20
-2025.094225820126
 11
937.5456806862976
 21
-2023.094225820126
 72
     1
 10
937.5456806862976
 20
-2023.094225820126
 11
937.8456806862976
 21
-2023.094225820126
 72
     4
 94
        3
 73
     1
 74
     0
 95
        8
 96
        4
 40
0.0
 40
0.0
 40
0.0
 40
0.0
 40
1.0
 40
1.0
 40
1.0
 40
1.0
 10
937.8456806862976
 20
-2023.094225820126
 42
1.0
 10
939.3101467802976
 20
-2023.094225820126
 42
0.8047378541
 10
940.3456806862978
 20
-2024.129759726027
 42
0.8047378541
 10
940.3456806862974
 20
-2025.594225820126
 42
1.0
 97
        0
 72
     1
 10
940.3456806862974
 20
-2025.594225820126
 11
940.3456806862974
 21
-2027.094225820126
 97
        0
 75
     0
 76
     1
 52
0.0
 41
2.0
 77
     0
 78
     1
 53
45.0
 43
703.1289065636379
 44
63.42691916270542
 45
-4.490128060534575
 46
4.490128060534576
 79
     0
 98
        1
 10
500.1453143879976
 20
-2213.678859510626
1001
GradientColor1ACI
1070
     5
1001
GradientColor2ACI
1070
     2
1001
ACAD
1010
0.0
1020
0.0
1030
0.0
  0
HATCH
  5
1E4F8
330
1F
100
AcDbEntity
  8
0
370
    -2
100
AcDbHatch
 10
0.0
 20
0.0
 30
0.0
210
0.0
220
0.0
230
1.0
  2
ANSI31
 70
     0
 71
     0
 91
        1
 92
        1
 93
        9
 72
     1
 10
929.2456806862976
 20
-2007.594225820126
 11
929.2456806862976
 21
-2008.650850147126
 72
     1
 10
929.2456806862976
 20
-2008.650850147126
 11
927.7456806862977
 21
-2008.650850147126
 72
     1
 10
927.7456806862977
 20
-2008.650850147126
 11
927.7456806862977
 21
-2011.537601493026
 72
     1
 10
927.7456806862977
 20
-2011.537601493026
 11
929.2456806862976
 21
-2011.537601493026
 72
     1
 10
929.2456806862976
 20
-2011.537601493026
 11
929.2456806862976
 21
-2012.594225820127
 72
     1
 10
926.6890563592976
 20
-2012.594225820127
 11
929.2456806862976
 21
-2012.594225820127
 72
     1
 10
925.2456806862976
 20
-2010.094225820126
 11
926.6890563592976
 21
-2012.594225820127
 72
     1
 10
925.2456806862976
 20
-2010.094225820126
 11
926.6890563592976
 21
-2007.594225820126
 72
     1
 10
926.6890563592976
 20
-2007.594225820126
 11
929.2456806862976
 21
-2007.594225820126
 97
        0
 75
     0
 76
     1
 52
90.0
 41
0.5
 77
     0
 78
     1
 53
135.0
 43
703.1289065636379
 44
63.42691916270542
 45
-1.122532015133644
 46
-1.122532015133643
 79
     0
 98
        1
 10
500.1453143879976
 20
-2213.678859510626
1001
GradientColor1ACI
1070
     5
1001
GradientColor2ACI
1070
     2
1001
ACAD
1010
0.0
1020
0.0
1030
0.0
  0
LINE
  5
1E4F9
330
1F
100
AcDbEntity
  8
0
370
    -2
100
AcDbLine
 10
793.2939356713938
 20
-1976.094225820126
 30
0.0
 11
794.0939356713937
 21
-1975.294225820126
 31
0.0
1001
GradientColor1ACI
1070
     5
1001
GradientColor2ACI
1070
     2
1001
ACAD
1010
0.0
1020
0.0
1030
0.0
  0
LINE
  5
1E4FA
330
1F
100
AcDbEntity
  8
0
370
    -2
100
AcDbLine
 10
802.4939356713938
 20
-1966.894225820126
 30
0.0
 11
803.2939356713937
 21
-1966.094225820126
 31
0.0
1001
GradientColor1ACI
1070
     5
1001
GradientColor2ACI
1070
     2
1001
ACAD
1010
0.0
1020
0.0
1030
0.0
  0
LINE
  5
1E4FB
330
1F
100
AcDbEntity
  8
0
370
    -2
100
AcDbLine
 10
806.7643198529975
 20
-1976.094225820126
 30
0.0
 11
807.5643198529975
 21
-1975.294225820126
 31
0.0
1001
GradientColor1ACI
1070
     5
1001
GradientColor2ACI
1070
     2
1001
ACAD
1010
0.0
1020
0.0
1030
0.0
  0
LINE
  5
1E4FC
330
1F
100
AcDbEntity
  8
0
370
    -2
100
AcDbLine
 10
815.9643198529975
 20
-1966.894225820126
 30
0.0
 11
816.7643198529974
 21
-1966.094225820126
 31
0.0
1001
GradientColor1ACI
1070
     5
1001
GradientColor2ACI
1070
     2
1001
ACAD
1010
0.0
1020
0.0
1030
0.0
  0
HATCH
  5
1E4FD
330
1F
100
AcDbEntity
  8
0
370
    -2
100
AcDbHatch
 10
0.0
 20
0.0
 30
0.0
210
0.0
220
0.0
230
1.0
  2
ANSI31
 70
     0
 71
     0
 91
        1
 92
        1
 93
       12
 72
     1
 10
819.8014326127117
 20
-1983.594225820126
 11
819.8014326127117
 21
-1958.594225820126
 72
     1
 10
816.8014326127117
 20
-1983.594225820126
 11
819.8014326127117
 21
-1983.594225820126
 72
     1
 10
816.8014326127117
 20
-1983.594225820126
 11
816.8014326127117
 21
-1974.794225820126
 72
     1
 10
816.8014326127117
 20
-1974.794225820126
 11
815.8014326127116
 21
-1974.794225820126
 72
     1
 10
815.8014326127116
 20
-1974.294225820126
 11
815.8014326127116
 21
-1974.794225820126
 72
     1
 10
815.8014326127116
 20
-1974.294225820126
 11
818.8014326127117
 21
-1974.294225820126
 72
     1
 10
818.8014326127117
 20
-1974.294225820126
 11
818.8014326127117
 21
-1967.894225820126
 72
     1
 10
815.8014326127116
 20
-1967.894225820126
 11
818.8014326127117
 21
-1967.894225820126
 72
     1
 10
815.8014326127116
 20
-1967.894225820126
 11
815.8014326127116
 21
-1967.394225820126
 72
     1
 10
816.8014326127117
 20
-1967.394225820126
 11
815.8014326127116
 21
-1967.394225820126
 72
     1
 10
816.8014326127117
 20
-1967.394225820126
 11
816.8014326127117
 21
-1958.594225820126
 72
     1
 10
816.8014326127117
 20
-1958.594225820126
 11
819.8014326127117
 21
-1958.594225820126
 97
        0
 75
     0
 76
     1
 52
0.0
 41
2.0
 77
     0
 78
     1
 53
45.0
 43
477.4012498909116
 44
-1995.638459605326
 45
-4.490128060534575
 46
4.490128060534576
 79
     0
 98
        1
 10
477.4012498909116
 20
-1995.638459605326
1001
GradientColor1ACI
1070
     5
1001
GradientColor2ACI
1070
     2
1001
ACAD
1010
0.0
1020
0.0
1030
0.0
  0
LINE
  5
1E4FE
330
1F
100
AcDbEntity
  8
0
370
    -2
100
AcDbLine
 10
871.0696266125152
 20
-2137.79752190386
 30
0.0
 11
869.7310882960401
 21
-2136.466526017209
 31
0.0
  0
LINE
  5
1E4FF
330
1F
100
AcDbEntity
  8
0
370
    -2
100
AcDbLine
 10
877.7394652392652
 20
-2132.160734674133
 30
0.0
 11
893.2665097105404
 21
-2147.600286959335
 31
0.0
  0
LINE
  5
1E500
330
1F
100
AcDbEntity
  8
0
370
    -2
100
AcDbLine
 10
887.2583979464153
 20
-2122.587860491509
 30
0.0
 11
902.7854424176901
 21
-2138.027412776633
 31
0.0
  0
LINE
  5
1E501
330
1F
100
AcDbEntity
  8
0
370
    -2
100
AcDbLine
 10
988.4563728371151
 20
-2126.474058691884
 30
0.0
 11
986.3672543890402
 21
-2127.005511464035
 31
0.0
  0
LINE
  5
1E502
330
1F
100
AcDbEntity
  8
0
370
    -2
100
AcDbLine
 10
892.8574059199402
 20
-2115.886276552433
 30
0.0
 11
891.5188676034652
 21
-2114.555280665784
 31
0.0
  0
LINE
  5
1E503
330
1F
100
AcDbEntity
  8
0
370
    -2
100
AcDbLine
 10
904.3169626334151
 20
-2142.074203869085
 30
0.0
 11
984.9804745933402
 21
-2121.554138536209
 31
0.0
  0
LINE
  5
1E504
330
1F
100
AcDbEntity
  8
0
370
    -2
100
AcDbLine
 10
900.1408265228153
 20
-2135.397698830809
 30
0.0
 11
983.1314348658652
 21
-2114.285641299084
 31
0.0
  0
LINE
  5
1E505
330
1F
100
AcDbEntity
  8
0
370
    -2
100
AcDbLine
 10
983.8337735182401
 20
-2108.302815599109
 30
0.0
 11
981.7446550701651
 21
-2108.834268371259
 31
0.0
  0
LINE
  5
1E506
330
1F
100
AcDbEntity
  8
0
370
    30
100
AcDbLine
 10
815.1275617649645
 20
-2090.508995659226
 30
0.0
 11
812.1275617649645
 21
-2090.508995659226
 31
0.0
  0
LINE
  5
1E507
330
1F
100
AcDbEntity
  8
0
370
    30
100
AcDbLine
 10
812.1275617649645
 20
-2083.008995659226
 30
0.0
 11
692.5750548038645
 21
-2083.008995659226
 31
0.0
  0
LINE
  5
1E508
330
1F
100
AcDbEntity
  8
0
370
    30
100
AcDbLine
 10
692.5750791525644
 20
-2073.008995659226
 30
0.0
 11
812.1275617649645
 21
-2073.008995659226
 31
0.0
  0
LINE
  5
1E509
330
1F
100
AcDbEntity
  8
0
370
    30
100
AcDbLine
 10
815.1275617649645
 20
-2065.508995659226
 30
0.0
 11
812.1275617649645
 21
-2065.508995659226
 31
0.0
  0
LINE
  5
1E50A
330
1F
100
AcDbEntity
  8
0
370
    30
100
AcDbLine
 10
812.1275617649645
 20
-2065.509100313026
 30
0.0
 11
812.1275617649645
 21
-2090.508891005426
 31
0.0
  0
LINE
  5
1E50B
330
1F
100
AcDbEntity
  8
0
370
    30
100
AcDbLine
 10
815.1275617649645
 20
-2090.508891005426
 30
0.0
 11
815.1275617649645
 21
-2065.509100313026
 31
0.0
  0
LINE
  5
1E50D
330
1F
100
AcDbEntity
  8
0
370
    30
100
AcDbLine
 10
676.1275617649645
 20
-1962.094225820126
 30
0.0
 11
676.1275617649645
 21
-2020.094225820126
 31
0.0
  0
LINE
  5
1E50E
330
1F
100
AcDbEntity
  8
0
370
    30
100
AcDbLine
 10
683.8775617649645
 20
-2010.815913656626
 30
0.0
 11
683.8775617649645
 21
-2009.372537983626
 31
0.0
  0
LINE
  5
1E50F
330
1F
100
AcDbEntity
  8
0
370
    30
100
AcDbLine
 10
686.3775617649645
 20
-2009.372537983626
 30
0.0
 11
686.3775617649645
 21
-2010.815913656626
 31
0.0
  0
LINE
  5
1E510
330
1F
100
AcDbEntity
  8
0
370
    30
100
AcDbLine
 10
694.1275617649645
 20
-2020.094225820126
 30
0.0
 11
694.1275617649645
 21
-1976.194225820126
 31
0.0
  0
LINE
  5
1E511
330
1F
100
AcDbEntity
  8
0
370
    30
100
AcDbLine
 10
694.1275617649645
 20
-1965.994225820126
 30
0.0
 11
694.1275617649645
 21
-1962.094225820126
 31
0.0
  0
LINE
  5
1E512
330
1F
100
AcDbEntity
  8
0
370
    30
100
AcDbLine
 10
683.8775617649645
 20
-2010.815913656626
 30
0.0
 11
685.1275617649645
 21
-2011.537601493026
 31
0.0
  0
LINE
  5
1E513
330
1F
100
AcDbEntity
  8
0
370
    30
100
AcDbLine
 10
686.3775617649645
 20
-2009.372537983626
 30
0.0
 11
685.1275617649645
 21
-2008.650850147126
 31
0.0
  0
LINE
  5
1E515
330
1F
100
AcDbEntity
  8
0
370
    30
100
AcDbLine
 10
665.1275617649645
 20
-2027.094225820126
 30
0.0
 11
705.1275617649645
 21
-2027.094225820126
 31
0.0
  0
LINE
  5
1E516
330
1F
100
AcDbEntity
  8
0
370
    30
100
AcDbLine
 10
705.1275617649645
 20
-2022.094225820126
 30
0.0
 11
665.1275617649645
 21
-2022.094225820126
 31
0.0
  0
LINE
  5
1E517
330
1F
100
AcDbEntity
  8
0
370
    30
100
AcDbLine
 10
703.7275617649645
 20
-2020.094225820126
 30
0.0
 11
667.1275617649645
 21
-2020.094225820127
 31
0.0
  0
LINE
  5
1E518
330
1F
100
AcDbEntity
  8
0
370
    30
100
AcDbLine
 10
685.1275617649645
 20
-2008.650850147126
 30
0.0
 11
683.8775617649645
 21
-2009.372537983626
 31
0.0
  0
LINE
  5
1E519
330
1F
100
AcDbEntity
  8
0
370
    30
100
AcDbLine
 10
685.1275617649645
 20
-2011.537601493026
 30
0.0
 11
686.3775617649645
 21
-2010.815913656626
 31
0.0
  0
LINE
  5
1E51A
330
1F
100
AcDbEntity
  8
0
370
    30
100
AcDbLine
 10
694.0715030847646
 20
-1976.094225820126
 30
0.0
 11
787.7292712725648
 21
-1976.094225820126
 31
0.0
  0
LINE
  5
1E51B
330
1F
100
AcDbEntity
  8
0
370
    30
100
AcDbLine
 10
694.0715146037646
 20
-1966.094225820126
 30
0.0
 11
783.0554004248177
 21
-1966.094225820126
 31
0.0
  0
LINE
  5
1E51C
330
1F
100
AcDbEntity
  8
0
370
    30
100
AcDbLine
 10
694.1275617649645
 20
-1962.094225820126
 30
0.0
 11
676.1275617649645
 21
-1962.094225820126
 31
0.0
  0
LINE
  5
1E51D
330
1F
100
AcDbEntity
  8
0
370
    30
100
AcDbLine
 10
900.8456806862975
 20
-2027.094225820126
 30
0.0
 11
942.0456806862976
 21
-2027.094225820126
 31
0.0
  0
LINE
  5
1E51E
330
1F
100
AcDbEntity
  8
0
370
    30
100
AcDbLine
 10
905.3456806862975
 20
-2025.094225820126
 30
0.0
 11
913.5456806862976
 21
-2025.094225820126
 31
0.0
  0
LINE
  5
1E51F
330
1F
100
AcDbEntity
  8
0
370
    30
100
AcDbLine
 10
929.3456806862975
 20
-2025.094225820126
 30
0.0
 11
937.5456806862976
 21
-2025.094225820126
 31
0.0
  0
LINE
  5
1E520
330
1F
100
AcDbEntity
  8
0
370
    30
100
AcDbLine
 10
905.0456806862976
 20
-2023.094225820126
 30
0.0
 11
914.3456806862975
 21
-2023.094225820126
 31
0.0
  0
LINE
  5
1E521
330
1F
100
AcDbEntity
  8
0
370
    30
100
AcDbLine
 10
928.5456806862976
 20
-2023.094225820126
 30
0.0
 11
937.8456806862976
 21
-2023.094225820126
 31
0.0
  0
LINE
  5
1E524
330
1F
100
AcDbEntity
  8
0
370
    30
100
AcDbLine
 10
902.8458409112976
 20
-2020.894225820126
 30
0.0
 11
914.3456806862975
 21
-2020.894225820126
 31
0.0
  0
LINE
  5
1E525
330
1F
100
AcDbEntity
  8
0
370
    30
100
AcDbLine
 10
928.5456806862976
 20
-2020.894225820126
 30
0.0
 11
940.0455204611976
 21
-2020.894225820126
 31
0.0
  0
LINE
  5
1E526
330
1F
100
AcDbEntity
  8
0
370
    30
100
AcDbLine
 10
914.3456806862975
 20
-2020.394225820126
 30
0.0
 11
916.4456806862975
 21
-2020.394225820126
 31
0.0
  0
LINE
  5
1E527
330
1F
100
AcDbEntity
  8
0
370
    30
100
AcDbLine
 10
926.4456806862975
 20
-2020.394225820126
 30
0.0
 11
928.5456806862976
 21
-2020.394225820126
 31
0.0
  0
LINE
  5
1E528
330
1F
100
AcDbEntity
  8
0
370
    30
100
AcDbLine
 10
902.8458409112976
 20
-2020.094225820126
 30
0.0
 11
916.4456806862975
 21
-2020.094225820126
 31
0.0
  0
LINE
  5
1E529
330
1F
100
AcDbEntity
  8
0
370
    30
100
AcDbLine
 10
926.4456806862975
 20
-2020.094225820126
 30
0.0
 11
940.0455204611976
 21
-2020.094225820126
 31
0.0
  0
LINE
  5
1E52A
330
1F
100
AcDbEntity
  8
0
370
    30
100
AcDbLine
 10
926.5456806862976
 20
-2019.094225820126
 30
0.0
 11
926.4456806862975
 21
-2019.094225820126
 31
0.0
  0
LINE
  5
1E52B
330
1F
100
AcDbEntity
  8
0
370
    -2
100
AcDbLine
 10
916.4456806862975
 20
-2019.094225820126
 30
0.0
 11
916.3456806862976
 21
-2019.094225820126
 31
0.0
  0
LINE
  5
1E52C
330
1F
100
AcDbEntity
  8
0
370
    30
100
AcDbLine
 10
900.8456806862975
 20
-2022.094225820126
 30
0.0
 11
900.8456806862975
 21
-2027.094225820126
 31
0.0
  0
LINE
  5
1E52D
330
1F
100
AcDbEntity
  8
0
370
    30
100
AcDbLine
 10
901.6456806862976
 20
-2022.094225820126
 30
0.0
 11
901.6456806862976
 21
-2027.094225820126
 31
0.0
  0
LINE
  5
1E52E
330
1F
100
AcDbEntity
  8
0
370
    30
100
AcDbLine
 10
902.5456806862976
 20
-2025.594225820126
 30
0.0
 11
902.5456806862976
 21
-2027.094225820126
 31
0.0
  0
LINE
  5
1E52F
330
1F
100
AcDbEntity
  8
0
370
    30
100
AcDbLine
 10
930.4456806862976
 20
-2012.594225820127
 30
0.0
 11
929.2456806862976
 21
-2012.594225820127
 31
0.0
  0
LINE
  5
1E530
330
1F
100
AcDbEntity
  8
0
370
    30
100
AcDbLine
 10
926.6890563592976
 20
-2012.594225820127
 30
0.0
 11
926.5456806862976
 21
-2012.594225820127
 31
0.0
  0
LINE
  5
1E531
330
1F
100
AcDbEntity
  8
0
370
    30
100
AcDbLine
 10
926.6890563592976
 20
-2012.594225820127
 30
0.0
 11
929.2456806862976
 21
-2012.594225820127
 31
0.0
  0
LINE
  5
1E532
330
1F
100
AcDbEntity
  8
0
370
    -2
100
AcDbLine
 10
926.5456806862976
 20
-2012.194225820126
 30
0.0
 11
926.4581162515977
 21
-2012.194225820126
 31
0.0
  0
LINE
  5
1E533
330
1F
100
AcDbEntity
  8
0
370
    -2
100
AcDbLine
 10
926.5456806862976
 20
-2012.194225820126
 30
0.0
 11
930.4456806862976
 21
-2012.194225820126
 31
0.0
  0
LINE
  5
1E534
330
1F
100
AcDbEntity
  8
0
370
    30
100
AcDbLine
 10
927.7456806862977
 20
-2011.537601493026
 30
0.0
 11
929.2456806862976
 21
-2011.537601493026
 31
0.0
  0
LINE
  5
1E535
330
1F
100
AcDbEntity
  8
0
370
    30
100
AcDbLine
 10
905.3456806862975
 20
-2025.094225820126
 30
0.0
 11
905.3456806862975
 21
-2023.094225820126
 31
0.0
  0
LINE
  5
1E536
330
1F
100
AcDbEntity
  8
0
370
    30
100
AcDbLine
 10
927.7456806862977
 20
-2010.815913656626
 30
0.0
 11
929.2456806862976
 21
-2010.815913656626
 31
0.0
  0
LINE
  5
1E537
330
1F
100
AcDbEntity
  8
0
370
    30
100
AcDbLine
 10
927.7456806862977
 20
-2009.372537983626
 30
0.0
 11
929.2456806862976
 21
-2009.372537983626
 31
0.0
  0
LINE
  5
1E538
330
1F
100
AcDbEntity
  8
0
370
    30
100
AcDbLine
 10
929.2456806862976
 20
-2008.650850147126
 30
0.0
 11
927.7456806862977
 21
-2008.650850147126
 31
0.0
  0
LINE
  5
1E539
330
1F
100
AcDbEntity
  8
0
370
    30
100
AcDbLine
 10
907.3456806862976
 20
-2027.094225820126
 30
0.0
 11
907.3456806862976
 21
-2025.094225820126
 31
0.0
  0
LINE
  5
1E53A
330
1F
100
AcDbEntity
  8
0
370
    30
100
AcDbLine
 10
918.9544550803724
 20
-1977.644490685453
 30
0.0
 11
921.4544550803724
 21
-1976.201115012553
 31
0.0
  0
LINE
  5
1E53B
330
1F
100
AcDbEntity
  8
0
370
    -2
100
AcDbLine
 10
926.5456806862976
 20
-2007.994225820127
 30
0.0
 11
926.4581162515977
 21
-2007.994225820127
 31
0.0
  0
LINE
  5
1E53C
330
1F
100
AcDbEntity
  8
0
370
    -2
100
AcDbLine
 10
926.5456806862976
 20
-2007.994225820127
 30
0.0
 11
930.4456806862976
 21
-2007.994225820127
 31
0.0
  0
LINE
  5
1E53D
330
1F
100
AcDbEntity
  8
0
370
    30
100
AcDbLine
 10
929.2456806862976
 20
-2007.594225820126
 30
0.0
 11
926.6890563592976
 21
-2007.594225820126
 31
0.0
  0
LINE
  5
1E53E
330
1F
100
AcDbEntity
  8
0
370
    30
100
AcDbLine
 10
930.4456806862976
 20
-2007.594225820126
 30
0.0
 11
929.2456806862976
 21
-2007.594225820126
 31
0.0
  0
LINE
  5
1E53F
330
1F
100
AcDbEntity
  8
0
370
    30
100
AcDbLine
 10
926.6890563592976
 20
-2007.594225820126
 30
0.0
 11
926.5456806862976
 21
-2007.594225820126
 31
0.0
  0
LINE
  5
1E540
330
1F
100
AcDbEntity
  8
0
370
    30
100
AcDbLine
 10
927.5456806862976
 20
-2020.094225820126
 30
0.0
 11
926.5456806862976
 21
-2019.094225820126
 31
0.0
  0
LINE
  5
1E541
330
1F
100
AcDbEntity
  8
0
370
    30
100
AcDbLine
 10
917.4456806862975
 20
-2005.094225820126
 30
0.0
 11
925.4456806862975
 21
-2005.094225820126
 31
0.0
  0
LINE
  5
1E542
330
1F
100
AcDbEntity
  8
0
370
    30
100
AcDbLine
 10
926.4456806862975
 20
-2012.544225820126
 30
0.0
 11
924.1956806862976
 21
-2010.294225820126
 31
0.0
  0
LINE
  5
1E543
330
1F
100
AcDbEntity
  8
0
370
    30
100
AcDbLine
 10
911.5456806862976
 20
-2027.094225820126
 30
0.0
 11
911.5456806862976
 21
-2025.094225820126
 31
0.0
  0
LINE
  5
1E544
330
1F
100
AcDbEntity
  8
0
370
    30
100
AcDbLine
 10
912.4456806862976
 20
-2020.094225820126
 30
0.0
 11
912.4456806862976
 21
-1962.094225820126
 31
0.0
  0
LINE
  5
1E545
330
1F
100
AcDbEntity
  8
0
370
    30
100
AcDbLine
 10
913.5456806862976
 20
-2025.094225820126
 30
0.0
 11
913.5456806862976
 21
-2023.094225820126
 31
0.0
  0
LINE
  5
1E546
330
1F
100
AcDbEntity
  8
0
370
    30
100
AcDbLine
 10
914.1456806862976
 20
-2020.094225820126
 30
0.0
 11
914.1456806862976
 21
-2020.894225820126
 31
0.0
  0
LINE
  5
1E547
330
1F
100
AcDbEntity
  8
0
370
    30
100
AcDbLine
 10
914.3456806862975
 20
-2020.394225820126
 30
0.0
 11
914.3456806862975
 21
-2023.094225820126
 31
0.0
  0
LINE
  5
1E548
330
1F
100
AcDbEntity
  8
0
370
    30
100
AcDbLine
 10
916.3456806862976
 20
-2019.094225820126
 30
0.0
 11
916.3456806862976
 21
-1981.094225820126
 31
0.0
  0
LINE
  5
1E549
330
1F
100
AcDbEntity
  8
0
370
    30
100
AcDbLine
 10
916.4456806862975
 20
-2006.094225820126
 30
0.0
 11
916.4456806862975
 21
-2020.394225820126
 31
0.0
  0
LINE
  5
1E54A
330
1F
100
AcDbEntity
  8
0
370
    30
100
AcDbLine
 10
926.4456806862975
 20
-2006.094225820126
 30
0.0
 11
925.4456806862975
 21
-2005.094225820126
 31
0.0
  0
LINE
  5
1E54B
330
1F
100
AcDbEntity
  8
0
370
    30
100
AcDbLine
 10
925.2456806862976
 20
-2010.094225820126
 30
0.0
 11
926.6890563592976
 21
-2012.594225820127
 31
0.0
  0
LINE
  5
1E54C
330
1F
100
AcDbEntity
  8
0
370
    30
100
AcDbLine
 10
918.9456806862976
 20
-1975.539644687226
 30
0.0
 11
918.9456806862976
 21
-1977.337601493026
 31
0.0
  0
LINE
  5
1E54D
330
1F
100
AcDbEntity
  8
0
370
    30
100
AcDbLine
 10
918.9456806862976
 20
-1979.894225820126
 30
0.0
 11
918.9456806862976
 21
-1981.094225820126
 31
0.0
  0
LINE
  5
1E54E
330
1F
100
AcDbEntity
  8
0
370
    30
100
AcDbLine
 10
918.9456806862976
 20
-1979.894225820126
 30
0.0
 11
918.9456806862976
 21
-1977.337601493026
 31
0.0
  0
LINE
  5
1E54F
330
1F
100
AcDbEntity
  8
0
370
    30
100
AcDbLine
 10
919.3456806862975
 20
-1975.741805835526
 30
0.0
 11
919.3456806862975
 21
-1981.094225820126
 31
0.0
  0
LINE
  5
1E550
330
1F
100
AcDbEntity
  8
0
370
    30
100
AcDbLine
 10
920.1956806862975
 20
-1980.201115012553
 30
0.0
 11
920.1956806862975
 21
-1978.701115012553
 31
0.0
  0
LINE
  5
1E551
330
1F
100
AcDbEntity
  8
0
370
    30
100
AcDbLine
 10
920.9456806862975
 20
-1974.254921945926
 30
0.0
 11
920.9456806862975
 21
-1975.264357712526
 31
0.0
  0
LINE
  5
1E552
330
1F
100
AcDbEntity
  8
0
370
    30
100
AcDbLine
 10
920.9456806862975
 20
-1967.933529694226
 30
0.0
 11
920.9456806862975
 21
-1966.924093927726
 31
0.0
  0
LINE
  5
1E555
330
1F
100
AcDbEntity
  8
0
370
    30
100
AcDbLine
 10
921.9456806862975
 20
-1975.264357712526
 30
0.0
 11
921.9456806862975
 21
-1974.254921945926
 31
0.0
  0
LINE
  5
1E556
330
1F
100
AcDbEntity
  8
0
370
    30
100
AcDbLine
 10
921.9456806862975
 20
-1967.933529694226
 30
0.0
 11
921.9456806862975
 21
-1966.924093927726
 31
0.0
  0
LINE
  5
1E557
330
1F
100
AcDbEntity
  8
0
370
    30
100
AcDbLine
 10
922.6956806862975
 20
-1978.701115012553
 30
0.0
 11
922.6956806862975
 21
-1980.201115012553
 31
0.0
  0
LINE
  5
1E558
330
1F
100
AcDbEntity
  8
0
370
    30
100
AcDbLine
 10
923.5456806862975
 20
-1975.741805835526
 30
0.0
 11
923.5456806862975
 21
-1981.094225820126
 31
0.0
  0
LINE
  5
1E559
330
1F
100
AcDbEntity
  8
0
370
    30
100
AcDbLine
 10
923.9456806862975
 20
-1975.539673806526
 30
0.0
 11
923.9456806862975
 21
-1977.337601493026
 31
0.0
  0
LINE
  5
1E55A
330
1F
100
AcDbEntity
  8
0
370
    30
100
AcDbLine
 10
923.9456806862975
 20
-1979.894225820126
 30
0.0
 11
923.9456806862975
 21
-1981.094225820126
 31
0.0
  0
LINE
  5
1E55B
330
1F
100
AcDbEntity
  8
0
370
    30
100
AcDbLine
 10
923.9456806862975
 20
-1979.894225820126
 30
0.0
 11
923.9456806862975
 21
-1977.337601493026
 31
0.0
  0
LINE
  5
1E55C
330
1F
100
AcDbEntity
  8
0
370
    30
100
AcDbLine
 10
926.4456806862975
 20
-2006.094225820126
 30
0.0
 11
926.4456806862975
 21
-2008.044225820126
 31
0.0
  0
LINE
  5
1E55D
330
1F
100
AcDbEntity
  8
0
370
    30
100
AcDbLine
 10
926.4456806862975
 20
-2012.544225820126
 30
0.0
 11
926.4456806862975
 21
-2020.394225820126
 31
0.0
  0
LINE
  5
1E55F
330
1F
100
AcDbEntity
  8
0
370
    30
100
AcDbLine
 10
926.5456806862976
 20
-2019.094225820126
 30
0.0
 11
926.5456806862976
 21
-2012.194225820126
 31
0.0
  0
LINE
  5
1E560
330
1F
100
AcDbEntity
  8
0
370
    30
100
AcDbLine
 10
926.5456806862976
 20
-2007.994225820127
 30
0.0
 11
926.5456806862976
 21
-1981.094225820126
 31
0.0
  0
LINE
  5
1E561
330
1F
100
AcDbEntity
  8
0
370
    30
100
AcDbLine
 10
927.7456806862977
 20
-2008.650850147126
 30
0.0
 11
927.7456806862977
 21
-2011.537601493026
 31
0.0
  0
LINE
  5
1E562
330
1F
100
AcDbEntity
  8
0
370
    30
100
AcDbLine
 10
928.5456806862976
 20
-2020.394225820126
 30
0.0
 11
928.5456806862976
 21
-2023.094225820126
 31
0.0
  0
LINE
  5
1E563
330
1F
100
AcDbEntity
  8
0
370
    30
100
AcDbLine
 10
928.7456806862977
 20
-2020.094225820126
 30
0.0
 11
928.7456806862977
 21
-2020.894225820126
 31
0.0
  0
LINE
  5
1E564
330
1F
100
AcDbEntity
  8
0
370
    30
100
AcDbLine
 10
929.2456806862976
 20
-2007.594225820126
 30
0.0
 11
929.2456806862976
 21
-2012.594225820127
 31
0.0
  0
LINE
  5
1E565
330
1F
100
AcDbEntity
  8
0
370
    30
100
AcDbLine
 10
929.3456806862975
 20
-2025.094225820126
 30
0.0
 11
929.3456806862975
 21
-2023.094225820126
 31
0.0
  0
LINE
  5
1E566
330
1F
100
AcDbEntity
  8
0
370
    30
100
AcDbLine
 10
917.4456806862975
 20
-2005.094225820126
 30
0.0
 11
916.4456806862975
 21
-2006.094225820126
 31
0.0
  0
LINE
  5
1E567
330
1F
100
AcDbEntity
  8
0
370
    30
100
AcDbLine
 10
930.4456806862976
 20
-2020.094225820126
 30
0.0
 11
930.4456806862976
 21
-2012.194225820126
 31
0.0
  0
LINE
  5
1E568
330
1F
100
AcDbEntity
  8
0
370
    30
100
AcDbLine
 10
930.4456806862976
 20
-2007.994225820127
 30
0.0
 11
930.4456806862976
 21
-1962.094225820126
 31
0.0
  0
LINE
  5
1E569
330
1F
100
AcDbEntity
  8
0
370
    30
100
AcDbLine
 10
931.3456806862975
 20
-2027.094225820126
 30
0.0
 11
931.3456806862975
 21
-2025.094225820126
 31
0.0
  0
LINE
  5
1E56A
330
1F
100
AcDbEntity
  8
0
370
    30
100
AcDbLine
 10
934.7774926021974
 20
-2027.094225820126
 30
0.0
 11
934.7774926021974
 21
-2025.094225820126
 31
0.0
  0
LINE
  5
1E56B
330
1F
100
AcDbEntity
  8
0
370
    30
100
AcDbLine
 10
925.2456806862976
 20
-2010.094225820126
 30
0.0
 11
926.6890563592976
 21
-2007.594225820126
 31
0.0
  0
LINE
  5
1E56C
330
1F
100
AcDbEntity
  8
0
370
    30
100
AcDbLine
 10
926.5456806862976
 20
-1981.094225820126
 30
0.0
 11
916.3456806862976
 21
-1981.094225820126
 31
0.0
  0
LINE
  5
1E56D
330
1F
100
AcDbEntity
  8
0
370
    30
100
AcDbLine
 10
918.9544550803724
 20
-1980.201115012553
 30
0.0
 11
923.9544550803724
 21
-1980.201115012553
 31
0.0
  0
LINE
  5
1E56E
330
1F
100
AcDbEntity
  8
0
370
    30
100
AcDbLine
 10
935.5456806862976
 20
-2027.094225820126
 30
0.0
 11
935.5456806862976
 21
-2025.094225820126
 31
0.0
  0
LINE
  5
1E56F
330
1F
100
AcDbEntity
  8
0
370
    30
100
AcDbLine
 10
936.6685297533976
 20
-2025.094225820126
 30
0.0
 11
936.6685297533976
 21
-2023.094225820126
 31
0.0
  0
LINE
  5
1E570
330
1F
100
AcDbEntity
  8
0
370
    30
100
AcDbLine
 10
937.5456806862976
 20
-2025.094225820126
 30
0.0
 11
937.5456806862976
 21
-2023.094225820126
 31
0.0
  0
LINE
  5
1E571
330
1F
100
AcDbEntity
  8
0
370
    30
100
AcDbLine
 10
926.4456806862975
 20
-2008.044225820126
 30
0.0
 11
924.1956806862976
 21
-2010.294225820126
 31
0.0
  0
LINE
  5
1E572
330
1F
100
AcDbEntity
  8
0
370
    -2
100
AcDbLine
 10
915.3456806862974
 20
-2020.094225820126
 30
0.0
 11
916.3456806862976
 21
-2019.094225820126
 31
0.0
  0
LINE
  5
1E573
330
1F
100
AcDbEntity
  8
0
370
    30
100
AcDbLine
 10
920.1956806862975
 20
-1978.701115012553
 30
0.0
 11
922.6956806862975
 21
-1978.701115012553
 31
0.0
  0
LINE
  5
1E575
330
1F
100
AcDbEntity
  8
0
370
    30
100
AcDbLine
 10
923.9544550803724
 20
-1977.644490685453
 30
0.0
 11
921.4544550803724
 21
-1976.201115012553
 31
0.0
  0
LINE
  5
1E576
330
1F
100
AcDbEntity
  8
0
370
    30
100
AcDbLine
 10
940.3456806862974
 20
-2025.594225820126
 30
0.0
 11
940.3456806862974
 21
-2027.094225820126
 31
0.0
  0
LINE
  5
1E577
330
1F
100
AcDbEntity
  8
0
370
    30
100
AcDbLine
 10
941.2456806862977
 20
-2022.094225820126
 30
0.0
 11
941.2456806862977
 21
-2027.094225820126
 31
0.0
  0
LINE
  5
1E578
330
1F
100
AcDbEntity
  8
0
370
    30
100
AcDbLine
 10
942.0456806862976
 20
-2022.094225820126
 30
0.0
 11
942.0456806862976
 21
-2027.094225820126
 31
0.0
  0
LINE
  5
1E579
330
1F
100
AcDbEntity
  8
0
370
    30
100
AcDbLine
 10
917.2755487938974
 20
-1971.594225820126
 30
0.0
 11
918.2849845603975
 21
-1971.594225820126
 31
0.0
  0
LINE
  5
1E57A
330
1F
100
AcDbEntity
  8
0
370
    30
100
AcDbLine
 10
924.6063768120976
 20
-1971.594225820126
 30
0.0
 11
925.6158125786976
 21
-1971.594225820126
 31
0.0
  0
LINE
  5
1E57B
330
1F
100
AcDbEntity
  8
0
370
    30
100
AcDbLine
 10
917.2755487938974
 20
-1970.594225820126
 30
0.0
 11
918.2849845603975
 21
-1970.594225820126
 31
0.0
  0
LINE
  5
1E57C
330
1F
100
AcDbEntity
  8
0
370
    30
100
AcDbLine
 10
924.6063768120976
 20
-1970.594225820126
 30
0.0
 11
925.6158125786976
 21
-1970.594225820126
 31
0.0
  0
LINE
  5
1E57D
330
1F
100
AcDbEntity
  8
0
370
    30
100
AcDbLine
 10
912.4456806862976
 20
-1962.094225820126
 30
0.0
 11
930.4456806862976
 21
-1962.094225820126
 31
0.0
  0
LINE
  5
1E57E
330
1F
100
AcDbEntity
  8
0
370
    30
100
AcDbLine
 10
816.8014326127117
 20
-1983.594225820126
 30
0.0
 11
819.8014326127117
 21
-1983.594225820126
 31
0.0
  0
LINE
  5
1E57F
330
1F
100
AcDbEntity
  8
0
370
    30
100
AcDbLine
 10
787.7292712725648
 20
-1976.094225820126
 30
0.0
 11
816.8014326127117
 21
-1976.094225820126
 31
0.0
  0
LINE
  5
1E580
330
1F
100
AcDbEntity
  8
0
370
    30
100
AcDbLine
 10
788.6247089699029
 20
-1975.294225820126
 30
0.0
 11
816.8014326127117
 21
-1975.294225820126
 31
0.0
  0
LINE
  5
1E581
330
1F
100
AcDbEntity
  8
0
370
    30
100
AcDbLine
 10
812.3014326127115
 20
-1975.264357712526
 30
0.0
 11
815.8014326127116
 21
-1975.264357712526
 31
0.0
  0
LINE
  5
1E582
330
1F
100
AcDbEntity
  8
0
370
    30
100
AcDbLine
 10
816.8014326127117
 20
-1974.794225820126
 30
0.0
 11
815.8014326127116
 21
-1974.794225820126
 31
0.0
  0
LINE
  5
1E583
330
1F
100
AcDbEntity
  8
0
370
    30
100
AcDbLine
 10
815.8014326127116
 20
-1974.294225820126
 30
0.0
 11
818.8014326127117
 21
-1974.294225820126
 31
0.0
  0
LINE
  5
1E584
330
1F
100
AcDbEntity
  8
0
370
    30
100
AcDbLine
 10
811.8014326127116
 20
-1974.254921945926
 30
0.0
 11
815.8014326127116
 21
-1974.254921945926
 31
0.0
  0
LINE
  5
1E585
330
1F
100
AcDbEntity
  8
0
370
    30
100
AcDbLine
 10
815.8014326127116
 20
-1971.594225820126
 30
0.0
 11
811.8014326127116
 21
-1971.594225820126
 31
0.0
  0
LINE
  5
1E586
330
1F
100
AcDbEntity
  8
0
370
    30
100
AcDbLine
 10
811.8014326127116
 20
-1970.594225820126
 30
0.0
 11
815.8014326127116
 21
-1970.594225820126
 31
0.0
  0
LINE
  5
1E587
330
1F
100
AcDbEntity
  8
0
370
    30
100
AcDbLine
 10
815.8014326127116
 20
-1967.933529694226
 30
0.0
 11
811.8014326127116
 21
-1967.933529694226
 31
0.0
  0
LINE
  5
1E588
330
1F
100
AcDbEntity
  8
0
370
    30
100
AcDbLine
 10
815.8014326127116
 20
-1967.894225820126
 30
0.0
 11
818.8014326127117
 21
-1967.894225820126
 31
0.0
  0
LINE
  5
1E589
330
1F
100
AcDbEntity
  8
0
370
    30
100
AcDbLine
 10
816.8014326127117
 20
-1967.394225820126
 30
0.0
 11
815.8014326127116
 21
-1967.394225820126
 31
0.0
  0
LINE
  5
1E58A
330
1F
100
AcDbEntity
  8
0
370
    30
100
AcDbLine
 10
812.3014326127115
 20
-1966.924093927726
 30
0.0
 11
815.8014326127116
 21
-1966.924093927726
 31
0.0
  0
LINE
  5
1E58B
330
1F
100
AcDbEntity
  8
0
370
    30
100
AcDbLine
 10
782.7942588963054
 20
-1966.894225820126
 30
0.0
 11
816.8014326127117
 21
-1966.894225820126
 31
0.0
  0
LINE
  5
1E58C
330
1F
100
AcDbEntity
  8
0
370
    30
100
AcDbLine
 10
783.0554004248177
 20
-1966.094225820126
 30
0.0
 11
816.8014326127117
 21
-1966.094225820126
 31
0.0
  0
LINE
  5
1E58D
330
1F
100
AcDbEntity
  8
0
370
    30
100
AcDbLine
 10
819.8014326127117
 20
-1958.594225820126
 30
0.0
 11
816.8014326127117
 21
-1958.594225820126
 31
0.0
  0
LINE
  5
1E58E
330
1F
100
AcDbEntity
  8
0
370
    30
100
AcDbLine
 10
811.8014326127116
 20
-1971.594225820126
 30
0.0
 11
811.8014326127116
 21
-1974.760286376026
 31
0.0
  0
LINE
  5
1E58F
330
1F
100
AcDbEntity
  8
0
370
    30
100
AcDbLine
 10
811.8014326127116
 20
-1970.594225820126
 30
0.0
 11
811.8014326127116
 21
-1967.428165264126
 31
0.0
  0
LINE
  5
1E590
330
1F
100
AcDbEntity
  8
0
370
    30
100
AcDbLine
 10
815.8014326127116
 20
-1970.594225820126
 30
0.0
 11
815.8014326127116
 21
-1971.594225820126
 31
0.0
  0
LINE
  5
1E591
330
1F
100
AcDbEntity
  8
0
370
    30
100
AcDbLine
 10
815.8014326127116
 20
-1975.264357712526
 30
0.0
 11
815.8014326127116
 21
-1974.254921945926
 31
0.0
  0
LINE
  5
1E592
330
1F
100
AcDbEntity
  8
0
370
    30
100
AcDbLine
 10
815.8014326127116
 20
-1967.933529694226
 30
0.0
 11
815.8014326127116
 21
-1966.924093927726
 31
0.0
  0
LINE
  5
1E593
330
1F
100
AcDbEntity
  8
0
370
    30
100
AcDbLine
 10
816.8014326127117
 20
-1983.594225820126
 30
0.0
 11
816.8014326127117
 21
-1974.794225820126
 31
0.0
  0
LINE
  5
1E594
330
1F
100
AcDbEntity
  8
0
370
    30
100
AcDbLine
 10
816.8014326127117
 20
-1967.394225820126
 30
0.0
 11
816.8014326127117
 21
-1958.594225820126
 31
0.0
  0
LINE
  5
1E595
330
1F
100
AcDbEntity
  8
0
370
    30
100
AcDbLine
 10
818.8014326127117
 20
-1974.294225820126
 30
0.0
 11
818.8014326127117
 21
-1967.894225820126
 31
0.0
  0
LINE
  5
1E596
330
1F
100
AcDbEntity
  8
0
370
    30
100
AcDbLine
 10
819.8014326127117
 20
-1983.594225820126
 30
0.0
 11
819.8014326127117
 21
-1958.594225820126
 31
0.0
  0
ARC
  5
1E597
330
1F
100
AcDbEntity
  8
0
370
    -2
100
AcDbCircle
 10
1005.84019468409
 20
-2111.745956870034
 30
0.0
 40
25.291274771325
100
AcDbArc
 50
186.4621284945945
 51
187.1319709685097
  0
ARC
  5
1E599
330
1F
100
AcDbEntity
  8
0
370
    30
100
AcDbCircle
 10
685.1275617649645
 20
-2078.008995659226
 30
0.0
 40
18.6
100
AcDbArc
 50
15.59582714291297
 51
344.4048560209937
  0
CIRCLE
  5
1E59A
330
1F
100
AcDbEntity
  8
0
370
    30
100
AcDbCircle
 10
685.1275617649645
 20
-2078.008995659226
 30
0.0
 40
9.0
  0
CIRCLE
  5
1E59B
330
1F
100
AcDbEntity
  8
0
370
    30
100
AcDbCircle
 10
685.1275617649645
 20
-2010.094225820126
 30
0.0
 40
2.5
  0
CIRCLE
  5
1E59C
330
1F
100
AcDbEntity
  8
0
370
    30
100
AcDbCircle
 10
685.1275617649645
 20
-2010.094225820126
 30
0.0
 40
2.1
  0
ARC
  5
1E59D
330
1F
100
AcDbEntity
  8
0
370
    30
100
AcDbCircle
 10
703.1275617649645
 20
-2022.094225820126
 30
0.0
 40
2.0
100
AcDbArc
 50
0.0
 51
90.0
  0
ARC
  5
1E59E
330
1F
100
AcDbEntity
  8
0
370
    30
100
AcDbCircle
 10
667.1275617649645
 20
-2022.094225820126
 30
0.0
 40
2.0
100
AcDbArc
 50
90.0
 51
180.0
  0
ARC
  5
1E59F
330
1F
100
AcDbEntity
  8
0
370
    30
100
AcDbCircle
 10
905.0456806862976
 20
-2025.594225820126
 30
0.0
 40
2.5
100
AcDbArc
 50
90.0
 51
180.0
  0
ARC
  5
1E5A0
330
1F
100
AcDbEntity
  8
0
370
    30
100
AcDbCircle
 10
902.8456806862974
 20
-2022.094225820126
 30
0.0
 40
2.0
100
AcDbArc
 50
90.0
 51
180.0
  0
ARC
  5
1E5A1
330
1F
100
AcDbEntity
  8
0
370
    30
100
AcDbCircle
 10
902.8456806862974
 20
-2022.094225820126
 30
0.0
 40
1.199999999999999
100
AcDbArc
 50
90.0
 51
180.0
  0
ARC
  5
1E5A2
330
1F
100
AcDbEntity
  8
0
370
    30
100
AcDbCircle
 10
937.8456806862976
 20
-2025.594225820126
 30
0.0
 40
2.5
100
AcDbArc
 50
0.0
 51
90.0
  0
ARC
  5
1E5A3
330
1F
100
AcDbEntity
  8
0
370
    30
100
AcDbCircle
 10
940.0456806862976
 20
-2022.094225820126
 30
0.0
 40
2.0
100
AcDbArc
 50
0.0
 51
90.0
  0
ARC
  5
1E5A4
330
1F
100
AcDbEntity
  8
0
370
    30
100
AcDbCircle
 10
940.0456806862976
 20
-2022.094225820126
 30
0.0
 40
1.199999999999999
100
AcDbArc
 50
0.0
 51
90.0
  0
ARC
  5
1E5A5
330
1F
100
AcDbEntity
  8
0
370
    30
100
AcDbCircle
 10
921.4456806862976
 20
-1971.094225820126
 30
0.0
 40
12.5
100
AcDbArc
 50
136.1102443461057
 51
223.8917923880005
  0
ARC
  5
1E5A6
330
1F
100
AcDbEntity
  8
0
370
    30
100
AcDbCircle
 10
921.4456806862976
 20
-1971.094225820126
 30
0.0
 40
12.5
100
AcDbArc
 50
46.18792693369918
 51
133.8122520543967
  0
ARC
  5
1E5A7
330
1F
100
AcDbEntity
  8
0
370
    30
100
AcDbCircle
 10
921.4456806862976
 20
-1971.094225820126
 30
0.0
 40
12.5
100
AcDbArc
 50
316.1102443461055
 51
43.89179238800051
  0
ARC
  5
1E5A8
330
1F
100
AcDbEntity
  8
0
370
    30
100
AcDbCircle
 10
921.4456806862976
 20
-1971.094225820126
 30
0.0
 40
5.099999999999999
100
AcDbArc
 50
275.3852255632003
 51
264.6156980554985
  0
CIRCLE
  5
1E5A9
330
1F
100
AcDbEntity
  8
0
370
    30
100
AcDbCircle
 10
921.4456806862976
 20
-1971.094225820126
 30
0.0
 40
5.0
  0
CIRCLE
  5
1E5AA
330
1F
100
AcDbEntity
  8
0
370
    30
100
AcDbCircle
 10
921.4456806862976
 20
-1971.094225820126
 30
0.0
 40
4.2
  0
CIRCLE
  5
1E5AC
330
1F
100
AcDbEntity
  8
0
370
    30
100
AcDbCircle
 10
921.4456806862976
 20
-1971.094225820126
 30
0.0
 40
3.2
  0
SPLINE
  5
1E5AD
330
1F
100
AcDbEntity
  8
0
370
    -2
100
AcDbSpline
210
0.0
220
0.0
230
1.0
 70
     8
 71
     3
 72
    25
 73
    21
 74
     0
 42
0.000000001
 43
0.0000000001
 40
0.0
 40
0.0
 40
0.0
 40
0.0
 40
0.1574857722
 40
0.3223236289
 40
0.4045314145
 40
0.4849928425
 40
0.5625476817
 40
0.6360963971000001
 40
0.7046260238
 40
0.7672404407000001
 40
0.8231977561
 40
0.8719646872
 40
0.8935744715
 40
0.9133342949999999
 40
0.9312892812999999
 40
0.9475366151999999
 40
0.9622355894
 40
0.9756322731999999
 40
0.9880716741
 40
1.0
 40
1.0
 40
1.0
 40
1.0
 10
989.4914189689401
 20
-2120.71592686216
 30
0.0
 10
989.4071344604151
 20
-2119.971344059734
 30
0.0
 10
989.1666710683402
 20
-2118.454750775109
 30
0.0
 10
988.727545718015
 20
-2116.579008543235
 30
0.0
 10
988.291480560065
 20
-2115.082630317309
 30
0.0
 10
987.9311349144655
 20
-2113.997600535684
 30
0.0
 10
987.5430573938153
 20
-2112.96606694891
 30
0.0
 10
987.1334174522154
 20
-2112.004264843434
 30
0.0
 10
986.7087660808401
 20
-2111.127286917909
 30
0.0
 10
986.2758710555151
 20
-2110.348687552584
 30
0.0
 10
985.8415973357903
 20
-2109.680511931435
 30
0.0
 10
985.4705065112154
 20
-2109.206037795759
 30
0.0
 10
985.1758451090153
 20
-2108.894001004134
 30
0.0
 10
984.9675983559652
 20
-2108.703012992259
 30
0.0
 10
984.7638064589153
 20
-2108.546200608159
 30
0.0
 10
984.5651083520154
 20
-2108.424129983334
 30
0.0
 10
984.3719879958651
 20
-2108.337421790484
 30
0.0
 10
984.1849010777902
 20
-2108.286699655959
 30
0.0
 10
984.0045849456654
 20
-2108.272835586234
 30
0.0
 10
983.8886422253152
 20
-2108.288859228984
 30
0.0
 10
983.8336391414154
 20
-2108.302858007334
 30
0.0
  0
SPLINE
  5
1E5AE
330
1F
100
AcDbEntity
  8
0
370
    -2
100
AcDbSpline
210
0.0
220
0.0
230
1.0
 70
     8
 71
     3
 72
    19
 73
    15
 74
     0
 42
0.000000001
 43
0.0000000001
 40
0.0
 40
0.0
 40
0.0
 40
0.0
 40
0.1884347221
 40
0.3618693206
 40
0.5175483679
 40
0.6533151704
 40
0.7133156926000001
 40
0.7679571411000001
 40
0.8172962229999999
 40
0.8615387304999998
 40
0.9010849964
 40
0.9366075519
 40
0.9691197329999999
 40
1.0
 40
1.0
 40
1.0
 40
1.0
 10
980.7096089383401
 20
-2114.592400201059
 30
0.0
 10
980.6661440563402
 20
-2114.208424494909
 30
0.0
 10
980.5998119978154
 20
-2113.468928082084
 30
0.0
 10
980.5634304180651
 20
-2112.407549576484
 30
0.0
 10
980.5941713082653
 20
-2111.453944967333
 30
0.0
 10
980.6777477524404
 20
-2110.736703355209
 30
0.0
 10
980.7826068702654
 20
-2110.233667536684
 30
0.0
 10
980.8740451441401
 20
-2109.909717643509
 30
0.0
 10
980.98112053469
 20
-2109.624769830759
 30
0.0
 10
981.1034757737902
 20
-2109.380030772534
 30
0.0
 10
981.240892286315
 20
-2109.176558725809
 30
0.0
 10
981.3933553584652
 20
-2109.015390967659
 30
0.0
 10
981.5607357833151
 20
-2108.898070880484
 30
0.0
 10
981.6831398720152
 20
-2108.849933690259
 30
0.0
 10
981.7445101683654
 20
-2108.834313507384
 30
0.0
  0
SPLINE
  5
1E5AF
330
1F
100
AcDbEntity
  8
0
370
    -2
100
AcDbSpline
210
0.0
220
0.0
230
1.0
 70
     8
 71
     3
 72
    19
 73
    15
 74
     0
 42
0.000000001
 43
0.0000000001
 40
0.0
 40
0.0
 40
0.0
 40
0.0
 40
0.0303801059
 40
0.0624588281
 40
0.0976593373
 40
0.1370130381
 40
0.1811866962
 40
0.2305702869
 40
0.2853456599
 40
0.3455533751
 40
0.4818482140000001
 40
0.6380366497
 40
0.8117490291999999
 40
1.0
 40
1.0
 40
1.0
 40
1.0
 10
986.3673992908404
 20
-2127.005466327909
 30
0.0
 10
986.3041247301653
 20
-2127.021571190859
 30
0.0
 10
986.1691940226654
 20
-2127.037844862984
 30
0.0
 10
985.9592321660905
 20
-2127.011775074484
 30
0.0
 10
985.7411052950153
 20
-2126.93729695471
 30
0.0
 10
985.5157013111904
 20
-2126.815795269909
 30
0.0
 10
985.28351694569
 20
-2126.648314841034
 30
0.0
 10
985.0453699473654
 20
-2126.43570386521
 30
0.0
 10
984.8021886631402
 20
-2126.17901772796
 30
0.0
 10
984.4584858167154
 20
-2125.762032456535
 30
0.0
 10
984.0291392033154
 20
-2125.135649103309
 30
0.0
 10
983.5326292715151
 20
-2124.264492719035
 30
0.0
 10
983.0458536717651
 20
-2123.262172006659
 30
0.0
 10
982.7448241586902
 20
-2122.544436312459
 30
0.0
 10
982.5970884620153
 20
-2122.167791320585
 30
0.0
  0
SPLINE
  5
1E5B0
330
1F
100
AcDbEntity
  8
0
370
    -2
100
AcDbSpline
210
0.0
220
0.0
230
1.0
 70
     8
 71
     3
 72
    19
 73
    15
 74
     0
 42
0.000000001
 43
0.0000000001
 40
0.0
 40
0.0
 40
0.0
 40
0.0
 40
0.0308801862
 40
0.063392199
 40
0.0989145397
 40
0.1384605131
 40
0.1827027357
 40
0.2320414803
 40
0.2866826803
 40
0.3466829525
 40
0.4824496858
 40
0.638129063
 40
0.8115644940000001
 40
1.0
 40
1.0
 40
1.0
 40
1.0
 10
988.45650721394
 20
-2126.47401628366
 30
0.0
 10
988.5178776702653
 20
-2126.45839695181
 30
0.0
 10
988.6402821041905
 20
-2126.41026144406
 30
0.0
 10
988.8076637023402
 20
-2126.292944012559
 30
0.0
 10
988.96012746644
 20
-2126.131778237859
 30
0.0
 10
989.0975452474402
 20
-2125.928308485683
 30
0.0
 10
989.2199010301402
 20
-2125.68357123151
 30
0.0
 10
989.3269777496152
 20
-2125.39862526196
 30
0.0
 10
989.4184165960403
 20
-2125.074676679933
 30
0.0
 10
989.5232776640902
 20
-2124.57164154796
 30
0.0
 10
989.6068553969151
 20
-2123.854398728034
 30
0.0
 10
989.6375977514152
 20
-2122.900790257959
 30
0.0
 10
989.6012164097154
 20
-2121.83940586366
 30
0.0
 10
989.5348841078151
 20
-2121.099904838034
 30
0.0
 10
989.4914189689401
 20
-2120.71592686216
 30
0.0
  0
SPLINE
  5
1E5B1
330
1F
100
AcDbEntity
  8
0
370
    -2
100
AcDbSpline
210
0.0
220
0.0
230
1.0
 70
     8
 71
     3
 72
    19
 73
    15
 74
     0
 42
0.000000001
 43
0.0000000001
 40
0.0
 40
0.0
 40
0.0
 40
0.0
 40
0.1884347221
 40
0.3618693206
 40
0.5175483679
 40
0.6533151704
 40
0.7133156926000001
 40
0.7679571411000001
 40
0.8172962229999999
 40
0.8615387304999998
 40
0.9010849964
 40
0.9366075519
 40
0.9691197329999999
 40
1.0
 40
1.0
 40
1.0
 40
1.0
 10
987.4023005208654
 20
-2121.247379634309
 30
0.0
 10
987.4457654028651
 20
-2121.631355340383
 30
0.0
 10
987.5120974613901
 20
-2122.370851753284
 30
0.0
 10
987.5484790411404
 20
-2123.432230258808
 30
0.0
 10
987.5177381509402
 20
-2124.385834867959
 30
0.0
 10
987.4341617067651
 20
-2125.103076480158
 30
0.0
 10
987.3293025889404
 20
-2125.606112298609
 30
0.0
 10
987.2378643150652
 20
-2125.930062191784
 30
0.0
 10
987.1307889245153
 20
-2126.215010004534
 30
0.0
 10
987.0084336854151
 20
-2126.459749062759
 30
0.0
 10
986.8710171728903
 20
-2126.663221109559
 30
0.0
 10
986.7185541007401
 20
-2126.824388867634
 30
0.0
 10
986.5511736758904
 20
-2126.941708954809
 30
0.0
 10
986.4287695871901
 20
-2126.989846145034
 30
0.0
 10
986.3673992908404
 20
-2127.005466327909
 30
0.0
  0
SPLINE
  5
1E5B2
330
1F
100
AcDbEntity
  8
0
370
    -2
100
AcDbSpline
210
0.0
220
0.0
230
1.0
 70
     8
 71
     3
 72
    25
 73
    21
 74
     0
 42
0.000000001
 43
0.0000000001
 40
0.0
 40
0.0
 40
0.0
 40
0.0
 40
0.011928359
 40
0.0243677712
 40
0.0377644582
 40
0.0524634228
 40
0.0687107529
 40
0.0866657207
 40
0.1064255132
 40
0.1280352545
 40
0.1768020179
 40
0.2327590943
 40
0.2953732638
 40
0.363902681
 40
0.4374512123
 40
0.5150058729
 40
0.5954671875999999
 40
0.6776750190000001
 40
0.8425134615000001
 40
1.0
 40
1.0
 40
1.0
 40
1.0
 10
981.7445101683654
 20
-2108.834313507384
 30
0.0
 10
981.7995132551155
 20
-2108.82031392901
 30
0.0
 10
981.91545605459
 20
-2108.804288604459
 30
0.0
 10
982.0957727597152
 20
-2108.818150604409
 30
0.0
 10
982.2828602573903
 20
-2108.868871320159
 30
0.0
 10
982.4759814026153
 20
-2108.955578067234
 30
0.0
 10
982.6746800176405
 20
-2109.077647956683
 30
0.0
 10
982.8784725101154
 20
-2109.234459463134
 30
0.0
 10
983.0867196212155
 20
-2109.425446768359
 30
0.0
 10
983.3813810582151
 20
-2109.737482391334
 30
0.0
 10
983.7524716662654
 20
-2110.211954560884
 30
0.0
 10
984.1867449074152
 20
-2110.880127502209
 30
0.0
 10
984.6196395464151
 20
-2111.658724062909
 30
0.0
 10
985.0442907740156
 20
-2112.535699487634
 30
0.0
 10
985.4539308137155
 20
-2113.497499449759
 30
0.0
 10
985.8420086744152
 20
-2114.529031377609
 30
0.0
 10
986.2023550312404
 20
-2115.614060599134
 30
0.0
 10
986.6384222693902
 20
-2117.11044201331
 30
0.0
 10
987.0775505832652
 20
-2118.986191893085
 30
0.0
 10
987.3180155386402
 20
-2120.502792646735
 30
0.0
 10
987.4023005208654
 20
-2121.247379634309
 30
0.0
  0
SPLINE
  5
1E5B3
330
1F
100
AcDbEntity
  8
0
370
    -2
100
AcDbSpline
210
0.0
220
0.0
230
1.0
 70
     8
 71
     3
 72
    11
 73
     7
 74
     0
 42
0.000000001
 43
0.0000000001
 40
0.0
 40
0.0
 40
0.0
 40
0.0
 40
0.2558266816
 40
0.5068481514000001
 40
0.7543576545999999
 40
1.0
 40
1.0
 40
1.0
 40
1.0
 10
866.2796979396651
 20
-2129.160212376909
 30
0.0
 10
866.3586104726149
 20
-2129.857338290409
 30
0.0
 10
866.6234621460651
 20
-2131.229052465158
 30
0.0
 10
867.3468987825653
 20
-2133.177253187935
 30
0.0
 10
868.3761430016902
 20
-2134.950834106808
 30
0.0
 10
869.2530586237401
 20
-2135.991129974559
 30
0.0
 10
869.7307262685651
 20
-2136.466141535784
 30
0.0
  0
SPLINE
  5
1E5B4
330
1F
100
AcDbEntity
  8
0
370
    -2
100
AcDbSpline
210
0.0
220
0.0
230
1.0
 70
     8
 71
     3
 72
    11
 73
     7
 74
     0
 42
0.000000001
 43
0.0000000001
 40
0.0
 40
0.0
 40
0.0
 40
0.0
 40
0.2446949616
 40
0.4929916515
 40
0.7448445023
 40
1.0
 40
1.0
 40
1.0
 40
1.0
 10
896.4065318607651
 20
-2123.378174100685
 30
0.0
 10
896.4744959356401
 20
-2123.978579586984
 30
0.0
 10
896.531209096865
 20
-2125.198664650434
 30
0.0
 10
896.3825073401151
 20
-2127.036528677709
 30
0.0
 10
896.0048504713403
 20
-2128.867508334384
 30
0.0
 10
895.6072776252652
 20
-2130.058232370384
 30
0.0
 10
895.3737988784151
 20
-2130.643447547635
 30
0.0
  0
SPLINE
  5
1E5B5
330
1F
100
AcDbEntity
  8
0
370
    -2
100
AcDbSpline
210
0.0
220
0.0
230
1.0
 70
     8
 71
     3
 72
    15
 73
    11
 74
     0
 42
0.000000001
 43
0.0000000001
 40
0.0
 40
0.0
 40
0.0
 40
0.0
 40
0.1312762107
 40
0.2606611762
 40
0.3880133389
 40
0.5133481385000001
 40
0.6368394006
 40
0.7588066340000001
 40
0.8796849227999999
 40
1.0
 40
1.0
 40
1.0
 40
1.0
 10
885.836229540215
 20
-2140.232324980659
 30
0.0
 10
885.1936323695904
 20
-2140.49270732341
 30
0.0
 10
883.8833297213906
 20
-2140.929588716784
 30
0.0
 10
881.8653723116902
 20
-2141.318866224159
 30
0.0
 10
879.8438803164652
 20
-2141.429138788959
 30
0.0
 10
877.857715707965
 20
-2141.255811948235
 30
0.0
 10
875.94564915629
 20
-2140.799817468609
 30
0.0
 10
874.1462440639402
 20
-2140.067660390483
 30
0.0
 10
872.4974558522902
 20
-2139.072776409609
 30
0.0
 10
871.5202287596154
 20
-2138.245584986484
 30
0.0
 10
871.0696266125152
 20
-2137.79752190386
 30
0.0
  0
SPLINE
  5
1E5B6
330
1F
100
AcDbEntity
  8
0
370
    -2
100
AcDbSpline
210
0.0
220
0.0
230
1.0
 70
     8
 71
     3
 72
    11
 73
     7
 74
     0
 42
0.000000001
 43
0.0000000001
 40
0.0
 40
0.0
 40
0.0
 40
0.0
 40
0.246740441
 40
0.4948550352
 40
0.7456014606999999
 40
1.0
 40
1.0
 40
1.0
 40
1.0
 10
892.8574059199402
 20
-2115.886276552433
 30
0.0
 10
893.3496943282401
 20
-2116.375791001434
 30
0.0
 10
894.2527726918401
 20
-2117.446532168035
 30
0.0
 10
895.3119005347401
 20
-2119.269015587559
 30
0.0
 10
896.0545168243402
 20
-2121.264390889285
 30
0.0
 10
896.3260208443401
 20
-2122.666926929109
 30
0.0
 10
896.4065318607651
 20
-2123.378174100685
 30
0.0
  0
SPLINE
  5
1E5B7
330
1F
100
AcDbEntity
  8
0
370
    -2
100
AcDbSpline
210
0.0
220
0.0
230
1.0
 70
     8
 71
     3
 72
    25
 73
    21
 74
     0
 42
0.000000001
 43
0.0000000001
 40
0.0
 40
0.0
 40
0.0
 40
0.0
 40
0.0571451869
 40
0.085896934
 40
0.1148227235
 40
0.1733321201
 40
0.2330435243
 40
0.263436044
 40
0.2941832964
 40
0.356686205
 40
0.4204958644
 40
0.4853867139
 40
0.5510386889
 40
0.6170678303
 40
0.6830594869
 40
0.7486019181999999
 40
0.8133199826
 40
0.8769094537
 40
0.9391616932999999
 40
1.0
 40
1.0
 40
1.0
 40
1.0
 10
891.5192296309403
 20
-2114.555665147284
 30
0.0
 10
891.0190859157651
 20
-2114.058302494433
 30
0.0
 10
890.1957514459402
 20
-2113.378024154784
 30
0.0
 10
888.9892867195403
 20
-2112.631753011459
 30
0.0
 10
887.7052637921904
 20
-2111.989030897734
 30
0.0
 10
885.9777557054151
 20
-2111.396944490409
 30
0.0
 10
884.1574635953154
 20
-2111.106006049884
 30
0.0
 10
882.6654061411405
 20
-2111.051843858784
 30
0.0
 10
881.1392990823653
 20
-2111.118536618559
 30
0.0
 10
879.21778801319
 20
-2111.431878241059
 30
0.0
 10
876.9633111836904
 20
-2112.157123804584
 30
0.0
 10
874.8012791745653
 20
-2113.215076595109
 30
0.0
 10
872.7853447271904
 20
-2114.579094286434
 30
0.0
 10
870.9650781507651
 20
-2116.215228606609
 30
0.0
 10
869.3854454278401
 20
-2118.082976278435
 30
0.0
 10
868.0855760913653
 20
-2120.136261376959
 30
0.0
 10
867.0978487609401
 20
-2122.324430793685
 30
0.0
 10
866.4472963104651
 20
-2124.593795904384
 30
0.0
 10
866.1506225614401
 20
-2126.887518999834
 30
0.0
 10
866.1952342919901
 20
-2128.41404703046
 30
0.0
 10
866.2796979396651
 20
-2129.160212376909
 30
0.0
  0
SPLINE
  5
1E5B8
330
1F
100
AcDbEntity
  8
0
370
    -2
100
AcDbSpline
210
0.0
220
0.0
230
1.0
 70
     8
 71
     3
 72
    23
 73
    19
 74
     0
 42
0.000000001
 43
0.0000000001
 40
0.0
 40
0.0
 40
0.0
 40
0.0
 40
0.0618415113
 40
0.1254470669
 40
0.1906212626
 40
0.2569477776
 40
0.3238597816
 40
0.3907170107
 40
0.4568861582000001
 40
0.5218206964000001
 40
0.5851372101
 40
0.6466789644
 40
0.7065577905
 40
0.7651579006000001
 40
0.8230885674999999
 40
0.8810823489
 40
0.9398592736999999
 40
1.0
 40
1.0
 40
1.0
 40
1.0
 10
869.5463972147901
 20
-2130.669304770159
 30
0.0
 10
869.4521820797902
 20
-2129.832822854934
 30
0.0
 10
869.4358556298654
 20
-2128.111984108734
 30
0.0
 10
869.9143229800402
 20
-2125.547037620259
 30
0.0
 10
870.8720148818153
 20
-2123.054639691534
 30
0.0
 10
872.2720504643902
 20
-2120.72949671311
 30
0.0
 10
874.0607250911152
 20
-2118.658214811159
 30
0.0
 10
876.1706529684655
 20
-2116.918625423034
 30
0.0
 10
878.5226916697403
 20
-2115.576350325309
 30
0.0
 10
881.0289160042403
 20
-2114.682922059534
 30
0.0
 10
883.5953909420153
 20
-2114.273685574509
 30
0.0
 10
886.1252122574903
 20
-2114.366978000409
 30
0.0
 10
888.5211954034401
 20
-2114.962589399634
 30
0.0
 10
890.6889024577404
 20
-2116.040938813284
 30
0.0
 10
892.5407856227904
 20
-2117.561552959509
 30
0.0
 10
894.00146338709
 20
-2119.464228113859
 30
0.0
 10
895.013560608665
 20
-2121.670171285209
 30
0.0
 10
895.3589675236401
 20
-2123.265912640284
 30
0.0
 10
895.4514659708902
 20
-2124.079290395485
 30
0.0
  0
SPLINE
  5
1E5B9
330
1F
100
AcDbEntity
  8
0
370
    -2
100
AcDbSpline
210
0.0
220
0.0
230
1.0
 70
     8
 71
     3
 72
    25
 73
    21
 74
     0
 42
0.000000001
 43
0.0000000001
 40
0.0
 40
0.0
 40
0.0
 40
0.0
 40
0.0608379799
 40
0.1230897947
 40
0.186679089
 40
0.2513971134
 40
0.3169394879
 40
0.3829312202
 40
0.4489605574000001
 40
0.5146126483
 40
0.5795035848
 40
0.6433133549
 40
0.7058163284000001
 40
0.7365635879000001
 40
0.7669561137000001
 40
0.826667647
 40
0.8851772695999999
 40
0.9141031160999999
 40
0.9428548851
 40
1.0
 40
1.0
 40
1.0
 40
1.0
 10
867.6182362561403
 20
-2130.491208263634
 30
0.0
 10
867.5337742389654
 20
-2129.745057320784
 30
0.0
 10
867.4891608002152
 20
-2128.218560289159
 30
0.0
 10
867.7858173512152
 20
-2125.924879358484
 30
0.0
 10
868.4363425033403
 20
-2123.655549191709
 30
0.0
 10
869.4240332009151
 20
-2121.467403875035
 30
0.0
 10
870.7238622035903
 20
-2119.414133788885
 30
0.0
 10
872.3034509420903
 20
-2117.546390336034
 30
0.0
 10
874.1236724891155
 20
-2115.910250008059
 30
0.0
 10
876.1395607865152
 20
-2114.546216225408
 30
0.0
 10
878.3015465857401
 20
-2113.488237130209
 30
0.0
 10
880.5559794734154
 20
-2112.76295312161
 30
0.0
 10
882.4774580188401
 20
-2112.449569044909
 30
0.0
 10
884.0035428770153
 20
-2112.382835220909
 30
0.0
 10
885.4955828168902
 20
-2112.436953352284
 30
0.0
 10
887.3158629140901
 20
-2112.727829560434
 30
0.0
 10
889.0433729559655
 20
-2113.319846275434
 30
0.0
 10
890.327406464765
 20
-2113.962510831084
 30
0.0
 10
891.5338848823401
 20
-2114.708722301334
 30
0.0
 10
892.3572371378902
 20
-2115.388954304034
 30
0.0
 10
892.8573957801654
 20
-2115.886286749809
 30
0.0
  0
SPLINE
  5
1E5BA
330
1F
100
AcDbEntity
  8
0
370
    -2
100
AcDbSpline
210
0.0
220
0.0
230
1.0
 70
     8
 71
     3
 72
    11
 73
     7
 74
     0
 42
0.000000001
 43
0.0000000001
 40
0.0
 40
0.0
 40
0.0
 40
0.0
 40
0.2456429514
 40
0.493152525
 40
0.7441734540999999
 40
1.0
 40
1.0
 40
1.0
 40
1.0
 10
871.0696367522901
 20
-2137.79751170656
 30
0.0
 10
870.5919158426151
 20
-2137.322490206859
 30
0.0
 10
869.7149019128152
 20
-2136.282159425184
 30
0.0
 10
868.6855419041151
 20
-2134.508492012709
 30
0.0
 10
867.9620289163404
 20
-2132.56017814246
 30
0.0
 10
867.6971537978904
 20
-2131.188378425035
 30
0.0
 10
867.6182362561403
 20
-2130.491208263634
 30
0.0
  0
SPLINE
  5
1E5BB
330
1F
100
AcDbEntity
  8
0
370
    -2
100
AcDbSpline
210
0.0
220
0.0
230
1.0
 70
     8
 71
     3
 72
    10
 73
     6
 74
     0
 42
0.000000001
 43
0.0000000001
 40
0.0
 40
0.0
 40
0.0
 40
0.0
 40
0.2440844807
 40
0.4923244518
 40
1.0
 40
1.0
 40
1.0
 40
1.0
 10
895.4514659708902
 20
-2124.079290395485
 30
0.0
 10
895.5062504553655
 20
-2124.565690277034
 30
0.0
 10
895.5583504760905
 20
-2125.554465312909
 30
0.0
 10
895.4316419156901
 20
-2127.558778839534
 30
0.0
 10
895.079280347315
 20
-2129.049489425483
 30
0.0
 10
894.7437951504653
 20
-2130.010693350383
 30
0.0
  0
SPLINE
  5
1E5BC
330
1F
100
AcDbEntity
  8
0
370
    -2
100
AcDbSpline
210
0.0
220
0.0
230
1.0
 70
     8
 71
     3
 72
    16
 73
    12
 74
     0
 42
0.000000001
 43
0.0000000001
 40
0.0
 40
0.0
 40
0.0
 40
0.0
 40
0.133432306
 40
0.2630251557
 40
0.3887743673
 40
0.5113662915
 40
0.6321001056000001
 40
0.7526578275000001
 40
0.8747575906999999
 40
0.9369528173999999
 40
1.0
 40
1.0
 40
1.0
 40
1.0
 10
885.2079183675654
 20
-2139.602839353685
 30
0.0
 10
884.3336421360652
 20
-2139.913788564835
 30
0.0
 10
882.5467256102152
 20
-2140.365015231909
 30
0.0
 10
879.8270215751902
 20
-2140.488011584734
 30
0.0
 10
877.2150565960403
 20
-2140.040218376709
 30
0.0
 10
874.82752655294
 20
-2139.036065116434
 30
0.0
 10
872.7730586414153
 20
-2137.516435544934
 30
0.0
 10
871.1470797549653
 20
-2135.550105176034
 30
0.0
 10
870.2145157509651
 20
-2133.622466649835
 30
0.0
 10
869.7407578595155
 20
-2131.96601568481
 30
0.0
 10
869.5959388510404
 20
-2131.104945216984
 30
0.0
 10
869.5463972147901
 20
-2130.669304770159
 30
0.0
  0
SPLINE
  5
1E5BD
330
1F
100
AcDbEntity
  8
0
370
    -2
100
AcDbSpline
210
0.0
220
0.0
230
1.0
 70
     8
 71
     3
 72
    11
 73
     7
 74
     0
 42
0.000000001
 43
0.0000000001
 40
0.0
 40
0.0
 40
0.0
 40
0.0
 40
0.2558138034
 40
0.5068538406
 40
0.7543562946
 40
1.0
 40
1.0
 40
1.0
 40
1.0
 10
876.2315762486153
 20
-2128.968655899309
 30
0.0
 10
876.2660520425905
 20
-2129.273220567009
 30
0.0
 10
876.3817854443905
 20
-2129.87253568591
 30
0.0
 10
876.697833675665
 20
-2130.723730208409
 30
0.0
 10
877.1475674623403
 20
-2131.498614596409
 30
0.0
 10
877.5307020358402
 20
-2131.953113583684
 30
0.0
 10
877.73939822354
 20
-2132.160653029884
 30
0.0
  0
SPLINE
  5
1E5BE
330
1F
100
AcDbEntity
  8
0
370
    -2
100
AcDbSpline
210
0.0
220
0.0
230
1.0
 70
     8
 71
     3
 72
    11
 73
     7
 74
     0
 42
0.000000001
 43
0.0000000001
 40
0.0
 40
0.0
 40
0.0
 40
0.0
 40
0.2456417075
 40
0.4931427455
 40
0.7441844072000001
 40
1.0
 40
1.0
 40
1.0
 40
1.0
 10
902.7853274236402
 20
-2138.027313988359
 30
0.0
 10
902.9940475187151
 20
-2138.234855607234
 30
0.0
 10
903.3772263052401
 20
-2138.689367675259
 30
0.0
 10
903.8270185150402
 20
-2139.464289823359
 30
0.0
 10
904.14310548674
 20
-2140.315542022584
 30
0.0
 10
904.2588529275651
 20
-2140.914903148434
 30
0.0
 10
904.2933314083404
 20
-2141.219491551534
 30
0.0
  0
SPLINE
  5
1E5BF
330
1F
100
AcDbEntity
  8
0
370
    -2
100
AcDbSpline
210
0.0
220
0.0
230
1.0
 70
     8
 71
     3
 72
    19
 73
    15
 74
     0
 42
0.000000001
 43
0.0000000001
 40
0.0
 40
0.0
 40
0.0
 40
0.0
 40
0.0572254823
 40
0.1149265482
 40
0.1735190224
 40
0.2333148105
 40
0.2944914596
 40
0.3570820072999999
 40
0.4856276182000001
 40
0.6171808193000001
 40
0.7485861114
 40
0.8767345537
 40
0.939077859
 40
1.0
 40
1.0
 40
1.0
 40
1.0
 10
887.2584649621403
 20
-2122.587942135758
 30
0.0
 10
887.0399598884903
 20
-2122.370648171559
 30
0.0
 10
886.5597242249149
 20
-2121.973804815535
 30
0.0
 10
885.7390882943901
 20
-2121.51694478251
 30
0.0
 10
884.8373855088652
 20
-2121.208030969059
 30
0.0
 10
883.8781242294651
 20
-2121.054624936684
 30
0.0
 10
882.8853020008406
 20
-2121.060001291809
 30
0.0
 10
881.5397390759903
 20
-2121.279301127034
 30
0.0
 10
879.9060485710404
 20
-2121.94521210541
 30
0.0
 10
878.2271702417904
 20
-2123.262412148485
 30
0.0
 10
876.962229598115
 20
-2124.978400485234
 30
0.0
 10
876.34921069154
 20
-2126.628560001009
 30
0.0
 10
876.1752453128902
 20
-2127.975641123635
 30
0.0
 10
876.1946760547404
 20
-2128.642673696409
 30
0.0
 10
876.2315762486153
 20
-2128.968655899309
 30
0.0
  0
SPLINE
  5
1E5C0
330
1F
100
AcDbEntity
  8
0
370
    -2
100
AcDbSpline
210
0.0
220
0.0
230
1.0
 70
     8
 71
     3
 72
    19
 73
    15
 74
     0
 42
0.000000001
 43
0.0000000001
 40
0.0
 40
0.0
 40
0.0
 40
0.0
 40
0.0609213819
 40
0.1232639479
 40
0.2514125296
 40
0.3828193522999999
 40
0.5143743943
 40
0.6429208377000001
 40
0.7055113346999999
 40
0.7666876356
 40
0.8264828401999999
 40
0.8850746257999999
 40
0.9427750370999998
 40
1.0
 40
1.0
 40
1.0
 40
1.0
 10
904.2933314083404
 20
-2141.219491551534
 30
0.0
 10
904.330230560615
 20
-2141.545464552684
 30
0.0
 10
904.3496633337651
 20
-2142.212478258459
 30
0.0
 10
904.1757090334401
 20
-2143.559531626509
 30
0.0
 10
903.5627159018151
 20
-2145.209675752659
 30
0.0
 10
902.297802663965
 20
-2146.92566649496
 30
0.0
 10
900.6189490419652
 20
-2148.24288014746
 30
0.0
 10
898.98528192824
 20
-2148.908810539584
 30
0.0
 10
897.6397424304655
 20
-2149.128133534285
 30
0.0
 10
896.6469415702404
 20
-2149.133533580633
 30
0.0
 10
895.6876998664402
 20
-2148.980159610834
 30
0.0
 10
894.7860105472402
 20
-2148.671286267984
 30
0.0
 10
893.9653772538655
 20
-2148.214473233559
 30
0.0
 10
893.4851356568902
 20
-2147.81766294241
 30
0.0
 10
893.2666247046654
 20
-2147.600385747609
 30
0.0
  0
SPLINE
  5
1E5C1
330
1F
100
AcDbEntity
  8
0
370
    -2
100
AcDbSpline
210
0.0
220
0.0
230
1.0
 70
     8
 71
     3
 72
    19
 73
    15
 74
     0
 42
0.000000001
 43
0.0000000001
 40
0.0
 40
0.0
 40
0.0
 40
0.0
 40
0.0609213819
 40
0.1232639479
 40
0.2514125296
 40
0.3828193522999999
 40
0.5143743943
 40
0.6429208377000001
 40
0.7055113346999999
 40
0.7666876356
 40
0.8264828401999999
 40
0.8850746257999999
 40
0.9427750370999998
 40
1.0
 40
1.0
 40
1.0
 40
1.0
 10
891.7586207198901
 20
-2144.408208184434
 30
0.0
 10
891.7217215676902
 20
-2144.082235183284
 30
0.0
 10
891.7022887944654
 20
-2143.415221477583
 30
0.0
 10
891.8762430948655
 20
-2142.068168109459
 30
0.0
 10
892.4892362264902
 20
-2140.418023983309
 30
0.0
 10
893.7541494643403
 20
-2138.702033241083
 30
0.0
 10
895.4330030863404
 20
-2137.384819588509
 30
0.0
 10
897.066670200065
 20
-2136.718889196384
 30
0.0
 10
898.4122096977651
 20
-2136.499566201685
 30
0.0
 10
899.4050105579901
 20
-2136.494166155335
 30
0.0
 10
900.3642522618655
 20
-2136.647540125133
 30
0.0
 10
901.2659415809903
 20
-2136.956413468059
 30
0.0
 10
902.0865748743652
 20
-2137.413226502484
 30
0.0
 10
902.5668164714154
 20
-2137.810036793558
 30
0.0
 10
902.7853274236402
 20
-2138.027313988359
 30
0.0
  0
SPLINE
  5
1E5C2
330
1F
100
AcDbEntity
  8
0
370
    -2
100
AcDbSpline
210
0.0
220
0.0
230
1.0
 70
     8
 71
     3
 72
    11
 73
     7
 74
     0
 42
0.000000001
 43
0.0000000001
 40
0.0
 40
0.0
 40
0.0
 40
0.0
 40
0.2456417075
 40
0.4931427455
 40
0.7441844072000001
 40
1.0
 40
1.0
 40
1.0
 40
1.0
 10
893.2666247046654
 20
-2147.600385747609
 30
0.0
 10
893.0579046095903
 20
-2147.392844128734
 30
0.0
 10
892.6747258230655
 20
-2146.938332060784
 30
0.0
 10
892.2249336132654
 20
-2146.163409912609
 30
0.0
 10
891.9088466414903
 20
-2145.312157713459
 30
0.0
 10
891.7930992006652
 20
-2144.712796587534
 30
0.0
 10
891.7586207198901
 20
-2144.408208184434
 30
0.0
  0
SPLINE
  5
1E5C3
330
1F
100
AcDbEntity
  8
0
370
    -2
100
AcDbSpline
210
0.0
220
0.0
230
1.0
 70
     8
 71
     3
 72
    11
 73
     7
 74
     0
 42
0.000000001
 43
0.0000000001
 40
0.0
 40
0.0
 40
0.0
 40
0.0
 40
0.3147355168
 40
0.5794593012
 40
0.8021769023999999
 40
1.0
 40
1.0
 40
1.0
 40
1.0
 10
983.6719785548154
 20
-2114.527783094109
 30
0.0
 10
983.6261062762403
 20
-2114.482169297859
 30
0.0
 10
983.536684723265
 20
-2114.402798938359
 30
0.0
 10
983.3956821768653
 20
-2114.315236578159
 30
0.0
 10
983.2596289422651
 20
-2114.271773041134
 30
0.0
 10
983.17080864299
 20
-2114.275614487659
 30
0.0
 10
983.1314062997151
 20
-2114.285651099558
 30
0.0
  0
SPLINE
  5
1E5C4
330
1F
100
AcDbEntity
  8
0
370
    -2
100
AcDbSpline
210
0.0
220
0.0
230
1.0
 70
     8
 71
     3
 72
    22
 73
    18
 74
     0
 42
0.000000001
 43
0.0000000001
 40
0.0
 40
0.0
 40
0.0
 40
0.0
 40
0.0248749946
 40
0.0394929875
 40
0.056200063
 40
0.0967487909
 40
0.1472910293
 40
0.2073141848
 40
0.2756544939
 40
0.3507384491
 40
0.4307140198
 40
0.5970258888000001
 40
0.7575406201999999
 40
0.8304786373
 40
0.8960793404
 40
0.9529259441
 40
1.0
 40
1.0
 40
1.0
 40
1.0
 10
984.9805031594904
 20
-2121.554128735809
 30
0.0
 10
985.0411611614902
 20
-2121.538677857184
 30
0.0
 10
985.1297848628151
 20
-2121.481518205584
 30
0.0
 10
985.2170458616154
 20
-2121.369987086634
 30
0.0
 10
985.3037689952154
 20
-2121.21030217396
 30
0.0
 10
985.3831386641905
 20
-2120.948679469659
 30
0.0
 10
985.4377186734652
 20
-2120.571658190109
 30
0.0
 10
985.4548378797653
 20
-2120.121089779584
 30
0.0
 10
985.43387891069
 20
-2119.60918439056
 30
0.0
 10
985.3750912405402
 20
-2119.049766938109
 30
0.0
 10
985.2464441703652
 20
-2118.25104227356
 30
0.0
 10
985.0082619121401
 20
-2117.253839062958
 30
0.0
 10
984.6843982555402
 20
-2116.299375520134
 30
0.0
 10
984.3813240926154
 20
-2115.610107568584
 30
0.0
 10
984.1528992507651
 20
-2115.174119468709
 30
0.0
 10
983.9226728238653
 20
-2114.814397817484
 30
0.0
 10
983.7559760298654
 20
-2114.611307258034
 30
0.0
 10
983.6719785548154
 20
-2114.527783094109
 30
0.0
  0
SPLINE
  5
1E5C5
330
1F
100
AcDbEntity
  8
0
370
    30
100
AcDbSpline
210
0.0
220
0.0
230
1.0
 70
     8
 71
     3
 72
    17
 73
    13
 74
     0
 42
0.000000001
 43
0.0000000001
 40
0.0
 40
0.0
 40
0.0
 40
0.0
 40
0.0423635238
 40
0.1555370836
 40
0.3150180096
 40
0.4057290847
 40
0.5000122080000001
 40
0.5942888178
 40
0.6849892737000002
 40
0.8444412960999999
 40
0.9576321709
 40
1.0
 40
1.0
 40
1.0
 40
1.0
 10
694.1275617649645
 20
-1976.194225820126
 30
0.0
 10
694.0524276723644
 20
-1976.061573019126
 30
0.0
 10
693.7819101101645
 20
-1975.571467294726
 30
0.0
 10
693.2805761665645
 20
-1974.553856408626
 30
0.0
 10
692.8336115319646
 20
-1973.318107730026
 30
0.0
 10
692.5894233014645
 20
-1972.099912001026
 30
0.0
 10
692.5196102176645
 20
-1971.094112171626
 30
0.0
 10
692.5895244835645
 20
-1970.088371134526
 30
0.0
 10
692.8334651986645
 20
-1968.870292621926
 30
0.0
 10
693.2806103012645
 20
-1967.634680074326
 30
0.0
 10
693.7819037670644
 20
-1966.617087412026
 30
0.0
 10
694.0524285299646
 20
-1966.126897498426
 30
0.0
 10
694.1275617649645
 20
-1965.994225820126
 30
0.0
  0
SPLINE
  5
1E5C6
330
1F
100
AcDbEntity
  8
0
370
    30
100
AcDbSpline
210
0.0
220
0.0
230
1.0
 70
     8
 71
     3
 72
     9
 73
     5
 74
     0
 42
0.000000001
 43
0.0000000001
 40
0.0
 40
0.0
 40
0.0
 40
0.0
 40
0.0729428986
 40
1.0
 40
1.0
 40
1.0
 40
1.0
 10
926.4456806862975
 20
-2012.544225820126
 30
0.0
 10
926.4405115665976
 20
-2012.527569874826
 30
0.0
 10
926.3702215254975
 20
-2012.299032563726
 30
0.0
 10
926.3079840292975
 20
-2012.067857212526
 30
0.0
 10
926.2590228720975
 20
-2011.851672439426
 30
0.0
  0
SPLINE
  5
1E5C7
330
1F
100
AcDbEntity
  8
0
370
    30
100
AcDbSpline
210
0.0
220
0.0
230
1.0
 70
     8
 71
     3
 72
    11
 73
     7
 74
     0
 42
0.000000001
 43
0.0000000001
 40
0.0
 40
0.0
 40
0.0
 40
0.0
 40
0.1481497681
 40
0.5000086258
 40
0.8518614227
 40
1.0
 40
1.0
 40
1.0
 40
1.0
 10
930.4456806862976
 20
-2012.194225820126
 30
0.0
 10
930.3979848789976
 20
-2011.990742186626
 30
0.0
 10
930.2587991844974
 20
-2011.298091411726
 30
0.0
 10
930.1539723795977
 20
-2010.094197599126
 30
0.0
 10
930.2588057980976
 20
-2008.890320508827
 30
0.0
 10
930.3979884558975
 20
-2008.197694087426
 30
0.0
 10
930.4456806862976
 20
-2007.994225820127
 30
0.0
  0
SPLINE
  5
1E5C8
330
1F
100
AcDbEntity
  8
0
370
    -2
100
AcDbSpline
210
0.0
220
0.0
230
1.0
 70
     8
 71
     3
 72
    23
 73
    19
 74
     0
 42
0.000000001
 43
0.0000000001
 40
0.0
 40
0.0
 40
0.0
 40
0.0
 40
0.0094309593
 40
0.0381961075
 40
0.0856622947
 40
0.1489439927
 40
0.2257956095
 40
0.3121110913
 40
0.4046385256000001
 40
0.4996023072
 40
0.5944769360000001
 40
0.6868098772
 40
0.7729807812000001
 40
0.8499519698
 40
0.9135860880999999
 40
0.961451598
 40
0.9904883476
 40
1.0
 40
1.0
 40
1.0
 40
1.0
 10
930.4456806862976
 20
-2007.594225820126
 30
0.0
 10
930.4414177043975
 20
-2007.609567785926
 30
0.0
 10
930.4242914232975
 20
-2007.671742681426
 30
0.0
 10
930.3871484652976
 20
-2007.811528820527
 30
0.0
 10
930.3307955192975
 20
-2008.040263839126
 30
0.0
 10
930.2635157432975
 20
-2008.349835253526
 30
0.0
 10
930.1959933291975
 20
-2008.726268212027
 30
0.0
 10
930.1385210629975
 20
-2009.154310273526
 30
0.0
 10
930.1005539281975
 20
-2009.615260950026
 30
0.0
 10
930.0869181111975
 20
-2010.092059990026
 30
0.0
 10
930.1003088181976
 20
-2010.568536856926
 30
0.0
 10
930.1379556152976
 20
-2011.028787214327
 30
0.0
 10
930.1951031940975
 20
-2011.456498300726
 30
0.0
 10
930.2624913013977
 20
-2011.833517604026
 30
0.0
 10
930.3299393074976
 20
-2012.144558873126
 30
0.0
 10
930.3866448328975
 20
-2012.374987038926
 30
0.0
 10
930.4240991328974
 20
-2012.516003637026
 30
0.0
 10
930.4413814608976
 20
-2012.578752521726
 30
0.0
 10
930.4456806862976
 20
-2012.594225820127
 30
0.0
  0
SPLINE
  5
1E5CA
330
1F
100
AcDbEntity
  8
0
370
    30
100
AcDbSpline
210
0.0
220
0.0
230
1.0
 70
     9
 71
     3
 72
    23
 73
    19
 74
     0
 42
0.000000001
 43
0.0000000001
 40
0.0
 40
0.0
 40
0.0
 40
0.0
 40
0.0881105442
 40
0.1800210312
 40
0.2683021218
 40
0.3468095821
 40
0.4116525779
 40
0.4600514763000001
 40
0.4898991697
 40
0.50000059
 40
0.5097709018
 40
0.5391855276
 40
0.5871468873
 40
0.6517660086000001
 40
0.7303764501000001
 40
0.8190804059000001
 40
0.9115439453
 40
1.0
 40
1.0
 40
1.0
 40
1.0
 10
921.4456806862976
 20
-1976.194225820126
 30
0.0
 10
921.5991145821975
 20
-1976.194818746626
 30
0.0
 10
921.9127228689975
 20
-1976.179808389026
 30
0.0
 10
922.3764761339976
 20
-1976.115949765926
 30
0.0
 10
922.8148080650976
 20
-1976.013654355426
 30
0.0
 10
923.2016305522975
 20
-1975.886820978326
 30
0.0
 10
923.5027230348975
 20
-1975.764876169626
 30
0.0
 10
923.7471771659976
 20
-1975.646186224826
 30
0.0
 10
923.8475132809977
 20
-1975.594275486526
 30
0.0
 10
923.9699943098976
 20
-1975.525905831926
 30
0.0
 10
923.8501816318976
 20
-1975.592793960626
 30
0.0
 10
923.7502410839976
 20
-1975.644642118326
 30
0.0
 10
923.5082895726975
 20
-1975.762360552726
 30
0.0
 10
923.2080455961975
 20
-1975.884472900626
 30
0.0
 10
922.8209577698976
 20
-1976.011969891626
 30
0.0
 10
922.3808918341976
 20
-1976.115216659826
 30
0.0
 10
921.9148923035975
 20
-1976.179662705926
 30
0.0
 10
921.5997161074975
 20
-1976.194856172526
 30
0.0
 10
921.4456806862976
 20
-1976.194225820126
 30
0.0
  0
SPLINE
  5
1E5CB
330
1F
100
AcDbEntity
  8
0
370
    30
100
AcDbSpline
210
0.0
220
0.0
230
1.0
 70
     9
 71
     3
 72
    23
 73
    19
 74
     0
 42
0.000000001
 43
0.0000000001
 40
0.0
 40
0.0
 40
0.0
 40
0.0
 40
0.0881178213
 40
0.1799832704
 40
0.2682187303
 40
0.3467361079
 40
0.4116492299
 40
0.4600747704
 40
0.4899124606000001
 40
0.5000005634
 40
0.5098014367000001
 40
0.5392512434000001
 40
0.5872268268000001
 40
0.6518383194
 40
0.7304345123
 40
0.8191207776
 40
0.9115655141999999
 40
1.0
 40
1.0
 40
1.0
 40
1.0
 10
921.4456806862976
 20
-1976.194225820126
 30
0.0
 10
921.2922340090976
 20
-1976.194809815526
 30
0.0
 10
920.9786911975974
 20
-1976.179814382926
 30
0.0
 10
920.5150822355976
 20
-1976.115977599826
 30
0.0
 10
920.0768786851975
 20
-1976.013743967026
 30
0.0
 10
919.6899940509975
 20
-1975.886922371726
 30
0.0
 10
919.3887194508976
 20
-1975.764913982026
 30
0.0
 10
919.1441489438975
 20
-1975.646170393426
 30
0.0
 10
919.0437378868976
 20
-1975.594214527626
 30
0.0
 10
918.9213449706976
 20
-1975.525893193826
 30
0.0
 10
919.0413957953976
 20
-1975.592913325726
 30
0.0
 10
919.1413666917975
 20
-1975.644766089326
 30
0.0
 10
919.3834255205976
 20
-1975.762519321526
 30
0.0
 10
919.6836573664976
 20
-1975.884597076026
 30
0.0
 10
920.0706915408975
 20
-1976.012047386826
 30
0.0
 10
920.5106753416975
 20
-1976.115252030126
 30
0.0
 10
920.9765768976977
 20
-1976.179669282426
 30
0.0
 10
921.2916827521976
 20
-1976.194856567226
 30
0.0
 10
921.4456806862976
 20
-1976.194225820126
 30
0.0
  0
LINE
  5
1E5CC
330
1F
100
AcDbEntity
  8
0
370
    30
100
AcDbLine
 10
811.8014326127116
 20
-1974.760286376026
 30
0.0
 11
812.3014326127115
 21
-1975.264357712526
 31
0.0
  0
LINE
  5
1E5CD
330
1F
100
AcDbEntity
  8
0
370
    30
100
AcDbLine
 10
812.3014326127115
 20
-1966.924093927726
 30
0.0
 11
811.8014326127116
 21
-1967.428165264126
 31
0.0
  0
SPLINE
  5
1E5CE
330
1F
100
AcDbEntity
  8
0
370
    -2
100
AcDbSpline
210
0.0
220
0.0
230
1.0
 70
  1064
 71
     3
 72
    10
 73
     6
 74
     4
 42
0.000000001
 43
0.0000000001
 44
0.0000000001
 40
0.0
 40
0.0
 40
0.0
 40
0.0
 40
6.902257174869387
 40
14.58621935378144
 40
26.1664603381854
 40
26.1664603381854
 40
26.1664603381854
 40
26.1664603381854
 10
785.873451293407
 20
-1961.964491055361
 30
0.0
 10
783.9657291862206
 20
-1964.381257932161
 30
0.0
 10
779.9342287050749
 20
-1969.488499070656
 30
0.0
 10
795.4091829024949
 20
-1970.786151237541
 30
0.0
 10
787.2884763100516
 20
-1976.609825252835
 30
0.0
 10
782.4068968070278
 20
-1980.110595460665
 30
0.0
 11
785.873451293407
 21
-1961.964491055361
 31
0.0
 11
782.9846566210144
 21
-1968.233144774366
 31
0.0
 11
790.0003008253966
 21
-1971.367472639231
 31
0.0
 11
782.4068968070278
 21
-1980.110595460665
 31
0.0
  0
LINE
  5
1E5CF
330
1F
100
AcDbEntity
  8
0
370
    -2
100
AcDbLine
 10
789.0235514897899
 20
-1966.894225820126
 30
0.0
 11
789.8235514897899
 21
-1966.094225820126
 31
0.0
1001
GradientColor1ACI
1070
     5
1001
GradientColor2ACI
1070
     2
1001
ACAD
1010
0.0
1020
0.0
1030
0.0
  0
LINE
  5
1E71E
330
1F
100
AcDbEntity
  8
0
  6
CENTER2
 62
     1
 48
0.5
370
    -2
100
AcDbLine
 10
823.765135125744
 20
-2078.008995659226
 30
0.0
 11
657.3459305458136
 21
-2078.008995659226
 31
0.0
  0
LINE
  5
1E71F
330
1F
100
AcDbEntity
  8
0
  6
CENTER2
 62
     1
 48
0.5
370
    -2
100
AcDbLine
 10
685.1275617649645
 20
-2106.903238236067
 30
0.0
 11
685.1275617649645
 21
-2049.114753082385
 31
0.0
  0
LINE
  5
1E720
330
1F
100
AcDbEntity
  8
0
  6
CENTER2
 62
     1
 48
0.5
370
    -2
100
AcDbLine
 10
685.1275617649645
 20
-2035.388468396968
 30
0.0
 11
685.1275617649645
 21
-1951.336868206122
 31
0.0
  0
LINE
  5
1E721
330
1F
100
AcDbEntity
  8
0
  6
CENTER2
 62
     1
 48
0.5
370
    -2
100
AcDbLine
 10
680.2559109522918
 20
-2010.094225820126
 30
0.0
 11
689.9992125776371
 21
-2010.094225820126
 31
0.0
  0
LINE
  5
1E722
330
1F
100
AcDbEntity
  8
0
  6
CENTER2
 62
     1
 48
0.5
370
    -2
100
AcDbLine
 10
921.4456806862976
 20
-2031.075887701719
 30
0.0
 11
921.4456806862976
 21
-1952.677361829366
 31
0.0
  0
DIMENSION
  5
1E759
330
1F
100
AcDbEntity
  8
0
 48
0.5
370
    -2
100
AcDbDimension
280
     0
  2
*D3
 10
833.9065605935566
 20
-2073.008995659226
 30
0.0
 11
830.1517840975222
 21
-2055.071090107676
 31
0.0
 70
    32
  1
%%C<>
 71
     5
 42
10.0
 73
     0
 74
     0
 75
     0
  3
ISO-25
100
AcDbAlignedDimension
 13
812.1275617649645
 23
-2083.008995659226
 33
0.0
 14
812.1275617649645
 24
-2073.008995659226
 34
0.0
 50
90.0
100
AcDbRotatedDimension
  0
DIMENSION
  5
1E789
330
1F
100
AcDbEntity
  8
0
 48
0.5
370
    -2
100
AcDbDimension
280
     0
  2
*D4
 10
832.3856800997672
 20
-1958.594225820126
 30
0.0
 11
828.630903603733
 21
-1971.094225820126
 31
0.0
 70
    32
  1
%%C<>
 71
     5
 42
25.0
 73
     0
 74
     0
 75
     0
  3
ISO-25
100
AcDbAlignedDimension
 13
819.8014326127117
 23
-1983.594225820126
 33
0.0
 14
819.8014326127117
 24
-1958.594225820126
 34
0.0
 50
90.0
100
AcDbRotatedDimension
  0
DIMENSION
  5
1E7A8
330
1F
100
AcDbEntity
  8
0
 48
0.5
370
    -2
100
AcDbDimension
280
     0
  2
*D5
 10
891.9192283209399
 20
-1958.594225820127
 30
0.0
 11
888.2423177225252
 21
-1992.844225820127
 31
0.0
 70
    32
  1
68
 71
     5
 42
68.5
 73
     0
 74
     0
 75
     0
  3
ISO-25
100
AcDbAlignedDimension
 13
900.8456806862975
 23
-2027.094225820126
 33
0.0
 14
921.4456806862976
 24
-1958.594225820126
 34
0.0
 50
90.0
100
AcDbRotatedDimension
  0
DIMENSION
  5
1E814
330
1F
100
AcDbEntity
  8
0
 48
0.5
370
    -2
100
AcDbDimension
280
     0
  2
*D6
 10
812.1275617649645
 20
-2059.26018324487
 30
0.0
 11
799.8349337909198
 21
-2055.583272646456
 31
0.0
 70
    32
 71
     5
 42
3.0
 73
     0
 74
     0
 75
     0
  3
ISO-25
100
AcDbAlignedDimension
 13
815.1275617649645
 23
-2065.508995659226
 33
0.0
 14
812.1275617649645
 24
-2065.508995659226
 34
0.0
100
AcDbRotatedDimension
  0
ARC
  5
1E823
330
1F
100
AcDbEntity
  8
0
370
    30
100
AcDbCircle
 10
685.1275617649645
 20
-2078.008995659226
 30
0.0
 40
20.0
100
AcDbArc
 50
14.06632396139694
 51
345.9336760386031
  0
DIMENSION
  5
1E825
330
1F
100
AcDbEntity
  8
0
 48
0.5
370
    -2
100
AcDbDimension
280
     0
  2
*D7
 10
815.1275617649645
 20
-2109.148852623504
 30
0.0
 11
740.1275617649645
 21
-2105.47194202509
 31
0.0
 70
    32
 71
     5
 42
150.0
 73
     0
 74
     0
 75
     0
  3
ISO-25
100
AcDbAlignedDimension
 13
665.1275617649645
 23
-2078.008995659226
 33
0.0
 14
815.1275617649645
 24
-2090.508995659226
 34
0.0
100
AcDbRotatedDimension
  0
LINE
  5
1E832
330
1F
100
AcDbEntity
  8
0
370
    30
100
AcDbLine
 10
705.1275617649645
 20
-2022.094225820126
 30
0.0
 11
705.1275617649645
 21
-2027.094225820126
 31
0.0
  0
LINE
  5
1E833
330
1F
100
AcDbEntity
  8
0
370
    30
100
AcDbLine
 10
665.1275617649645
 20
-2022.094225820126
 30
0.0
 11
665.1275617649645
 21
-2027.094225820126
 31
0.0
  0
DIMENSION
  5
1E834
330
1F
100
AcDbEntity
  8
0
 48
0.5
370
    -2
100
AcDbDimension
280
     0
  2
*D8
 10
670.3472201128374
 20
-2091.482729389947
 30
0.0
 11
710.6347791095705
 21
-2049.675889802144
 31
0.0
 70
    35
 71
     5
 42
39.99999999999943
 73
     0
 74
     0
 75
     0
  3
ISO-25
100
AcDbDiametricDimension
 15
699.9079034170921
 25
-2064.535261928504
 35
0.0
 40
0.0
1001
ACAD
1000
DSTYLE
1002
{
1070
   288
1070
     1
1002
}
1001
ACAD_DSTYLE_DIMRADIAL_EXTENSION
1070
   387
1070
     1
1070
   388
1040
0.2455036667785484
1070
   390
1040
6.037681640401038
  0
ENDSEC
  0
SECTION
  2
OBJECTS
  0
DICTIONARY
  5
C
330
0
100
AcDbDictionary
281
     1
  3
ACAD_CIP_PREVIOUS_PRODUCT_INFO
350
1D9CF
  3
ACAD_COLOR
350
1D4
  3
ACAD_DETAILVIEWSTYLE
350
101F068
  3
ACAD_GROUP
350
D
  3
ACAD_LAYOUT
350
1A
  3
ACAD_MATERIAL
350
1D3
  3
ACAD_MLEADERSTYLE
350
1D27C
  3
ACAD_MLINESTYLE
350
17
  3
ACAD_PLOTSETTINGS
350
19
  3
ACAD_PLOTSTYLENAME
350
E
  3
ACAD_SCALELIST
350
1D26A
  3
ACAD_SECTIONVIEWSTYLE
350
101F065
  3
ACAD_TABLESTYLE
350
1D5
  3
ACAD_VISUALSTYLE
350
1D256
  3
AcadDim
350
158D3
  3
ACDB_RECOMPOSE_DATA
350
101F0A8
  3
AcDbVariableDictionary
350
265
  3
lxx_dict
350
1AD25
  0
DICTIONARY
  5
1E3BE
330
8
100
AcDbDictionary
280
     1
281
     1
  0
DICTIONARY
  5
411
330
2
100
AcDbDictionary
280
     1
281
     1
  3
ACAD_LAYERFILTERS
360
4264
  3
ACAD_LAYERSTATES
360
1ADE0
  3
ACLYDICTIONARY
360
4263
  0
DICTIONARY
  5
1D4B7
330
10
100
AcDbDictionary
280
     1
281
     1
  3
ADSK_XREC_LAYER_RECONCILED
360
1D4B8
  0
DICTIONARY
  5
1D4B9
330
40A
100
AcDbDictionary
280
     1
281
     1
  3
ADSK_XREC_LAYER_RECONCILED
360
1D4BA
  0
DICTIONARY
  5
1D4C5
330
CAF2
100
AcDbDictionary
280
     1
281
     1
  3
ADSK_XREC_LAYER_RECONCILED
360
1D4C6
  0
DICTIONARY
  5
1D4C7
330
1ADDE
100
AcDbDictionary
280
     1
281
     1
  3
ADSK_XREC_LAYER_RECONCILED
360
1D4C8
  0
DICTIONARY
  5
1D4CD
330
1C3C0
100
AcDbDictionary
280
     1
281
     1
  3
ADSK_XREC_LAYER_RECONCILED
360
1D4CE
  0
DICTIONARY
  5
1D4CF
330
1C3C1
100
AcDbDictionary
280
     1
281
     1
  3
ADSK_XREC_LAYER_RECONCILED
360
1D4D0
  0
DICTIONARY
  5
1E0DB
330
1E0DA
100
AcDbDictionary
280
     1
281
     1
  0
DICTIONARY
  5
1E0DD
330
1E0DC
100
AcDbDictionary
280
     1
281
     1
  0
DICTIONARY
  5
1E0DF
330
1E0DE
100
AcDbDictionary
280
     1
281
     1
  0
DICTIONARY
  5
206
330
1F
100
AcDbDictionary
280
     1
281
     1
  3
ACAD_SORTENTS
360
207
  0
DICTIONARY
  5
1F062
330
1E981
100
AcDbDictionary
280
     1
281
     1
  0
XRECORD
  5
1D9CF
102
{ACAD_REACTORS
330
C
102
}
330
C
100
AcDbXrecord
280
     1
300
ACD
300
2017
300
ACD_F_S
  0
DICTIONARY
  5
1D4
102
{ACAD_REACTORS
330
C
102
}
330
C
100
AcDbDictionary
281
     1
  0
DICTIONARY
  5
101F068
102
{ACAD_REACTORS
330
C
102
}
330
C
100
AcDbDictionary
281
     1
  3
Metric50
350
101F069
  0
DICTIONARY
  5
D
102
{ACAD_REACTORS
330
C
102
}
330
C
100
AcDbDictionary
281
     1
  0
DICTIONARY
  5
1A
102
{ACAD_REACTORS
330
C
102
}
330
C
100
AcDbDictionary
281
     1
  3
Layout1
350
1E
  3
Layout2
350
26
  3
Model
350
22
  0
DICTIONARY
  5
1D3
102
{ACAD_REACTORS
330
C
102
}
330
C
100
AcDbDictionary
281
     1
  3
ByBlock
350
1D24E
  3
ByLayer
350
1D246
  3
Global
350
1B62A
  0
DICTIONARY
  5
1D27C
102
{ACAD_REACTORS
330
C
102
}
330
C
100
AcDbDictionary
281
     1
  3
Standard
350
1D27D
  0
DICTIONARY
  5
17
102
{ACAD_REACTORS
330
C
102
}
330
C
100
AcDbDictionary
281
     1
  3
Standard
350
18
  0
DICTIONARY
  5
19
102
{ACAD_REACTORS
330
C
102
}
330
C
100
AcDbDictionary
281
     1
  0
ACDBDICTIONARYWDFLT
  5
E
102
{ACAD_REACTORS
330
C
102
}
330
C
100
AcDbDictionary
281
     1
  3
Normal
350
F
100
AcDbDictionaryWithDefault
340
F
  0
DICTIONARY
  5
1D26A
102
{ACAD_REACTORS
330
C
102
}
330
C
100
AcDbDictionary
281
     1
  3
A0
350
1D26B
  3
A1
350
1D26C
  3
A2
350
1D26D
  3
A3
350
1D26E
  3
A4
350
1D26F
  3
A5
350
1D270
  3
A6
350
1D271
  3
A7
350
1D272
  3
A8
350
1D273
  3
A9
350
1D274
  3
B0
350
1D275
  3
B1
350
1D276
  3
B2
350
1D277
  3
B3
350
1D278
  3
B4
350
1D279
  3
B5
350
1D27A
  3
B6
350
1D27B
  0
DICTIONARY
  5
101F065
102
{ACAD_REACTORS
330
C
102
}
330
C
100
AcDbDictionary
281
     1
  3
Metric50
350
101F067
  0
DICTIONARY
  5
1D5
102
{ACAD_REACTORS
330
C
102
}
330
C
100
AcDbDictionary
281
     1
  3
Standard
350
1D6
  0
DICTIONARY
  5
1D256
102
{ACAD_REACTORS
330
C
102
}
330
C
100
AcDbDictionary
281
     1
  3
2dWireframe
350
1D25C
  3
3D Hidden
350
1D25E
  3
3dWireframe
350
1D25D
  3
Basic
350
1D25B
  3
Brighten
350
1D262
  3
ColorChange
350
1D266
  3
Conceptual
350
1D25F
  3
Dim
350
1D261
  3
EdgeColorOff
350
1D269
  3
Facepattern
350
1D265
  3
Flat
350
1D257
  3
FlatWithEdges
350
1D258
  3
Gouraud
350
1D259
  3
GouraudWithEdges
350
1D25A
  3
Hidden
350
1D9C5
  3
JitterOff
350
1D267
  3
Linepattern
350
1D264
  3
OverhangOff
350
1D268
  3
Realistic
350
1D260
  3
Shaded
350
1D9CA
  3
Shaded with edges
350
1D9C9
  3
Shades of Gray
350
1D9C6
  3
Sketchy
350
1D9C7
  3
Thicken
350
1D263
  3
Wireframe
350
1D9C4
  3
X-Ray
350
1D9C8
  0
XRECORD
  5
158D3
102
{ACAD_REACTORS
330
C
102
}
330
C
100
AcDbXrecord
280
     1
 90
   990106
  3

 60
     0
 61
     0
 62
     1
 63
     3
 64
     0
 65
     0
 66
     0
 67
     3
 68
     1
 69
     0
 70
     0
 71
     0
 72
     0
 40
51.92405077377407
170
     0
  0
XRECORD
  5
101F0A8
102
{ACAD_REACTORS
330
C
102
}
330
C
100
AcDbXrecord
280
     1
 90
        1
330
1D6
330
101F067
330
101F069
  0
DICTIONARY
  5
265
102
{ACAD_REACTORS
330
C
102
}
330
C
100
AcDbDictionary
281
     1
  3
CANNOSCALE
350
1D5E3
  3
CMLEADERSTYLE
350
1D5E1
  3
CTABLESTYLE
350
266
  3
CVIEWDETAILSTYLE
350
101F09B
  3
CVIEWSECTIONSTYLE
350
101F09C
  3
DIMASSOC
350
1A744
  3
LAYEREVAL
350
1D5E5
  3
LAYERNOTIFY
350
1D5E6
  3
LIGHTINGUNITS
350
1D5E4
  3
MSLTSCALE
350
1D5E2
  3
PROJECTNAME
350
1A745
  3
SOLIDHIST
350
1E408
  0
DICTIONARY
  5
1AD25
102
{ACAD_REACTORS
330
C
102
}
330
C
100
AcDbDictionary
281
     1
  3
lxx_dimth
350
1AD26
  0
DICTIONARY
  5
4264
102
{ACAD_REACTORS
330
411
102
}
330
411
100
AcDbDictionary
281
     1
  0
DICTIONARY
  5
1ADE0
102
{ACAD_REACTORS
330
411
102
}
330
411
100
AcDbDictionary
281
     1
  0
DICTIONARY
  5
4263
102
{ACAD_REACTORS
330
411
102
}
330
411
100
AcDbDictionary
281
     1
1001
ACAD
1000
<All
  0
XRECORD
  5
1D4B8
102
{ACAD_REACTORS
330
1D4B7
102
}
330
1D4B7
100
AcDbXrecord
280
     1
290
     1
  0
XRECORD
  5
1D4BA
102
{ACAD_REACTORS
330
1D4B9
102
}
330
1D4B9
100
AcDbXrecord
280
     1
290
     1
  0
XRECORD
  5
1D4C6
102
{ACAD_REACTORS
330
1D4C5
102
}
330
1D4C5
100
AcDbXrecord
280
     1
290
     1
  0
XRECORD
  5
1D4C8
102
{ACAD_REACTORS
330
1D4C7
102
}
330
1D4C7
100
AcDbXrecord
280
     1
290
     1
  0
XRECORD
  5
1D4CE
102
{ACAD_REACTORS
330
1D4CD
102
}
330
1D4CD
100
AcDbXrecord
280
     1
290
     1
  0
XRECORD
  5
1D4D0
102
{ACAD_REACTORS
330
1D4CF
102
}
330
1D4CF
100
AcDbXrecord
280
     1
290
     1
  0
SORTENTSTABLE
  5
207
102
{ACAD_REACTORS
330
206
102
}
330
206
100
AcDbSortentsTable
330
1F
331
1E71F
  5
1E759
331
1E51C
  5
1E51E
331
1E518
  5
1E51A
331
1E594
  5
1E596
331
1E524
  5
1E526
331
1E555
  5
1E557
331
1E590
  5
1E592
331
1E520
  5
1E522
331
1E551
  5
1E555
331
1E55D
  5
1E560
331
1E59C
  5
1E5A0
331
1E559
  5
1E55B
331
1E5AF
  5
1E5B3
331
1E5B7
  5
1E5BB
331
1E5B3
  5
1E5B7
331
1E52C
  5
1E52E
331
1E528
  5
1E52A
331
1E565
  5
1E567
331
1E5A4
  5
1E5A8
331
1E561
  5
1E563
331
1E5A0
  5
1E5A4
331
1E56D
  5
1E56F
331
1E569
  5
1E56B
331
1E5BF
  5
1E5C3
331
1E5BB
  5
1E5BF
331
1E5C7
  5
1E5CC
331
1E5C3
  5
1E5C7
331
1E7A8
  5
1E825
331
1E4FC
  5
1E4FC
331
1E4F8
  5
1E4F8
331
1E504
  5
1E504
331
1E535
  5
1E537
331
1E500
  5
1E500
331
1E531
  5
1E533
331
1E570
  5
1E572
331
1E53D
  5
1E53F
331
1E57C
  5
1E57E
331
1E539
  5
1E53B
331
1E578
  5
1E57A
331
1E5CC
  5
1E682
331
1E5C8
  5
1E5CD
331
1E814
  5
1E832
331
1E508
  5
1E508
331
1E545
  5
1E547
331
1E584
  5
1E586
331
1E510
  5
1E511
331
1E541
  5
1E543
331
1E580
  5
1E582
331
1E54D
  5
1E54F
331
1E58C
  5
1E58E
331
1E549
  5
1E54B
331
1E588
  5
1E58A
331
1E720
  5
1E773
331
1E51D
  5
1E51F
331
1E519
  5
1E51B
331
1E556
  5
1E558
331
1E595
  5
1E597
331
1E525
  5
1E527
331
1E552
  5
1E556
331
1E591
  5
1E593
331
1E521
  5
1E523
331
1E59D
  5
1E5A1
331
1E55A
  5
1E55C
331
1E599
  5
1E59D
331
1E5AC
  5
1E5B0
331
1E5A8
  5
1E5AD
331
1E5B4
  5
1E5B8
331
1E5B0
  5
1E5B4
331
1E825
  5
1E833
331
1E52D
  5
1E52F
331
1E529
  5
1E52B
331
1E566
  5
1E568
331
1E5A5
  5
1E5A9
331
1E4F6
  5
1E4F6
331
1E562
  5
1E564
331
1E5A1
  5
1E5A5
331
1E56E
  5
1E570
331
1E56A
  5
1E56C
331
1E5BC
  5
1E5C0
331
1E5B8
  5
1E5BC
331
1E5C4
  5
1E5C8
331
1E5C0
  5
1E5C4
331
1E789
  5
1E824
331
1E4FD
  5
1E4FD
331
1E4F9
  5
1E4F9
331
1E536
  5
1E538
331
1E575
  5
1E577
331
1E505
  5
1E505
331
1E532
  5
1E534
331
1E571
  5
1E573
331
1E501
  5
1E501
331
1E53E
  5
1E540
331
1E57D
  5
1E57F
331
1E53A
  5
1E53C
331
1E579
  5
1E57B
331
1E5CD
  5
1E683
331
1E50D
  5
1E50E
331
1E509
  5
1E509
331
1E546
  5
1E548
331
1E585
  5
1E587
331
1E515
  5
1E517
331
1E542
  5
1E544
331
1E581
  5
1E583
331
1E511
  5
1E512
331
1E54E
  5
1E550
331
1E58D
  5
1E58F
331
1E54A
  5
1E54C
331
1E589
  5
1E58B
331
1E721
  5
1E789
331
1E51E
  5
1E520
331
1E51A
  5
1E51C
331
1E557
  5
1E559
331
1E526
  5
1E528
331
1E596
  5
1E599
331
1E592
  5
1E594
331
1E55F
  5
1E561
331
1E59E
  5
1E5A2
331
1E55B
  5
1E55D
331
1E59A
  5
1E59E
331
1E5AD
  5
1E5B1
331
1E5A9
  5
1E5AE
331
1E5B5
  5
1E5B9
331
1E5B1
  5
1E5B5
331
1E759
  5
1E823
331
1E52E
  5
1E530
331
1E52A
  5
1E52C
331
1E4F7
  5
1E4F7
331
1E567
  5
1E569
331
1E5A6
  5
1E5AA
331
1E4F3
  5
1E4F3
331
1E563
  5
1E565
331
1E5A2
  5
1E5A6
331
1E56F
  5
1E571
331
1E56B
  5
1E56D
331
1E5BD
  5
1E5C1
331
1E5B9
  5
1E5BD
331
1E5C5
  5
1E5CA
331
1E5C1
  5
1E5C5
331
1E832
  5
1E516
331
1E4FE
  5
1E4FE
331
1E4FA
  5
1E4FA
331
1E576
  5
1E578
331
1E537
  5
1E539
331
1E506
  5
1E506
331
1E572
  5
1E575
331
1E533
  5
1E535
331
1E502
  5
1E502
331
1E57E
  5
1E580
331
1E53F
  5
1E541
331
1E57A
  5
1E57C
331
1E53B
  5
1E53D
331
1E5CE
  5
1E684
331
1E5CA
  5
1E5CE
331
1E50E
  5
1E50F
331
1E50A
  5
1E50A
331
1E586
  5
1E588
331
1E547
  5
1E549
331
1E516
  5
1E518
331
1E582
  5
1E584
331
1E543
  5
1E545
331
1E512
  5
1E513
331
1E58E
  5
1E590
331
1E54F
  5
1E551
331
1E58A
  5
1E58C
331
1E54B
  5
1E54D
331
1E71E
  5
1E722
331
1E722
  5
1E814
331
1E51F
  5
1E521
331
1E51B
  5
1E51D
331
1E597
  5
1E59A
331
1E550
  5
1E552
331
1E527
  5
1E529
331
1E593
  5
1E595
331
1E55C
  5
1E55F
331
1E59F
  5
1E5A3
331
1E558
  5
1E55A
331
1E59B
  5
1E59F
331
1E5AE
  5
1E5B2
331
1E5AA
  5
1E5AF
331
1E5B6
  5
1E5BA
331
1E5B2
  5
1E5B6
331
1E823
  5
1E59C
331
1E52F
  5
1E531
331
1E52B
  5
1E52D
331
1E4F4
  5
1E4F4
331
1E564
  5
1E566
331
1E5A7
  5
1E5AC
331
1E560
  5
1E562
331
1E5A3
  5
1E5A7
331
1E56C
  5
1E56E
331
1E568
  5
1E56A
331
1E5BE
  5
1E5C2
331
1E5BA
  5
1E5BE
331
1E5C6
  5
1E5CB
331
1E5C2
  5
1E5C6
331
1E833
  5
1E50D
331
1E4FF
  5
1E4FF
331
1E4FB
  5
1E4FB
331
1E534
  5
1E536
331
1E530
  5
1E532
331
1E507
  5
1E507
331
1E577
  5
1E579
331
1E503
  5
1E503
331
1E573
  5
1E576
331
1E53C
  5
1E53E
331
1E538
  5
1E53A
331
1E57F
  5
1E581
331
1E57B
  5
1E57D
331
1E5CF
  5
1E685
331
1E5CB
  5
1E5CF
331
1E50F
  5
1E510
331
1E50B
  5
1E50B
331
1E544
  5
1E546
331
1E540
  5
1E542
331
1E517
  5
1E519
331
1E587
  5
1E589
331
1E513
  5
1E514
331
1E583
  5
1E585
331
1E54C
  5
1E54E
331
1E548
  5
1E54A
331
1E58F
  5
1E591
331
1E58B
  5
1E58D
  0
ACDBDETAILVIEWSTYLE
  5
101F069
102
{ACAD_XDICTIONARY
360
101F0A6
102
}
102
{ACAD_REACTORS
330
101F068
102
}
330
101F068
100
AcDbModelDocViewStyle
 70
     0
  3
Metric50
290
     0
100
AcDbDetailViewStyle
 70
     0
 71
     0
 90
        3
 71
     1
340
11
 62
   256
 40
5.0
340
0
 62
   256
 40
5.0
300

 40
0.0
280
     1
 71
     2
340
16
 90
       25
 62
   256
 71
     3
340
11
 62
   256
 40
5.0
 90
        0
 40
15.0
 90
        1
300
%<\AcVar ViewDetailId>% (%<\AcVar ViewScale \f "%sn">%)
 71
     4
340
16
 90
       25
 62
   256
340
16
 90
       25
 62
   256
280
     0
  0
LAYOUT
  5
1E
102
{ACAD_REACTORS
330
1A
102
}
330
1A
100
AcDbPlotSettings
  1

  2

  4

  6

 40
0.0
 41
0.0
 42
0.0
 43
0.0
 44
0.0
 45
0.0
 46
0.0
 47
0.0
 48
0.0
 49
0.0
140
0.0
141
0.0
142
1.0
143
1.0
 70
   688
 72
     0
 73
     0
 74
     5
  7

 75
    16
147
1.0
 76
     0
 77
     2
 78
   300
148
0.0
149
0.0
100
AcDbLayout
  1
Layout1
 70
     1
 71
     1
 10
0.0
 20
0.0
 11
420.0
 21
297.0
 12
0.0
 22
0.0
 32
0.0
 14
1.000000000000000E+20
 24
1.000000000000000E+20
 34
1.000000000000000E+20
 15
-1.000000000000000E+20
 25
-1.000000000000000E+20
 35
-1.000000000000000E+20
146
0.0
 13
0.0
 23
0.0
 33
0.0
 16
1.0
 26
0.0
 36
0.0
 17
0.0
 27
1.0
 37
0.0
 76
     0
330
1B
  0
LAYOUT
  5
26
102
{ACAD_REACTORS
330
1A
102
}
330
1A
100
AcDbPlotSettings
  1

  2

  4

  6

 40
0.0
 41
0.0
 42
0.0
 43
0.0
 44
0.0
 45
0.0
 46
0.0
 47
0.0
 48
0.0
 49
0.0
140
0.0
141
0.0
142
1.0
143
1.0
 70
   688
 72
     0
 73
     0
 74
     5
  7

 75
    16
147
1.0
 76
     0
 77
     2
 78
   300
148
0.0
149
0.0
100
AcDbLayout
  1
Layout2
 70
     1
 71
     2
 10
0.0
 20
0.0
 11
0.0
 21
0.0
 12
0.0
 22
0.0
 32
0.0
 14
0.0
 24
0.0
 34
0.0
 15
0.0
 25
0.0
 35
0.0
146
0.0
 13
0.0
 23
0.0
 33
0.0
 16
1.0
 26
0.0
 36
0.0
 17
0.0
 27
1.0
 37
0.0
 76
     0
330
23
  0
LAYOUT
  5
22
102
{ACAD_XDICTIONARY
360
1D4D8
102
}
102
{ACAD_REACTORS
330
1A
102
}
330
1A
100
AcDbPlotSettings
  1

  2
Adobe PDF
  4
A4
  6

 40
3.174999952316284
 41
3.174999952316284
 42
3.175003051757812
 43
3.17498779296875
 44
209.9733276367187
 45
297.0318298339844
 46
0.0
 47
0.0
 48
0.0
 49
0.0
140
0.0
141
0.0
142
1.0
143
0.7475498042581874
 70
 11952
 72
     1
 73
     1
 74
     0
  7

 75
     0
147
1.337703513938212
 76
     0
 77
     2
 78
   300
148
-62.04520941299825
149
-114.2038463351312
100
AcDbLayout
  1
Model
 70
     1
 71
     0
 10
0.0
 20
0.0
 11
0.0
 21
0.0
 12
0.0
 22
0.0
 32
0.0
 14
0.0
 24
0.0
 34
0.0
 15
297.0
 25
210.0
 35
0.0
146
0.0
 13
0.0
 23
0.0
 33
0.0
 16
1.0
 26
0.0
 36
0.0
 17
0.0
 27
1.0
 37
0.0
 76
     0
330
1F
331
1D244
1001
ACAD_PSEXT
1000
Adobe PDF
1000
Adobe PDF Converter
1000
My Documents
1000

1070
     0
  0
MATERIAL
  5
1D24E
102
{ACAD_XDICTIONARY
360
1D24F
102
}
102
{ACAD_REACTORS
330
1D3
102
}
330
1D3
100
AcDbMaterial
  1
ByBlock
 72
     0
 43
0.0008202099737533
 43
0.0
 43
0.0
 43
0.0
 43
0.0
 43
0.0008202099737533
 43
0.0
 43
0.0
 43
0.0
 43
0.0
 43
1.0
 43
0.0
 43
0.0
 43
0.0
 43
0.0
 43
1.0
 77
     0
 47
0.0008202099737533
 47
0.0
 47
0.0
 47
0.0
 47
0.0
 47
0.0008202099737533
 47
0.0
 47
0.0
 47
0.0
 47
0.0
 47
1.0
 47
0.0
 47
0.0
 47
0.0
 47
0.0
 47
1.0
171
     0
 49
0.0008202099737533
 49
0.0
 49
0.0
 49
0.0
 49
0.0
 49
0.0008202099737533
 49
0.0
 49
0.0
 49
0.0
 49
0.0
 49
1.0
 49
0.0
 49
0.0
 49
0.0
 49
0.0
 49
1.0
175
     0
142
0.0008202099737533
142
0.0
142
0.0
142
0.0
142
0.0
142
0.0008202099737533
142
0.0
142
0.0
142
0.0
142
0.0
142
1.0
142
0.0
142
0.0
142
0.0
142
0.0
142
1.0
179
     0
144
0.0008202099737533
144
0.0
144
0.0
144
0.0
144
0.0
144
0.0008202099737533
144
0.0
144
0.0
144
0.0
144
0.0
144
1.0
144
0.0
144
0.0
144
0.0
144
0.0
144
1.0
147
0.0008202099737533
147
0.0
147
0.0
147
0.0
147
0.0
147
0.0008202099737533
147
0.0
147
0.0
147
0.0
147
0.0
147
1.0
147
0.0
147
0.0
147
0.0
147
0.0
147
1.0
  0
MATERIAL
  5
1D246
102
{ACAD_XDICTIONARY
360
1D247
102
}
102
{ACAD_REACTORS
330
1D3
102
}
330
1D3
100
AcDbMaterial
  1
ByLayer
 72
     0
 43
0.0008202099737533
 43
0.0
 43
0.0
 43
0.0
 43
0.0
 43
0.0008202099737533
 43
0.0
 43
0.0
 43
0.0
 43
0.0
 43
1.0
 43
0.0
 43
0.0
 43
0.0
 43
0.0
 43
1.0
 77
     0
 47
0.0008202099737533
 47
0.0
 47
0.0
 47
0.0
 47
0.0
 47
0.0008202099737533
 47
0.0
 47
0.0
 47
0.0
 47
0.0
 47
1.0
 47
0.0
 47
0.0
 47
0.0
 47
0.0
 47
1.0
171
     0
 49
0.0008202099737533
 49
0.0
 49
0.0
 49
0.0
 49
0.0
 49
0.0008202099737533
 49
0.0
 49
0.0
 49
0.0
 49
0.0
 49
1.0
 49
0.0
 49
0.0
 49
0.0
 49
0.0
 49
1.0
175
     0
142
0.0008202099737533
142
0.0
142
0.0
142
0.0
142
0.0
142
0.0008202099737533
142
0.0
142
0.0
142
0.0
142
0.0
142
1.0
142
0.0
142
0.0
142
0.0
142
0.0
142
1.0
179
     0
144
0.0008202099737533
144
0.0
144
0.0
144
0.0
144
0.0
144
0.0008202099737533
144
0.0
144
0.0
144
0.0
144
0.0
144
1.0
144
0.0
144
0.0
144
0.0
144
0.0
144
1.0
147
0.0008202099737533
147
0.0
147
0.0
147
0.0
147
0.0
147
0.0008202099737533
147
0.0
147
0.0
147
0.0
147
0.0
147
1.0
147
0.0
147
0.0
147
0.0
147
0.0
147
1.0
  0
MATERIAL
  5
1B62A
102
{ACAD_XDICTIONARY
360
1B62B
102
}
102
{ACAD_REACTORS
330
1D3
102
}
330
1D3
100
AcDbMaterial
  1
Global
 43
0.0007999999797903
 43
0.0
 43
0.0
 43
0.0
 43
0.0
 43
0.0007999999797903
 43
0.0
 43
0.0
 43
0.0
 43
0.0
 43
1.0
 43
0.0
 43
0.0
 43
0.0
 43
0.0
 43
1.0
 49
0.0007999999797903
 49
0.0
 49
0.0
 49
0.0
 49
0.0
 49
0.0007999999797903
 49
0.0
 49
0.0
 49
0.0
 49
0.0
 49
1.0
 49
0.0
 49
0.0
 49
0.0
 49
0.0
 49
1.0
142
0.0007999999797903
142
0.0
142
0.0
142
0.0
142
0.0
142
0.0007999999797903
142
0.0
142
0.0
142
0.0
142
0.0
142
1.0
142
0.0
142
0.0
142
0.0
142
0.0
142
1.0
144
0.0007999999797903
144
0.0
144
0.0
144
0.0
144
0.0
144
0.0007999999797903
144
0.0
144
0.0
144
0.0
144
0.0
144
1.0
144
0.0
144
0.0
144
0.0
144
0.0
144
1.0
 94
       63
1001
ACAD
1070
    -1
1070
     3
1070
     0
1000

1071
        0
1070
     0
  0
MLEADERSTYLE
  5
1D27D
102
{ACAD_REACTORS
330
1D27C
102
}
330
1D27C
100
AcDbMLeaderStyle
179
     2
170
     2
171
     1
172
     0
 90
        2
 40
0.0
 41
0.0
173
     1
 91
-1056964608
340
14
 92
       -2
290
     1
 42
2.0
291
     1
 43
0.36
  3
Standard
 44
4.0
300

342
11
174
     1
178
     6
175
     1
176
     0
 93
-1056964608
 45
4.0
292
     0
297
     0
 46
4.0
 94
-1056964608
 47
1.0
 49
1.0
140
1.0
293
     1
141
0.0
294
     1
177
     0
142
1.0
295
     0
296
     0
143
0.125
271
     0
272
     9
273
     9
298
     0
  0
MLINESTYLE
  5
18
102
{ACAD_REACTORS
330
17
102
}
330
17
100
AcDbMlineStyle
  2
STANDARD
 70
     0
  3

 62
   256
 51
90.0
 52
90.0
 71
     2
 49
0.5
 62
   256
  6
BYLAYER
 49
-0.5
 62
   256
  6
BYLAYER
  0
ACDBPLACEHOLDER
  5
F
102
{ACAD_REACTORS
330
E
102
}
330
E
  0
SCALE
  5
1D26B
102
{ACAD_REACTORS
330
1D26A
102
}
330
1D26A
100
AcDbScale
 70
     0
300
1:1
140
1.0
141
1.0
290
     1
  0
SCALE
  5
1D26C
102
{ACAD_REACTORS
330
1D26A
102
}
330
1D26A
100
AcDbScale
 70
     0
300
1:2
140
1.0
141
2.0
290
     0
  0
SCALE
  5
1D26D
102
{ACAD_REACTORS
330
1D26A
102
}
330
1D26A
100
AcDbScale
 70
     0
300
1:4
140
1.0
141
4.0
290
     0
  0
SCALE
  5
1D26E
102
{ACAD_REACTORS
330
1D26A
102
}
330
1D26A
100
AcDbScale
 70
     0
300
1:5
140
1.0
141
5.0
290
     0
  0
SCALE
  5
1D26F
102
{ACAD_REACTORS
330
1D26A
102
}
330
1D26A
100
AcDbScale
 70
     0
300
1:8
140
1.0
141
8.0
290
     0
  0
SCALE
  5
1D270
102
{ACAD_REACTORS
330
1D26A
102
}
330
1D26A
100
AcDbScale
 70
     0
300
1:10
140
1.0
141
10.0
290
     0
  0
SCALE
  5
1D271
102
{ACAD_REACTORS
330
1D26A
102
}
330
1D26A
100
AcDbScale
 70
     0
300
1:16
140
1.0
141
16.0
290
     0
  0
SCALE
  5
1D272
102
{ACAD_REACTORS
330
1D26A
102
}
330
1D26A
100
AcDbScale
 70
     0
300
1:20
140
1.0
141
20.0
290
     0
  0
SCALE
  5
1D273
102
{ACAD_REACTORS
330
1D26A
102
}
330
1D26A
100
AcDbScale
 70
     0
300
1:30
140
1.0
141
30.0
290
     0
  0
SCALE
  5
1D274
102
{ACAD_REACTORS
330
1D26A
102
}
330
1D26A
100
AcDbScale
 70
     0
300
1:40
140
1.0
141
40.0
290
     0
  0
SCALE
  5
1D275
102
{ACAD_REACTORS
330
1D26A
102
}
330
1D26A
100
AcDbScale
 70
     0
300
1:50
140
1.0
141
50.0
290
     0
  0
SCALE
  5
1D276
102
{ACAD_REACTORS
330
1D26A
102
}
330
1D26A
100
AcDbScale
 70
     0
300
1:100
140
1.0
141
100.0
290
     0
  0
SCALE
  5
1D277
102
{ACAD_REACTORS
330
1D26A
102
}
330
1D26A
100
AcDbScale
 70
     0
300
2:1
140
2.0
141
1.0
290
     0
  0
SCALE
  5
1D278
102
{ACAD_REACTORS
330
1D26A
102
}
330
1D26A
100
AcDbScale
 70
     0
300
4:1
140
4.0
141
1.0
290
     0
  0
SCALE
  5
1D279
102
{ACAD_REACTORS
330
1D26A
102
}
330
1D26A
100
AcDbScale
 70
     0
300
8:1
140
8.0
141
1.0
290
     0
  0
SCALE
  5
1D27A
102
{ACAD_REACTORS
330
1D26A
102
}
330
1D26A
100
AcDbScale
 70
     0
300
10:1
140
10.0
141
1.0
290
     0
  0
SCALE
  5
1D27B
102
{ACAD_REACTORS
330
1D26A
102
}
330
1D26A
100
AcDbScale
 70
     0
300
100:1
140
100.0
141
1.0
290
     0
  0
ACDBSECTIONVIEWSTYLE
  5
101F067
102
{ACAD_XDICTIONARY
360
101F0A4
102
}
102
{ACAD_REACTORS
330
101F065
102
}
330
101F065
100
AcDbModelDocViewStyle
 70
     0
  3
Metric50
290
     0
100
AcDbSectionViewStyle
 70
     0
 71
     0
 90
      102
 71
     1
340
11
 62
   256
 40
5.0
340
0
340
0
 62
   256
 40
5.0
300
I, O, Q, S, X, Z
 40
10.0
 90
        0
 40
2.5
 90
        0
 71
     2
340
16
 90
       25
 62
   256
340
16
 90
       50
 62
   256
 40
5.0
 40
2.5
 40
5.0
 71
     3
340
11
 62
   256
 40
5.0
 90
        0
 40
15.0
 90
        1
300
%<\AcVar ViewSectionStartId>%-%<\AcVar ViewSectionEndId>% (%<\AcVar ViewScale \f "%sn">%)
 71
     4
 62
   256
 62
   257
300
ANSI31
 40
1.0
 90
        0
290
     0
290
     0
 90
        6
 40
0.0
 40
1.570796326794896
 40
0.2617993877991494
 40
1.308996938995747
 40
-0.2617993877991494
 40
1.832595714594046
  0
TABLESTYLE
  5
1D6
102
{ACAD_XDICTIONARY
360
1D5B7
102
}
102
{ACAD_REACTORS
330
1D5
102
}
330
1D5
100
AcDbTableStyle
280
     0
  3
Standard
 70
     0
 71
     0
 40
1.5
 41
1.5
280
     0
281
     0
  7
Standard
140
4.5
170
     2
 62
     0
 63
     7
283
     0
 90
        4
 91
        0
  1

274
    -2
284
     1
 64
     0
275
    -2
285
     1
 65
     0
276
    -2
286
     1
 66
     0
277
    -2
287
     1
 67
     0
278
    -2
288
     1
 68
     0
279
    -2
289
     1
 69
     0
  7
Standard
140
6.0
170
     5
 62
     0
 63
     7
283
     0
 90
        4
 91
        0
  1

274
    -2
284
     1
 64
     0
275
    -2
285
     1
 65
     0
276
    -2
286
     1
 66
     0
277
    -2
287
     1
 67
     0
278
    -2
288
     1
 68
     0
279
    -2
289
     1
 69
     0
  7
Standard
140
4.5
170
     5
 62
     0
 63
     7
283
     0
 90
        4
 91
        0
  1

274
    -2
284
     1
 64
     0
275
    -2
285
     1
 65
     0
276
    -2
286
     1
 66
     0
277
    -2
287
     1
 67
     0
278
    -2
288
     1
 68
     0
279
    -2
289
     1
 69
     0
  0
VISUALSTYLE
  5
1D25C
102
{ACAD_REACTORS
330
1D256
102
}
330
1D256
100
AcDbVisualStyle
  2
2dWireframe
 70
     4
177
     3
291
     0
 70
    58
 90
        0
176
     1
 90
        2
176
     1
 90
        0
176
     1
 90
        0
176
     1
 40
0.6
176
     1
 40
30.0
176
     1
 62
     7
420
 16777215
176
     1
 90
        1
176
     1
 90
        4
176
     1
 62
     7
176
     1
 62
   257
176
     1
 90
        1
176
     1
 90
        1
176
     1
 40
1.0
176
     1
 90
        0
176
     1
 62
   257
176
     1
 40
1.0
176
     1
 90
        1
176
     1
 90
        6
176
     1
 90
        2
176
     1
 62
     7
176
     1
 90
        5
176
     1
 90
        0
176
     1
 90
        0
176
     1
290
     0
176
     1
 90
        1
176
     1
 40
0.0
176
     1
 90
        0
176
     1
290
     1
176
     1
290
     1
176
     1
290
     0
176
     1
290
     0
176
     1
290
     0
176
     1
290
     0
176
     1
290
     0
176
     1
290
     0
176
     1
290
     0
176
     1
 90
       50
176
     1
 40
0.0
176
     1
 40
1.0
176
     1
 90
        0
176
     1
 62
    18
420
        0
176
     1
 90
       50
176
     1
 90
        3
176
     1
 62
     5
420
      255
176
     1
290
     0
176
     1
 90
       50
176
     1
 90
       50
176
     1
 90
       50
176
     1
290
     0
176
     1
 90
       50
176
     1
 62
   256
176
     0
 40
1.0
176
     0
 90
        2
176
     1
  1
strokes_ogs.tif
176
     1
290
     0
176
     1
 40
1.0
176
     1
 40
1.0
176
     1
  0
VISUALSTYLE
  5
1D25E
102
{ACAD_REACTORS
330
1D256
102
}
330
1D256
100
AcDbVisualStyle
  2
3D Hidden
 70
     6
177
     3
291
     0
 70
    58
 90
        1
176
     1
 90
        2
176
     1
 90
        2
176
     1
 90
        0
176
     1
 40
0.6
176
     1
 40
30.0
176
     1
 62
     7
420
 16777215
176
     1
 90
        2
176
     1
 90
        2
176
     1
 62
     7
176
     1
 62
   257
176
     1
 90
        2
176
     1
 90
        1
176
     1
 40
179.0
176
     1
 90
        0
176
     1
 62
   257
176
     1
 40
1.0
176
     1
 90
        1
176
     1
 90
        6
176
     1
 90
        2
176
     1
 62
     7
176
     1
 90
        3
176
     1
 90
        0
176
     1
 90
        0
176
     1
290
     0
176
     1
 90
        1
176
     1
 40
0.0
176
     1
 90
        0
176
     1
290
     0
176
     1
290
     1
176
     1
290
     1
176
     1
290
     0
176
     1
290
     0
176
     1
290
     0
176
     1
290
     0
176
     1
290
     0
176
     1
290
     0
176
     1
 90
       50
176
     1
 40
0.0
176
     1
 40
1.0
176
     1
 90
        0
176
     1
 62
    18
420
        0
176
     1
 90
       50
176
     1
 90
        3
176
     1
 62
     5
420
      255
176
     1
290
     0
176
     1
 90
       50
176
     1
 90
       50
176
     1
 90
       50
176
     1
290
     0
176
     1
 90
       50
176
     1
 62
   256
176
     0
 40
1.0
176
     0
 90
        2
176
     1
  1
strokes_ogs.tif
176
     1
290
     0
176
     1
 40
1.0
176
     1
 40
1.0
176
     1
  0
VISUALSTYLE
  5
1D25D
102
{ACAD_REACTORS
330
1D256
102
}
330
1D256
100
AcDbVisualStyle
  2
3dWireframe
 70
     5
177
     3
291
     0
 70
    58
 90
        0
176
     1
 90
        2
176
     1
 90
        0
176
     1
 90
        0
176
     1
 40
0.6
176
     1
 40
30.0
176
     1
 62
     7
420
 16777215
176
     1
 90
        1
176
     1
 90
        4
176
     1
 62
     7
176
     1
 62
   257
176
     1
 90
        1
176
     1
 90
        1
176
     1
 40
1.0
176
     1
 90
        0
176
     1
 62
   257
176
     1
 40
1.0
176
     1
 90
        1
176
     1
 90
        6
176
     1
 90
        2
176
     1
 62
     7
176
     1
 90
        5
176
     1
 90
        0
176
     1
 90
        0
176
     1
290
     0
176
     1
 90
        1
176
     1
 40
0.0
176
     1
 90
        0
176
     1
290
     0
176
     1
290
     1
176
     1
290
     1
176
     1
290
     0
176
     1
290
     0
176
     1
290
     0
176
     1
290
     0
176
     1
290
     0
176
     1
290
     0
176
     1
 90
       50
176
     1
 40
0.0
176
     1
 40
1.0
176
     1
 90
        0
176
     1
 62
    18
420
        0
176
     1
 90
       50
176
     1
 90
        3
176
     1
 62
     5
420
      255
176
     1
290
     0
176
     1
 90
       50
176
     1
 90
       50
176
     1
 90
       50
176
     1
290
     0
176
     1
 90
       50
176
     1
 62
   256
176
     0
 40
1.0
176
     0
 90
        2
176
     1
  1
strokes_ogs.tif
176
     1
290
     0
176
     1
 40
1.0
176
     1
 40
1.0
176
     1
  0
VISUALSTYLE
  5
1D25B
102
{ACAD_REACTORS
330
1D256
102
}
330
1D256
100
AcDbVisualStyle
  2
Basic
 70
     7
177
     3
291
     1
 70
    58
 90
        1
176
     1
 90
        0
176
     1
 90
        1
176
     1
 90
        0
176
     1
 40
0.6
176
     1
 40
30.0
176
     1
 62
     7
420
 16777215
176
     1
 90
        0
176
     1
 90
        4
176
     1
 62
     7
176
     1
 62
   257
176
     1
 90
        1
176
     1
 90
        1
176
     1
 40
1.0
176
     1
 90
        8
176
     1
 62
     7
176
     1
 40
1.0
176
     1
 90
        1
176
     1
 90
        6
176
     1
 90
        2
176
     1
 62
     7
176
     1
 90
        5
176
     1
 90
        0
176
     1
 90
        0
176
     1
290
     0
176
     1
 90
        1
176
     1
 40
0.0
176
     1
 90
        0
176
     1
290
     0
176
     1
290
     1
176
     1
290
     1
176
     1
290
     0
176
     1
290
     0
176
     1
290
     0
176
     1
290
     0
176
     1
290
     0
176
     1
290
     0
176
     1
 90
       50
176
     1
 40
0.0
176
     1
 40
1.0
176
     1
 90
        0
176
     1
 62
    18
420
        0
176
     1
 90
       50
176
     1
 90
        3
176
     1
 62
     5
420
      255
176
     1
290
     0
176
     1
 90
       50
176
     1
 90
       50
176
     1
 90
       50
176
     1
290
     0
176
     1
 90
       50
176
     1
 62
   256
176
     0
 40
1.0
176
     0
 90
        2
176
     1
  1
strokes_ogs.tif
176
     1
290
     0
176
     1
 40
1.0
176
     1
 40
1.0
176
     1
  0
VISUALSTYLE
  5
1D262
102
{ACAD_REACTORS
330
1D256
102
}
330
1D256
100
AcDbVisualStyle
  2
Brighten
 70
    12
177
     3
291
     1
 70
    58
 90
        2
176
     1
 90
        2
176
     1
 90
        0
176
     1
 90
        0
176
     1
 40
0.6
176
     1
 40
30.0
176
     1
 62
     7
420
 16777215
176
     1
 90
        1
176
     1
 90
        4
176
     1
 62
     7
176
     1
 62
   257
176
     1
 90
        1
176
     1
 90
        1
176
     1
 40
1.0
176
     1
 90
        8
176
     1
 62
     7
176
     1
 40
1.0
176
     1
 90
        1
176
     1
 90
        6
176
     1
 90
        2
176
     1
 62
     7
176
     1
 90
        5
176
     1
 90
        0
176
     1
 90
        0
176
     1
290
     0
176
     1
 90
        1
176
     1
 40
50.0
176
     1
 90
        0
176
     1
290
     0
176
     1
290
     1
176
     1
290
     1
176
     1
290
     0
176
     1
290
     0
176
     1
290
     0
176
     1
290
     0
176
     1
290
     0
176
     1
290
     0
176
     1
 90
       50
176
     1
 40
0.0
176
     1
 40
1.0
176
     1
 90
        0
176
     1
 62
    18
420
        0
176
     1
 90
       50
176
     1
 90
        3
176
     1
 62
     5
420
      255
176
     1
290
     0
176
     1
 90
       50
176
     1
 90
       50
176
     1
 90
       50
176
     1
290
     0
176
     1
 90
       50
176
     1
 62
   256
176
     0
 40
1.0
176
     0
 90
        2
176
     1
  1
strokes_ogs.tif
176
     1
290
     0
176
     1
 40
1.0
176
     1
 40
1.0
176
     1
  0
VISUALSTYLE
  5
1D266
102
{ACAD_REACTORS
330
1D256
102
}
330
1D256
100
AcDbVisualStyle
  2
ColorChange
 70
    16
177
     3
291
     1
 70
    58
 90
        2
176
     1
 90
        2
176
     1
 90
        3
176
     1
 90
        0
176
     1
 40
0.6
176
     1
 40
30.0
176
     1
 62
     8
420
  8421504
176
     1
 90
        1
176
     1
 90
        4
176
     1
 62
     7
176
     1
 62
   257
176
     1
 90
        1
176
     1
 90
        1
176
     1
 40
1.0
176
     1
 90
        8
176
     1
 62
     8
420
  8421504
176
     1
 40
1.0
176
     1
 90
        1
176
     1
 90
        6
176
     1
 90
        2
176
     1
 62
     7
176
     1
 90
        5
176
     1
 90
        0
176
     1
 90
        0
176
     1
290
     0
176
     1
 90
        1
176
     1
 40
0.0
176
     1
 90
        0
176
     1
290
     0
176
     1
290
     1
176
     1
290
     1
176
     1
290
     0
176
     1
290
     0
176
     1
290
     0
176
     1
290
     0
176
     1
290
     0
176
     1
290
     0
176
     1
 90
       50
176
     1
 40
0.0
176
     1
 40
1.0
176
     1
 90
        0
176
     1
 62
    18
420
        0
176
     1
 90
       50
176
     1
 90
        3
176
     1
 62
     5
420
      255
176
     1
290
     0
176
     1
 90
       50
176
     1
 90
       50
176
     1
 90
       50
176
     1
290
     0
176
     1
 90
       50
176
     1
 62
   256
176
     0
 40
1.0
176
     0
 90
        2
176
     1
  1
strokes_ogs.tif
176
     1
290
     0
176
     1
 40
1.0
176
     1
 40
1.0
176
     1
  0
VISUALSTYLE
  5
1D25F
102
{ACAD_REACTORS
330
1D256
102
}
330
1D256
100
AcDbVisualStyle
  2
Conceptual
 70
     9
177
     3
291
     0
 70
    58
 90
        3
176
     1
 90
        2
176
     1
 90
        0
176
     1
 90
        0
176
     1
 40
0.6
176
     1
 40
30.0
176
     1
 62
     7
420
 16777215
176
     1
 90
        2
176
     1
 90
        2
176
     1
 62
     7
176
     1
 62
   257
176
     1
 90
        1
176
     1
 90
        1
176
     1
 40
179.0
176
     1
 90
        8
176
     1
 62
     7
176
     1
 40
1.0
176
     1
 90
        1
176
     1
 90
        6
176
     1
 90
        2
176
     1
 62
     7
176
     1
 90
        3
176
     1
 90
        0
176
     1
 90
        0
176
     1
290
     0
176
     1
 90
        1
176
     1
 40
0.0
176
     1
 90
        0
176
     1
290
     0
176
     1
290
     1
176
     1
290
     1
176
     1
290
     0
176
     1
290
     0
176
     1
290
     0
176
     1
290
     0
176
     1
290
     0
176
     1
290
     0
176
     1
 90
       50
176
     1
 40
0.0
176
     1
 40
1.0
176
     1
 90
        0
176
     1
 62
    18
420
        0
176
     1
 90
       50
176
     1
 90
        3
176
     1
 62
     5
420
      255
176
     1
290
     0
176
     1
 90
       50
176
     1
 90
       50
176
     1
 90
       50
176
     1
290
     0
176
     1
 90
       50
176
     1
 62
   256
176
     0
 40
1.0
176
     0
 90
        2
176
     1
  1
strokes_ogs.tif
176
     1
290
     0
176
     1
 40
1.0
176
     1
 40
1.0
176
     1
  0
VISUALSTYLE
  5
1D261
102
{ACAD_REACTORS
330
1D256
102
}
330
1D256
100
AcDbVisualStyle
  2
Dim
 70
    11
177
     3
291
     1
 70
    58
 90
        2
176
     1
 90
        2
176
     1
 90
        0
176
     1
 90
        0
176
     1
 40
0.6
176
     1
 40
30.0
176
     1
 62
     7
420
 16777215
176
     1
 90
        1
176
     1
 90
        4
176
     1
 62
     7
176
     1
 62
   257
176
     1
 90
        1
176
     1
 90
        1
176
     1
 40
1.0
176
     1
 90
        8
176
     1
 62
     7
176
     1
 40
1.0
176
     1
 90
        1
176
     1
 90
        6
176
     1
 90
        2
176
     1
 62
     7
176
     1
 90
        5
176
     1
 90
        0
176
     1
 90
        0
176
     1
290
     0
176
     1
 90
        1
176
     1
 40
-50.0
176
     1
 90
        0
176
     1
290
     0
176
     1
290
     1
176
     1
290
     1
176
     1
290
     0
176
     1
290
     0
176
     1
290
     0
176
     1
290
     0
176
     1
290
     0
176
     1
290
     0
176
     1
 90
       50
176
     1
 40
0.0
176
     1
 40
1.0
176
     1
 90
        0
176
     1
 62
    18
420
        0
176
     1
 90
       50
176
     1
 90
        3
176
     1
 62
     5
420
      255
176
     1
290
     0
176
     1
 90
       50
176
     1
 90
       50
176
     1
 90
       50
176
     1
290
     0
176
     1
 90
       50
176
     1
 62
   256
176
     0
 40
1.0
176
     0
 90
        2
176
     1
  1
strokes_ogs.tif
176
     1
290
     0
176
     1
 40
1.0
176
     1
 40
1.0
176
     1
  0
VISUALSTYLE
  5
1D269
102
{ACAD_REACTORS
330
1D256
102
}
330
1D256
100
AcDbVisualStyle
  2
EdgeColorOff
 70
    22
177
     3
291
     1
 70
    58
 90
        2
176
     0
 90
        2
176
     0
 90
        0
176
     0
 90
        0
176
     0
 40
0.6
176
     0
 40
30.0
176
     0
 62
     7
420
 16777215
176
     0
 90
        1
176
     0
 90
        4
176
     0
 62
     7
176
     0
 62
   257
176
     0
 90
        1
176
     0
 90
        1
176
     0
 40
1.0
176
     0
 90
        8
176
     2
 62
     7
176
     0
 40
1.0
176
     0
 90
        1
176
     0
 90
        6
176
     0
 90
        2
176
     0
 62
     7
176
     0
 90
        5
176
     0
 90
        0
176
     0
 90
        0
176
     0
290
     0
176
     0
 90
        1
176
     0
 40
0.0
176
     0
 90
        0
176
     0
290
     0
176
     1
290
     1
176
     1
290
     1
176
     1
290
     0
176
     1
290
     0
176
     1
290
     0
176
     1
290
     0
176
     1
290
     0
176
     1
290
     0
176
     1
 90
       50
176
     1
 40
0.0
176
     1
 40
1.0
176
     1
 90
        0
176
     1
 62
    18
420
        0
176
     1
 90
       50
176
     1
 90
        3
176
     1
 62
     5
420
      255
176
     1
290
     0
176
     1
 90
       50
176
     1
 90
       50
176
     1
 90
       50
176
     1
290
     0
176
     1
 90
       50
176
     1
 62
   256
176
     0
 40
1.0
176
     0
 90
        2
176
     1
  1
strokes_ogs.tif
176
     1
290
     0
176
     1
 40
1.0
176
     1
 40
1.0
176
     1
  0
VISUALSTYLE
  5
1D265
102
{ACAD_REACTORS
330
1D256
102
}
330
1D256
100
AcDbVisualStyle
  2
Facepattern
 70
    15
177
     3
291
     1
 70
    58
 90
        2
176
     1
 90
        2
176
     1
 90
        0
176
     1
 90
        0
176
     1
 40
0.6
176
     1
 40
30.0
176
     1
 62
     7
420
 16777215
176
     1
 90
        1
176
     1
 90
        4
176
     1
 62
     7
176
     1
 62
   257
176
     1
 90
        1
176
     1
 90
        1
176
     1
 40
1.0
176
     1
 90
        8
176
     1
 62
     7
176
     1
 40
1.0
176
     1
 90
        1
176
     1
 90
        6
176
     1
 90
        2
176
     1
 62
     7
176
     1
 90
        5
176
     1
 90
        0
176
     1
 90
        0
176
     1
290
     0
176
     1
 90
        1
176
     1
 40
0.0
176
     1
 90
        0
176
     1
290
     0
176
     1
290
     1
176
     1
290
     1
176
     1
290
     0
176
     1
290
     0
176
     1
290
     0
176
     1
290
     0
176
     1
290
     0
176
     1
290
     0
176
     1
 90
       50
176
     1
 40
0.0
176
     1
 40
1.0
176
     1
 90
        0
176
     1
 62
    18
420
        0
176
     1
 90
       50
176
     1
 90
        3
176
     1
 62
     5
420
      255
176
     1
290
     0
176
     1
 90
       50
176
     1
 90
       50
176
     1
 90
       50
176
     1
290
     0
176
     1
 90
       50
176
     1
 62
   256
176
     0
 40
1.0
176
     0
 90
        2
176
     1
  1
strokes_ogs.tif
176
     1
290
     0
176
     1
 40
1.0
176
     1
 40
1.0
176
     1
  0
VISUALSTYLE
  5
1D257
102
{ACAD_REACTORS
330
1D256
102
}
330
1D256
100
AcDbVisualStyle
  2
Flat
 70
     0
177
     3
291
     1
 70
    58
 90
        2
176
     1
 90
        1
176
     1
 90
        1
176
     1
 90
        2
176
     1
 40
0.6
176
     1
 40
30.0
176
     1
 62
     7
420
 16777215
176
     1
 90
        0
176
     1
 90
        4
176
     1
 62
     7
176
     1
 62
   257
176
     1
 90
        1
176
     1
 90
        1
176
     1
 40
1.0
176
     1
 90
        8
176
     1
 62
     7
176
     1
 40
1.0
176
     1
 90
        1
176
     1
 90
        6
176
     1
 90
        2
176
     1
 62
     7
176
     1
 90
        5
176
     1
 90
        0
176
     1
 90
        0
176
     1
290
     0
176
     1
 90
       13
176
     1
 40
0.0
176
     1
 90
        0
176
     1
290
     0
176
     1
290
     1
176
     1
290
     1
176
     1
290
     0
176
     1
290
     0
176
     1
290
     0
176
     1
290
     0
176
     1
290
     0
176
     1
290
     0
176
     1
 90
       50
176
     1
 40
0.0
176
     1
 40
1.0
176
     1
 90
        0
176
     1
 62
    18
420
        0
176
     1
 90
       50
176
     1
 90
        3
176
     1
 62
     5
420
      255
176
     1
290
     0
176
     1
 90
       50
176
     1
 90
       50
176
     1
 90
       50
176
     1
290
     0
176
     1
 90
       50
176
     1
 62
   256
176
     0
 40
1.0
176
     0
 90
        2
176
     1
  1
strokes_ogs.tif
176
     1
290
     0
176
     1
 40
1.0
176
     1
 40
1.0
176
     1
  0
VISUALSTYLE
  5
1D258
102
{ACAD_REACTORS
330
1D256
102
}
330
1D256
100
AcDbVisualStyle
  2
FlatWithEdges
 70
     1
177
     3
291
     1
 70
    58
 90
        2
176
     1
 90
        1
176
     1
 90
        1
176
     1
 90
        2
176
     1
 40
0.6
176
     1
 40
30.0
176
     1
 62
     7
420
 16777215
176
     1
 90
        1
176
     1
 90
        4
176
     1
 62
     7
176
     1
 62
   257
176
     1
 90
        1
176
     1
 90
        1
176
     1
 40
1.0
176
     1
 90
        0
176
     1
 62
   257
176
     1
 40
1.0
176
     1
 90
        1
176
     1
 90
        6
176
     1
 90
        2
176
     1
 62
     7
176
     1
 90
        5
176
     1
 90
        0
176
     1
 90
        0
176
     1
290
     0
176
     1
 90
       13
176
     1
 40
0.0
176
     1
 90
        0
176
     1
290
     0
176
     1
290
     1
176
     1
290
     1
176
     1
290
     0
176
     1
290
     0
176
     1
290
     0
176
     1
290
     0
176
     1
290
     0
176
     1
290
     0
176
     1
 90
       50
176
     1
 40
0.0
176
     1
 40
1.0
176
     1
 90
        0
176
     1
 62
    18
420
        0
176
     1
 90
       50
176
     1
 90
        3
176
     1
 62
     5
420
      255
176
     1
290
     0
176
     1
 90
       50
176
     1
 90
       50
176
     1
 90
       50
176
     1
290
     0
176
     1
 90
       50
176
     1
 62
   256
176
     0
 40
1.0
176
     0
 90
        2
176
     1
  1
strokes_ogs.tif
176
     1
290
     0
176
     1
 40
1.0
176
     1
 40
1.0
176
     1
  0
VISUALSTYLE
  5
1D259
102
{ACAD_REACTORS
330
1D256
102
}
330
1D256
100
AcDbVisualStyle
  2
Gouraud
 70
     2
177
     3
291
     1
 70
    58
 90
        2
176
     1
 90
        2
176
     1
 90
        1
176
     1
 90
        2
176
     1
 40
0.6
176
     1
 40
30.0
176
     1
 62
     7
420
 16777215
176
     1
 90
        0
176
     1
 90
        4
176
     1
 62
     7
176
     1
 62
   257
176
     1
 90
        1
176
     1
 90
        1
176
     1
 40
1.0
176
     1
 90
        0
176
     1
 62
     7
176
     1
 40
1.0
176
     1
 90
        1
176
     1
 90
        6
176
     1
 90
        2
176
     1
 62
     7
176
     1
 90
        5
176
     1
 90
        0
176
     1
 90
        0
176
     1
290
     0
176
     1
 90
       13
176
     1
 40
0.0
176
     1
 90
        0
176
     1
290
     0
176
     1
290
     1
176
     1
290
     1
176
     1
290
     0
176
     1
290
     0
176
     1
290
     0
176
     1
290
     0
176
     1
290
     0
176
     1
290
     0
176
     1
 90
       50
176
     1
 40
0.0
176
     1
 40
1.0
176
     1
 90
        0
176
     1
 62
    18
420
        0
176
     1
 90
       50
176
     1
 90
        3
176
     1
 62
     5
420
      255
176
     1
290
     0
176
     1
 90
       50
176
     1
 90
       50
176
     1
 90
       50
176
     1
290
     0
176
     1
 90
       50
176
     1
 62
   256
176
     0
 40
1.0
176
     0
 90
        2
176
     1
  1
strokes_ogs.tif
176
     1
290
     0
176
     1
 40
1.0
176
     1
 40
1.0
176
     1
  0
VISUALSTYLE
  5
1D25A
102
{ACAD_REACTORS
330
1D256
102
}
330
1D256
100
AcDbVisualStyle
  2
GouraudWithEdges
 70
     3
177
     3
291
     1
 70
    58
 90
        2
176
     1
 90
        2
176
     1
 90
        1
176
     1
 90
        2
176
     1
 40
0.6
176
     1
 40
30.0
176
     1
 62
     7
420
 16777215
176
     1
 90
        1
176
     1
 90
        4
176
     1
 62
     7
176
     1
 62
   257
176
     1
 90
        1
176
     1
 90
        1
176
     1
 40
1.0
176
     1
 90
        0
176
     1
 62
   257
176
     1
 40
1.0
176
     1
 90
        1
176
     1
 90
        6
176
     1
 90
        2
176
     1
 62
     7
176
     1
 90
        5
176
     1
 90
        0
176
     1
 90
        0
176
     1
290
     0
176
     1
 90
       13
176
     1
 40
0.0
176
     1
 90
        0
176
     1
290
     0
176
     1
290
     1
176
     1
290
     1
176
     1
290
     0
176
     1
290
     0
176
     1
290
     0
176
     1
290
     0
176
     1
290
     0
176
     1
290
     0
176
     1
 90
       50
176
     1
 40
0.0
176
     1
 40
1.0
176
     1
 90
        0
176
     1
 62
    18
420
        0
176
     1
 90
       50
176
     1
 90
        3
176
     1
 62
     5
420
      255
176
     1
290
     0
176
     1
 90
       50
176
     1
 90
       50
176
     1
 90
       50
176
     1
290
     0
176
     1
 90
       50
176
     1
 62
   256
176
     0
 40
1.0
176
     0
 90
        2
176
     1
  1
strokes_ogs.tif
176
     1
290
     0
176
     1
 40
1.0
176
     1
 40
1.0
176
     1
  0
VISUALSTYLE
  5
1D9C5
102
{ACAD_REACTORS
330
1D256
102
}
330
1D256
100
AcDbVisualStyle
  2
Hidden
 70
     6
177
     3
291
     0
 70
    58
 90
        1
176
     1
 90
        2
176
     1
 90
        2
176
     1
 90
        0
176
     1
 40
0.6
176
     1
 40
30.0
176
     1
 62
     7
420
 16777215
176
     1
 90
        2
176
     1
 90
        2
176
     1
 62
     7
176
     1
 62
   257
176
     1
 90
        2
176
     1
 90
        1
176
     1
 40
40.0
176
     1
 90
        0
176
     1
 62
   257
176
     1
 40
1.0
176
     1
 90
        1
176
     1
 90
        6
176
     1
 90
        2
176
     1
 62
     7
176
     1
 90
        3
176
     1
 90
        0
176
     1
 90
        0
176
     1
290
     0
176
     1
 90
        1
176
     1
 40
0.0
176
     1
 90
        0
176
     1
290
     0
176
     1
290
     1
176
     1
290
     1
176
     1
290
     0
176
     1
290
     0
176
     1
290
     0
176
     1
290
     0
176
     1
290
     0
176
     1
290
     0
176
     1
 90
       50
176
     1
 40
0.0
176
     1
 40
1.0
176
     1
 90
        0
176
     1
 62
    18
420
        0
176
     1
 90
       50
176
     1
 90
        3
176
     1
 62
     5
420
      255
176
     1
290
     0
176
     1
 90
       50
176
     1
 90
       50
176
     1
 90
       50
176
     1
290
     0
176
     1
 90
       50
176
     1
 62
   256
176
     0
 40
1.0
176
     0
 90
        2
176
     1
  1
strokes_ogs.tif
176
     1
290
     0
176
     1
 40
1.0
176
     1
 40
1.0
176
     1
  0
VISUALSTYLE
  5
1D267
102
{ACAD_REACTORS
330
1D256
102
}
330
1D256
100
AcDbVisualStyle
  2
JitterOff
 70
    20
177
     3
291
     1
 70
    58
 90
        2
176
     0
 90
        2
176
     0
 90
        0
176
     0
 90
        0
176
     0
 40
0.6
176
     0
 40
30.0
176
     0
 62
     7
420
 16777215
176
     0
 90
        1
176
     0
 90
        4
176
     0
 62
     7
176
     0
 62
   257
176
     0
 90
        1
176
     0
 90
        1
176
     0
 40
1.0
176
     0
 90
       10
176
     2
 62
     7
176
     0
 40
1.0
176
     0
 90
        1
176
     0
 90
        6
176
     0
 90
        2
176
     0
 62
     7
176
     0
 90
        5
176
     0
 90
        0
176
     0
 90
        0
176
     0
290
     0
176
     0
 90
        1
176
     0
 40
0.0
176
     0
 90
        0
176
     0
290
     0
176
     1
290
     1
176
     1
290
     1
176
     1
290
     0
176
     1
290
     0
176
     1
290
     0
176
     1
290
     0
176
     1
290
     0
176
     1
290
     0
176
     1
 90
       50
176
     1
 40
0.0
176
     1
 40
1.0
176
     1
 90
        0
176
     1
 62
    18
420
        0
176
     1
 90
       50
176
     1
 90
        3
176
     1
 62
     5
420
      255
176
     1
290
     0
176
     1
 90
       50
176
     1
 90
       50
176
     1
 90
       50
176
     1
290
     0
176
     1
 90
       50
176
     1
 62
   256
176
     0
 40
1.0
176
     0
 90
        2
176
     1
  1
strokes_ogs.tif
176
     1
290
     0
176
     1
 40
1.0
176
     1
 40
1.0
176
     1
  0
VISUALSTYLE
  5
1D264
102
{ACAD_REACTORS
330
1D256
102
}
330
1D256
100
AcDbVisualStyle
  2
Linepattern
 70
    14
177
     3
291
     1
 70
    58
 90
        2
176
     1
 90
        2
176
     1
 90
        0
176
     1
 90
        0
176
     1
 40
0.6
176
     1
 40
30.0
176
     1
 62
     7
420
 16777215
176
     1
 90
        1
176
     1
 90
        4
176
     1
 62
     7
176
     1
 62
   257
176
     1
 90
        7
176
     1
 90
        7
176
     1
 40
1.0
176
     1
 90
        8
176
     1
 62
     7
176
     1
 40
1.0
176
     1
 90
        1
176
     1
 90
        6
176
     1
 90
        2
176
     1
 62
     7
176
     1
 90
        5
176
     1
 90
        0
176
     1
 90
        0
176
     1
290
     0
176
     1
 90
        1
176
     1
 40
0.0
176
     1
 90
        0
176
     1
290
     0
176
     1
290
     1
176
     1
290
     1
176
     1
290
     0
176
     1
290
     0
176
     1
290
     0
176
     1
290
     0
176
     1
290
     0
176
     1
290
     0
176
     1
 90
       50
176
     1
 40
0.0
176
     1
 40
1.0
176
     1
 90
        0
176
     1
 62
    18
420
        0
176
     1
 90
       50
176
     1
 90
        3
176
     1
 62
     5
420
      255
176
     1
290
     0
176
     1
 90
       50
176
     1
 90
       50
176
     1
 90
       50
176
     1
290
     0
176
     1
 90
       50
176
     1
 62
   256
176
     0
 40
1.0
176
     0
 90
        2
176
     1
  1
strokes_ogs.tif
176
     1
290
     0
176
     1
 40
1.0
176
     1
 40
1.0
176
     1
  0
VISUALSTYLE
  5
1D268
102
{ACAD_REACTORS
330
1D256
102
}
330
1D256
100
AcDbVisualStyle
  2
OverhangOff
 70
    21
177
     3
291
     1
 70
    58
 90
        2
176
     0
 90
        2
176
     0
 90
        0
176
     0
 90
        0
176
     0
 40
0.6
176
     0
 40
30.0
176
     0
 62
     7
420
 16777215
176
     0
 90
        1
176
     0
 90
        4
176
     0
 62
     7
176
     0
 62
   257
176
     0
 90
        1
176
     0
 90
        1
176
     0
 40
1.0
176
     0
 90
        9
176
     2
 62
     7
176
     0
 40
1.0
176
     0
 90
        1
176
     0
 90
        6
176
     0
 90
        2
176
     0
 62
     7
176
     0
 90
        5
176
     0
 90
        0
176
     0
 90
        0
176
     0
290
     0
176
     0
 90
        1
176
     0
 40
0.0
176
     0
 90
        0
176
     0
290
     0
176
     1
290
     1
176
     1
290
     1
176
     1
290
     0
176
     1
290
     0
176
     1
290
     0
176
     1
290
     0
176
     1
290
     0
176
     1
290
     0
176
     1
 90
       50
176
     1
 40
0.0
176
     1
 40
1.0
176
     1
 90
        0
176
     1
 62
    18
420
        0
176
     1
 90
       50
176
     1
 90
        3
176
     1
 62
     5
420
      255
176
     1
290
     0
176
     1
 90
       50
176
     1
 90
       50
176
     1
 90
       50
176
     1
290
     0
176
     1
 90
       50
176
     1
 62
   256
176
     0
 40
1.0
176
     0
 90
        2
176
     1
  1
strokes_ogs.tif
176
     1
290
     0
176
     1
 40
1.0
176
     1
 40
1.0
176
     1
  0
VISUALSTYLE
  5
1D260
102
{ACAD_REACTORS
330
1D256
102
}
330
1D256
100
AcDbVisualStyle
  2
Realistic
 70
     8
177
     3
291
     0
 70
    58
 90
        2
176
     1
 90
        2
176
     1
 90
        0
176
     1
 90
        0
176
     1
 40
0.6
176
     1
 40
30.0
176
     1
 62
     7
420
 16777215
176
     1
 90
        1
176
     1
 90
        0
176
     1
 62
     7
176
     1
 62
   257
176
     1
 90
        1
176
     1
 90
        1
176
     1
 40
1.0
176
     1
 90
        8
176
     1
 62
     8
420
  7895160
176
     1
 40
1.0
176
     1
 90
        1
176
     1
 90
        6
176
     1
 90
        2
176
     1
 62
     7
176
     1
 90
        5
176
     1
 90
        0
176
     1
 90
        0
176
     1
290
     0
176
     1
 90
       13
176
     1
 40
0.0
176
     1
 90
        0
176
     1
290
     0
176
     1
290
     1
176
     1
290
     1
176
     1
290
     0
176
     1
290
     0
176
     1
290
     0
176
     1
290
     0
176
     1
290
     0
176
     1
290
     0
176
     1
 90
       50
176
     1
 40
0.0
176
     1
 40
1.0
176
     1
 90
        0
176
     1
 62
    18
420
        0
176
     1
 90
       50
176
     1
 90
        3
176
     1
 62
     5
420
      255
176
     1
290
     0
176
     1
 90
       50
176
     1
 90
       50
176
     1
 90
       50
176
     1
290
     0
176
     1
 90
       50
176
     1
 62
   256
176
     0
 40
1.0
176
     0
 90
        2
176
     1
  1
strokes_ogs.tif
176
     1
290
     0
176
     1
 40
1.0
176
     1
 40
1.0
176
     1
  0
VISUALSTYLE
  5
1D9CA
102
{ACAD_REACTORS
330
1D256
102
}
330
1D256
100
AcDbVisualStyle
  2
Shaded
 70
    27
177
     3
291
     0
 70
    58
 90
        2
176
     1
 90
        2
176
     1
 90
        1
176
     1
 90
        2
176
     1
 40
0.6
176
     1
 40
30.0
176
     1
 62
     7
420
 16777215
176
     1
 90
        0
176
     1
 90
        4
176
     1
 62
     7
176
     1
 62
   257
176
     1
 90
        1
176
     1
 90
        1
176
     1
 40
1.0
176
     1
 90
        8
176
     1
 62
   257
176
     1
 40
1.0
176
     1
 90
        1
176
     1
 90
        6
176
     1
 90
        2
176
     1
 62
     8
420
  7895160
176
     1
 90
        3
176
     1
 90
        0
176
     1
 90
        0
176
     1
290
     0
176
     1
 90
        5
176
     1
 40
0.0
176
     1
 90
        0
176
     1
290
     0
176
     1
290
     1
176
     1
290
     1
176
     1
290
     0
176
     1
290
     0
176
     1
290
     0
176
     1
290
     0
176
     1
290
     0
176
     1
290
     0
176
     1
 90
       50
176
     1
 40
0.0
176
     1
 40
1.0
176
     1
 90
        0
176
     1
 62
    18
420
        0
176
     1
 90
       50
176
     1
 90
        3
176
     1
 62
     5
420
      255
176
     1
290
     0
176
     1
 90
       50
176
     1
 90
       50
176
     1
 90
       50
176
     1
290
     0
176
     1
 90
       50
176
     1
 62
   256
176
     0
 40
1.0
176
     0
 90
        2
176
     1
  1
strokes_ogs.tif
176
     1
290
     0
176
     1
 40
1.0
176
     1
 40
1.0
176
     1
  0
VISUALSTYLE
  5
1D9C9
102
{ACAD_REACTORS
330
1D256
102
}
330
1D256
100
AcDbVisualStyle
  2
Shaded with edges
 70
    26
177
     3
291
     0
 70
    58
 90
        2
176
     1
 90
        2
176
     1
 90
        1
176
     1
 90
        2
176
     1
 40
0.6
176
     1
 40
30.0
176
     1
 62
     7
420
 16777215
176
     1
 90
        1
176
     1
 90
        2
176
     1
 62
     7
176
     1
 62
   257
176
     1
 90
        2
176
     1
 90
        1
176
     1
 40
1.0
176
     1
 90
        8
176
     1
 62
   257
176
     1
 40
1.0
176
     1
 90
        1
176
     1
 90
        6
176
     1
 90
        2
176
     1
 62
     7
176
     1
 90
        3
176
     1
 90
        0
176
     1
 90
        0
176
     1
290
     0
176
     1
 90
        5
176
     1
 40
0.0
176
     1
 90
        0
176
     1
290
     0
176
     1
290
     1
176
     1
290
     1
176
     1
290
     0
176
     1
290
     0
176
     1
290
     0
176
     1
290
     0
176
     1
290
     0
176
     1
290
     0
176
     1
 90
       50
176
     1
 40
0.0
176
     1
 40
1.0
176
     1
 90
        0
176
     1
 62
    18
420
        0
176
     1
 90
       50
176
     1
 90
        3
176
     1
 62
     5
420
      255
176
     1
290
     0
176
     1
 90
       50
176
     1
 90
       50
176
     1
 90
       50
176
     1
290
     0
176
     1
 90
       50
176
     1
 62
   256
176
     0
 40
1.0
176
     0
 90
        2
176
     1
  1
strokes_ogs.tif
176
     1
290
     0
176
     1
 40
1.0
176
     1
 40
1.0
176
     1
  0
VISUALSTYLE
  5
1D9C6
102
{ACAD_REACTORS
330
1D256
102
}
330
1D256
100
AcDbVisualStyle
  2
Shades of Gray
 70
    23
177
     3
291
     0
 70
    58
 90
        2
176
     1
 90
        2
176
     1
 90
        3
176
     1
 90
        0
176
     1
 40
0.6
176
     1
 40
30.0
176
     1
 62
     7
420
 16777215
176
     1
 90
        2
176
     1
 90
        2
176
     1
 62
     7
176
     1
 62
     7
176
     1
 90
        1
176
     1
 90
        1
176
     1
 40
40.0
176
     1
 90
        8
176
     1
 62
     7
176
     1
 40
1.0
176
     1
 90
        1
176
     1
 90
        6
176
     1
 90
        2
176
     1
 62
     7
176
     1
 90
        3
176
     1
 90
        0
176
     1
 90
        0
176
     1
290
     0
176
     1
 90
        1
176
     1
 40
0.0
176
     1
 90
        0
176
     1
290
     0
176
     1
290
     1
176
     1
290
     1
176
     1
290
     0
176
     1
290
     0
176
     1
290
     0
176
     1
290
     0
176
     1
290
     0
176
     1
290
     0
176
     1
 90
       50
176
     1
 40
0.0
176
     1
 40
1.0
176
     1
 90
        0
176
     1
 62
    18
420
        0
176
     1
 90
       50
176
     1
 90
        3
176
     1
 62
     5
420
      255
176
     1
290
     0
176
     1
 90
       50
176
     1
 90
       50
176
     1
 90
       50
176
     1
290
     0
176
     1
 90
       50
176
     1
 62
   256
176
     0
 40
1.0
176
     0
 90
        2
176
     1
  1
strokes_ogs.tif
176
     1
290
     0
176
     1
 40
1.0
176
     1
 40
1.0
176
     1
  0
VISUALSTYLE
  5
1D9C7
102
{ACAD_REACTORS
330
1D256
102
}
330
1D256
100
AcDbVisualStyle
  2
Sketchy
 70
    24
177
     3
291
     0
 70
    58
 90
        1
176
     1
 90
        2
176
     1
 90
        2
176
     1
 90
        0
176
     1
 40
0.6
176
     1
 40
30.0
176
     1
 62
     7
420
 16777215
176
     1
 90
        2
176
     1
 90
        2
176
     1
 62
     7
176
     1
 62
     7
176
     1
 90
        1
176
     1
 90
        1
176
     1
 40
40.0
176
     1
 90
       11
176
     1
 62
     7
176
     1
 40
1.0
176
     1
 90
        1
176
     1
 90
        6
176
     1
 90
        2
176
     1
 62
     7
176
     1
 90
        6
176
     1
 90
        0
176
     1
 90
        0
176
     1
290
     0
176
     1
 90
        1
176
     1
 40
0.0
176
     1
 90
        0
176
     1
290
     0
176
     1
290
     1
176
     1
290
     1
176
     1
290
     0
176
     1
290
     0
176
     1
290
     0
176
     1
290
     0
176
     1
290
     0
176
     1
290
     0
176
     1
 90
       50
176
     1
 40
0.0
176
     1
 40
1.0
176
     1
 90
        0
176
     1
 62
    18
420
        0
176
     1
 90
       50
176
     1
 90
        3
176
     1
 62
     5
420
      255
176
     1
290
     0
176
     1
 90
       50
176
     1
 90
       50
176
     1
 90
       50
176
     1
290
     0
176
     1
 90
       50
176
     1
 62
   256
176
     0
 40
1.0
176
     0
 90
        2
176
     1
  1
strokes_ogs.tif
176
     1
290
     0
176
     1
 40
1.0
176
     1
 40
1.0
176
     1
  0
VISUALSTYLE
  5
1D263
102
{ACAD_REACTORS
330
1D256
102
}
330
1D256
100
AcDbVisualStyle
  2
Thicken
 70
    13
177
     3
291
     1
 70
    58
 90
        2
176
     1
 90
        2
176
     1
 90
        0
176
     1
 90
        0
176
     1
 40
0.6
176
     1
 40
30.0
176
     1
 62
     7
420
 16777215
176
     1
 90
        1
176
     1
 90
        4
176
     1
 62
     7
176
     1
 62
   257
176
     1
 90
        1
176
     1
 90
        1
176
     1
 40
1.0
176
     1
 90
       12
176
     1
 62
     7
176
     1
 40
1.0
176
     1
 90
        1
176
     1
 90
        6
176
     1
 90
        2
176
     1
 62
     7
176
     1
 90
        5
176
     1
 90
        0
176
     1
 90
        0
176
     1
290
     0
176
     1
 90
        1
176
     1
 40
0.0
176
     1
 90
        0
176
     1
290
     0
176
     1
290
     1
176
     1
290
     1
176
     1
290
     0
176
     1
290
     0
176
     1
290
     0
176
     1
290
     0
176
     1
290
     0
176
     1
290
     0
176
     1
 90
       50
176
     1
 40
0.0
176
     1
 40
1.0
176
     1
 90
        0
176
     1
 62
    18
420
        0
176
     1
 90
       50
176
     1
 90
        3
176
     1
 62
     5
420
      255
176
     1
290
     0
176
     1
 90
       50
176
     1
 90
       50
176
     1
 90
       50
176
     1
290
     0
176
     1
 90
       50
176
     1
 62
   256
176
     0
 40
1.0
176
     0
 90
        2
176
     1
  1
strokes_ogs.tif
176
     1
290
     0
176
     1
 40
1.0
176
     1
 40
1.0
176
     1
  0
VISUALSTYLE
  5
1D9C4
102
{ACAD_REACTORS
330
1D256
102
}
330
1D256
100
AcDbVisualStyle
  2
Wireframe
 70
     5
177
     3
291
     0
 70
    58
 90
        0
176
     1
 90
        2
176
     1
 90
        0
176
     1
 90
        0
176
     1
 40
0.6
176
     1
 40
30.0
176
     1
 62
     7
420
 16777215
176
     1
 90
        1
176
     1
 90
        4
176
     1
 62
     7
176
     1
 62
   257
176
     1
 90
        1
176
     1
 90
        1
176
     1
 40
1.0
176
     1
 90
        0
176
     1
 62
   257
176
     1
 40
1.0
176
     1
 90
        1
176
     1
 90
        6
176
     1
 90
        2
176
     1
 62
     7
176
     1
 90
        3
176
     1
 90
        0
176
     1
 90
        0
176
     1
290
     0
176
     1
 90
        1
176
     1
 40
0.0
176
     1
 90
        0
176
     1
290
     0
176
     1
290
     1
176
     1
290
     1
176
     1
290
     0
176
     1
290
     0
176
     1
290
     0
176
     1
290
     0
176
     1
290
     0
176
     1
290
     0
176
     1
 90
       50
176
     1
 40
0.0
176
     1
 40
1.0
176
     1
 90
        0
176
     1
 62
    18
420
        0
176
     1
 90
       50
176
     1
 90
        3
176
     1
 62
     5
420
      255
176
     1
290
     0
176
     1
 90
       50
176
     1
 90
       50
176
     1
 90
       50
176
     1
290
     0
176
     1
 90
       50
176
     1
 62
   256
176
     0
 40
1.0
176
     0
 90
        2
176
     1
  1
strokes_ogs.tif
176
     1
290
     0
176
     1
 40
1.0
176
     1
 40
1.0
176
     1
  0
VISUALSTYLE
  5
1D9C8
102
{ACAD_REACTORS
330
1D256
102
}
330
1D256
100
AcDbVisualStyle
  2
X-Ray
 70
    25
177
     3
291
     0
 70
    58
 90
        2
176
     1
 90
        2
176
     1
 90
        1
176
     1
 90
        1
176
     1
 40
0.5
176
     1
 40
30.0
176
     1
 62
     7
420
 16777215
176
     1
 90
        1
176
     1
 90
        0
176
     1
 62
     7
176
     1
 62
   257
176
     1
 90
        1
176
     1
 90
        1
176
     1
 40
1.0
176
     1
 90
        8
176
     1
 62
     7
176
     1
 40
1.0
176
     1
 90
        1
176
     1
 90
        6
176
     1
 90
        2
176
     1
 62
     7
176
     1
 90
        3
176
     1
 90
        0
176
     1
 90
        0
176
     1
290
     0
176
     1
 90
       13
176
     1
 40
0.0
176
     1
 90
        0
176
     1
290
     0
176
     1
290
     1
176
     1
290
     1
176
     1
290
     0
176
     1
290
     0
176
     1
290
     0
176
     1
290
     0
176
     1
290
     0
176
     1
290
     0
176
     1
 90
       50
176
     1
 40
0.0
176
     1
 40
1.0
176
     1
 90
        0
176
     1
 62
    18
420
        0
176
     1
 90
       50
176
     1
 90
        3
176
     1
 62
     5
420
      255
176
     1
290
     0
176
     1
 90
       50
176
     1
 90
       50
176
     1
 90
       50
176
     1
290
     0
176
     1
 90
       50
176
     1
 62
   256
176
     0
 40
1.0
176
     0
 90
        2
176
     1
  1
strokes_ogs.tif
176
     1
290
     0
176
     1
 40
1.0
176
     1
 40
1.0
176
     1
  0
DICTIONARYVAR
  5
1D5E3
102
{ACAD_REACTORS
330
265
102
}
330
265
100
DictionaryVariables
280
     0
  1
1:1
  0
DICTIONARYVAR
  5
1D5E1
102
{ACAD_REACTORS
330
265
102
}
330
265
100
DictionaryVariables
280
     0
  1
STANDARD
  0
DICTIONARYVAR
  5
266
102
{ACAD_REACTORS
330
265
102
}
330
265
100
DictionaryVariables
280
     0
  1
STANDARD
  0
DICTIONARYVAR
  5
101F09B
102
{ACAD_REACTORS
330
265
102
}
330
265
100
DictionaryVariables
280
     0
  1
Metric50
  0
DICTIONARYVAR
  5
101F09C
102
{ACAD_REACTORS
330
265
102
}
330
265
100
DictionaryVariables
280
     0
  1
Metric50
  0
DICTIONARYVAR
  5
1A744
102
{ACAD_REACTORS
330
265
102
}
330
265
100
DictionaryVariables
280
     0
  1
1
  0
DICTIONARYVAR
  5
1D5E5
102
{ACAD_REACTORS
330
265
102
}
330
265
100
DictionaryVariables
280
     0
  1
1
  0
DICTIONARYVAR
  5
1D5E6
102
{ACAD_REACTORS
330
265
102
}
330
265
100
DictionaryVariables
280
     0
  1
15
  0
DICTIONARYVAR
  5
1D5E4
102
{ACAD_REACTORS
330
265
102
}
330
265
100
DictionaryVariables
280
     0
  1
0
  0
DICTIONARYVAR
  5
1D5E2
102
{ACAD_REACTORS
330
265
102
}
330
265
100
DictionaryVariables
280
     0
  1
0
  0
DICTIONARYVAR
  5
1A745
102
{ACAD_REACTORS
330
265
102
}
330
265
100
DictionaryVariables
280
     0
  1

  0
DICTIONARYVAR
  5
1E408
102
{ACAD_REACTORS
330
265
102
}
330
265
100
DictionaryVariables
280
     0
  1
1
  0
VLO-VL
  5
1AD26
102
{ACAD_REACTORS
330
1AD25
102
}
330
1AD25
100
vlo_VL
 90
   -64512
 91
       12
 92
        1
 40
2.5
300
(&VLO-R . 0)
  0
DICTIONARY
  5
101F0A6
330
101F069
100
AcDbDictionary
280
     1
281
     1
  3
ACAD_XREC_ROUNDTRIP
360
101F0A7
  0
DICTIONARY
  5
1D4D8
330
22
100
AcDbDictionary
280
     1
281
     1
  0
DICTIONARY
  5
1D24F
330
1D24E
100
AcDbDictionary
280
     1
281
     1
  3
BUMPTILE
360
1D251
  3
DIFFUSETILE
360
1D250
  3
OPACITYTILE
360
1D254
  3
REFLECTIONTILE
360
1D253
  3
REFRACTIONTILE
360
1D255
  3
SPECULARTILE
360
1D252
  0
DICTIONARY
  5
1D247
330
1D246
100
AcDbDictionary
280
     1
281
     1
  3
BUMPTILE
360
1D249
  3
DIFFUSETILE
360
1D248
  3
OPACITYTILE
360
1D24C
  3
REFLECTIONTILE
360
1D24B
  3
REFRACTIONTILE
360
1D24D
  3
SPECULARTILE
360
1D24A
  0
DICTIONARY
  5
1B62B
330
1B62A
100
AcDbDictionary
280
     1
281
     1
  3
BUMPTILE
360
1B62D
  3
DIFFUSETILE
360
1B62E
  3
OPACITYTILE
360
1B62F
  3
REFLECTIONTILE
360
1B630
  0
DICTIONARY
  5
101F0A4
330
101F067
100
AcDbDictionary
280
     1
281
     1
  3
ACAD_XREC_ROUNDTRIP
360
101F0A5
  0
DICTIONARY
  5
1D5B7
330
1D6
100
AcDbDictionary
280
     1
281
     1
  3
ACAD_ROUNDTRIP_2008_TABLESTYLE_CELLSTYLEMAP
360
101F0A3
  0
XRECORD
  5
101F0A7
102
{ACAD_REACTORS
330
101F0A6
102
}
330
101F0A6
100
AcDbXrecord
280
     1
102
DISPLAYNAME
  1
Metric50
102
FLAGS
 90
        0
  0
XRECORD
  5
1D251
102
{ACAD_REACTORS
330
1D24F
102
}
330
1D24F
100
AcDbXrecord
280
     1
270
     1
271
     1
  0
XRECORD
  5
1D250
102
{ACAD_REACTORS
330
1D24F
102
}
330
1D24F
100
AcDbXrecord
280
     1
270
     1
271
     1
  0
XRECORD
  5
1D254
102
{ACAD_REACTORS
330
1D24F
102
}
330
1D24F
100
AcDbXrecord
280
     1
270
     1
271
     1
  0
XRECORD
  5
1D253
102
{ACAD_REACTORS
330
1D24F
102
}
330
1D24F
100
AcDbXrecord
280
     1
270
     1
271
     1
  0
XRECORD
  5
1D255
102
{ACAD_REACTORS
330
1D24F
102
}
330
1D24F
100
AcDbXrecord
280
     1
270
     1
271
     1
  0
XRECORD
  5
1D252
102
{ACAD_REACTORS
330
1D24F
102
}
330
1D24F
100
AcDbXrecord
280
     1
270
     1
271
     1
  0
XRECORD
  5
1D249
102
{ACAD_REACTORS
330
1D247
102
}
330
1D247
100
AcDbXrecord
280
     1
270
     1
271
     1
  0
XRECORD
  5
1D248
102
{ACAD_REACTORS
330
1D247
102
}
330
1D247
100
AcDbXrecord
280
     1
270
     1
271
     1
  0
XRECORD
  5
1D24C
102
{ACAD_REACTORS
330
1D247
102
}
330
1D247
100
AcDbXrecord
280
     1
270
     1
271
     1
  0
XRECORD
  5
1D24B
102
{ACAD_REACTORS
330
1D247
102
}
330
1D247
100
AcDbXrecord
280
     1
270
     1
271
     1
  0
XRECORD
  5
1D24D
102
{ACAD_REACTORS
330
1D247
102
}
330
1D247
100
AcDbXrecord
280
     1
270
     1
271
     1
  0
XRECORD
  5
1D24A
102
{ACAD_REACTORS
330
1D247
102
}
330
1D247
100
AcDbXrecord
280
     1
270
     1
271
     1
  0
XRECORD
  5
1B62D
102
{ACAD_REACTORS
330
1B62B
102
}
330
1B62B
100
AcDbXrecord
280
     1
270
     1
271
     1
  0
XRECORD
  5
1B62E
102
{ACAD_REACTORS
330
1B62B
102
}
330
1B62B
100
AcDbXrecord
280
     1
270
     1
271
     1
  0
XRECORD
  5
1B62F
102
{ACAD_REACTORS
330
1B62B
102
}
330
1B62B
100
AcDbXrecord
280
     1
270
     1
271
     1
  0
XRECORD
  5
1B630
102
{ACAD_REACTORS
330
1B62B
102
}
330
1B62B
100
AcDbXrecord
280
     1
270
     1
271
     1
  0
XRECORD
  5
101F0A5
102
{ACAD_REACTORS
330
101F0A4
102
}
330
101F0A4
100
AcDbXrecord
280
     1
102
DISPLAYNAME
  1
Metric50
102
FLAGS
 90
        0
  0
CELLSTYLEMAP
  5
101F0A3
102
{ACAD_REACTORS
330
1D5B7
102
}
330
1D5B7
100
AcDbCellStyleMap
 90
        3
300
CELLSTYLE
  1
TABLEFORMAT_BEGIN
 90
        5
170
     1
 91
        0
 92
    32768
 62
   257
 93
        1
300
CONTENTFORMAT
  1
CONTENTFORMAT_BEGIN
 90
        0
 91
        0
 92
        4
 93
        0
300

 40
0.0
140
1.0
 94
        5
 62
     0
340
11
144
6.0
309
CONTENTFORMAT_END
171
     1
301
MARGIN
  1
CELLMARGIN_BEGIN
 40
1.5
 40
1.5
 40
1.5
 40
1.5
 40
0.18
 40
0.18
309
CELLMARGIN_END
 94
        6
 95
        1
302
GRIDFORMAT
  1
GRIDFORMAT_BEGIN
 90
        0
 91
        1
 62
     0
 92
       -2
340
0
 93
        0
 40
0.045
309
GRIDFORMAT_END
 95
        2
302
GRIDFORMAT
  1
GRIDFORMAT_BEGIN
 90
        0
 91
        1
 62
     0
 92
       -2
340
0
 93
        0
 40
0.045
309
GRIDFORMAT_END
 95
        4
302
GRIDFORMAT
  1
GRIDFORMAT_BEGIN
 90
        0
 91
        1
 62
     0
 92
       -2
340
0
 93
        0
 40
0.045
309
GRIDFORMAT_END
 95
        8
302
GRIDFORMAT
  1
GRIDFORMAT_BEGIN
 90
        0
 91
        1
 62
     0
 92
       -2
340
0
 93
        0
 40
0.045
309
GRIDFORMAT_END
 95
       16
302
GRIDFORMAT
  1
GRIDFORMAT_BEGIN
 90
        0
 91
        1
 62
     0
 92
       -2
340
0
 93
        0
 40
0.045
309
GRIDFORMAT_END
 95
       32
302
GRIDFORMAT
  1
GRIDFORMAT_BEGIN
 90
        0
 91
        1
 62
     0
 92
       -2
340
0
 93
        0
 40
0.045
309
GRIDFORMAT_END
309
TABLEFORMAT_END
  1
CELLSTYLE_BEGIN
 90
        1
 91
        1
300
_TITLE
309
CELLSTYLE_END
300
CELLSTYLE
  1
TABLEFORMAT_BEGIN
 90
        5
170
     1
 91
        0
 92
        0
 62
   257
 93
        1
300
CONTENTFORMAT
  1
CONTENTFORMAT_BEGIN
 90
        0
 91
        0
 92
        4
 93
        0
300

 40
0.0
140
1.0
 94
        5
 62
     0
340
11
144
4.5
309
CONTENTFORMAT_END
171
     1
301
MARGIN
  1
CELLMARGIN_BEGIN
 40
1.5
 40
1.5
 40
1.5
 40
1.5
 40
0.18
 40
0.18
309
CELLMARGIN_END
 94
        6
 95
        1
302
GRIDFORMAT
  1
GRIDFORMAT_BEGIN
 90
        0
 91
        1
 62
     0
 92
       -2
340
0
 93
        0
 40
0.045
309
GRIDFORMAT_END
 95
        2
302
GRIDFORMAT
  1
GRIDFORMAT_BEGIN
 90
        0
 91
        1
 62
     0
 92
       -2
340
0
 93
        0
 40
0.045
309
GRIDFORMAT_END
 95
        4
302
GRIDFORMAT
  1
GRIDFORMAT_BEGIN
 90
        0
 91
        1
 62
     0
 92
       -2
340
0
 93
        0
 40
0.045
309
GRIDFORMAT_END
 95
        8
302
GRIDFORMAT
  1
GRIDFORMAT_BEGIN
 90
        0
 91
        1
 62
     0
 92
       -2
340
0
 93
        0
 40
0.045
309
GRIDFORMAT_END
 95
       16
302
GRIDFORMAT
  1
GRIDFORMAT_BEGIN
 90
        0
 91
        1
 62
     0
 92
       -2
340
0
 93
        0
 40
0.045
309
GRIDFORMAT_END
 95
       32
302
GRIDFORMAT
  1
GRIDFORMAT_BEGIN
 90
        0
 91
        1
 62
     0
 92
       -2
340
0
 93
        0
 40
0.045
309
GRIDFORMAT_END
309
TABLEFORMAT_END
  1
CELLSTYLE_BEGIN
 90
        2
 91
        1
300
_HEADER
309
CELLSTYLE_END
300
CELLSTYLE
  1
TABLEFORMAT_BEGIN
 90
        5
170
     1
 91
        0
 92
        0
 62
   257
 93
        1
300
CONTENTFORMAT
  1
CONTENTFORMAT_BEGIN
 90
        0
 91
        0
 92
        4
 93
        0
300

 40
0.0
140
1.0
 94
        2
 62
     0
340
11
144
4.5
309
CONTENTFORMAT_END
171
     1
301
MARGIN
  1
CELLMARGIN_BEGIN
 40
1.5
 40
1.5
 40
1.5
 40
1.5
 40
0.18
 40
0.18
309
CELLMARGIN_END
 94
        6
 95
        1
302
GRIDFORMAT
  1
GRIDFORMAT_BEGIN
 90
        0
 91
        1
 62
     0
 92
       -2
340
0
 93
        0
 40
0.045
309
GRIDFORMAT_END
 95
        2
302
GRIDFORMAT
  1
GRIDFORMAT_BEGIN
 90
        0
 91
        1
 62
     0
 92
       -2
340
0
 93
        0
 40
0.045
309
GRIDFORMAT_END
 95
        4
302
GRIDFORMAT
  1
GRIDFORMAT_BEGIN
 90
        0
 91
        1
 62
     0
 92
       -2
340
0
 93
        0
 40
0.045
309
GRIDFORMAT_END
 95
        8
302
GRIDFORMAT
  1
GRIDFORMAT_BEGIN
 90
        0
 91
        1
 62
     0
 92
       -2
340
0
 93
        0
 40
0.045
309
GRIDFORMAT_END
 95
       16
302
GRIDFORMAT
  1
GRIDFORMAT_BEGIN
 90
        0
 91
        1
 62
     0
 92
       -2
340
0
 93
        0
 40
0.045
309
GRIDFORMAT_END
 95
       32
302
GRIDFORMAT
  1
GRIDFORMAT_BEGIN
 90
        0
 91
        1
 62
     0
 92
       -2
340
0
 93
        0
 40
0.045
309
GRIDFORMAT_END
309
TABLEFORMAT_END
  1
CELLSTYLE_BEGIN
 90
        3
 91
        2
300
_DATA
309
CELLSTYLE_END
  0
ENDSEC
  0
SECTION
  2
ACDSDATA
 70
     2
 71
     8
  0
ACDSSCHEMA
 90
        0
  1
AcDb_Thumbnail_Schema
  2
AcDbDs::ID
280
    10
 91
        8
  2
Thumbnail_Data
280
    15
 91
        0
101
ACDSRECORD
 95
        0
 90
        1
  2
AcDbDs::TreatedAsObjectData
280
     1
291
     1
101
ACDSRECORD
 95
        0
 90
        2
  2
AcDbDs::Legacy
280
     1
291
     1
101
ACDSRECORD
  1
AcDbDs::ID
 90
        3
  2
AcDs:Indexable
280
     1
291
     1
101
ACDSRECORD
  1
AcDbDs::ID
 90
        4
  2
AcDbDs::HandleAttribute
280
     7
282
     1
  0
ACDSSCHEMA
 90
        1
  1
AcDbDs::TreatedAsObjectDataSchema
  2
AcDbDs::TreatedAsObjectData
280
     1
 91
        0
  0
ACDSSCHEMA
 90
        2
  1
AcDbDs::LegacySchema
  2
AcDbDs::Legacy
280
     1
 91
        0
  0
ACDSSCHEMA
 90
        3
  1
AcDbDs::IndexedPropertySchema
  2
AcDs:Indexable
280
     1
 91
        0
  0
ACDSSCHEMA
 90
        4
  1
AcDbDs::HandleAttributeSchema
  2
AcDbDs::HandleAttribute
280
     7
 91
        1
284
     1
  0
ACDSRECORD
 90
        0
  2
AcDbDs::ID
280
    10
320
22
  2
Thumbnail_Data
280
    15
 94
     1886
310
89504E470D0A1A0A0000000D49484452000001000000007508030000009634CF9200000300504C5445212830000000C8C8C80000000000000000000000000000000000000000000000000000330000660000990000CC0000FF0033000033330033660033990033CC0033FF0066000066330066660066990066CC0066FF0099
310
000099330099660099990099CC0099FF00CC0000CC3300CC6600CC9900CCCC00CCFF00FF0000FF3300FF6600FF9900FFCC00FFFF3300003300333300663300993300CC3300FF3333003333333333663333993333CC3333FF3366003366333366663366993366CC3366FF3399003399333399663399993399CC3399FF33CC00
310
33CC3333CC6633CC9933CCCC33CCFF33FF0033FF3333FF6633FF9933FFCC33FFFF6600006600336600666600996600CC6600FF6633006633336633666633996633CC6633FF6666006666336666666666996666CC6666FF6699006699336699666699996699CC6699FF66CC0066CC3366CC6666CC9966CCCC66CCFF66FF0066
310
FF3366FF6666FF9966FFCC66FFFF9900009900339900669900999900CC9900FF9933009933339933669933999933CC9933FF9966009966339966669966999966CC9966FF9999009999339999669999999999CC9999FF99CC0099CC3399CC6699CC9999CCCC99CCFF99FF0099FF3399FF6699FF9999FFCC99FFFFCC0000CC00
310
33CC0066CC0099CC00CCCC00FFCC3300CC3333CC3366CC3399CC33CCCC33FFCC6600CC6633CC6666CC6699CC66CCCC66FFCC9900CC9933CC9966CC9999CC99CCCC99FFCCCC00CCCC33CCCC66CCCC99CCCCCCCCCCFFCCFF00CCFF33CCFF66CCFF99CCFFCCCCFFFFFF0000FF0033FF0066FF0099FF00CCFF00FFFF3300FF3333
310
FF3366FF3399FF33CCFF33FFFF6600FF6633FF6666FF6699FF66CCFF66FFFF9900FF9933FF9966FF9999FF99CCFF99FFFFCC00FFCC33FFCC66FFCC99FFCCCCFFCCFFFFFF00FFFF33FFFF66FFFF99FFFFCCFFFFFF0000000D0D0D1A1A1A2828283535354343435050505D5D5D6B6B6B787878868686939393A1A1A1AEAEAEBB
310
BBBBC9C9C9D6D6D6E4E4E4F1F1F1FFFFFF000000000000000000000000000000000000000000000000000000000000B21171F6000004194944415478DAED9DEB92A4200C85F3FE0FC55B9DFF33ADA8A0DC42218408B5B53B3BD34DC3E749482238448C86491ABDD5DEEB799261620A25F40020FBFA2F000BC002B0002C000B
310
C002B0000802007C0C807926510B40A3661600A50052A93C2BDB1F0FE07F8CE639506412F7FDF5487E306CD7D201EC0A40B64C815200C70B7F73339421200700BF90119D1A4E0E2171C904F01C25120A2805604D003300A02C0007412100CC01E07F9485C11F178055006600F09E0FA0599C202F432800B0BD463E00140308
310
D0C800A082506834005CA36502405E01DB17B20180EA00204DE6FC720B849210C60200C70714CDDF03602341FB471A8063A01500405C00500500A40100EA00E4BDBAEF03320BA61005943B41801800C80510A130D009DAF1300194548B1E269078E74491201F805B6B910D001C00C45640EAAD120098FFD674184E287C96C4
310
62E826530017C0A500797140950FE001F885C248A64DCA01FC4C8090CE8806E70238EB560D77ECEDE9CFDEA1A14CD7E39321BA6E8CA0DD071FB336B9A2804E055C2DDBB5C45B632D9BC98BF01300E8B30AA02900F4687223C18E00201FC07B7B63E600F0E2EEA02900B08301F008485F0598F36F231751CB60D9E620DD00E8
310
8300DCB20D2FD05701E0CA588A3749E0F84B0300E0DA24C50C175400D8A76088490075F7D4A502F89900816A0060720056CAD9C29D6A006EE16EC0B95F191B24B8F70574F800630CCCD67EFF80F63B44649E2DF223054ED016B08F8D92F896027C27F8511FB019FFB60C32EB066A56816D0A863B1B45267086C2545309D1E0
310
037038C1561B05670270E43486EDCE9400B8DF1C5D001EDE6101D00E605400E45416072B00E905B2E9DBEE8528090591D69F58280FE804701DA6CA4EFEBEA1580D804C8A70DF49AE0B008EDD6161009E6D402B803DBD7C9EC4BE4F5E2900FB51B81DB40F5DF93E005E7F626118C0ED886D90449F4068148073AF6866F2EA00
310
C07D8863C1E43B0148876D2DCB7B9717C89D1290A180E6CF363DFAB1A5C6C2D325E35681171EEE7A49AEB43F65009C42938474B8AF13F408401000F7145BA7DC9F5361EFA700794F7EEEEC033E0F4066EB6202929F85DEC7091E67F871EE6F83F77F278073370C066F996229604E1F80D8150CEE11CD2B60AEA7CBFB2640DE
310
D5AC34011BED21F0BDE460D49800D742C61E9E8E3BC17E0A881AC05714300280A780B813046A9C605401612AE34D80024ED007E079C6EA55200660C42AF0AA094CA5809E7180C465D03101D7DF474CA01800F9BAB7DF8B4F34C809F3FD9EA1CA4E4702F015101899A78BA002DC1BFAD715F51E207B170CBC1EBE13098ACD05
310
787140DCABC514E05CE9EB16B1100554AC02790009813800EE4EF8D1F10027782713CA11EFE37C92F415E0B88CF200493400F24D3400A0200E406219EC0AA026108AFAA8AC0F086184A65560BEDF3728BC7D5D01BC2AEB1F371EAE65B8B8D1860000000049454E44AE426082
  0
ENDSEC
  0
EOF
