  0
SECTION
  2
HEADER
  9
$ACADVER
  1
AC1021
  9
$ACADMAINTVER
 70
    25
  9
$DWGCODEPAGE
  3
ANSI_1252
  9
$INSBASE
 10
0.0
 20
0.0
 30
0.0
  9
$EXTMIN
 10
0.0
 20
0.0
 30
0.0
  9
$EXTMAX
 10
600.0
 20
600.0
 30
0.0
  9
$LIMMIN
 10
0.0
 20
0.0
  9
$LIMMAX
 10
600.0
 20
600.0
  9
$ORTHOMODE
 70
     0
  9
$REGENMODE
 70
     1
  9
$FILLMODE
 70
     1
  9
$QTEXTMODE
 70
     0
  9
$MIRRTEXT
 70
     1
  9
$LTSCALE
 40
1.0
  9
$ATTMODE
 70
     1
  9
$TEXTSIZE
 40
2.5
  9
$TRACEWID
 40
1.0
  9
$TEXTSTYLE
  7
Standard
  9
$CLAYER
  8
0
  9
$CELTYPE
  6
ByLayer
  9
$CECOLOR
 62
   256
  9
$CELTSCALE
 40
1.0
  9
$DISPSILH
 70
     0
  9
$DIMSCALE
 40
1.0
  9
$DIMASZ
 40
2.5
  9
$DIMEXO
 40
0.625
  9
$DIMDLI
 40
3.75
  9
$DIMRND
 40
0.0
  9
$DIMDLE
 40
0.0
  9
$DIMEXE
 40
1.25
  9
$DIMTP
 40
0.0
  9
$DIMTM
 40
0.0
  9
$DIMTXT
 40
2.5
  9
$DIMCEN
 40
2.5
  9
$DIMTSZ
 40
0.0
  9
$DIMTOL
 70
     0
  9
$DIMLIM
 70
     0
  9
$DIMTIH
 70
     0
  9
$DIMTOH
 70
     0
  9
$DIMSE1
 70
     0
  9
$DIMSE2
 70
     0
  9
$DIMTAD
 70
     1
  9
$DIMZIN
 70
     8
  9
$DIMBLK
  1

  9
$DIMASO
 70
     1
  9
$DIMSHO
 70
     1
  9
$DIMPOST
  1

  9
$DIMAPOST
  1

  9
$DIMALT
 70
     0
  9
$DIMALTD
 70
     3
  9
$DIMALTF
 40
0.0393700787
  9
$DIMLFAC
 40
1.0
  9
$DIMTOFL
 70
     1
  9
$DIMTVP
 40
0.0
  9
$DIMTIX
 70
     0
  9
$DIMSOXD
 70
     0
  9
$DIMSAH
 70
     0
  9
$DIMBLK1
  1

  9
$DIMBLK2
  1

  9
$DIMSTYLE
  2
ISO-25
  9
$DIMCLRD
 70
     0
  9
$DIMCLRE
 70
     0
  9
$DIMCLRT
 70
     0
  9
$DIMTFAC
 40
1.0
  9
$DIMGAP
 40
0.625
  9
$DIMJUST
 70
     0
  9
$DIMSD1
 70
     0
  9
$DIMSD2
 70
     0
  9
$DIMTOLJ
 70
     0
  9
$DIMTZIN
 70
     8
  9
$DIMALTZ
 70
     0
  9
$DIMALTTZ
 70
     0
  9
$DIMUPT
 70
     0
  9
$DIMDEC
 70
     2
  9
$DIMTDEC
 70
     2
  9
$DIMALTU
 70
     2
  9
$DIMALTTD
 70
     3
  9
$DIMTXSTY
  7
Standard
  9
$DIMAUNIT
 70
     0
  9
$DIMADEC
 70
     0
  9
$DIMALTRND
 40
0.0
  9
$DIMAZIN
 70
     0
  9
$DIMDSEP
 70
    44
  9
$DIMATFIT
 70
     3
  9
$DIMFRAC
 70
     0
  9
$DIMLDRBLK
  1

  9
$DIMLUNIT
 70
     2
  9
$DIMLWD
 70
    -2
  9
$DIMLWE
 70
    -2
  9
$DIMTMOVE
 70
     0
  9
$DIMFXL
 40
1.0
  9
$DIMFXLON
 70
     0
  9
$DIMJOGANG
 40
0.7853981634
  9
$DIMTFILL
 70
     0
  9
$DIMTFILLCLR
 70
     0
  9
$DIMARCSYM
 70
     0
  9
$DIMLTYPE
  6

  9
$DIMLTEX1
  6

  9
$DIMLTEX2
  6

  9
$LUNITS
 70
     2
  9
$LUPREC
 70
     4
  9
$SKETCHINC
 40
1.0
  9
$FILLETRAD
 40
10.0
  9
$AUNITS
 70
     0
  9
$AUPREC
 70
     0
  9
$MENU
  1
.
  9
$ELEVATION
 40
0.0
  9
$PELEVATION
 40
0.0
  9
$THICKNESS
 40
0.0
  9
$LIMCHECK
 70
     0
  9
$CHAMFERA
 40
0.0
  9
$CHAMFERB
 40
0.0
  9
$CHAMFERC
 40
0.0
  9
$CHAMFERD
 40
0.0
  9
$SKPOLY
 70
     0
  9
$TDCREATE
 40
2459495.613124572
  9
$TDUCREATE
 40
2459495.529791238
  9
$TDUPDATE
 40
2459495.61312985
  9
$TDUUPDATE
 40
2459495.529796516
  9
$TDINDWG
 40
0.0000000116
  9
$TDUSRTIMER
 40
0.0000000116
  9
$USRTIMER
 70
     1
  9
$ANGBASE
 50
0.0
  9
$ANGDIR
 70
     0
  9
$PDMODE
 70
     0
  9
$PDSIZE
 40
0.0
  9
$PLINEWID
 40
0.0
  9
$SPLFRAME
 70
     0
  9
$SPLINETYPE
 70
     6
  9
$SPLINESEGS
 70
     8
  9
$HANDSEED
  5
2FD
  9
$SURFTAB1
 70
     6
  9
$SURFTAB2
 70
     6
  9
$SURFTYPE
 70
     6
  9
$SURFU
 70
     6
  9
$SURFV
 70
     6
  9
$UCSBASE
  2

  9
$UCSNAME
  2

  9
$UCSORG
 10
0.0
 20
0.0
 30
0.0
  9
$UCSXDIR
 10
1.0
 20
0.0
 30
0.0
  9
$UCSYDIR
 10
0.0
 20
1.0
 30
0.0
  9
$UCSORTHOREF
  2

  9
$UCSORTHOVIEW
 70
     0
  9
$UCSORGTOP
 10
0.0
 20
0.0
 30
0.0
  9
$UCSORGBOTTOM
 10
0.0
 20
0.0
 30
0.0
  9
$UCSORGLEFT
 10
0.0
 20
0.0
 30
0.0
  9
$UCSORGRIGHT
 10
0.0
 20
0.0
 30
0.0
  9
$UCSORGFRONT
 10
0.0
 20
0.0
 30
0.0
  9
$UCSORGBACK
 10
0.0
 20
0.0
 30
0.0
  9
$PUCSBASE
  2

  9
$PUCSNAME
  2

  9
$PUCSORG
 10
0.0
 20
0.0
 30
0.0
  9
$PUCSXDIR
 10
1.0
 20
0.0
 30
0.0
  9
$PUCSYDIR
 10
0.0
 20
1.0
 30
0.0
  9
$PUCSORTHOREF
  2

  9
$PUCSORTHOVIEW
 70
     0
  9
$PUCSORGTOP
 10
0.0
 20
0.0
 30
0.0
  9
$PUCSORGBOTTOM
 10
0.0
 20
0.0
 30
0.0
  9
$PUCSORGLEFT
 10
0.0
 20
0.0
 30
0.0
  9
$PUCSORGRIGHT
 10
0.0
 20
0.0
 30
0.0
  9
$PUCSORGFRONT
 10
0.0
 20
0.0
 30
0.0
  9
$PUCSORGBACK
 10
0.0
 20
0.0
 30
0.0
  9
$USERI1
 70
     0
  9
$USERI2
 70
     0
  9
$USERI3
 70
     0
  9
$USERI4
 70
     0
  9
$USERI5
 70
     0
  9
$USERR1
 40
0.0
  9
$USERR2
 40
0.0
  9
$USERR3
 40
0.0
  9
$USERR4
 40
0.0
  9
$USERR5
 40
0.0
  9
$WORLDVIEW
 70
     1
  9
$SHADEDGE
 70
     3
  9
$SHADEDIF
 70
    70
  9
$TILEMODE
 70
     1
  9
$MAXACTVP
 70
    64
  9
$PINSBASE
 10
0.0
 20
0.0
 30
0.0
  9
$PLIMCHECK
 70
     0
  9
$PEXTMIN
 10
0.0
 20
0.0
 30
0.0
  9
$PEXTMAX
 10
600.0
 20
600.0
 30
0.0
  9
$PLIMMIN
 10
0.0
 20
0.0
  9
$PLIMMAX
 10
600.0
 20
600.0
  9
$UNITMODE
 70
     0
  9
$VISRETAIN
 70
     1
  9
$PLINEGEN
 70
     0
  9
$PSLTSCALE
 70
     1
  9
$TREEDEPTH
 70
  3020
  9
$CMLSTYLE
  2
Standard
  9
$CMLJUST
 70
     0
  9
$CMLSCALE
 40
20.0
  9
$PROXYGRAPHICS
 70
     1
  9
$MEASUREMENT
 70
     1
  9
$CELWEIGHT
370
    -1
  9
$ENDCAPS
280
     0
  9
$JOINSTYLE
280
     0
  9
$LWDISPLAY
290
     0
  9
$INSUNITS
 70
     4
  9
$HYPERLINKBASE
  1

  9
$STYLESHEET
  1

  9
$XEDIT
290
     1
  9
$CEPSNTYPE
380
     0
  9
$PSTYLEMODE
290
     1
  9
$FINGERPRINTGUID
  2
{0D89A0D1-08F2-41A7-8FDB-722289AB2064}
  9
$VERSIONGUID
  2
{FAEB1C32-E019-11D5-929B-00C0DF256EC4}
  9
$EXTNAMES
290
     1
  9
$PSVPSCALE
 40
0.0
  9
$OLESTARTUP
290
     0
  9
$SORTENTS
280
   127
  9
$INDEXCTL
280
     0
  9
$HIDETEXT
280
     1
  9
$XCLIPFRAME
290
     0
  9
$HALOGAP
280
     0
  9
$OBSCOLOR
 70
   257
  9
$OBSLTYPE
280
     0
  9
$INTERSECTIONDISPLAY
280
     0
  9
$INTERSECTIONCOLOR
 70
   257
  9
$DIMASSOC
280
     2
  9
$PROJECTNAME
  1

  9
$CAMERADISPLAY
290
     0
  9
$LENSLENGTH
 40
50.0
  9
$CAMERAHEIGHT
 40
0.0
  9
$STEPSPERSEC
 40
2.0
  9
$STEPSIZE
 40
6.0
  9
$3DDWFPREC
 40
2.0
  9
$PSOLWIDTH
 40
5.0
  9
$PSOLHEIGHT
 40
80.0
  9
$LOFTANG1
 40
1.5707963268
  9
$LOFTANG2
 40
1.5707963268
  9
$LOFTMAG1
 40
0.0
  9
$LOFTMAG2
 40
0.0
  9
$LOFTPARAM
 70
     7
  9
$LOFTNORMALS
280
     1
  9
$LATITUDE
 40
37.795
  9
$LONGITUDE
 40
-122.394
  9
$NORTHDIRECTION
 40
0.0
  9
$TIMEZONE
 70
 -8000
  9
$LIGHTGLYPHDISPLAY
280
     1
  9
$TILEMODELIGHTSYNCH
280
     1
  9
$CMATERIAL
347
44
  9
$SOLIDHIST
280
     0
  9
$SHOWHIST
280
     1
  9
$DWFFRAME
280
     2
  9
$DGNFRAME
280
     2
  9
$REALWORLDSCALE
290
     1
  9
$INTERFERECOLOR
 62
   256
  9
$CSHADOW
280
     0
  9
$SHADOWPLANELOCATION
 40
0.0
  0
ENDSEC
  0
SECTION
  2
CLASSES
  0
CLASS
  1
ACDBDICTIONARYWDFLT
  2
AcDbDictionaryWithDefault
  3
ObjectDBX Classes
 90
        0
 91
        4
280
     0
281
     0
  0
CLASS
  1
VISUALSTYLE
  2
AcDbVisualStyle
  3
ObjectDBX Classes
 90
     4095
 91
        4
280
     0
281
     0
  0
CLASS
  1
MATERIAL
  2
AcDbMaterial
  3
ObjectDBX Classes
 90
     1153
 91
        4
280
     0
281
     0
  0
CLASS
  1
SCALE
  2
AcDbScale
  3
ObjectDBX Classes
 90
     1153
 91
        4
280
     0
281
     0
  0
CLASS
  1
TABLESTYLE
  2
AcDbTableStyle
  3
ObjectDBX Classes
 90
     4095
 91
        4
280
     0
281
     0
  0
CLASS
  1
MLEADERSTYLE
  2
AcDbMLeaderStyle
  3
ACDB_MLEADERSTYLE_CLASS
 90
     4095
 91
        4
280
     0
281
     0
  0
CLASS
  1
SUN
  2
AcDbSun
  3
SCENEOE
 90
     1153
 91
        4
280
     0
281
     0
  0
CLASS
  1
MULTILEADER
  2
AcDbMLeader
  3
ACDB_MLEADER_CLASS
 90
     1025
 91
        4
280
     0
281
     1
  0
CLASS
  1
DICTIONARYVAR
  2
AcDbDictionaryVar
  3
ObjectDBX Classes
 90
        0
 91
        4
280
     0
281
     0
  0
CLASS
  1
CELLSTYLEMAP
  2
AcDbCellStyleMap
  3
ObjectDBX Classes
 90
     1152
 91
        4
280
     0
281
     0
  0
ENDSEC
  0
SECTION
  2
TABLES
  0
TABLE
  2
VPORT
  5
8
330
0
100
AcDbSymbolTable
 70
     1
  0
VPORT
  5
29
330
8
100
AcDbSymbolTableRecord
100
AcDbViewportTableRecord
  2
*Active
 70
     0
 10
0.0
 20
0.0
 11
1.0
 21
1.0
 12
344.1869158879
 22
148.5
 13
0.0
 23
0.0
 14
10.0
 24
10.0
 15
10.0
 25
10.0
 16
0.0
 26
0.0
 36
1.0
 17
0.0
 27
0.0
 37
0.0
 40
297.0
 41
1.9729729729
 42
50.0
 43
0.0
 44
0.0
 50
0.0
 51
0.0
 71
     0
 72
   100
 73
     1
 74
     3
 75
     0
 76
     0
 77
     0
 78
     0
281
     0
 65
     1
110
0.0
120
0.0
130
0.0
111
1.0
121
0.0
131
0.0
112
0.0
122
1.0
132
0.0
 79
     0
146
0.0
348
2F
 60
     3
 61
     5
292
     1
282
     1
141
0.0
142
0.0
 63
   250
361
6D
  0
ENDTAB
  0
TABLE
  2
LTYPE
  5
5
330
0
100
AcDbSymbolTable
 70
     1
  0
LTYPE
  5
14
330
5
100
AcDbSymbolTableRecord
100
AcDbLinetypeTableRecord
  2
ByBlock
 70
     0
  3

 72
    65
 73
     0
 40
0.0
  0
LTYPE
  5
15
330
5
100
AcDbSymbolTableRecord
100
AcDbLinetypeTableRecord
  2
ByLayer
 70
     0
  3

 72
    65
 73
     0
 40
0.0
  0
LTYPE
  5
16
330
5
100
AcDbSymbolTableRecord
100
AcDbLinetypeTableRecord
  2
Continuous
 70
     0
  3
Solid line
 72
    65
 73
     0
 40
0.0
  0
ENDTAB
  0
TABLE
  2
LAYER
  5
2
330
0
100
AcDbSymbolTable
 70
    11
  0
LAYER
  5
10
330
2
100
AcDbSymbolTableRecord
100
AcDbLayerTableRecord
  2
0
 70
     0
 62
     7
  6
Continuous
370
    -3
390
F
347
46
  0
LAYER
  5
6E
330
2
100
AcDbSymbolTableRecord
100
AcDbLayerTableRecord
  2
Défaut
 70
     0
 62
     7
  6
Continuous
370
    -3
390
F
347
46
  0
LAYER
  5
7B
330
2
100
AcDbSymbolTableRecord
100
AcDbLayerTableRecord
  2
F794
 70
     0
 62
     7
  6
Continuous
370
    -3
390
F
347
46
  0
LAYER
  5
A5
330
2
100
AcDbSymbolTableRecord
100
AcDbLayerTableRecord
  2
K109
 70
     0
 62
     7
  6
Continuous
370
    -3
390
F
347
46
  0
LAYER
  5
A8
330
2
100
AcDbSymbolTableRecord
100
AcDbLayerTableRecord
  2
K809
 70
     0
 62
     7
  6
Continuous
370
    -3
390
F
347
46
  0
LAYER
  5
B0
330
2
100
AcDbSymbolTableRecord
100
AcDbLayerTableRecord
  2
F807
 70
     0
 62
     7
  6
Continuous
370
    -3
390
F
347
46
  0
LAYER
  5
104
330
2
100
AcDbSymbolTableRecord
100
AcDbLayerTableRecord
  2
K810
 70
     0
 62
     7
  6
Continuous
370
    -3
390
F
347
46
  0
LAYER
  5
10A
330
2
100
AcDbSymbolTableRecord
100
AcDbLayerTableRecord
  2
F4465
 70
     0
 62
     7
  6
Continuous
370
    -3
390
F
347
46
  0
LAYER
  5
127
330
2
100
AcDbSymbolTableRecord
100
AcDbLayerTableRecord
  2
K811
 70
     0
 62
     7
  6
Continuous
370
    -3
390
F
347
46
  0
LAYER
  5
12E
330
2
100
AcDbSymbolTableRecord
100
AcDbLayerTableRecord
  2
F418
 70
     0
 62
     7
  6
Continuous
370
    -3
390
F
347
46
  0
LAYER
  5
192
330
2
100
AcDbSymbolTableRecord
100
AcDbLayerTableRecord
  2
K915
 70
     0
 62
     7
  6
Continuous
370
    -3
390
F
347
46
  0
ENDTAB
  0
TABLE
  2
STYLE
  5
3
330
0
100
AcDbSymbolTable
 70
     3
  0
STYLE
  5
11
330
3
100
AcDbSymbolTableRecord
100
AcDbTextStyleTableRecord
  2
Standard
 70
     0
 40
0.0
 41
1.0
 50
0.0
 71
     0
 42
2.5
  3
txt
  4

  0
STYLE
  5
27E
330
3
100
AcDbSymbolTableRecord
100
AcDbTextStyleTableRecord
  2
SEACAD_Arial
 70
     0
 40
0.0
 41
1.0
 50
0.0
 71
     0
 42
2.5
  3

  4

1001
ACAD
1000
Arial
1071
        0
  0
STYLE
  5
281
330
3
100
AcDbSymbolTableRecord
100
AcDbTextStyleTableRecord
  2
SEACAD_ArialB
 70
     0
 40
0.0
 41
1.0
 50
0.0
 71
     0
 42
2.5
  3
arialbd.ttf
  4

1001
ACAD
1000
Arial
1071
 33554432
  0
ENDTAB
  0
TABLE
  2
VIEW
  5
6
330
0
100
AcDbSymbolTable
 70
     0
  0
ENDTAB
  0
TABLE
  2
UCS
  5
7
330
0
100
AcDbSymbolTable
 70
     0
  0
ENDTAB
  0
TABLE
  2
APPID
  5
9
330
0
100
AcDbSymbolTable
 70
     2
  0
APPID
  5
12
330
9
100
AcDbSymbolTableRecord
100
AcDbRegAppTableRecord
  2
ACAD
 70
     0
  0
APPID
  5
2BE
330
9
100
AcDbSymbolTableRecord
100
AcDbRegAppTableRecord
  2
ACAD_MLEADERVER
 70
     0
  0
ENDTAB
  0
TABLE
  2
DIMSTYLE
  5
A
330
0
100
AcDbSymbolTable
 70
     3
100
AcDbDimStyleTable
  0
DIMSTYLE
105
27
330
A
100
AcDbSymbolTableRecord
100
AcDbDimStyleTableRecord
  2
ISO-25
 70
     0
 41
2.5
 42
0.625
 43
3.75
 44
1.25
 73
     0
 74
     0
 77
     1
 78
     8
140
2.5
141
2.5
143
0.0393700787
147
0.625
171
     3
172
     1
178
     0
271
     2
272
     2
274
     3
278
    44
283
     0
284
     8
340
11
  0
DIMSTYLE
105
274
330
A
100
AcDbSymbolTableRecord
100
AcDbDimStyleTableRecord
  2
Standard
 70
     0
178
     0
340
11
  0
DIMSTYLE
105
27F
102
{ACAD_REACTORS
330
280
330
28B
330
295
330
29F
330
2A9
330
2B3
102
}
330
A
100
AcDbSymbolTableRecord
100
AcDbDimStyleTableRecord
  2
presto
 70
     0
 41
18.0
 42
0.0
 44
6.0
 73
     0
 74
     0
 77
     1
 78
     8
140
12.0
141
6.0
143
0.0393700787
146
0.7
147
3.0
172
     1
173
     1
178
     0
271
     0
272
     3
278
    44
283
     0
284
     8
340
27E
343
73
344
73
  0
ENDTAB
  0
TABLE
  2
BLOCK_RECORD
  5
1
330
0
100
AcDbSymbolTable
 70
    15
  0
BLOCK_RECORD
  5
1F
330
1
100
AcDbSymbolTableRecord
100
AcDbBlockTableRecord
  2
*Model_Space
340
22
 70
     0
280
     1
281
     0
  0
BLOCK_RECORD
  5
1B
330
1
100
AcDbSymbolTableRecord
100
AcDbBlockTableRecord
  2
*Paper_Space
340
1E
 70
     0
280
     1
281
     0
  0
BLOCK_RECORD
  5
6F
330
1
100
AcDbSymbolTableRecord
100
AcDbBlockTableRecord
  2
SEANNOT_GROUP
340
0
102
{BLKREFS
331
70
102
}
 70
     0
280
     1
281
     0
  0
BLOCK_RECORD
  5
73
330
1
100
AcDbSymbolTableRecord
100
AcDbBlockTableRecord
  2
_SE_FILLED
340
0
 70
     0
280
     1
281
     0
  0
BLOCK_RECORD
  5
79
330
1
100
AcDbSymbolTableRecord
100
AcDbBlockTableRecord
  2
SE
340
0
102
{BLKREFS
331
7A
102
}
 70
     0
280
     1
281
     0
  0
BLOCK_RECORD
  5
143
330
1
100
AcDbSymbolTableRecord
100
AcDbBlockTableRecord
  2
SE1
340
0
102
{BLKREFS
331
144
102
}
 70
     0
280
     1
281
     0
  0
BLOCK_RECORD
  5
196
330
1
100
AcDbSymbolTableRecord
100
AcDbBlockTableRecord
  2
SE2
340
0
102
{BLKREFS
331
197
102
}
 70
     0
280
     1
281
     0
  0
BLOCK_RECORD
  5
1ED
330
1
100
AcDbSymbolTableRecord
100
AcDbBlockTableRecord
  2
SE3
340
0
102
{BLKREFS
331
1EE
102
}
 70
     0
280
     1
281
     0
  0
BLOCK_RECORD
  5
275
330
1
100
AcDbSymbolTableRecord
100
AcDbBlockTableRecord
  2
_Oblique
340
0
 70
     0
280
     1
281
     0
  0
BLOCK_RECORD
  5
279
330
1
100
AcDbSymbolTableRecord
100
AcDbBlockTableRecord
  2
_Dot
340
0
 70
     0
280
     1
281
     0
  0
BLOCK_RECORD
  5
282
330
1
100
AcDbSymbolTableRecord
100
AcDbBlockTableRecord
  2
DMBLK161
340
0
 70
     0
280
     1
281
     0
  0
BLOCK_RECORD
  5
28C
330
1
100
AcDbSymbolTableRecord
100
AcDbBlockTableRecord
  2
DMBLK162
340
0
 70
     0
280
     1
281
     0
  0
BLOCK_RECORD
  5
296
330
1
100
AcDbSymbolTableRecord
100
AcDbBlockTableRecord
  2
DMBLK163
340
0
 70
     0
280
     1
281
     0
  0
BLOCK_RECORD
  5
2A0
330
1
100
AcDbSymbolTableRecord
100
AcDbBlockTableRecord
  2
DMBLK164
340
0
 70
     0
280
     1
281
     0
  0
BLOCK_RECORD
  5
2AA
330
1
100
AcDbSymbolTableRecord
100
AcDbBlockTableRecord
  2
DMBLK165
340
0
 70
     0
280
     1
281
     0
  0
BLOCK_RECORD
  5
2B4
330
1
100
AcDbSymbolTableRecord
100
AcDbBlockTableRecord
  2
DMBLK166
340
0
 70
     0
280
     1
281
     0
  0
ENDTAB
  0
ENDSEC
  0
SECTION
  2
BLOCKS
  0
BLOCK
  5
20
330
1F
100
AcDbEntity
  8
0
100
AcDbBlockBegin
  2
*Model_Space
 70
     0
 10
0.0
 20
0.0
 30
0.0
  3
*Model_Space
  1

  0
ENDBLK
  5
21
330
1F
100
AcDbEntity
  8
0
100
AcDbBlockEnd
  0
BLOCK
  5
1C
330
1B
100
AcDbEntity
 67
     1
  8
0
100
AcDbBlockBegin
  2
*Paper_Space
 70
     0
 10
0.0
 20
0.0
 30
0.0
  3
*Paper_Space
  1

  0
ENDBLK
  5
1D
330
1B
100
AcDbEntity
 67
     1
  8
0
100
AcDbBlockEnd
  0
BLOCK
  5
71
330
6F
100
AcDbEntity
  8
0
100
AcDbBlockBegin
  2
SEANNOT_GROUP
 70
     0
 10
0.0
 20
0.0
 30
0.0
  3
SEANNOT_GROUP
  1

  0
ENDBLK
  5
72
330
6F
100
AcDbEntity
  8
0
100
AcDbBlockEnd
  0
BLOCK
  5
76
330
73
100
AcDbEntity
  8
0
100
AcDbBlockBegin
  2
_SE_FILLED
 70
     0
 10
0.0
 20
0.0
 30
0.0
  3
_SE_FILLED
  1

  0
SOLID
  5
74
330
73
100
AcDbEntity
  8
0
 62
     0
100
AcDbTrace
 10
0.0
 20
0.0
 30
0.0
 11
-1.0
 21
-0.1665
 31
0.0
 12
-1.0
 22
0.1665
 32
0.0
 13
0.0
 23
0.0
 33
0.0
  0
LINE
  5
75
330
73
100
AcDbEntity
  8
0
 62
     0
100
AcDbLine
 10
0.0
 20
0.0
 30
0.0
 11
-1.0
 21
0.0
 31
0.0
  0
ENDBLK
  5
77
330
73
100
AcDbEntity
  8
0
100
AcDbBlockEnd
  0
BLOCK
  5
141
330
79
100
AcDbEntity
  8
0
100
AcDbBlockBegin
  2
SE
 70
     0
 10
0.0
 20
0.0
 30
0.0
  3
SE
  1

  0
ELLIPSE
  5
7C
330
79
100
AcDbEntity
  8
F794
  6
Continuous
 62
     7
100
AcDbEllipse
 10
492.5021687219
 20
442.6957445231
 30
0.0
 11
16.15
 21
1.387778780781446E-14
 31
0.0
210
0.0
220
0.0
230
1.0
 40
0.6563573533
 41
0.0534054272331117
 42
0.1363989663256633
  0
ELLIPSE
  5
7D
330
79
100
AcDbEntity
  8
F794
  6
Continuous
 62
     7
100
AcDbEllipse
 10
492.5021687219
 20
442.6957445231
 30
0.0
 11
16.15
 21
1.387778780781446E-14
 31
0.0
210
0.0
220
0.0
230
1.0
 40
0.6563573533
 41
3.005193687264105
 42
3.088187226356681
  0
ELLIPSE
  5
7E
330
79
100
AcDbEntity
  8
F794
  6
Continuous
 62
     7
100
AcDbEllipse
 10
492.5021687219
 20
443.8274197441
 30
0.0
 11
16.15
 21
1.387778780781446E-14
 31
0.0
210
0.0
220
0.0
230
1.0
 40
0.6563573533
 41
0.0
 42
0.134850422959082
  0
ELLIPSE
  5
7F
330
79
100
AcDbEntity
  8
F794
  6
Continuous
 62
     7
100
AcDbEllipse
 10
492.5021687219
 20
443.8274197441
 30
0.0
 11
16.15
 21
1.387778780781446E-14
 31
0.0
210
0.0
220
0.0
230
1.0
 40
0.6563573533
 41
3.002271728122487
 42
6.283185307179586
  0
SPLINE
  5
80
330
79
100
AcDbEntity
  8
F794
  6
Continuous
 62
     7
100
AcDbSpline
210
0.0
220
0.0
230
1.0
 70
     8
 71
     3
 72
    26
 73
    22
 74
     0
 42
0.000000001
 43
0.0000000001
 40
0.2497615721122785
 40
0.2497615721122785
 40
0.2497615721122785
 40
0.2497615721122785
 40
0.2500000000000002
 40
0.2500000000000002
 40
0.3125000000000002
 40
0.3125000000000002
 40
0.3750000000000001
 40
0.3750000000000001
 40
0.4375000000000001
 40
0.4375000000000001
 40
0.5000000000000001
 40
0.5000000000000001
 40
0.5625000000000001
 40
0.5625000000000001
 40
0.6250000000000002
 40
0.6250000000000002
 40
0.6875000000000002
 40
0.6875000000000002
 40
0.7500000000000002
 40
0.7500000000000002
 40
0.7502384437721847
 40
0.7502384437721847
 40
0.7502384437721847
 40
0.7502384437721847
 10
477.0021852475578
 20
414.7963298877471
 30
0.0
 10
477.0021735071585
 20
414.7912496274036
 30
0.0
 10
477.002167636115
 20
414.786169353865
 30
0.0
 10
477.002167636115
 20
413.4493758415693
 30
0.0
 10
477.4055911760152
 20
412.1181865827274
 30
0.0
 10
478.9584787536602
 20
409.6575013878935
 30
0.0
 10
480.1073317964546
 20
408.5289736264496
 30
0.0
 10
482.9766938950091
 20
406.6456467137915
 30
0.0
 10
484.696073979311
 20
405.8915885712958
 30
0.0
 10
488.4450762301022
 20
404.8723393908649
 30
0.0
 10
490.4732233242958
 20
404.6075493839583
 30
0.0
 10
494.531114119431
 20
404.6075493839583
 30
0.0
 10
496.5592612136246
 20
404.8723393908649
 30
0.0
 10
500.3082634644158
 20
405.8915885712958
 30
0.0
 10
502.0276435487177
 20
406.6456467137915
 30
0.0
 10
504.8970056472721
 20
408.5289736264495
 30
0.0
 10
506.0458586900666
 20
409.6575013878935
 30
0.0
 10
507.5987462677115
 20
412.1181865827274
 30
0.0
 10
508.0021698076118
 20
413.4493758415693
 30
0.0
 10
508.0021698076118
 20
414.7861696923218
 30
0.0
 10
508.0021639357859
 20
414.7912503043162
 30
0.0
 10
508.0021521938224
 20
414.7963309031134
 30
0.0
  0
ELLIPSE
  5
81
330
79
100
AcDbEntity
  8
F794
  6
Continuous
 62
     7
100
AcDbEllipse
 10
492.5021687219
 20
415.9773136646
 30
0.0
 11
-8.624999999999991
 21
0.0
 31
0.0
210
0.0
220
0.0
230
1.0
 40
0.7544501473
 41
0.0
 42
6.283185307179586
  0
ELLIPSE
  5
82
330
79
100
AcDbEntity
  8
F794
  6
Continuous
 62
     7
100
AcDbEllipse
 10
492.5021687219
 20
416.1414030029
 30
0.0
 11
8.375000000000002
 21
-1.387778780781446E-14
 31
0.0
210
0.0
220
0.0
230
1.0
 40
0.7544501473
 41
0.0
 42
6.283185307179586
  0
ELLIPSE
  5
83
330
79
100
AcDbEntity
  8
F794
  6
Continuous
 62
     7
100
AcDbEllipse
 10
492.5021687219
 20
418.1432929305
 30
0.0
 11
8.375000000000002
 21
-1.387778780781446E-14
 31
0.0
210
0.0
220
0.0
230
1.0
 40
0.7544501473
 41
-0.1729893026358642
 42
-0.1590846334410649
  0
ELLIPSE
  5
84
330
79
100
AcDbEntity
  8
F794
  6
Continuous
 62
     7
100
AcDbEllipse
 10
492.5021687219
 20
418.1432929305
 30
0.0
 11
8.375000000000002
 21
-1.387778780781446E-14
 31
0.0
210
0.0
220
0.0
230
1.0
 40
0.7544501473
 41
3.300677287030902
 42
3.314581956225659
  0
SPLINE
  5
85
330
79
100
AcDbEntity
  8
F794
  6
Continuous
 62
     7
100
AcDbSpline
210
0.0
220
0.0
230
1.0
 70
     8
 71
     3
 72
    14
 73
    10
 74
     0
 42
0.000000001
 43
0.0000000001
 40
0.0
 40
0.0
 40
0.0
 40
0.0
 40
0.0624999999999992
 40
0.0624999999999992
 40
0.1249999999999983
 40
0.1249999999999983
 40
0.1874999999999975
 40
0.1874999999999975
 40
0.2351218081712792
 40
0.2351218081712792
 40
0.2351218081712792
 40
0.2351218081712792
 10
491.0922859363453
 20
429.3127601637071
 30
0.0
 10
489.6249910297288
 20
429.2918736039354
 30
0.0
 10
488.2832703552854
 20
429.2399590260242
 30
0.0
 10
485.992289185835
 20
429.0439267043255
 30
0.0
 10
485.035819534347
 20
428.9014698243489
 30
0.0
 10
483.4813438114579
 20
428.4338425969294
 30
0.0
 10
482.8789876566528
 20
428.1140544376235
 30
0.0
 10
482.1804473255607
 20
427.1797159037138
 30
0.0
 10
482.004413518927
 20
426.6335159555467
 30
0.0
 10
482.0030478402937
 20
425.9170397192162
 30
0.0
  0
SPLINE
  5
86
330
79
100
AcDbEntity
  8
F794
  6
Continuous
 62
     7
100
AcDbSpline
210
0.0
220
0.0
230
1.0
 70
     8
 71
     3
 72
    18
 73
    14
 74
     0
 42
0.000000001
 43
0.0000000001
 40
0.7239132613392399
 40
0.7239132613392399
 40
0.7239132613392399
 40
0.7239132613392399
 40
0.749999999999999
 40
0.749999999999999
 40
0.7812499999999991
 40
0.7812499999999991
 40
0.8124999999999992
 40
0.8124999999999992
 40
0.8749999999999996
 40
0.8749999999999996
 40
0.9374999999999998
 40
0.9374999999999998
 40
1.0
 40
1.0
 40
1.0
 40
1.0
 10
503.0021552235576
 20
425.9188229539815
 30
0.0
 10
503.0020968811198
 20
426.3159459739985
 30
0.0
 10
502.948591636483
 20
426.6567135657161
 30
0.0
 10
502.7347678168724
 20
427.2972391752463
 30
0.0
 10
502.5525569108036
 20
427.5818790562234
 30
0.0
 10
502.0948006574019
 20
428.0455735196211
 30
0.0
 10
501.8181644247031
 20
428.2293468964526
 30
0.0
 10
500.8483162420189
 20
428.6928137317254
 30
0.0
 10
500.0223726700982
 20
428.883229234614
 30
0.0
 10
497.9936951852173
 20
429.1549195013585
 30
0.0
 10
496.7813137629608
 20
429.2332758844453
 30
0.0
 10
494.0637651866473
 20
429.3225250674178
 30
0.0
 10
492.5595808429617
 20
429.3336467234789
 30
0.0
 10
491.0922859363453
 20
429.3127601637071
 30
0.0
  0
ELLIPSE
  5
87
330
79
100
AcDbEntity
  8
F794
  6
Continuous
 62
     7
100
AcDbEllipse
 10
492.5021687219
 20
443.8274197441
 30
0.0
 11
17.91339148683589
 21
-1.387778780781446E-14
 31
0.0
210
0.0
220
0.0
230
1.0
 40
0.6563573533
 41
-1.177497476474497
 42
0.5768274044241943
  0
ELLIPSE
  5
88
330
79
100
AcDbEntity
  8
F794
  6
Continuous
 62
     7
100
AcDbEllipse
 10
492.5021687219
 20
443.8274197441
 30
0.0
 11
17.91339148683589
 21
-1.387778780781446E-14
 31
0.0
210
0.0
220
0.0
230
1.0
 40
0.6563573533
 41
2.564494995126638
 42
4.319090130064293
  0
SPLINE
  5
89
330
79
100
AcDbEntity
  8
F794
  6
Continuous
 62
     7
100
AcDbSpline
210
0.0
220
0.0
230
1.0
 70
     8
 71
     3
 72
    14
 73
    10
 74
     0
 42
0.000000001
 43
0.0000000001
 40
0.0
 40
0.0
 40
0.0
 40
0.0
 40
0.1249999999999995
 40
0.1249999999999995
 40
0.1874999999999998
 40
0.1874999999999998
 40
0.2500000000000001
 40
0.2500000000000001
 40
0.2784949162462111
 40
0.2784949162462111
 40
0.2784949162462111
 40
0.2784949162462111
 10
499.3672516879561
 20
432.9675270517563
 30
0.0
 10
501.316535692458
 20
432.3687437256345
 30
0.0
 10
502.6138224644833
 20
431.5292638887988
 30
0.0
 10
503.6996963173486
 20
429.6167566807155
 30
0.0
 10
503.9118816746687
 20
428.8572311658206
 30
0.0
 10
503.9876962240349
 20
427.0588100774494
 30
0.0
 10
503.8513147907733
 20
426.030065118296
 30
0.0
 10
503.3951198301478
 20
424.4086935626609
 30
0.0
 10
503.2187246726934
 20
423.8905138110871
 30
0.0
 10
503.0092365621852
 20
423.3698098953321
 30
0.0
  0
SPLINE
  5
8A
330
79
100
AcDbEntity
  8
F794
  6
Continuous
 62
     7
100
AcDbSpline
210
0.0
220
0.0
230
1.0
 70
     8
 71
     3
 72
    16
 73
    12
 74
     0
 42
0.000000001
 43
0.0000000001
 40
0.7213714297353546
 40
0.7213714297353546
 40
0.7213714297353546
 40
0.7213714297353546
 40
0.750000000000001
 40
0.750000000000001
 40
0.8125000000000008
 40
0.8125000000000008
 40
0.8750000000000006
 40
0.8750000000000006
 40
0.9375000000000002
 40
0.9375000000000002
 40
1.0
 40
1.0
 40
1.0
 40
1.0
 10
481.9923163581121
 20
423.3797745273924
 30
0.0
 10
481.7821431269758
 20
423.9017086357816
 30
0.0
 10
481.6057064056015
 20
424.4198493615445
 30
0.0
 10
481.1541417998376
 20
426.0290144541308
 30
0.0
 10
481.0162166013223
 20
427.066018506567
 30
0.0
 10
481.0933491826463
 20
428.8610368456938
 30
0.0
 10
481.3035570059592
 20
429.6160292394793
 30
0.0
 10
482.0329911207646
 20
430.8983836577348
 30
0.0
 10
482.5444275160258
 20
431.4192980652696
 30
0.0
 10
483.8630218824358
 20
432.3064372489467
 30
0.0
 10
484.6777637533776
 20
432.672841404058
 30
0.0
 10
485.6370857557706
 20
432.9675270517563
 30
0.0
  0
SPLINE
  5
8B
330
79
100
AcDbEntity
  8
F794
  6
Continuous
 62
     7
100
AcDbSpline
210
0.0
220
0.0
230
1.0
 70
     8
 71
     3
 72
    18
 73
    14
 74
     0
 42
0.000000001
 43
0.0000000001
 40
0.0
 40
0.0
 40
0.0
 40
0.0
 40
0.2500000000000001
 40
0.2500000000000001
 40
0.375
 40
0.375
 40
0.5
 40
0.5
 40
0.6249999999999999
 40
0.6249999999999999
 40
0.7499999999999998
 40
0.7499999999999998
 40
1.0
 40
1.0
 40
1.0
 40
1.0
 10
485.6370857557706
 20
432.9675270517563
 30
0.0
 10
486.7765765830289
 20
432.6572055988854
 30
0.0
 10
487.8434213942215
 20
432.2435833623438
 30
0.0
 10
489.4971446699013
 20
431.6991631611001
 30
0.0
 10
490.0569507761195
 20
431.5298689928009
 30
0.0
 10
491.2350012417201
 20
431.2743783630712
 30
0.0
 10
491.8520694155097
 20
431.193410576459
 30
0.0
 10
493.0905813174137
 20
431.188492059404
 30
0.0
 10
493.713293763357
 20
431.2654144443009
 30
0.0
 10
494.8957752331744
 20
431.5157624223615
 30
0.0
 10
495.4669883820064
 20
431.686645637084
 30
0.0
 10
497.1389801171731
 20
432.2349892687097
 30
0.0
 10
498.2142470695006
 20
432.6535253416881
 30
0.0
 10
499.3672516879561
 20
432.9675270517563
 30
0.0
  0
ELLIPSE
  5
8C
330
79
100
AcDbEntity
  8
F794
  6
Continuous
 62
     7
100
AcDbEllipse
 10
492.5021687219
 20
416.6336710179
 30
0.0
 11
10.50000000000002
 21
-1.387778780781446E-14
 31
0.0
210
0.0
220
0.0
230
1.0
 40
0.7544501473
 41
3.13841347987901
 42
3.141592653589793
  0
ELLIPSE
  5
8D
330
79
100
AcDbEntity
  8
F794
  6
Continuous
 62
     7
100
AcDbEllipse
 10
492.5021687219
 20
416.6336710179
 30
0.0
 11
10.50000000000002
 21
-1.387778780781446E-14
 31
0.0
210
0.0
220
0.0
230
1.0
 40
0.7544501473
 41
0.0000000000000018
 42
3.13841347987901
  0
ELLIPSE
  5
8E
330
79
100
AcDbEntity
  8
F794
  6
Continuous
 62
     7
100
AcDbEllipse
 10
492.5021687219
 20
415.9773136646
 30
0.0
 11
-9.500000000000009
 21
0.0
 31
0.0
210
0.0
220
0.0
230
1.0
 40
0.7544501473
 41
0.0
 42
6.283185307179586
  0
LINE
  5
8F
330
79
100
AcDbEntity
  8
F794
  6
Continuous
 62
     7
100
AcDbLine
 10
503.0021687219
 20
301.9773136646
 30
0.0
 11
482.0021687219
 21
301.9773136646
 31
0.0
  0
LINE
  5
90
330
79
100
AcDbEntity
  8
F794
  6
Continuous
 62
     7
100
AcDbLine
 10
515.002168049
 20
345.9773136646
 30
0.0
 11
470.0021730439
 21
345.9773136646
 31
0.0
  0
LINE
  5
91
330
79
100
AcDbEntity
  8
F794
  6
Continuous
 62
     7
100
AcDbLine
 10
501.8527184361
 20
300.9773136646
 30
0.0
 11
483.1516190076
 21
300.9773136646
 31
0.0
  0
LINE
  5
92
330
79
100
AcDbEntity
  8
F794
  6
Continuous
 62
     7
100
AcDbLine
 10
503.0021687219
 20
343.9773136646
 30
0.0
 11
482.0021687219
 21
343.9773136646
 31
0.0
  0
ARC
  5
93
330
79
100
AcDbEntity
  8
F794
  6
Continuous
 62
     7
100
AcDbCircle
 10
314.4649106725
 20
415.2515590883
 30
0.0
 40
162.534845603035
100
AcDbArc
 50
359.839561848
 51
9.6578619551
  0
ARC
  5
94
330
79
100
AcDbEntity
  8
F794
  6
Continuous
 62
     7
100
AcDbCircle
 10
670.5403587038
 20
415.2510962704
 30
0.0
 40
162.5358244077961
100
AcDbArc
 50
170.3417233777
 51
180.1602741899
  0
LINE
  5
95
330
79
100
AcDbEntity
  8
F794
  6
Continuous
 62
     7
100
AcDbLine
 10
482.0021687219
 20
425.9153949669
 30
0.0
 11
482.0021687219
 21
416.6336710179
 31
0.0
  0
LINE
  5
96
330
79
100
AcDbEntity
  8
F794
  6
Continuous
 62
     7
100
AcDbLine
 10
503.0021687219
 20
416.6336710179
 30
0.0
 11
503.0021687219
 21
425.9172259502
 31
0.0
  0
SPLINE
  5
97
330
79
100
AcDbEntity
  8
F794
  6
Continuous
 62
     7
100
AcDbSpline
210
0.0
220
0.0
230
1.0
 70
     8
 71
     3
 72
    64
 73
    60
 74
     0
 42
0.000000001
 43
0.0000000001
 40
0.0
 40
0.0
 40
0.0
 40
0.0
 40
0.0087398479624463
 40
0.0260929538938139
 40
0.0434457022190684
 40
0.0608112788983767
 40
0.0782022318521564
 40
0.0956295447165258
 40
0.1131020994374831
 40
0.1306263131129315
 40
0.1482059737607689
 40
0.1658422799551127
 40
0.1835340674248876
 40
0.2012781852158441
 40
0.2190699690318319
 40
0.2369037531474938
 40
0.2547733658315919
 40
0.2726725648983073
 40
0.2905953862426494
 40
0.308536394916256
 40
0.3264908421827116
 40
0.3444547413266062
 40
0.3624248795884902
 40
0.3803987843263013
 40
0.3983743627373495
 40
0.4163504267508995
 40
0.434326441036433
 40
0.4523022648782373
 40
0.4702780706032501
 40
0.4882542673141925
 40
0.5062314297601871
 40
0.5242102312791626
 40
0.542191187037859
 40
0.5601749483780799
 40
0.5781621360269847
 40
0.5961532291012661
 40
0.6141484925269496
 40
0.6321478982814335
 40
0.6501510396664792
 40
0.6681570389348552
 40
0.6861638617411833
 40
0.704169142887219
 40
0.7221697555020644
 40
0.7401617290112718
 40
0.7581402248541451
 40
0.7760995705947361
 40
0.7940333732973416
 40
0.8119347307789678
 40
0.8297965519807388
 40
0.8476119844868651
 40
0.8653749289989833
 40
0.8830806002873419
 40
0.900726076577775
 40
0.9183107698095453
 40
0.9358367515354106
 40
0.9533088839831486
 40
0.9707347297897576
 40
0.9881242415058694
 40
1.0
 40
1.0
 40
1.0
 40
1.0
 10
482.0062955082881
 20
416.6606838328363
 30
0.0
 10
482.0049545477073
 20
416.5763951614589
 30
0.0
 10
482.0021551985645
 20
416.3624732720522
 30
0.0
 10
482.0316556684642
 20
415.972230739638
 30
0.0
 10
482.0935186046585
 20
415.5216579717473
 30
0.0
 10
482.1891117643787
 20
415.0708378653304
 30
0.0
 10
482.3161586029595
 20
414.6260571436017
 30
0.0
 10
482.4748560166333
 20
414.1872408152314
 30
0.0
 10
482.6646528031996
 20
413.7560242448301
 30
0.0
 10
482.8851004401486
 20
413.3335925589261
 30
0.0
 10
483.1356088676284
 20
412.9212615279496
 30
0.0
 10
483.415497396503
 20
412.5203158991345
 30
0.0
 10
483.7239693710222
 20
412.1320422037008
 30
0.0
 10
484.0601121848455
 20
411.7577052828738
 30
0.0
 10
484.4228961670154
 20
411.3985378009361
 30
0.0
 10
484.8111794003888
 20
411.0557260277021
 30
0.0
 10
485.2237157060047
 20
410.7303981058873
 30
0.0
 10
485.6591651550959
 20
410.4236143635068
 30
0.0
 10
486.1161057215712
 20
410.136360419375
 30
0.0
 10
486.5930450184065
 20
409.8695429350414
 30
0.0
 10
487.0884313037263
 20
409.6239876692156
 30
0.0
 10
487.6006632882795
 20
409.4004392900285
 30
0.0
 10
488.1280985696927
 20
409.1995623758967
 30
0.0
 10
488.6690577657122
 20
409.0219440714446
 30
0.0
 10
489.2218332747431
 20
408.8680944468262
 30
0.0
 10
489.7846959747211
 20
408.7384481051729
 30
0.0
 10
490.3559027643534
 20
408.6333660271938
 30
0.0
 10
490.9336971570731
 20
408.5531384831824
 30
0.0
 10
491.5163110776442
 20
408.4979866327604
 30
0.0
 10
492.1019683155328
 20
408.4680633894161
 30
0.0
 10
492.6888879255479
 20
408.4634540818282
 30
0.0
 10
493.275285511805
 20
408.4841768755132
 30
0.0
 10
493.8593784123117
 20
408.5301827734204
 30
0.0
 10
494.4393897986212
 20
408.6013558629692
 30
0.0
 10
495.0135542164745
 20
408.6975140204556
 30
0.0
 10
495.5801191144721
 20
408.8184090255588
 30
0.0
 10
496.1373473884412
 20
408.9637263533019
 30
0.0
 10
496.6835203053666
 20
409.1330847004515
 30
0.0
 10
497.2169403875613
 20
409.3260351238404
 30
0.0
 10
497.7359287024995
 20
409.5420573518542
 30
0.0
 10
498.2388320841374
 20
409.7805580264477
 30
0.0
 10
498.7240273618161
 20
410.0408677467381
 30
0.0
 10
499.189931045248
 20
410.3222409674034
 30
0.0
 10
499.6350016911525
 20
410.6238513470003
 30
0.0
 10
500.0577471007158
 20
410.9447885296088
 30
0.0
 10
500.4567334344006
 20
411.2840556516891
 30
0.0
 10
500.8305961558094
 20
411.6405681627019
 30
0.0
 10
501.1780526329412
 20
412.0131548491528
 30
0.0
 10
501.4979158005946
 20
412.4005615263166
 30
0.0
 10
501.7891080852282
 20
412.8014592117564
 30
0.0
 10
502.0506736755027
 20
413.2144525036232
 30
0.0
 10
502.2817898870139
 20
413.6381045603491
 30
0.0
 10
502.4817678989551
 20
414.0709156380775
 30
0.0
 10
502.6500727994249
 20
414.5114843602489
 30
0.0
 10
502.7862478236171
 20
414.9579934833475
 30
0.0
 10
502.8901696812028
 20
415.4101990825206
 30
0.0
 10
502.9610521359685
 20
415.862105058634
 30
0.0
 10
502.9968764698673
 20
416.2801056658322
 30
0.0
 10
503.0007719245054
 20
416.5191341367599
 30
0.0
 10
503.0021687218634
 20
416.6336710178765
 30
0.0
  0
LINE
  5
98
330
79
100
AcDbEntity
  8
F794
  6
Continuous
 62
     7
100
AcDbLine
 10
482.0021687219
 20
301.9773136646
 30
0.0
 11
483.1516190076
 21
300.9773136646
 31
0.0
  0
LINE
  5
99
330
79
100
AcDbEntity
  8
F794
  6
Continuous
 62
     7
100
AcDbLine
 10
501.8527184361
 20
300.9773136646
 30
0.0
 11
503.0021687219
 21
301.9773136646
 31
0.0
  0
LINE
  5
9A
330
79
100
AcDbEntity
  8
F794
  6
Continuous
 62
     7
100
AcDbLine
 10
503.0021687219
 20
340.9773136646
 30
0.0
 11
503.0021687219
 21
343.9773136646
 31
0.0
  0
LINE
  5
9B
330
79
100
AcDbEntity
  8
F794
  6
Continuous
 62
     7
100
AcDbLine
 10
482.0021687219
 20
343.9773136646
 30
0.0
 11
482.0021687219
 21
340.9773136646
 31
0.0
  0
ARC
  5
9C
330
79
100
AcDbEntity
  8
F794
  6
Continuous
 62
     7
100
AcDbCircle
 10
124.5327864637
 20
415.8827000437
 30
0.0
 40
352.4710727459043
100
AcDbArc
 50
348.5607144715
 51
359.8234173636
  0
ARC
  5
9D
330
79
100
AcDbEntity
  8
F794
  6
Continuous
 62
     7
100
AcDbCircle
 10
860.4183696361
 20
415.8772906393
 30
0.0
 40
352.4178750220681
100
AcDbArc
 50
180.1757298316
 51
191.4401383334
  0
LINE
  5
9E
330
79
100
AcDbEntity
  8
F794
  6
Continuous
 62
     7
100
AcDbLine
 10
503.0021687219
 20
301.9773136646
 30
0.0
 11
503.0021687219
 21
340.9773136646
 31
0.0
  0
LINE
  5
9F
330
79
100
AcDbEntity
  8
F794
  6
Continuous
 62
     7
100
AcDbLine
 10
482.0021687219
 20
340.9773136646
 30
0.0
 11
482.0021687219
 21
301.9773136646
 31
0.0
  0
ARC
  5
A0
330
79
100
AcDbEntity
  8
F794
  6
Continuous
 62
     7
100
AcDbCircle
 10
505.0021687219
 20
343.9773136646
 30
0.0
 40
2.0
100
AcDbArc
 50
90.0
 51
180.0
  0
ARC
  5
A1
330
79
100
AcDbEntity
  8
F794
  6
Continuous
 62
     7
100
AcDbCircle
 10
480.0021687219
 20
343.9773136646
 30
0.0
 40
2.000000000000002
100
AcDbArc
 50
0.0
 51
90.0
  0
LINE
  5
A2
330
79
100
AcDbEntity
  8
F794
  6
Continuous
 62
     7
100
AcDbLine
 10
483.1866687219
 20
300.9773136646
 30
0.0
 11
483.1866687219
 21
340.9773136646
 31
0.0
  0
LINE
  5
A3
330
79
100
AcDbEntity
  8
F794
  6
Continuous
 62
     7
100
AcDbLine
 10
501.8176687219
 20
300.9773136646
 30
0.0
 11
501.8176687219
 21
340.9773136646
 31
0.0
  0
LINE
  5
A4
330
79
100
AcDbEntity
  8
F794
  6
Continuous
 62
     7
100
AcDbLine
 10
503.0021687219
 20
340.9773136646
 30
0.0
 11
482.0021687219
 21
340.9773136646
 31
0.0
  0
SPLINE
  5
A6
330
79
100
AcDbEntity
  8
K109
  6
Continuous
 62
     7
100
AcDbSpline
210
0.0
220
0.0
230
1.0
 70
     8
 71
     3
 72
    12
 73
     8
 74
     0
 42
0.000000001
 43
0.0000000001
 40
0.4596927725055913
 40
0.4596927725055913
 40
0.4596927725055913
 40
0.4596927725055913
 40
0.4693254183496813
 40
0.4834714870999973
 40
0.4976583095659176
 40
0.5118886803407142
 40
0.5130142075901631
 40
0.5130142075901631
 40
0.5130142075901631
 40
0.5130142075901631
 10
508.3720119995419
 20
441.8704544208491
 30
0.0
 10
508.392714429611
 20
441.97785979946
 30
0.0
 10
508.4377527611043
 20
442.24354151982
 30
0.0
 10
508.4856470431394
 20
442.6693749002024
 30
0.0
 10
508.5071340935374
 20
443.1479617376511
 30
0.0
 10
508.4995908502427
 20
443.4802610009411
 30
0.0
 10
508.4893673198094
 20
443.6528190983668
 30
0.0
 10
508.4885841237786
 20
443.6654659530682
 30
0.0
  0
SPLINE
  5
A7
330
79
100
AcDbEntity
  8
K109
  6
Continuous
 62
     7
100
AcDbSpline
210
0.0
220
0.0
230
1.0
 70
     8
 71
     3
 72
    11
 73
     7
 74
     0
 42
0.000000001
 43
0.0000000001
 40
0.4859237196332958
 40
0.4859237196332958
 40
0.4859237196332958
 40
0.4859237196332958
 40
0.4976583095665988
 40
0.5118886803414038
 40
0.5261651919883804
 40
0.5363885133434955
 40
0.5363885133434955
 40
0.5363885133434955
 40
0.5363885133434955
 10
476.5180668458593
 20
443.7013539845808
 30
0.0
 10
476.5092340513024
 20
443.5695198598683
 30
0.0
 10
476.4978294870616
 20
443.2775575945504
 30
0.0
 10
476.508104479057
 20
442.8249177768415
 30
0.0
 10
476.5475038325453
 20
442.3900562900261
 30
0.0
 10
476.588418660228
 20
442.1159041151495
 30
0.0
 10
476.6082649257704
 20
442.0017304929591
 30
0.0
  0
ELLIPSE
  5
A9
330
79
100
AcDbEntity
  8
K809
  6
Continuous
 62
     7
100
AcDbEllipse
 10
492.5021687219
 20
444.8836499503
 30
0.0
 11
-16.0
 21
-1.387778780781446E-14
 31
0.0
210
0.0
220
0.0
230
1.0
 40
0.6563573533
 41
3.141592653589793
 42
3.142980959472737
  0
ELLIPSE
  5
AA
330
79
100
AcDbEntity
  8
K809
  6
Continuous
 62
     7
100
AcDbEllipse
 10
492.5021687219
 20
444.8836499503
 30
0.0
 11
-16.0
 21
-1.387778780781446E-14
 31
0.0
210
0.0
220
0.0
230
1.0
 40
0.6563573533
 41
0.0004295983867051
 42
3.141592653589793
  0
ELLIPSE
  5
AB
330
79
100
AcDbEntity
  8
K809
  6
Continuous
 62
     7
100
AcDbEllipse
 10
492.5021687219
 20
443.7519747293
 30
0.0
 11
-16.0
 21
-1.387778780781446E-14
 31
0.0
210
0.0
220
0.0
230
1.0
 40
0.6563573533
 41
0.0
 42
3.141592653589793
  0
SPLINE
  5
AC
330
79
100
AcDbEntity
  8
K809
  6
Continuous
 62
     7
100
AcDbSpline
210
0.0
220
0.0
230
1.0
 70
     8
 71
     3
 72
    14
 73
    10
 74
     0
 42
0.000000001
 43
0.0000000001
 40
0.0
 40
0.0
 40
0.0
 40
0.0
 40
0.0127828682268236
 40
0.0267772732636263
 40
0.0407788853850329
 40
0.0547998220931323
 40
0.0688510247164252
 40
0.0829417031085044
 40
0.0853114733536092
 40
0.0853114733536092
 40
0.0853114733536092
 40
0.0853114733536092
 10
508.5008631374537
 20
444.8994663278765
 30
0.0
 10
508.4986095270275
 20
445.0644428738726
 30
0.0
 10
508.4933351627875
 20
445.3560321975291
 30
0.0
 10
508.4456112493285
 20
445.8431049405036
 30
0.0
 10
508.3668670994394
 20
446.3296658660985
 30
0.0
 10
508.2552026901556
 20
446.8164859110072
 30
0.0
 10
508.1117249306503
 20
447.2983752612234
 30
0.0
 10
507.985184662094
 20
447.6427963731669
 30
0.0
 10
507.9099054947991
 20
447.8269327549851
 30
0.0
 10
507.8989228950958
 20
447.8534070432065
 30
0.0
  0
SPLINE
  5
AD
330
79
100
AcDbEntity
  8
K809
  6
Continuous
 62
     7
100
AcDbSpline
210
0.0
220
0.0
230
1.0
 70
     8
 71
     3
 72
    14
 73
    10
 74
     0
 42
0.000000001
 43
0.0000000001
 40
0.9148300102339493
 40
0.9148300102339493
 40
0.9148300102339493
 40
0.9148300102339493
 40
0.9244810869602323
 40
0.9386666645789121
 40
0.9527994792252464
 40
0.9668851922965161
 40
0.9809318545601602
 40
0.9949495407633349
 40
1.0
 40
1.0
 40
1.0
 40
1.0
 10
477.0953015835855
 20
447.8289180291209
 30
0.0
 10
477.0509394797259
 20
447.7210152279869
 30
0.0
 10
476.9473125061313
 20
447.4530815021209
 30
0.0
 10
476.8059209054861
 20
447.0211383399129
 30
0.0
 10
476.6801872417308
 20
446.5334736543094
 30
0.0
 10
476.5865983953728
 20
446.0417651473554
 30
0.0
 10
476.527768171882
 20
445.5529909908291
 30
0.0
 10
476.5012022537657
 20
445.1538286733463
 30
0.0
 10
476.5047105025783
 20
444.9439398012681
 30
0.0
 10
476.5059229778193
 20
444.8787637255494
 30
0.0
  0
LINE
  5
AE
330
79
100
AcDbEntity
  8
K809
  6
Continuous
 62
     7
100
AcDbLine
 10
508.5021687219
 20
443.7519747293
 30
0.0
 11
508.5021687219
 21
444.8836499503
 31
0.0
  0
LINE
  5
AF
330
79
100
AcDbEntity
  8
K809
  6
Continuous
 62
     7
100
AcDbLine
 10
476.5021687219
 20
444.8836499503
 30
0.0
 11
476.5021687219
 21
443.7519747293
 31
0.0
  0
ELLIPSE
  5
B1
330
79
100
AcDbEntity
  8
F807
  6
Continuous
 62
     7
100
AcDbEllipse
 10
492.5021687219
 20
416.2398547571
 30
0.0
 11
7.349999999999384
 21
8.743006318923108E-13
 31
0.0
210
0.0
220
0.0
230
1.0
 40
0.7544501473
 41
4.956735075663776
 42
5.253441048502827
  0
ELLIPSE
  5
B2
330
79
100
AcDbEntity
  8
F807
  6
Continuous
 62
     7
100
AcDbEllipse
 10
492.5021687219
 20
416.2398547571
 30
0.0
 11
8.24999999999693
 21
3.441691376337985E-12
 31
0.0
210
0.0
220
0.0
230
1.0
 40
0.7544501473
 41
4.956735075663419
 42
5.253441048502541
  0
LINE
  5
B3
330
79
100
AcDbEntity
  8
F807
  6
Continuous
 62
     7
100
AcDbLine
 10
494.4980243606
 20
410.2005267897
 30
0.0
 11
494.2802946545
 21
410.859362568
 31
0.0
  0
LINE
  5
B4
330
79
100
AcDbEntity
  8
F807
  6
Continuous
 62
     7
100
AcDbLine
 10
490.7240427892
 20
410.859362568
 30
0.0
 11
490.7240427892
 21
411.6469913919
 31
0.0
  0
LINE
  5
B5
330
79
100
AcDbEntity
  8
F807
  6
Continuous
 62
     7
100
AcDbLine
 10
494.2802946545
 20
411.6469913919
 30
0.0
 11
494.2802946545
 21
410.859362568
 31
0.0
  0
ELLIPSE
  5
B6
330
79
100
AcDbEntity
  8
F807
  6
Continuous
 62
     7
100
AcDbEllipse
 10
492.5021687219
 20
417.0274835811
 30
0.0
 11
-8.250000000000288
 21
-1.942890293094024E-13
 31
0.0
210
0.0
220
0.0
230
1.0
 40
0.7544501473
 41
1.353561347056361
 42
1.788031306533404
  0
LINE
  5
B7
330
79
100
AcDbEntity
  8
F807
  6
Continuous
 62
     7
100
AcDbLine
 10
490.7240427892
 20
410.859362568
 30
0.0
 11
490.5063130832
 21
410.2005267897
 31
0.0
  0
ELLIPSE
  5
B8
330
79
100
AcDbEntity
  8
F807
  6
Continuous
 62
     7
100
AcDbEllipse
 10
492.5021687219
 20
416.2398547571
 30
0.0
 11
7.350000000011471
 21
-7.896461262646426E-12
 31
0.0
210
0.0
220
0.0
230
1.0
 40
0.7544501473
 41
5.742133239062567
 42
6.038839211901335
  0
ELLIPSE
  5
B9
330
79
100
AcDbEntity
  8
F807
  6
Continuous
 62
     7
100
AcDbEllipse
 10
492.5021687219
 20
416.2398547571
 30
0.0
 11
8.249999999992944
 21
4.024558464266192E-12
 31
0.0
210
0.0
220
0.0
230
1.0
 40
0.7544501473
 41
5.742133239060743
 42
6.038839211899944
  0
LINE
  5
BA
330
79
100
AcDbEntity
  8
F807
  6
Continuous
 62
     7
100
AcDbLine
 10
499.5737989527
 20
413.0341477073
 30
0.0
 11
498.802348382
 21
413.3838612037
 31
0.0
  0
LINE
  5
BB
330
79
100
AcDbEntity
  8
F807
  6
Continuous
 62
     7
100
AcDbLine
 10
496.2876985725
 20
411.4866832844
 30
0.0
 11
496.2876985725
 21
412.2743121084
 31
0.0
  0
LINE
  5
BC
330
79
100
AcDbEntity
  8
F807
  6
Continuous
 62
     7
100
AcDbLine
 10
496.7512328399
 20
411.6922911117
 30
0.0
 11
496.7512328399
 21
410.9046622878
 31
0.0
  0
LINE
  5
BD
330
79
100
AcDbEntity
  8
F807
  6
Continuous
 62
     7
100
AcDbLine
 10
498.802348382
 20
414.1714900276
 30
0.0
 11
498.802348382
 21
413.3838612037
 31
0.0
  0
LINE
  5
BE
330
79
100
AcDbEntity
  8
F807
  6
Continuous
 62
     7
100
AcDbLine
 10
496.2876985725
 20
412.2743121084
 30
0.0
 11
496.7512328399
 21
411.6922911117
 31
0.0
  0
ELLIPSE
  5
BF
330
79
100
AcDbEntity
  8
F807
  6
Continuous
 62
     7
100
AcDbEllipse
 10
492.5021687219
 20
417.0274835811
 30
0.0
 11
8.250000000000416
 21
-6.522560269672795E-13
 31
0.0
210
0.0
220
0.0
230
1.0
 40
0.7544501473
 41
5.253441048503008
 42
5.633451143573436
  0
LINE
  5
C0
330
79
100
AcDbEntity
  8
F807
  6
Continuous
 62
     7
100
AcDbLine
 10
496.2876985725
 20
411.4866832844
 30
0.0
 11
496.7512328399
 21
410.9046622878
 31
0.0
  0
ELLIPSE
  5
C1
330
79
100
AcDbEntity
  8
F807
  6
Continuous
 62
     7
100
AcDbEllipse
 10
492.5021687219
 20
416.2398547571
 30
0.0
 11
7.350000000001769
 21
2.067790383364354E-12
 31
0.0
210
0.0
220
0.0
230
1.0
 40
0.7544501473
 41
0.2443460952789902
 42
0.541052068117973
  0
ELLIPSE
  5
C2
330
79
100
AcDbEntity
  8
F807
  6
Continuous
 62
     7
100
AcDbEllipse
 10
492.5021687219
 20
416.2398547571
 30
0.0
 11
8.249999999988388
 21
-8.534839501805891E-12
 31
0.0
210
0.0
220
0.0
230
1.0
 40
0.7544501473
 41
0.2443460952801466
 42
0.5410520681194201
  0
LINE
  5
C3
330
79
100
AcDbEntity
  8
F807
  6
Continuous
 62
     7
100
AcDbLine
 10
500.5071084636
 20
417.7456283377
 30
0.0
 11
499.63384231
 21
417.5813621289
 31
0.0
  0
LINE
  5
C4
330
79
100
AcDbEntity
  8
F807
  6
Continuous
 62
     7
100
AcDbLine
 10
499.63384231
 20
414.8983473853
 30
0.0
 11
499.63384231
 21
415.6859762092
 31
0.0
  0
LINE
  5
C5
330
79
100
AcDbEntity
  8
F807
  6
Continuous
 62
     7
100
AcDbLine
 10
500.5071084636
 20
415.5217100004
 30
0.0
 11
500.5071084636
 21
414.7340811765
 31
0.0
  0
LINE
  5
C6
330
79
100
AcDbEntity
  8
F807
  6
Continuous
 62
     7
100
AcDbLine
 10
499.63384231
 20
415.6859762092
 30
0.0
 11
500.5071084636
 21
415.5217100004
 31
0.0
  0
ELLIPSE
  5
C7
330
79
100
AcDbEntity
  8
F807
  6
Continuous
 62
     7
100
AcDbEllipse
 10
492.5021687219
 20
417.0274835811
 30
0.0
 11
-8.250000000000171
 21
3.053113317719180E-13
 31
0.0
210
0.0
220
0.0
230
1.0
 40
0.7544501473
 41
2.89724655831065
 42
3.177657447604874
  0
LINE
  5
C8
330
79
100
AcDbEntity
  8
F807
  6
Continuous
 62
     7
100
AcDbLine
 10
500.5071084636
 20
417.9988777637
 30
0.0
 11
500.5071084636
 21
417.7456283377
 31
0.0
  0
LINE
  5
C9
330
79
100
AcDbEntity
  8
F807
  6
Continuous
 62
     7
100
AcDbLine
 10
499.63384231
 20
414.8983473853
 30
0.0
 11
500.5071084636
 21
414.7340811765
 31
0.0
  0
ELLIPSE
  5
CA
330
79
100
AcDbEntity
  8
F807
  6
Continuous
 62
     7
100
AcDbEllipse
 10
492.5021687219
 20
416.2398547571
 30
0.0
 11
7.350000000002955
 21
3.219646771412954E-12
 31
0.0
210
0.0
220
0.0
230
1.0
 40
0.7544501473
 41
1.029744258676242
 42
1.326450231515177
  0
ELLIPSE
  5
CB
330
79
100
AcDbEntity
  8
F807
  6
Continuous
 62
     7
100
AcDbEllipse
 10
492.5021687219
 20
416.2398547571
 30
0.0
 11
8.249999999995383
 21
-5.093148125467906E-12
 31
0.0
210
0.0
220
0.0
230
1.0
 40
0.7544501473
 41
1.029744258677244
 42
1.277310315266012
  0
LINE
  5
CC
330
79
100
AcDbEntity
  8
F807
  6
Continuous
 62
     7
100
AcDbLine
 10
496.7512328399
 20
421.5750472264
 30
0.0
 11
496.2876985725
 21
420.9930262298
 31
0.0
  0
LINE
  5
CD
330
79
100
AcDbEntity
  8
F807
  6
Continuous
 62
     7
100
AcDbLine
 10
498.802348382
 20
419.0958483105
 30
0.0
 11
498.802348382
 21
419.8834771345
 31
0.0
  0
LINE
  5
CE
330
79
100
AcDbEntity
  8
F807
  6
Continuous
 62
     7
100
AcDbLine
 10
499.5737989527
 20
419.5265789362
 30
0.0
 11
499.5737989527
 21
419.4455618068
 31
0.0
  0
LINE
  5
CF
330
79
100
AcDbEntity
  8
F807
  6
Continuous
 62
     7
100
AcDbLine
 10
498.802348382
 20
419.8834771345
 30
0.0
 11
499.1103933779
 21
420.0231199018
 31
0.0
  0
LINE
  5
D0
330
79
100
AcDbEntity
  8
F807
  6
Continuous
 62
     7
100
AcDbLine
 10
496.7512328399
 20
421.5863214684
 30
0.0
 11
496.7512328399
 21
421.5750472264
 31
0.0
  0
LINE
  5
D1
330
79
100
AcDbEntity
  8
F807
  6
Continuous
 62
     7
100
AcDbLine
 10
498.802348382
 20
419.0958483105
 30
0.0
 11
499.5737989527
 21
419.4455618068
 31
0.0
  0
ELLIPSE
  5
D2
330
79
100
AcDbEntity
  8
F807
  6
Continuous
 62
     7
100
AcDbEllipse
 10
492.5021687219
 20
416.2398547571
 30
0.0
 11
-7.350000000005606
 21
5.939693181744587E-12
 31
0.0
210
0.0
220
0.0
230
1.0
 40
0.7544501473
 41
4.956735075664845
 42
5.253441048503677
  0
ELLIPSE
  5
D3
330
79
100
AcDbEntity
  8
F807
  6
Continuous
 62
     7
100
AcDbEllipse
 10
492.5021687219
 20
416.2398547571
 30
0.0
 11
-8.249999999996952
 21
-3.344546861683284E-12
 31
0.0
210
0.0
220
0.0
230
1.0
 40
0.7544501473
 41
5.005874991913842
 42
5.253441048502557
  0
LINE
  5
D4
330
79
100
AcDbEntity
  8
F807
  6
Continuous
 62
     7
100
AcDbLine
 10
490.5067190188
 20
422.2779543899
 30
0.0
 11
490.7240427892
 21
421.6203469462
 31
0.0
  0
LINE
  5
D5
330
79
100
AcDbEntity
  8
F807
  6
Continuous
 62
     7
100
AcDbLine
 10
494.2802946545
 20
421.6203469462
 30
0.0
 11
494.2802946545
 21
422.3158708144
 31
0.0
  0
LINE
  5
D6
330
79
100
AcDbEntity
  8
F807
  6
Continuous
 62
     7
100
AcDbLine
 10
490.7240427892
 20
422.3158708144
 30
0.0
 11
490.7240427892
 21
421.6203469462
 31
0.0
  0
LINE
  5
D7
330
79
100
AcDbEntity
  8
F807
  6
Continuous
 62
     7
100
AcDbLine
 10
494.2802946545
 20
421.6203469462
 30
0.0
 11
494.4976184249
 21
422.2779543899
 31
0.0
  0
ELLIPSE
  5
D8
330
79
100
AcDbEntity
  8
F807
  6
Continuous
 62
     7
100
AcDbEllipse
 10
492.5021687219
 20
416.2398547571
 30
0.0
 11
-7.350000000005205
 21
3.677613769070831E-12
 31
0.0
210
0.0
220
0.0
230
1.0
 40
0.7544501473
 41
5.742133239061916
 42
6.038839211900836
  0
ELLIPSE
  5
D9
330
79
100
AcDbEntity
  8
F807
  6
Continuous
 62
     7
100
AcDbEllipse
 10
492.5021687219
 20
416.2398547571
 30
0.0
 11
-8.249999999992738
 21
-4.177214130152151E-12
 31
0.0
210
0.0
220
0.0
230
1.0
 40
0.7544501473
 41
5.742133239060717
 42
6.038839211899915
  0
LINE
  5
DA
330
79
100
AcDbEntity
  8
F807
  6
Continuous
 62
     7
100
AcDbLine
 10
485.4305384911
 20
419.4455618068
 30
0.0
 11
486.2019890617
 21
419.0958483105
 31
0.0
  0
LINE
  5
DB
330
79
100
AcDbEntity
  8
F807
  6
Continuous
 62
     7
100
AcDbLine
 10
488.2531046039
 20
421.5863214684
 30
0.0
 11
488.2531046039
 21
421.5750472264
 31
0.0
  0
LINE
  5
DC
330
79
100
AcDbEntity
  8
F807
  6
Continuous
 62
     7
100
AcDbLine
 10
485.8939440659
 20
420.0231199018
 30
0.0
 11
486.2019890617
 21
419.8834771345
 31
0.0
  0
LINE
  5
DD
330
79
100
AcDbEntity
  8
F807
  6
Continuous
 62
     7
100
AcDbLine
 10
486.2019890617
 20
419.8834771345
 30
0.0
 11
486.2019890617
 21
419.0958483105
 31
0.0
  0
LINE
  5
DE
330
79
100
AcDbEntity
  8
F807
  6
Continuous
 62
     7
100
AcDbLine
 10
485.4305384911
 20
419.5265789362
 30
0.0
 11
485.4305384911
 21
419.4455618068
 31
0.0
  0
LINE
  5
DF
330
79
100
AcDbEntity
  8
F807
  6
Continuous
 62
     7
100
AcDbLine
 10
488.7166388713
 20
420.9930262298
 30
0.0
 11
488.2531046039
 21
421.5750472264
 31
0.0
  0
ELLIPSE
  5
E0
330
79
100
AcDbEntity
  8
F807
  6
Continuous
 62
     7
100
AcDbEllipse
 10
492.5021687219
 20
416.2398547571
 30
0.0
 11
-7.350000000008256
 21
-5.093148125467906E-12
 31
0.0
210
0.0
220
0.0
230
1.0
 40
0.7544501473
 41
0.2443460952785745
 42
0.5410520681174195
  0
ELLIPSE
  5
E1
330
79
100
AcDbEntity
  8
F807
  6
Continuous
 62
     7
100
AcDbEllipse
 10
492.5021687219
 20
416.2398547571
 30
0.0
 11
-8.250000000005292
 21
-5.079270337660090E-12
 31
0.0
210
0.0
220
0.0
230
1.0
 40
0.7544501473
 41
0.2443460952786607
 42
0.5410520681175984
  0
LINE
  5
E2
330
79
100
AcDbEntity
  8
F807
  6
Continuous
 62
     7
100
AcDbLine
 10
484.4972289801
 20
414.7340811765
 30
0.0
 11
485.3704951337
 21
414.8983473853
 31
0.0
  0
LINE
  5
E3
330
79
100
AcDbEntity
  8
F807
  6
Continuous
 62
     7
100
AcDbLine
 10
484.4972289801
 20
417.9988777637
 30
0.0
 11
484.4972289801
 21
417.7456283377
 31
0.0
  0
LINE
  5
E4
330
79
100
AcDbEntity
  8
F807
  6
Continuous
 62
     7
100
AcDbLine
 10
484.4972289801
 20
415.5217100004
 30
0.0
 11
485.3704951337
 21
415.6859762092
 31
0.0
  0
LINE
  5
E5
330
79
100
AcDbEntity
  8
F807
  6
Continuous
 62
     7
100
AcDbLine
 10
485.3704951337
 20
415.6859762092
 30
0.0
 11
485.3704951337
 21
414.8983473853
 31
0.0
  0
ELLIPSE
  5
E6
330
79
100
AcDbEntity
  8
F807
  6
Continuous
 62
     7
100
AcDbEllipse
 10
492.5021687219
 20
417.0274835811
 30
0.0
 11
8.250000000002141
 21
1.387778780781446E-14
 31
0.0
210
0.0
220
0.0
230
1.0
 40
0.7544501473
 41
3.105527859574623
 42
3.385938748868952
  0
LINE
  5
E7
330
79
100
AcDbEntity
  8
F807
  6
Continuous
 62
     7
100
AcDbLine
 10
484.4972289801
 20
415.5217100004
 30
0.0
 11
484.4972289801
 21
414.7340811765
 31
0.0
  0
LINE
  5
E8
330
79
100
AcDbEntity
  8
F807
  6
Continuous
 62
     7
100
AcDbLine
 10
485.3704951337
 20
417.5813621289
 30
0.0
 11
484.4972289801
 21
417.7456283377
 31
0.0
  0
ELLIPSE
  5
E9
330
79
100
AcDbEntity
  8
F807
  6
Continuous
 62
     7
100
AcDbEllipse
 10
492.5021687219
 20
416.2398547571
 30
0.0
 11
-7.3500000000029
 21
-3.080868893334809E-12
 31
0.0
210
0.0
220
0.0
230
1.0
 40
0.7544501473
 41
1.029744258676262
 42
1.326450231515197
  0
ELLIPSE
  5
EA
330
79
100
AcDbEntity
  8
F807
  6
Continuous
 62
     7
100
AcDbEllipse
 10
492.5021687219
 20
416.2398547571
 30
0.0
 11
-8.249999999988646
 21
1.175448627321884E-11
 31
0.0
210
0.0
220
0.0
230
1.0
 40
0.7544501473
 41
1.029744258677973
 42
1.326450231517373
  0
LINE
  5
EB
330
79
100
AcDbEntity
  8
F807
  6
Continuous
 62
     7
100
AcDbLine
 10
488.2531046039
 20
410.9046622878
 30
0.0
 11
488.7166388713
 21
411.4866832844
 31
0.0
  0
LINE
  5
EC
330
79
100
AcDbEntity
  8
F807
  6
Continuous
 62
     7
100
AcDbLine
 10
486.2019890617
 20
413.3838612037
 30
0.0
 11
486.2019890617
 21
414.1714900276
 31
0.0
  0
LINE
  5
ED
330
79
100
AcDbEntity
  8
F807
  6
Continuous
 62
     7
100
AcDbLine
 10
488.2531046039
 20
411.6922911117
 30
0.0
 11
488.7166388713
 21
412.2743121084
 31
0.0
  0
LINE
  5
EE
330
79
100
AcDbEntity
  8
F807
  6
Continuous
 62
     7
100
AcDbLine
 10
488.7166388713
 20
412.2743121084
 30
0.0
 11
488.7166388713
 21
411.4866832844
 31
0.0
  0
ELLIPSE
  5
EF
330
79
100
AcDbEntity
  8
F807
  6
Continuous
 62
     7
100
AcDbEllipse
 10
492.5021687219
 20
417.0274835811
 30
0.0
 11
-8.249999999999087
 21
9.575673587391975E-13
 31
0.0
210
0.0
220
0.0
230
1.0
 40
0.7544501473
 41
0.6497341636063361
 42
1.029744258676798
  0
LINE
  5
F0
330
79
100
AcDbEntity
  8
F807
  6
Continuous
 62
     7
100
AcDbLine
 10
488.2531046039
 20
411.6922911117
 30
0.0
 11
488.2531046039
 21
410.9046622878
 31
0.0
  0
LINE
  5
F1
330
79
100
AcDbEntity
  8
F807
  6
Continuous
 62
     7
100
AcDbLine
 10
486.2019890617
 20
413.3838612037
 30
0.0
 11
485.4305384911
 21
413.0341477073
 31
0.0
  0
ELLIPSE
  5
F2
330
79
100
AcDbEntity
  8
F807
  6
Continuous
 62
     7
100
AcDbEllipse
 10
492.5021687219
 20
417.0274835811
 30
0.0
 11
-7.350000000000414
 21
-2.359223927328458E-13
 31
0.0
210
0.0
220
0.0
230
1.0
 40
0.7544501473
 41
2.897246558310571
 42
3.2476800904357
  0
ELLIPSE
  5
F3
330
79
100
AcDbEntity
  8
F807
  6
Continuous
 62
     7
100
AcDbEllipse
 10
492.5021687219
 20
417.0274835811
 30
0.0
 11
7.349999999998783
 21
1.582067810090848E-12
 31
0.0
210
0.0
220
0.0
230
1.0
 40
0.7544501473
 41
5.253441048502678
 42
5.742133239061149
  0
ELLIPSE
  5
F4
330
79
100
AcDbEntity
  8
F807
  6
Continuous
 62
     7
100
AcDbEllipse
 10
492.5021687219
 20
417.0274835811
 30
0.0
 11
7.34999999999929
 21
9.714451465470120E-14
 31
0.0
210
0.0
220
0.0
230
1.0
 40
0.7544501473
 41
4.468042885105445
 42
4.956735075663906
  0
ELLIPSE
  5
F5
330
79
100
AcDbEntity
  8
F807
  6
Continuous
 62
     7
100
AcDbEllipse
 10
492.5021687219
 20
417.0274835811
 30
0.0
 11
-7.34999999999986
 21
2.636779683484747E-13
 31
0.0
210
0.0
220
0.0
230
1.0
 40
0.7544501473
 41
0.5410520681182902
 42
1.029744258676699
  0
ELLIPSE
  5
F6
330
79
100
AcDbEntity
  8
F807
  6
Continuous
 62
     7
100
AcDbEllipse
 10
492.5021687219
 20
417.0274835811
 30
0.0
 11
7.34999999999873
 21
-2.775557561562891E-13
 31
0.0
210
0.0
220
0.0
230
1.0
 40
0.7544501473
 41
3.035505216743924
 42
3.38593874886906
  0
ELLIPSE
  5
F7
330
79
100
AcDbEntity
  8
F807
  6
Continuous
 62
     7
100
AcDbEllipse
 10
492.5021687219
 20
417.0274835811
 30
0.0
 11
-7.350000000000686
 21
5.551115123125783E-13
 31
0.0
210
0.0
220
0.0
230
1.0
 40
0.7544501473
 41
5.326661293332172
 42
5.742133239061418
  0
ELLIPSE
  5
F8
330
79
100
AcDbEntity
  8
F807
  6
Continuous
 62
     7
100
AcDbEllipse
 10
492.5021687219
 20
417.0274835811
 30
0.0
 11
7.349999999999937
 21
2.775557561562891E-14
 31
0.0
210
0.0
220
0.0
230
1.0
 40
0.7544501473
 41
0.5410520681182334
 42
0.9565240138475092
  0
ELLIPSE
  5
F9
330
79
100
AcDbEntity
  8
F807
  6
Continuous
 62
     7
100
AcDbEllipse
 10
492.5021687219
 20
418.6683769643
 30
0.0
 11
7.350000000000005
 21
0.0
 31
0.0
210
0.0
220
0.0
230
1.0
 40
0.7544501473
 41
5.857918198645824
 42
6.088635046225225
  0
ELLIPSE
  5
FA
330
79
100
AcDbEntity
  8
F807
  6
Continuous
 62
     7
100
AcDbEllipse
 10
492.5021687219
 20
418.6683769643
 30
0.0
 11
7.350000000000005
 21
0.0
 31
0.0
210
0.0
220
0.0
230
1.0
 40
0.7544501473
 41
3.336142914544194
 42
3.566859762123574
  0
ELLIPSE
  5
FB
330
79
100
AcDbEntity
  8
F807
  6
Continuous
 62
     7
100
AcDbEllipse
 10
492.5021687219
 20
417.0274835811
 30
0.0
 11
-6.750000000000002
 21
0.0
 31
0.0
210
0.0
220
0.0
230
1.0
 40
0.7544501473
 41
5.333183021758861
 42
6.283185307179586
  0
ELLIPSE
  5
FC
330
79
100
AcDbEntity
  8
F807
  6
Continuous
 62
     7
100
AcDbEllipse
 10
492.5021687219
 20
417.0274835811
 30
0.0
 11
-6.750000000000002
 21
0.0
 31
0.0
210
0.0
220
0.0
230
1.0
 40
0.7544501473
 41
4.445816985801741
 42
4.978960974967647
  0
ELLIPSE
  5
FD
330
79
100
AcDbEntity
  8
F807
  6
Continuous
 62
     7
100
AcDbEllipse
 10
492.5021687219
 20
417.0274835811
 30
0.0
 11
-6.750000000000002
 21
0.0
 31
0.0
210
0.0
220
0.0
230
1.0
 40
0.7544501473
 41
0.0
 42
4.091594939010528
  0
ELLIPSE
  5
FE
330
79
100
AcDbEntity
  8
F807
  6
Continuous
 62
     7
100
AcDbEllipse
 10
492.5021687219
 20
417.0274835811
 30
0.0
 11
5.999999999999999
 21
0.0
 31
0.0
210
0.0
220
0.0
230
1.0
 40
0.7544501473
 41
0.0
 42
6.283185307179586
  0
ELLIPSE
  5
FF
330
79
100
AcDbEntity
  8
F807
  6
Continuous
 62
     7
100
AcDbEllipse
 10
492.5021687219
 20
417.6838409344
 30
0.0
 11
5.999999999999999
 21
0.0
 31
0.0
210
0.0
220
0.0
230
1.0
 40
0.7544501473
 41
3.214154736410578
 42
6.210623224358932
  0
LINE
  5
100
330
79
100
AcDbEntity
  8
F807
  6
Continuous
 62
     7
100
AcDbLine
 10
500.7521687219
 20
417.0274835811
 30
0.0
 11
500.7521687219
 21
417.2289959465
 31
0.0
  0
LINE
  5
101
330
79
100
AcDbEntity
  8
F807
  6
Continuous
 62
     7
100
AcDbLine
 10
484.2521687219
 20
417.2289959465
 30
0.0
 11
484.2521687219
 21
417.0274835811
 31
0.0
  0
LINE
  5
102
330
79
100
AcDbEntity
  8
F807
  6
Continuous
 62
     7
100
AcDbLine
 10
499.2521687219
 20
417.0274835811
 30
0.0
 11
499.2521687219
 21
418.4342544266
 31
0.0
  0
LINE
  5
103
330
79
100
AcDbEntity
  8
F807
  6
Continuous
 62
     7
100
AcDbLine
 10
485.7521687219
 20
418.4342544266
 30
0.0
 11
485.7521687219
 21
417.0274835811
 31
0.0
  0
ELLIPSE
  5
105
330
79
100
AcDbEntity
  8
K810
  6
Continuous
 62
     7
100
AcDbEllipse
 10
492.5021687219
 20
445.6381000976
 30
0.0
 11
-15.50000000000001
 21
1.387778780781446E-14
 31
0.0
210
0.0
220
0.0
230
1.0
 40
0.6563573533
 41
0.0
 42
3.141592653589793
  0
ELLIPSE
  5
106
330
79
100
AcDbEntity
  8
K810
  6
Continuous
 62
     7
100
AcDbEllipse
 10
492.5021687219
 20
446.7697753186
 30
0.0
 11
-15.5
 21
0.0
 31
0.0
210
0.0
220
0.0
230
1.0
 40
0.6563573533
 41
0.0
 42
3.394843931490732
  0
ELLIPSE
  5
107
330
79
100
AcDbEntity
  8
K810
  6
Continuous
 62
     7
100
AcDbEllipse
 10
492.5021687219
 20
446.7697753186
 30
0.0
 11
-15.5
 21
0.0
 31
0.0
210
0.0
220
0.0
230
1.0
 40
0.6563573533
 41
6.031933427618433
 42
6.283185307179586
  0
LINE
  5
108
330
79
100
AcDbEntity
  8
K810
  6
Continuous
 62
     7
100
AcDbLine
 10
477.0021687219
 20
446.7697753186
 30
0.0
 11
477.0021687219
 21
445.6381000976
 31
0.0
  0
LINE
  5
109
330
79
100
AcDbEntity
  8
K810
  6
Continuous
 62
     7
100
AcDbLine
 10
508.0021687219
 20
445.6381000976
 30
0.0
 11
508.0021687219
 21
446.7697753186
 31
0.0
  0
ELLIPSE
  5
10B
330
79
100
AcDbEntity
  8
F4465
  6
Continuous
 62
     7
100
AcDbEllipse
 10
492.5021687219
 20
446.7697753186
 30
0.0
 11
14.99999999999999
 21
-1.387778780781446E-14
 31
0.0
210
0.0
220
0.0
230
1.0
 40
0.6563573533
 41
4.71238898038469
 42
5.756947401003375
  0
ELLIPSE
  5
10C
330
79
100
AcDbEntity
  8
F4465
  6
Continuous
 62
     7
100
AcDbEllipse
 10
492.5021687219
 20
448.4685451015
 30
0.0
 11
16.30000000000025
 21
-2.081668171172169E-13
 31
0.0
210
0.0
220
0.0
230
1.0
 40
0.6563573533
 41
5.114478213394611
 42
5.881096074169681
  0
ELLIPSE
  5
10D
330
79
100
AcDbEntity
  8
F4465
  6
Continuous
 62
     7
100
AcDbEllipse
 10
492.5021687219
 20
452.805376497
 30
0.0
 11
16.30000000000025
 21
-2.081668171172169E-13
 31
0.0
210
0.0
220
0.0
230
1.0
 40
0.6563573533
 41
5.114478213394611
 42
5.88109607416968
  0
ELLIPSE
  5
10E
330
79
100
AcDbEntity
  8
F4465
  6
Continuous
 62
     7
100
AcDbEllipse
 10
492.5021687219
 20
474.5861685214
 30
0.0
 11
14.28122996820556
 21
0.0
 31
0.0
210
0.0
220
0.0
230
1.0
 40
0.6563573533
 41
3.080720063625198
 42
6.283185307179586
  0
ELLIPSE
  5
10F
330
79
100
AcDbEntity
  8
F4465
  6
Continuous
 62
     7
100
AcDbEllipse
 10
492.5021687219
 20
474.5861685214
 30
0.0
 11
14.28122996820556
 21
0.0
 31
0.0
210
0.0
220
0.0
230
1.0
 40
0.6563573533
 41
-3.204004635343945
 42
-3.202465243554388
  0
ELLIPSE
  5
110
330
79
100
AcDbEntity
  8
F4465
  6
Continuous
 62
     7
100
AcDbEllipse
 10
492.5021687219
 20
474.5861685214
 30
0.0
 11
14.28122996820556
 21
0.0
 31
0.0
210
0.0
220
0.0
230
1.0
 40
0.6563573533
 41
0.0
 42
0.0601530917805734
  0
ELLIPSE
  5
111
330
79
100
AcDbEntity
  8
F4465
  6
Continuous
 62
     7
100
AcDbEllipse
 10
492.5021687219
 20
475.2879908868
 30
0.0
 11
-13.28366591794573
 21
0.0
 31
0.0
210
0.0
220
0.0
230
1.0
 40
0.6563573533
 41
5.148664687913496
 42
6.283185307179586
  0
ELLIPSE
  5
112
330
79
100
AcDbEntity
  8
F4465
  6
Continuous
 62
     7
100
AcDbEllipse
 10
492.5021687219
 20
475.2879908868
 30
0.0
 11
-13.28366591794573
 21
0.0
 31
0.0
210
0.0
220
0.0
230
1.0
 40
0.6563573533
 41
0.0
 42
4.276113272855883
  0
ELLIPSE
  5
113
330
79
100
AcDbEntity
  8
F4465
  6
Continuous
 62
     7
100
AcDbEllipse
 10
492.5021687219
 20
475.2879908868
 30
0.0
 11
11.85
 21
0.0
 31
0.0
210
0.0
220
0.0
230
1.0
 40
0.6563573533
 41
2.169626265691125
 42
6.283185307179586
  0
ELLIPSE
  5
114
330
79
100
AcDbEntity
  8
F4465
  6
Continuous
 62
     7
100
AcDbEllipse
 10
492.5021687219
 20
475.2879908868
 30
0.0
 11
11.85
 21
0.0
 31
0.0
210
0.0
220
0.0
230
1.0
 40
0.6563573533
 41
0.0
 42
0.9729283931865023
  0
ELLIPSE
  5
115
330
79
100
AcDbEntity
  8
F4465
  6
Continuous
 62
     7
100
AcDbEllipse
 10
492.5021687219
 20
446.7697753186
 30
0.0
 11
15.0
 21
1.387778780781446E-14
 31
0.0
210
0.0
220
0.0
230
1.0
 40
0.6563573533
 41
3.667830559766006
 42
4.712388980384689
  0
ELLIPSE
  5
116
330
79
100
AcDbEntity
  8
F4465
  6
Continuous
 62
     7
100
AcDbEllipse
 10
492.5021687219
 20
448.4685451015
 30
0.0
 11
-16.30000000000044
 21
-3.469446951953614E-13
 31
0.0
210
0.0
220
0.0
230
1.0
 40
0.6563573533
 41
0.4020892330098924
 42
1.16870709378496
  0
ARC
  5
117
330
79
100
AcDbEntity
  8
F4465
  6
Continuous
 62
     7
100
AcDbCircle
 10
492.8058964289
 20
450.8906096154
 30
0.0
 40
13.96949684209251
100
AcDbArc
 50
241.4209510437
 51
268.754165071
  0
ARC
  5
118
330
79
100
AcDbEntity
  8
F4465
  6
Continuous
 62
     7
100
AcDbCircle
 10
492.1827577567
 20
450.9495001652
 30
0.0
 40
14.02872184916172
100
AcDbArc
 50
271.304643573
 51
298.5202403123
  0
ELLIPSE
  5
119
330
79
100
AcDbEntity
  8
F4465
  6
Continuous
 62
     7
100
AcDbEllipse
 10
492.5021687219
 20
452.805376497
 30
0.0
 11
-16.3000000000001
 21
-4.163336342344337E-14
 31
0.0
210
0.0
220
0.0
230
1.0
 40
0.6563573533
 41
0.4020892330099004
 42
1.168707093784982
  0
LINE
  5
11A
330
79
100
AcDbEntity
  8
F4465
  6
Continuous
 62
     7
100
AcDbLine
 10
507.5021687219
 20
444.2817259698
 30
0.0
 11
507.5021687219
 21
448.6185573653
 31
0.0
  0
LINE
  5
11B
330
79
100
AcDbEntity
  8
F4465
  6
Continuous
 62
     7
100
AcDbLine
 10
507.5021687219
 20
448.6185573653
 30
0.0
 11
507.5021687219
 21
467.1311070551
 31
0.0
  0
LINE
  5
11C
330
79
100
AcDbEntity
  8
F4465
  6
Continuous
 62
     7
100
AcDbLine
 10
486.1232973483
 20
438.6231848021
 30
0.0
 11
486.1232973483
 21
442.9600161976
 31
0.0
  0
SPLINE
  5
11D
330
79
100
AcDbEntity
  8
F4465
  6
Continuous
 62
     7
100
AcDbSpline
210
0.0
220
0.0
230
1.0
 70
     8
 71
     3
 72
    28
 73
    24
 74
     0
 42
0.000000001
 43
0.0000000001
 40
0.0
 40
0.0
 40
0.0
 40
0.0
 40
0.2499999999999996
 40
0.2499999999999996
 40
0.3749999999999996
 40
0.3749999999999996
 40
0.4374999999999996
 40
0.4374999999999996
 40
0.4687499999999997
 40
0.4687499999999997
 40
0.4999999999999998
 40
0.4999999999999998
 40
0.5156249999999999
 40
0.5156249999999999
 40
0.53125
 40
0.53125
 40
0.5624999999999999
 40
0.5624999999999999
 40
0.625
 40
0.625
 40
0.75
 40
0.75
 40
1.0
 40
1.0
 40
1.0
 40
1.0
 10
486.1232973483366
 20
442.9600161975644
 30
0.0
 10
486.7110531820197
 20
445.4416632103857
 30
0.0
 10
487.3507615002171
 20
447.9165201126349
 30
0.0
 10
488.5725881574221
 20
451.5779200283898
 30
0.0
 10
489.0181700576228
 20
452.791238086729
 30
0.0
 10
489.887216231077
 20
454.5737663064616
 30
0.0
 10
490.2072130579971
 20
455.1613546488098
 30
0.0
 10
490.8212114357397
 20
455.987607734298
 30
0.0
 10
491.051032701386
 20
456.2586890050538
 30
0.0
 10
491.615570030935
 20
456.7318826183716
 30
0.0
 10
491.9745062553532
 20
456.9497357992714
 30
0.0
 10
492.6071328259282
 20
456.9979277994361
 30
0.0
 10
492.8249175379685
 20
456.961388970843
 30
0.0
 10
493.2046797648554
 20
456.8214438330313
 30
0.0
 10
493.3729114222816
 20
456.7217120763292
 30
0.0
 10
493.8289909256636
 20
456.3869728962059
 30
0.0
 10
494.0704067417886
 20
456.1201413044313
 30
0.0
 10
494.7157649528667
 20
455.2981127208912
 30
0.0
 10
495.0454766564608
 20
454.7063091930804
 30
0.0
 10
495.9367559269219
 20
452.9171908251145
 30
0.0
 10
496.3932131111526
 20
451.6850247886693
 30
0.0
 10
497.6392118698255
 20
447.9754254945431
 30
0.0
 10
498.286654323312
 20
445.4696564107431
 30
0.0
 10
498.8810400953902
 20
442.9600161975644
 30
0.0
  0
LINE
  5
11E
330
79
100
AcDbEntity
  8
F4465
  6
Continuous
 62
     7
100
AcDbLine
 10
498.8810400954
 20
442.9600161976
 30
0.0
 11
498.8810400954
 21
438.6231848021
 31
0.0
  0
LINE
  5
11F
330
79
100
AcDbEntity
  8
F4465
  6
Continuous
 62
     7
100
AcDbLine
 10
477.5021687219
 20
467.1311070551
 30
0.0
 11
477.5021687219
 21
448.6185573653
 31
0.0
  0
LINE
  5
120
330
79
100
AcDbEntity
  8
F4465
  6
Continuous
 62
     7
100
AcDbLine
 10
477.5021687219
 20
448.6185573653
 30
0.0
 11
477.5021687219
 21
444.2817259698
 31
0.0
  0
LINE
  5
121
330
79
100
AcDbEntity
  8
F4465
  6
Continuous
 62
     7
100
AcDbLine
 10
507.5021687219
 20
467.1310070454
 30
0.0
 11
506.756947509
 21
475.1564109186
 31
0.0
  0
LINE
  5
122
330
79
100
AcDbEntity
  8
F4465
  6
Continuous
 62
     7
100
AcDbLine
 10
478.2473899347
 20
475.1564109186
 30
0.0
 11
477.5021687219
 21
467.1310070454
 31
0.0
  0
SPLINE
  5
123
330
79
100
AcDbEntity
  8
F4465
  6
Continuous
 62
     7
100
AcDbSpline
210
0.0
220
0.0
230
1.0
 70
     8
 71
     3
 72
    31
 73
    27
 74
     0
 42
0.000000001
 43
0.0000000001
 40
0.0
 40
0.0
 40
0.0
 40
0.0
 40
0.0038872441729787
 40
0.0192685178648958
 40
0.0346693536362021
 40
0.0501048573791102
 40
0.065587967209805
 40
0.0811287966077428
 40
0.096734210890417
 40
0.1124076710067749
 40
0.1281493513984288
 40
0.1439565064827517
 40
0.1598240288829658
 40
0.1757451198899451
 40
0.191711985059928
 40
0.2077164768969851
 40
0.2237506284407784
 40
0.2398070490623317
 40
0.2558791794398069
 40
0.2719614215194455
 40
0.2880491695627577
 40
0.3041383119185677
 40
0.3202257757311919
 40
0.3363097782981534
 40
0.3523891528532145
 40
0.3642601863237075
 40
0.3642601863237075
 40
0.3642601863237075
 40
0.3642601863237075
 10
506.7545698437975
 20
475.1488500565637
 30
0.0
 10
506.7516500029901
 20
475.1921227627979
 30
0.0
 10
506.739015247042
 20
475.3756267314491
 30
0.0
 10
506.6821963094598
 20
475.7350874742626
 30
0.0
 10
506.585087339499
 20
476.1933538925746
 30
0.0
 10
506.4530776285152
 20
476.6523195346014
 30
0.0
 10
506.2900326492195
 20
477.1051910559822
 30
0.0
 10
506.0952091035057
 20
477.5526235472579
 30
0.0
 10
505.8691675984172
 20
477.9932293388686
 30
0.0
 10
505.6122065588722
 20
478.4261283106505
 30
0.0
 10
505.3248073024324
 20
478.8502657040291
 30
0.0
 10
505.007532314474
 20
479.2646082369324
 30
0.0
 10
504.6610634991624
 20
479.6681090084743
 30
0.0
 10
504.2861942536588
 20
480.0597375939774
 30
0.0
 10
503.8838260458405
 20
480.4384925215551
 30
0.0
 10
503.4549575257882
 20
480.8034159884846
 30
0.0
 10
503.0006717681941
 20
481.1536038257629
 30
0.0
 10
502.5221225815878
 20
481.4882119381299
 30
0.0
 10
502.0205216687743
 20
481.8064591041962
 30
0.0
 10
501.4971275298636
 20
482.107626977343
 30
0.0
 10
500.9532417113911
 20
482.3910554493946
 30
0.0
 10
500.3902010760277
 20
482.6561415077998
 30
0.0
 10
499.809367000722
 20
482.9023391828118
 30
0.0
 10
499.2121157738308
 20
483.1291574869298
 30
0.0
 10
498.6531869907363
 20
483.3181189800989
 30
0.0
 10
498.2914523366834
 20
483.427907296592
 30
0.0
 10
498.1366559183572
 20
483.4726799623209
 30
0.0
  0
SPLINE
  5
124
330
79
100
AcDbEntity
  8
F4465
  6
Continuous
 62
     7
100
AcDbSpline
210
0.0
220
0.0
230
1.0
 70
     8
 71
     3
 72
    31
 73
    27
 74
     0
 42
0.000000001
 43
0.0000000001
 40
0.6365075514793148
 40
0.6365075514793148
 40
0.6365075514793148
 40
0.6365075514793148
 40
0.6413958812702343
 40
0.6574806219907104
 40
0.6735732980325387
 40
0.6896738652129857
 40
0.7057818950898508
 40
0.7218964794669314
 40
0.7380161212442518
 40
0.7541385246196768
 40
0.7702595364181091
 40
0.7863748363300128
 40
0.8024790418713997
 40
0.8185656850238049
 40
0.8346272778189208
 40
0.8506554989915278
 40
0.8666415288291112
 40
0.8825765440571475
 40
0.8984523590198106
 40
0.9142621668142104
 40
0.9300013020441183
 40
0.9456679256616158
 40
0.961263530610741
 40
0.9767931873607638
 40
0.9922654857534537
 40
1.0
 40
1.0
 40
1.0
 40
1.0
 10
486.8675781186914
 20
483.4726500366324
 30
0.0
 10
486.8038352231878
 20
483.4542129748298
 30
0.0
 10
486.5311952235013
 20
483.3737594011498
 30
0.0
 10
486.0559804391996
 20
483.2213874842654
 30
0.0
 10
485.4516364030545
 20
483.0029603180178
 30
0.0
 10
484.8629898375148
 20
482.764870822636
 30
0.0
 10
484.2913974883464
 20
482.5075556825195
 30
0.0
 10
483.7381948232199
 20
482.2314922379782
 30
0.0
 10
483.2046964972715
 20
481.9372014764947
 30
0.0
 10
482.6922061910311
 20
481.6252582028148
 30
0.0
 10
482.2020044060014
 20
481.2962922480205
 30
0.0
 10
481.7353440363593
 20
480.9509936339356
 30
0.0
 10
481.2934364902831
 20
480.5901106199997
 30
0.0
 10
480.8774530289623
 20
480.2144604943547
 30
0.0
 10
480.4885147109808
 20
479.8249339862745
 30
0.0
 10
480.1276796906106
 20
479.422497778535
 30
0.0
 10
479.7959276466826
 20
479.0081925182653
 30
0.0
 10
479.4941449872538
 20
478.5831302752327
 30
0.0
 10
479.223103171882
 20
478.1484720216794
 30
0.0
 10
478.9834673835023
 20
477.7054550089702
 30
0.0
 10
478.77570799241
 20
477.2552124833364
 30
0.0
 10
478.6003979997858
 20
476.7993469038774
 30
0.0
 10
478.4571125750577
 20
476.3377036467938
 30
0.0
 10
478.348546510738
 20
475.876529799349
 30
0.0
 10
478.2790993542075
 20
475.4773901133794
 30
0.0
 10
478.2601431433215
 20
475.2579831522936
 30
0.0
 10
478.25294657063
 20
475.1719471482126
 30
0.0
  0
LINE
  5
125
330
79
100
AcDbEntity
  8
F4465
  6
Continuous
 62
     7
100
AcDbLine
 10
478.4075126892
 20
443.0947990434
 30
0.0
 11
479.5316263605
 21
441.8246102344
 31
0.0
  0
LINE
  5
126
330
79
100
AcDbEntity
  8
F4465
  6
Continuous
 62
     7
100
AcDbLine
 10
505.4727110832
 20
441.8246102344
 30
0.0
 11
506.5968247545
 21
443.0947990434
 31
0.0
  0
ELLIPSE
  5
128
330
79
100
AcDbEntity
  8
K811
  6
Continuous
 62
     7
100
AcDbEllipse
 10
492.5021687219
 20
475.514325931
 30
0.0
 11
-11.55000000000001
 21
0.0
 31
0.0
210
0.0
220
0.0
230
1.0
 40
0.6563573533
 41
5.331521410983844
 42
6.283185307179586
  0
ELLIPSE
  5
129
330
79
100
AcDbEntity
  8
K811
  6
Continuous
 62
     7
100
AcDbEllipse
 10
492.5021687219
 20
475.514325931
 30
0.0
 11
-11.55000000000001
 21
0.0
 31
0.0
210
0.0
220
0.0
230
1.0
 40
0.6563573533
 41
0.0
 42
4.093278588869162
  0
ELLIPSE
  5
12A
330
79
100
AcDbEntity
  8
K811
  6
Continuous
 62
     7
100
AcDbEllipse
 10
492.5021687219
 20
475.514325931
 30
0.0
 11
9.586506428264579
 21
0.0
 31
0.0
210
0.0
220
0.0
230
1.0
 40
0.6563573533
 41
2.91832423881015
 42
6.283185307179586
  0
ELLIPSE
  5
12B
330
79
100
AcDbEntity
  8
K811
  6
Continuous
 62
     7
100
AcDbEllipse
 10
492.5021687219
 20
475.514325931
 30
0.0
 11
9.586506428264579
 21
0.0
 31
0.0
210
0.0
220
0.0
230
1.0
 40
0.6563573533
 41
0.0
 42
0.2232113016767161
  0
ELLIPSE
  5
12C
330
79
100
AcDbEntity
  8
K811
  6
Continuous
 62
     7
100
AcDbEllipse
 10
492.5021687219
 20
475.2879908868
 30
0.0
 11
-11.85000000000001
 21
0.0
 31
0.0
210
0.0
220
0.0
230
1.0
 40
0.6563573533
 41
5.310591972562055
 42
6.283185307179586
  0
ELLIPSE
  5
12D
330
79
100
AcDbEntity
  8
K811
  6
Continuous
 62
     7
100
AcDbEllipse
 10
492.5021687219
 20
475.2879908868
 30
0.0
 11
-11.85000000000001
 21
0.0
 31
0.0
210
0.0
220
0.0
230
1.0
 40
0.6563573533
 41
0.0
 42
4.113365306842452
  0
ELLIPSE
  5
12F
330
79
100
AcDbEntity
  8
F418
  6
Continuous
 62
     7
100
AcDbEllipse
 10
492.5021687219
 20
538.284578187
 30
0.0
 11
-2.25
 21
0.0
 31
0.0
210
0.0
220
0.0
230
1.0
 40
0.6563573533
 41
0.0
 42
6.283185307179586
  0
ELLIPSE
  5
130
330
79
100
AcDbEntity
  8
F418
  6
Continuous
 62
     7
100
AcDbEllipse
 10
492.5021687219
 20
537.7564630839
 30
0.0
 11
-2.25
 21
0.0
 31
0.0
210
0.0
220
0.0
230
1.0
 40
0.6563573533
 41
3.321362748265566
 42
6.103415212503814
  0
ELLIPSE
  5
131
330
79
100
AcDbEntity
  8
F418
  6
Continuous
 62
     7
100
AcDbEllipse
 10
492.5021687219
 20
537.7564630839
 30
0.0
 11
1.730940107675851
 21
0.0
 31
0.0
210
0.0
220
0.0
230
1.0
 40
0.6563573533
 41
5.756947401003336
 42
6.283185307179586
  0
ELLIPSE
  5
132
330
79
100
AcDbEntity
  8
F418
  6
Continuous
 62
     7
100
AcDbEllipse
 10
492.5021687219
 20
537.7564630839
 30
0.0
 11
1.730940107675851
 21
0.0
 31
0.0
210
0.0
220
0.0
230
1.0
 40
0.6563573533
 41
0.0
 42
3.667830559766043
  0
ELLIPSE
  5
133
330
79
100
AcDbEntity
  8
F418
  6
Continuous
 62
     7
100
AcDbEllipse
 10
492.5021687219
 20
537.454683025
 30
0.0
 11
-1.500000000000003
 21
0.0
 31
0.0
210
0.0
220
0.0
230
1.0
 40
0.6563573533
 41
2.815867343743045
 42
6.283185307179586
  0
ELLIPSE
  5
134
330
79
100
AcDbEntity
  8
F418
  6
Continuous
 62
     7
100
AcDbEllipse
 10
492.5021687219
 20
537.454683025
 30
0.0
 11
-1.500000000000003
 21
0.0
 31
0.0
210
0.0
220
0.0
230
1.0
 40
0.6563573533
 41
0.0
 42
0.3257253098467479
  0
ELLIPSE
  5
135
330
79
100
AcDbEntity
  8
F418
  6
Continuous
 62
     7
100
AcDbEllipse
 10
492.5021687219
 20
481.6873270313
 30
0.0
 11
5.500000009628248
 21
0.0
 31
0.0
210
0.0
220
0.0
230
1.0
 40
0.6563573533
 41
3.188383450040506
 42
6.236394510728873
  0
ELLIPSE
  5
136
330
79
100
AcDbEntity
  8
F418
  6
Continuous
 62
     7
100
AcDbEllipse
 10
492.5021687219
 20
526.0790661654
 30
0.0
 11
-8.663470285389561
 21
0.0
 31
0.0
210
0.0
220
0.0
230
1.0
 40
0.6563573533
 41
0.0467929041062032
 42
3.094790034697001
  0
ELLIPSE
  5
137
330
79
100
AcDbEntity
  8
F418
  6
Continuous
 62
     7
100
AcDbEllipse
 10
492.5021687219
 20
534.3410531148
 30
0.0
 11
8.250000000000005
 21
0.0
 31
0.0
210
0.0
220
0.0
230
1.0
 40
0.6563573533
 41
3.028128769892263
 42
6.283185307179586
  0
ELLIPSE
  5
138
330
79
100
AcDbEntity
  8
F418
  6
Continuous
 62
     7
100
AcDbEllipse
 10
492.5021687219
 20
534.3410531148
 30
0.0
 11
8.250000000000005
 21
0.0
 31
0.0
210
0.0
220
0.0
230
1.0
 40
0.6563573533
 41
0.0
 42
0.1132685428864662
  0
ELLIPSE
  5
139
330
79
100
AcDbEntity
  8
F418
  6
Continuous
 62
     7
100
AcDbEllipse
 10
492.5021687219
 20
538.284578187
 30
0.0
 11
-2.300000000003334
 21
0.0
 31
0.0
210
0.0
220
0.0
230
1.0
 40
0.6563573533
 41
0.0
 42
6.283185307179586
  0
ARC
  5
13A
330
79
100
AcDbEntity
  8
F418
  6
Continuous
 62
     7
100
AcDbCircle
 10
497.4712576722
 20
471.8988545237
 30
0.0
 40
15.19067178941193
100
AcDbArc
 50
133.9001534578
 51
160.6850936382
  0
ARC
  5
13B
330
79
100
AcDbEntity
  8
F418
  6
Continuous
 62
     7
100
AcDbCircle
 10
487.5372540955
 20
471.8991154196
 30
0.0
 40
15.18759982984484
100
AcDbArc
 50
18.9823216842
 51
46.1114320564
  0
LINE
  5
13C
330
79
100
AcDbEntity
  8
F418
  6
Continuous
 62
     7
100
AcDbLine
 10
483.8481805147
 20
525.8130952189
 30
0.0
 11
487.0081884051
 21
481.5184755018
 31
0.0
  0
LINE
  5
13D
330
79
100
AcDbEntity
  8
F418
  6
Continuous
 62
     7
100
AcDbLine
 10
497.9961490386
 20
481.5184755018
 30
0.0
 11
501.1561569291
 21
525.8130952189
 31
0.0
  0
ARC
  5
13E
330
79
100
AcDbEntity
  8
F418
  6
Continuous
 62
     7
100
AcDbCircle
 10
463.6883295399
 20
528.5120083332
 30
0.0
 40
37.56346373674404
100
AcDbArc
 50
355.8791188758
 51
9.8726894091
  0
ARC
  5
13F
330
79
100
AcDbEntity
  8
F418
  6
Continuous
 62
     7
100
AcDbCircle
 10
521.3968594637
 20
528.5058396531
 30
0.0
 40
37.64448884986348
100
AcDbArc
 50
170.1385892666
 51
184.1023110335
  0
SPLINE
  5
140
330
79
100
AcDbEntity
  8
F418
  6
Continuous
 62
     7
100
AcDbSpline
210
0.0
220
0.0
230
1.0
 70
     8
 71
     3
 72
    53
 73
    49
 74
     0
 42
0.000000001
 43
0.0000000001
 40
0.0
 40
0.0
 40
0.0
 40
0.0
 40
0.0003469215572121
 40
0.0214121440223415
 40
0.0424284769767197
 40
0.0634132035571259
 40
0.0843847248430244
 40
0.105362730607452
 40
0.1263683232298099
 40
0.1474240570914748
 40
0.1685538406218284
 40
0.1897826313433767
 40
0.2111358400767461
 40
0.2326383578455136
 40
0.2543131432641308
 40
0.2761793804009888
 40
0.298250356931255
 40
0.320531418538511
 40
0.3430185744811345
 40
0.3656984333877348
 40
0.3885499721051808
 40
0.411548109595368
 40
0.4346683399221813
 40
0.4578910493186507
 40
0.4812019661844968
 40
0.5046012959292288
 40
0.5280955375593198
 40
0.5516920187057568
 40
0.5753980433759741
 40
0.5992162717575055
 40
0.6231368175076656
 40
0.6471323585584664
 40
0.6711640454169352
 40
0.695182629051233
 40
0.7191344711028831
 40
0.7429685184990058
 40
0.7666421141890766
 40
0.790124221161731
 40
0.81339588097017
 40
0.8364486984335325
 40
0.8592824370591612
 40
0.8819025787071868
 40
0.9043183011757678
 40
0.9265410025979649
 40
0.9485833219907004
 40
0.9704585417710123
 40
0.9921802583527516
 40
1.0
 40
1.0
 40
1.0
 40
1.0
 10
500.6990229447795
 20
534.953183939165
 30
0.0
 10
500.6986294124736
 20
534.9560095998359
 30
0.0
 10
500.6776560810376
 20
535.1065176834143
 30
0.0
 10
500.6034977261752
 20
535.4273618770015
 30
0.0
 10
500.4797434725356
 20
535.8774694549295
 30
0.0
 10
500.3217341459691
 20
536.322469431833
 30
0.0
 10
500.1361338715462
 20
536.7543771112496
 30
0.0
 10
499.9222583184986
 20
537.1735616978146
 30
0.0
 10
499.6814085637363
 20
537.5782853390336
 30
0.0
 10
499.4143541348741
 20
537.9674963532848
 30
0.0
 10
499.1219913810309
 20
538.3400691809309
 30
0.0
 10
498.8051561381992
 20
538.6949910947193
 30
0.0
 10
498.4646723917602
 20
539.0312888174203
 30
0.0
 10
498.1013504472107
 20
539.348019968607
 30
0.0
 10
497.716015574752
 20
539.6442442399018
 30
0.0
 10
497.3095476445836
 20
539.9190015653203
 30
0.0
 10
496.8829355616184
 20
540.1712964020805
 30
0.0
 10
496.4373377576406
 20
540.4000960839038
 30
0.0
 10
495.9741358096237
 20
540.6043476659337
 30
0.0
 10
495.4949637516686
 20
540.7830137942273
 30
0.0
 10
495.001697870212
 20
540.9351209319775
 30
0.0
 10
494.4964019845779
 20
541.05980657051
 30
0.0
 10
493.9812398324476
 20
541.1563495948185
 30
0.0
 10
493.4583973597602
 20
541.2241708394139
 30
0.0
 10
492.9299627985264
 20
541.2628169547556
 30
0.0
 10
492.39789642226
 20
541.2719089023577
 30
0.0
 10
491.8640500334488
 20
541.2510882283697
 30
0.0
 10
491.3302678922735
 20
541.1999874387769
 30
0.0
 10
490.7984633493038
 20
541.1182298183436
 30
0.0
 10
490.2707139232437
 20
541.0054596979376
 30
0.0
 10
489.7493803804095
 20
540.8614194861923
 30
0.0
 10
489.2371350383793
 20
540.6860514675288
 30
0.0
 10
488.7369130163661
 20
540.4795948564204
 30
0.0
 10
488.251781230942
 20
540.2426453196796
 30
0.0
 10
487.7848009352476
 20
539.9761833019658
 30
0.0
 10
487.3388667837726
 20
539.681545490428
 30
0.0
 10
486.9165801227462
 20
539.3603569692635
 30
0.0
 10
486.5201811914687
 20
539.014449335061
 30
0.0
 10
486.151538524843
 20
538.6457863643345
 30
0.0
 10
485.812180824505
 20
538.2564149583002
 30
0.0
 10
485.5033341435725
 20
537.8484208497156
 30
0.0
 10
485.2259994098436
 20
537.42395906865
 30
0.0
 10
484.9808698879363
 20
536.9850703270608
 30
0.0
 10
484.7687943541809
 20
536.534313821479
 30
0.0
 10
484.5891828217448
 20
536.0723978424406
 30
0.0
 10
484.4459616725154
 20
535.6068745587784
 30
0.0
 10
484.3510527639067
 20
535.2228029228469
 30
0.0
 10
484.3190126929078
 20
535.0180481663409
 30
0.0
 10
484.3091966480887
 20
534.9544964630984
 30
0.0
  0
ENDBLK
  5
142
330
79
100
AcDbEntity
  8
0
100
AcDbBlockEnd
  0
BLOCK
  5
194
330
143
100
AcDbEntity
  8
0
100
AcDbBlockBegin
  2
SE1
 70
     0
 10
0.0
 20
0.0
 30
0.0
  3
SE1
  1

  0
LINE
  5
145
330
143
100
AcDbEntity
  8
F794
  6
Continuous
 62
     7
100
AcDbLine
 10
212.8673963112
 20
424.9546287614
 30
0.0
 11
189.4794401063
 21
404.607549384
 31
0.0
  0
SPLINE
  5
146
330
143
100
AcDbEntity
  8
F794
  6
Continuous
 62
     7
100
AcDbSpline
210
0.0
220
0.0
230
1.0
 70
     8
 71
     3
 72
    28
 73
    24
 74
     0
 42
0.000000001
 43
0.0000000001
 40
0.4780790944862586
 40
0.4780790944862586
 40
0.4780790944862586
 40
0.4780790944862586
 40
0.4999999999999979
 40
0.4999999999999979
 40
0.5624999999999981
 40
0.5624999999999981
 40
0.6249999999999984
 40
0.6249999999999984
 40
0.6874999999999987
 40
0.6874999999999987
 40
0.7187499999999989
 40
0.7187499999999989
 40
0.749999999999999
 40
0.749999999999999
 40
0.7812499999999991
 40
0.7812499999999991
 40
0.8124999999999992
 40
0.8124999999999992
 40
0.8749999999999996
 40
0.8749999999999996
 40
0.9374999999999998
 40
0.9374999999999998
 40
0.9791640523006818
 40
0.9791640523006818
 40
0.9791640523006818
 40
0.9791640523006818
 10
176.0008857198284
 20
415.0870730960788
 30
0.0
 10
176.0006357484065
 20
415.0807114255397
 30
0.0
 10
176.0000184473362
 20
415.1237036737407
 30
0.0
 10
175.9980733796126
 20
415.4874216105824
 30
0.0
 10
175.9955238030338
 20
416.1602447240161
 30
0.0
 10
175.8956523934163
 20
417.929972744239
 30
0.0
 10
175.7992590184479
 20
419.0524475718169
 30
0.0
 10
175.3065748495964
 20
421.4554875173957
 30
0.0
 10
174.9031855755567
 20
422.7775784249217
 30
0.0
 10
173.7502808063959
 20
424.6101603700607
 30
0.0
 10
173.2855806193305
 20
425.1735645389889
 30
0.0
 10
172.1855744823802
 20
426.1791188974374
 30
0.0
 10
171.5745984061378
 20
426.5990332512489
 30
0.0
 10
170.3049411564957
 20
427.2972391752463
 30
0.0
 10
169.6353134142398
 20
427.5818790562234
 30
0.0
 10
168.3236209309845
 20
428.0455735196211
 30
0.0
 10
167.6732891739497
 20
428.2293468964526
 30
0.0
 10
165.7545883676845
 20
428.6928137317254
 30
0.0
 10
164.5294940368163
 20
428.883229234614
 30
0.0
 10
162.4019167885146
 20
429.1549195013585
 30
0.0
 10
161.5017220472525
 20
429.2332758844453
 30
0.0
 10
160.5881840000617
 20
429.3076483369488
 30
0.0
 10
160.3876954163521
 20
429.3225078729491
 30
0.0
 10
160.377253643609
 20
429.3229218804516
 30
0.0
  0
LINE
  5
147
330
143
100
AcDbEntity
  8
F794
  6
Continuous
 62
     7
100
AcDbLine
 10
163.4207533483
 20
432.9675270518
 30
0.0
 11
189.4184209528
 21
455.5850059689
 31
0.0
  0
ARC
  5
148
330
143
100
AcDbEntity
  8
F794
  6
Continuous
 62
     7
100
AcDbCircle
 10
159.6336028121
 20
412.6922122426
 30
0.0
 40
20.62597633553549
100
AcDbArc
 50
6.1080667557
 51
79.4198543986
  0
LINE
  5
149
330
143
100
AcDbEntity
  8
F794
  6
Continuous
 62
     7
100
AcDbLine
 10
163.4207533483
 20
432.9675270518
 30
0.0
 11
161.379084857
 21
431.1913140945
 31
0.0
  0
LINE
  5
14A
330
143
100
AcDbEntity
  8
F794
  6
Continuous
 62
     7
100
AcDbLine
 10
168.6776033427
 20
408.7119444711
 30
0.0
 11
154.8940989235
 21
424.5553975646
 31
0.0
  0
LINE
  5
14B
330
143
100
AcDbEntity
  8
F794
  6
Continuous
 62
     7
100
AcDbLine
 10
154.7960061295
 20
423.144590064
 30
0.0
 11
167.2667958421
 21
408.8100372652
 31
0.0
  0
LINE
  5
14C
330
143
100
AcDbEntity
  8
F794
  6
Continuous
 62
     7
100
AcDbLine
 10
250.5314009858
 20
301.9773136646
 30
0.0
 11
271.5314009858
 21
301.9773136646
 31
0.0
  0
LINE
  5
14D
330
143
100
AcDbEntity
  8
F794
  6
Continuous
 62
     7
100
AcDbLine
 10
238.5314013683
 20
345.9773136646
 30
0.0
 11
283.5314009858
 21
345.9773136646
 31
0.0
  0
LINE
  5
14E
330
143
100
AcDbEntity
  8
F794
  6
Continuous
 62
     7
100
AcDbLine
 10
251.6808512716
 20
300.9773136646
 30
0.0
 11
270.3819507
 21
300.9773136646
 31
0.0
  0
LINE
  5
14F
330
143
100
AcDbEntity
  8
F794
  6
Continuous
 62
     7
100
AcDbLine
 10
250.5314009858
 20
343.9773136646
 30
0.0
 11
271.5314009858
 21
343.9773136646
 31
0.0
  0
ARC
  5
150
330
143
100
AcDbEntity
  8
F794
  6
Continuous
 62
     7
100
AcDbCircle
 10
-37.1965902199
 20
208.0929767041
 30
0.0
 40
300.0000000000001
100
AcDbArc
 50
40.92328931
 51
43.5819673513
  0
ARC
  5
151
330
143
100
AcDbEntity
  8
F794
  6
Continuous
 62
     7
100
AcDbCircle
 10
438.860774277
 20
622.2538763921
 30
0.0
 40
300.0
100
AcDbArc
 50
213.7494947873
 51
221.1219393428
  0
LINE
  5
152
330
143
100
AcDbEntity
  8
F794
  6
Continuous
 62
     7
100
AcDbLine
 10
160.3788903453
 20
429.3270623245
 30
0.0
 11
154.8940989235
 21
424.5553975646
 31
0.0
  0
LINE
  5
153
330
143
100
AcDbEntity
  8
F794
  6
Continuous
 62
     7
100
AcDbLine
 10
168.6776033427
 20
408.7119444711
 30
0.0
 11
176.0181908012
 21
415.0981166697
 31
0.0
  0
ARC
  5
154
330
143
100
AcDbEntity
  8
F794
  6
Continuous
 62
     7
100
AcDbCircle
 10
177.9750452236
 20
412.8943916374
 30
0.0
 40
2.980875858079375
100
AcDbArc
 50
43.2651897711
 51
131.5941874919
  0
ARC
  5
155
330
143
100
AcDbEntity
  8
F794
  6
Continuous
 62
     7
100
AcDbCircle
 10
158.5597210907
 20
431.5404653613
 30
0.0
 40
2.885840056690466
100
AcDbArc
 50
309.4827082159
 51
353.3304623841
  0
ARC
  5
156
330
143
100
AcDbEntity
  8
F794
  6
Continuous
 62
     7
100
AcDbCircle
 10
168.0212459894
 20
409.4663946185
 30
0.0
 40
0.9999999999999993
100
AcDbArc
 50
221.022651974
 51
311.022651974
  0
ARC
  5
157
330
143
100
AcDbEntity
  8
F794
  6
Continuous
 62
     7
100
AcDbCircle
 10
155.5504562768
 20
423.8009474173
 30
0.0
 40
1.000000000000001
100
AcDbArc
 50
131.022651974
 51
221.022651974
  0
LINE
  5
158
330
143
100
AcDbEntity
  8
F794
  6
Continuous
 62
     7
100
AcDbLine
 10
250.5314009858
 20
301.9773136646
 30
0.0
 11
251.6808512716
 21
300.9773136646
 31
0.0
  0
LINE
  5
159
330
143
100
AcDbEntity
  8
F794
  6
Continuous
 62
     7
100
AcDbLine
 10
270.3819507
 20
300.9773136646
 30
0.0
 11
271.5314009858
 21
301.9773136646
 31
0.0
  0
LINE
  5
15A
330
143
100
AcDbEntity
  8
F794
  6
Continuous
 62
     7
100
AcDbLine
 10
271.5314009858
 20
340.9773136646
 30
0.0
 11
271.5314009858
 21
343.9773136646
 31
0.0
  0
LINE
  5
15B
330
143
100
AcDbEntity
  8
F794
  6
Continuous
 62
     7
100
AcDbLine
 10
250.5314009858
 20
343.9773136646
 30
0.0
 11
250.5314009858
 21
340.9773136646
 31
0.0
  0
SPLINE
  5
15C
330
143
100
AcDbEntity
  8
F794
  6
Continuous
 62
     7
100
AcDbSpline
210
0.0
220
0.0
230
1.0
 70
     8
 71
     3
 72
     8
 73
     4
 74
     0
 42
0.000000001
 43
0.0000000001
 40
0.0
 40
0.0
 40
0.0
 40
0.0
 40
1.0
 40
1.0
 40
1.0
 40
1.0
 10
189.4794401063212
 20
404.6075493839581
 30
0.0
 10
205.8887214942536
 20
384.9993155099436
 30
0.0
 10
222.2393751207497
 20
365.4559036034842
 30
0.0
 10
238.5314009858097
 20
345.9773136645798
 30
0.0
  0
SPLINE
  5
15D
330
143
100
AcDbEntity
  8
F794
  6
Continuous
 62
     7
100
AcDbSpline
210
0.0
220
0.0
230
1.0
 70
     8
 71
     3
 72
     8
 73
     4
 74
     0
 42
0.000000001
 43
0.0000000001
 40
0.0
 40
0.0
 40
0.0
 40
0.0
 40
1.0
 40
1.0
 40
1.0
 40
1.0
 10
283.5314009858097
 20
345.9773136645798
 30
0.0
 10
260.0331615100341
 20
372.2363709788381
 30
0.0
 10
236.4784932851485
 20
398.5621426777927
 30
0.0
 10
212.8673963111527
 20
424.9546287614436
 30
0.0
  0
LINE
  5
15E
330
143
100
AcDbEntity
  8
F794
  6
Continuous
 62
     7
100
AcDbLine
 10
271.5314009858
 20
301.9773136646
 30
0.0
 11
271.5314009858
 21
340.9773136646
 31
0.0
  0
LINE
  5
15F
330
143
100
AcDbEntity
  8
F794
  6
Continuous
 62
     7
100
AcDbLine
 10
250.5314009858
 20
340.9773136646
 30
0.0
 11
250.5314009858
 21
301.9773136646
 31
0.0
  0
ARC
  5
160
330
143
100
AcDbEntity
  8
F794
  6
Continuous
 62
     7
100
AcDbCircle
 10
273.5314009858
 20
343.9773136646
 30
0.0
 40
2.0
100
AcDbArc
 50
90.0
 51
180.0
  0
ARC
  5
161
330
143
100
AcDbEntity
  8
F794
  6
Continuous
 62
     7
100
AcDbCircle
 10
248.5314009858
 20
343.9773136646
 30
0.0
 40
1.999999999999998
100
AcDbArc
 50
0.0
 51
90.0
  0
LINE
  5
162
330
143
100
AcDbEntity
  8
F794
  6
Continuous
 62
     7
100
AcDbLine
 10
251.7159009858
 20
300.9773136646
 30
0.0
 11
251.7159009858
 21
340.9773136646
 31
0.0
  0
LINE
  5
163
330
143
100
AcDbEntity
  8
F794
  6
Continuous
 62
     7
100
AcDbLine
 10
270.3469009858
 20
300.9773136646
 30
0.0
 11
270.3469009858
 21
340.9773136646
 31
0.0
  0
LINE
  5
164
330
143
100
AcDbEntity
  8
F794
  6
Continuous
 62
     7
100
AcDbLine
 10
271.5314009858
 20
340.9773136646
 30
0.0
 11
250.5314009858
 21
340.9773136646
 31
0.0
  0
LINE
  5
165
330
143
100
AcDbEntity
  8
K809
  6
Continuous
 62
     7
100
AcDbLine
 10
162.9135574553
 20
434.3819322975
 30
0.0
 11
187.0559621691
 21
455.385367603
 31
0.0
  0
ARC
  5
166
330
143
100
AcDbEntity
  8
K809
  6
Continuous
 62
     7
100
AcDbCircle
 10
186.3015120218
 20
454.7290102497
 30
0.0
 40
1.00000000000001
100
AcDbArc
 50
41.022651974
 51
131.022651974
  0
ARC
  5
167
330
143
100
AcDbEntity
  8
K809
  6
Continuous
 62
     7
100
AcDbCircle
 10
163.6680076026
 20
435.0382896508
 30
0.0
 40
0.9999999999999993
100
AcDbArc
 50
131.022651974
 51
221.022651974
  0
LINE
  5
168
330
143
100
AcDbEntity
  8
K809
  6
Continuous
 62
     7
100
AcDbLine
 10
187.9748624637
 20
454.3291373968
 30
0.0
 11
187.0559621691
 21
455.385367603
 31
0.0
  0
LINE
  5
169
330
143
100
AcDbEntity
  8
K809
  6
Continuous
 62
     7
100
AcDbLine
 10
162.9135574553
 20
434.3819322975
 30
0.0
 11
163.8324577499
 21
433.3257020913
 31
0.0
  0
LINE
  5
16A
330
143
100
AcDbEntity
  8
K810
  6
Continuous
 62
     7
100
AcDbLine
 10
186.0223797422
 20
455.8116390737
 30
0.0
 11
162.6344251756
 21
435.4645611215
 31
0.0
  0
LINE
  5
16B
330
143
100
AcDbEntity
  8
K810
  6
Continuous
 62
     7
100
AcDbLine
 10
185.0378437122
 20
456.9433142947
 30
0.0
 11
161.6498891457
 21
436.5962363425
 31
0.0
  0
LINE
  5
16C
330
143
100
AcDbEntity
  8
K810
  6
Continuous
 62
     7
100
AcDbLine
 10
161.6498891457
 20
436.5962363425
 30
0.0
 11
162.6344251756
 21
435.4645611215
 31
0.0
  0
LINE
  5
16D
330
143
100
AcDbEntity
  8
K810
  6
Continuous
 62
     7
100
AcDbLine
 10
186.0223797422
 20
455.8116390737
 30
0.0
 11
185.0378437122
 21
456.9433142947
 31
0.0
  0
LINE
  5
16E
330
143
100
AcDbEntity
  8
F4465
  6
Continuous
 62
     7
100
AcDbLine
 10
167.0534284125
 20
444.2817259698
 30
0.0
 11
160.5492166503
 21
438.6231848021
 31
0.0
  0
LINE
  5
16F
330
143
100
AcDbEntity
  8
F4465
  6
Continuous
 62
     7
100
AcDbLine
 10
163.2804671552
 20
448.6185573653
 30
0.0
 11
156.7762553929
 21
442.9600161976
 31
0.0
  0
LINE
  5
170
330
143
100
AcDbEntity
  8
F4465
  6
Continuous
 62
     7
100
AcDbLine
 10
138.3696545999
 20
465.2125782176
 30
0.0
 11
159.9186067064
 21
483.9597588251
 31
0.0
  0
LINE
  5
171
330
143
100
AcDbEntity
  8
F4465
  6
Continuous
 62
     7
100
AcDbLine
 10
138.5116947657
 20
466.5691590828
 30
0.0
 11
158.5554221829
 21
484.0068226908
 31
0.0
  0
LINE
  5
172
330
143
100
AcDbEntity
  8
F4465
  6
Continuous
 62
     7
100
AcDbLine
 10
183.1827210696
 20
458.313905401
 30
0.0
 11
176.6785093074
 21
452.6553642333
 31
0.0
  0
LINE
  5
173
330
143
100
AcDbEntity
  8
F4465
  6
Continuous
 62
     7
100
AcDbLine
 10
184.6606186386
 20
456.615135618
 30
0.0
 11
183.1827210696
 21
458.313905401
 31
0.0
  0
LINE
  5
174
330
143
100
AcDbEntity
  8
F4465
  6
Continuous
 62
     7
100
AcDbLine
 10
160.5492166503
 20
438.6231848021
 30
0.0
 11
162.0271142193
 21
436.9244150191
 31
0.0
  0
SPLINE
  5
175
330
143
100
AcDbEntity
  8
F4465
  6
Continuous
 62
     7
100
AcDbSpline
210
0.0
220
0.0
230
1.0
 70
     8
 71
     3
 72
    14
 73
    10
 74
     0
 42
0.000000001
 43
0.0000000001
 40
0.0
 40
0.0
 40
0.0
 40
0.0
 40
0.25
 40
0.25
 40
0.5
 40
0.5
 40
0.75
 40
0.75
 40
1.0
 40
1.0
 40
1.0
 40
1.0
 10
173.3438664289434
 20
446.7697753185564
 30
0.0
 10
172.9121533868839
 20
446.3941931403554
 30
0.0
 10
172.4471383968166
 20
446.0649969328059
 30
0.0
 10
171.4552245371804
 20
445.4928019923324
 30
0.0
 10
170.925813102955
 20
445.2497435939013
 30
0.0
 10
169.8531969462879
 20
444.8529042222282
 30
0.0
 10
169.3052119559729
 20
444.6957781436568
 30
0.0
 10
168.1913723754392
 20
444.444719084276
 30
0.0
 10
167.6233359186581
 20
444.3506145929118
 30
0.0
 10
167.0534284125464
 20
444.2817259697958
 30
0.0
  0
SPLINE
  5
176
330
143
100
AcDbEntity
  8
F4465
  6
Continuous
 62
     7
100
AcDbSpline
210
0.0
220
0.0
230
1.0
 70
     8
 71
     3
 72
    16
 73
    12
 74
     0
 42
0.000000001
 43
0.0000000001
 40
0.0
 40
0.0
 40
0.0
 40
0.0
 40
0.2500000000000001
 40
0.2500000000000001
 40
0.3750000000000002
 40
0.3750000000000002
 40
0.5
 40
0.5
 40
0.75
 40
0.75
 40
1.0
 40
1.0
 40
1.0
 40
1.0
 10
176.6785093073775
 20
452.6553642332963
 30
0.0
 10
176.5342561750841
 20
452.1111955170558
 30
0.0
 10
176.3665116289099
 20
451.571934184865
 30
0.0
 10
176.0668259161286
 20
450.7730838350951
 30
0.0
 10
175.9588664285121
 20
450.5084850165072
 30
0.0
 10
175.7238174185288
 20
449.9832836661396
 30
0.0
 10
175.596418281898
 20
449.7223444124796
 30
0.0
 10
175.1885270732586
 20
448.961502854625
 30
0.0
 10
174.8804626868162
 20
448.478832270316
 30
0.0
 10
174.1770340916215
 20
447.5728163748094
 30
0.0
 10
173.7764208404035
 20
447.1460894722164
 30
0.0
 10
173.3438664289434
 20
446.7697753185564
 30
0.0
  0
LINE
  5
177
330
143
100
AcDbEntity
  8
F4465
  6
Continuous
 62
     7
100
AcDbLine
 10
179.4097598122
 20
462.6507367965
 30
0.0
 11
172.90554805
 21
456.9921956288
 31
0.0
  0
LINE
  5
178
330
143
100
AcDbEntity
  8
F4465
  6
Continuous
 62
     7
100
AcDbLine
 10
167.0534284125
 20
444.2817259698
 30
0.0
 11
163.2804671552
 21
448.6185573653
 31
0.0
  0
SPLINE
  5
179
330
143
100
AcDbEntity
  8
F4465
  6
Continuous
 62
     7
100
AcDbSpline
210
0.0
220
0.0
230
1.0
 70
     8
 71
     3
 72
    28
 73
    24
 74
     0
 42
0.000000001
 43
0.0000000001
 40
0.0
 40
0.0
 40
0.0
 40
0.0
 40
0.2500000000000002
 40
0.2500000000000002
 40
0.3750000000000002
 40
0.3750000000000002
 40
0.4375000000000002
 40
0.4375000000000002
 40
0.4687500000000002
 40
0.4687500000000002
 40
0.5000000000000002
 40
0.5000000000000002
 40
0.5156250000000002
 40
0.5156250000000002
 40
0.5312500000000002
 40
0.5312500000000002
 40
0.5625000000000002
 40
0.5625000000000002
 40
0.6250000000000001
 40
0.6250000000000001
 40
0.75
 40
0.75
 40
1.0
 40
1.0
 40
1.0
 40
1.0
 10
163.2804671551517
 20
448.6185573652695
 30
0.0
 10
161.5649136842465
 20
451.4859822414716
 30
0.0
 10
159.8944630406589
 20
454.3807164023348
 30
0.0
 10
157.6309216923746
 20
458.844071229
 30
0.0
 10
156.9115272689093
 20
460.3498502440319
 30
0.0
 10
156.0164134583248
 20
462.7027833100653
 30
0.0
 10
155.7466443713784
 20
463.5004039227942
 30
0.0
 10
155.4910509869738
 20
464.729659358426
 30
0.0
 10
155.4286040982338
 20
465.1515855068326
 30
0.0
 10
155.4428498793255
 20
465.9953173476106
 30
0.0
 10
155.5241212213026
 20
466.448760958772
 30
0.0
 10
155.9594803023546
 20
466.9121820604253
 30
0.0
 10
156.1555760999636
 20
467.018587829016
 30
0.0
 10
156.5638373899916
 20
467.1279024213266
 30
0.0
 10
156.777524530037
 20
467.1385907500338
 30
0.0
 10
157.4128305316952
 20
467.1032027056437
 30
0.0
 10
157.8271051658884
 20
466.9948261599851
 30
0.0
 10
159.0291450774785
 20
466.5963831837969
 30
0.0
 10
159.7927539925761
 20
466.2209883571081
 30
0.0
 10
162.0216788979042
 20
465.0168676921507
 30
0.0
 10
163.4380142258283
 20
464.0843006850404
 30
0.0
 10
167.6053393698609
 20
461.1925218383678
 30
0.0
 10
170.2737741158168
 20
459.1117063697502
 30
0.0
 10
172.9055480499828
 20
456.9921956287699
 30
0.0
  0
LINE
  5
17A
330
143
100
AcDbEntity
  8
F4465
  6
Continuous
 62
     7
100
AcDbLine
 10
172.90554805
 20
456.9921956288
 30
0.0
 11
176.6785093074
 21
452.6553642333
 31
0.0
  0
LINE
  5
17B
330
143
100
AcDbEntity
  8
F4465
  6
Continuous
 62
     7
100
AcDbLine
 10
156.7762553929
 20
442.9600161976
 30
0.0
 11
144.5743037563
 21
456.9855529931
 31
0.0
  0
LINE
  5
17C
330
143
100
AcDbEntity
  8
F4465
  6
Continuous
 62
     7
100
AcDbLine
 10
156.7762553929
 20
442.9600161976
 30
0.0
 11
160.5492166503
 21
438.6231848021
 31
0.0
  0
LINE
  5
17D
330
143
100
AcDbEntity
  8
F4465
  6
Continuous
 62
     7
100
AcDbLine
 10
183.1827210696
 20
458.313905401
 30
0.0
 11
179.4097598122
 21
462.6507367965
 31
0.0
  0
LINE
  5
17E
330
143
100
AcDbEntity
  8
F4465
  6
Continuous
 62
     7
100
AcDbLine
 10
179.4097598122
 20
462.6507367965
 30
0.0
 11
167.2078081756
 21
476.676273592
 31
0.0
  0
LINE
  5
17F
330
143
100
AcDbEntity
  8
F4465
  6
Continuous
 62
     7
100
AcDbLine
 10
167.2075081212
 20
476.6766184896
 30
0.0
 11
159.9186067064
 21
483.9597588251
 31
0.0
  0
LINE
  5
180
330
143
100
AcDbEntity
  8
F4465
  6
Continuous
 62
     7
100
AcDbLine
 10
138.3696545999
 20
465.2125782176
 30
0.0
 11
144.5740037019
 21
456.9858978907
 31
0.0
  0
ARC
  5
181
330
143
100
AcDbEntity
  8
F4465
  6
Continuous
 62
     7
100
AcDbCircle
 10
159.2117795362
 20
483.2523725435
 30
0.0
 40
1.0
100
AcDbArc
 50
45.022651974
 51
131.022651974
  0
ARC
  5
182
330
143
100
AcDbEntity
  8
F4465
  6
Continuous
 62
     7
100
AcDbCircle
 10
139.168052119
 20
465.8147089355
 30
0.0
 40
0.9999999999999902
100
AcDbArc
 50
131.022651974
 51
217.022651974
  0
LINE
  5
183
330
143
100
AcDbEntity
  8
K811
  6
Continuous
 62
     7
100
AcDbLine
 10
139.6227520669
 20
467.9333985004
 30
0.0
 11
157.0505504697
 21
483.0952533616
 31
0.0
  0
LINE
  5
184
330
143
100
AcDbEntity
  8
K811
  6
Continuous
 62
     7
100
AcDbLine
 10
157.4737927199
 20
483.0658255234
 30
0.0
 11
157.0505504697
 21
483.0952533616
 31
0.0
  0
LINE
  5
185
330
143
100
AcDbEntity
  8
K811
  6
Continuous
 62
     7
100
AcDbLine
 10
139.6227520669
 20
467.9333985004
 30
0.0
 11
139.5933242287
 21
467.5101562502
 31
0.0
  0
LINE
  5
186
330
143
100
AcDbEntity
  8
F418
  6
Continuous
 62
     7
100
AcDbLine
 10
138.8167812923
 20
478.0773615818
 30
0.0
 11
147.1157329272
 21
485.2972924807
 31
0.0
  0
LINE
  5
187
330
143
100
AcDbEntity
  8
F418
  6
Continuous
 62
     7
100
AcDbLine
 10
97.8101275608
 20
520.3927337385
 30
0.0
 11
110.8824404268
 21
531.7653985923
 31
0.0
  0
LINE
  5
188
330
143
100
AcDbEntity
  8
F418
  6
Continuous
 62
     7
100
AcDbLine
 10
90.9342979566
 20
528.9261049501
 30
0.0
 11
103.3827253871
 21
539.7560012795
 31
0.0
  0
LINE
  5
189
330
143
100
AcDbEntity
  8
F418
  6
Continuous
 62
     7
100
AcDbLine
 10
91.9924841352
 20
536.7749562744
 30
0.0
 11
95.4629548128
 21
539.7942000996
 31
0.0
  0
ARC
  5
18A
330
143
100
AcDbEntity
  8
F418
  6
Continuous
 62
     7
100
AcDbCircle
 10
160.3011066797
 20
478.898192044
 30
0.0
 40
21.5
100
AcDbArc
 50
182.1879792393
 51
206.7514681257
  0
ARC
  5
18B
330
143
100
AcDbEntity
  8
F418
  6
Continuous
 62
     7
100
AcDbCircle
 10
143.3295838019
 20
464.1332882565
 30
0.0
 40
21.5
100
AcDbArc
 50
55.2938358224
 51
79.8573247088
  0
LINE
  5
18C
330
143
100
AcDbEntity
  8
F418
  6
Continuous
 62
     7
100
AcDbLine
 10
97.8101275608
 20
520.3927337385
 30
0.0
 11
138.8167812923
 21
478.0773615818
 31
0.0
  0
LINE
  5
18D
330
143
100
AcDbEntity
  8
F418
  6
Continuous
 62
     7
100
AcDbLine
 10
147.1157329272
 20
485.2972924807
 30
0.0
 11
110.8824404268
 21
531.7653985923
 31
0.0
  0
ARC
  5
18E
330
143
100
AcDbEntity
  8
F418
  6
Continuous
 62
     7
100
AcDbCircle
 10
140.8976009408
 20
562.1476093547
 30
0.0
 40
59.99999999999999
100
AcDbArc
 50
213.6206522863
 51
224.1001433749
  0
ARC
  5
18F
330
143
100
AcDbEntity
  8
F418
  6
Continuous
 62
     7
100
AcDbCircle
 10
63.5664608417
 20
494.8709806418
 30
0.0
 40
60.00000000000001
100
AcDbArc
 50
37.9451605731
 51
48.4246516617
  0
ARC
  5
190
330
143
100
AcDbEntity
  8
F418
  6
Continuous
 62
     7
100
AcDbCircle
 10
99.4010989326
 20
535.2674992157
 30
0.0
 40
6.000000000000003
100
AcDbArc
 50
48.4246516617
 51
131.022651974
  0
ARC
  5
191
330
143
100
AcDbEntity
  8
F418
  6
Continuous
 62
     7
100
AcDbCircle
 10
95.930628255
 20
532.2482553906
 30
0.0
 40
6.000000000000005
100
AcDbArc
 50
131.022651974
 51
213.6206522863
  0
SPLINE
  5
193
330
143
100
AcDbEntity
  8
K915
  6
Continuous
 62
     7
100
AcDbSpline
210
0.0
220
0.0
230
1.0
 70
     8
 71
     3
 72
     9
 73
     5
 74
     0
 42
0.000000001
 43
0.0000000001
 40
0.1301389042245495
 40
0.1301389042245495
 40
0.1301389042245495
 40
0.1301389042245495
 40
0.1349978658888326
 40
0.1421192244189551
 40
0.1421192244189551
 40
0.1421192244189551
 40
0.1421192244189551
 10
181.9471102918653
 20
448.9522460921884
 30
0.0
 10
181.9961417041992
 20
449.0124655664805
 30
0.0
 10
182.1147936786929
 20
449.1591890651723
 30
0.0
 10
182.2275772952758
 20
449.3016992626765
 30
0.0
 10
182.2925032115116
 20
449.3848142515373
 30
0.0
  0
ENDBLK
  5
195
330
143
100
AcDbEntity
  8
0
100
AcDbBlockEnd
  0
BLOCK
  5
1EB
330
196
100
AcDbEntity
  8
0
100
AcDbBlockBegin
  2
SE2
 70
     0
 10
0.0
 20
0.0
 30
0.0
  3
SE2
  1

  0
ELLIPSE
  5
198
330
196
100
AcDbEntity
  8
F794
  6
Continuous
 62
     7
100
AcDbEllipse
 10
176.8881961367
 20
157.9189419599
 30
0.0
 11
1.288888551750297E-14
 21
16.15
 31
0.0
210
0.0
220
0.0
230
1.0
 40
0.7544501473
 41
0.0404125973642717
 42
0.1363989663256772
  0
ELLIPSE
  5
199
330
196
100
AcDbEntity
  8
F794
  6
Continuous
 62
     7
100
AcDbEllipse
 10
176.8881961367
 20
157.9189419599
 30
0.0
 11
1.288888551750297E-14
 21
16.15
 31
0.0
210
0.0
220
0.0
230
1.0
 40
0.7544501473
 41
3.005193687264141
 42
3.101180056225563
  0
ELLIPSE
  5
19A
330
196
100
AcDbEntity
  8
F794
  6
Continuous
 62
     7
100
AcDbEllipse
 10
175.9036601068
 20
157.9189419599
 30
0.0
 11
1.288888551750297E-14
 21
16.15
 31
0.0
210
0.0
220
0.0
230
1.0
 40
0.7544501473
 41
0.0000000000000011
 42
0.1510053790693563
  0
ELLIPSE
  5
19B
330
196
100
AcDbEntity
  8
F794
  6
Continuous
 62
     7
100
AcDbEllipse
 10
175.9036601068
 20
157.9189419599
 30
0.0
 11
1.288888551750297E-14
 21
16.15
 31
0.0
210
0.0
220
0.0
230
1.0
 40
0.7544501473
 41
2.990871389762693
 42
6.283185307179586
  0
SPLINE
  5
19C
330
196
100
AcDbEntity
  8
F794
  6
Continuous
 62
     7
100
AcDbSpline
210
0.0
220
0.0
230
1.0
 70
     8
 71
     3
 72
    16
 73
    12
 74
     0
 42
0.000000001
 43
0.0000000001
 40
0.0
 40
0.0
 40
0.0
 40
0.0
 40
0.0625
 40
0.0625
 40
0.1250000000000001
 40
0.1250000000000001
 40
0.1875000000000001
 40
0.1875000000000001
 40
0.2500000000000002
 40
0.2500000000000002
 40
0.2503153886592041
 40
0.2503153886592041
 40
0.2503153886592041
 40
0.2503153886592041
 10
212.8673963111526
 20
157.918941959949
 30
0.0
 10
212.8673963111526
 20
159.9478873575165
 30
0.0
 10
212.5630333620473
 20
161.9760344517101
 30
0.0
 10
211.3914571003405
 20
165.7250367025014
 30
0.0
 10
210.5247047529691
 20
167.4444167868033
 30
0.0
 10
208.3599140950349
 20
170.3137788853577
 30
0.0
 10
207.0627275371551
 20
171.4626319281521
 30
0.0
 10
204.2342922367879
 20
173.0155195057971
 30
0.0
 10
202.7041563628114
 20
173.4189430456973
 30
0.0
 10
201.1656937694728
 20
173.4189430456973
 30
0.0
 10
201.1579693455453
 20
173.4189327727906
 30
0.0
 10
201.1502449517725
 20
173.4189122308838
 30
0.0
  0
SPLINE
  5
19D
330
196
100
AcDbEntity
  8
F794
  6
Continuous
 62
     7
100
AcDbSpline
210
0.0
220
0.0
230
1.0
 70
     8
 71
     3
 72
    16
 73
    12
 74
     0
 42
0.000000001
 43
0.0000000001
 40
0.7496846940200593
 40
0.7496846940200593
 40
0.7496846940200593
 40
0.7496846940200593
 40
0.7500000000000002
 40
0.7500000000000002
 40
0.8125000000000002
 40
0.8125000000000002
 40
0.8750000000000001
 40
0.8750000000000001
 40
0.9375000000000001
 40
0.9375000000000001
 40
1.0
 40
1.0
 40
1.0
 40
1.0
 10
201.1502510266312
 20
142.418971672861
 30
0.0
 10
201.1579733954669
 20
142.4189511417219
 30
0.0
 10
201.1656957944376
 20
142.4189408742006
 30
0.0
 10
202.7041563628114
 20
142.4189408742006
 30
0.0
 10
204.2342922367879
 20
142.8223644141008
 30
0.0
 10
207.0627275371551
 20
144.3752519917458
 30
0.0
 10
208.3599140950349
 20
145.5241050345402
 30
0.0
 10
210.524704752969
 20
148.3934671330946
 30
0.0
 10
211.3914571003404
 20
150.1128472173965
 30
0.0
 10
212.5630333620473
 20
153.8618494681878
 30
0.0
 10
212.8673963111525
 20
155.8899965623814
 30
0.0
 10
212.8673963111526
 20
157.918941959949
 30
0.0
  0
ELLIPSE
  5
19E
330
196
100
AcDbEntity
  8
F794
  6
Continuous
 62
     7
100
AcDbEllipse
 10
175.9036601068
 20
157.9189419599
 30
0.0
 11
-1.278090893050311E-14
 21
-17.91339148683588
 31
0.0
210
0.0
220
0.0
230
1.0
 40
0.7544501473
 41
-0.5770524313779732
 42
3.718433735378572
  0
SPLINE
  5
19F
330
196
100
AcDbEntity
  8
F794
  6
Continuous
 62
     7
100
AcDbSpline
210
0.0
220
0.0
230
1.0
 70
     8
 71
     3
 72
    17
 73
    13
 74
     0
 42
0.000000001
 43
0.0000000001
 40
0.0
 40
0.0
 40
0.0
 40
0.0
 40
0.0312629361212784
 40
0.0626037273027452
 40
0.0937494495341871
 40
0.1250620314317025
 40
0.156276816076717
 40
0.1875063314936851
 40
0.218812257808288
 40
0.249961263543787
 40
0.2812900004672707
 40
0.2868339211773221
 40
0.2868339211773221
 40
0.2868339211773221
 40
0.2868339211773221
 10
283.5314009858097
 20
157.918941959949
 30
0.0
 10
283.53140511997
 20
156.4457137333864
 30
0.0
 10
283.2407275081496
 20
153.4956316827886
 30
0.0
 10
281.9504681794181
 20
149.2478662019798
 30
0.0
 10
279.855591375839
 20
145.3316961993765
 30
0.0
 10
277.0409390236068
 20
141.9033716038808
 30
0.0
 10
273.6084055561303
 20
139.0879900962636
 30
0.0
 10
269.6931999810021
 20
136.9957784811056
 30
0.0
 10
265.4476948063464
 20
135.7089329503285
 30
0.0
 10
261.02849607797
 20
135.2740059508108
 30
0.0
 10
257.8229259296623
 20
135.5897382326567
 30
0.0
 10
256.1247640036139
 20
135.9589188917922
 30
0.0
 10
255.8704842811605
 20
136.0188570360815
 30
0.0
  0
SPLINE
  5
1A0
330
196
100
AcDbEntity
  8
F794
  6
Continuous
 62
     7
100
AcDbSpline
210
0.0
220
0.0
230
1.0
 70
     8
 71
     3
 72
    17
 73
    13
 74
     0
 42
0.000000001
 43
0.0000000001
 40
0.7131661733435044
 40
0.7131661733435044
 40
0.7131661733435044
 40
0.7131661733435044
 40
0.7186484514567729
 40
0.7499018265693307
 40
0.7810934655919101
 40
0.812414471181233
 40
0.8435580610320581
 40
0.8748794344222476
 40
0.9060711234061523
 40
0.9373247425966986
 40
0.9686233752604768
 40
1.0
 40
1.0
 40
1.0
 40
1.0
 10
255.8704634436995
 20
179.8190184809015
 30
0.0
 10
256.1219187933311
 20
179.8782923595518
 30
0.0
 10
257.8137090028627
 20
180.2464405373219
 30
0.0
 10
261.0144895840318
 20
180.5637132389396
 30
0.0
 10
265.4332790254998
 20
180.1320939241232
 30
0.0
 10
269.6782437176561
 20
178.8479262753768
 30
0.0
 10
273.5963716839637
 20
176.7580467510795
 30
0.0
 10
277.0274268302438
 20
173.9479117071133
 30
0.0
 10
279.847267197018
 20
170.5185163230531
 30
0.0
 10
281.9441428649906
 20
166.6060642248362
 30
0.0
 10
283.2393122287725
 20
162.3510671100321
 30
0.0
 10
283.5313968366154
 20
159.397527625774
 30
0.0
 10
283.5314009858097
 20
157.918941959949
 30
0.0
  0
ARC
  5
1A1
330
196
100
AcDbEntity
  8
F794
  6
Continuous
 62
     7
100
AcDbCircle
 10
200.7432673282
 20
292.1814518997
 30
0.0
 40
118.7600619666242
100
AcDbArc
 50
258.9047959565
 51
270.1962831386
  0
ARC
  5
1A2
330
196
100
AcDbEntity
  8
F794
  6
Continuous
 62
     7
100
AcDbCircle
 10
200.7391891748
 20
23.6948182373
 30
0.0
 40
118.7213718019673
100
AcDbArc
 50
89.8016872034
 51
101.0970071038
  0
ARC
  5
1A3
330
196
100
AcDbEntity
  8
F794
  6
Continuous
 62
     7
100
AcDbCircle
 10
200.9493584872
 20
-96.424612026
 30
0.0
 40
238.8436680913523
100
AcDbArc
 50
76.7060632803
 51
89.9518338867
  0
ARC
  5
1A4
330
196
100
AcDbEntity
  8
F794
  6
Continuous
 62
     7
100
AcDbCircle
 10
200.9313369945
 20
412.4165774069
 30
0.0
 40
238.9977653175084
100
AcDbArc
 50
270.0524554153
 51
283.2896474176
  0
SPLINE
  5
1A5
330
196
100
AcDbEntity
  8
K109
  6
Continuous
 62
     7
100
AcDbSpline
210
0.0
220
0.0
230
1.0
 70
     8
 71
     3
 72
     8
 73
     4
 74
     0
 42
0.000000001
 43
0.0000000001
 40
0.0
 40
0.0
 40
0.0
 40
0.0
 40
0.0217428163712085
 40
0.0217428163712085
 40
0.0217428163712085
 40
0.0217428163712085
 10
176.8782602083847
 20
141.9299714236299
 30
0.0
 10
177.4893537870518
 20
141.9700960325982
 30
0.0
 10
178.0202145863576
 20
142.0418795229638
 30
0.0
 10
178.5468088789948
 20
142.1636410323352
 30
0.0
  0
SPLINE
  5
1A6
330
196
100
AcDbEntity
  8
K109
  6
Continuous
 62
     7
100
AcDbSpline
210
0.0
220
0.0
230
1.0
 70
     8
 71
     3
 72
     9
 73
     5
 74
     0
 42
0.000000001
 43
0.0000000001
 40
0.466928791167562
 40
0.466928791167562
 40
0.466928791167562
 40
0.466928791167562
 40
0.4874555222478771
 40
0.5006059324505195
 40
0.5006059324505195
 40
0.5006059324505195
 40
0.5006059324505195
 10
178.5051091157036
 20
173.683632880196
 30
0.0
 10
177.9873784425951
 20
173.8016545885642
 30
0.0
 10
177.1281218385229
 20
173.9233456888798
 30
0.0
 10
176.2644664163116
 20
173.9237324560413
 30
0.0
 10
175.9278145878242
 20
173.9055371013251
 30
0.0
  0
SPLINE
  5
1A7
330
196
100
AcDbEntity
  8
K109
  6
Continuous
 62
     7
100
AcDbSpline
210
0.0
220
0.0
230
1.0
 70
     8
 71
     3
 72
     8
 73
     4
 74
     0
 42
0.000000001
 43
0.0000000001
 40
0.9882983361835764
 40
0.9882983361835764
 40
0.9882983361835764
 40
0.9882983361835764
 40
1.0
 40
1.0
 40
1.0
 40
1.0
 10
175.9426708990177
 20
141.9349688124844
 30
0.0
 10
176.2405392542501
 20
141.9207132435845
 30
0.0
 10
176.549155410906
 20
141.9195196024438
 30
0.0
 10
176.8782602083847
 20
141.9299714236299
 30
0.0
  0
ELLIPSE
  5
1A8
330
196
100
AcDbEntity
  8
K809
  6
Continuous
 62
     7
100
AcDbEllipse
 10
174.9847598122
 20
157.9189419599
 30
0.0
 11
9.797174393178822E-16
 21
-16.0
 31
0.0
210
0.0
220
0.0
230
1.0
 40
0.7544501473
 41
3.139775798042502
 42
3.141592653589793
  0
ELLIPSE
  5
1A9
330
196
100
AcDbEntity
  8
K809
  6
Continuous
 62
     7
100
AcDbEllipse
 10
174.9847598122
 20
157.9189419599
 30
0.0
 11
9.797174393178822E-16
 21
-16.0
 31
0.0
210
0.0
220
0.0
230
1.0
 40
0.7544501473
 41
0.0011013338288732
 42
3.139775798042502
  0
ELLIPSE
  5
1AA
330
196
100
AcDbEntity
  8
K809
  6
Continuous
 62
     7
100
AcDbEllipse
 10
175.9692958421
 20
157.9189419599
 30
0.0
 11
9.797174393178822E-16
 21
-16.0
 31
0.0
210
0.0
220
0.0
230
1.0
 40
0.7544501473
 41
0.0
 42
3.141592653589793
  0
SPLINE
  5
1AB
330
196
100
AcDbEntity
  8
K809
  6
Continuous
 62
     7
100
AcDbSpline
210
0.0
220
0.0
230
1.0
 70
     8
 71
     3
 72
    15
 73
    11
 74
     0
 42
0.000000001
 43
0.0000000001
 40
0.0
 40
0.0
 40
0.0
 40
0.0
 40
0.0142145385265016
 40
0.0424954784816503
 40
0.0707767443249494
 40
0.0990687929524123
 40
0.1273816772474442
 40
0.1557244988883767
 40
0.1841050667690575
 40
0.1972556205372427
 40
0.1972556205372427
 40
0.1972556205372427
 40
0.1972556205372427
 10
175.0077133775177
 20
173.9148467822681
 30
0.0
 10
174.9050760836159
 20
173.9160812590422
 30
0.0
 10
174.6442536191222
 20
173.9186152810517
 30
0.0
 10
174.168122857322
 20
173.8886481250792
 30
0.0
 10
173.6171558781549
 20
173.8261831560202
 30
0.0
 10
173.0642859811875
 20
173.7298383547748
 30
0.0
 10
172.5166831672894
 20
173.6018044968008
 30
0.0
 10
171.9737578091376
 20
173.4417750838342
 30
0.0
 10
171.5332859713272
 20
173.2845446533393
 30
0.0
 10
171.2743041400164
 20
173.1800599976482
 30
0.0
 10
171.1926009180675
 20
173.1458793002415
 30
0.0
  0
SPLINE
  5
1AC
330
196
100
AcDbEntity
  8
K809
  6
Continuous
 62
     7
100
AcDbSpline
210
0.0
220
0.0
230
1.0
 70
     8
 71
     3
 72
    15
 73
    11
 74
     0
 42
0.000000001
 43
0.0000000001
 40
0.8013411480216738
 40
0.8013411480216738
 40
0.8013411480216738
 40
0.8013411480216738
 40
0.8252441677106148
 40
0.8537489713127389
 40
0.882202213103068
 40
0.9106085405182576
 40
0.9389743448073344
 40
0.967307577029642
 40
0.9956174639903008
 40
1.0
 40
1.0
 40
1.0
 40
1.0
 10
171.1596470401277
 20
142.7058570192286
 30
0.0
 10
171.3079392739242
 20
142.6432212998972
 30
0.0
 10
171.6352774301795
 20
142.5138160197094
 30
0.0
 10
172.1469444135398
 20
142.3413857769112
 30
0.0
 10
172.6936783147806
 20
142.1910177104481
 30
0.0
 10
173.2443105543796
 20
142.07313325282
 30
0.0
 10
173.7998027586426
 20
141.9869037453861
 30
0.0
 10
174.3512448238039
 20
141.9361066075244
 30
0.0
 10
174.7646032640182
 20
141.9152431179376
 30
0.0
 10
174.9670892729896
 20
141.9202733839722
 30
0.0
 10
174.9987135662867
 20
141.9210810291977
 30
0.0
  0
LINE
  5
1AD
330
196
100
AcDbEntity
  8
K809
  6
Continuous
 62
     7
100
AcDbLine
 10
175.9692958421
 20
173.9189419599
 30
0.0
 11
174.9847598122
 21
173.9189419599
 31
0.0
  0
LINE
  5
1AE
330
196
100
AcDbEntity
  8
K809
  6
Continuous
 62
     7
100
AcDbLine
 10
174.9847598122
 20
141.9189419599
 30
0.0
 11
175.9692958421
 21
141.9189419599
 31
0.0
  0
ELLIPSE
  5
1AF
330
196
100
AcDbEntity
  8
K810
  6
Continuous
 62
     7
100
AcDbEllipse
 10
174.3284024589
 20
157.9189419599
 30
0.0
 11
1.482688907715366E-14
 21
-15.50000000000001
 31
0.0
210
0.0
220
0.0
230
1.0
 40
0.7544501473
 41
0.0000000000000012
 42
3.141592653589793
  0
ELLIPSE
  5
1B0
330
196
100
AcDbEntity
  8
K810
  6
Continuous
 62
     7
100
AcDbEllipse
 10
173.3438664289
 20
157.9189419599
 30
0.0
 11
1.482688907715366E-14
 21
-15.50000000000001
 31
0.0
210
0.0
220
0.0
230
1.0
 40
0.7544501473
 41
0.0000000000000012
 42
0.2546880542693643
  0
ELLIPSE
  5
1B1
330
196
100
AcDbEntity
  8
K810
  6
Continuous
 62
     7
100
AcDbEllipse
 10
173.3438664289
 20
157.9189419599
 30
0.0
 11
1.482688907715366E-14
 21
-15.50000000000001
 31
0.0
210
0.0
220
0.0
230
1.0
 40
0.7544501473
 41
0.3637053310533886
 42
2.777887322536418
  0
ELLIPSE
  5
1B2
330
196
100
AcDbEntity
  8
K810
  6
Continuous
 62
     7
100
AcDbEllipse
 10
173.3438664289
 20
157.9189419599
 30
0.0
 11
1.482688907715366E-14
 21
-15.50000000000001
 31
0.0
210
0.0
220
0.0
230
1.0
 40
0.7544501473
 41
2.886904599320427
 42
3.391811454897315
  0
ELLIPSE
  5
1B3
330
196
100
AcDbEntity
  8
K810
  6
Continuous
 62
     7
100
AcDbEllipse
 10
173.3438664289
 20
157.9189419599
 30
0.0
 11
1.482688907715366E-14
 21
-15.50000000000001
 31
0.0
210
0.0
220
0.0
230
1.0
 40
0.7544501473
 41
6.032363667517955
 42
6.283185307179586
  0
LINE
  5
1B4
330
196
100
AcDbEntity
  8
K810
  6
Continuous
 62
     7
100
AcDbLine
 10
173.3438664289
 20
142.4189419599
 30
0.0
 11
174.3284024589
 21
142.4189419599
 31
0.0
  0
LINE
  5
1B5
330
196
100
AcDbEntity
  8
K810
  6
Continuous
 62
     7
100
AcDbLine
 10
174.3284024589
 20
173.4189419599
 30
0.0
 11
173.3438664289
 21
173.4189419599
 31
0.0
  0
ELLIPSE
  5
1B6
330
196
100
AcDbEntity
  8
F4465
  6
Continuous
 62
     7
100
AcDbEllipse
 10
149.1441306531
 20
157.9189419599
 30
0.0
 11
-1.300331467939195E-14
 21
-14.28122996820556
 31
0.0
210
0.0
220
0.0
230
1.0
 40
0.7544501473
 41
6.202721113925224
 42
6.283185307179586
  0
ELLIPSE
  5
1B7
330
196
100
AcDbEntity
  8
F4465
  6
Continuous
 62
     7
100
AcDbEllipse
 10
149.1441306531
 20
157.9189419599
 30
0.0
 11
-1.300331467939195E-14
 21
-14.28122996820556
 31
0.0
210
0.0
220
0.0
230
1.0
 40
0.7544501473
 41
-0.085689690109005
 42
-0.0804641932543619
  0
ELLIPSE
  5
1B8
330
196
100
AcDbEntity
  8
F4465
  6
Continuous
 62
     7
100
AcDbEllipse
 10
149.1441306531
 20
157.9189419599
 30
0.0
 11
-1.300331467939195E-14
 21
-14.28122996820556
 31
0.0
210
0.0
220
0.0
230
1.0
 40
0.7544501473
 41
0.0000000000000012
 42
3.221190634923863
  0
ELLIPSE
  5
1B9
330
196
100
AcDbEntity
  8
F4465
  6
Continuous
 62
     7
100
AcDbEllipse
 10
148.5335584743
 20
157.9189419599
 30
0.0
 11
-8.133899473677511E-16
 21
13.28366591794573
 31
0.0
210
0.0
220
0.0
230
1.0
 40
0.7544501473
 41
2.022119768934365
 42
6.283185307179586
  0
ELLIPSE
  5
1BA
330
196
100
AcDbEntity
  8
F4465
  6
Continuous
 62
     7
100
AcDbEllipse
 10
148.5335584743
 20
157.9189419599
 30
0.0
 11
-8.133899473677511E-16
 21
13.28366591794573
 31
0.0
210
0.0
220
0.0
230
1.0
 40
0.7544501473
 41
0.0
 42
1.119472884655426
  0
ELLIPSE
  5
1BB
330
196
100
AcDbEntity
  8
F4465
  6
Continuous
 62
     7
100
AcDbEllipse
 10
148.5335584743
 20
157.9189419599
 30
0.0
 11
-1.315218457931965E-14
 21
-11.85
 31
0.0
210
0.0
220
0.0
230
1.0
 40
0.7544501473
 41
5.213908925389026
 42
6.283185307179586
  0
ELLIPSE
  5
1BC
330
196
100
AcDbEntity
  8
F4465
  6
Continuous
 62
     7
100
AcDbEllipse
 10
148.5335584743
 20
157.9189419599
 30
0.0
 11
-1.315218457931965E-14
 21
-11.85
 31
0.0
210
0.0
220
0.0
230
1.0
 40
0.7544501473
 41
0.0
 42
4.210869035380357
  0
ELLIPSE
  5
1BD
330
196
100
AcDbEntity
  8
F4465
  6
Continuous
 62
     7
100
AcDbEllipse
 10
173.3438664289
 20
157.9189419599
 30
0.0
 11
2.683709051626840E-14
 21
15.00000000000003
 31
0.0
210
0.0
220
0.0
230
1.0
 40
0.7544501473
 41
4.712388980384691
 42
5.557517120539813
  0
ELLIPSE
  5
1BE
330
196
100
AcDbEntity
  8
F4465
  6
Continuous
 62
     7
100
AcDbEllipse
 10
173.3438664289
 20
157.9189419599
 30
0.0
 11
-1.479627290717497E-14
 21
15.0
 31
0.0
210
0.0
220
0.0
230
1.0
 40
0.7544501473
 41
3.867260840229562
 42
4.712388980384687
  0
ELLIPSE
  5
1BF
330
196
100
AcDbEntity
  8
F4465
  6
Continuous
 62
     7
100
AcDbEllipse
 10
171.86596886
 20
157.9189419599
 30
0.0
 11
4.153355470931286E-13
 21
16.30000000000024
 31
0.0
210
0.0
220
0.0
230
1.0
 40
0.7544501473
 41
5.114478213394623
 42
5.881096074169701
  0
ELLIPSE
  5
1C0
330
196
100
AcDbEntity
  8
F4465
  6
Continuous
 62
     7
100
AcDbEllipse
 10
171.86596886
 20
157.9189419599
 30
0.0
 11
-2.210465177837262E-13
 21
-16.29999999999983
 31
0.0
210
0.0
220
0.0
230
1.0
 40
0.7544501473
 41
0.4020892330099137
 42
1.168707093785006
  0
ARC
  5
1C1
330
196
100
AcDbEntity
  8
F4465
  6
Continuous
 62
     7
100
AcDbCircle
 10
168.9882517637
 20
158.1893757391
 30
0.0
 40
15.67469992979714
100
AcDbArc
 50
334.8995701523
 51
359.0114335168
  0
ARC
  5
1C2
330
196
100
AcDbEntity
  8
F4465
  6
Continuous
 62
     7
100
AcDbCircle
 10
169.0455639424
 20
157.6617866316
 30
0.0
 40
15.61717202403854
100
AcDbArc
 50
0.9434858545
 51
25.1455104764
  0
ELLIPSE
  5
1C3
330
196
100
AcDbEntity
  8
F4465
  6
Continuous
 62
     7
100
AcDbEllipse
 10
168.0930076026
 20
157.9189419599
 30
0.0
 11
1.239020031290250E-13
 21
16.30000000000025
 31
0.0
210
0.0
220
0.0
230
1.0
 40
0.7544501473
 41
5.11447821339461
 42
5.881096074169686
  0
ELLIPSE
  5
1C4
330
196
100
AcDbEntity
  8
F4465
  6
Continuous
 62
     7
100
AcDbEllipse
 10
168.0930076026
 20
157.9189419599
 30
0.0
 11
-2.071687299759118E-13
 21
-16.29999999999983
 31
0.0
210
0.0
220
0.0
230
1.0
 40
0.7544501473
 41
0.4020892330099128
 42
1.168707093785006
  0
LINE
  5
1C5
330
196
100
AcDbEntity
  8
F4465
  6
Continuous
 62
     7
100
AcDbLine
 10
155.4351916697
 20
142.9189419599
 30
0.0
 11
172.90554805
 21
142.9189419599
 31
0.0
  0
LINE
  5
1C6
330
196
100
AcDbEntity
  8
F4465
  6
Continuous
 62
     7
100
AcDbLine
 10
172.90554805
 20
142.9189419599
 30
0.0
 11
176.6785093074
 21
142.9189419599
 31
0.0
  0
LINE
  5
1C7
330
196
100
AcDbEntity
  8
F4465
  6
Continuous
 62
     7
100
AcDbLine
 10
176.6785093074
 20
172.9189419599
 30
0.0
 11
172.90554805
 21
172.9189419599
 31
0.0
  0
LINE
  5
1C8
330
196
100
AcDbEntity
  8
F4465
  6
Continuous
 62
     7
100
AcDbLine
 10
172.90554805
 20
172.9189419599
 30
0.0
 11
155.4351910114
 21
172.9189419599
 31
0.0
  0
LINE
  5
1C9
330
196
100
AcDbEntity
  8
F4465
  6
Continuous
 62
     7
100
AcDbLine
 10
183.1827210696
 20
151.5400705864
 30
0.0
 11
179.4097598122
 21
151.5400705864
 31
0.0
  0
SPLINE
  5
1CA
330
196
100
AcDbEntity
  8
F4465
  6
Continuous
 62
     7
100
AcDbSpline
210
0.0
220
0.0
230
1.0
 70
     8
 71
     3
 72
    28
 73
    24
 74
     0
 42
0.000000001
 43
0.0000000001
 40
0.0
 40
0.0
 40
0.0
 40
0.0
 40
0.2499999999999998
 40
0.2499999999999998
 40
0.3749999999999997
 40
0.3749999999999997
 40
0.4374999999999997
 40
0.4374999999999997
 40
0.4687499999999997
 40
0.4687499999999997
 40
0.4843749999999997
 40
0.4843749999999997
 40
0.4999999999999997
 40
0.4999999999999997
 40
0.5312499999999997
 40
0.5312499999999997
 40
0.5624999999999996
 40
0.5624999999999996
 40
0.6249999999999997
 40
0.6249999999999997
 40
0.7499999999999998
 40
0.7499999999999998
 40
1.0
 40
1.0
 40
1.0
 40
1.0
 10
179.4097598121859
 20
151.5400705864221
 30
0.0
 10
177.2264203113223
 20
152.1344563585004
 30
0.0
 10
175.0464486197729
 20
152.7818988119868
 30
0.0
 10
171.819167422767
 20
154.0278975706597
 30
0.0
 10
170.7472062847256
 20
154.4843547548905
 30
0.0
 10
169.1907071562897
 20
155.3756340253516
 30
0.0
 10
168.6758492845379
 20
155.7053457289457
 30
0.0
 10
167.9606999703623
 20
156.3507039400239
 30
0.0
 10
167.7285615342071
 20
156.5921197561488
 30
0.0
 10
167.4373447810597
 20
157.0481992595309
 30
0.0
 10
167.3505800397416
 20
157.2164309169571
 30
0.0
 10
167.2288304177306
 20
157.5961931438441
 30
0.0
 10
167.1970423282015
 20
157.8139778558844
 30
0.0
 10
167.2389684565097
 20
158.4466044264594
 30
0.0
 10
167.4284966019187
 20
158.8055406508776
 30
0.0
 10
167.8401660922655
 20
159.3700779804265
 30
0.0
 10
168.0760016687268
 20
159.5998992460728
 30
0.0
 10
168.7948262196659
 20
160.2138976238154
 30
0.0
 10
169.3060169598201
 20
160.5338944507355
 30
0.0
 10
170.8567827839845
 20
161.4029406241896
 30
0.0
 10
171.9123465376941
 20
161.8485225243903
 30
0.0
 10
175.0976951874915
 20
163.0703491815953
 30
0.0
 10
177.2507738659773
 20
163.7100574997927
 30
0.0
 10
179.4097598121859
 20
164.2978133334758
 30
0.0
  0
LINE
  5
1CB
330
196
100
AcDbEntity
  8
F4465
  6
Continuous
 62
     7
100
AcDbLine
 10
179.4097598122
 20
164.2978133335
 30
0.0
 11
183.1827210696
 21
164.2978133335
 31
0.0
  0
LINE
  5
1CC
330
196
100
AcDbEntity
  8
F4465
  6
Continuous
 62
     7
100
AcDbLine
 10
180.8540641693
 20
169.1397843099
 30
0.0
 11
180.0270504045
 21
170.1122573136
 31
0.0
  0
LINE
  5
1CD
330
196
100
AcDbEntity
  8
F4465
  6
Continuous
 62
     7
100
AcDbLine
 10
155.435213433
 20
172.9189419599
 30
0.0
 11
148.2781063466
 21
172.1539650521
 31
0.0
  0
LINE
  5
1CE
330
196
100
AcDbEntity
  8
F4465
  6
Continuous
 62
     7
100
AcDbLine
 10
148.2781063466
 20
143.6839188678
 30
0.0
 11
155.435213433
 21
142.9189419599
 31
0.0
  0
SPLINE
  5
1CF
330
196
100
AcDbEntity
  8
F4465
  6
Continuous
 62
     7
100
AcDbSpline
210
0.0
220
0.0
230
1.0
 70
     8
 71
     3
 72
    31
 73
    27
 74
     0
 42
0.000000001
 43
0.0000000001
 40
0.0
 40
0.0
 40
0.0
 40
0.0
 40
0.0046672760831698
 40
0.0204725541201158
 40
0.0362889128910548
 40
0.0521228336296758
 40
0.067979953515943
 40
0.0838648534342802
 40
0.0997809197520985
 40
0.1157302860373564
 40
0.1317138534958807
 40
0.1477313820124217
 40
0.1637816379043475
 40
0.1798625806285564
 40
0.1959715691989655
 40
0.2121055700084165
 40
0.2282613506896888
 40
0.2444356488605524
 40
0.260625309231066
 40
0.2768273868571814
 40
0.2930392177872867
 40
0.3092584607321273
 40
0.3254831147016515
 40
0.3417115179671665
 40
0.3579423334704573
 40
0.3585876848709869
 40
0.3585876848709869
 40
0.3585876848709869
 40
0.3585876848709869
 10
148.288134248207
 20
172.1516368786961
 30
0.0
 10
148.2311348289944
 20
172.1467357952957
 30
0.0
 10
148.0175114042974
 20
172.128059467054
 30
0.0
 10
147.6053486252849
 20
172.0594862544785
 30
0.0
 10
147.0893000363046
 20
171.9482275923433
 30
0.0
 10
146.5730231426611
 20
171.802223063149
 30
0.0
 10
146.064038643229
 20
171.6253351786256
 30
0.0
 10
145.5617348811626
 20
171.4169462525608
 30
0.0
 10
145.0676882599787
 20
171.1777200373302
 30
0.0
 10
144.5828912132734
 20
170.9080628529371
 30
0.0
 10
144.1084929625405
 20
170.6085444121664
 30
0.0
 10
143.6455941770112
 20
170.2797906712258
 30
0.0
 10
143.1952939946408
 20
169.9225163398379
 30
0.0
 10
142.7586680916871
 20
169.5375172730907
 30
0.0
 10
142.3367649602093
 20
169.1256710300175
 30
0.0
 10
141.9305977003238
 20
168.687932877313
 30
0.0
 10
141.5411380091678
 20
168.2253311263655
 30
0.0
 10
141.1693109506943
 20
167.7389613382676
 30
0.0
 10
140.8159910554659
 20
167.229980113617
 30
0.0
 10
140.4819995863118
 20
166.699598800086
 30
0.0
 10
140.168102859428
 20
166.1490774388484
 30
0.0
 10
139.8750114131771
 20
165.5797191406624
 30
0.0
 10
139.6033798109513
 20
164.992864989943
 30
0.0
 10
139.3538068737061
 20
164.389889494259
 30
0.0
 10
139.1994928468299
 20
163.9699291872042
 30
0.0
 10
139.1249899705833
 20
163.7534563901511
 30
0.0
 10
139.1221470440435
 20
163.7451749122942
 30
0.0
  0
SPLINE
  5
1D0
330
196
100
AcDbEntity
  8
F4465
  6
Continuous
 62
     7
100
AcDbSpline
210
0.0
220
0.0
230
1.0
 70
     8
 71
     3
 72
    30
 73
    26
 74
     0
 42
0.000000001
 43
0.0000000001
 40
0.6435130324750383
 40
0.6435130324750383
 40
0.6435130324750383
 40
0.6435130324750383
 40
0.650180352511786
 40
0.6664290937927153
 40
0.6826789550463076
 40
0.6989288700438858
 40
0.7151776395656816
 40
0.7314237335747263
 40
0.747665265719777
 40
0.7638999782613463
 40
0.7801252423965523
 40
0.7963380797097404
 40
0.8125352106683065
 40
0.8287131355000532
 40
0.844868251145312
 40
0.8609970050863183
 40
0.8770960827377917
 40
0.8931626200619005
 40
0.9091944278193638
 40
0.9251902093353237
 40
0.9411497508779603
 40
0.9570740635602851
 40
0.9729654584568144
 40
0.9888275421377456
 40
1.0
 40
1.0
 40
1.0
 40
1.0
 10
139.1225317308547
 20
152.0915889276687
 30
0.0
 10
139.1519085409492
 20
152.0060336943496
 30
0.0
 10
139.255113644407
 20
151.7132475464357
 30
0.0
 10
139.4445281648104
 20
151.2206556455181
 30
0.0
 10
139.7027949762937
 20
150.622716761151
 30
0.0
 10
139.9830435253805
 20
150.0413079173067
 30
0.0
 10
140.2846791032153
 20
149.4777942706472
 30
0.0
 10
140.6070538358952
 20
148.9335082855599
 30
0.0
 10
140.9494647329078
 20
148.4097483711656
 30
0.0
 10
141.3111526352539
 20
147.9077749568557
 30
0.0
 10
141.6913013394738
 20
147.4288059416824
 30
0.0
 10
142.089037115404
 20
146.9740114480225
 30
0.0
 10
142.503428851581
 20
146.5445078816422
 30
0.0
 10
142.933489213707
 20
146.1413513413372
 30
0.0
 10
143.3781767471657
 20
145.7655307137913
 30
0.0
 10
143.8364004925762
 20
145.4179602518714
 30
0.0
 10
144.3070223056993
 20
145.0994740326965
 30
0.0
 10
144.7888752781761
 20
144.8108155619007
 30
0.0
 10
145.2807295303433
 20
144.5526501217307
 30
0.0
 10
145.7814598592852
 20
144.3254997764154
 30
0.0
 10
146.2894664682436
 20
144.1299755535814
 30
0.0
 10
146.8048749313892
 20
143.9659151564468
 30
0.0
 10
147.3213950297497
 20
143.8356032884862
 30
0.0
 10
147.8041823302417
 20
143.7419858165298
 30
0.0
 10
148.0831153605903
 20
143.7093094246063
 30
0.0
 10
148.2193042316369
 20
143.693812523554
 30
0.0
  0
LINE
  5
1D1
330
196
100
AcDbEntity
  8
F4465
  6
Continuous
 62
     7
100
AcDbLine
 10
180.0270504045
 20
145.7256266063
 30
0.0
 11
180.8540641693
 21
146.69809961
 31
0.0
  0
ELLIPSE
  5
1D2
330
196
100
AcDbEntity
  8
K811
  6
Continuous
 62
     7
100
AcDbEllipse
 10
148.3366512683
 20
157.9189419599
 30
0.0
 11
7.072335265075967E-16
 21
-11.55000000000001
 31
0.0
210
0.0
220
0.0
230
1.0
 40
0.7544501473
 41
5.227715406472888
 42
6.283185307179586
  0
ELLIPSE
  5
1D3
330
196
100
AcDbEntity
  8
K811
  6
Continuous
 62
     7
100
AcDbEllipse
 10
148.3366512683
 20
157.9189419599
 30
0.0
 11
7.072335265075967E-16
 21
-11.55000000000001
 31
0.0
210
0.0
220
0.0
230
1.0
 40
0.7544501473
 41
0.0
 42
4.197062554296491
  0
ELLIPSE
  5
1D4
330
196
100
AcDbEntity
  8
K811
  6
Continuous
 62
     7
100
AcDbEllipse
 10
148.3366512683
 20
157.9189419599
 30
0.0
 11
-1.446479202843344E-14
 21
9.586506428264581
 31
0.0
210
0.0
220
0.0
230
1.0
 40
0.7544501473
 41
2.851523865584451
 42
6.283185307179584
  0
ELLIPSE
  5
1D5
330
196
100
AcDbEntity
  8
K811
  6
Continuous
 62
     7
100
AcDbEllipse
 10
148.3366512683
 20
157.9189419599
 30
0.0
 11
-1.446479202843344E-14
 21
9.586506428264581
 31
0.0
210
0.0
220
0.0
230
1.0
 40
0.7544501473
 41
0.0000000000000019
 42
0.2968138538322199
  0
ELLIPSE
  5
1D6
330
196
100
AcDbEntity
  8
K811
  6
Continuous
 62
     7
100
AcDbEllipse
 10
148.5335584743
 20
157.9189419599
 30
0.0
 11
-1.315218457931965E-14
 21
-11.85
 31
0.0
210
0.0
220
0.0
230
1.0
 40
0.7544501473
 41
5.213908925389026
 42
6.283185307179586
  0
ELLIPSE
  5
1D7
330
196
100
AcDbEntity
  8
K811
  6
Continuous
 62
     7
100
AcDbEllipse
 10
148.5335584743
 20
157.9189419599
 30
0.0
 11
-1.315218457931965E-14
 21
-11.85
 31
0.0
210
0.0
220
0.0
230
1.0
 40
0.7544501473
 41
0.0
 42
4.210869035380357
  0
ELLIPSE
  5
1D8
330
196
100
AcDbEntity
  8
F418
  6
Continuous
 62
     7
100
AcDbEllipse
 10
93.727719474
 20
157.9189419599
 30
0.0
 11
1.377727649040772E-16
 21
-2.25
 31
0.0
210
0.0
220
0.0
230
1.0
 40
0.7544501473
 41
0.0
 42
6.283185307179586
  0
ELLIPSE
  5
1D9
330
196
100
AcDbEntity
  8
F418
  6
Continuous
 62
     7
100
AcDbEllipse
 10
94.1871696213
 20
157.9189419599
 30
0.0
 11
1.377727649040772E-16
 21
-2.25
 31
0.0
210
0.0
220
0.0
230
1.0
 40
0.7544501473
 41
3.277339566192314
 42
6.147438394577065
  0
ELLIPSE
  5
1DA
330
196
100
AcDbEntity
  8
F418
  6
Continuous
 62
     7
100
AcDbEllipse
 10
94.1871696213
 20
157.9189419599
 30
0.0
 11
-1.059895131190502E-16
 21
1.730940107675851
 31
0.0
210
0.0
220
0.0
230
1.0
 40
0.7544501473
 41
5.34817496507655
 42
6.283185307179586
  0
ELLIPSE
  5
1DB
330
196
100
AcDbEntity
  8
F418
  6
Continuous
 62
     7
100
AcDbEllipse
 10
94.1871696213
 20
157.9189419599
 30
0.0
 11
-1.059895131190502E-16
 21
1.730940107675851
 31
0.0
210
0.0
220
0.0
230
1.0
 40
0.7544501473
 41
0.0
 42
4.076602995692829
  0
ELLIPSE
  5
1DC
330
196
100
AcDbEntity
  8
F418
  6
Continuous
 62
     7
100
AcDbEllipse
 10
94.4497125626
 20
157.9189419599
 30
0.0
 11
-9.184850993605163E-17
 21
1.500000000000003
 31
0.0
210
0.0
220
0.0
230
1.0
 40
0.7544501473
 41
5.641277454558515
 42
6.283185307179586
  0
ELLIPSE
  5
1DD
330
196
100
AcDbEntity
  8
F418
  6
Continuous
 62
     7
100
AcDbEllipse
 10
94.4497125626
 20
157.9189419599
 30
0.0
 11
-9.184850993605163E-17
 21
1.500000000000003
 31
0.0
210
0.0
220
0.0
230
1.0
 40
0.7544501473
 41
0.0
 42
3.783500506210864
  0
ELLIPSE
  5
1DE
330
196
100
AcDbEntity
  8
F418
  6
Continuous
 62
     7
100
AcDbEllipse
 10
96.062136004
 20
157.9189419599
 30
0.0
 11
-9.184850993605134E-17
 21
1.499999999999998
 31
0.0
210
0.0
220
0.0
230
1.0
 40
0.7544501473
 41
0.8160012896932196
 42
2.3255913638966
  0
ELLIPSE
  5
1DF
330
196
100
AcDbEntity
  8
F418
  6
Continuous
 62
     7
100
AcDbEllipse
 10
142.9662571097
 20
157.9189419599
 30
0.0
 11
-3.367778703550821E-16
 21
5.500000009628247
 31
0.0
210
0.0
220
0.0
230
1.0
 40
0.7544501473
 41
3.203431184651201
 42
6.221346776118178
  0
ELLIPSE
  5
1E0
330
196
100
AcDbEntity
  8
F418
  6
Continuous
 62
     7
100
AcDbEllipse
 10
104.3462839938
 20
157.9189419599
 30
0.0
 11
-5.304845577255262E-16
 21
8.663470285389556
 31
0.0
210
0.0
220
0.0
230
1.0
 40
0.7544501473
 41
3.203422079869494
 42
6.221326425539814
  0
ELLIPSE
  5
1E1
330
196
100
AcDbEntity
  8
F418
  6
Continuous
 62
     7
100
AcDbEllipse
 10
97.1585116719
 20
157.9189419599
 30
0.0
 11
5.051668046482834E-16
 21
-8.250000000000004
 31
0.0
210
0.0
220
0.0
230
1.0
 40
0.7544501473
 41
6.133072043694779
 42
6.283185307179586
  0
ELLIPSE
  5
1E2
330
196
100
AcDbEntity
  8
F418
  6
Continuous
 62
     7
100
AcDbEllipse
 10
97.1585116719
 20
157.9189419599
 30
0.0
 11
5.051668046482834E-16
 21
-8.250000000000004
 31
0.0
210
0.0
220
0.0
230
1.0
 40
0.7544501473
 41
0.0
 42
3.292187958839612
  0
ELLIPSE
  5
1E3
330
196
100
AcDbEntity
  8
F418
  6
Continuous
 62
     7
100
AcDbEllipse
 10
93.727719474
 20
157.9189419599
 30
0.0
 11
1.408343819021497E-16
 21
-2.300000000003334
 31
0.0
210
0.0
220
0.0
230
1.0
 40
0.7544501473
 41
0.0
 42
6.283185307179586
  0
ARC
  5
1E4
330
196
100
AcDbEntity
  8
F418
  6
Continuous
 62
     7
100
AcDbCircle
 10
151.1186879031
 20
160.6405460404
 30
0.0
 40
12.91632437042358
100
AcDbArc
 50
220.1732247705
 51
247.8342786628
  0
ARC
  5
1E5
330
196
100
AcDbEntity
  8
F418
  6
Continuous
 62
     7
100
AcDbCircle
 10
151.1196650927
 20
155.1956138801
 30
0.0
 40
12.91817434195003
100
AcDbArc
 50
112.0093467249
 51
139.8279566461
  0
LINE
  5
1E6
330
196
100
AcDbEntity
  8
F418
  6
Continuous
 62
     7
100
AcDbLine
 10
104.750212754
 20
149.2720309688
 30
0.0
 11
143.2226910919
 21
152.4294546105
 31
0.0
  0
LINE
  5
1E7
330
196
100
AcDbEntity
  8
F418
  6
Continuous
 62
     7
100
AcDbLine
 10
143.2226910919
 20
163.4084293094
 30
0.0
 11
104.750212754
 21
166.5658529511
 31
0.0
  0
ARC
  5
1E8
330
196
100
AcDbEntity
  8
F418
  6
Continuous
 62
     7
100
AcDbCircle
 10
102.2364039808
 20
136.1388791026
 30
0.0
 40
30.53058296528573
100
AcDbArc
 50
85.2753485224
 51
101.3485784857
  0
ARC
  5
1E9
330
196
100
AcDbEntity
  8
F418
  6
Continuous
 62
     7
100
AcDbCircle
 10
102.2345354597
 20
179.6825930703
 30
0.0
 40
30.51386880942016
100
AcDbArc
 50
258.6507959609
 51
274.729555863
  0
SPLINE
  5
1EA
330
196
100
AcDbEntity
  8
F418
  6
Continuous
 62
     7
100
AcDbSpline
210
0.0
220
0.0
230
1.0
 70
     8
 71
     3
 72
    51
 73
    47
 74
     0
 42
0.000000001
 43
0.0000000001
 40
0.0
 40
0.0
 40
0.0
 40
0.0
 40
0.0209433752104137
 40
0.0427209613891904
 40
0.0644899656525583
 40
0.0862655315474281
 40
0.1080632739536701
 40
0.1298991548238681
 40
0.1517892825611367
 40
0.173749618141903
 40
0.1957955760012538
 40
0.2179415182456059
 40
0.2402001586344919
 40
0.2625819183610797
 40
0.2850943064342386
 40
0.3077414263576815
 40
0.3305237257967923
 40
0.3534380926552535
 40
0.3764783494029463
 40
0.3996361107235109
 40
0.4229018691134
 40
0.4462660939023508
 40
0.4697201037412846
 40
0.4932565133610127
 40
0.5168691485617538
 40
0.540551990445206
 40
0.5642973161031013
 40
0.5880970057264321
 40
0.6119398548787075
 40
0.635810884887603
 40
0.6596912535371969
 40
0.6835588609687062
 40
0.707389590132692
 40
0.7311589614491653
 40
0.7548438777008272
 40
0.7784241317422607
 40
0.8018834453701278
 40
0.8252099559140619
 40
0.8483962051275149
 40
0.8714387694208263
 40
0.8943376924794151
 40
0.91709585803172
 40
0.93971839730474
 40
0.9622121825186379
 40
0.9845854247985731
 40
1.0
 40
1.0
 40
1.0
 40
1.0
 10
96.2226327496398
 20
166.0745356176699
 30
0.0
 10
96.05587183507261
 20
166.038515837555
 30
0.0
 10
95.76922503823221
 20
165.9752244298799
 30
0.0
 10
95.30294989087545
 20
165.8327598433868
 30
0.0
 10
94.85232101946289
 20
165.6632537093971
 30
0.0
 10
94.41049914521416
 20
165.4633389157784
 30
0.0
 10
93.98285195547781
 20
165.2354499270829
 30
0.0
 10
93.5697259584224
 20
164.9800130070564
 30
0.0
 10
93.17273204077026
 20
164.6980397520605
 30
0.0
 10
92.793068482213
 20
164.3904279164863
 30
0.0
 10
92.43198253068948
 20
164.05815066339
 30
0.0
 10
92.09065825935117
 20
163.7022128190986
 30
0.0
 10
91.77025802159189
 20
163.3236758173632
 30
0.0
 10
91.47191997779413
 20
162.9236696929671
 30
0.0
 10
91.19676283263168
 20
162.50341244486
 30
0.0
 10
90.9458822048333
 20
162.0642282930707
 30
0.0
 10
90.72034187669561
 20
161.6075629904251
 30
0.0
 10
90.52115950714278
 20
161.1349921536986
 30
0.0
 10
90.34928910727727
 20
160.6482199690576
 30
0.0
 10
90.20560333795649
 20
160.149067418413
 30
0.0
 10
90.09087909674093
 20
159.6394518387926
 30
0.0
 10
90.00578903588702
 20
159.1213620969215
 30
0.0
 10
89.95089987203266
 20
158.5968350713619
 30
0.0
 10
89.92667612294203
 20
158.0679388858154
 30
0.0
 10
89.93348594846839
 20
157.5367698351268
 30
0.0
 10
89.9716031246374
 20
157.0054666058352
 30
0.0
 10
90.04120155959863
 20
156.4762137182617
 30
0.0
 10
90.14234319690384
 20
155.9512561433063
 30
0.0
 10
90.2749593457384
 20
155.4329038573911
 30
0.0
 10
90.43882099960335
 20
154.9235435666518
 30
0.0
 10
90.6335088325448
 20
154.425622561822
 30
0.0
 10
90.85838813867764
 20
153.9416157320962
 30
0.0
 10
91.11259434816863
 20
153.4739788811478
 30
0.0
 10
91.39503251532736
 20
153.0250950435219
 30
0.0
 10
91.70439102027744
 20
152.5972221233072
 30
0.0
 10
92.0391661495655
 20
152.1924495735141
 30
0.0
 10
92.39769391315944
 20
151.8126680714753
 30
0.0
 10
92.77817943707333
 20
151.4595555999946
 30
0.0
 10
93.17873729125584
 20
151.1345686140491
 30
0.0
 10
93.59737752550836
 20
150.8389685299478
 30
0.0
 10
94.03217140022593
 20
150.5737540335817
 30
0.0
 10
94.48073152931286
 20
150.3399607963563
 30
0.0
 10
94.94221029529994
 20
150.137608664178
 30
0.0
 10
95.40997120284645
 20
149.9696504628043
 30
0.0
 10
95.84890911395705
 20
149.8419168648682
 30
0.0
 10
96.10443293722562
 20
149.7899468152781
 30
0.0
 10
96.22757074383806
 20
149.7653593998475
 30
0.0
  0
ENDBLK
  5
1EC
330
196
100
AcDbEntity
  8
0
100
AcDbBlockEnd
  0
BLOCK
  5
272
330
1ED
100
AcDbEntity
  8
0
100
AcDbBlockBegin
  2
SE3
 70
     0
 10
0.0
 20
0.0
 30
0.0
  3
SE3
  1

  0
ELLIPSE
  5
1EF
330
1ED
100
AcDbEntity
  8
F794
  6
Continuous
 62
     7
100
AcDbEllipse
 10
425.9466067849
 20
148.7964726474
 30
0.0
 11
9.689343375234564
 21
12.92049244250381
 31
0.0
210
0.0
220
0.0
230
1.0
 40
0.8145300902
 41
0.0330810767465728
 42
0.1366570064851523
  0
ELLIPSE
  5
1F0
330
1ED
100
AcDbEntity
  8
F794
  6
Continuous
 62
     7
100
AcDbEllipse
 10
425.9466067849
 20
148.7964726474
 30
0.0
 11
9.689343375234564
 21
12.92049244250381
 31
0.0
210
0.0
220
0.0
230
1.0
 40
0.8145300902
 41
3.004935647103929
 42
3.108511576841673
  0
ELLIPSE
  5
1F1
330
1ED
100
AcDbEntity
  8
F794
  6
Continuous
 62
     7
100
AcDbEllipse
 10
425.2504346818
 20
149.3185464449
 30
0.0
 11
9.689343375234568
 21
12.92049244250381
 31
0.0
210
0.0
220
0.0
230
1.0
 40
0.8145300902
 41
0.0
 42
0.1816039096691749
  0
ELLIPSE
  5
1F2
330
1ED
100
AcDbEntity
  8
F794
  6
Continuous
 62
     7
100
AcDbEllipse
 10
425.2504346818
 20
149.3185464449
 30
0.0
 11
9.689343375234568
 21
12.92049244250381
 31
0.0
210
0.0
220
0.0
230
1.0
 40
0.8145300902
 41
2.961761490045992
 42
6.283185307179584
  0
SPLINE
  5
1F3
330
1ED
100
AcDbEntity
  8
F794
  6
Continuous
 62
     7
100
AcDbSpline
210
0.0
220
0.0
230
1.0
 70
     8
 71
     3
 72
    24
 73
    20
 74
     0
 42
0.000000001
 43
0.0000000001
 40
0.4840475520130206
 40
0.4840475520130206
 40
0.4840475520130206
 40
0.4840475520130206
 40
0.5000000000000001
 40
0.5000000000000001
 40
0.5625000000000001
 40
0.5625000000000001
 40
0.6250000000000002
 40
0.6250000000000002
 40
0.6875000000000002
 40
0.6875000000000002
 40
0.7500000000000002
 40
0.7500000000000002
 40
0.8125000000000002
 40
0.8125000000000002
 40
0.8750000000000001
 40
0.8750000000000001
 40
0.9375000000000001
 40
0.9375000000000001
 40
0.9848282960099791
 40
0.9848282960099791
 40
0.9848282960099791
 40
0.9848282960099791
 10
433.7951004370748
 20
123.5372106345249
 30
0.0
 10
434.131644715637
 20
123.2829399123508
 30
0.0
 10
434.483773982321
 20
123.0493634138587
 30
0.0
 10
436.2846418286623
 20
122.0096318779987
 30
0.0
 10
437.9339754974646
 20
121.5221000829407
 30
0.0
 10
441.4133499310129
 20
121.3020838000351
 30
0.0
 10
443.2420217104955
 20
121.5696858791996
 30
0.0
 10
446.8017052621376
 20
122.8197757780111
 30
0.0
 10
448.5313164508251
 20
123.8017717406643
 30
0.0
 10
451.6293795684353
 20
126.3316529661921
 30
0.0
 10
452.9966125418146
 20
127.8785428288354
 30
0.0
 10
455.1614031997488
 20
131.3030638979233
 30
0.0
 10
455.9581091316206
 20
133.1793477015609
 30
0.0
 10
456.8600575760846
 20
136.977156324801
 30
0.0
 10
456.9649452104787
 20
138.8971868688842
 30
0.0
 10
456.4667379669857
 20
142.4901011106091
 30
0.0
 10
455.8638391123744
 20
144.1615711499213
 30
0.0
 10
454.2625290301944
 20
146.6577761070734
 30
0.0
 10
453.3960651055678
 20
147.5889192280217
 30
0.0
 10
452.3930783332695
 20
148.3372786229046
 30
0.0
  0
ELLIPSE
  5
1F4
330
1ED
100
AcDbEntity
  8
F794
  6
Continuous
 62
     7
100
AcDbEllipse
 10
414.7341594058
 20
120.5074556911
 30
0.0
 11
7.290481095312871
 21
-4.608634331218467
 31
0.0
210
0.0
220
0.0
230
1.0
 40
0.056633901
 41
0.0
 42
6.283185307179586
  0
ELLIPSE
  5
1F5
330
1ED
100
AcDbEntity
  8
F794
  6
Continuous
 62
     7
100
AcDbEllipse
 10
414.8675286096
 20
120.7184348205
 30
0.0
 11
7.079162802695127
 21
-4.475050727415024
 31
0.0
210
0.0
220
0.0
230
1.0
 40
0.056633901
 41
3.348615014179781
 42
6.076162946647328
  0
SPLINE
  5
1F6
330
1ED
100
AcDbEntity
  8
F794
  6
Continuous
 62
     7
100
AcDbSpline
210
0.0
220
0.0
230
1.0
 70
     8
 71
     3
 72
    12
 73
     8
 74
     0
 42
0.000000001
 43
0.0000000001
 40
0.0
 40
0.0
 40
0.0
 40
0.0
 40
0.0624999999999992
 40
0.0624999999999992
 40
0.1249999999999983
 40
0.1249999999999983
 40
0.1335521030328597
 40
0.1335521030328597
 40
0.1335521030328597
 40
0.1335521030328597
 10
413.3666407411147
 20
131.757429367466
 30
0.0
 10
412.5263239432526
 20
132.4532597078399
 30
0.0
 10
412.0730353294172
 20
133.2446756724997
 30
0.0
 10
411.7605613597726
 20
134.7747873134184
 30
0.0
 10
411.8916376610454
 20
135.5151028960132
 30
0.0
 10
412.2574367185773
 20
136.2307147633128
 30
0.0
 10
412.3050557591774
 20
136.3149333978518
 30
0.0
 10
412.3561277874447
 20
136.3968323738399
 30
0.0
  0
SPLINE
  5
1F7
330
1ED
100
AcDbEntity
  8
F794
  6
Continuous
 62
     7
100
AcDbSpline
210
0.0
220
0.0
230
1.0
 70
     8
 71
     3
 72
    22
 73
    18
 74
     0
 42
0.000000001
 43
0.0000000001
 40
0.6297569560818613
 40
0.6297569560818613
 40
0.6297569560818613
 40
0.6297569560818613
 40
0.6874999999999987
 40
0.6874999999999987
 40
0.7187499999999989
 40
0.7187499999999989
 40
0.749999999999999
 40
0.749999999999999
 40
0.7812499999999991
 40
0.7812499999999991
 40
0.8124999999999992
 40
0.8124999999999992
 40
0.8749999999999996
 40
0.8749999999999996
 40
0.9374999999999998
 40
0.9374999999999998
 40
1.0
 40
1.0
 40
1.0
 40
1.0
 10
431.025177939356
 20
126.6278785651667
 30
0.0
 10
431.3544116504431
 20
127.1522720061376
 30
0.0
 10
431.4712101786371
 20
127.751131387577
 30
0.0
 10
431.0565727410983
 20
128.5173176635692
 30
0.0
 10
430.8011216905068
 20
128.7453938601079
 30
0.0
 10
430.0596854919847
 20
129.0963426947023
 30
0.0
 10
429.5896777356669
 20
129.2117005562226
 30
0.0
 10
428.5270827553533
 20
129.3586020005907
 30
0.0
 10
427.9247418706462
 20
129.3920224000875
 30
0.0
 10
426.673552669994
 20
129.4220093380439
 30
0.0
 10
426.0180873185105
 20
129.4194991129283
 30
0.0
 10
423.9755747406348
 20
129.4105507378228
 30
0.0
 10
422.5252719311022
 20
129.4030717299092
 30
0.0
 10
419.5863560249301
 20
129.5845302444337
 30
0.0
 10
418.0925390939331
 20
129.7759576421394
 30
0.0
 10
415.3957598743137
 20
130.5107122075598
 30
0.0
 10
414.2069575389769
 20
131.0615990270923
 30
0.0
 10
413.3666407411147
 20
131.757429367466
 30
0.0
  0
ELLIPSE
  5
1F8
330
1ED
100
AcDbEntity
  8
F794
  6
Continuous
 62
     7
100
AcDbEllipse
 10
425.2504346818
 20
149.3185464449
 30
0.0
 11
-10.74730657157629
 21
-14.33125940094584
 31
0.0
210
0.0
220
0.0
230
1.0
 40
0.8145300902
 41
0.4910788256521457
 42
3.666952923653591
  0
ELLIPSE
  5
1F9
330
1ED
100
AcDbEntity
  8
F794
  6
Continuous
 62
     7
100
AcDbEllipse
 10
425.2504346818
 20
149.3185464449
 30
0.0
 11
-10.74730657157629
 21
-14.33125940094584
 31
0.0
210
0.0
220
0.0
230
1.0
 40
0.8145300902
 41
5.763132265365047
 42
5.987666432190936
  0
SPLINE
  5
1FA
330
1ED
100
AcDbEntity
  8
F794
  6
Continuous
 62
     7
100
AcDbSpline
210
0.0
220
0.0
230
1.0
 70
     8
 71
     3
 72
    16
 73
    12
 74
     0
 42
0.000000001
 43
0.0000000001
 40
0.0
 40
0.0
 40
0.0
 40
0.0
 40
0.1249999999999995
 40
0.1249999999999995
 40
0.1874999999999998
 40
0.1874999999999998
 40
0.2500000000000001
 40
0.2500000000000001
 40
0.3750000000000006
 40
0.3750000000000006
 40
0.4365812034304762
 40
0.4365812034304762
 40
0.4365812034304762
 40
0.4365812034304762
 10
421.2780333827158
 20
132.552697463455
 30
0.0
 10
424.0031791585988
 20
132.0455728473141
 30
0.0
 10
426.6162588595926
 20
131.8095724857213
 30
0.0
 10
429.8683495151835
 20
131.2390000165728
 30
0.0
 10
430.8419258180052
 20
131.0076959522697
 30
0.0
 10
432.3938880814101
 20
130.3734147927532
 30
0.0
 10
432.9593694684771
 20
129.9712838559628
 30
0.0
 10
433.9540368404718
 20
128.5852204602207
 30
0.0
 10
433.6844883164628
 20
127.4854821769582
 30
0.0
 10
432.3184362271067
 20
126.5986303067663
 30
0.0
 10
431.7084004443396
 20
126.4318848590257
 30
0.0
 10
430.9448367777217
 20
126.4882280014165
 30
0.0
  0
SPLINE
  5
1FB
330
1ED
100
AcDbEntity
  8
F794
  6
Continuous
 62
     7
100
AcDbSpline
210
0.0
220
0.0
230
1.0
 70
     8
 71
     3
 72
    18
 73
    14
 74
     0
 42
0.000000001
 43
0.0000000001
 40
0.0
 40
0.0
 40
0.0
 40
0.0
 40
0.2500000000000001
 40
0.2500000000000001
 40
0.375
 40
0.375
 40
0.5
 40
0.5
 40
0.6249999999999999
 40
0.6249999999999999
 40
0.7499999999999998
 40
0.7499999999999998
 40
1.0
 40
1.0
 40
1.0
 40
1.0
 10
411.5693399452509
 20
138.1580142330549
 30
0.0
 10
412.122857296099
 20
137.2938208548557
 30
0.0
 10
412.5410449227335
 20
136.3264653110137
 30
0.0
 10
413.2679077864031
 20
134.9513431477207
 30
0.0
 10
413.5261508734488
 20
134.505131982246
 30
0.0
 10
414.1514996268328
 20
133.6956958503931
 30
0.0
 10
414.5220233880754
 20
133.339673868655
 30
0.0
 10
415.3937858600749
 20
132.8277294808317
 30
0.0
 10
415.8966313440704
 20
132.6724117376286
 30
0.0
 10
416.9362508639621
 20
132.5115525383052
 30
0.0
 10
417.4790507134687
 20
132.4980701550905
 30
0.0
 10
419.1070123880621
 20
132.5205194314402
 30
0.0
 10
420.2075204035571
 20
132.6196795128534
 30
0.0
 10
421.2780333827158
 20
132.552697463455
 30
0.0
  0
ELLIPSE
  5
1FC
330
1ED
100
AcDbEntity
  8
F794
  6
Continuous
 62
     7
100
AcDbEllipse
 10
415.267636221
 20
121.3513722088
 30
0.0
 11
8.875368289946129
 21
-5.610511359744232
 31
0.0
210
0.0
220
0.0
230
1.0
 40
0.056633901
 41
6.282531921362207
 42
6.283185307179586
  0
ELLIPSE
  5
1FD
330
1ED
100
AcDbEntity
  8
F794
  6
Continuous
 62
     7
100
AcDbEllipse
 10
415.267636221
 20
121.3513722088
 30
0.0
 11
8.875368289946129
 21
-5.610511359744232
 31
0.0
210
0.0
220
0.0
230
1.0
 40
0.056633901
 41
0.0000000000000138
 42
3.141584224312288
  0
ELLIPSE
  5
1FE
330
1ED
100
AcDbEntity
  8
F794
  6
Continuous
 62
     7
100
AcDbEllipse
 10
414.7341594058
 20
120.5074556911
 30
0.0
 11
-8.030095119475076
 21
5.076176944530489
 31
0.0
210
0.0
220
0.0
230
1.0
 40
0.056633901
 41
0.0
 42
0.3941226354206528
  0
ELLIPSE
  5
1FF
330
1ED
100
AcDbEntity
  8
F794
  6
Continuous
 62
     7
100
AcDbEllipse
 10
414.7341594058
 20
120.5074556911
 30
0.0
 11
-8.030095119475076
 21
5.076176944530489
 31
0.0
210
0.0
220
0.0
230
1.0
 40
0.056633901
 41
0.3941226354206524
 42
2.826309739354703
  0
ELLIPSE
  5
200
330
1ED
100
AcDbEntity
  8
F794
  6
Continuous
 62
     7
100
AcDbEllipse
 10
414.7341594058
 20
120.5074556911
 30
0.0
 11
-8.030095119475076
 21
5.076176944530489
 31
0.0
210
0.0
220
0.0
230
1.0
 40
0.056633901
 41
2.826309739354703
 42
3.758209541586055
  0
ELLIPSE
  5
201
330
1ED
100
AcDbEntity
  8
F794
  6
Continuous
 62
     7
100
AcDbEllipse
 10
414.7341594058
 20
120.5074556911
 30
0.0
 11
-8.030095119475076
 21
5.076176944530489
 31
0.0
210
0.0
220
0.0
230
1.0
 40
0.056633901
 41
3.758209541586055
 42
6.055547283622716
  0
ELLIPSE
  5
202
330
1ED
100
AcDbEntity
  8
F794
  6
Continuous
 62
     7
100
AcDbEllipse
 10
414.7341594058
 20
120.5074556911
 30
0.0
 11
-8.030095119475076
 21
5.076176944530489
 31
0.0
210
0.0
220
0.0
230
1.0
 40
0.056633901
 41
6.055547283622716
 42
6.283185307179586
  0
ELLIPSE
  5
203
330
1ED
100
AcDbEntity
  8
F794
  6
Continuous
 62
     7
100
AcDbEllipse
 10
485.4448375245
 20
68.2516745117
 30
0.0
 11
-10.5
 21
-2.832791573980248E-15
 31
0.0
210
0.0
220
0.0
230
1.0
 40
0.5773502692
 41
0.0
 42
3.141592653589793
  0
SPLINE
  5
204
330
1ED
100
AcDbEntity
  8
F794
  6
Continuous
 62
     7
100
AcDbSpline
210
0.0
220
0.0
230
1.0
 70
     8
 71
     3
 72
    24
 73
    20
 74
     0
 42
0.000000001
 43
0.0000000001
 40
0.0164059642996981
 40
0.0164059642996981
 40
0.0164059642996981
 40
0.0164059642996981
 40
0.0312629361212784
 40
0.0626037273027452
 40
0.0937494495341871
 40
0.1250620314317025
 40
0.156276816076717
 40
0.1875063314936851
 40
0.218812257808288
 40
0.249961263543787
 40
0.2812900004672707
 40
0.3124547503750139
 40
0.3437391310361551
 40
0.375003236430923
 40
0.406184980853658
 40
0.4375092468842545
 40
0.4686534124920297
 40
0.4999707935539828
 40
0.5266831807965411
 40
0.5266831807965411
 40
0.5266831807965411
 40
0.5266831807965411
 10
502.9073411652919
 20
112.3691295086248
 30
0.0
 10
503.3488356839912
 20
112.0554149949178
 30
0.0
 10
504.6429240967326
 20
111.042983762477
 30
0.0
 10
506.3682282618057
 20
109.1777456377449
 30
0.0
 10
507.6560770333648
 20
106.7237460552227
 30
0.0
 10
508.0900088380023
 20
104.1750613889075
 30
0.0
 10
507.6536165021632
 20
101.6243607813619
 30
0.0
 10
506.3645651110062
 20
99.17184298332432
 30
0.0
 10
504.2724768135967
 20
96.91327026558484
 30
0.0
 10
501.4551712560308
 20
94.93158173547539
 30
0.0
 10
498.0273825301625
 20
93.30744133442947
 30
0.0
 10
494.1114060012133
 20
92.0989279394461
 30
0.0
 10
489.8651656485379
 20
91.35477058782176
 30
0.0
 10
485.4482416697734
 20
91.10355339891026
 30
0.0
 10
481.0295468458827
 20
91.35431026718474
 30
0.0
 10
476.7856022023392
 20
92.09711629711386
 30
0.0
 10
472.8687332151921
 20
93.30506337560016
 30
0.0
 10
469.6034821573838
 20
94.85094518838547
 30
0.0
 10
467.8322770153259
 20
96.06111622143617
 30
0.0
 10
467.1031416756559
 20
96.6535341963483
 30
0.0
  0
ELLIPSE
  5
205
330
1ED
100
AcDbEntity
  8
F794
  6
Continuous
 62
     7
100
AcDbEllipse
 10
485.4448375245
 20
67.4351779308
 30
0.0
 11
-9.350549714240035
 21
-1.133116629592099E-14
 31
0.0
210
0.0
220
0.0
230
1.0
 40
0.5773502692
 41
0.9489153291014452
 42
2.192677324488347
  0
ARC
  5
206
330
1ED
100
AcDbEntity
  8
F794
  6
Continuous
 62
     7
100
AcDbCircle
 10
392.2983957114
 20
70.0819237019
 30
0.0
 40
67.65225322022269
100
AcDbArc
 50
52.1778451602
 51
55.5671473353
  0
ARC
  5
207
330
1ED
100
AcDbEntity
  8
F794
  6
Continuous
 62
     7
100
AcDbCircle
 10
504.5046253069
 20
218.7965734555
 30
0.0
 40
87.61668185618693
100
AcDbArc
 50
220.5407451741
 51
233.5135737757
  0
LINE
  5
208
330
1ED
100
AcDbEntity
  8
F794
  6
Continuous
 62
     7
100
AcDbLine
 10
412.3630801782
 20
136.4072182778
 30
0.0
 11
406.3922679311
 21
126.9618835685
 31
0.0
  0
LINE
  5
209
330
1ED
100
AcDbEntity
  8
F794
  6
Continuous
 62
     7
100
AcDbLine
 10
424.143004511
 20
115.7408608491
 30
0.0
 11
431.013112128
 21
126.6088069921
 31
0.0
  0
SPLINE
  5
20A
330
1ED
100
AcDbEntity
  8
F794
  6
Continuous
 62
     7
100
AcDbSpline
210
0.0
220
0.0
230
1.0
 70
     8
 71
     3
 72
    10
 73
     6
 74
     0
 42
0.000000001
 43
0.0000000001
 40
0.0
 40
0.0
 40
0.0
 40
0.0
 40
0.0084794009349682
 40
0.1077289595743346
 40
0.1748104583553427
 40
0.1748104583553427
 40
0.1748104583553427
 40
0.1748104583553427
 10
431.0302380931755
 20
126.6163900652115
 30
0.0
 10
431.0339353192875
 20
126.6243705364615
 30
0.0
 10
431.0740792523137
 20
126.7114999575613
 30
0.0
 10
431.1334211485913
 20
126.7515428934567
 30
0.0
 10
431.1497924365042
 20
126.7649655760341
 30
0.0
 10
431.1498311259612
 20
126.7660214219669
 30
0.0
  0
SPLINE
  5
20B
330
1ED
100
AcDbEntity
  8
F794
  6
Continuous
 62
     7
100
AcDbSpline
210
0.0
220
0.0
230
1.0
 70
     8
 71
     3
 72
    13
 73
     9
 74
     0
 42
0.000000001
 43
0.0000000001
 40
0.0
 40
0.0
 40
0.0
 40
0.0
 40
0.3888438555008165
 40
0.5433528663590154
 40
0.6607732194518798
 40
0.7767506490737455
 40
0.895655082389169
 40
1.0
 40
1.0
 40
1.0
 40
1.0
 10
422.4799154044786
 20
115.44062057516
 30
0.0
 10
422.6273834284096
 20
115.3797315838509
 30
0.0
 10
422.8124077141791
 20
115.3127678778686
 30
0.0
 10
423.0962835737338
 20
115.2575627359823
 30
0.0
 10
423.3349289932348
 20
115.2493073402139
 30
0.0
 10
423.6224983480039
 20
115.3046609863895
 30
0.0
 10
423.9316122005608
 20
115.4675066862979
 30
0.0
 10
424.0603028345062
 20
115.640622587842
 30
0.0
 10
424.1301318939339
 20
115.7368882911801
 30
0.0
  0
SPLINE
  5
20C
330
1ED
100
AcDbEntity
  8
F794
  6
Continuous
 62
     7
100
AcDbSpline
210
0.0
220
0.0
230
1.0
 70
     8
 71
     3
 72
    15
 73
    11
 74
     0
 42
0.000000001
 43
0.0000000001
 40
0.0
 40
0.0
 40
0.0
 40
0.0
 40
0.0559777864933061
 40
0.1483148703158614
 40
0.2313042589644621
 40
0.3155594560839053
 40
0.4115412474754372
 40
0.5386926472808448
 40
0.7406345152021226
 40
1.0
 40
1.0
 40
1.0
 40
1.0
 10
406.4071148859927
 20
126.9532074418317
 30
0.0
 10
406.361791731225
 20
126.8870371581065
 30
0.0
 10
406.2609932310401
 20
126.7367278242013
 30
0.0
 10
406.2180918254871
 20
126.4296242518813
 30
0.0
 10
406.2564862165326
 20
126.137939398182
 30
0.0
 10
406.3452931195216
 20
125.9142445736236
 30
0.0
 10
406.4518108855592
 20
125.740747895507
 30
0.0
 10
406.5880747308715
 20
125.5711330936358
 30
0.0
 10
406.7828607928119
 20
125.3718491090349
 30
0.0
 10
406.9722817995865
 20
125.2078747399845
 30
0.0
 10
407.0990492561136
 20
125.1002916453041
 30
0.0
  0
LINE
  5
20D
330
1ED
100
AcDbEntity
  8
F794
  6
Continuous
 62
     7
100
AcDbLine
 10
479.3279046545
 20
63.3244328133
 30
0.0
 11
479.9975342007
 21
63.0473285541
 31
0.0
  0
LINE
  5
20E
330
1ED
100
AcDbEntity
  8
F794
  6
Continuous
 62
     7
100
AcDbLine
 10
490.8921408482
 20
63.0473285541
 30
0.0
 11
491.5617703945
 21
63.3244328133
 31
0.0
  0
ARC
  5
20F
330
1ED
100
AcDbEntity
  8
F794
  6
Continuous
 62
     7
100
AcDbCircle
 10
-3707.4674104337
 20
-5042.6412619738
 30
0.0
 40
6621.132106105466
100
AcDbArc
 50
50.9136594061
 51
51.2866176648
  0
ARC
  5
210
330
1ED
100
AcDbEntity
  8
F794
  6
Continuous
 62
     7
100
AcDbCircle
 10
19611.2636012332
 20
26999.4732394364
 30
0.0
 40
32985.5369295491
100
AcDbArc
 50
234.490943521
 51
234.5990265625
  0
LINE
  5
211
330
1ED
100
AcDbEntity
  8
F794
  6
Continuous
 62
     7
100
AcDbLine
 10
495.9448375245
 20
68.2516745117
 30
0.0
 11
495.9448375245
 21
92.7137343642
 31
0.0
  0
LINE
  5
212
330
1ED
100
AcDbEntity
  8
F794
  6
Continuous
 62
     7
100
AcDbLine
 10
474.9448375245
 20
92.7135828531
 30
0.0
 11
474.9448375245
 21
68.2516745117
 31
0.0
  0
SPLINE
  5
213
330
1ED
100
AcDbEntity
  8
K109
  6
Continuous
 62
     7
100
AcDbSpline
210
0.0
220
0.0
230
1.0
 70
     8
 71
     3
 72
     9
 73
     5
 74
     0
 42
0.000000001
 43
0.0000000001
 40
0.4575652932991228
 40
0.4575652932991228
 40
0.4575652932991228
 40
0.4575652932991228
 40
0.4818950366278851
 40
0.5112769935463053
 40
0.5112769935463053
 40
0.5112769935463053
 40
0.5112769935463053
 10
436.5314904265484
 20
160.6793619892397
 30
0.0
 10
436.2986986396224
 20
160.9220563598092
 30
0.0
 10
435.761145506944
 20
161.4327242458212
 30
0.0
 10
435.1749058683262
 20
161.8845191294196
 30
0.0
 10
434.841041524061
 20
162.1129760670804
 30
0.0
  0
SPLINE
  5
214
330
1ED
100
AcDbEntity
  8
K109
  6
Continuous
 62
     7
100
AcDbSpline
210
0.0
220
0.0
230
1.0
 70
     8
 71
     3
 72
     9
 73
     5
 74
     0
 42
0.000000001
 43
0.0000000001
 40
0.4860516575800096
 40
0.4860516575800096
 40
0.4860516575800096
 40
0.4860516575800096
 40
0.5127576192349458
 40
0.5383656487205866
 40
0.5383656487205866
 40
0.5383656487205866
 40
0.5383656487205866
 10
415.5692130116124
 20
136.5987810685688
 30
0.0
 10
415.8511759883332
 20
136.3626817134717
 30
0.0
 10
416.4267677870419
 20
135.9289452724768
 30
0.0
 10
417.0438970078283
 20
135.554625545262
 30
0.0
 10
417.3549330174694
 20
135.38622145169
 30
0.0
  0
ELLIPSE
  5
215
330
1ED
100
AcDbEntity
  8
K809
  6
Continuous
 62
     7
100
AcDbEllipse
 10
424.6006740523
 20
149.8058153226
 30
0.0
 11
-9.599349473916625
 21
-12.80048786873441
 31
0.0
210
0.0
220
0.0
230
1.0
 40
0.8145300902
 41
6.207688595776803
 42
6.283185307179586
  0
ELLIPSE
  5
216
330
1ED
100
AcDbEntity
  8
K809
  6
Continuous
 62
     7
100
AcDbEllipse
 10
424.6006740523
 20
149.8058153226
 30
0.0
 11
-9.599349473916625
 21
-12.80048786873441
 31
0.0
210
0.0
220
0.0
230
1.0
 40
0.8145300902
 41
2.897502921996503
 42
3.371334066037817
  0
ELLIPSE
  5
217
330
1ED
100
AcDbEntity
  8
K809
  6
Continuous
 62
     7
100
AcDbEllipse
 10
424.6006740523
 20
149.8058153226
 30
0.0
 11
-9.599349473916625
 21
-12.80048786873441
 31
0.0
210
0.0
220
0.0
230
1.0
 40
0.8145300902
 41
0.0977799753317372
 42
2.897502921996503
  0
ELLIPSE
  5
218
330
1ED
100
AcDbEntity
  8
K809
  6
Continuous
 62
     7
100
AcDbEllipse
 10
424.6006740523
 20
149.8058153226
 30
0.0
 11
-9.599349473916625
 21
-12.80048786873441
 31
0.0
210
0.0
220
0.0
230
1.0
 40
0.8145300902
 41
0.000000000000001
 42
0.0977799753317372
  0
ELLIPSE
  5
219
330
1ED
100
AcDbEntity
  8
K809
  6
Continuous
 62
     7
100
AcDbEllipse
 10
425.2968461554
 20
149.2837415251
 30
0.0
 11
-9.599349473916618
 21
-12.80048786873441
 31
0.0
210
0.0
220
0.0
230
1.0
 40
0.8145300902
 41
0.0000000000000003
 42
3.141592653589793
  0
SPLINE
  5
21A
330
1ED
100
AcDbEntity
  8
K809
  6
Continuous
 62
     7
100
AcDbSpline
210
0.0
220
0.0
230
1.0
 70
     8
 71
     3
 72
    10
 73
     6
 74
     0
 42
0.000000001
 43
0.0000000001
 40
0.9241851741413334
 40
0.9241851741413334
 40
0.9241851741413334
 40
0.9241851741413334
 40
0.9430691473946344
 40
0.9774493648098422
 40
1.0
 40
1.0
 40
1.0
 40
1.0
 10
412.3496266485728
 20
139.8490309352805
 30
0.0
 10
412.4815904752292
 20
139.6466504899638
 30
0.0
 10
412.8713130458629
 20
139.0873391305602
 30
0.0
 10
413.499853291435
 20
138.3245421419084
 30
0.0
 10
413.9963215540827
 20
137.8737058994114
 30
0.0
 10
414.2294178131546
 20
137.6645690853965
 30
0.0
  0
LINE
  5
21B
330
1ED
100
AcDbEntity
  8
K809
  6
Continuous
 62
     7
100
AcDbLine
 10
434.8961956293
 20
162.0842293938
 30
0.0
 11
434.2000235262
 21
162.6063031913
 31
0.0
  0
LINE
  5
21C
330
1ED
100
AcDbEntity
  8
K809
  6
Continuous
 62
     7
100
AcDbLine
 10
415.0013245784
 20
137.0053274539
 30
0.0
 11
415.6974966815
 21
136.4832536564
 31
0.0
  0
ELLIPSE
  5
21D
330
1ED
100
AcDbEntity
  8
F807
  6
Continuous
 62
     7
100
AcDbEllipse
 10
414.9475486292
 20
120.8450199211
 30
0.0
 11
6.212757802961468
 21
-3.927357951820367
 31
0.0
210
0.0
220
0.0
230
1.0
 40
0.056633901
 41
-0.7098333435194899
 42
-0.4131273706804359
  0
ELLIPSE
  5
21E
330
1ED
100
AcDbEntity
  8
F807
  6
Continuous
 62
     7
100
AcDbEllipse
 10
414.9475486292
 20
120.8450199211
 30
0.0
 11
6.973503656382205
 21
-4.408258925510896
 31
0.0
210
0.0
220
0.0
230
1.0
 40
0.056633901
 41
-0.7098333435196471
 42
-0.4131273706804892
  0
LINE
  5
21F
330
1ED
100
AcDbEntity
  8
F807
  6
Continuous
 62
     7
100
AcDbLine
 10
420.0740421758
 20
117.2441024087
 30
0.0
 11
419.5147883343
 21
117.6369297736
 31
0.0
  0
LINE
  5
220
330
1ED
100
AcDbEntity
  8
F807
  6
Continuous
 62
     7
100
AcDbLine
 10
417.0001385247
 20
119.0887635181
 30
0.0
 11
417.2420859872
 21
119.4715045373
 31
0.0
  0
LINE
  5
221
330
1ED
100
AcDbEntity
  8
F807
  6
Continuous
 62
     7
100
AcDbLine
 10
417.5153419134
 20
119.2911258229
 30
0.0
 11
417.251476063
 21
118.8737117137
 31
0.0
  0
LINE
  5
222
330
1ED
100
AcDbEntity
  8
F807
  6
Continuous
 62
     7
100
AcDbLine
 10
419.6455106704
 20
117.8437217756
 30
0.0
 11
419.5147883343
 21
117.6369297736
 31
0.0
  0
LINE
  5
223
330
1ED
100
AcDbEntity
  8
F807
  6
Continuous
 62
     7
100
AcDbLine
 10
417.0001385247
 20
119.0887635181
 30
0.0
 11
417.251476063
 21
118.8737117137
 31
0.0
  0
LINE
  5
224
330
1ED
100
AcDbEntity
  8
F807
  6
Continuous
 62
     7
100
AcDbLine
 10
420.5483286729
 20
117.1068113509
 30
0.0
 11
420.5874114508
 21
117.1686370965
 31
0.0
  0
LINE
  5
225
330
1ED
100
AcDbEntity
  8
F807
  6
Continuous
 62
     7
100
AcDbLine
 10
421.2468425911
 20
116.6691683958
 30
0.0
 11
421.2341384742
 21
116.649071526
 31
0.0
  0
LINE
  5
226
330
1ED
100
AcDbEntity
  8
F807
  6
Continuous
 62
     7
100
AcDbLine
 10
420.5483286729
 20
117.1068113509
 30
0.0
 11
421.2341384742
 21
116.649071526
 31
0.0
  0
ELLIPSE
  5
227
330
1ED
100
AcDbEntity
  8
F807
  6
Continuous
 62
     7
100
AcDbEllipse
 10
414.9475486292
 20
120.8450199211
 30
0.0
 11
-6.212757802967062
 21
3.92735795182396
 31
0.0
210
0.0
220
0.0
230
1.0
 40
0.056633901
 41
0.2871297574842782
 42
0.3722707927169177
  0
ELLIPSE
  5
228
330
1ED
100
AcDbEntity
  8
F807
  6
Continuous
 62
     7
100
AcDbEllipse
 10
414.9475486292
 20
120.8450199211
 30
0.0
 11
-6.212757802967197
 21
3.927357951823756
 31
0.0
210
0.0
220
0.0
230
1.0
 40
0.056633901
 41
0.8609629832752734
 42
1.157668956114134
  0
ELLIPSE
  5
229
330
1ED
100
AcDbEntity
  8
F807
  6
Continuous
 62
     7
100
AcDbEllipse
 10
414.9475486292
 20
120.8450199211
 30
0.0
 11
-6.973503656389324
 21
4.408258925515268
 31
0.0
210
0.0
220
0.0
230
1.0
 40
0.056633901
 41
0.8609629832752992
 42
1.157668956114249
  0
LINE
  5
22A
330
1ED
100
AcDbEntity
  8
F807
  6
Continuous
 62
     7
100
AcDbLine
 10
410.2135074665
 20
123.4183669309
 30
0.0
 11
410.7299483206
 21
123.1376381661
 31
0.0
  0
LINE
  5
22B
330
1ED
100
AcDbEntity
  8
F807
  6
Continuous
 62
     7
100
AcDbLine
 10
409.0794394271
 20
124.375388777
 30
0.0
 11
409.1056885678
 21
124.4169127622
 31
0.0
  0
LINE
  5
22C
330
1ED
100
AcDbEntity
  8
F807
  6
Continuous
 62
     7
100
AcDbLine
 10
410.9023122522
 20
123.4103037531
 30
0.0
 11
410.7299483206
 21
123.1376381661
 31
0.0
  0
LINE
  5
22D
330
1ED
100
AcDbEntity
  8
F807
  6
Continuous
 62
     7
100
AcDbLine
 10
410.3935619749
 20
123.7031983789
 30
0.0
 11
410.2135074665
 21
123.4183669309
 31
0.0
  0
LINE
  5
22E
330
1ED
100
AcDbEntity
  8
F807
  6
Continuous
 62
     7
100
AcDbLine
 10
409.0794394271
 20
124.375388777
 30
0.0
 11
408.4370609821
 21
124.7618561684
 31
0.0
  0
ELLIPSE
  5
22F
330
1ED
100
AcDbEntity
  8
F807
  6
Continuous
 62
     7
100
AcDbEllipse
 10
414.9475486292
 20
120.8450199211
 30
0.0
 11
6.212757802964533
 21
-3.927357951822398
 31
0.0
210
0.0
220
0.0
230
1.0
 40
0.056633901
 41
-1.495231506916725
 42
-1.198525534077717
  0
ELLIPSE
  5
230
330
1ED
100
AcDbEntity
  8
F807
  6
Continuous
 62
     7
100
AcDbEllipse
 10
414.9475486292
 20
120.8450199211
 30
0.0
 11
6.973503656377583
 21
-4.408258925507537
 31
0.0
210
0.0
220
0.0
230
1.0
 40
0.056633901
 41
-1.495231506917335
 42
-1.198525534077929
  0
LINE
  5
231
330
1ED
100
AcDbEntity
  8
F807
  6
Continuous
 62
     7
100
AcDbLine
 10
415.2250543711
 20
120.1184178505
 30
0.0
 11
415.1947810174
 21
120.1976835309
 31
0.0
  0
LINE
  5
232
330
1ED
100
AcDbEntity
  8
F807
  6
Continuous
 62
     7
100
AcDbLine
 10
412.2495690538
 20
122.0995068671
 30
0.0
 11
412.4851433095
 21
122.4721659965
 31
0.0
  0
LINE
  5
233
330
1ED
100
AcDbEntity
  8
F807
  6
Continuous
 62
     7
100
AcDbLine
 10
415.463642943
 20
120.6230010209
 30
0.0
 11
415.1947810174
 21
120.1976835309
 31
0.0
  0
LINE
  5
234
330
1ED
100
AcDbEntity
  8
F807
  6
Continuous
 62
     7
100
AcDbLine
 10
412.2495690538
 20
122.0995068671
 30
0.0
 11
411.9192042078
 21
122.2531175136
 31
0.0
  0
ELLIPSE
  5
235
330
1ED
100
AcDbEntity
  8
K810
  6
Continuous
 62
     7
100
AcDbEllipse
 10
424.1365593169
 20
150.1538645209
 30
0.0
 11
9.299369802856711
 21
12.4004726228365
 31
0.0
210
0.0
220
0.0
230
1.0
 40
0.8145300902
 41
3.14159265358979
 42
6.060412587138609
  0
ELLIPSE
  5
236
330
1ED
100
AcDbEntity
  8
K810
  6
Continuous
 62
     7
100
AcDbEllipse
 10
423.4403872138
 20
150.6759383185
 30
0.0
 11
9.299369802856742
 21
12.40047262283646
 31
0.0
210
0.0
220
0.0
230
1.0
 40
0.8145300902
 41
2.985879629235862
 42
3.505547185965526
  0
ELLIPSE
  5
237
330
1ED
100
AcDbEntity
  8
K810
  6
Continuous
 62
     7
100
AcDbEllipse
 10
423.4403872138
 20
150.6759383185
 30
0.0
 11
9.299369802856742
 21
12.40047262283646
 31
0.0
210
0.0
220
0.0
230
1.0
 40
0.8145300902
 41
3.619584811394819
 42
5.805193149367883
  0
LINE
  5
238
330
1ED
100
AcDbEntity
  8
K810
  6
Continuous
 62
     7
100
AcDbLine
 10
414.1410174109
 20
138.2754656956
 30
0.0
 11
414.837189514
 21
137.7533918981
 31
0.0
  0
ELLIPSE
  5
239
330
1ED
100
AcDbEntity
  8
F4465
  6
Continuous
 62
     7
100
AcDbEllipse
 10
423.4403872138
 20
150.6759383185
 30
0.0
 11
8.99939013179681
 21
12.00045737693851
 31
0.0
210
0.0
220
0.0
230
1.0
 40
0.8145300902
 41
4.086835852202128
 42
4.810168955716434
  0
ELLIPSE
  5
23A
330
1ED
100
AcDbEntity
  8
F4465
  6
Continuous
 62
     7
100
AcDbEllipse
 10
422.3953558209
 20
151.459628882
 30
0.0
 11
-9.779337276552337
 21
-13.04049701627365
 31
0.0
210
0.0
220
0.0
230
1.0
 40
0.8145300902
 41
0.4998692083416234
 42
1.266487069116702
  0
ELLIPSE
  5
23B
330
1ED
100
AcDbEntity
  8
F4465
  6
Continuous
 62
     7
100
AcDbEllipse
 10
419.7274693306
 20
153.4603319052
 30
0.0
 11
-9.779337276552443
 21
-13.04049701627351
 31
0.0
210
0.0
220
0.0
230
1.0
 40
0.8145300902
 41
0.4998692083416403
 42
1.266487069116716
  0
ELLIPSE
  5
23C
330
1ED
100
AcDbEntity
  8
F4465
  6
Continuous
 62
     7
100
AcDbEllipse
 10
406.3285899438
 20
163.5084275022
 30
0.0
 11
-8.568157336386029
 21
-11.42541943491384
 31
0.0
210
0.0
220
0.0
230
1.0
 40
0.8145300902
 41
5.930465407738984
 42
6.283185307179582
  0
ELLIPSE
  5
23D
330
1ED
100
AcDbEntity
  8
F4465
  6
Continuous
 62
     7
100
AcDbEllipse
 10
406.3285899438
 20
163.5084275022
 30
0.0
 11
-8.568157336386029
 21
-11.42541943491384
 31
0.0
210
0.0
220
0.0
230
1.0
 40
0.8145300902
 41
3.202922019544104
 42
3.239933121131325
  0
ELLIPSE
  5
23E
330
1ED
100
AcDbEntity
  8
F4465
  6
Continuous
 62
     7
100
AcDbEllipse
 10
406.3285899438
 20
163.5084275022
 30
0.0
 11
-8.568157336386029
 21
-11.42541943491384
 31
0.0
210
0.0
220
0.0
230
1.0
 40
0.8145300902
 41
0.1413738949753904
 42
3.202922019544105
  0
ELLIPSE
  5
23F
330
1ED
100
AcDbEntity
  8
F4465
  6
Continuous
 62
     7
100
AcDbEllipse
 10
406.3285899438
 20
163.5084275022
 30
0.0
 11
-8.568157336386029
 21
-11.42541943491384
 31
0.0
210
0.0
220
0.0
230
1.0
 40
0.8145300902
 41
0.0
 42
0.1413738949753906
  0
ELLIPSE
  5
240
330
1ED
100
AcDbEntity
  8
F4465
  6
Continuous
 62
     7
100
AcDbEllipse
 10
405.8968502157
 20
163.8321980157
 30
0.0
 11
-7.969659465069752
 21
-10.62733777718659
 31
0.0
210
0.0
220
0.0
230
1.0
 40
0.8145300902
 41
5.177434212981145
 42
6.283185307179586
  0
ELLIPSE
  5
241
330
1ED
100
AcDbEntity
  8
F4465
  6
Continuous
 62
     7
100
AcDbEllipse
 10
405.8968502157
 20
163.8321980157
 30
0.0
 11
-7.969659465069752
 21
-10.62733777718659
 31
0.0
210
0.0
220
0.0
230
1.0
 40
0.8145300902
 41
0.0
 42
4.247343747788236
  0
ELLIPSE
  5
242
330
1ED
100
AcDbEntity
  8
F4465
  6
Continuous
 62
     7
100
AcDbEllipse
 10
405.8968502157
 20
163.8321980157
 30
0.0
 11
-7.10951820411946
 21
-9.480361327781445
 31
0.0
210
0.0
220
0.0
230
1.0
 40
0.8145300902
 41
5.227630715846008
 42
6.283185307179586
  0
ELLIPSE
  5
243
330
1ED
100
AcDbEntity
  8
F4465
  6
Continuous
 62
     7
100
AcDbEllipse
 10
405.8968502157
 20
163.8321980157
 30
0.0
 11
-7.10951820411946
 21
-9.480361327781445
 31
0.0
210
0.0
220
0.0
230
1.0
 40
0.8145300902
 41
0.0
 42
4.19714724492337
  0
ELLIPSE
  5
244
330
1ED
100
AcDbEntity
  8
F4465
  6
Continuous
 62
     7
100
AcDbEllipse
 10
423.4403872138
 20
150.6759383185
 30
0.0
 11
-8.999390131796824
 21
-12.00045737693852
 31
0.0
210
0.0
220
0.0
230
1.0
 40
0.8145300902
 41
1.668576302126641
 42
2.196349454977462
  0
ELLIPSE
  5
245
330
1ED
100
AcDbEntity
  8
F4465
  6
Continuous
 62
     7
100
AcDbEllipse
 10
422.3953558209
 20
151.459628882
 30
0.0
 11
9.779337276552226
 21
13.04049701627322
 31
0.0
210
0.0
220
0.0
230
1.0
 40
0.8145300902
 41
5.212258188726324
 42
5.978876049501419
  0
ARC
  5
246
330
1ED
100
AcDbEntity
  8
F4465
  6
Continuous
 62
     7
100
AcDbCircle
 10
502.7447996415
 20
287.4360054623
 30
0.0
 40
173.0561136771299
100
AcDbArc
 50
237.5474256182
 51
239.7019269563
  0
ARC
  5
247
330
1ED
100
AcDbEntity
  8
F4465
  6
Continuous
 62
     7
100
AcDbCircle
 10
434.1299239606
 20
169.3905366752
 30
0.0
 40
36.51939325436778
100
AcDbArc
 50
239.2142563956
 51
245.3588303598
  0
ARC
  5
248
330
1ED
100
AcDbEntity
  8
F4465
  6
Continuous
 62
     7
100
AcDbCircle
 10
420.1971356212
 20
153.4952733639
 30
0.0
 40
16.48625937547259
100
AcDbArc
 50
304.7699984259
 51
327.1490587186
  0
ARC
  5
249
330
1ED
100
AcDbEntity
  8
F4465
  6
Continuous
 62
     7
100
AcDbCircle
 10
418.4929894236
 20
154.0335960783
 30
0.0
 40
18.21602337332903
100
AcDbArc
 50
328.6344173471
 51
349.5164738387
  0
ELLIPSE
  5
24A
330
1ED
100
AcDbEntity
  8
F4465
  6
Continuous
 62
     7
100
AcDbEllipse
 10
419.7274693306
 20
153.4603319052
 30
0.0
 11
9.779337276552177
 21
13.04049701627325
 31
0.0
210
0.0
220
0.0
230
1.0
 40
0.8145300902
 41
5.212258188726323
 42
5.978876049501411
  0
LINE
  5
24B
330
1ED
100
AcDbEntity
  8
F4465
  6
Continuous
 62
     7
100
AcDbLine
 10
429.5989775535
 20
139.9526696086
 30
0.0
 11
426.9310910633
 21
141.9533726317
 31
0.0
  0
SPLINE
  5
24C
330
1ED
100
AcDbEntity
  8
F4465
  6
Continuous
 62
     7
100
AcDbSpline
210
0.0
220
0.0
230
1.0
 70
     8
 71
     3
 72
    28
 73
    24
 74
     0
 42
0.000000001
 43
0.0000000001
 40
0.0
 40
0.0
 40
0.0
 40
0.0
 40
0.2500000000000002
 40
0.2500000000000002
 40
0.3750000000000002
 40
0.3750000000000002
 40
0.4375000000000002
 40
0.4375000000000002
 40
0.4687500000000002
 40
0.4687500000000002
 40
0.5000000000000002
 40
0.5000000000000002
 40
0.5156250000000002
 40
0.5156250000000002
 40
0.5312500000000002
 40
0.5312500000000002
 40
0.5625000000000002
 40
0.5625000000000002
 40
0.6250000000000001
 40
0.6250000000000001
 40
0.75
 40
0.75
 40
1.0
 40
1.0
 40
1.0
 40
1.0
 10
426.9310910632884
 20
141.9533726317418
 30
0.0
 10
425.7180115705232
 20
143.5942434675315
 30
0.0
 10
424.536824592805
 20
145.2758253930221
 30
0.0
 10
422.9362591559371
 20
147.9960524626301
 30
0.0
 10
422.4275704807569
 20
148.9318243364874
 30
0.0
 10
421.7946294353589
 20
150.4875574571138
 30
0.0
 10
421.6038738846245
 20
151.0286791917186
 30
0.0
 10
421.4231420692857
 20
151.9280164897617
 30
0.0
 10
421.3789854507936
 20
152.2470239117669
 30
0.0
 10
421.3890587392069
 20
152.9417438907589
 30
0.0
 10
421.446526256235
 20
153.3451579353415
 30
0.0
 10
421.754371614698
 20
153.9012742809487
 30
0.0
 10
421.8930322829495
 20
154.068210001335
 30
0.0
 10
422.1817166096243
 20
154.3241369659186
 30
0.0
 10
422.3328162354027
 20
154.4201013593815
 30
0.0
 10
422.7820454173038
 20
154.6505697312297
 30
0.0
 10
423.0749818204154
 20
154.7312075634386
 30
0.0
 10
423.9249523931576
 20
154.8966109746622
 30
0.0
 10
424.4649054351976
 20
154.9018444163444
 30
0.0
 10
426.0409933505107
 20
154.8286387925548
 30
0.0
 10
427.0424936653199
 20
154.6454174961119
 30
0.0
 10
429.9892375340746
 20
153.985593320863
 30
0.0
 10
431.8761058380938
 20
153.3759985284459
 30
0.0
 10
433.7370510334926
 20
152.7198424647066
 30
0.0
  0
LINE
  5
24D
330
1ED
100
AcDbEntity
  8
F4465
  6
Continuous
 62
     7
100
AcDbLine
 10
433.7370510335
 20
152.7198424647
 30
0.0
 11
436.4049375238
 21
150.7191394416
 31
0.0
  0
LINE
  5
24E
330
1ED
100
AcDbEntity
  8
F4465
  6
Continuous
 62
     7
100
AcDbLine
 10
409.8826603879
 20
141.4050444497
 30
0.0
 11
407.2147738976
 21
143.4057474728
 31
0.0
  0
SPLINE
  5
24F
330
1ED
100
AcDbEntity
  8
F4465
  6
Continuous
 62
     7
100
AcDbSpline
210
0.0
220
0.0
230
1.0
 70
     8
 71
     3
 72
    28
 73
    24
 74
     0
 42
0.000000001
 43
0.0000000001
 40
0.0
 40
0.0
 40
0.0
 40
0.0
 40
0.2499999999999996
 40
0.2499999999999996
 40
0.3749999999999996
 40
0.3749999999999996
 40
0.4374999999999996
 40
0.4374999999999996
 40
0.4687499999999997
 40
0.4687499999999997
 40
0.4999999999999998
 40
0.4999999999999998
 40
0.5156249999999999
 40
0.5156249999999999
 40
0.53125
 40
0.53125
 40
0.5624999999999999
 40
0.5624999999999999
 40
0.625
 40
0.625
 40
0.75
 40
0.75
 40
1.0
 40
1.0
 40
1.0
 40
1.0
 10
407.2147738976254
 20
143.4057474728265
 30
0.0
 10
406.1037464302541
 20
144.3106511378782
 30
0.0
 10
405.0336319860475
 20
145.1912128198244
 30
0.0
 10
403.6452122700765
 20
146.381511547589
 30
0.0
 10
403.2138899650596
 20
146.7593414468548
 30
0.0
 10
402.7318413771742
 20
147.2268855324018
 30
0.0
 10
402.5966468646048
 20
147.3673185016092
 30
0.0
 10
402.5225235666917
 20
147.497828638766
 30
0.0
 10
402.5182708067303
 20
147.5290619597583
 30
0.0
 10
402.6263646924555
 20
147.5168881617876
 30
0.0
 10
402.7461542939108
 20
147.4708548977743
 30
0.0
 10
403.1638425822875
 20
147.2348185149899
 30
0.0
 10
403.3403172026771
 20
147.1290518832003
 30
0.0
 10
403.6949396318782
 20
146.9094539518009
 30
0.0
 10
403.8752493146084
 20
146.7947645842133
 30
0.0
 10
404.4036675651557
 20
146.4541462521956
 30
0.0
 10
404.7385209882027
 20
146.2324916953156
 30
0.0
 10
405.7005450851649
 20
145.5898002659593
 30
0.0
 10
406.2977459590759
 20
145.182180315557
 30
0.0
 10
408.028586663778
 20
143.9929461550388
 30
0.0
 10
409.1093416239463
 20
143.2381652360629
 30
0.0
 10
412.2724282147526
 20
141.0181452641725
 30
0.0
 10
414.2717119299302
 20
139.5978458161805
 30
0.0
 10
416.2358603067006
 20
138.1974208061641
 30
0.0
  0
LINE
  5
250
330
1ED
100
AcDbEntity
  8
F4465
  6
Continuous
 62
     7
100
AcDbLine
 10
416.2358603067
 20
138.1974208062
 30
0.0
 11
418.903746797
 21
136.196717783
 31
0.0
  0
LINE
  5
251
330
1ED
100
AcDbEntity
  8
F4465
  6
Continuous
 62
     7
100
AcDbLine
 10
434.9080512538
 20
161.5142133144
 30
0.0
 11
432.2401647636
 21
163.5149163375
 31
0.0
  0
SPLINE
  5
252
330
1ED
100
AcDbEntity
  8
F4465
  6
Continuous
 62
     7
100
AcDbSpline
210
0.0
220
0.0
230
1.0
 70
     8
 71
     3
 72
    18
 73
    14
 74
     0
 42
0.000000001
 43
0.0000000001
 40
0.0
 40
0.0
 40
0.0
 40
0.0
 40
0.2499999999999998
 40
0.2499999999999998
 40
0.3749999999999997
 40
0.3749999999999997
 40
0.4374999999999997
 40
0.4374999999999997
 40
0.4687499999999997
 40
0.4687499999999997
 40
0.4843749999999997
 40
0.4843749999999997
 40
0.4974338501149835
 40
0.4974338501149835
 40
0.4974338501149835
 40
0.4974338501149835
 10
432.2401647635591
 20
163.5149163375377
 30
0.0
 10
430.2760163867886
 20
164.915341347554
 30
0.0
 10
428.2767326716111
 20
166.3356407955461
 30
0.0
 10
425.1136460808046
 20
168.5556607674366
 30
0.0
 10
424.0328911206363
 20
169.3104416864125
 30
0.0
 10
422.3020504159342
 20
170.4996758469307
 30
0.0
 10
421.7048495420232
 20
170.907295797333
 30
0.0
 10
420.742825445061
 20
171.5499872266892
 30
0.0
 10
420.407972022014
 20
171.7716417835692
 30
0.0
 10
419.8795537714667
 20
172.112260115587
 30
0.0
 10
419.6992440887364
 20
172.2269494831746
 30
0.0
 10
419.3737421173246
 20
172.4285147359689
 30
0.0
 10
419.2261357261609
 20
172.5174644156992
 30
0.0
 10
419.1003685814602
 20
172.5901379750461
 30
0.0
  0
LINE
  5
253
330
1ED
100
AcDbEntity
  8
F4465
  6
Continuous
 62
     7
100
AcDbLine
 10
419.0953973623
 20
172.593036298
 30
0.0
 11
413.9416337793
 21
175.5638593031
 31
0.0
  0
LINE
  5
254
330
1ED
100
AcDbEntity
  8
F4465
  6
Continuous
 62
     7
100
AcDbLine
 10
396.8881136932
 20
152.8234249045
 30
0.0
 11
402.9355828507
 21
147.0295366291
 31
0.0
  0
SPLINE
  5
255
330
1ED
100
AcDbEntity
  8
F4465
  6
Continuous
 62
     7
100
AcDbSpline
210
0.0
220
0.0
230
1.0
 70
     8
 71
     3
 72
    18
 73
    14
 74
     0
 42
0.000000001
 43
0.0000000001
 40
0.0
 40
0.0
 40
0.0
 40
0.0
 40
0.0294181779463727
 40
0.0670726887235253
 40
0.1047653467539201
 40
0.1425317657264826
 40
0.1803947288725473
 40
0.2183627565656341
 40
0.2564318745042547
 40
0.294589432734318
 40
0.3328185013204193
 40
0.3711016464850375
 40
0.3935081813281454
 40
0.3935081813281454
 40
0.3935081813281454
 40
0.3935081813281454
 10
414.3155859344333
 20
175.321595261174
 30
0.0
 10
414.0178333689003
 20
175.5084283677006
 30
0.0
 10
413.4404507630069
 20
175.8648411866041
 30
0.0
 10
412.360473378266
 20
176.3243640574523
 30
0.0
 10
411.1697784769072
 20
176.6781622764802
 30
0.0
 10
409.9178671359242
 20
176.8917228971882
 30
0.0
 10
408.6303731537973
 20
176.9613372794052
 30
0.0
 10
407.3172494464548
 20
176.8864029049824
 30
0.0
 10
405.9933210900489
 20
176.6673259554586
 30
0.0
 10
404.6725703985523
 20
176.3062343346842
 30
0.0
 10
403.3693986405814
 20
175.8068578928566
 30
0.0
 10
402.2741910984274
 20
175.2621746176432
 30
0.0
 10
401.6218675603411
 20
174.8755306731429
 30
0.0
 10
401.3841301039654
 20
174.7259083806874
 30
0.0
  0
SPLINE
  5
256
330
1ED
100
AcDbEntity
  8
F4465
  6
Continuous
 62
     7
100
AcDbSpline
210
0.0
220
0.0
230
1.0
 70
     8
 71
     3
 72
    16
 73
    12
 74
     0
 42
0.000000001
 43
0.0000000001
 40
0.7139863430935494
 40
0.7139863430935494
 40
0.7139863430935494
 40
0.7139863430935494
 40
0.7165498761355311
 40
0.7549722014699545
 40
0.7933879762692209
 40
0.8317852606101697
 40
0.8701476899537304
 40
0.9084549943859442
 40
0.9466847974972663
 40
0.9848159515318239
 40
1.0
 40
1.0
 40
1.0
 40
1.0
 10
394.1765517866602
 20
165.1177393120553
 30
0.0
 10
394.1677269464337
 20
165.0868350038564
 30
0.0
 10
394.0281989343231
 20
164.5925150776357
 30
0.0
 10
393.8064557754599
 20
163.6283923208574
 30
0.0
 10
393.6206070167219
 20
162.2263912518459
 30
0.0
 10
393.573159325415
 20
160.8367666712019
 30
0.0
 10
393.6651324942789
 20
159.47621434092
 30
0.0
 10
393.8951807272101
 20
158.1546181472957
 30
0.0
 10
394.2629404592972
 20
156.9063750759537
 30
0.0
 10
394.6577781337538
 20
155.9190405269038
 30
0.0
 10
394.9369785481233
 20
155.4406500724487
 30
0.0
 10
395.0307956443902
 20
155.281281111047
 30
0.0
  0
LINE
  5
257
330
1ED
100
AcDbEntity
  8
F4465
  6
Continuous
 62
     7
100
AcDbLine
 10
425.2796182036
 20
137.3666211757
 30
0.0
 11
426.0946164004
 21
137.7069128219
 31
0.0
  0
LINE
  5
258
330
1ED
100
AcDbEntity
  8
F4465
  6
Continuous
 62
     7
100
AcDbLine
 10
436.6337256883
 20
151.7605464514
 30
0.0
 11
436.7321169632
 21
152.6382363865
 31
0.0
  0
ELLIPSE
  5
259
330
1ED
100
AcDbEntity
  8
K811
  6
Continuous
 62
     7
100
AcDbEllipse
 10
405.7576157951
 20
163.9366127752
 30
0.0
 11
-6.929530401483553
 21
-9.24035218024266
 31
0.0
210
0.0
220
0.0
230
1.0
 40
0.8145300902
 41
5.241437196929875
 42
6.283185307179586
  0
ELLIPSE
  5
25A
330
1ED
100
AcDbEntity
  8
K811
  6
Continuous
 62
     7
100
AcDbEllipse
 10
405.7576157951
 20
163.9366127752
 30
0.0
 11
-6.929530401483553
 21
-9.24035218024266
 31
0.0
210
0.0
220
0.0
230
1.0
 40
0.8145300902
 41
0.0
 42
4.183340763839506
  0
ELLIPSE
  5
25B
330
1ED
100
AcDbEntity
  8
K811
  6
Continuous
 62
     7
100
AcDbEllipse
 10
405.7576157951
 20
163.9366127752
 30
0.0
 11
-5.751514089928722
 21
-7.669497452409076
 31
0.0
210
0.0
220
0.0
230
1.0
 40
0.8145300902
 41
5.916938689262958
 42
6.283185307179583
  0
ELLIPSE
  5
25C
330
1ED
100
AcDbEntity
  8
K811
  6
Continuous
 62
     7
100
AcDbEllipse
 10
405.7576157951
 20
163.9366127752
 30
0.0
 11
-5.751514089928722
 21
-7.669497452409076
 31
0.0
210
0.0
220
0.0
230
1.0
 40
0.8145300902
 41
0.0
 42
3.484791249601571
  0
ELLIPSE
  5
25D
330
1ED
100
AcDbEntity
  8
K811
  6
Continuous
 62
     7
100
AcDbEllipse
 10
405.8968502157
 20
163.8321980157
 30
0.0
 11
-7.109518204119488
 21
-9.48036132778145
 31
0.0
210
0.0
220
0.0
230
1.0
 40
0.8145300902
 41
5.227630715846006
 42
6.283185307179586
  0
ELLIPSE
  5
25E
330
1ED
100
AcDbEntity
  8
K811
  6
Continuous
 62
     7
100
AcDbEllipse
 10
405.8968502157
 20
163.8321980157
 30
0.0
 11
-7.109518204119488
 21
-9.48036132778145
 31
0.0
210
0.0
220
0.0
230
1.0
 40
0.8145300902
 41
0.0
 42
4.197147244923367
  0
ELLIPSE
  5
25F
330
1ED
100
AcDbEntity
  8
F418
  6
Continuous
 62
     7
100
AcDbEllipse
 10
367.14326981
 20
192.8943060772
 30
0.0
 11
-1.349908519769514
 21
-1.800068606540767
 31
0.0
210
0.0
220
0.0
230
1.0
 40
0.8145300902
 41
0.0
 42
6.283185307179586
  0
ELLIPSE
  5
260
330
1ED
100
AcDbEntity
  8
F418
  6
Continuous
 62
     7
100
AcDbEllipse
 10
367.4681501248
 20
192.6506716383
 30
0.0
 11
-1.349908519769514
 21
-1.800068606540778
 31
0.0
210
0.0
220
0.0
230
1.0
 40
0.8145300902
 41
3.252609701756185
 42
6.172168259013583
  0
ELLIPSE
  5
261
330
1ED
100
AcDbEntity
  8
F418
  6
Continuous
 62
     7
100
AcDbEllipse
 10
367.4681501248
 20
192.6506716383
 30
0.0
 11
-1.038493688249962
 21
-1.384804865613175
 31
0.0
210
0.0
220
0.0
230
1.0
 40
0.8145300902
 41
0.0
 42
6.283185307179586
  0
ELLIPSE
  5
262
330
1ED
100
AcDbEntity
  8
F418
  6
Continuous
 62
     7
100
AcDbEllipse
 10
367.6537960189
 20
192.511451959
 30
0.0
 11
-0.8999390131796924
 21
-1.200045737693858
 31
0.0
210
0.0
220
0.0
230
1.0
 40
0.8145300902
 41
2.249988010572728
 42
6.283185307179586
  0
ELLIPSE
  5
263
330
1ED
100
AcDbEntity
  8
F418
  6
Continuous
 62
     7
100
AcDbEllipse
 10
367.6537960189
 20
192.511451959
 30
0.0
 11
-0.8999390131796924
 21
-1.200045737693858
 31
0.0
210
0.0
220
0.0
230
1.0
 40
0.8145300902
 41
0.0
 42
0.8916046869405206
  0
ELLIPSE
  5
264
330
1ED
100
AcDbEntity
  8
F418
  6
Continuous
 62
     7
100
AcDbEllipse
 10
368.7939515684
 20
191.6564258313
 30
0.0
 11
-0.8999390131796826
 21
-1.200045737693852
 31
0.0
210
0.0
220
0.0
230
1.0
 40
0.8145300902
 41
3.764274375729268
 42
5.660503584816193
  0
ELLIPSE
  5
265
330
1ED
100
AcDbEntity
  8
F418
  6
Continuous
 62
     7
100
AcDbEllipse
 10
401.9601736679
 20
166.7843928333
 30
0.0
 11
-3.299776387435388
 21
-4.400167712580341
 31
0.0
210
0.0
220
0.0
230
1.0
 40
0.8145300902
 41
0.0755603215183607
 42
3.066032332071465
  0
ELLIPSE
  5
266
330
1ED
100
AcDbEntity
  8
F418
  6
Continuous
 62
     7
100
AcDbEllipse
 10
374.6517287884
 20
187.2635580554
 30
0.0
 11
-5.197729932896662
 21
-6.931040393079368
 31
0.0
210
0.0
220
0.0
230
1.0
 40
0.8145300902
 41
0.0755225269094764
 42
3.066152104415925
  0
ELLIPSE
  5
267
330
1ED
100
AcDbEntity
  8
F418
  6
Continuous
 62
     7
100
AcDbEllipse
 10
369.5692062379
 20
191.0750463886
 30
0.0
 11
-4.949664572488254
 21
-6.600251557316183
 31
0.0
210
0.0
220
0.0
230
1.0
 40
0.8145300902
 41
6.100444130012868
 42
6.283185307179586
  0
ELLIPSE
  5
268
330
1ED
100
AcDbEntity
  8
F418
  6
Continuous
 62
     7
100
AcDbEllipse
 10
369.5692062379
 20
191.0750463886
 30
0.0
 11
-4.949664572488254
 21
-6.600251557316183
 31
0.0
210
0.0
220
0.0
230
1.0
 40
0.8145300902
 41
0.0
 42
3.328807579305497
  0
ELLIPSE
  5
269
330
1ED
100
AcDbEntity
  8
F418
  6
Continuous
 62
     7
100
AcDbEllipse
 10
367.14326981
 20
192.8943060772
 30
0.0
 11
-1.379906486877521
 21
-1.840070131133229
 31
0.0
210
0.0
220
0.0
230
1.0
 40
0.8145300902
 41
0.0
 42
6.283185307179586
  0
SPLINE
  5
26A
330
1ED
100
AcDbEntity
  8
F418
  6
Continuous
 62
     7
100
AcDbSpline
210
0.0
220
0.0
230
1.0
 70
     8
 71
     3
 72
    13
 73
     9
 74
     0
 42
0.000000001
 43
0.0000000001
 40
0.2531891924642689
 40
0.2531891924642689
 40
0.2531891924642689
 40
0.2531891924642689
 40
0.2691771525854611
 40
0.3515334934303938
 40
0.4319241773917496
 40
0.510100385661972
 40
0.5857758734641935
 40
0.5917949898512564
 40
0.5917949898512564
 40
0.5917949898512564
 40
0.5917949898512564
 10
409.0717897224174
 20
172.7388560293226
 30
0.0
 10
408.9859133906406
 20
172.7578046428454
 30
0.0
 10
408.4566829651441
 20
172.8691278332586
 30
0.0
 10
407.4868723830617
 20
173.0128485936137
 30
0.0
 10
406.1694474009734
 20
173.06973375267
 30
0.0
 10
404.894089324609
 20
172.9913448994178
 30
0.0
 10
404.0361648595197
 20
172.8463063293864
 30
0.0
 10
403.6036787523705
 20
172.7464263051356
 30
0.0
 10
403.5718471216452
 20
172.738926843062
 30
0.0
  0
SPLINE
  5
26B
330
1ED
100
AcDbEntity
  8
F418
  6
Continuous
 62
     7
100
AcDbSpline
210
0.0
220
0.0
230
1.0
 70
     8
 71
     3
 72
    12
 73
     8
 74
     0
 42
0.000000001
 43
0.0000000001
 40
0.3641297578003062
 40
0.3641297578003062
 40
0.3641297578003062
 40
0.3641297578003062
 40
0.3746437932869969
 40
0.4567813430317352
 40
0.5409955987959075
 40
0.6268694323371549
 40
0.7089644572052863
 40
0.7089644572052863
 40
0.7089644572052863
 40
0.7089644572052863
 10
396.6955218123878
 20
163.5674907350895
 30
0.0
 10
396.6983194026138
 20
163.5143946888371
 30
0.0
 10
396.726331268591
 20
163.0466823159582
 30
0.0
 10
396.8357862233553
 20
162.1575114164502
 30
0.0
 10
397.1264430896868
 20
160.9100079244269
 30
0.0
 10
397.5461746872911
 20
159.6965121580287
 30
0.0
 10
397.9063277827677
 20
158.9164752134893
 30
0.0
 10
398.0996710648425
 20
158.5450119860895
 30
0.0
  0
LINE
  5
26C
330
1ED
100
AcDbEntity
  8
F418
  6
Continuous
 62
     7
100
AcDbLine
 10
369.8950027488
 20
180.0326981832
 30
0.0
 11
398.9403683934
 21
162.1938848663
 31
0.0
  0
LINE
  5
26D
330
1ED
100
AcDbEntity
  8
F418
  6
Continuous
 62
     7
100
AcDbLine
 10
405.5210905115
 20
170.9691100906
 30
0.0
 11
380.2608010083
 21
193.8552259733
 31
0.0
  0
ARC
  5
26E
330
1ED
100
AcDbEntity
  8
F418
  6
Continuous
 62
     7
100
AcDbCircle
 10
363.39807917
 20
175.4414546937
 30
0.0
 40
24.95865407449987
100
AcDbArc
 50
47.5161223945
 51
66.2578367263
  0
ARC
  5
26F
330
1ED
100
AcDbEntity
  8
F418
  6
Continuous
 62
     7
100
AcDbCircle
 10
382.4100680229
 20
200.8865974548
 30
0.0
 40
24.30229057968707
100
AcDbArc
 50
219.7818818163
 51
239.0306247132
  0
ARC
  5
270
330
1ED
100
AcDbEntity
  8
F418
  6
Continuous
 62
     7
100
AcDbCircle
 10
370.2709114976
 20
190.7123270457
 30
0.0
 40
8.218336626611839
100
AcDbArc
 50
67.4745087724
 51
148.9519590359
  0
ARC
  5
271
330
1ED
100
AcDbEntity
  8
F418
  6
Continuous
 62
     7
100
AcDbCircle
 10
370.014277102
 20
190.4780649664
 30
0.0
 40
8.126119518388135
100
AcDbArc
 50
146.6029458407
 51
219.3761888389
  0
ENDBLK
  5
273
330
1ED
100
AcDbEntity
  8
0
100
AcDbBlockEnd
  0
BLOCK
  5
276
330
275
100
AcDbEntity
  8
0
100
AcDbBlockBegin
  2
_Oblique
 70
     0
 10
0.0
 20
0.0
 30
0.0
  3
_Oblique
  1

  0
LINE
  5
278
330
275
100
AcDbEntity
  8
0
  6
ByBlock
 62
     0
370
    -2
100
AcDbLine
 10
-0.5
 20
-0.5
 30
0.0
 11
0.5
 21
0.5
 31
0.0
  0
ENDBLK
  5
277
330
275
100
AcDbEntity
  8
0
100
AcDbBlockEnd
  0
BLOCK
  5
27A
330
279
100
AcDbEntity
  8
0
100
AcDbBlockBegin
  2
_Dot
 70
     0
 10
0.0
 20
0.0
 30
0.0
  3
_Dot
  1

  0
LWPOLYLINE
  5
27C
330
279
100
AcDbEntity
  8
0
  6
ByBlock
 62
     0
100
AcDbPolyline
 90
        2
 70
     1
 43
0.5
 10
-0.25
 20
0.0
 42
1.0
 10
0.25
 20
0.0
 42
1.0
  0
LINE
  5
27D
330
279
100
AcDbEntity
  8
0
  6
ByBlock
 62
     0
370
    -2
100
AcDbLine
 10
-0.5
 20
0.0
 30
0.0
 11
-1.0
 21
0.0
 31
0.0
  0
ENDBLK
  5
27B
330
279
100
AcDbEntity
  8
0
100
AcDbBlockEnd
  0
BLOCK
  5
289
330
282
100
AcDbEntity
  8
0
100
AcDbBlockBegin
  2
DMBLK161
 70
     0
 10
0.0
 20
0.0
 30
0.0
  3
DMBLK161
  1

  0
HATCH
  5
283
330
282
100
AcDbEntity
  8
Défaut
  6
Continuous
 62
     7
100
AcDbHatch
 10
0.0
 20
0.0
 30
0.0
210
0.0
220
0.0
230
1.0
  2
SOLID
 70
     1
 71
     0
 91
        1
 92
        1
 93
        3
 72
     1
 10
319.4968771425705
 20
523.2674302013778
 11
316.4968772717139
 21
541.2674294265174
 72
     1
 10
316.4968772717139
 20
541.2674294265174
 11
313.4968774008573
 21
523.2674302013778
 72
     1
 10
313.4968774008573
 20
523.2674302013778
 11
319.4968771425705
 21
523.2674302013778
 97
        0
 75
     0
 76
     1
 98
        0
  0
HATCH
  5
284
330
282
100
AcDbEntity
  8
Défaut
  6
Continuous
 62
     7
100
AcDbHatch
 10
0.0
 20
0.0
 30
0.0
210
0.0
220
0.0
230
1.0
  2
SOLID
 70
     1
 71
     0
 91
        1
 92
        1
 93
        3
 72
     1
 10
319.4968771425705
 20
363.9773101957702
 11
313.4968774008573
 21
363.9773101957702
 72
     1
 10
313.4968774008573
 20
363.9773101957702
 11
316.4968772717139
 21
345.9773109706306
 72
     1
 10
316.4968772717139
 20
345.9773109706306
 11
319.4968771425705
 21
363.9773101957702
 97
        0
 75
     0
 76
     1
 98
        0
  0
LINE
  5
285
330
282
100
AcDbEntity
  8
Défaut
  6
Continuous
 62
     7
100
AcDbLine
 10
99.4300379344
 20
541.2674294265
 30
0.0
 11
322.4968773239
 21
541.2674294265
 31
0.0
  0
LINE
  5
286
330
282
100
AcDbEntity
  8
Défaut
  6
Continuous
 62
     7
100
AcDbLine
 10
283.5314009858
 20
345.9773136646
 30
0.0
 11
322.4968773239
 21
345.9773136646
 31
0.0
  0
LINE
  5
287
330
282
100
AcDbEntity
  8
Défaut
  6
Continuous
 62
     7
100
AcDbLine
 10
316.4968772717
 20
541.2674294265
 30
0.0
 11
316.4968772717
 21
345.9773109706
 31
0.0
  0
TEXT
  5
288
330
282
100
AcDbEntity
  8
Défaut
  6
Continuous
 62
     7
100
AcDbText
 10
313.4968772717
 20
430.0223701986
 30
0.0
 40
12.0
  1
195
 50
90.0
  7
SEACAD_ArialB
 11
301.4968772717
 21
430.0223701986
 31
0.0
100
AcDbText
 73
     3
  0
ENDBLK
  5
28A
330
282
100
AcDbEntity
  8
0
100
AcDbBlockEnd
  0
BLOCK
  5
293
330
28C
100
AcDbEntity
  8
0
100
AcDbBlockBegin
  2
DMBLK162
 70
     0
 10
0.0
 20
0.0
 30
0.0
  3
DMBLK162
  1

  0
HATCH
  5
28D
330
28C
100
AcDbEntity
  8
Défaut
  6
Continuous
 62
     7
100
AcDbHatch
 10
0.0
 20
0.0
 30
0.0
210
0.0
220
0.0
230
1.0
  2
SOLID
 70
     1
 71
     0
 91
        1
 92
        1
 93
        3
 72
     1
 10
107.9306274801286
 20
562.0574167903773
 11
89.93062825498896
 21
559.0574169195206
 72
     1
 10
89.93062825498896
 20
559.0574169195206
 11
107.9306274801286
 21
556.057417048664
 72
     1
 10
107.9306274801286
 20
556.057417048664
 11
107.9306274801286
 21
562.0574167903773
 97
        0
 75
     0
 76
     1
 98
        0
  0
HATCH
  5
28E
330
28C
100
AcDbEntity
  8
Défaut
  6
Continuous
 62
     7
100
AcDbHatch
 10
0.0
 20
0.0
 30
0.0
210
0.0
220
0.0
230
1.0
  2
SOLID
 70
     1
 71
     0
 91
        1
 92
        1
 93
        3
 72
     1
 10
243.0314093977006
 20
562.0574167903773
 11
243.0314093977006
 21
556.057417048664
 72
     1
 10
243.0314093977006
 20
556.057417048664
 11
261.0314086228402
 21
559.0574169195206
 72
     1
 10
261.0314086228402
 20
559.0574169195206
 11
243.0314093977006
 21
562.0574167903773
 97
        0
 75
     0
 76
     1
 98
        0
  0
LINE
  5
28F
330
28C
100
AcDbEntity
  8
Défaut
  6
Continuous
 62
     7
100
AcDbLine
 10
89.930628255
 20
532.2482553906
 30
0.0
 11
89.930628255
 21
565.0574169717
 31
0.0
  0
LINE
  5
290
330
28C
100
AcDbEntity
  8
Défaut
  6
Continuous
 62
     7
100
AcDbLine
 10
261.0314011771
 20
345.9773136646
 30
0.0
 11
261.0314011771
 21
565.0574169717
 31
0.0
  0
LINE
  5
291
330
28C
100
AcDbEntity
  8
Défaut
  6
Continuous
 62
     7
100
AcDbLine
 10
89.930628255
 20
559.0574169195
 30
0.0
 11
261.0314086228
 21
559.0574169195
 31
0.0
  0
TEXT
  5
292
330
28C
100
AcDbEntity
  8
Défaut
  6
Continuous
 62
     7
100
AcDbText
 10
161.8810184389
 20
562.0574169195
 30
0.0
 40
12.0
  1
171
  7
SEACAD_ArialB
 11
161.8810184389
 21
574.0574169195
 31
0.0
100
AcDbText
 73
     3
  0
ENDBLK
  5
294
330
28C
100
AcDbEntity
  8
0
100
AcDbBlockEnd
  0
BLOCK
  5
29D
330
296
100
AcDbEntity
  8
0
100
AcDbBlockBegin
  2
DMBLK163
 70
     0
 10
0.0
 20
0.0
 30
0.0
  3
DMBLK163
  1

  0
HATCH
  5
297
330
296
100
AcDbEntity
  8
Défaut
  6
Continuous
 62
     7
100
AcDbHatch
 10
0.0
 20
0.0
 30
0.0
210
0.0
220
0.0
230
1.0
  2
SOLID
 70
     1
 71
     0
 91
        1
 92
        1
 93
        3
 72
     1
 10
179.0314002109492
 20
266.6061131129902
 11
179.0314002109492
 21
272.6061128547033
 72
     1
 10
179.0314002109492
 20
272.6061128547033
 11
161.0314009858096
 21
269.6061129838467
 72
     1
 10
161.0314009858096
 20
269.6061129838467
 11
179.0314002109492
 21
266.6061131129902
 97
        0
 75
     0
 76
     1
 98
        0
  0
HATCH
  5
298
330
296
100
AcDbEntity
  8
Défaut
  6
Continuous
 62
     7
100
AcDbHatch
 10
0.0
 20
0.0
 30
0.0
210
0.0
220
0.0
230
1.0
  2
SOLID
 70
     1
 71
     0
 91
        1
 92
        1
 93
        3
 72
     1
 10
243.0314032507861
 20
266.6061131129902
 11
261.0314024759257
 21
269.6061129838467
 72
     1
 10
261.0314024759257
 20
269.6061129838467
 11
243.0314032507861
 21
272.6061128547033
 72
     1
 10
243.0314032507861
 20
272.6061128547033
 11
243.0314032507861
 21
266.6061131129902
 97
        0
 75
     0
 76
     1
 98
        0
  0
LINE
  5
299
330
296
100
AcDbEntity
  8
Défaut
  6
Continuous
 62
     7
100
AcDbLine
 10
161.0314009858
 20
415.9773136646
 30
0.0
 11
161.0314009858
 21
263.6061129317
 31
0.0
  0
LINE
  5
29A
330
296
100
AcDbEntity
  8
Défaut
  6
Continuous
 62
     7
100
AcDbLine
 10
261.0314011771
 20
345.9773136646
 30
0.0
 11
261.0314011771
 21
263.6061129317
 31
0.0
  0
LINE
  5
29B
330
296
100
AcDbEntity
  8
Défaut
  6
Continuous
 62
     7
100
AcDbLine
 10
161.0314009858
 20
269.6061129838
 30
0.0
 11
261.0314024759
 21
269.6061129838
 31
0.0
  0
TEXT
  5
29C
330
296
100
AcDbEntity
  8
Défaut
  6
Continuous
 62
     7
100
AcDbText
 10
197.4314017309
 20
272.6061129838
 30
0.0
 40
12.0
  1
100
  7
SEACAD_ArialB
 11
197.4314017309
 21
284.6061129838
 31
0.0
100
AcDbText
 73
     3
  0
ENDBLK
  5
29E
330
296
100
AcDbEntity
  8
0
100
AcDbBlockEnd
  0
BLOCK
  5
2A7
330
2A0
100
AcDbEntity
  8
0
100
AcDbBlockBegin
  2
DMBLK164
 70
     0
 10
0.0
 20
0.0
 30
0.0
  3
DMBLK164
  1

  0
HATCH
  5
2A1
330
2A0
100
AcDbEntity
  8
Défaut
  6
Continuous
 62
     7
100
AcDbHatch
 10
0.0
 20
0.0
 30
0.0
210
0.0
220
0.0
230
1.0
  2
SOLID
 70
     1
 71
     0
 91
        1
 92
        1
 93
        3
 72
     1
 10
319.4410635667693
 20
282.9773144394399
 11
316.4410636959128
 21
300.9773136645795
 72
     1
 10
316.4410636959128
 20
300.9773136645795
 11
313.4410638250562
 21
282.9773144394399
 72
     1
 10
313.4410638250562
 20
282.9773144394399
 11
319.4410635667693
 21
282.9773144394399
 97
        0
 75
     0
 76
     1
 98
        0
  0
HATCH
  5
2A2
330
2A0
100
AcDbEntity
  8
Défaut
  6
Continuous
 62
     7
100
AcDbHatch
 10
0.0
 20
0.0
 30
0.0
210
0.0
220
0.0
230
1.0
  2
SOLID
 70
     1
 71
     0
 91
        1
 92
        1
 93
        3
 72
     1
 10
319.4410635667693
 20
363.9773128897191
 11
313.4410638250562
 21
363.9773128897191
 72
     1
 10
313.4410638250562
 20
363.9773128897191
 11
316.4410636959128
 21
345.9773136645795
 72
     1
 10
316.4410636959128
 20
345.9773136645795
 11
319.4410635667693
 21
363.9773128897191
 97
        0
 75
     0
 76
     1
 98
        0
  0
LINE
  5
2A3
330
2A0
100
AcDbEntity
  8
Défaut
  6
Continuous
 62
     7
100
AcDbLine
 10
270.3819507
 20
300.9773136646
 30
0.0
 11
322.4410637481
 21
300.9773136646
 31
0.0
  0
LINE
  5
2A4
330
2A0
100
AcDbEntity
  8
Défaut
  6
Continuous
 62
     7
100
AcDbLine
 10
283.5314009858
 20
345.9773136646
 30
0.0
 11
322.4410637481
 21
345.9773136646
 31
0.0
  0
LINE
  5
2A5
330
2A0
100
AcDbEntity
  8
Défaut
  6
Continuous
 62
     7
100
AcDbLine
 10
316.4410636959
 20
264.9773152143
 30
0.0
 11
316.4410636959
 21
381.977313903
 31
0.0
  0
TEXT
  5
2A6
330
2A0
100
AcDbEntity
  8
Défaut
  6
Continuous
 62
     7
100
AcDbText
 10
313.4410636959
 20
314.410647892
 30
0.0
 40
12.0
  1
45
 50
90.0
  7
SEACAD_ArialB
 11
301.4410636959
 21
314.410647892
 31
0.0
100
AcDbText
 73
     3
  0
ENDBLK
  5
2A8
330
2A0
100
AcDbEntity
  8
0
100
AcDbBlockEnd
  0
BLOCK
  5
2B1
330
2AA
100
AcDbEntity
  8
0
100
AcDbBlockBegin
  2
DMBLK165
 70
     0
 10
0.0
 20
0.0
 30
0.0
  3
DMBLK165
  1

  0
HATCH
  5
2AB
330
2AA
100
AcDbEntity
  8
Défaut
  6
Continuous
 62
     7
100
AcDbHatch
 10
0.0
 20
0.0
 30
0.0
210
0.0
220
0.0
230
1.0
  2
SOLID
 70
     1
 71
     0
 91
        1
 92
        1
 93
        3
 72
     1
 10
99.40202988911913
 20
397.9773144394399
 11
105.4020296308323
 21
397.9773144394399
 72
     1
 10
105.4020296308323
 20
397.9773144394399
 11
102.4020297599757
 21
415.9773136645795
 72
     1
 10
102.4020297599757
 20
415.9773136645795
 11
99.40202988911913
 21
397.9773144394399
 97
        0
 75
     0
 76
     1
 98
        0
  0
HATCH
  5
2AC
330
2AA
100
AcDbEntity
  8
Défaut
  6
Continuous
 62
     7
100
AcDbHatch
 10
0.0
 20
0.0
 30
0.0
210
0.0
220
0.0
230
1.0
  2
SOLID
 70
     1
 71
     0
 91
        1
 92
        1
 93
        3
 72
     1
 10
99.40202988911913
 20
363.9773125916959
 11
102.4020297599757
 21
345.9773133665562
 72
     1
 10
102.4020297599757
 20
345.9773133665562
 11
105.4020296308323
 21
363.9773125916959
 72
     1
 10
105.4020296308323
 20
363.9773125916959
 11
99.40202988911913
 21
363.9773125916959
 97
        0
 75
     0
 76
     1
 98
        0
  0
LINE
  5
2AD
330
2AA
100
AcDbEntity
  8
Défaut
  6
Continuous
 62
     7
100
AcDbLine
 10
161.0314009858
 20
415.9773136646
 30
0.0
 11
96.4020297078
 21
415.9773136646
 31
0.0
  0
LINE
  5
2AE
330
2AA
100
AcDbEntity
  8
Défaut
  6
Continuous
 62
     7
100
AcDbLine
 10
238.5314013683
 20
345.9773136646
 30
0.0
 11
96.4020297078
 21
345.9773136646
 31
0.0
  0
LINE
  5
2AF
330
2AA
100
AcDbEntity
  8
Défaut
  6
Continuous
 62
     7
100
AcDbLine
 10
102.40202976
 20
415.9773136646
 30
0.0
 11
102.40202976
 21
345.9773133666
 31
0.0
  0
TEXT
  5
2B0
330
2AA
100
AcDbEntity
  8
Défaut
  6
Continuous
 62
     7
100
AcDbText
 10
99.40202976
 20
371.9106468489
 30
0.0
 40
12.0
  1
70
 50
90.0
  7
SEACAD_ArialB
 11
87.40202976
 21
371.9106468489
 31
0.0
100
AcDbText
 73
     3
  0
ENDBLK
  5
2B2
330
2AA
100
AcDbEntity
  8
0
100
AcDbBlockEnd
  0
BLOCK
  5
2BC
330
2B4
100
AcDbEntity
  8
0
100
AcDbBlockBegin
  2
DMBLK166
 70
     0
 10
0.0
 20
0.0
 30
0.0
  3
DMBLK166
  1

  0
HATCH
  5
2B5
330
2B4
100
AcDbEntity
  8
Défaut
  6
Continuous
 62
     7
100
AcDbHatch
 10
0.0
 20
0.0
 30
0.0
210
0.0
220
0.0
230
1.0
  2
SOLID
 70
     1
 71
     0
 91
        1
 92
        1
 93
        3
 72
     1
 10
117.4203592848657
 20
402.1992819068363
 11
128.7624227562728
 21
387.9039131623534
 72
     1
 10
128.7624227562728
 20
387.9039131623534
 11
122.6697796058551
 21
405.1050663438071
 72
     1
 10
122.6697796058551
 20
405.1050663438071
 11
117.4203592848657
 21
402.1992819068363
 97
        0
 75
     0
 76
     1
 98
        0
  0
HATCH
  5
2B6
330
2B4
100
AcDbEntity
  8
Défaut
  6
Continuous
 62
     7
100
AcDbHatch
 10
0.0
 20
0.0
 30
0.0
210
0.0
220
0.0
230
1.0
  2
SOLID
 70
     1
 71
     0
 91
        1
 92
        1
 93
        3
 72
     1
 10
178.0077646702146
 20
379.8993032876498
 11
161.0314009858096
 21
373.2057954341412
 72
     1
 10
161.0314009858096
 20
373.2057954341412
 11
179.2609908019253
 21
374.0316443708964
 72
     1
 10
179.2609908019253
 20
374.0316443708964
 11
178.0077646702146
 21
379.8993032876498
 97
        0
 75
     0
 76
     1
 98
        0
  0
LINE
  5
2B7
330
2B4
100
AcDbEntity
  8
Défaut
  6
Continuous
 62
     7
100
AcDbLine
 10
161.785851169
 20
416.6336710491
 30
0.0
 11
124.2357211304
 21
383.9657683971
 31
0.0
  0
LINE
  5
2B8
330
2B4
100
AcDbEntity
  8
Défaut
  6
Continuous
 62
     7
100
AcDbLine
 10
161.0314009858
 20
415.9773136646
 30
0.0
 11
161.0314009858
 21
367.2057944507
 31
0.0
  0
ARC
  5
2B9
330
2B4
100
AcDbEntity
  8
Défaut
  6
Continuous
 62
     7
100
AcDbCircle
 10
161.0314009858
 20
415.9773136646
 30
0.0
 40
42.77151823043835
100
AcDbArc
 50
172.7978486221
 51
269.9999987385
  0
ARC
  5
2BA
330
2B4
100
AcDbEntity
  8
Défaut
  6
Continuous
 62
     7
100
AcDbCircle
 10
161.0314009858
 20
415.9773136646
 30
0.0
 40
42.77151823043835
100
AcDbArc
 50
270.0
 51
318.2248033519
  0
TEXT
  5
2BB
330
2B4
100
AcDbEntity
  8
Défaut
  6
Continuous
 62
     7
100
AcDbText
 10
133.5064983222
 20
385.1601970169
 30
0.0
 40
12.0
  1
49°
 50
335.7431285722
  7
SEACAD_ArialB
 11
138.436436679
 21
396.1007503757
 31
0.0
100
AcDbText
 73
     3
  0
ENDBLK
  5
2BD
330
2B4
100
AcDbEntity
  8
0
100
AcDbBlockEnd
  0
ENDSEC
  0
SECTION
  2
ENTITIES
  0
INSERT
  5
70
330
1F
100
AcDbEntity
  8
Défaut
100
AcDbBlockReference
  2
SEANNOT_GROUP
 10
0.0
 20
0.0
 30
0.0
  0
MULTILEADER
  5
78
330
1F
100
AcDbEntity
  8
Défaut
  6
Continuous
 62
     7
 92
      820
310
340300000F0000000C00000013000000993A0000BC00000026000000AA384BC1B9DD654029FF73388B1A7340000000000000000000000000000000000000000000000000000000000000F03F000000000000F03F00000000000000000000000000000000470031002F00320022000000050000000100000000000000000028
310
40000000000000F03F0000000000000000000000000000F03F00000000000000000000000000000000000000000100000000000000000000002200000041007200690061006C00000000000000000000000C00000013000000112700000C0000001300000001000000880000001D0000003AAE1F33F1A1E83F37382CF0D338
310
F23F0000000000000000AEE3A33C01516F4037382CF0D338F2BF3AAE1F33F1A1E83F0000000000000000798C0BA79D1D734000000000000000000000000000000000E03D3A7170FEF53F0000000000000000000000000000000000000000000000000000000000000000000000000000F03F0C00000012000000FF7F000054
310
0000002000000002000000000000000000000000000000000000000000000000000000000000000000F0BF0000000000000000000000000000000000000000000000000000000000000000000000000000F03F080000001F000000880000001D000000000000000000F03F0000000000000000000000000000000000000000
310
000000000000000000000000000000000000F03F0000000000000000000000000000000000000000000000000000000000000000000000000000F03F0000000000000000000000000000000000000000000000000000000000000000000000000000F03F080000001F0000000C00000013000000891300000C000000120000
310
000000000054000000200000000200000000C4704B5F386F40B1B8FB7AD62F734000000000000000006A03ED0670D16E4067094BDCFB7B7340000000000000000000000000000000000000000000000000000000000000F03F0C00000013000000112700005400000020000000020000006A03ED0670D16E4067094BDCFB7B
310
734000000000000000006A03ED0670D16B4067094BDCFB7B7340000000000000000000000000000000000000000000000000000000000000F03F
100
AcDbMLeader
300
CONTEXT_DATA{
 40
1.0
 10
173.7329251775
 20
307.7489893848
 30
0.0
 41
12.0
140
1.3746189521
145
4.2
174
     1
175
     1
176
     0
177
     0
290
     1
304
{\pxsm0.9;\fArial|b1||i0||c0|p34;\W1.;G1/2"\P}
 11
0.0
 21
0.0
 31
1.0
340
11
 12
175.7329251775
 22
317.8509893848
 32
0.0
 13
1.0
 23
0.0
 33
0.0
 42
0.0
 43
0.0
 44
0.0
 45
1.0
170
     1
 90
-1073741824
171
     1
172
     1
 91
-939524096
141
1.5
 92
        0
291
     0
292
     0
173
     0
293
     0
142
0.0
143
0.0
294
     0
295
     0
296
     0
110
0.0
120
0.0
130
0.0
111
1.0
121
0.0
131
0.0
112
0.0
122
1.0
132
0.0
297
     0
302
LEADER{
290
     1
291
     1
 10
246.5449251775
 20
311.7489893848
 30
0.0
 11
-1.0
 21
0.0
 31
0.0
 90
        0
 40
24.0
304
LEADER_LINE{
 10
250.5314009858
 20
305.8509893848
 30
0.0
 91
        0
305
}
303
}
301
}
340
6C
 90
 35052448
170
     1
 91
-1056964608
341
14
171
    -2
290
     1
291
     1
 41
24.0
342
73
 42
4.0
172
     2
343
11
173
     1
 95
        1
174
     1
175
     0
 92
-1073741824
292
     0
 93
-1023410169
 10
1.0
 20
1.0
 30
1.0
 43
0.0
176
     0
293
     0
294
     0
178
     0
179
     1
 45
1.0
1001
ACAD_MLEADERVER
1070
     2
  0
INSERT
  5
7A
330
1F
100
AcDbEntity
  8
Défaut
100
AcDbBlockReference
  2
SE
 10
0.0
 20
0.0
 30
0.0
  0
INSERT
  5
144
330
1F
100
AcDbEntity
  8
Défaut
100
AcDbBlockReference
  2
SE1
 10
0.0
 20
0.0
 30
0.0
  0
INSERT
  5
197
330
1F
100
AcDbEntity
  8
Défaut
100
AcDbBlockReference
  2
SE2
 10
0.0
 20
0.0
 30
0.0
  0
INSERT
  5
1EE
330
1F
100
AcDbEntity
  8
Défaut
100
AcDbBlockReference
  2
SE3
 10
0.0
 20
0.0
 30
0.0
  0
DIMENSION
  5
280
330
1F
100
AcDbEntity
  8
Défaut
  6
Continuous
 62
     7
100
AcDbDimension
  2
DMBLK161
 10
316.4968772717
 20
345.9773136646
 30
0.0
 11
316.4968772717
 21
443.6223701986
 31
0.0
 70
   160
  1
\A1;<>
 71
     5
 42
-1.0
 73
     0
 74
     0
 75
     0
  3
presto
100
AcDbAlignedDimension
 13
99.4300379344
 23
541.2674294265
 33
0.0
 14
283.5314009858
 24
345.9773136646
 34
0.0
 50
90.0
100
AcDbRotatedDimension
  0
DIMENSION
  5
28B
330
1F
100
AcDbEntity
  8
Défaut
  6
Continuous
 62
     7
100
AcDbDimension
  2
DMBLK162
 10
261.0314011771
 20
559.0574169195
 30
0.0
 11
175.4810184389
 21
559.0574169195
 31
0.0
 70
   160
  1
\A1;<>
 71
     5
 42
-1.0
 73
     0
 74
     0
 75
     0
  3
presto
100
AcDbAlignedDimension
 13
89.930628255
 23
532.2482553906
 33
0.0
 14
261.0314011771
 24
345.9773136646
 34
0.0
100
AcDbRotatedDimension
  0
DIMENSION
  5
295
330
1F
100
AcDbEntity
  8
Défaut
  6
Continuous
 62
     7
100
AcDbDimension
  2
DMBLK163
 10
261.0314011771
 20
269.6061129838
 30
0.0
 11
211.0314017309
 21
269.6061129838
 31
0.0
 70
   160
  1
\A1;<>
 71
     5
 42
-1.0
 73
     0
 74
     0
 75
     0
  3
presto
100
AcDbAlignedDimension
 13
161.0314009858
 23
415.9773136646
 33
0.0
 14
261.0314011771
 24
345.9773136646
 34
0.0
100
AcDbRotatedDimension
1001
ACAD
1000
DSTYLE
1002
{
1070
   271
1070
     2
1070
     0
1002
}
  0
DIMENSION
  5
29F
330
1F
100
AcDbEntity
  8
Défaut
  6
Continuous
 62
     7
100
AcDbDimension
  2
DMBLK164
 10
316.4410636959
 20
345.9773136646
 30
0.0
 11
316.4410636959
 21
323.4773145586
 31
0.0
 70
   160
  1
\A1;<>
 71
     5
 42
-1.0
 73
     0
 74
     0
 75
     0
  3
presto
100
AcDbAlignedDimension
 13
270.3819507
 23
300.9773136646
 33
0.0
 14
283.5314009858
 24
345.9773136646
 34
0.0
 50
90.0
100
AcDbRotatedDimension
1001
ACAD
1000
DSTYLE
1002
{
1070
   271
1070
     2
1070
     0
1002
}
  0
DIMENSION
  5
2A9
330
1F
100
AcDbEntity
  8
Défaut
  6
Continuous
 62
     7
100
AcDbDimension
  2
DMBLK165
 10
102.40202976
 20
345.9773136646
 30
0.0
 11
102.40202976
 21
380.9773135156
 31
0.0
 70
   160
  1
\A1;<>
 71
     5
 42
-1.0
 73
     0
 74
     0
 75
     0
  3
presto
100
AcDbAlignedDimension
 13
161.0314009858
 23
415.9773136646
 33
0.0
 14
238.5314013683
 24
345.9773136646
 34
0.0
 50
90.0
100
AcDbRotatedDimension
1001
ACAD
1000
DSTYLE
1002
{
1070
   271
1070
     2
1070
     0
1002
}
  0
DIMENSION
  5
2B3
330
1F
100
AcDbEntity
  8
Défaut
  6
Continuous
 62
     7
100
AcDbDimension
  2
DMBLK166
 10
161.7858511331
 20
416.6336710179
 30
0.0
 11
143.3020353688
 21
377.0533831519
 31
0.0
 70
   162
  1
\A1;<>
 71
     5
 42
-1.0
 73
     0
 74
     0
 75
     0
  3
presto
100
AcDb2LineAngularDimension
 13
161.0314009858
 23
415.9773136646
 33
0.0
 14
161.0314009858
 24
415.9873136646
 34
0.0
 15
161.0314009858
 25
415.9773136646
 35
0.0
 16
143.3020353688
 26
377.0533831519
 36
0.0
1001
ACAD
1000
DSTYLE
1002
{
1070
   271
1070
     2
1070
   283
1070
     1
1070
     0
1002
}
  0
ENDSEC
  0
SECTION
  2
OBJECTS
  0
DICTIONARY
  5
C
330
0
100
AcDbDictionary
281
     1
  3
ACAD_DETAILVIEWSTYLE
350
2F9
  3
ACAD_GROUP
350
D
  3
ACAD_LAYOUT
350
1A
  3
ACAD_MATERIAL
350
43
  3
ACAD_MLEADERSTYLE
350
6B
  3
ACAD_MLINESTYLE
350
17
  3
ACAD_PLOTSETTINGS
350
19
  3
ACAD_PLOTSTYLENAME
350
E
  3
ACAD_SCALELIST
350
47
  3
ACAD_SECTIONVIEWSTYLE
350
2FA
  3
ACAD_TABLESTYLE
350
69
  3
ACAD_VISUALSTYLE
350
2A
  3
ACDB_RECOMPOSE_DATA
350
2F6
  3
AcDbVariableDictionary
350
2BF
  0
SUN
  5
6D
330
29
100
AcDbSun
 90
        1
290
     0
 63
     7
421
 16777215
 40
1.0
291
     1
 91
  2455826
 92
 54000000
292
     0
 70
     2
 71
   256
280
     1
  0
DICTIONARY
  5
2F9
102
{ACAD_REACTORS
330
C
102
}
330
C
100
AcDbDictionary
281
     1
  0
DICTIONARY
  5
D
102
{ACAD_REACTORS
330
C
102
}
330
C
100
AcDbDictionary
281
     1
  0
DICTIONARY
  5
1A
102
{ACAD_REACTORS
330
C
102
}
330
C
100
AcDbDictionary
281
     1
  3
Layout1
350
1E
  3
Model
350
22
  0
DICTIONARY
  5
43
102
{ACAD_REACTORS
330
C
102
}
330
C
100
AcDbDictionary
281
     1
  3
ByBlock
350
45
  3
ByLayer
350
44
  3
Global
350
46
  0
DICTIONARY
  5
6B
102
{ACAD_REACTORS
330
C
102
}
330
C
100
AcDbDictionary
281
     1
  3
Standard
350
6C
  0
DICTIONARY
  5
17
102
{ACAD_REACTORS
330
C
102
}
330
C
100
AcDbDictionary
281
     1
  3
Standard
350
18
  0
DICTIONARY
  5
19
102
{ACAD_REACTORS
330
C
102
}
330
C
100
AcDbDictionary
281
     1
  0
ACDBDICTIONARYWDFLT
  5
E
102
{ACAD_REACTORS
330
C
102
}
330
C
100
AcDbDictionary
281
     1
  3
Normal
350
F
100
AcDbDictionaryWithDefault
340
F
  0
DICTIONARY
  5
47
102
{ACAD_REACTORS
330
C
102
}
330
C
100
AcDbDictionary
281
     1
  3
A0
350
48
  3
A1
350
49
  3
A2
350
4A
  3
A3
350
4B
  3
A4
350
4C
  3
A5
350
4D
  3
A6
350
4E
  3
A7
350
4F
  3
A8
350
50
  3
A9
350
51
  3
B0
350
52
  3
B1
350
53
  3
B2
350
54
  3
B3
350
55
  3
B4
350
56
  3
B5
350
57
  3
B6
350
58
  3
B7
350
59
  3
B8
350
5A
  3
B9
350
5B
  3
C0
350
5C
  3
C1
350
5D
  3
C2
350
5E
  3
C3
350
5F
  3
C4
350
60
  3
C5
350
61
  3
C6
350
62
  3
C7
350
63
  3
C8
350
64
  3
C9
350
65
  3
D0
350
66
  3
D1
350
67
  3
D2
350
68
  0
DICTIONARY
  5
2FA
102
{ACAD_REACTORS
330
C
102
}
330
C
100
AcDbDictionary
281
     1
  0
DICTIONARY
  5
69
102
{ACAD_REACTORS
330
C
102
}
330
C
100
AcDbDictionary
281
     1
  3
Standard
350
6A
  0
DICTIONARY
  5
2A
102
{ACAD_REACTORS
330
C
102
}
330
C
100
AcDbDictionary
281
     1
  3
2dWireframe
350
2F
  3
Basic
350
32
  3
Brighten
350
36
  3
ColorChange
350
3A
  3
Conceptual
350
34
  3
Dim
350
35
  3
EdgeColorOff
350
3D
  3
Facepattern
350
39
  3
Flat
350
2B
  3
FlatWithEdges
350
2C
  3
Gouraud
350
2D
  3
GouraudWithEdges
350
2E
  3
Hidden
350
31
  3
JitterOff
350
3B
  3
Linepattern
350
38
  3
OverhangOff
350
3C
  3
Realistic
350
33
  3
Shaded
350
42
  3
Shaded with edges
350
41
  3
Shades of Gray
350
3E
  3
Sketchy
350
3F
  3
Thicken
350
37
  3
Wireframe
350
30
  3
X-Ray
350
40
  0
XRECORD
  5
2F6
102
{ACAD_REACTORS
330
C
102
}
330
C
100
AcDbXrecord
280
     1
 90
        1
330
6A
  0
DICTIONARY
  5
2BF
102
{ACAD_REACTORS
330
C
102
}
330
C
100
AcDbDictionary
281
     1
  3
CANNOSCALE
350
2C0
  3
CENTEREXE
350
2FB
  3
CENTERLTYPEFILE
350
2FC
  3
CMLEADERSTYLE
350
2F8
  3
CTABLESTYLE
350
2F7
  3
XCLIPFRAME
350
2C1
  0
LAYOUT
  5
1E
102
{ACAD_REACTORS
330
1A
102
}
330
1A
100
AcDbPlotSettings
  1

  2
none_device
  4

  6

 40
0.0
 41
0.0
 42
0.0
 43
0.0
 44
0.0
 45
0.0
 46
0.0
 47
0.0
 48
0.0
 49
0.0
140
0.0
141
0.0
142
1.0
143
1.0
 70
   688
 72
     1
 73
     0
 74
     5
  7

 75
    16
 76
     0
 77
     2
 78
   300
147
1.0
148
0.0
149
0.0
100
AcDbLayout
  1
Layout1
 70
     1
 71
     1
 10
0.0
 20
0.0
 11
600.0
 21
600.0
 12
0.0
 22
0.0
 32
0.0
 14
0.0
 24
0.0
 34
0.0
 15
600.0
 25
600.0
 35
0.0
146
0.0
 13
0.0
 23
0.0
 33
0.0
 16
1.0
 26
0.0
 36
0.0
 17
0.0
 27
1.0
 37
0.0
 76
     0
330
1B
  0
LAYOUT
  5
22
102
{ACAD_REACTORS
330
1A
102
}
330
1A
100
AcDbPlotSettings
  1

  2
none_device
  4
Letter_(8.50_x_11.00_Inches)
  6

 40
6.35
 41
6.35
 42
6.35000508
 43
6.35000508
 44
215.9
 45
279.4
 46
0.0
 47
0.0
 48
0.0
 49
0.0
140
0.0
141
0.0
142
1.0
143
1.0
 70
  1712
 72
     1
 73
     0
 74
     0
  7

 75
     0
 76
     0
 77
     2
 78
   300
147
1.0
148
0.0
149
0.0
100
AcDbLayout
  1
Model
 70
     1
 71
     0
 10
0.0
 20
0.0
 11
600.0
 21
600.0
 12
0.0
 22
0.0
 32
0.0
 14
0.0
 24
0.0
 34
0.0
 15
600.0
 25
600.0
 35
0.0
146
0.0
 13
0.0
 23
0.0
 33
0.0
 16
1.0
 26
0.0
 36
0.0
 17
0.0
 27
1.0
 37
0.0
 76
     0
330
1F
331
29
  0
MATERIAL
  5
45
102
{ACAD_REACTORS
330
43
102
}
330
43
100
AcDbMaterial
  1
ByBlock
 72
     1
 94
      127
  0
MATERIAL
  5
44
102
{ACAD_REACTORS
330
43
102
}
330
43
100
AcDbMaterial
  1
ByLayer
 72
     1
 94
      127
  0
MATERIAL
  5
46
102
{ACAD_REACTORS
330
43
102
}
330
43
100
AcDbMaterial
  1
Global
 72
     1
 94
      127
  0
MLEADERSTYLE
  5
6C
102
{ACAD_REACTORS
330
6B
102
}
102
{ACAD_XDICTIONARY
360
2F4
102
}
330
6B
100
AcDbMLeaderStyle
170
     2
171
     1
172
     0
 90
        2
 40
0.0
 41
0.0
173
     1
 91
-1056964608
340
14
 92
       -2
290
     1
 42
2.0
291
     1
 43
8.0
  3
Standard
341
0
 44
4.0
300

342
11
174
     1
178
     6
175
     1
176
     0
 93
-1056964608
 45
4.0
292
     0
297
     0
 46
4.0
343
0
 94
-1056964608
 47
1.0
 49
1.0
140
1.0
293
     1
141
0.0
294
     1
177
     0
142
1.0
295
     0
296
     0
143
3.75
1001
ACAD_MLEADERVER
1070
     2
  0
MLINESTYLE
  5
18
102
{ACAD_REACTORS
330
17
102
}
330
17
100
AcDbMlineStyle
  2
Standard
 70
     0
  3

 62
   256
 51
90.0
 52
90.0
 71
     2
 49
0.5
 62
   256
  6
BYLAYER
 49
-0.5
 62
   256
  6
BYLAYER
  0
ACDBPLACEHOLDER
  5
F
102
{ACAD_REACTORS
330
E
102
}
330
E
  0
SCALE
  5
48
102
{ACAD_REACTORS
330
47
102
}
330
47
100
AcDbScale
 70
     0
300
1:1
140
1.0
141
1.0
290
     1
  0
SCALE
  5
49
102
{ACAD_REACTORS
330
47
102
}
330
47
100
AcDbScale
 70
     0
300
1:2
140
1.0
141
2.0
290
     0
  0
SCALE
  5
4A
102
{ACAD_REACTORS
330
47
102
}
330
47
100
AcDbScale
 70
     0
300
1:4
140
1.0
141
4.0
290
     0
  0
SCALE
  5
4B
102
{ACAD_REACTORS
330
47
102
}
330
47
100
AcDbScale
 70
     0
300
1:5
140
1.0
141
5.0
290
     0
  0
SCALE
  5
4C
102
{ACAD_REACTORS
330
47
102
}
330
47
100
AcDbScale
 70
     0
300
1:8
140
1.0
141
8.0
290
     0
  0
SCALE
  5
4D
102
{ACAD_REACTORS
330
47
102
}
330
47
100
AcDbScale
 70
     0
300
1:10
140
1.0
141
10.0
290
     0
  0
SCALE
  5
4E
102
{ACAD_REACTORS
330
47
102
}
330
47
100
AcDbScale
 70
     0
300
1:16
140
1.0
141
16.0
290
     0
  0
SCALE
  5
4F
102
{ACAD_REACTORS
330
47
102
}
330
47
100
AcDbScale
 70
     0
300
1:20
140
1.0
141
20.0
290
     0
  0
SCALE
  5
50
102
{ACAD_REACTORS
330
47
102
}
330
47
100
AcDbScale
 70
     0
300
1:30
140
1.0
141
30.0
290
     0
  0
SCALE
  5
51
102
{ACAD_REACTORS
330
47
102
}
330
47
100
AcDbScale
 70
     0
300
1:40
140
1.0
141
40.0
290
     0
  0
SCALE
  5
52
102
{ACAD_REACTORS
330
47
102
}
330
47
100
AcDbScale
 70
     0
300
1:50
140
1.0
141
50.0
290
     0
  0
SCALE
  5
53
102
{ACAD_REACTORS
330
47
102
}
330
47
100
AcDbScale
 70
     0
300
1:100
140
1.0
141
100.0
290
     0
  0
SCALE
  5
54
102
{ACAD_REACTORS
330
47
102
}
330
47
100
AcDbScale
 70
     0
300
2:1
140
2.0
141
1.0
290
     0
  0
SCALE
  5
55
102
{ACAD_REACTORS
330
47
102
}
330
47
100
AcDbScale
 70
     0
300
4:1
140
4.0
141
1.0
290
     0
  0
SCALE
  5
56
102
{ACAD_REACTORS
330
47
102
}
330
47
100
AcDbScale
 70
     0
300
8:1
140
8.0
141
1.0
290
     0
  0
SCALE
  5
57
102
{ACAD_REACTORS
330
47
102
}
330
47
100
AcDbScale
 70
     0
300
10:1
140
10.0
141
1.0
290
     0
  0
SCALE
  5
58
102
{ACAD_REACTORS
330
47
102
}
330
47
100
AcDbScale
 70
     0
300
100:1
140
100.0
141
1.0
290
     0
  0
SCALE
  5
59
102
{ACAD_REACTORS
330
47
102
}
330
47
100
AcDbScale
 70
     0
300
1/128" = 1'-0"
140
0.0078125
141
12.0
290
     0
  0
SCALE
  5
5A
102
{ACAD_REACTORS
330
47
102
}
330
47
100
AcDbScale
 70
     0
300
1/64" = 1'-0"
140
0.015625
141
12.0
290
     0
  0
SCALE
  5
5B
102
{ACAD_REACTORS
330
47
102
}
330
47
100
AcDbScale
 70
     0
300
1/32" = 1'-0"
140
0.03125
141
12.0
290
     0
  0
SCALE
  5
5C
102
{ACAD_REACTORS
330
47
102
}
330
47
100
AcDbScale
 70
     0
300
1/16" = 1'-0"
140
0.0625
141
12.0
290
     0
  0
SCALE
  5
5D
102
{ACAD_REACTORS
330
47
102
}
330
47
100
AcDbScale
 70
     0
300
3/32" = 1'-0"
140
0.09375
141
12.0
290
     0
  0
SCALE
  5
5E
102
{ACAD_REACTORS
330
47
102
}
330
47
100
AcDbScale
 70
     0
300
1/8" = 1'-0"
140
0.125
141
12.0
290
     0
  0
SCALE
  5
5F
102
{ACAD_REACTORS
330
47
102
}
330
47
100
AcDbScale
 70
     0
300
3/16" = 1'-0"
140
0.1875
141
12.0
290
     0
  0
SCALE
  5
60
102
{ACAD_REACTORS
330
47
102
}
330
47
100
AcDbScale
 70
     0
300
1/4" = 1'-0"
140
0.25
141
12.0
290
     0
  0
SCALE
  5
61
102
{ACAD_REACTORS
330
47
102
}
330
47
100
AcDbScale
 70
     0
300
3/8" = 1'-0"
140
0.375
141
12.0
290
     0
  0
SCALE
  5
62
102
{ACAD_REACTORS
330
47
102
}
330
47
100
AcDbScale
 70
     0
300
1/2" = 1'-0"
140
0.5
141
12.0
290
     0
  0
SCALE
  5
63
102
{ACAD_REACTORS
330
47
102
}
330
47
100
AcDbScale
 70
     0
300
3/4" = 1'-0"
140
0.75
141
12.0
290
     0
  0
SCALE
  5
64
102
{ACAD_REACTORS
330
47
102
}
330
47
100
AcDbScale
 70
     0
300
1" = 1'-0"
140
1.0
141
12.0
290
     0
  0
SCALE
  5
65
102
{ACAD_REACTORS
330
47
102
}
330
47
100
AcDbScale
 70
     0
300
1-1/2" = 1'-0"
140
1.5
141
12.0
290
     0
  0
SCALE
  5
66
102
{ACAD_REACTORS
330
47
102
}
330
47
100
AcDbScale
 70
     0
300
3" = 1'-0"
140
3.0
141
12.0
290
     0
  0
SCALE
  5
67
102
{ACAD_REACTORS
330
47
102
}
330
47
100
AcDbScale
 70
     0
300
6" = 1'-0"
140
6.0
141
12.0
290
     0
  0
SCALE
  5
68
102
{ACAD_REACTORS
330
47
102
}
330
47
100
AcDbScale
 70
     0
300
1'-0" = 1'-0"
140
12.0
141
12.0
290
     0
  0
TABLESTYLE
  5
6A
102
{ACAD_REACTORS
330
69
102
}
102
{ACAD_XDICTIONARY
360
2F2
102
}
330
69
100
AcDbTableStyle
  3
Standard
 70
     0
 71
     0
 40
0.06
 41
0.06
280
     0
281
     0
  7
Standard
140
4.5
170
     2
 62
     0
 63
   257
283
     0
 90
        4
 91
        0
  1

274
    -2
284
     1
 64
     0
275
    -2
285
     1
 65
     0
276
    -2
286
     1
 66
     0
277
    -2
287
     1
 67
     0
278
    -2
288
     1
 68
     0
279
    -2
289
     1
 69
     0
  7
Standard
140
6.0
170
     5
 62
     0
 63
   257
283
     0
 90
        4
 91
        0
  1

274
    -2
284
     1
 64
     0
275
    -2
285
     1
 65
     0
276
    -2
286
     1
 66
     0
277
    -2
287
     1
 67
     0
278
    -2
288
     1
 68
     0
279
    -2
289
     1
 69
     0
  7
Standard
140
4.5
170
     5
 62
     0
 63
   257
283
     0
 90
        4
 91
        0
  1

274
    -2
284
     1
 64
     0
275
    -2
285
     1
 65
     0
276
    -2
286
     1
 66
     0
277
    -2
287
     1
 67
     0
278
    -2
288
     1
 68
     0
279
    -2
289
     1
 69
     0
  0
VISUALSTYLE
  5
2F
102
{ACAD_REACTORS
330
2A
102
}
102
{ACAD_XDICTIONARY
360
2CA
102
}
330
2A
100
AcDbVisualStyle
  2
2dWireframe
 70
     4
 71
     0
 72
     2
 73
     0
 90
        0
 40
0.6
 41
30.0
 62
     5
 63
     7
421
 16777215
 74
     1
 91
        4
 64
     7
 65
   257
 75
     1
175
     1
 42
1.0
 92
        0
 66
   257
 43
1.0
 76
     1
 77
     6
 78
     2
 67
     7
 79
     5
170
     0
171
     0
290
     0
174
     0
 93
        1
 44
0.0
173
     0
291
     0
 45
0.0
  0
VISUALSTYLE
  5
32
102
{ACAD_REACTORS
330
2A
102
}
102
{ACAD_XDICTIONARY
360
2D0
102
}
330
2A
100
AcDbVisualStyle
  2
Basic
 70
     7
 71
     1
 72
     0
 73
     1
 90
        0
 40
0.6
 41
30.0
 62
     5
 63
     7
421
 16777215
 74
     0
 91
        4
 64
     7
 65
   257
 75
     1
175
     1
 42
1.0
 92
        8
 66
     7
 43
1.0
 76
     1
 77
     6
 78
     2
 67
     7
 79
     5
170
     0
171
     0
290
     0
174
     0
 93
        1
 44
0.0
173
     0
291
     1
 45
0.0
  0
VISUALSTYLE
  5
36
102
{ACAD_REACTORS
330
2A
102
}
102
{ACAD_XDICTIONARY
360
2D8
102
}
330
2A
100
AcDbVisualStyle
  2
Brighten
 70
    12
 71
     2
 72
     2
 73
     0
 90
        0
 40
0.6
 41
30.0
 62
     5
 63
     7
421
 16777215
 74
     1
 91
        4
 64
     7
 65
   257
 75
     1
175
     1
 42
1.0
 92
        8
 66
     7
 43
1.0
 76
     1
 77
     6
 78
     2
 67
     7
 79
     5
170
     0
171
     0
290
     0
174
     0
 93
        1
 44
50.0
173
     0
291
     1
 45
0.0
  0
VISUALSTYLE
  5
3A
102
{ACAD_REACTORS
330
2A
102
}
102
{ACAD_XDICTIONARY
360
2E0
102
}
330
2A
100
AcDbVisualStyle
  2
ColorChange
 70
    16
 71
     2
 72
     2
 73
     3
 90
        0
 40
0.6
 41
30.0
 62
     5
 63
     8
421
  8421504
 74
     1
 91
        4
 64
     7
 65
   257
 75
     1
175
     1
 42
1.0
 92
        8
 66
     8
424
  8421504
 43
1.0
 76
     1
 77
     6
 78
     2
 67
     7
 79
     5
170
     0
171
     0
290
     0
174
     0
 93
        1
 44
0.0
173
     0
291
     1
 45
0.0
  0
VISUALSTYLE
  5
34
102
{ACAD_REACTORS
330
2A
102
}
102
{ACAD_XDICTIONARY
360
2D4
102
}
330
2A
100
AcDbVisualStyle
  2
Conceptual
 70
     9
 71
     3
 72
     2
 73
     0
 90
        0
 40
0.6
 41
30.0
 62
     5
 63
     7
421
 16777215
 74
     2
 91
        2
 64
     7
 65
   257
 75
     1
175
     1
 42
179.0
 92
        8
 66
     7
 43
1.0
 76
     1
 77
     6
 78
     2
 67
     7
 79
     3
170
     0
171
     0
290
     0
174
     0
 93
        1
 44
0.0
173
     0
291
     0
 45
0.0
  0
VISUALSTYLE
  5
35
102
{ACAD_REACTORS
330
2A
102
}
102
{ACAD_XDICTIONARY
360
2D6
102
}
330
2A
100
AcDbVisualStyle
  2
Dim
 70
    11
 71
     2
 72
     2
 73
     0
 90
        0
 40
0.6
 41
30.0
 62
     5
 63
     7
421
 16777215
 74
     1
 91
        4
 64
     7
 65
   257
 75
     1
175
     1
 42
1.0
 92
        8
 66
     7
 43
1.0
 76
     1
 77
     6
 78
     2
 67
     7
 79
     5
170
     0
171
     0
290
     0
174
     0
 93
        1
 44
-50.0
173
     0
291
     1
 45
0.0
  0
VISUALSTYLE
  5
3D
102
{ACAD_REACTORS
330
2A
102
}
102
{ACAD_XDICTIONARY
360
2E6
102
}
330
2A
100
AcDbVisualStyle
  2
EdgeColorOff
 70
    22
 71
     2
 72
     2
 73
     0
 90
        0
 40
0.6
 41
30.0
 62
     5
 63
     7
421
 16777215
 74
     1
 91
        4
 64
     7
 65
   257
 75
     1
175
     1
 42
1.0
 92
        8
 66
     7
 43
1.0
 76
     1
 77
     6
 78
     2
 67
     7
 79
     5
170
     0
171
     0
290
     0
174
     0
 93
        1
 44
0.0
173
     0
291
     1
 45
0.0
  0
VISUALSTYLE
  5
39
102
{ACAD_REACTORS
330
2A
102
}
102
{ACAD_XDICTIONARY
360
2DE
102
}
330
2A
100
AcDbVisualStyle
  2
Facepattern
 70
    15
 71
     2
 72
     2
 73
     0
 90
        0
 40
0.6
 41
30.0
 62
     5
 63
     7
421
 16777215
 74
     1
 91
        4
 64
     7
 65
   257
 75
     1
175
     1
 42
1.0
 92
        8
 66
     7
 43
1.0
 76
     1
 77
     6
 78
     2
 67
     7
 79
     5
170
     0
171
     0
290
     0
174
     0
 93
        1
 44
0.0
173
     0
291
     1
 45
0.0
  0
VISUALSTYLE
  5
2B
102
{ACAD_REACTORS
330
2A
102
}
102
{ACAD_XDICTIONARY
360
2C2
102
}
330
2A
100
AcDbVisualStyle
  2
Flat
 70
     0
 71
     2
 72
     1
 73
     1
 90
        2
 40
0.6
 41
30.0
 62
     5
 63
     7
421
 16777215
 74
     0
 91
        0
 64
     7
 65
   257
 75
     1
175
     1
 42
1.0
 92
        8
 66
     7
 43
1.0
 76
     1
 77
     6
 78
     2
 67
     7
 79
     5
170
     0
171
     0
290
     0
174
     0
 93
       13
 44
0.0
173
     0
291
     1
 45
0.0
  0
VISUALSTYLE
  5
2C
102
{ACAD_REACTORS
330
2A
102
}
102
{ACAD_XDICTIONARY
360
2C4
102
}
330
2A
100
AcDbVisualStyle
  2
FlatWithEdges
 70
     1
 71
     2
 72
     1
 73
     1
 90
        2
 40
0.6
 41
30.0
 62
     5
 63
     7
421
 16777215
 74
     1
 91
        0
 64
     7
 65
   257
 75
     1
175
     1
 42
1.0
 92
        0
 66
   257
 43
1.0
 76
     1
 77
     6
 78
     2
 67
     7
 79
     5
170
     0
171
     0
290
     0
174
     0
 93
       13
 44
0.0
173
     0
291
     1
 45
0.0
  0
VISUALSTYLE
  5
2D
102
{ACAD_REACTORS
330
2A
102
}
102
{ACAD_XDICTIONARY
360
2C6
102
}
330
2A
100
AcDbVisualStyle
  2
Gouraud
 70
     2
 71
     2
 72
     2
 73
     1
 90
        2
 40
0.6
 41
30.0
 62
     5
 63
     7
421
 16777215
 74
     0
 91
        0
 64
     7
 65
   257
 75
     1
175
     1
 42
1.0
 92
        0
 66
     7
 43
1.0
 76
     1
 77
     6
 78
     2
 67
     7
 79
     5
170
     0
171
     0
290
     0
174
     0
 93
       13
 44
0.0
173
     0
291
     1
 45
0.0
  0
VISUALSTYLE
  5
2E
102
{ACAD_REACTORS
330
2A
102
}
102
{ACAD_XDICTIONARY
360
2C8
102
}
330
2A
100
AcDbVisualStyle
  2
GouraudWithEdges
 70
     3
 71
     2
 72
     2
 73
     1
 90
        2
 40
0.6
 41
30.0
 62
     5
 63
     7
421
 16777215
 74
     1
 91
        0
 64
     7
 65
   257
 75
     1
175
     1
 42
1.0
 92
        0
 66
   257
 43
1.0
 76
     1
 77
     6
 78
     2
 67
     7
 79
     5
170
     0
171
     0
290
     0
174
     0
 93
       13
 44
0.0
173
     0
291
     1
 45
0.0
  0
VISUALSTYLE
  5
31
102
{ACAD_REACTORS
330
2A
102
}
102
{ACAD_XDICTIONARY
360
2CE
102
}
330
2A
100
AcDbVisualStyle
  2
Hidden
 70
     6
 71
     1
 72
     2
 73
     2
 90
        0
 40
0.6
 41
30.0
 62
     5
 63
     7
421
 16777215
 74
     2
 91
        2
 64
     7
 65
   257
 75
     2
175
     1
 42
40.0
 92
        0
 66
   257
 43
1.0
 76
     1
 77
     6
 78
     2
 67
     7
 79
     3
170
     0
171
     0
290
     0
174
     0
 93
        1
 44
0.0
173
     0
291
     0
 45
0.0
  0
VISUALSTYLE
  5
3B
102
{ACAD_REACTORS
330
2A
102
}
102
{ACAD_XDICTIONARY
360
2E2
102
}
330
2A
100
AcDbVisualStyle
  2
JitterOff
 70
    20
 71
     2
 72
     2
 73
     0
 90
        0
 40
0.6
 41
30.0
 62
     5
 63
     7
421
 16777215
 74
     1
 91
        4
 64
     7
 65
   257
 75
     1
175
     1
 42
1.0
 92
       10
 66
     7
 43
1.0
 76
     1
 77
     6
 78
     2
 67
     7
 79
     5
170
     0
171
     0
290
     0
174
     0
 93
        1
 44
0.0
173
     0
291
     1
 45
0.0
  0
VISUALSTYLE
  5
38
102
{ACAD_REACTORS
330
2A
102
}
102
{ACAD_XDICTIONARY
360
2DC
102
}
330
2A
100
AcDbVisualStyle
  2
Linepattern
 70
    14
 71
     2
 72
     2
 73
     0
 90
        0
 40
0.6
 41
30.0
 62
     5
 63
     7
421
 16777215
 74
     1
 91
        4
 64
     7
 65
   257
 75
     7
175
     7
 42
1.0
 92
        8
 66
     7
 43
1.0
 76
     1
 77
     6
 78
     2
 67
     7
 79
     5
170
     0
171
     0
290
     0
174
     0
 93
        1
 44
0.0
173
     0
291
     1
 45
0.0
  0
VISUALSTYLE
  5
3C
102
{ACAD_REACTORS
330
2A
102
}
102
{ACAD_XDICTIONARY
360
2E4
102
}
330
2A
100
AcDbVisualStyle
  2
OverhangOff
 70
    21
 71
     2
 72
     2
 73
     0
 90
        0
 40
0.6
 41
30.0
 62
     5
 63
     7
421
 16777215
 74
     1
 91
        4
 64
     7
 65
   257
 75
     1
175
     1
 42
1.0
 92
        9
 66
     7
 43
1.0
 76
     1
 77
     6
 78
     2
 67
     7
 79
     5
170
     0
171
     0
290
     0
174
     0
 93
        1
 44
0.0
173
     0
291
     1
 45
0.0
  0
VISUALSTYLE
  5
33
102
{ACAD_REACTORS
330
2A
102
}
102
{ACAD_XDICTIONARY
360
2D2
102
}
330
2A
100
AcDbVisualStyle
  2
Realistic
 70
     8
 71
     2
 72
     3
 73
     0
 90
        2
 40
0.6
 41
30.0
 62
     5
 63
     7
421
 16777215
 74
     0
 91
        0
 64
     7
 65
   257
 75
     1
175
     1
 42
1.0
 92
        8
 66
   257
 43
1.0
 76
     1
 77
     6
 78
     2
 67
     7
 79
     3
170
     0
171
     0
290
     0
174
     0
 93
       13
 44
0.0
173
     0
291
     0
 45
0.0
  0
VISUALSTYLE
  5
42
102
{ACAD_REACTORS
330
2A
102
}
102
{ACAD_XDICTIONARY
360
2F0
102
}
330
2A
100
AcDbVisualStyle
  2
Shaded
 70
    27
 71
     2
 72
     2
 73
     1
 90
        2
 40
0.6
 41
30.0
 62
     5
 63
     7
421
 16777215
 74
     0
 91
        4
 64
     7
 65
   257
 75
     1
175
     1
 42
1.0
 92
        8
 66
   257
 43
1.0
 76
     1
 77
     6
 78
     2
 67
     8
425
  7895160
 79
     3
170
     0
171
     0
290
     0
174
     0
 93
        5
 44
0.0
173
     0
291
     0
 45
0.0
  0
VISUALSTYLE
  5
41
102
{ACAD_REACTORS
330
2A
102
}
102
{ACAD_XDICTIONARY
360
2EE
102
}
330
2A
100
AcDbVisualStyle
  2
Shaded with edges
 70
    26
 71
     2
 72
     2
 73
     1
 90
        2
 40
0.6
 41
30.0
 62
     5
 63
     7
421
 16777215
 74
     1
 91
       10
 64
     7
 65
   257
 75
     2
175
     1
 42
1.0
 92
        8
 66
   257
 43
1.0
 76
     1
 77
     6
 78
     2
 67
     7
 79
     3
170
     0
171
     0
290
     0
174
     0
 93
        5
 44
0.0
173
     0
291
     0
 45
0.0
  0
VISUALSTYLE
  5
3E
102
{ACAD_REACTORS
330
2A
102
}
102
{ACAD_XDICTIONARY
360
2E8
102
}
330
2A
100
AcDbVisualStyle
  2
Shades of Gray
 70
    23
 71
     2
 72
     2
 73
     3
 90
        0
 40
0.6
 41
30.0
 62
     5
 63
     7
421
 16777215
 74
     2
 91
        2
 64
     7
 65
     7
 75
     1
175
     1
 42
40.0
 92
        8
 66
     7
 43
1.0
 76
     1
 77
     6
 78
     2
 67
     7
 79
     3
170
     0
171
     0
290
     0
174
     0
 93
        1
 44
0.0
173
     0
291
     0
 45
0.0
  0
VISUALSTYLE
  5
3F
102
{ACAD_REACTORS
330
2A
102
}
102
{ACAD_XDICTIONARY
360
2EA
102
}
330
2A
100
AcDbVisualStyle
  2
Sketchy
 70
    24
 71
     1
 72
     2
 73
     2
 90
        0
 40
0.6
 41
30.0
 62
     5
 63
     7
421
 16777215
 74
     2
 91
        2
 64
     7
 65
     7
 75
     1
175
     1
 42
40.0
 92
       11
 66
     7
 43
1.0
 76
     1
 77
     6
 78
     2
 67
     7
 79
     6
170
     0
171
     0
290
     0
174
     0
 93
        1
 44
0.0
173
     0
291
     0
 45
0.0
  0
VISUALSTYLE
  5
37
102
{ACAD_REACTORS
330
2A
102
}
102
{ACAD_XDICTIONARY
360
2DA
102
}
330
2A
100
AcDbVisualStyle
  2
Thicken
 70
    13
 71
     2
 72
     2
 73
     0
 90
        0
 40
0.6
 41
30.0
 62
     5
 63
     7
421
 16777215
 74
     1
 91
        4
 64
     7
 65
   257
 75
     1
175
     1
 42
1.0
 92
       12
 66
     7
 43
1.0
 76
     1
 77
     6
 78
     2
 67
     7
 79
     5
170
     0
171
     0
290
     0
174
     0
 93
        1
 44
0.0
173
     0
291
     1
 45
0.0
  0
VISUALSTYLE
  5
30
102
{ACAD_REACTORS
330
2A
102
}
102
{ACAD_XDICTIONARY
360
2CC
102
}
330
2A
100
AcDbVisualStyle
  2
Wireframe
 70
     5
 71
     0
 72
     2
 73
     0
 90
        0
 40
0.6
 41
30.0
 62
     5
 63
     7
421
 16777215
 74
     1
 91
        4
 64
     7
 65
   257
 75
     1
175
     1
 42
1.0
 92
        0
 66
   257
 43
1.0
 76
     1
 77
     6
 78
     2
 67
     7
 79
     3
170
     0
171
     0
290
     0
174
     0
 93
        1
 44
0.0
173
     0
291
     0
 45
0.0
  0
VISUALSTYLE
  5
40
102
{ACAD_REACTORS
330
2A
102
}
102
{ACAD_XDICTIONARY
360
2EC
102
}
330
2A
100
AcDbVisualStyle
  2
X-Ray
 70
    25
 71
     2
 72
     2
 73
     1
 90
        1
 40
0.5
 41
30.0
 62
     5
 63
     7
421
 16777215
 74
     1
 91
        0
 64
     7
 65
   257
 75
     1
175
     1
 42
1.0
 92
        8
 66
     7
 43
1.0
 76
     1
 77
     6
 78
     2
 67
     7
 79
     3
170
     0
171
     0
290
     0
174
     0
 93
       13
 44
0.0
173
     0
291
     0
 45
0.0
  0
DICTIONARYVAR
  5
2C0
102
{ACAD_REACTORS
330
2BF
102
}
330
2BF
100
DictionaryVariables
280
     0
  1
1:1
  0
DICTIONARYVAR
  5
2FB
102
{ACAD_REACTORS
330
2BF
102
}
330
2BF
100
DictionaryVariables
280
     0
  1
3.500000
  0
DICTIONARYVAR
  5
2FC
102
{ACAD_REACTORS
330
2BF
102
}
330
2BF
100
DictionaryVariables
280
     0
  1
acadiso.lin
  0
DICTIONARYVAR
  5
2F8
102
{ACAD_REACTORS
330
2BF
102
}
330
2BF
100
DictionaryVariables
280
     0
  1
Standard
  0
DICTIONARYVAR
  5
2F7
102
{ACAD_REACTORS
330
2BF
102
}
330
2BF
100
DictionaryVariables
280
     0
  1
Standard
  0
DICTIONARYVAR
  5
2C1
102
{ACAD_REACTORS
330
2BF
102
}
330
2BF
100
DictionaryVariables
280
     0
  1
2
  0
DICTIONARY
  5
2F4
330
6C
100
AcDbDictionary
280
     1
281
     1
  3
ACAD_XREC_ROUNDTRIP
360
2F5
  0
DICTIONARY
  5
2F2
330
6A
100
AcDbDictionary
280
     1
281
     1
  3
ACAD_ROUNDTRIP_2008_TABLESTYLE_CELLSTYLEMAP
360
2F3
  0
DICTIONARY
  5
2CA
330
2F
100
AcDbDictionary
280
     1
281
     1
  3
ACAD_XREC_ROUNDTRIP
360
2CB
  0
DICTIONARY
  5
2D0
330
32
100
AcDbDictionary
280
     1
281
     1
  3
ACAD_XREC_ROUNDTRIP
360
2D1
  0
DICTIONARY
  5
2D8
330
36
100
AcDbDictionary
280
     1
281
     1
  3
ACAD_XREC_ROUNDTRIP
360
2D9
  0
DICTIONARY
  5
2E0
330
3A
100
AcDbDictionary
280
     1
281
     1
  3
ACAD_XREC_ROUNDTRIP
360
2E1
  0
DICTIONARY
  5
2D4
330
34
100
AcDbDictionary
280
     1
281
     1
  3
ACAD_XREC_ROUNDTRIP
360
2D5
  0
DICTIONARY
  5
2D6
330
35
100
AcDbDictionary
280
     1
281
     1
  3
ACAD_XREC_ROUNDTRIP
360
2D7
  0
DICTIONARY
  5
2E6
330
3D
100
AcDbDictionary
280
     1
281
     1
  3
ACAD_XREC_ROUNDTRIP
360
2E7
  0
DICTIONARY
  5
2DE
330
39
100
AcDbDictionary
280
     1
281
     1
  3
ACAD_XREC_ROUNDTRIP
360
2DF
  0
DICTIONARY
  5
2C2
330
2B
100
AcDbDictionary
280
     1
281
     1
  3
ACAD_XREC_ROUNDTRIP
360
2C3
  0
DICTIONARY
  5
2C4
330
2C
100
AcDbDictionary
280
     1
281
     1
  3
ACAD_XREC_ROUNDTRIP
360
2C5
  0
DICTIONARY
  5
2C6
330
2D
100
AcDbDictionary
280
     1
281
     1
  3
ACAD_XREC_ROUNDTRIP
360
2C7
  0
DICTIONARY
  5
2C8
330
2E
100
AcDbDictionary
280
     1
281
     1
  3
ACAD_XREC_ROUNDTRIP
360
2C9
  0
DICTIONARY
  5
2CE
330
31
100
AcDbDictionary
280
     1
281
     1
  3
ACAD_XREC_ROUNDTRIP
360
2CF
  0
DICTIONARY
  5
2E2
330
3B
100
AcDbDictionary
280
     1
281
     1
  3
ACAD_XREC_ROUNDTRIP
360
2E3
  0
DICTIONARY
  5
2DC
330
38
100
AcDbDictionary
280
     1
281
     1
  3
ACAD_XREC_ROUNDTRIP
360
2DD
  0
DICTIONARY
  5
2E4
330
3C
100
AcDbDictionary
280
     1
281
     1
  3
ACAD_XREC_ROUNDTRIP
360
2E5
  0
DICTIONARY
  5
2D2
330
33
100
AcDbDictionary
280
     1
281
     1
  3
ACAD_XREC_ROUNDTRIP
360
2D3
  0
DICTIONARY
  5
2F0
330
42
100
AcDbDictionary
280
     1
281
     1
  3
ACAD_XREC_ROUNDTRIP
360
2F1
  0
DICTIONARY
  5
2EE
330
41
100
AcDbDictionary
280
     1
281
     1
  3
ACAD_XREC_ROUNDTRIP
360
2EF
  0
DICTIONARY
  5
2E8
330
3E
100
AcDbDictionary
280
     1
281
     1
  3
ACAD_XREC_ROUNDTRIP
360
2E9
  0
DICTIONARY
  5
2EA
330
3F
100
AcDbDictionary
280
     1
281
     1
  3
ACAD_XREC_ROUNDTRIP
360
2EB
  0
DICTIONARY
  5
2DA
330
37
100
AcDbDictionary
280
     1
281
     1
  3
ACAD_XREC_ROUNDTRIP
360
2DB
  0
DICTIONARY
  5
2CC
330
30
100
AcDbDictionary
280
     1
281
     1
  3
ACAD_XREC_ROUNDTRIP
360
2CD
  0
DICTIONARY
  5
2EC
330
40
100
AcDbDictionary
280
     1
281
     1
  3
ACAD_XREC_ROUNDTRIP
360
2ED
  0
XRECORD
  5
2F5
102
{ACAD_REACTORS
330
2F4
102
}
330
2F4
100
AcDbXrecord
280
     1
102
ACAD_ROUNDTRIP_2010_MLEADER_STYLE
  0
CELLSTYLEMAP
  5
2F3
102
{ACAD_REACTORS
330
2F2
102
}
330
2F2
100
AcDbCellStyleMap
 90
        3
300
CELLSTYLE
  1
TABLEFORMAT_BEGIN
 90
        5
170
     1
 91
        0
 92
    32768
 62
   257
 93
        1
300
CONTENTFORMAT
  1
CONTENTFORMAT_BEGIN
 90
        0
 91
        0
 92
        4
 93
        0
300

 40
0.0
140
1.0
 94
        5
 62
     0
340
11
144
6.0
309
CONTENTFORMAT_END
171
     1
301
MARGIN
  1
CELLMARGIN_BEGIN
 40
1.5
 40
1.5
 40
1.5
 40
1.5
 40
1.5
 40
1.5
309
CELLMARGIN_END
 94
        6
 95
        1
302
GRIDFORMAT
  1
GRIDFORMAT_BEGIN
 90
        0
 91
        1
 62
     0
 92
       -2
340
14
 93
        0
 40
0.045
309
GRIDFORMAT_END
 95
        2
302
GRIDFORMAT
  1
GRIDFORMAT_BEGIN
 90
        0
 91
        1
 62
     0
 92
       -2
340
14
 93
        0
 40
0.045
309
GRIDFORMAT_END
 95
        4
302
GRIDFORMAT
  1
GRIDFORMAT_BEGIN
 90
        0
 91
        1
 62
     0
 92
       -2
340
14
 93
        0
 40
0.045
309
GRIDFORMAT_END
 95
        8
302
GRIDFORMAT
  1
GRIDFORMAT_BEGIN
 90
        0
 91
        1
 62
     0
 92
       -2
340
14
 93
        0
 40
0.045
309
GRIDFORMAT_END
 95
       16
302
GRIDFORMAT
  1
GRIDFORMAT_BEGIN
 90
        0
 91
        1
 62
     0
 92
       -2
340
14
 93
        0
 40
0.045
309
GRIDFORMAT_END
 95
       32
302
GRIDFORMAT
  1
GRIDFORMAT_BEGIN
 90
        0
 91
        1
 62
     0
 92
       -2
340
14
 93
        0
 40
0.045
309
GRIDFORMAT_END
309
TABLEFORMAT_END
  1
CELLSTYLE_BEGIN
 90
        1
 91
        1
300
_TITLE
309
CELLSTYLE_END
300
CELLSTYLE
  1
TABLEFORMAT_BEGIN
 90
        5
170
     1
 91
        0
 92
        0
 62
   257
 93
        1
300
CONTENTFORMAT
  1
CONTENTFORMAT_BEGIN
 90
        0
 91
        0
 92
        4
 93
        0
300

 40
0.0
140
1.0
 94
        5
 62
     0
340
11
144
4.5
309
CONTENTFORMAT_END
171
     1
301
MARGIN
  1
CELLMARGIN_BEGIN
 40
1.5
 40
1.5
 40
1.5
 40
1.5
 40
1.5
 40
1.5
309
CELLMARGIN_END
 94
        6
 95
        1
302
GRIDFORMAT
  1
GRIDFORMAT_BEGIN
 90
        0
 91
        1
 62
     0
 92
       -2
340
14
 93
        0
 40
0.045
309
GRIDFORMAT_END
 95
        2
302
GRIDFORMAT
  1
GRIDFORMAT_BEGIN
 90
        0
 91
        1
 62
     0
 92
       -2
340
14
 93
        0
 40
0.045
309
GRIDFORMAT_END
 95
        4
302
GRIDFORMAT
  1
GRIDFORMAT_BEGIN
 90
        0
 91
        1
 62
     0
 92
       -2
340
14
 93
        0
 40
0.045
309
GRIDFORMAT_END
 95
        8
302
GRIDFORMAT
  1
GRIDFORMAT_BEGIN
 90
        0
 91
        1
 62
     0
 92
       -2
340
14
 93
        0
 40
0.045
309
GRIDFORMAT_END
 95
       16
302
GRIDFORMAT
  1
GRIDFORMAT_BEGIN
 90
        0
 91
        1
 62
     0
 92
       -2
340
14
 93
        0
 40
0.045
309
GRIDFORMAT_END
 95
       32
302
GRIDFORMAT
  1
GRIDFORMAT_BEGIN
 90
        0
 91
        1
 62
     0
 92
       -2
340
14
 93
        0
 40
0.045
309
GRIDFORMAT_END
309
TABLEFORMAT_END
  1
CELLSTYLE_BEGIN
 90
        2
 91
        1
300
_HEADER
309
CELLSTYLE_END
300
CELLSTYLE
  1
TABLEFORMAT_BEGIN
 90
        5
170
     1
 91
        0
 92
        0
 62
   257
 93
        1
300
CONTENTFORMAT
  1
CONTENTFORMAT_BEGIN
 90
        0
 91
        0
 92
        4
 93
        0
300

 40
0.0
140
1.0
 94
        2
 62
     0
340
11
144
4.5
309
CONTENTFORMAT_END
171
     1
301
MARGIN
  1
CELLMARGIN_BEGIN
 40
1.5
 40
1.5
 40
1.5
 40
1.5
 40
1.5
 40
1.5
309
CELLMARGIN_END
 94
        6
 95
        1
302
GRIDFORMAT
  1
GRIDFORMAT_BEGIN
 90
        0
 91
        1
 62
     0
 92
       -2
340
14
 93
        0
 40
0.045
309
GRIDFORMAT_END
 95
        2
302
GRIDFORMAT
  1
GRIDFORMAT_BEGIN
 90
        0
 91
        1
 62
     0
 92
       -2
340
14
 93
        0
 40
0.045
309
GRIDFORMAT_END
 95
        4
302
GRIDFORMAT
  1
GRIDFORMAT_BEGIN
 90
        0
 91
        1
 62
     0
 92
       -2
340
14
 93
        0
 40
0.045
309
GRIDFORMAT_END
 95
        8
302
GRIDFORMAT
  1
GRIDFORMAT_BEGIN
 90
        0
 91
        1
 62
     0
 92
       -2
340
14
 93
        0
 40
0.045
309
GRIDFORMAT_END
 95
       16
302
GRIDFORMAT
  1
GRIDFORMAT_BEGIN
 90
        0
 91
        1
 62
     0
 92
       -2
340
14
 93
        0
 40
0.045
309
GRIDFORMAT_END
 95
       32
302
GRIDFORMAT
  1
GRIDFORMAT_BEGIN
 90
        0
 91
        1
 62
     0
 92
       -2
340
14
 93
        0
 40
0.045
309
GRIDFORMAT_END
309
TABLEFORMAT_END
  1
CELLSTYLE_BEGIN
 90
        3
 91
        2
300
_DATA
309
CELLSTYLE_END
  0
XRECORD
  5
2CB
102
{ACAD_REACTORS
330
2CA
102
}
330
2CA
100
AcDbXrecord
280
     1
102
RTVSPropertyOp0
 70
     1
102
RTVSPropertyOp1
 70
     1
102
RTVSPropertyOp2
 70
     1
102
RTVSPropertyOp3
 70
     1
102
RTVSPropertyOp4
 70
     1
102
RTVSPropertyOp5
 70
     1
102
RTVSPropertyOp6
 70
     1
102
RTVSPropertyOp7
 70
     1
102
RTVSPropertyOp8
 70
     1
102
RTVSPropertyOp9
 70
     1
102
RTVSPropertyOp10
 70
     1
102
RTVSPropertyOp11
 70
     1
102
RTVSPropertyOp12
 70
     1
102
RTVSPropertyOp13
 70
     1
102
RTVSPropertyOp14
 70
     1
102
RTVSPropertyOp15
 70
     1
102
RTVSPropertyOp16
 70
     1
102
RTVSPropertyOp17
 70
     1
102
RTVSPropertyOp18
 70
     1
102
RTVSPropertyOp19
 70
     1
102
RTVSPropertyOp20
 70
     1
102
RTVSPropertyOp21
 70
     1
102
RTVSPropertyOp22
 70
     1
102
RTVSPropertyOp23
 70
     1
102
RTVSPropertyOp24
 70
     1
102
RTVSPropertyOp25
 70
     1
102
RTVSPropertyOp26
 70
     1
102
RTVSPropertyOp27
 70
     1
102
RTVSPropertyOp28
 70
     1
102
RTVSPropertyOp29
 70
     1
102
RTVSPropertyOp30
 70
     1
102
RTVSPropertyOp31
 70
     1
102
RTVSPropertyOp32
 70
     1
102
RTVSPropertyOp33
 70
     1
102
RTVSPropertyOp34
 70
     1
102
RTVSPropertyOp35
 70
     1
102
RTVSPropertyOp36
 70
     1
102
RTVSPropertyOp37
 70
     1
102
RTVSPropertyOp38
 70
     1
102
RTVSPropertyOp39
 70
     1
102
RTVSPropertyOp40
 70
     1
102
RTVSPropertyOp41
 70
     1
102
RTVSPropertyOp42
 70
     1
102
RTVSPropertyOp43
 70
     1
102
RTVSPropertyOp44
 70
     1
102
RTVSPropertyOp45
 70
     1
102
RTVSPropertyOp46
 70
     1
102
RTVSPropertyOp47
 70
     1
102
RTVSPropertyOp48
 70
     1
102
RTVSPropertyOp49
 70
     1
102
RTVSPropertyOp50
 70
     1
102
RTVSPropertyOp51
 70
     0
102
RTVSPropertyOp52
 70
     0
102
RTVSPropertyOp53
 70
     1
102
RTVSPropertyOp54
 70
     1
102
RTVSPropertyOp55
 70
     1
102
RTVSPropertyOp56
 70
     1
102
RTVSPropertyOp57
 70
     1
102
RTVSPost2010Prop28
280
     1
102
RTVSPost2010PropOp28
 70
     1
102
RTVSPost2010Prop29
280
     1
102
RTVSPost2010PropOp29
 70
     1
102
RTVSPost2010Prop30
280
     0
102
RTVSPost2010PropOp30
 70
     1
102
RTVSPost2010Prop31
280
     0
102
RTVSPost2010PropOp31
 70
     1
102
RTVSPost2010Prop32
280
     0
102
RTVSPost2010PropOp32
 70
     1
102
RTVSPost2010Prop33
280
     0
102
RTVSPost2010PropOp33
 70
     1
102
RTVSPost2010Prop34
280
     0
102
RTVSPost2010PropOp34
 70
     1
102
RTVSPost2010Prop35
280
     0
102
RTVSPost2010PropOp35
 70
     1
102
RTVSPost2010Prop36
280
     0
102
RTVSPost2010PropOp36
 70
     1
102
RTVSPost2010Prop37
 90
       50
102
RTVSPost2010PropOp37
 70
     1
102
RTVSPost2010Prop38
140
0.0
102
RTVSPost2010PropOp38
 70
     1
102
RTVSPost2010Prop39
140
1.0
102
RTVSPost2010PropOp39
 70
     1
102
RTVSPost2010Prop40
 90
        0
102
RTVSPost2010PropOp40
 70
     1
102
RTVSPost2010Prop41ColorIndex
 90
       18
102
RTVSPost2010Prop41ColorRGB
 90
        0
102
RTVSPost2010PropOp41
 70
     1
102
RTVSPost2010Prop42
 90
       50
102
RTVSPost2010PropOp42
 70
     1
102
RTVSPost2010Prop43
 90
        3
102
RTVSPost2010PropOp43
 70
     1
102
RTVSPost2010Prop44ColorIndex
 90
        5
102
RTVSPost2010Prop44ColorRGB
 90
      255
102
RTVSPost2010PropOp44
 70
     1
102
RTVSPost2010Prop45
280
     0
102
RTVSPost2010PropOp45
 70
     1
102
RTVSPost2010Prop46
 90
       50
102
RTVSPost2010PropOp46
 70
     1
102
RTVSPost2010Prop47
 90
       50
102
RTVSPost2010PropOp47
 70
     1
102
RTVSPost2010Prop48
 90
       50
102
RTVSPost2010PropOp48
 70
     1
102
RTVSPost2010Prop49
280
     0
102
RTVSPost2010PropOp49
 70
     1
102
RTVSPost2010Prop50
 90
       50
102
RTVSPost2010PropOp50
 70
     1
102
RTVSPost2010Prop51ColorIndex
 90
      256
102
RTVSPost2010Prop51ColorRGB
 90
-16777216
102
RTVSPost2010PropOp51
 70
     0
102
RTVSPost2010Prop52
140
1.0
102
RTVSPost2010PropOp52
 70
     0
102
RTVSPost2010Prop53
 90
        2
102
RTVSPost2010PropOp53
 70
     1
102
RTVSPost2010Prop54
  1
strokes_ogs.tif
102
RTVSPost2010PropOp54
 70
     1
102
RTVSPost2010Prop55
280
     0
102
RTVSPost2010PropOp55
 70
     1
102
RTVSPost2010Prop56
140
1.0
102
RTVSPost2010PropOp56
 70
     1
102
RTVSPost2010Prop57
140
1.0
102
RTVSPost2010PropOp57
 70
     1
  0
XRECORD
  5
2D1
102
{ACAD_REACTORS
330
2D0
102
}
330
2D0
100
AcDbXrecord
280
     1
102
RTVSPropertyOp0
 70
     1
102
RTVSPropertyOp1
 70
     1
102
RTVSPropertyOp2
 70
     1
102
RTVSPropertyOp3
 70
     1
102
RTVSPropertyOp4
 70
     1
102
RTVSPropertyOp5
 70
     1
102
RTVSPropertyOp6
 70
     1
102
RTVSPropertyOp7
 70
     1
102
RTVSPropertyOp8
 70
     1
102
RTVSPropertyOp9
 70
     1
102
RTVSPropertyOp10
 70
     1
102
RTVSPropertyOp11
 70
     1
102
RTVSPropertyOp12
 70
     1
102
RTVSPropertyOp13
 70
     1
102
RTVSPropertyOp14
 70
     1
102
RTVSPropertyOp15
 70
     1
102
RTVSPropertyOp16
 70
     1
102
RTVSPropertyOp17
 70
     1
102
RTVSPropertyOp18
 70
     1
102
RTVSPropertyOp19
 70
     1
102
RTVSPropertyOp20
 70
     1
102
RTVSPropertyOp21
 70
     1
102
RTVSPropertyOp22
 70
     1
102
RTVSPropertyOp23
 70
     1
102
RTVSPropertyOp24
 70
     1
102
RTVSPropertyOp25
 70
     1
102
RTVSPropertyOp26
 70
     1
102
RTVSPropertyOp27
 70
     1
102
RTVSPropertyOp28
 70
     1
102
RTVSPropertyOp29
 70
     1
102
RTVSPropertyOp30
 70
     1
102
RTVSPropertyOp31
 70
     1
102
RTVSPropertyOp32
 70
     1
102
RTVSPropertyOp33
 70
     1
102
RTVSPropertyOp34
 70
     1
102
RTVSPropertyOp35
 70
     1
102
RTVSPropertyOp36
 70
     1
102
RTVSPropertyOp37
 70
     1
102
RTVSPropertyOp38
 70
     1
102
RTVSPropertyOp39
 70
     1
102
RTVSPropertyOp40
 70
     1
102
RTVSPropertyOp41
 70
     1
102
RTVSPropertyOp42
 70
     1
102
RTVSPropertyOp43
 70
     1
102
RTVSPropertyOp44
 70
     1
102
RTVSPropertyOp45
 70
     1
102
RTVSPropertyOp46
 70
     1
102
RTVSPropertyOp47
 70
     1
102
RTVSPropertyOp48
 70
     1
102
RTVSPropertyOp49
 70
     1
102
RTVSPropertyOp50
 70
     1
102
RTVSPropertyOp51
 70
     0
102
RTVSPropertyOp52
 70
     0
102
RTVSPropertyOp53
 70
     1
102
RTVSPropertyOp54
 70
     1
102
RTVSPropertyOp55
 70
     1
102
RTVSPropertyOp56
 70
     1
102
RTVSPropertyOp57
 70
     1
102
RTVSPost2010Prop28
280
     0
102
RTVSPost2010PropOp28
 70
     1
102
RTVSPost2010Prop29
280
     1
102
RTVSPost2010PropOp29
 70
     1
102
RTVSPost2010Prop30
280
     1
102
RTVSPost2010PropOp30
 70
     1
102
RTVSPost2010Prop31
280
     0
102
RTVSPost2010PropOp31
 70
     1
102
RTVSPost2010Prop32
280
     0
102
RTVSPost2010PropOp32
 70
     1
102
RTVSPost2010Prop33
280
     0
102
RTVSPost2010PropOp33
 70
     1
102
RTVSPost2010Prop34
280
     0
102
RTVSPost2010PropOp34
 70
     1
102
RTVSPost2010Prop35
280
     0
102
RTVSPost2010PropOp35
 70
     1
102
RTVSPost2010Prop36
280
     0
102
RTVSPost2010PropOp36
 70
     1
102
RTVSPost2010Prop37
 90
       50
102
RTVSPost2010PropOp37
 70
     1
102
RTVSPost2010Prop38
140
0.0
102
RTVSPost2010PropOp38
 70
     1
102
RTVSPost2010Prop39
140
1.0
102
RTVSPost2010PropOp39
 70
     1
102
RTVSPost2010Prop40
 90
        0
102
RTVSPost2010PropOp40
 70
     1
102
RTVSPost2010Prop41ColorIndex
 90
       18
102
RTVSPost2010Prop41ColorRGB
 90
        0
102
RTVSPost2010PropOp41
 70
     1
102
RTVSPost2010Prop42
 90
       50
102
RTVSPost2010PropOp42
 70
     1
102
RTVSPost2010Prop43
 90
        3
102
RTVSPost2010PropOp43
 70
     1
102
RTVSPost2010Prop44ColorIndex
 90
        5
102
RTVSPost2010Prop44ColorRGB
 90
      255
102
RTVSPost2010PropOp44
 70
     1
102
RTVSPost2010Prop45
280
     0
102
RTVSPost2010PropOp45
 70
     1
102
RTVSPost2010Prop46
 90
       50
102
RTVSPost2010PropOp46
 70
     1
102
RTVSPost2010Prop47
 90
       50
102
RTVSPost2010PropOp47
 70
     1
102
RTVSPost2010Prop48
 90
       50
102
RTVSPost2010PropOp48
 70
     1
102
RTVSPost2010Prop49
280
     0
102
RTVSPost2010PropOp49
 70
     1
102
RTVSPost2010Prop50
 90
       50
102
RTVSPost2010PropOp50
 70
     1
102
RTVSPost2010Prop51ColorIndex
 90
      256
102
RTVSPost2010Prop51ColorRGB
 90
-16777216
102
RTVSPost2010PropOp51
 70
     0
102
RTVSPost2010Prop52
140
1.0
102
RTVSPost2010PropOp52
 70
     0
102
RTVSPost2010Prop53
 90
        2
102
RTVSPost2010PropOp53
 70
     1
102
RTVSPost2010Prop54
  1
strokes_ogs.tif
102
RTVSPost2010PropOp54
 70
     1
102
RTVSPost2010Prop55
280
     0
102
RTVSPost2010PropOp55
 70
     1
102
RTVSPost2010Prop56
140
1.0
102
RTVSPost2010PropOp56
 70
     1
102
RTVSPost2010Prop57
140
1.0
102
RTVSPost2010PropOp57
 70
     1
  0
XRECORD
  5
2D9
102
{ACAD_REACTORS
330
2D8
102
}
330
2D8
100
AcDbXrecord
280
     1
102
RTVSPropertyOp0
 70
     1
102
RTVSPropertyOp1
 70
     1
102
RTVSPropertyOp2
 70
     1
102
RTVSPropertyOp3
 70
     1
102
RTVSPropertyOp4
 70
     1
102
RTVSPropertyOp5
 70
     1
102
RTVSPropertyOp6
 70
     1
102
RTVSPropertyOp7
 70
     1
102
RTVSPropertyOp8
 70
     1
102
RTVSPropertyOp9
 70
     1
102
RTVSPropertyOp10
 70
     1
102
RTVSPropertyOp11
 70
     1
102
RTVSPropertyOp12
 70
     1
102
RTVSPropertyOp13
 70
     1
102
RTVSPropertyOp14
 70
     1
102
RTVSPropertyOp15
 70
     1
102
RTVSPropertyOp16
 70
     1
102
RTVSPropertyOp17
 70
     1
102
RTVSPropertyOp18
 70
     1
102
RTVSPropertyOp19
 70
     1
102
RTVSPropertyOp20
 70
     1
102
RTVSPropertyOp21
 70
     1
102
RTVSPropertyOp22
 70
     1
102
RTVSPropertyOp23
 70
     1
102
RTVSPropertyOp24
 70
     1
102
RTVSPropertyOp25
 70
     1
102
RTVSPropertyOp26
 70
     1
102
RTVSPropertyOp27
 70
     1
102
RTVSPropertyOp28
 70
     1
102
RTVSPropertyOp29
 70
     1
102
RTVSPropertyOp30
 70
     1
102
RTVSPropertyOp31
 70
     1
102
RTVSPropertyOp32
 70
     1
102
RTVSPropertyOp33
 70
     1
102
RTVSPropertyOp34
 70
     1
102
RTVSPropertyOp35
 70
     1
102
RTVSPropertyOp36
 70
     1
102
RTVSPropertyOp37
 70
     1
102
RTVSPropertyOp38
 70
     1
102
RTVSPropertyOp39
 70
     1
102
RTVSPropertyOp40
 70
     1
102
RTVSPropertyOp41
 70
     1
102
RTVSPropertyOp42
 70
     1
102
RTVSPropertyOp43
 70
     1
102
RTVSPropertyOp44
 70
     1
102
RTVSPropertyOp45
 70
     1
102
RTVSPropertyOp46
 70
     1
102
RTVSPropertyOp47
 70
     1
102
RTVSPropertyOp48
 70
     1
102
RTVSPropertyOp49
 70
     1
102
RTVSPropertyOp50
 70
     1
102
RTVSPropertyOp51
 70
     0
102
RTVSPropertyOp52
 70
     0
102
RTVSPropertyOp53
 70
     1
102
RTVSPropertyOp54
 70
     1
102
RTVSPropertyOp55
 70
     1
102
RTVSPropertyOp56
 70
     1
102
RTVSPropertyOp57
 70
     1
102
RTVSPost2010Prop28
280
     0
102
RTVSPost2010PropOp28
 70
     1
102
RTVSPost2010Prop29
280
     1
102
RTVSPost2010PropOp29
 70
     1
102
RTVSPost2010Prop30
280
     1
102
RTVSPost2010PropOp30
 70
     1
102
RTVSPost2010Prop31
280
     0
102
RTVSPost2010PropOp31
 70
     1
102
RTVSPost2010Prop32
280
     0
102
RTVSPost2010PropOp32
 70
     1
102
RTVSPost2010Prop33
280
     0
102
RTVSPost2010PropOp33
 70
     1
102
RTVSPost2010Prop34
280
     0
102
RTVSPost2010PropOp34
 70
     1
102
RTVSPost2010Prop35
280
     0
102
RTVSPost2010PropOp35
 70
     1
102
RTVSPost2010Prop36
280
     0
102
RTVSPost2010PropOp36
 70
     1
102
RTVSPost2010Prop37
 90
       50
102
RTVSPost2010PropOp37
 70
     1
102
RTVSPost2010Prop38
140
0.0
102
RTVSPost2010PropOp38
 70
     1
102
RTVSPost2010Prop39
140
1.0
102
RTVSPost2010PropOp39
 70
     1
102
RTVSPost2010Prop40
 90
        0
102
RTVSPost2010PropOp40
 70
     1
102
RTVSPost2010Prop41ColorIndex
 90
       18
102
RTVSPost2010Prop41ColorRGB
 90
        0
102
RTVSPost2010PropOp41
 70
     1
102
RTVSPost2010Prop42
 90
       50
102
RTVSPost2010PropOp42
 70
     1
102
RTVSPost2010Prop43
 90
        3
102
RTVSPost2010PropOp43
 70
     1
102
RTVSPost2010Prop44ColorIndex
 90
        5
102
RTVSPost2010Prop44ColorRGB
 90
      255
102
RTVSPost2010PropOp44
 70
     1
102
RTVSPost2010Prop45
280
     0
102
RTVSPost2010PropOp45
 70
     1
102
RTVSPost2010Prop46
 90
       50
102
RTVSPost2010PropOp46
 70
     1
102
RTVSPost2010Prop47
 90
       50
102
RTVSPost2010PropOp47
 70
     1
102
RTVSPost2010Prop48
 90
       50
102
RTVSPost2010PropOp48
 70
     1
102
RTVSPost2010Prop49
280
     0
102
RTVSPost2010PropOp49
 70
     1
102
RTVSPost2010Prop50
 90
       50
102
RTVSPost2010PropOp50
 70
     1
102
RTVSPost2010Prop51ColorIndex
 90
      256
102
RTVSPost2010Prop51ColorRGB
 90
-16777216
102
RTVSPost2010PropOp51
 70
     0
102
RTVSPost2010Prop52
140
1.0
102
RTVSPost2010PropOp52
 70
     0
102
RTVSPost2010Prop53
 90
        2
102
RTVSPost2010PropOp53
 70
     1
102
RTVSPost2010Prop54
  1
strokes_ogs.tif
102
RTVSPost2010PropOp54
 70
     1
102
RTVSPost2010Prop55
280
     0
102
RTVSPost2010PropOp55
 70
     1
102
RTVSPost2010Prop56
140
1.0
102
RTVSPost2010PropOp56
 70
     1
102
RTVSPost2010Prop57
140
1.0
102
RTVSPost2010PropOp57
 70
     1
  0
XRECORD
  5
2E1
102
{ACAD_REACTORS
330
2E0
102
}
330
2E0
100
AcDbXrecord
280
     1
102
RTVSPropertyOp0
 70
     1
102
RTVSPropertyOp1
 70
     1
102
RTVSPropertyOp2
 70
     1
102
RTVSPropertyOp3
 70
     1
102
RTVSPropertyOp4
 70
     1
102
RTVSPropertyOp5
 70
     1
102
RTVSPropertyOp6
 70
     1
102
RTVSPropertyOp7
 70
     1
102
RTVSPropertyOp8
 70
     1
102
RTVSPropertyOp9
 70
     1
102
RTVSPropertyOp10
 70
     1
102
RTVSPropertyOp11
 70
     1
102
RTVSPropertyOp12
 70
     1
102
RTVSPropertyOp13
 70
     1
102
RTVSPropertyOp14
 70
     1
102
RTVSPropertyOp15
 70
     1
102
RTVSPropertyOp16
 70
     1
102
RTVSPropertyOp17
 70
     1
102
RTVSPropertyOp18
 70
     1
102
RTVSPropertyOp19
 70
     1
102
RTVSPropertyOp20
 70
     1
102
RTVSPropertyOp21
 70
     1
102
RTVSPropertyOp22
 70
     1
102
RTVSPropertyOp23
 70
     1
102
RTVSPropertyOp24
 70
     1
102
RTVSPropertyOp25
 70
     1
102
RTVSPropertyOp26
 70
     1
102
RTVSPropertyOp27
 70
     1
102
RTVSPropertyOp28
 70
     1
102
RTVSPropertyOp29
 70
     1
102
RTVSPropertyOp30
 70
     1
102
RTVSPropertyOp31
 70
     1
102
RTVSPropertyOp32
 70
     1
102
RTVSPropertyOp33
 70
     1
102
RTVSPropertyOp34
 70
     1
102
RTVSPropertyOp35
 70
     1
102
RTVSPropertyOp36
 70
     1
102
RTVSPropertyOp37
 70
     1
102
RTVSPropertyOp38
 70
     1
102
RTVSPropertyOp39
 70
     1
102
RTVSPropertyOp40
 70
     1
102
RTVSPropertyOp41
 70
     1
102
RTVSPropertyOp42
 70
     1
102
RTVSPropertyOp43
 70
     1
102
RTVSPropertyOp44
 70
     1
102
RTVSPropertyOp45
 70
     1
102
RTVSPropertyOp46
 70
     1
102
RTVSPropertyOp47
 70
     1
102
RTVSPropertyOp48
 70
     1
102
RTVSPropertyOp49
 70
     1
102
RTVSPropertyOp50
 70
     1
102
RTVSPropertyOp51
 70
     0
102
RTVSPropertyOp52
 70
     0
102
RTVSPropertyOp53
 70
     1
102
RTVSPropertyOp54
 70
     1
102
RTVSPropertyOp55
 70
     1
102
RTVSPropertyOp56
 70
     1
102
RTVSPropertyOp57
 70
     1
102
RTVSPost2010Prop28
280
     0
102
RTVSPost2010PropOp28
 70
     1
102
RTVSPost2010Prop29
280
     1
102
RTVSPost2010PropOp29
 70
     1
102
RTVSPost2010Prop30
280
     1
102
RTVSPost2010PropOp30
 70
     1
102
RTVSPost2010Prop31
280
     0
102
RTVSPost2010PropOp31
 70
     1
102
RTVSPost2010Prop32
280
     0
102
RTVSPost2010PropOp32
 70
     1
102
RTVSPost2010Prop33
280
     0
102
RTVSPost2010PropOp33
 70
     1
102
RTVSPost2010Prop34
280
     0
102
RTVSPost2010PropOp34
 70
     1
102
RTVSPost2010Prop35
280
     0
102
RTVSPost2010PropOp35
 70
     1
102
RTVSPost2010Prop36
280
     0
102
RTVSPost2010PropOp36
 70
     1
102
RTVSPost2010Prop37
 90
       50
102
RTVSPost2010PropOp37
 70
     1
102
RTVSPost2010Prop38
140
0.0
102
RTVSPost2010PropOp38
 70
     1
102
RTVSPost2010Prop39
140
1.0
102
RTVSPost2010PropOp39
 70
     1
102
RTVSPost2010Prop40
 90
        0
102
RTVSPost2010PropOp40
 70
     1
102
RTVSPost2010Prop41ColorIndex
 90
       18
102
RTVSPost2010Prop41ColorRGB
 90
        0
102
RTVSPost2010PropOp41
 70
     1
102
RTVSPost2010Prop42
 90
       50
102
RTVSPost2010PropOp42
 70
     1
102
RTVSPost2010Prop43
 90
        3
102
RTVSPost2010PropOp43
 70
     1
102
RTVSPost2010Prop44ColorIndex
 90
        5
102
RTVSPost2010Prop44ColorRGB
 90
      255
102
RTVSPost2010PropOp44
 70
     1
102
RTVSPost2010Prop45
280
     0
102
RTVSPost2010PropOp45
 70
     1
102
RTVSPost2010Prop46
 90
       50
102
RTVSPost2010PropOp46
 70
     1
102
RTVSPost2010Prop47
 90
       50
102
RTVSPost2010PropOp47
 70
     1
102
RTVSPost2010Prop48
 90
       50
102
RTVSPost2010PropOp48
 70
     1
102
RTVSPost2010Prop49
280
     0
102
RTVSPost2010PropOp49
 70
     1
102
RTVSPost2010Prop50
 90
       50
102
RTVSPost2010PropOp50
 70
     1
102
RTVSPost2010Prop51ColorIndex
 90
      256
102
RTVSPost2010Prop51ColorRGB
 90
-16777216
102
RTVSPost2010PropOp51
 70
     0
102
RTVSPost2010Prop52
140
1.0
102
RTVSPost2010PropOp52
 70
     0
102
RTVSPost2010Prop53
 90
        2
102
RTVSPost2010PropOp53
 70
     1
102
RTVSPost2010Prop54
  1
strokes_ogs.tif
102
RTVSPost2010PropOp54
 70
     1
102
RTVSPost2010Prop55
280
     0
102
RTVSPost2010PropOp55
 70
     1
102
RTVSPost2010Prop56
140
1.0
102
RTVSPost2010PropOp56
 70
     1
102
RTVSPost2010Prop57
140
1.0
102
RTVSPost2010PropOp57
 70
     1
  0
XRECORD
  5
2D5
102
{ACAD_REACTORS
330
2D4
102
}
330
2D4
100
AcDbXrecord
280
     1
102
RTVSPropertyOp0
 70
     1
102
RTVSPropertyOp1
 70
     1
102
RTVSPropertyOp2
 70
     1
102
RTVSPropertyOp3
 70
     1
102
RTVSPropertyOp4
 70
     1
102
RTVSPropertyOp5
 70
     1
102
RTVSPropertyOp6
 70
     1
102
RTVSPropertyOp7
 70
     1
102
RTVSPropertyOp8
 70
     1
102
RTVSPropertyOp9
 70
     1
102
RTVSPropertyOp10
 70
     1
102
RTVSPropertyOp11
 70
     1
102
RTVSPropertyOp12
 70
     1
102
RTVSPropertyOp13
 70
     1
102
RTVSPropertyOp14
 70
     1
102
RTVSPropertyOp15
 70
     1
102
RTVSPropertyOp16
 70
     1
102
RTVSPropertyOp17
 70
     1
102
RTVSPropertyOp18
 70
     1
102
RTVSPropertyOp19
 70
     1
102
RTVSPropertyOp20
 70
     1
102
RTVSPropertyOp21
 70
     1
102
RTVSPropertyOp22
 70
     1
102
RTVSPropertyOp23
 70
     1
102
RTVSPropertyOp24
 70
     1
102
RTVSPropertyOp25
 70
     1
102
RTVSPropertyOp26
 70
     1
102
RTVSPropertyOp27
 70
     1
102
RTVSPropertyOp28
 70
     1
102
RTVSPropertyOp29
 70
     1
102
RTVSPropertyOp30
 70
     1
102
RTVSPropertyOp31
 70
     1
102
RTVSPropertyOp32
 70
     1
102
RTVSPropertyOp33
 70
     1
102
RTVSPropertyOp34
 70
     1
102
RTVSPropertyOp35
 70
     1
102
RTVSPropertyOp36
 70
     1
102
RTVSPropertyOp37
 70
     1
102
RTVSPropertyOp38
 70
     1
102
RTVSPropertyOp39
 70
     1
102
RTVSPropertyOp40
 70
     1
102
RTVSPropertyOp41
 70
     1
102
RTVSPropertyOp42
 70
     1
102
RTVSPropertyOp43
 70
     1
102
RTVSPropertyOp44
 70
     1
102
RTVSPropertyOp45
 70
     1
102
RTVSPropertyOp46
 70
     1
102
RTVSPropertyOp47
 70
     1
102
RTVSPropertyOp48
 70
     1
102
RTVSPropertyOp49
 70
     1
102
RTVSPropertyOp50
 70
     1
102
RTVSPropertyOp51
 70
     0
102
RTVSPropertyOp52
 70
     0
102
RTVSPropertyOp53
 70
     1
102
RTVSPropertyOp54
 70
     1
102
RTVSPropertyOp55
 70
     1
102
RTVSPropertyOp56
 70
     1
102
RTVSPropertyOp57
 70
     1
102
RTVSPost2010Prop28
280
     0
102
RTVSPost2010PropOp28
 70
     1
102
RTVSPost2010Prop29
280
     1
102
RTVSPost2010PropOp29
 70
     1
102
RTVSPost2010Prop30
280
     1
102
RTVSPost2010PropOp30
 70
     1
102
RTVSPost2010Prop31
280
     0
102
RTVSPost2010PropOp31
 70
     1
102
RTVSPost2010Prop32
280
     0
102
RTVSPost2010PropOp32
 70
     1
102
RTVSPost2010Prop33
280
     0
102
RTVSPost2010PropOp33
 70
     1
102
RTVSPost2010Prop34
280
     0
102
RTVSPost2010PropOp34
 70
     1
102
RTVSPost2010Prop35
280
     0
102
RTVSPost2010PropOp35
 70
     1
102
RTVSPost2010Prop36
280
     0
102
RTVSPost2010PropOp36
 70
     1
102
RTVSPost2010Prop37
 90
       50
102
RTVSPost2010PropOp37
 70
     1
102
RTVSPost2010Prop38
140
0.0
102
RTVSPost2010PropOp38
 70
     1
102
RTVSPost2010Prop39
140
1.0
102
RTVSPost2010PropOp39
 70
     1
102
RTVSPost2010Prop40
 90
        0
102
RTVSPost2010PropOp40
 70
     1
102
RTVSPost2010Prop41ColorIndex
 90
       18
102
RTVSPost2010Prop41ColorRGB
 90
        0
102
RTVSPost2010PropOp41
 70
     1
102
RTVSPost2010Prop42
 90
       50
102
RTVSPost2010PropOp42
 70
     1
102
RTVSPost2010Prop43
 90
        3
102
RTVSPost2010PropOp43
 70
     1
102
RTVSPost2010Prop44ColorIndex
 90
        5
102
RTVSPost2010Prop44ColorRGB
 90
      255
102
RTVSPost2010PropOp44
 70
     1
102
RTVSPost2010Prop45
280
     0
102
RTVSPost2010PropOp45
 70
     1
102
RTVSPost2010Prop46
 90
       50
102
RTVSPost2010PropOp46
 70
     1
102
RTVSPost2010Prop47
 90
       50
102
RTVSPost2010PropOp47
 70
     1
102
RTVSPost2010Prop48
 90
       50
102
RTVSPost2010PropOp48
 70
     1
102
RTVSPost2010Prop49
280
     0
102
RTVSPost2010PropOp49
 70
     1
102
RTVSPost2010Prop50
 90
       50
102
RTVSPost2010PropOp50
 70
     1
102
RTVSPost2010Prop51ColorIndex
 90
      256
102
RTVSPost2010Prop51ColorRGB
 90
-16777216
102
RTVSPost2010PropOp51
 70
     0
102
RTVSPost2010Prop52
140
1.0
102
RTVSPost2010PropOp52
 70
     0
102
RTVSPost2010Prop53
 90
        2
102
RTVSPost2010PropOp53
 70
     1
102
RTVSPost2010Prop54
  1
strokes_ogs.tif
102
RTVSPost2010PropOp54
 70
     1
102
RTVSPost2010Prop55
280
     0
102
RTVSPost2010PropOp55
 70
     1
102
RTVSPost2010Prop56
140
1.0
102
RTVSPost2010PropOp56
 70
     1
102
RTVSPost2010Prop57
140
1.0
102
RTVSPost2010PropOp57
 70
     1
  0
XRECORD
  5
2D7
102
{ACAD_REACTORS
330
2D6
102
}
330
2D6
100
AcDbXrecord
280
     1
102
RTVSPropertyOp0
 70
     1
102
RTVSPropertyOp1
 70
     1
102
RTVSPropertyOp2
 70
     1
102
RTVSPropertyOp3
 70
     1
102
RTVSPropertyOp4
 70
     1
102
RTVSPropertyOp5
 70
     1
102
RTVSPropertyOp6
 70
     1
102
RTVSPropertyOp7
 70
     1
102
RTVSPropertyOp8
 70
     1
102
RTVSPropertyOp9
 70
     1
102
RTVSPropertyOp10
 70
     1
102
RTVSPropertyOp11
 70
     1
102
RTVSPropertyOp12
 70
     1
102
RTVSPropertyOp13
 70
     1
102
RTVSPropertyOp14
 70
     1
102
RTVSPropertyOp15
 70
     1
102
RTVSPropertyOp16
 70
     1
102
RTVSPropertyOp17
 70
     1
102
RTVSPropertyOp18
 70
     1
102
RTVSPropertyOp19
 70
     1
102
RTVSPropertyOp20
 70
     1
102
RTVSPropertyOp21
 70
     1
102
RTVSPropertyOp22
 70
     1
102
RTVSPropertyOp23
 70
     1
102
RTVSPropertyOp24
 70
     1
102
RTVSPropertyOp25
 70
     1
102
RTVSPropertyOp26
 70
     1
102
RTVSPropertyOp27
 70
     1
102
RTVSPropertyOp28
 70
     1
102
RTVSPropertyOp29
 70
     1
102
RTVSPropertyOp30
 70
     1
102
RTVSPropertyOp31
 70
     1
102
RTVSPropertyOp32
 70
     1
102
RTVSPropertyOp33
 70
     1
102
RTVSPropertyOp34
 70
     1
102
RTVSPropertyOp35
 70
     1
102
RTVSPropertyOp36
 70
     1
102
RTVSPropertyOp37
 70
     1
102
RTVSPropertyOp38
 70
     1
102
RTVSPropertyOp39
 70
     1
102
RTVSPropertyOp40
 70
     1
102
RTVSPropertyOp41
 70
     1
102
RTVSPropertyOp42
 70
     1
102
RTVSPropertyOp43
 70
     1
102
RTVSPropertyOp44
 70
     1
102
RTVSPropertyOp45
 70
     1
102
RTVSPropertyOp46
 70
     1
102
RTVSPropertyOp47
 70
     1
102
RTVSPropertyOp48
 70
     1
102
RTVSPropertyOp49
 70
     1
102
RTVSPropertyOp50
 70
     1
102
RTVSPropertyOp51
 70
     0
102
RTVSPropertyOp52
 70
     0
102
RTVSPropertyOp53
 70
     1
102
RTVSPropertyOp54
 70
     1
102
RTVSPropertyOp55
 70
     1
102
RTVSPropertyOp56
 70
     1
102
RTVSPropertyOp57
 70
     1
102
RTVSPost2010Prop28
280
     0
102
RTVSPost2010PropOp28
 70
     1
102
RTVSPost2010Prop29
280
     1
102
RTVSPost2010PropOp29
 70
     1
102
RTVSPost2010Prop30
280
     1
102
RTVSPost2010PropOp30
 70
     1
102
RTVSPost2010Prop31
280
     0
102
RTVSPost2010PropOp31
 70
     1
102
RTVSPost2010Prop32
280
     0
102
RTVSPost2010PropOp32
 70
     1
102
RTVSPost2010Prop33
280
     0
102
RTVSPost2010PropOp33
 70
     1
102
RTVSPost2010Prop34
280
     0
102
RTVSPost2010PropOp34
 70
     1
102
RTVSPost2010Prop35
280
     0
102
RTVSPost2010PropOp35
 70
     1
102
RTVSPost2010Prop36
280
     0
102
RTVSPost2010PropOp36
 70
     1
102
RTVSPost2010Prop37
 90
       50
102
RTVSPost2010PropOp37
 70
     1
102
RTVSPost2010Prop38
140
0.0
102
RTVSPost2010PropOp38
 70
     1
102
RTVSPost2010Prop39
140
1.0
102
RTVSPost2010PropOp39
 70
     1
102
RTVSPost2010Prop40
 90
        0
102
RTVSPost2010PropOp40
 70
     1
102
RTVSPost2010Prop41ColorIndex
 90
       18
102
RTVSPost2010Prop41ColorRGB
 90
        0
102
RTVSPost2010PropOp41
 70
     1
102
RTVSPost2010Prop42
 90
       50
102
RTVSPost2010PropOp42
 70
     1
102
RTVSPost2010Prop43
 90
        3
102
RTVSPost2010PropOp43
 70
     1
102
RTVSPost2010Prop44ColorIndex
 90
        5
102
RTVSPost2010Prop44ColorRGB
 90
      255
102
RTVSPost2010PropOp44
 70
     1
102
RTVSPost2010Prop45
280
     0
102
RTVSPost2010PropOp45
 70
     1
102
RTVSPost2010Prop46
 90
       50
102
RTVSPost2010PropOp46
 70
     1
102
RTVSPost2010Prop47
 90
       50
102
RTVSPost2010PropOp47
 70
     1
102
RTVSPost2010Prop48
 90
       50
102
RTVSPost2010PropOp48
 70
     1
102
RTVSPost2010Prop49
280
     0
102
RTVSPost2010PropOp49
 70
     1
102
RTVSPost2010Prop50
 90
       50
102
RTVSPost2010PropOp50
 70
     1
102
RTVSPost2010Prop51ColorIndex
 90
      256
102
RTVSPost2010Prop51ColorRGB
 90
-16777216
102
RTVSPost2010PropOp51
 70
     0
102
RTVSPost2010Prop52
140
1.0
102
RTVSPost2010PropOp52
 70
     0
102
RTVSPost2010Prop53
 90
        2
102
RTVSPost2010PropOp53
 70
     1
102
RTVSPost2010Prop54
  1
strokes_ogs.tif
102
RTVSPost2010PropOp54
 70
     1
102
RTVSPost2010Prop55
280
     0
102
RTVSPost2010PropOp55
 70
     1
102
RTVSPost2010Prop56
140
1.0
102
RTVSPost2010PropOp56
 70
     1
102
RTVSPost2010Prop57
140
1.0
102
RTVSPost2010PropOp57
 70
     1
  0
XRECORD
  5
2E7
102
{ACAD_REACTORS
330
2E6
102
}
330
2E6
100
AcDbXrecord
280
     1
102
RTVSPropertyOp0
 70
     0
102
RTVSPropertyOp1
 70
     0
102
RTVSPropertyOp2
 70
     0
102
RTVSPropertyOp3
 70
     0
102
RTVSPropertyOp4
 70
     0
102
RTVSPropertyOp5
 70
     0
102
RTVSPropertyOp6
 70
     0
102
RTVSPropertyOp7
 70
     0
102
RTVSPropertyOp8
 70
     0
102
RTVSPropertyOp9
 70
     0
102
RTVSPropertyOp10
 70
     0
102
RTVSPropertyOp11
 70
     0
102
RTVSPropertyOp12
 70
     0
102
RTVSPropertyOp13
 70
     0
102
RTVSPropertyOp14
 70
     2
102
RTVSPropertyOp15
 70
     0
102
RTVSPropertyOp16
 70
     0
102
RTVSPropertyOp17
 70
     0
102
RTVSPropertyOp18
 70
     0
102
RTVSPropertyOp19
 70
     0
102
RTVSPropertyOp20
 70
     0
102
RTVSPropertyOp21
 70
     0
102
RTVSPropertyOp22
 70
     0
102
RTVSPropertyOp23
 70
     0
102
RTVSPropertyOp24
 70
     0
102
RTVSPropertyOp25
 70
     0
102
RTVSPropertyOp26
 70
     0
102
RTVSPropertyOp27
 70
     0
102
RTVSPropertyOp28
 70
     0
102
RTVSPropertyOp29
 70
     0
102
RTVSPropertyOp30
 70
     0
102
RTVSPropertyOp31
 70
     0
102
RTVSPropertyOp32
 70
     0
102
RTVSPropertyOp33
 70
     0
102
RTVSPropertyOp34
 70
     0
102
RTVSPropertyOp35
 70
     0
102
RTVSPropertyOp36
 70
     0
102
RTVSPropertyOp37
 70
     0
102
RTVSPropertyOp38
 70
     0
102
RTVSPropertyOp39
 70
     0
102
RTVSPropertyOp40
 70
     0
102
RTVSPropertyOp41
 70
     0
102
RTVSPropertyOp42
 70
     0
102
RTVSPropertyOp43
 70
     0
102
RTVSPropertyOp44
 70
     0
102
RTVSPropertyOp45
 70
     0
102
RTVSPropertyOp46
 70
     0
102
RTVSPropertyOp47
 70
     0
102
RTVSPropertyOp48
 70
     0
102
RTVSPropertyOp49
 70
     0
102
RTVSPropertyOp50
 70
     0
102
RTVSPropertyOp51
 70
     0
102
RTVSPropertyOp52
 70
     0
102
RTVSPropertyOp53
 70
     0
102
RTVSPropertyOp54
 70
     0
102
RTVSPropertyOp55
 70
     0
102
RTVSPropertyOp56
 70
     0
102
RTVSPropertyOp57
 70
     0
102
RTVSPost2010Prop28
280
     0
102
RTVSPost2010PropOp28
 70
     0
102
RTVSPost2010Prop29
280
     1
102
RTVSPost2010PropOp29
 70
     0
102
RTVSPost2010Prop30
280
     1
102
RTVSPost2010PropOp30
 70
     0
102
RTVSPost2010Prop31
280
     0
102
RTVSPost2010PropOp31
 70
     0
102
RTVSPost2010Prop32
280
     0
102
RTVSPost2010PropOp32
 70
     0
102
RTVSPost2010Prop33
280
     0
102
RTVSPost2010PropOp33
 70
     0
102
RTVSPost2010Prop34
280
     0
102
RTVSPost2010PropOp34
 70
     0
102
RTVSPost2010Prop35
280
     0
102
RTVSPost2010PropOp35
 70
     0
102
RTVSPost2010Prop36
280
     0
102
RTVSPost2010PropOp36
 70
     0
102
RTVSPost2010Prop37
 90
       50
102
RTVSPost2010PropOp37
 70
     0
102
RTVSPost2010Prop38
140
0.0
102
RTVSPost2010PropOp38
 70
     0
102
RTVSPost2010Prop39
140
1.0
102
RTVSPost2010PropOp39
 70
     0
102
RTVSPost2010Prop40
 90
        0
102
RTVSPost2010PropOp40
 70
     0
102
RTVSPost2010Prop41ColorIndex
 90
       18
102
RTVSPost2010Prop41ColorRGB
 90
        0
102
RTVSPost2010PropOp41
 70
     0
102
RTVSPost2010Prop42
 90
       50
102
RTVSPost2010PropOp42
 70
     0
102
RTVSPost2010Prop43
 90
        3
102
RTVSPost2010PropOp43
 70
     0
102
RTVSPost2010Prop44ColorIndex
 90
        5
102
RTVSPost2010Prop44ColorRGB
 90
      255
102
RTVSPost2010PropOp44
 70
     0
102
RTVSPost2010Prop45
280
     0
102
RTVSPost2010PropOp45
 70
     0
102
RTVSPost2010Prop46
 90
       50
102
RTVSPost2010PropOp46
 70
     0
102
RTVSPost2010Prop47
 90
       50
102
RTVSPost2010PropOp47
 70
     0
102
RTVSPost2010Prop48
 90
       50
102
RTVSPost2010PropOp48
 70
     0
102
RTVSPost2010Prop49
280
     0
102
RTVSPost2010PropOp49
 70
     0
102
RTVSPost2010Prop50
 90
       50
102
RTVSPost2010PropOp50
 70
     0
102
RTVSPost2010Prop51ColorIndex
 90
      256
102
RTVSPost2010Prop51ColorRGB
 90
-16777216
102
RTVSPost2010PropOp51
 70
     0
102
RTVSPost2010Prop52
140
1.0
102
RTVSPost2010PropOp52
 70
     0
102
RTVSPost2010Prop53
 90
        2
102
RTVSPost2010PropOp53
 70
     0
102
RTVSPost2010Prop54
  1
strokes_ogs.tif
102
RTVSPost2010PropOp54
 70
     0
102
RTVSPost2010Prop55
280
     0
102
RTVSPost2010PropOp55
 70
     0
102
RTVSPost2010Prop56
140
1.0
102
RTVSPost2010PropOp56
 70
     0
102
RTVSPost2010Prop57
140
1.0
102
RTVSPost2010PropOp57
 70
     0
  0
XRECORD
  5
2DF
102
{ACAD_REACTORS
330
2DE
102
}
330
2DE
100
AcDbXrecord
280
     1
102
RTVSPropertyOp0
 70
     1
102
RTVSPropertyOp1
 70
     1
102
RTVSPropertyOp2
 70
     1
102
RTVSPropertyOp3
 70
     1
102
RTVSPropertyOp4
 70
     1
102
RTVSPropertyOp5
 70
     1
102
RTVSPropertyOp6
 70
     1
102
RTVSPropertyOp7
 70
     1
102
RTVSPropertyOp8
 70
     1
102
RTVSPropertyOp9
 70
     1
102
RTVSPropertyOp10
 70
     1
102
RTVSPropertyOp11
 70
     1
102
RTVSPropertyOp12
 70
     1
102
RTVSPropertyOp13
 70
     1
102
RTVSPropertyOp14
 70
     1
102
RTVSPropertyOp15
 70
     1
102
RTVSPropertyOp16
 70
     1
102
RTVSPropertyOp17
 70
     1
102
RTVSPropertyOp18
 70
     1
102
RTVSPropertyOp19
 70
     1
102
RTVSPropertyOp20
 70
     1
102
RTVSPropertyOp21
 70
     1
102
RTVSPropertyOp22
 70
     1
102
RTVSPropertyOp23
 70
     1
102
RTVSPropertyOp24
 70
     1
102
RTVSPropertyOp25
 70
     1
102
RTVSPropertyOp26
 70
     1
102
RTVSPropertyOp27
 70
     1
102
RTVSPropertyOp28
 70
     1
102
RTVSPropertyOp29
 70
     1
102
RTVSPropertyOp30
 70
     1
102
RTVSPropertyOp31
 70
     1
102
RTVSPropertyOp32
 70
     1
102
RTVSPropertyOp33
 70
     1
102
RTVSPropertyOp34
 70
     1
102
RTVSPropertyOp35
 70
     1
102
RTVSPropertyOp36
 70
     1
102
RTVSPropertyOp37
 70
     1
102
RTVSPropertyOp38
 70
     1
102
RTVSPropertyOp39
 70
     1
102
RTVSPropertyOp40
 70
     1
102
RTVSPropertyOp41
 70
     1
102
RTVSPropertyOp42
 70
     1
102
RTVSPropertyOp43
 70
     1
102
RTVSPropertyOp44
 70
     1
102
RTVSPropertyOp45
 70
     1
102
RTVSPropertyOp46
 70
     1
102
RTVSPropertyOp47
 70
     1
102
RTVSPropertyOp48
 70
     1
102
RTVSPropertyOp49
 70
     1
102
RTVSPropertyOp50
 70
     1
102
RTVSPropertyOp51
 70
     0
102
RTVSPropertyOp52
 70
     0
102
RTVSPropertyOp53
 70
     1
102
RTVSPropertyOp54
 70
     1
102
RTVSPropertyOp55
 70
     1
102
RTVSPropertyOp56
 70
     1
102
RTVSPropertyOp57
 70
     1
102
RTVSPost2010Prop28
280
     0
102
RTVSPost2010PropOp28
 70
     1
102
RTVSPost2010Prop29
280
     1
102
RTVSPost2010PropOp29
 70
     1
102
RTVSPost2010Prop30
280
     1
102
RTVSPost2010PropOp30
 70
     1
102
RTVSPost2010Prop31
280
     0
102
RTVSPost2010PropOp31
 70
     1
102
RTVSPost2010Prop32
280
     0
102
RTVSPost2010PropOp32
 70
     1
102
RTVSPost2010Prop33
280
     0
102
RTVSPost2010PropOp33
 70
     1
102
RTVSPost2010Prop34
280
     0
102
RTVSPost2010PropOp34
 70
     1
102
RTVSPost2010Prop35
280
     0
102
RTVSPost2010PropOp35
 70
     1
102
RTVSPost2010Prop36
280
     0
102
RTVSPost2010PropOp36
 70
     1
102
RTVSPost2010Prop37
 90
       50
102
RTVSPost2010PropOp37
 70
     1
102
RTVSPost2010Prop38
140
0.0
102
RTVSPost2010PropOp38
 70
     1
102
RTVSPost2010Prop39
140
1.0
102
RTVSPost2010PropOp39
 70
     1
102
RTVSPost2010Prop40
 90
        0
102
RTVSPost2010PropOp40
 70
     1
102
RTVSPost2010Prop41ColorIndex
 90
       18
102
RTVSPost2010Prop41ColorRGB
 90
        0
102
RTVSPost2010PropOp41
 70
     1
102
RTVSPost2010Prop42
 90
       50
102
RTVSPost2010PropOp42
 70
     1
102
RTVSPost2010Prop43
 90
        3
102
RTVSPost2010PropOp43
 70
     1
102
RTVSPost2010Prop44ColorIndex
 90
        5
102
RTVSPost2010Prop44ColorRGB
 90
      255
102
RTVSPost2010PropOp44
 70
     1
102
RTVSPost2010Prop45
280
     0
102
RTVSPost2010PropOp45
 70
     1
102
RTVSPost2010Prop46
 90
       50
102
RTVSPost2010PropOp46
 70
     1
102
RTVSPost2010Prop47
 90
       50
102
RTVSPost2010PropOp47
 70
     1
102
RTVSPost2010Prop48
 90
       50
102
RTVSPost2010PropOp48
 70
     1
102
RTVSPost2010Prop49
280
     0
102
RTVSPost2010PropOp49
 70
     1
102
RTVSPost2010Prop50
 90
       50
102
RTVSPost2010PropOp50
 70
     1
102
RTVSPost2010Prop51ColorIndex
 90
      256
102
RTVSPost2010Prop51ColorRGB
 90
-16777216
102
RTVSPost2010PropOp51
 70
     0
102
RTVSPost2010Prop52
140
1.0
102
RTVSPost2010PropOp52
 70
     0
102
RTVSPost2010Prop53
 90
        2
102
RTVSPost2010PropOp53
 70
     1
102
RTVSPost2010Prop54
  1
strokes_ogs.tif
102
RTVSPost2010PropOp54
 70
     1
102
RTVSPost2010Prop55
280
     0
102
RTVSPost2010PropOp55
 70
     1
102
RTVSPost2010Prop56
140
1.0
102
RTVSPost2010PropOp56
 70
     1
102
RTVSPost2010Prop57
140
1.0
102
RTVSPost2010PropOp57
 70
     1
  0
XRECORD
  5
2C3
102
{ACAD_REACTORS
330
2C2
102
}
330
2C2
100
AcDbXrecord
280
     1
102
RTVSPropertyOp0
 70
     1
102
RTVSPropertyOp1
 70
     1
102
RTVSPropertyOp2
 70
     1
102
RTVSPropertyOp3
 70
     1
102
RTVSPropertyOp4
 70
     1
102
RTVSPropertyOp5
 70
     1
102
RTVSPropertyOp6
 70
     1
102
RTVSPropertyOp7
 70
     1
102
RTVSPropertyOp8
 70
     1
102
RTVSPropertyOp9
 70
     1
102
RTVSPropertyOp10
 70
     1
102
RTVSPropertyOp11
 70
     1
102
RTVSPropertyOp12
 70
     1
102
RTVSPropertyOp13
 70
     1
102
RTVSPropertyOp14
 70
     1
102
RTVSPropertyOp15
 70
     1
102
RTVSPropertyOp16
 70
     1
102
RTVSPropertyOp17
 70
     1
102
RTVSPropertyOp18
 70
     1
102
RTVSPropertyOp19
 70
     1
102
RTVSPropertyOp20
 70
     1
102
RTVSPropertyOp21
 70
     1
102
RTVSPropertyOp22
 70
     1
102
RTVSPropertyOp23
 70
     1
102
RTVSPropertyOp24
 70
     1
102
RTVSPropertyOp25
 70
     1
102
RTVSPropertyOp26
 70
     1
102
RTVSPropertyOp27
 70
     1
102
RTVSPropertyOp28
 70
     1
102
RTVSPropertyOp29
 70
     1
102
RTVSPropertyOp30
 70
     1
102
RTVSPropertyOp31
 70
     1
102
RTVSPropertyOp32
 70
     1
102
RTVSPropertyOp33
 70
     1
102
RTVSPropertyOp34
 70
     1
102
RTVSPropertyOp35
 70
     1
102
RTVSPropertyOp36
 70
     1
102
RTVSPropertyOp37
 70
     1
102
RTVSPropertyOp38
 70
     1
102
RTVSPropertyOp39
 70
     1
102
RTVSPropertyOp40
 70
     1
102
RTVSPropertyOp41
 70
     1
102
RTVSPropertyOp42
 70
     1
102
RTVSPropertyOp43
 70
     1
102
RTVSPropertyOp44
 70
     1
102
RTVSPropertyOp45
 70
     1
102
RTVSPropertyOp46
 70
     1
102
RTVSPropertyOp47
 70
     1
102
RTVSPropertyOp48
 70
     1
102
RTVSPropertyOp49
 70
     1
102
RTVSPropertyOp50
 70
     1
102
RTVSPropertyOp51
 70
     0
102
RTVSPropertyOp52
 70
     0
102
RTVSPropertyOp53
 70
     1
102
RTVSPropertyOp54
 70
     1
102
RTVSPropertyOp55
 70
     1
102
RTVSPropertyOp56
 70
     1
102
RTVSPropertyOp57
 70
     1
102
RTVSPost2010Prop28
280
     0
102
RTVSPost2010PropOp28
 70
     1
102
RTVSPost2010Prop29
280
     1
102
RTVSPost2010PropOp29
 70
     1
102
RTVSPost2010Prop30
280
     1
102
RTVSPost2010PropOp30
 70
     1
102
RTVSPost2010Prop31
280
     0
102
RTVSPost2010PropOp31
 70
     1
102
RTVSPost2010Prop32
280
     0
102
RTVSPost2010PropOp32
 70
     1
102
RTVSPost2010Prop33
280
     0
102
RTVSPost2010PropOp33
 70
     1
102
RTVSPost2010Prop34
280
     0
102
RTVSPost2010PropOp34
 70
     1
102
RTVSPost2010Prop35
280
     0
102
RTVSPost2010PropOp35
 70
     1
102
RTVSPost2010Prop36
280
     0
102
RTVSPost2010PropOp36
 70
     1
102
RTVSPost2010Prop37
 90
       50
102
RTVSPost2010PropOp37
 70
     1
102
RTVSPost2010Prop38
140
0.0
102
RTVSPost2010PropOp38
 70
     1
102
RTVSPost2010Prop39
140
1.0
102
RTVSPost2010PropOp39
 70
     1
102
RTVSPost2010Prop40
 90
        0
102
RTVSPost2010PropOp40
 70
     1
102
RTVSPost2010Prop41ColorIndex
 90
       18
102
RTVSPost2010Prop41ColorRGB
 90
        0
102
RTVSPost2010PropOp41
 70
     1
102
RTVSPost2010Prop42
 90
       50
102
RTVSPost2010PropOp42
 70
     1
102
RTVSPost2010Prop43
 90
        3
102
RTVSPost2010PropOp43
 70
     1
102
RTVSPost2010Prop44ColorIndex
 90
        5
102
RTVSPost2010Prop44ColorRGB
 90
      255
102
RTVSPost2010PropOp44
 70
     1
102
RTVSPost2010Prop45
280
     0
102
RTVSPost2010PropOp45
 70
     1
102
RTVSPost2010Prop46
 90
       50
102
RTVSPost2010PropOp46
 70
     1
102
RTVSPost2010Prop47
 90
       50
102
RTVSPost2010PropOp47
 70
     1
102
RTVSPost2010Prop48
 90
       50
102
RTVSPost2010PropOp48
 70
     1
102
RTVSPost2010Prop49
280
     0
102
RTVSPost2010PropOp49
 70
     1
102
RTVSPost2010Prop50
 90
       50
102
RTVSPost2010PropOp50
 70
     1
102
RTVSPost2010Prop51ColorIndex
 90
      256
102
RTVSPost2010Prop51ColorRGB
 90
-16777216
102
RTVSPost2010PropOp51
 70
     0
102
RTVSPost2010Prop52
140
1.0
102
RTVSPost2010PropOp52
 70
     0
102
RTVSPost2010Prop53
 90
        2
102
RTVSPost2010PropOp53
 70
     1
102
RTVSPost2010Prop54
  1
strokes_ogs.tif
102
RTVSPost2010PropOp54
 70
     1
102
RTVSPost2010Prop55
280
     0
102
RTVSPost2010PropOp55
 70
     1
102
RTVSPost2010Prop56
140
1.0
102
RTVSPost2010PropOp56
 70
     1
102
RTVSPost2010Prop57
140
1.0
102
RTVSPost2010PropOp57
 70
     1
  0
XRECORD
  5
2C5
102
{ACAD_REACTORS
330
2C4
102
}
330
2C4
100
AcDbXrecord
280
     1
102
RTVSPropertyOp0
 70
     1
102
RTVSPropertyOp1
 70
     1
102
RTVSPropertyOp2
 70
     1
102
RTVSPropertyOp3
 70
     1
102
RTVSPropertyOp4
 70
     1
102
RTVSPropertyOp5
 70
     1
102
RTVSPropertyOp6
 70
     1
102
RTVSPropertyOp7
 70
     1
102
RTVSPropertyOp8
 70
     1
102
RTVSPropertyOp9
 70
     1
102
RTVSPropertyOp10
 70
     1
102
RTVSPropertyOp11
 70
     1
102
RTVSPropertyOp12
 70
     1
102
RTVSPropertyOp13
 70
     1
102
RTVSPropertyOp14
 70
     1
102
RTVSPropertyOp15
 70
     1
102
RTVSPropertyOp16
 70
     1
102
RTVSPropertyOp17
 70
     1
102
RTVSPropertyOp18
 70
     1
102
RTVSPropertyOp19
 70
     1
102
RTVSPropertyOp20
 70
     1
102
RTVSPropertyOp21
 70
     1
102
RTVSPropertyOp22
 70
     1
102
RTVSPropertyOp23
 70
     1
102
RTVSPropertyOp24
 70
     1
102
RTVSPropertyOp25
 70
     1
102
RTVSPropertyOp26
 70
     1
102
RTVSPropertyOp27
 70
     1
102
RTVSPropertyOp28
 70
     1
102
RTVSPropertyOp29
 70
     1
102
RTVSPropertyOp30
 70
     1
102
RTVSPropertyOp31
 70
     1
102
RTVSPropertyOp32
 70
     1
102
RTVSPropertyOp33
 70
     1
102
RTVSPropertyOp34
 70
     1
102
RTVSPropertyOp35
 70
     1
102
RTVSPropertyOp36
 70
     1
102
RTVSPropertyOp37
 70
     1
102
RTVSPropertyOp38
 70
     1
102
RTVSPropertyOp39
 70
     1
102
RTVSPropertyOp40
 70
     1
102
RTVSPropertyOp41
 70
     1
102
RTVSPropertyOp42
 70
     1
102
RTVSPropertyOp43
 70
     1
102
RTVSPropertyOp44
 70
     1
102
RTVSPropertyOp45
 70
     1
102
RTVSPropertyOp46
 70
     1
102
RTVSPropertyOp47
 70
     1
102
RTVSPropertyOp48
 70
     1
102
RTVSPropertyOp49
 70
     1
102
RTVSPropertyOp50
 70
     1
102
RTVSPropertyOp51
 70
     0
102
RTVSPropertyOp52
 70
     0
102
RTVSPropertyOp53
 70
     1
102
RTVSPropertyOp54
 70
     1
102
RTVSPropertyOp55
 70
     1
102
RTVSPropertyOp56
 70
     1
102
RTVSPropertyOp57
 70
     1
102
RTVSPost2010Prop28
280
     0
102
RTVSPost2010PropOp28
 70
     1
102
RTVSPost2010Prop29
280
     1
102
RTVSPost2010PropOp29
 70
     1
102
RTVSPost2010Prop30
280
     1
102
RTVSPost2010PropOp30
 70
     1
102
RTVSPost2010Prop31
280
     0
102
RTVSPost2010PropOp31
 70
     1
102
RTVSPost2010Prop32
280
     0
102
RTVSPost2010PropOp32
 70
     1
102
RTVSPost2010Prop33
280
     0
102
RTVSPost2010PropOp33
 70
     1
102
RTVSPost2010Prop34
280
     0
102
RTVSPost2010PropOp34
 70
     1
102
RTVSPost2010Prop35
280
     0
102
RTVSPost2010PropOp35
 70
     1
102
RTVSPost2010Prop36
280
     0
102
RTVSPost2010PropOp36
 70
     1
102
RTVSPost2010Prop37
 90
       50
102
RTVSPost2010PropOp37
 70
     1
102
RTVSPost2010Prop38
140
0.0
102
RTVSPost2010PropOp38
 70
     1
102
RTVSPost2010Prop39
140
1.0
102
RTVSPost2010PropOp39
 70
     1
102
RTVSPost2010Prop40
 90
        0
102
RTVSPost2010PropOp40
 70
     1
102
RTVSPost2010Prop41ColorIndex
 90
       18
102
RTVSPost2010Prop41ColorRGB
 90
        0
102
RTVSPost2010PropOp41
 70
     1
102
RTVSPost2010Prop42
 90
       50
102
RTVSPost2010PropOp42
 70
     1
102
RTVSPost2010Prop43
 90
        3
102
RTVSPost2010PropOp43
 70
     1
102
RTVSPost2010Prop44ColorIndex
 90
        5
102
RTVSPost2010Prop44ColorRGB
 90
      255
102
RTVSPost2010PropOp44
 70
     1
102
RTVSPost2010Prop45
280
     0
102
RTVSPost2010PropOp45
 70
     1
102
RTVSPost2010Prop46
 90
       50
102
RTVSPost2010PropOp46
 70
     1
102
RTVSPost2010Prop47
 90
       50
102
RTVSPost2010PropOp47
 70
     1
102
RTVSPost2010Prop48
 90
       50
102
RTVSPost2010PropOp48
 70
     1
102
RTVSPost2010Prop49
280
     0
102
RTVSPost2010PropOp49
 70
     1
102
RTVSPost2010Prop50
 90
       50
102
RTVSPost2010PropOp50
 70
     1
102
RTVSPost2010Prop51ColorIndex
 90
      256
102
RTVSPost2010Prop51ColorRGB
 90
-16777216
102
RTVSPost2010PropOp51
 70
     0
102
RTVSPost2010Prop52
140
1.0
102
RTVSPost2010PropOp52
 70
     0
102
RTVSPost2010Prop53
 90
        2
102
RTVSPost2010PropOp53
 70
     1
102
RTVSPost2010Prop54
  1
strokes_ogs.tif
102
RTVSPost2010PropOp54
 70
     1
102
RTVSPost2010Prop55
280
     0
102
RTVSPost2010PropOp55
 70
     1
102
RTVSPost2010Prop56
140
1.0
102
RTVSPost2010PropOp56
 70
     1
102
RTVSPost2010Prop57
140
1.0
102
RTVSPost2010PropOp57
 70
     1
  0
XRECORD
  5
2C7
102
{ACAD_REACTORS
330
2C6
102
}
330
2C6
100
AcDbXrecord
280
     1
102
RTVSPropertyOp0
 70
     1
102
RTVSPropertyOp1
 70
     1
102
RTVSPropertyOp2
 70
     1
102
RTVSPropertyOp3
 70
     1
102
RTVSPropertyOp4
 70
     1
102
RTVSPropertyOp5
 70
     1
102
RTVSPropertyOp6
 70
     1
102
RTVSPropertyOp7
 70
     1
102
RTVSPropertyOp8
 70
     1
102
RTVSPropertyOp9
 70
     1
102
RTVSPropertyOp10
 70
     1
102
RTVSPropertyOp11
 70
     1
102
RTVSPropertyOp12
 70
     1
102
RTVSPropertyOp13
 70
     1
102
RTVSPropertyOp14
 70
     1
102
RTVSPropertyOp15
 70
     1
102
RTVSPropertyOp16
 70
     1
102
RTVSPropertyOp17
 70
     1
102
RTVSPropertyOp18
 70
     1
102
RTVSPropertyOp19
 70
     1
102
RTVSPropertyOp20
 70
     1
102
RTVSPropertyOp21
 70
     1
102
RTVSPropertyOp22
 70
     1
102
RTVSPropertyOp23
 70
     1
102
RTVSPropertyOp24
 70
     1
102
RTVSPropertyOp25
 70
     1
102
RTVSPropertyOp26
 70
     1
102
RTVSPropertyOp27
 70
     1
102
RTVSPropertyOp28
 70
     1
102
RTVSPropertyOp29
 70
     1
102
RTVSPropertyOp30
 70
     1
102
RTVSPropertyOp31
 70
     1
102
RTVSPropertyOp32
 70
     1
102
RTVSPropertyOp33
 70
     1
102
RTVSPropertyOp34
 70
     1
102
RTVSPropertyOp35
 70
     1
102
RTVSPropertyOp36
 70
     1
102
RTVSPropertyOp37
 70
     1
102
RTVSPropertyOp38
 70
     1
102
RTVSPropertyOp39
 70
     1
102
RTVSPropertyOp40
 70
     1
102
RTVSPropertyOp41
 70
     1
102
RTVSPropertyOp42
 70
     1
102
RTVSPropertyOp43
 70
     1
102
RTVSPropertyOp44
 70
     1
102
RTVSPropertyOp45
 70
     1
102
RTVSPropertyOp46
 70
     1
102
RTVSPropertyOp47
 70
     1
102
RTVSPropertyOp48
 70
     1
102
RTVSPropertyOp49
 70
     1
102
RTVSPropertyOp50
 70
     1
102
RTVSPropertyOp51
 70
     0
102
RTVSPropertyOp52
 70
     0
102
RTVSPropertyOp53
 70
     1
102
RTVSPropertyOp54
 70
     1
102
RTVSPropertyOp55
 70
     1
102
RTVSPropertyOp56
 70
     1
102
RTVSPropertyOp57
 70
     1
102
RTVSPost2010Prop28
280
     0
102
RTVSPost2010PropOp28
 70
     1
102
RTVSPost2010Prop29
280
     1
102
RTVSPost2010PropOp29
 70
     1
102
RTVSPost2010Prop30
280
     1
102
RTVSPost2010PropOp30
 70
     1
102
RTVSPost2010Prop31
280
     0
102
RTVSPost2010PropOp31
 70
     1
102
RTVSPost2010Prop32
280
     0
102
RTVSPost2010PropOp32
 70
     1
102
RTVSPost2010Prop33
280
     0
102
RTVSPost2010PropOp33
 70
     1
102
RTVSPost2010Prop34
280
     0
102
RTVSPost2010PropOp34
 70
     1
102
RTVSPost2010Prop35
280
     0
102
RTVSPost2010PropOp35
 70
     1
102
RTVSPost2010Prop36
280
     0
102
RTVSPost2010PropOp36
 70
     1
102
RTVSPost2010Prop37
 90
       50
102
RTVSPost2010PropOp37
 70
     1
102
RTVSPost2010Prop38
140
0.0
102
RTVSPost2010PropOp38
 70
     1
102
RTVSPost2010Prop39
140
1.0
102
RTVSPost2010PropOp39
 70
     1
102
RTVSPost2010Prop40
 90
        0
102
RTVSPost2010PropOp40
 70
     1
102
RTVSPost2010Prop41ColorIndex
 90
       18
102
RTVSPost2010Prop41ColorRGB
 90
        0
102
RTVSPost2010PropOp41
 70
     1
102
RTVSPost2010Prop42
 90
       50
102
RTVSPost2010PropOp42
 70
     1
102
RTVSPost2010Prop43
 90
        3
102
RTVSPost2010PropOp43
 70
     1
102
RTVSPost2010Prop44ColorIndex
 90
        5
102
RTVSPost2010Prop44ColorRGB
 90
      255
102
RTVSPost2010PropOp44
 70
     1
102
RTVSPost2010Prop45
280
     0
102
RTVSPost2010PropOp45
 70
     1
102
RTVSPost2010Prop46
 90
       50
102
RTVSPost2010PropOp46
 70
     1
102
RTVSPost2010Prop47
 90
       50
102
RTVSPost2010PropOp47
 70
     1
102
RTVSPost2010Prop48
 90
       50
102
RTVSPost2010PropOp48
 70
     1
102
RTVSPost2010Prop49
280
     0
102
RTVSPost2010PropOp49
 70
     1
102
RTVSPost2010Prop50
 90
       50
102
RTVSPost2010PropOp50
 70
     1
102
RTVSPost2010Prop51ColorIndex
 90
      256
102
RTVSPost2010Prop51ColorRGB
 90
-16777216
102
RTVSPost2010PropOp51
 70
     0
102
RTVSPost2010Prop52
140
1.0
102
RTVSPost2010PropOp52
 70
     0
102
RTVSPost2010Prop53
 90
        2
102
RTVSPost2010PropOp53
 70
     1
102
RTVSPost2010Prop54
  1
strokes_ogs.tif
102
RTVSPost2010PropOp54
 70
     1
102
RTVSPost2010Prop55
280
     0
102
RTVSPost2010PropOp55
 70
     1
102
RTVSPost2010Prop56
140
1.0
102
RTVSPost2010PropOp56
 70
     1
102
RTVSPost2010Prop57
140
1.0
102
RTVSPost2010PropOp57
 70
     1
  0
XRECORD
  5
2C9
102
{ACAD_REACTORS
330
2C8
102
}
330
2C8
100
AcDbXrecord
280
     1
102
RTVSPropertyOp0
 70
     1
102
RTVSPropertyOp1
 70
     1
102
RTVSPropertyOp2
 70
     1
102
RTVSPropertyOp3
 70
     1
102
RTVSPropertyOp4
 70
     1
102
RTVSPropertyOp5
 70
     1
102
RTVSPropertyOp6
 70
     1
102
RTVSPropertyOp7
 70
     1
102
RTVSPropertyOp8
 70
     1
102
RTVSPropertyOp9
 70
     1
102
RTVSPropertyOp10
 70
     1
102
RTVSPropertyOp11
 70
     1
102
RTVSPropertyOp12
 70
     1
102
RTVSPropertyOp13
 70
     1
102
RTVSPropertyOp14
 70
     1
102
RTVSPropertyOp15
 70
     1
102
RTVSPropertyOp16
 70
     1
102
RTVSPropertyOp17
 70
     1
102
RTVSPropertyOp18
 70
     1
102
RTVSPropertyOp19
 70
     1
102
RTVSPropertyOp20
 70
     1
102
RTVSPropertyOp21
 70
     1
102
RTVSPropertyOp22
 70
     1
102
RTVSPropertyOp23
 70
     1
102
RTVSPropertyOp24
 70
     1
102
RTVSPropertyOp25
 70
     1
102
RTVSPropertyOp26
 70
     1
102
RTVSPropertyOp27
 70
     1
102
RTVSPropertyOp28
 70
     1
102
RTVSPropertyOp29
 70
     1
102
RTVSPropertyOp30
 70
     1
102
RTVSPropertyOp31
 70
     1
102
RTVSPropertyOp32
 70
     1
102
RTVSPropertyOp33
 70
     1
102
RTVSPropertyOp34
 70
     1
102
RTVSPropertyOp35
 70
     1
102
RTVSPropertyOp36
 70
     1
102
RTVSPropertyOp37
 70
     1
102
RTVSPropertyOp38
 70
     1
102
RTVSPropertyOp39
 70
     1
102
RTVSPropertyOp40
 70
     1
102
RTVSPropertyOp41
 70
     1
102
RTVSPropertyOp42
 70
     1
102
RTVSPropertyOp43
 70
     1
102
RTVSPropertyOp44
 70
     1
102
RTVSPropertyOp45
 70
     1
102
RTVSPropertyOp46
 70
     1
102
RTVSPropertyOp47
 70
     1
102
RTVSPropertyOp48
 70
     1
102
RTVSPropertyOp49
 70
     1
102
RTVSPropertyOp50
 70
     1
102
RTVSPropertyOp51
 70
     0
102
RTVSPropertyOp52
 70
     0
102
RTVSPropertyOp53
 70
     1
102
RTVSPropertyOp54
 70
     1
102
RTVSPropertyOp55
 70
     1
102
RTVSPropertyOp56
 70
     1
102
RTVSPropertyOp57
 70
     1
102
RTVSPost2010Prop28
280
     0
102
RTVSPost2010PropOp28
 70
     1
102
RTVSPost2010Prop29
280
     1
102
RTVSPost2010PropOp29
 70
     1
102
RTVSPost2010Prop30
280
     1
102
RTVSPost2010PropOp30
 70
     1
102
RTVSPost2010Prop31
280
     0
102
RTVSPost2010PropOp31
 70
     1
102
RTVSPost2010Prop32
280
     0
102
RTVSPost2010PropOp32
 70
     1
102
RTVSPost2010Prop33
280
     0
102
RTVSPost2010PropOp33
 70
     1
102
RTVSPost2010Prop34
280
     0
102
RTVSPost2010PropOp34
 70
     1
102
RTVSPost2010Prop35
280
     0
102
RTVSPost2010PropOp35
 70
     1
102
RTVSPost2010Prop36
280
     0
102
RTVSPost2010PropOp36
 70
     1
102
RTVSPost2010Prop37
 90
       50
102
RTVSPost2010PropOp37
 70
     1
102
RTVSPost2010Prop38
140
0.0
102
RTVSPost2010PropOp38
 70
     1
102
RTVSPost2010Prop39
140
1.0
102
RTVSPost2010PropOp39
 70
     1
102
RTVSPost2010Prop40
 90
        0
102
RTVSPost2010PropOp40
 70
     1
102
RTVSPost2010Prop41ColorIndex
 90
       18
102
RTVSPost2010Prop41ColorRGB
 90
        0
102
RTVSPost2010PropOp41
 70
     1
102
RTVSPost2010Prop42
 90
       50
102
RTVSPost2010PropOp42
 70
     1
102
RTVSPost2010Prop43
 90
        3
102
RTVSPost2010PropOp43
 70
     1
102
RTVSPost2010Prop44ColorIndex
 90
        5
102
RTVSPost2010Prop44ColorRGB
 90
      255
102
RTVSPost2010PropOp44
 70
     1
102
RTVSPost2010Prop45
280
     0
102
RTVSPost2010PropOp45
 70
     1
102
RTVSPost2010Prop46
 90
       50
102
RTVSPost2010PropOp46
 70
     1
102
RTVSPost2010Prop47
 90
       50
102
RTVSPost2010PropOp47
 70
     1
102
RTVSPost2010Prop48
 90
       50
102
RTVSPost2010PropOp48
 70
     1
102
RTVSPost2010Prop49
280
     0
102
RTVSPost2010PropOp49
 70
     1
102
RTVSPost2010Prop50
 90
       50
102
RTVSPost2010PropOp50
 70
     1
102
RTVSPost2010Prop51ColorIndex
 90
      256
102
RTVSPost2010Prop51ColorRGB
 90
-16777216
102
RTVSPost2010PropOp51
 70
     0
102
RTVSPost2010Prop52
140
1.0
102
RTVSPost2010PropOp52
 70
     0
102
RTVSPost2010Prop53
 90
        2
102
RTVSPost2010PropOp53
 70
     1
102
RTVSPost2010Prop54
  1
strokes_ogs.tif
102
RTVSPost2010PropOp54
 70
     1
102
RTVSPost2010Prop55
280
     0
102
RTVSPost2010PropOp55
 70
     1
102
RTVSPost2010Prop56
140
1.0
102
RTVSPost2010PropOp56
 70
     1
102
RTVSPost2010Prop57
140
1.0
102
RTVSPost2010PropOp57
 70
     1
  0
XRECORD
  5
2CF
102
{ACAD_REACTORS
330
2CE
102
}
330
2CE
100
AcDbXrecord
280
     1
102
RTVSPropertyOp0
 70
     1
102
RTVSPropertyOp1
 70
     1
102
RTVSPropertyOp2
 70
     1
102
RTVSPropertyOp3
 70
     1
102
RTVSPropertyOp4
 70
     1
102
RTVSPropertyOp5
 70
     1
102
RTVSPropertyOp6
 70
     1
102
RTVSPropertyOp7
 70
     1
102
RTVSPropertyOp8
 70
     1
102
RTVSPropertyOp9
 70
     1
102
RTVSPropertyOp10
 70
     1
102
RTVSPropertyOp11
 70
     1
102
RTVSPropertyOp12
 70
     1
102
RTVSPropertyOp13
 70
     1
102
RTVSPropertyOp14
 70
     1
102
RTVSPropertyOp15
 70
     1
102
RTVSPropertyOp16
 70
     1
102
RTVSPropertyOp17
 70
     1
102
RTVSPropertyOp18
 70
     1
102
RTVSPropertyOp19
 70
     1
102
RTVSPropertyOp20
 70
     1
102
RTVSPropertyOp21
 70
     1
102
RTVSPropertyOp22
 70
     1
102
RTVSPropertyOp23
 70
     1
102
RTVSPropertyOp24
 70
     1
102
RTVSPropertyOp25
 70
     1
102
RTVSPropertyOp26
 70
     1
102
RTVSPropertyOp27
 70
     1
102
RTVSPropertyOp28
 70
     1
102
RTVSPropertyOp29
 70
     1
102
RTVSPropertyOp30
 70
     1
102
RTVSPropertyOp31
 70
     1
102
RTVSPropertyOp32
 70
     1
102
RTVSPropertyOp33
 70
     1
102
RTVSPropertyOp34
 70
     1
102
RTVSPropertyOp35
 70
     1
102
RTVSPropertyOp36
 70
     1
102
RTVSPropertyOp37
 70
     1
102
RTVSPropertyOp38
 70
     1
102
RTVSPropertyOp39
 70
     1
102
RTVSPropertyOp40
 70
     1
102
RTVSPropertyOp41
 70
     1
102
RTVSPropertyOp42
 70
     1
102
RTVSPropertyOp43
 70
     1
102
RTVSPropertyOp44
 70
     1
102
RTVSPropertyOp45
 70
     1
102
RTVSPropertyOp46
 70
     1
102
RTVSPropertyOp47
 70
     1
102
RTVSPropertyOp48
 70
     1
102
RTVSPropertyOp49
 70
     1
102
RTVSPropertyOp50
 70
     1
102
RTVSPropertyOp51
 70
     0
102
RTVSPropertyOp52
 70
     0
102
RTVSPropertyOp53
 70
     1
102
RTVSPropertyOp54
 70
     1
102
RTVSPropertyOp55
 70
     1
102
RTVSPropertyOp56
 70
     1
102
RTVSPropertyOp57
 70
     1
102
RTVSPost2010Prop28
280
     0
102
RTVSPost2010PropOp28
 70
     1
102
RTVSPost2010Prop29
280
     1
102
RTVSPost2010PropOp29
 70
     1
102
RTVSPost2010Prop30
280
     1
102
RTVSPost2010PropOp30
 70
     1
102
RTVSPost2010Prop31
280
     0
102
RTVSPost2010PropOp31
 70
     1
102
RTVSPost2010Prop32
280
     0
102
RTVSPost2010PropOp32
 70
     1
102
RTVSPost2010Prop33
280
     0
102
RTVSPost2010PropOp33
 70
     1
102
RTVSPost2010Prop34
280
     0
102
RTVSPost2010PropOp34
 70
     1
102
RTVSPost2010Prop35
280
     0
102
RTVSPost2010PropOp35
 70
     1
102
RTVSPost2010Prop36
280
     0
102
RTVSPost2010PropOp36
 70
     1
102
RTVSPost2010Prop37
 90
       50
102
RTVSPost2010PropOp37
 70
     1
102
RTVSPost2010Prop38
140
0.0
102
RTVSPost2010PropOp38
 70
     1
102
RTVSPost2010Prop39
140
1.0
102
RTVSPost2010PropOp39
 70
     1
102
RTVSPost2010Prop40
 90
        0
102
RTVSPost2010PropOp40
 70
     1
102
RTVSPost2010Prop41ColorIndex
 90
       18
102
RTVSPost2010Prop41ColorRGB
 90
        0
102
RTVSPost2010PropOp41
 70
     1
102
RTVSPost2010Prop42
 90
       50
102
RTVSPost2010PropOp42
 70
     1
102
RTVSPost2010Prop43
 90
        3
102
RTVSPost2010PropOp43
 70
     1
102
RTVSPost2010Prop44ColorIndex
 90
        5
102
RTVSPost2010Prop44ColorRGB
 90
      255
102
RTVSPost2010PropOp44
 70
     1
102
RTVSPost2010Prop45
280
     0
102
RTVSPost2010PropOp45
 70
     1
102
RTVSPost2010Prop46
 90
       50
102
RTVSPost2010PropOp46
 70
     1
102
RTVSPost2010Prop47
 90
       50
102
RTVSPost2010PropOp47
 70
     1
102
RTVSPost2010Prop48
 90
       50
102
RTVSPost2010PropOp48
 70
     1
102
RTVSPost2010Prop49
280
     0
102
RTVSPost2010PropOp49
 70
     1
102
RTVSPost2010Prop50
 90
       50
102
RTVSPost2010PropOp50
 70
     1
102
RTVSPost2010Prop51ColorIndex
 90
      256
102
RTVSPost2010Prop51ColorRGB
 90
-16777216
102
RTVSPost2010PropOp51
 70
     0
102
RTVSPost2010Prop52
140
1.0
102
RTVSPost2010PropOp52
 70
     0
102
RTVSPost2010Prop53
 90
        2
102
RTVSPost2010PropOp53
 70
     1
102
RTVSPost2010Prop54
  1
strokes_ogs.tif
102
RTVSPost2010PropOp54
 70
     1
102
RTVSPost2010Prop55
280
     0
102
RTVSPost2010PropOp55
 70
     1
102
RTVSPost2010Prop56
140
1.0
102
RTVSPost2010PropOp56
 70
     1
102
RTVSPost2010Prop57
140
1.0
102
RTVSPost2010PropOp57
 70
     1
  0
XRECORD
  5
2E3
102
{ACAD_REACTORS
330
2E2
102
}
330
2E2
100
AcDbXrecord
280
     1
102
RTVSPropertyOp0
 70
     0
102
RTVSPropertyOp1
 70
     0
102
RTVSPropertyOp2
 70
     0
102
RTVSPropertyOp3
 70
     0
102
RTVSPropertyOp4
 70
     0
102
RTVSPropertyOp5
 70
     0
102
RTVSPropertyOp6
 70
     0
102
RTVSPropertyOp7
 70
     0
102
RTVSPropertyOp8
 70
     0
102
RTVSPropertyOp9
 70
     0
102
RTVSPropertyOp10
 70
     0
102
RTVSPropertyOp11
 70
     0
102
RTVSPropertyOp12
 70
     0
102
RTVSPropertyOp13
 70
     0
102
RTVSPropertyOp14
 70
     2
102
RTVSPropertyOp15
 70
     0
102
RTVSPropertyOp16
 70
     0
102
RTVSPropertyOp17
 70
     0
102
RTVSPropertyOp18
 70
     0
102
RTVSPropertyOp19
 70
     0
102
RTVSPropertyOp20
 70
     0
102
RTVSPropertyOp21
 70
     0
102
RTVSPropertyOp22
 70
     0
102
RTVSPropertyOp23
 70
     0
102
RTVSPropertyOp24
 70
     0
102
RTVSPropertyOp25
 70
     0
102
RTVSPropertyOp26
 70
     0
102
RTVSPropertyOp27
 70
     0
102
RTVSPropertyOp28
 70
     0
102
RTVSPropertyOp29
 70
     0
102
RTVSPropertyOp30
 70
     0
102
RTVSPropertyOp31
 70
     0
102
RTVSPropertyOp32
 70
     0
102
RTVSPropertyOp33
 70
     0
102
RTVSPropertyOp34
 70
     0
102
RTVSPropertyOp35
 70
     0
102
RTVSPropertyOp36
 70
     0
102
RTVSPropertyOp37
 70
     0
102
RTVSPropertyOp38
 70
     0
102
RTVSPropertyOp39
 70
     0
102
RTVSPropertyOp40
 70
     0
102
RTVSPropertyOp41
 70
     0
102
RTVSPropertyOp42
 70
     0
102
RTVSPropertyOp43
 70
     0
102
RTVSPropertyOp44
 70
     0
102
RTVSPropertyOp45
 70
     0
102
RTVSPropertyOp46
 70
     0
102
RTVSPropertyOp47
 70
     0
102
RTVSPropertyOp48
 70
     0
102
RTVSPropertyOp49
 70
     0
102
RTVSPropertyOp50
 70
     0
102
RTVSPropertyOp51
 70
     0
102
RTVSPropertyOp52
 70
     0
102
RTVSPropertyOp53
 70
     0
102
RTVSPropertyOp54
 70
     0
102
RTVSPropertyOp55
 70
     0
102
RTVSPropertyOp56
 70
     0
102
RTVSPropertyOp57
 70
     0
102
RTVSPost2010Prop28
280
     0
102
RTVSPost2010PropOp28
 70
     0
102
RTVSPost2010Prop29
280
     1
102
RTVSPost2010PropOp29
 70
     0
102
RTVSPost2010Prop30
280
     1
102
RTVSPost2010PropOp30
 70
     0
102
RTVSPost2010Prop31
280
     0
102
RTVSPost2010PropOp31
 70
     0
102
RTVSPost2010Prop32
280
     0
102
RTVSPost2010PropOp32
 70
     0
102
RTVSPost2010Prop33
280
     0
102
RTVSPost2010PropOp33
 70
     0
102
RTVSPost2010Prop34
280
     0
102
RTVSPost2010PropOp34
 70
     0
102
RTVSPost2010Prop35
280
     0
102
RTVSPost2010PropOp35
 70
     0
102
RTVSPost2010Prop36
280
     0
102
RTVSPost2010PropOp36
 70
     0
102
RTVSPost2010Prop37
 90
       50
102
RTVSPost2010PropOp37
 70
     0
102
RTVSPost2010Prop38
140
0.0
102
RTVSPost2010PropOp38
 70
     0
102
RTVSPost2010Prop39
140
1.0
102
RTVSPost2010PropOp39
 70
     0
102
RTVSPost2010Prop40
 90
        0
102
RTVSPost2010PropOp40
 70
     0
102
RTVSPost2010Prop41ColorIndex
 90
       18
102
RTVSPost2010Prop41ColorRGB
 90
        0
102
RTVSPost2010PropOp41
 70
     0
102
RTVSPost2010Prop42
 90
       50
102
RTVSPost2010PropOp42
 70
     0
102
RTVSPost2010Prop43
 90
        3
102
RTVSPost2010PropOp43
 70
     0
102
RTVSPost2010Prop44ColorIndex
 90
        5
102
RTVSPost2010Prop44ColorRGB
 90
      255
102
RTVSPost2010PropOp44
 70
     0
102
RTVSPost2010Prop45
280
     0
102
RTVSPost2010PropOp45
 70
     0
102
RTVSPost2010Prop46
 90
       50
102
RTVSPost2010PropOp46
 70
     0
102
RTVSPost2010Prop47
 90
       50
102
RTVSPost2010PropOp47
 70
     0
102
RTVSPost2010Prop48
 90
       50
102
RTVSPost2010PropOp48
 70
     0
102
RTVSPost2010Prop49
280
     0
102
RTVSPost2010PropOp49
 70
     0
102
RTVSPost2010Prop50
 90
       50
102
RTVSPost2010PropOp50
 70
     0
102
RTVSPost2010Prop51ColorIndex
 90
      256
102
RTVSPost2010Prop51ColorRGB
 90
-16777216
102
RTVSPost2010PropOp51
 70
     0
102
RTVSPost2010Prop52
140
1.0
102
RTVSPost2010PropOp52
 70
     0
102
RTVSPost2010Prop53
 90
        2
102
RTVSPost2010PropOp53
 70
     0
102
RTVSPost2010Prop54
  1
strokes_ogs.tif
102
RTVSPost2010PropOp54
 70
     0
102
RTVSPost2010Prop55
280
     0
102
RTVSPost2010PropOp55
 70
     0
102
RTVSPost2010Prop56
140
1.0
102
RTVSPost2010PropOp56
 70
     0
102
RTVSPost2010Prop57
140
1.0
102
RTVSPost2010PropOp57
 70
     0
  0
XRECORD
  5
2DD
102
{ACAD_REACTORS
330
2DC
102
}
330
2DC
100
AcDbXrecord
280
     1
102
RTVSPropertyOp0
 70
     1
102
RTVSPropertyOp1
 70
     1
102
RTVSPropertyOp2
 70
     1
102
RTVSPropertyOp3
 70
     1
102
RTVSPropertyOp4
 70
     1
102
RTVSPropertyOp5
 70
     1
102
RTVSPropertyOp6
 70
     1
102
RTVSPropertyOp7
 70
     1
102
RTVSPropertyOp8
 70
     1
102
RTVSPropertyOp9
 70
     1
102
RTVSPropertyOp10
 70
     1
102
RTVSPropertyOp11
 70
     1
102
RTVSPropertyOp12
 70
     1
102
RTVSPropertyOp13
 70
     1
102
RTVSPropertyOp14
 70
     1
102
RTVSPropertyOp15
 70
     1
102
RTVSPropertyOp16
 70
     1
102
RTVSPropertyOp17
 70
     1
102
RTVSPropertyOp18
 70
     1
102
RTVSPropertyOp19
 70
     1
102
RTVSPropertyOp20
 70
     1
102
RTVSPropertyOp21
 70
     1
102
RTVSPropertyOp22
 70
     1
102
RTVSPropertyOp23
 70
     1
102
RTVSPropertyOp24
 70
     1
102
RTVSPropertyOp25
 70
     1
102
RTVSPropertyOp26
 70
     1
102
RTVSPropertyOp27
 70
     1
102
RTVSPropertyOp28
 70
     1
102
RTVSPropertyOp29
 70
     1
102
RTVSPropertyOp30
 70
     1
102
RTVSPropertyOp31
 70
     1
102
RTVSPropertyOp32
 70
     1
102
RTVSPropertyOp33
 70
     1
102
RTVSPropertyOp34
 70
     1
102
RTVSPropertyOp35
 70
     1
102
RTVSPropertyOp36
 70
     1
102
RTVSPropertyOp37
 70
     1
102
RTVSPropertyOp38
 70
     1
102
RTVSPropertyOp39
 70
     1
102
RTVSPropertyOp40
 70
     1
102
RTVSPropertyOp41
 70
     1
102
RTVSPropertyOp42
 70
     1
102
RTVSPropertyOp43
 70
     1
102
RTVSPropertyOp44
 70
     1
102
RTVSPropertyOp45
 70
     1
102
RTVSPropertyOp46
 70
     1
102
RTVSPropertyOp47
 70
     1
102
RTVSPropertyOp48
 70
     1
102
RTVSPropertyOp49
 70
     1
102
RTVSPropertyOp50
 70
     1
102
RTVSPropertyOp51
 70
     0
102
RTVSPropertyOp52
 70
     0
102
RTVSPropertyOp53
 70
     1
102
RTVSPropertyOp54
 70
     1
102
RTVSPropertyOp55
 70
     1
102
RTVSPropertyOp56
 70
     1
102
RTVSPropertyOp57
 70
     1
102
RTVSPost2010Prop28
280
     0
102
RTVSPost2010PropOp28
 70
     1
102
RTVSPost2010Prop29
280
     1
102
RTVSPost2010PropOp29
 70
     1
102
RTVSPost2010Prop30
280
     1
102
RTVSPost2010PropOp30
 70
     1
102
RTVSPost2010Prop31
280
     0
102
RTVSPost2010PropOp31
 70
     1
102
RTVSPost2010Prop32
280
     0
102
RTVSPost2010PropOp32
 70
     1
102
RTVSPost2010Prop33
280
     0
102
RTVSPost2010PropOp33
 70
     1
102
RTVSPost2010Prop34
280
     0
102
RTVSPost2010PropOp34
 70
     1
102
RTVSPost2010Prop35
280
     0
102
RTVSPost2010PropOp35
 70
     1
102
RTVSPost2010Prop36
280
     0
102
RTVSPost2010PropOp36
 70
     1
102
RTVSPost2010Prop37
 90
       50
102
RTVSPost2010PropOp37
 70
     1
102
RTVSPost2010Prop38
140
0.0
102
RTVSPost2010PropOp38
 70
     1
102
RTVSPost2010Prop39
140
1.0
102
RTVSPost2010PropOp39
 70
     1
102
RTVSPost2010Prop40
 90
        0
102
RTVSPost2010PropOp40
 70
     1
102
RTVSPost2010Prop41ColorIndex
 90
       18
102
RTVSPost2010Prop41ColorRGB
 90
        0
102
RTVSPost2010PropOp41
 70
     1
102
RTVSPost2010Prop42
 90
       50
102
RTVSPost2010PropOp42
 70
     1
102
RTVSPost2010Prop43
 90
        3
102
RTVSPost2010PropOp43
 70
     1
102
RTVSPost2010Prop44ColorIndex
 90
        5
102
RTVSPost2010Prop44ColorRGB
 90
      255
102
RTVSPost2010PropOp44
 70
     1
102
RTVSPost2010Prop45
280
     0
102
RTVSPost2010PropOp45
 70
     1
102
RTVSPost2010Prop46
 90
       50
102
RTVSPost2010PropOp46
 70
     1
102
RTVSPost2010Prop47
 90
       50
102
RTVSPost2010PropOp47
 70
     1
102
RTVSPost2010Prop48
 90
       50
102
RTVSPost2010PropOp48
 70
     1
102
RTVSPost2010Prop49
280
     0
102
RTVSPost2010PropOp49
 70
     1
102
RTVSPost2010Prop50
 90
       50
102
RTVSPost2010PropOp50
 70
     1
102
RTVSPost2010Prop51ColorIndex
 90
      256
102
RTVSPost2010Prop51ColorRGB
 90
-16777216
102
RTVSPost2010PropOp51
 70
     0
102
RTVSPost2010Prop52
140
1.0
102
RTVSPost2010PropOp52
 70
     0
102
RTVSPost2010Prop53
 90
        2
102
RTVSPost2010PropOp53
 70
     1
102
RTVSPost2010Prop54
  1
strokes_ogs.tif
102
RTVSPost2010PropOp54
 70
     1
102
RTVSPost2010Prop55
280
     0
102
RTVSPost2010PropOp55
 70
     1
102
RTVSPost2010Prop56
140
1.0
102
RTVSPost2010PropOp56
 70
     1
102
RTVSPost2010Prop57
140
1.0
102
RTVSPost2010PropOp57
 70
     1
  0
XRECORD
  5
2E5
102
{ACAD_REACTORS
330
2E4
102
}
330
2E4
100
AcDbXrecord
280
     1
102
RTVSPropertyOp0
 70
     0
102
RTVSPropertyOp1
 70
     0
102
RTVSPropertyOp2
 70
     0
102
RTVSPropertyOp3
 70
     0
102
RTVSPropertyOp4
 70
     0
102
RTVSPropertyOp5
 70
     0
102
RTVSPropertyOp6
 70
     0
102
RTVSPropertyOp7
 70
     0
102
RTVSPropertyOp8
 70
     0
102
RTVSPropertyOp9
 70
     0
102
RTVSPropertyOp10
 70
     0
102
RTVSPropertyOp11
 70
     0
102
RTVSPropertyOp12
 70
     0
102
RTVSPropertyOp13
 70
     0
102
RTVSPropertyOp14
 70
     2
102
RTVSPropertyOp15
 70
     0
102
RTVSPropertyOp16
 70
     0
102
RTVSPropertyOp17
 70
     0
102
RTVSPropertyOp18
 70
     0
102
RTVSPropertyOp19
 70
     0
102
RTVSPropertyOp20
 70
     0
102
RTVSPropertyOp21
 70
     0
102
RTVSPropertyOp22
 70
     0
102
RTVSPropertyOp23
 70
     0
102
RTVSPropertyOp24
 70
     0
102
RTVSPropertyOp25
 70
     0
102
RTVSPropertyOp26
 70
     0
102
RTVSPropertyOp27
 70
     0
102
RTVSPropertyOp28
 70
     0
102
RTVSPropertyOp29
 70
     0
102
RTVSPropertyOp30
 70
     0
102
RTVSPropertyOp31
 70
     0
102
RTVSPropertyOp32
 70
     0
102
RTVSPropertyOp33
 70
     0
102
RTVSPropertyOp34
 70
     0
102
RTVSPropertyOp35
 70
     0
102
RTVSPropertyOp36
 70
     0
102
RTVSPropertyOp37
 70
     0
102
RTVSPropertyOp38
 70
     0
102
RTVSPropertyOp39
 70
     0
102
RTVSPropertyOp40
 70
     0
102
RTVSPropertyOp41
 70
     0
102
RTVSPropertyOp42
 70
     0
102
RTVSPropertyOp43
 70
     0
102
RTVSPropertyOp44
 70
     0
102
RTVSPropertyOp45
 70
     0
102
RTVSPropertyOp46
 70
     0
102
RTVSPropertyOp47
 70
     0
102
RTVSPropertyOp48
 70
     0
102
RTVSPropertyOp49
 70
     0
102
RTVSPropertyOp50
 70
     0
102
RTVSPropertyOp51
 70
     0
102
RTVSPropertyOp52
 70
     0
102
RTVSPropertyOp53
 70
     0
102
RTVSPropertyOp54
 70
     0
102
RTVSPropertyOp55
 70
     0
102
RTVSPropertyOp56
 70
     0
102
RTVSPropertyOp57
 70
     0
102
RTVSPost2010Prop28
280
     0
102
RTVSPost2010PropOp28
 70
     0
102
RTVSPost2010Prop29
280
     1
102
RTVSPost2010PropOp29
 70
     0
102
RTVSPost2010Prop30
280
     1
102
RTVSPost2010PropOp30
 70
     0
102
RTVSPost2010Prop31
280
     0
102
RTVSPost2010PropOp31
 70
     0
102
RTVSPost2010Prop32
280
     0
102
RTVSPost2010PropOp32
 70
     0
102
RTVSPost2010Prop33
280
     0
102
RTVSPost2010PropOp33
 70
     0
102
RTVSPost2010Prop34
280
     0
102
RTVSPost2010PropOp34
 70
     0
102
RTVSPost2010Prop35
280
     0
102
RTVSPost2010PropOp35
 70
     0
102
RTVSPost2010Prop36
280
     0
102
RTVSPost2010PropOp36
 70
     0
102
RTVSPost2010Prop37
 90
       50
102
RTVSPost2010PropOp37
 70
     0
102
RTVSPost2010Prop38
140
0.0
102
RTVSPost2010PropOp38
 70
     0
102
RTVSPost2010Prop39
140
1.0
102
RTVSPost2010PropOp39
 70
     0
102
RTVSPost2010Prop40
 90
        0
102
RTVSPost2010PropOp40
 70
     0
102
RTVSPost2010Prop41ColorIndex
 90
       18
102
RTVSPost2010Prop41ColorRGB
 90
        0
102
RTVSPost2010PropOp41
 70
     0
102
RTVSPost2010Prop42
 90
       50
102
RTVSPost2010PropOp42
 70
     0
102
RTVSPost2010Prop43
 90
        3
102
RTVSPost2010PropOp43
 70
     0
102
RTVSPost2010Prop44ColorIndex
 90
        5
102
RTVSPost2010Prop44ColorRGB
 90
      255
102
RTVSPost2010PropOp44
 70
     0
102
RTVSPost2010Prop45
280
     0
102
RTVSPost2010PropOp45
 70
     0
102
RTVSPost2010Prop46
 90
       50
102
RTVSPost2010PropOp46
 70
     0
102
RTVSPost2010Prop47
 90
       50
102
RTVSPost2010PropOp47
 70
     0
102
RTVSPost2010Prop48
 90
       50
102
RTVSPost2010PropOp48
 70
     0
102
RTVSPost2010Prop49
280
     0
102
RTVSPost2010PropOp49
 70
     0
102
RTVSPost2010Prop50
 90
       50
102
RTVSPost2010PropOp50
 70
     0
102
RTVSPost2010Prop51ColorIndex
 90
      256
102
RTVSPost2010Prop51ColorRGB
 90
-16777216
102
RTVSPost2010PropOp51
 70
     0
102
RTVSPost2010Prop52
140
1.0
102
RTVSPost2010PropOp52
 70
     0
102
RTVSPost2010Prop53
 90
        2
102
RTVSPost2010PropOp53
 70
     0
102
RTVSPost2010Prop54
  1
strokes_ogs.tif
102
RTVSPost2010PropOp54
 70
     0
102
RTVSPost2010Prop55
280
     0
102
RTVSPost2010PropOp55
 70
     0
102
RTVSPost2010Prop56
140
1.0
102
RTVSPost2010PropOp56
 70
     0
102
RTVSPost2010Prop57
140
1.0
102
RTVSPost2010PropOp57
 70
     0
  0
XRECORD
  5
2D3
102
{ACAD_REACTORS
330
2D2
102
}
330
2D2
100
AcDbXrecord
280
     1
102
RTVSPropertyOp0
 70
     1
102
RTVSPropertyOp1
 70
     1
102
RTVSPropertyOp2
 70
     1
102
RTVSPropertyOp3
 70
     1
102
RTVSPropertyOp4
 70
     1
102
RTVSPropertyOp5
 70
     1
102
RTVSPropertyOp6
 70
     1
102
RTVSPropertyOp7
 70
     1
102
RTVSPropertyOp8
 70
     1
102
RTVSPropertyOp9
 70
     1
102
RTVSPropertyOp10
 70
     1
102
RTVSPropertyOp11
 70
     1
102
RTVSPropertyOp12
 70
     1
102
RTVSPropertyOp13
 70
     1
102
RTVSPropertyOp14
 70
     1
102
RTVSPropertyOp15
 70
     1
102
RTVSPropertyOp16
 70
     1
102
RTVSPropertyOp17
 70
     1
102
RTVSPropertyOp18
 70
     1
102
RTVSPropertyOp19
 70
     1
102
RTVSPropertyOp20
 70
     1
102
RTVSPropertyOp21
 70
     1
102
RTVSPropertyOp22
 70
     1
102
RTVSPropertyOp23
 70
     1
102
RTVSPropertyOp24
 70
     1
102
RTVSPropertyOp25
 70
     1
102
RTVSPropertyOp26
 70
     1
102
RTVSPropertyOp27
 70
     1
102
RTVSPropertyOp28
 70
     1
102
RTVSPropertyOp29
 70
     1
102
RTVSPropertyOp30
 70
     1
102
RTVSPropertyOp31
 70
     1
102
RTVSPropertyOp32
 70
     1
102
RTVSPropertyOp33
 70
     1
102
RTVSPropertyOp34
 70
     1
102
RTVSPropertyOp35
 70
     1
102
RTVSPropertyOp36
 70
     1
102
RTVSPropertyOp37
 70
     1
102
RTVSPropertyOp38
 70
     1
102
RTVSPropertyOp39
 70
     1
102
RTVSPropertyOp40
 70
     1
102
RTVSPropertyOp41
 70
     1
102
RTVSPropertyOp42
 70
     1
102
RTVSPropertyOp43
 70
     1
102
RTVSPropertyOp44
 70
     1
102
RTVSPropertyOp45
 70
     1
102
RTVSPropertyOp46
 70
     1
102
RTVSPropertyOp47
 70
     1
102
RTVSPropertyOp48
 70
     1
102
RTVSPropertyOp49
 70
     1
102
RTVSPropertyOp50
 70
     1
102
RTVSPropertyOp51
 70
     0
102
RTVSPropertyOp52
 70
     0
102
RTVSPropertyOp53
 70
     1
102
RTVSPropertyOp54
 70
     1
102
RTVSPropertyOp55
 70
     1
102
RTVSPropertyOp56
 70
     1
102
RTVSPropertyOp57
 70
     1
102
RTVSPost2010Prop28
280
     0
102
RTVSPost2010PropOp28
 70
     1
102
RTVSPost2010Prop29
280
     1
102
RTVSPost2010PropOp29
 70
     1
102
RTVSPost2010Prop30
280
     1
102
RTVSPost2010PropOp30
 70
     1
102
RTVSPost2010Prop31
280
     0
102
RTVSPost2010PropOp31
 70
     1
102
RTVSPost2010Prop32
280
     0
102
RTVSPost2010PropOp32
 70
     1
102
RTVSPost2010Prop33
280
     0
102
RTVSPost2010PropOp33
 70
     1
102
RTVSPost2010Prop34
280
     0
102
RTVSPost2010PropOp34
 70
     1
102
RTVSPost2010Prop35
280
     0
102
RTVSPost2010PropOp35
 70
     1
102
RTVSPost2010Prop36
280
     0
102
RTVSPost2010PropOp36
 70
     1
102
RTVSPost2010Prop37
 90
       50
102
RTVSPost2010PropOp37
 70
     1
102
RTVSPost2010Prop38
140
0.0
102
RTVSPost2010PropOp38
 70
     1
102
RTVSPost2010Prop39
140
1.0
102
RTVSPost2010PropOp39
 70
     1
102
RTVSPost2010Prop40
 90
        0
102
RTVSPost2010PropOp40
 70
     1
102
RTVSPost2010Prop41ColorIndex
 90
       18
102
RTVSPost2010Prop41ColorRGB
 90
        0
102
RTVSPost2010PropOp41
 70
     1
102
RTVSPost2010Prop42
 90
       50
102
RTVSPost2010PropOp42
 70
     1
102
RTVSPost2010Prop43
 90
        3
102
RTVSPost2010PropOp43
 70
     1
102
RTVSPost2010Prop44ColorIndex
 90
        5
102
RTVSPost2010Prop44ColorRGB
 90
      255
102
RTVSPost2010PropOp44
 70
     1
102
RTVSPost2010Prop45
280
     0
102
RTVSPost2010PropOp45
 70
     1
102
RTVSPost2010Prop46
 90
       50
102
RTVSPost2010PropOp46
 70
     1
102
RTVSPost2010Prop47
 90
       50
102
RTVSPost2010PropOp47
 70
     1
102
RTVSPost2010Prop48
 90
       50
102
RTVSPost2010PropOp48
 70
     1
102
RTVSPost2010Prop49
280
     0
102
RTVSPost2010PropOp49
 70
     1
102
RTVSPost2010Prop50
 90
       50
102
RTVSPost2010PropOp50
 70
     1
102
RTVSPost2010Prop51ColorIndex
 90
      256
102
RTVSPost2010Prop51ColorRGB
 90
-16777216
102
RTVSPost2010PropOp51
 70
     0
102
RTVSPost2010Prop52
140
1.0
102
RTVSPost2010PropOp52
 70
     0
102
RTVSPost2010Prop53
 90
        2
102
RTVSPost2010PropOp53
 70
     1
102
RTVSPost2010Prop54
  1
strokes_ogs.tif
102
RTVSPost2010PropOp54
 70
     1
102
RTVSPost2010Prop55
280
     0
102
RTVSPost2010PropOp55
 70
     1
102
RTVSPost2010Prop56
140
1.0
102
RTVSPost2010PropOp56
 70
     1
102
RTVSPost2010Prop57
140
1.0
102
RTVSPost2010PropOp57
 70
     1
  0
XRECORD
  5
2F1
102
{ACAD_REACTORS
330
2F0
102
}
330
2F0
100
AcDbXrecord
280
     1
102
RTVSPropertyOp0
 70
     1
102
RTVSPropertyOp1
 70
     1
102
RTVSPropertyOp2
 70
     1
102
RTVSPropertyOp3
 70
     1
102
RTVSPropertyOp4
 70
     1
102
RTVSPropertyOp5
 70
     1
102
RTVSPropertyOp6
 70
     1
102
RTVSPropertyOp7
 70
     1
102
RTVSPropertyOp8
 70
     1
102
RTVSPropertyOp9
 70
     1
102
RTVSPropertyOp10
 70
     1
102
RTVSPropertyOp11
 70
     1
102
RTVSPropertyOp12
 70
     1
102
RTVSPropertyOp13
 70
     1
102
RTVSPropertyOp14
 70
     1
102
RTVSPropertyOp15
 70
     1
102
RTVSPropertyOp16
 70
     1
102
RTVSPropertyOp17
 70
     1
102
RTVSPropertyOp18
 70
     1
102
RTVSPropertyOp19
 70
     1
102
RTVSPropertyOp20
 70
     1
102
RTVSPropertyOp21
 70
     1
102
RTVSPropertyOp22
 70
     1
102
RTVSPropertyOp23
 70
     1
102
RTVSPropertyOp24
 70
     1
102
RTVSPropertyOp25
 70
     1
102
RTVSPropertyOp26
 70
     1
102
RTVSPropertyOp27
 70
     1
102
RTVSPropertyOp28
 70
     1
102
RTVSPropertyOp29
 70
     1
102
RTVSPropertyOp30
 70
     1
102
RTVSPropertyOp31
 70
     1
102
RTVSPropertyOp32
 70
     1
102
RTVSPropertyOp33
 70
     1
102
RTVSPropertyOp34
 70
     1
102
RTVSPropertyOp35
 70
     1
102
RTVSPropertyOp36
 70
     1
102
RTVSPropertyOp37
 70
     1
102
RTVSPropertyOp38
 70
     1
102
RTVSPropertyOp39
 70
     1
102
RTVSPropertyOp40
 70
     1
102
RTVSPropertyOp41
 70
     1
102
RTVSPropertyOp42
 70
     1
102
RTVSPropertyOp43
 70
     1
102
RTVSPropertyOp44
 70
     1
102
RTVSPropertyOp45
 70
     1
102
RTVSPropertyOp46
 70
     1
102
RTVSPropertyOp47
 70
     1
102
RTVSPropertyOp48
 70
     1
102
RTVSPropertyOp49
 70
     1
102
RTVSPropertyOp50
 70
     1
102
RTVSPropertyOp51
 70
     0
102
RTVSPropertyOp52
 70
     0
102
RTVSPropertyOp53
 70
     1
102
RTVSPropertyOp54
 70
     1
102
RTVSPropertyOp55
 70
     1
102
RTVSPropertyOp56
 70
     1
102
RTVSPropertyOp57
 70
     1
102
RTVSPost2010Prop28
280
     0
102
RTVSPost2010PropOp28
 70
     1
102
RTVSPost2010Prop29
280
     1
102
RTVSPost2010PropOp29
 70
     1
102
RTVSPost2010Prop30
280
     1
102
RTVSPost2010PropOp30
 70
     1
102
RTVSPost2010Prop31
280
     0
102
RTVSPost2010PropOp31
 70
     1
102
RTVSPost2010Prop32
280
     0
102
RTVSPost2010PropOp32
 70
     1
102
RTVSPost2010Prop33
280
     0
102
RTVSPost2010PropOp33
 70
     1
102
RTVSPost2010Prop34
280
     0
102
RTVSPost2010PropOp34
 70
     1
102
RTVSPost2010Prop35
280
     0
102
RTVSPost2010PropOp35
 70
     1
102
RTVSPost2010Prop36
280
     0
102
RTVSPost2010PropOp36
 70
     1
102
RTVSPost2010Prop37
 90
       50
102
RTVSPost2010PropOp37
 70
     1
102
RTVSPost2010Prop38
140
0.0
102
RTVSPost2010PropOp38
 70
     1
102
RTVSPost2010Prop39
140
1.0
102
RTVSPost2010PropOp39
 70
     1
102
RTVSPost2010Prop40
 90
        0
102
RTVSPost2010PropOp40
 70
     1
102
RTVSPost2010Prop41ColorIndex
 90
       18
102
RTVSPost2010Prop41ColorRGB
 90
        0
102
RTVSPost2010PropOp41
 70
     1
102
RTVSPost2010Prop42
 90
       50
102
RTVSPost2010PropOp42
 70
     1
102
RTVSPost2010Prop43
 90
        3
102
RTVSPost2010PropOp43
 70
     1
102
RTVSPost2010Prop44ColorIndex
 90
        5
102
RTVSPost2010Prop44ColorRGB
 90
      255
102
RTVSPost2010PropOp44
 70
     1
102
RTVSPost2010Prop45
280
     0
102
RTVSPost2010PropOp45
 70
     1
102
RTVSPost2010Prop46
 90
       50
102
RTVSPost2010PropOp46
 70
     1
102
RTVSPost2010Prop47
 90
       50
102
RTVSPost2010PropOp47
 70
     1
102
RTVSPost2010Prop48
 90
       50
102
RTVSPost2010PropOp48
 70
     1
102
RTVSPost2010Prop49
280
     0
102
RTVSPost2010PropOp49
 70
     1
102
RTVSPost2010Prop50
 90
       50
102
RTVSPost2010PropOp50
 70
     1
102
RTVSPost2010Prop51ColorIndex
 90
      256
102
RTVSPost2010Prop51ColorRGB
 90
-16777216
102
RTVSPost2010PropOp51
 70
     0
102
RTVSPost2010Prop52
140
1.0
102
RTVSPost2010PropOp52
 70
     0
102
RTVSPost2010Prop53
 90
        2
102
RTVSPost2010PropOp53
 70
     1
102
RTVSPost2010Prop54
  1
strokes_ogs.tif
102
RTVSPost2010PropOp54
 70
     1
102
RTVSPost2010Prop55
280
     0
102
RTVSPost2010PropOp55
 70
     1
102
RTVSPost2010Prop56
140
1.0
102
RTVSPost2010PropOp56
 70
     1
102
RTVSPost2010Prop57
140
1.0
102
RTVSPost2010PropOp57
 70
     1
  0
XRECORD
  5
2EF
102
{ACAD_REACTORS
330
2EE
102
}
330
2EE
100
AcDbXrecord
280
     1
102
RTVSPropertyOp0
 70
     1
102
RTVSPropertyOp1
 70
     1
102
RTVSPropertyOp2
 70
     1
102
RTVSPropertyOp3
 70
     1
102
RTVSPropertyOp4
 70
     1
102
RTVSPropertyOp5
 70
     1
102
RTVSPropertyOp6
 70
     1
102
RTVSPropertyOp7
 70
     1
102
RTVSPropertyOp8
 70
     1
102
RTVSPropertyOp9
 70
     1
102
RTVSPropertyOp10
 70
     1
102
RTVSPropertyOp11
 70
     1
102
RTVSPropertyOp12
 70
     1
102
RTVSPropertyOp13
 70
     1
102
RTVSPropertyOp14
 70
     1
102
RTVSPropertyOp15
 70
     1
102
RTVSPropertyOp16
 70
     1
102
RTVSPropertyOp17
 70
     1
102
RTVSPropertyOp18
 70
     1
102
RTVSPropertyOp19
 70
     1
102
RTVSPropertyOp20
 70
     1
102
RTVSPropertyOp21
 70
     1
102
RTVSPropertyOp22
 70
     1
102
RTVSPropertyOp23
 70
     1
102
RTVSPropertyOp24
 70
     1
102
RTVSPropertyOp25
 70
     1
102
RTVSPropertyOp26
 70
     1
102
RTVSPropertyOp27
 70
     1
102
RTVSPropertyOp28
 70
     1
102
RTVSPropertyOp29
 70
     1
102
RTVSPropertyOp30
 70
     1
102
RTVSPropertyOp31
 70
     1
102
RTVSPropertyOp32
 70
     1
102
RTVSPropertyOp33
 70
     1
102
RTVSPropertyOp34
 70
     1
102
RTVSPropertyOp35
 70
     1
102
RTVSPropertyOp36
 70
     1
102
RTVSPropertyOp37
 70
     1
102
RTVSPropertyOp38
 70
     1
102
RTVSPropertyOp39
 70
     1
102
RTVSPropertyOp40
 70
     1
102
RTVSPropertyOp41
 70
     1
102
RTVSPropertyOp42
 70
     1
102
RTVSPropertyOp43
 70
     1
102
RTVSPropertyOp44
 70
     1
102
RTVSPropertyOp45
 70
     1
102
RTVSPropertyOp46
 70
     1
102
RTVSPropertyOp47
 70
     1
102
RTVSPropertyOp48
 70
     1
102
RTVSPropertyOp49
 70
     1
102
RTVSPropertyOp50
 70
     1
102
RTVSPropertyOp51
 70
     0
102
RTVSPropertyOp52
 70
     0
102
RTVSPropertyOp53
 70
     1
102
RTVSPropertyOp54
 70
     1
102
RTVSPropertyOp55
 70
     1
102
RTVSPropertyOp56
 70
     1
102
RTVSPropertyOp57
 70
     1
102
RTVSPost2010Prop28
280
     0
102
RTVSPost2010PropOp28
 70
     1
102
RTVSPost2010Prop29
280
     1
102
RTVSPost2010PropOp29
 70
     1
102
RTVSPost2010Prop30
280
     1
102
RTVSPost2010PropOp30
 70
     1
102
RTVSPost2010Prop31
280
     0
102
RTVSPost2010PropOp31
 70
     1
102
RTVSPost2010Prop32
280
     0
102
RTVSPost2010PropOp32
 70
     1
102
RTVSPost2010Prop33
280
     0
102
RTVSPost2010PropOp33
 70
     1
102
RTVSPost2010Prop34
280
     0
102
RTVSPost2010PropOp34
 70
     1
102
RTVSPost2010Prop35
280
     0
102
RTVSPost2010PropOp35
 70
     1
102
RTVSPost2010Prop36
280
     0
102
RTVSPost2010PropOp36
 70
     1
102
RTVSPost2010Prop37
 90
       50
102
RTVSPost2010PropOp37
 70
     1
102
RTVSPost2010Prop38
140
0.0
102
RTVSPost2010PropOp38
 70
     1
102
RTVSPost2010Prop39
140
1.0
102
RTVSPost2010PropOp39
 70
     1
102
RTVSPost2010Prop40
 90
        0
102
RTVSPost2010PropOp40
 70
     1
102
RTVSPost2010Prop41ColorIndex
 90
       18
102
RTVSPost2010Prop41ColorRGB
 90
        0
102
RTVSPost2010PropOp41
 70
     1
102
RTVSPost2010Prop42
 90
       50
102
RTVSPost2010PropOp42
 70
     1
102
RTVSPost2010Prop43
 90
        3
102
RTVSPost2010PropOp43
 70
     1
102
RTVSPost2010Prop44ColorIndex
 90
        5
102
RTVSPost2010Prop44ColorRGB
 90
      255
102
RTVSPost2010PropOp44
 70
     1
102
RTVSPost2010Prop45
280
     0
102
RTVSPost2010PropOp45
 70
     1
102
RTVSPost2010Prop46
 90
       50
102
RTVSPost2010PropOp46
 70
     1
102
RTVSPost2010Prop47
 90
       50
102
RTVSPost2010PropOp47
 70
     1
102
RTVSPost2010Prop48
 90
       50
102
RTVSPost2010PropOp48
 70
     1
102
RTVSPost2010Prop49
280
     0
102
RTVSPost2010PropOp49
 70
     1
102
RTVSPost2010Prop50
 90
       50
102
RTVSPost2010PropOp50
 70
     1
102
RTVSPost2010Prop51ColorIndex
 90
      256
102
RTVSPost2010Prop51ColorRGB
 90
-16777216
102
RTVSPost2010PropOp51
 70
     0
102
RTVSPost2010Prop52
140
1.0
102
RTVSPost2010PropOp52
 70
     0
102
RTVSPost2010Prop53
 90
        2
102
RTVSPost2010PropOp53
 70
     1
102
RTVSPost2010Prop54
  1
strokes_ogs.tif
102
RTVSPost2010PropOp54
 70
     1
102
RTVSPost2010Prop55
280
     0
102
RTVSPost2010PropOp55
 70
     1
102
RTVSPost2010Prop56
140
1.0
102
RTVSPost2010PropOp56
 70
     1
102
RTVSPost2010Prop57
140
1.0
102
RTVSPost2010PropOp57
 70
     1
  0
XRECORD
  5
2E9
102
{ACAD_REACTORS
330
2E8
102
}
330
2E8
100
AcDbXrecord
280
     1
102
RTVSPropertyOp0
 70
     1
102
RTVSPropertyOp1
 70
     1
102
RTVSPropertyOp2
 70
     1
102
RTVSPropertyOp3
 70
     1
102
RTVSPropertyOp4
 70
     1
102
RTVSPropertyOp5
 70
     1
102
RTVSPropertyOp6
 70
     1
102
RTVSPropertyOp7
 70
     1
102
RTVSPropertyOp8
 70
     1
102
RTVSPropertyOp9
 70
     1
102
RTVSPropertyOp10
 70
     1
102
RTVSPropertyOp11
 70
     1
102
RTVSPropertyOp12
 70
     1
102
RTVSPropertyOp13
 70
     1
102
RTVSPropertyOp14
 70
     1
102
RTVSPropertyOp15
 70
     1
102
RTVSPropertyOp16
 70
     1
102
RTVSPropertyOp17
 70
     1
102
RTVSPropertyOp18
 70
     1
102
RTVSPropertyOp19
 70
     1
102
RTVSPropertyOp20
 70
     1
102
RTVSPropertyOp21
 70
     1
102
RTVSPropertyOp22
 70
     1
102
RTVSPropertyOp23
 70
     1
102
RTVSPropertyOp24
 70
     1
102
RTVSPropertyOp25
 70
     1
102
RTVSPropertyOp26
 70
     1
102
RTVSPropertyOp27
 70
     1
102
RTVSPropertyOp28
 70
     1
102
RTVSPropertyOp29
 70
     1
102
RTVSPropertyOp30
 70
     1
102
RTVSPropertyOp31
 70
     1
102
RTVSPropertyOp32
 70
     1
102
RTVSPropertyOp33
 70
     1
102
RTVSPropertyOp34
 70
     1
102
RTVSPropertyOp35
 70
     1
102
RTVSPropertyOp36
 70
     1
102
RTVSPropertyOp37
 70
     1
102
RTVSPropertyOp38
 70
     1
102
RTVSPropertyOp39
 70
     1
102
RTVSPropertyOp40
 70
     1
102
RTVSPropertyOp41
 70
     1
102
RTVSPropertyOp42
 70
     1
102
RTVSPropertyOp43
 70
     1
102
RTVSPropertyOp44
 70
     1
102
RTVSPropertyOp45
 70
     1
102
RTVSPropertyOp46
 70
     1
102
RTVSPropertyOp47
 70
     1
102
RTVSPropertyOp48
 70
     1
102
RTVSPropertyOp49
 70
     1
102
RTVSPropertyOp50
 70
     1
102
RTVSPropertyOp51
 70
     0
102
RTVSPropertyOp52
 70
     0
102
RTVSPropertyOp53
 70
     1
102
RTVSPropertyOp54
 70
     1
102
RTVSPropertyOp55
 70
     1
102
RTVSPropertyOp56
 70
     1
102
RTVSPropertyOp57
 70
     1
102
RTVSPost2010Prop28
280
     0
102
RTVSPost2010PropOp28
 70
     1
102
RTVSPost2010Prop29
280
     1
102
RTVSPost2010PropOp29
 70
     1
102
RTVSPost2010Prop30
280
     1
102
RTVSPost2010PropOp30
 70
     1
102
RTVSPost2010Prop31
280
     0
102
RTVSPost2010PropOp31
 70
     1
102
RTVSPost2010Prop32
280
     0
102
RTVSPost2010PropOp32
 70
     1
102
RTVSPost2010Prop33
280
     0
102
RTVSPost2010PropOp33
 70
     1
102
RTVSPost2010Prop34
280
     0
102
RTVSPost2010PropOp34
 70
     1
102
RTVSPost2010Prop35
280
     0
102
RTVSPost2010PropOp35
 70
     1
102
RTVSPost2010Prop36
280
     0
102
RTVSPost2010PropOp36
 70
     1
102
RTVSPost2010Prop37
 90
       50
102
RTVSPost2010PropOp37
 70
     1
102
RTVSPost2010Prop38
140
0.0
102
RTVSPost2010PropOp38
 70
     1
102
RTVSPost2010Prop39
140
1.0
102
RTVSPost2010PropOp39
 70
     1
102
RTVSPost2010Prop40
 90
        0
102
RTVSPost2010PropOp40
 70
     1
102
RTVSPost2010Prop41ColorIndex
 90
       18
102
RTVSPost2010Prop41ColorRGB
 90
        0
102
RTVSPost2010PropOp41
 70
     1
102
RTVSPost2010Prop42
 90
       50
102
RTVSPost2010PropOp42
 70
     1
102
RTVSPost2010Prop43
 90
        3
102
RTVSPost2010PropOp43
 70
     1
102
RTVSPost2010Prop44ColorIndex
 90
        5
102
RTVSPost2010Prop44ColorRGB
 90
      255
102
RTVSPost2010PropOp44
 70
     1
102
RTVSPost2010Prop45
280
     0
102
RTVSPost2010PropOp45
 70
     1
102
RTVSPost2010Prop46
 90
       50
102
RTVSPost2010PropOp46
 70
     1
102
RTVSPost2010Prop47
 90
       50
102
RTVSPost2010PropOp47
 70
     1
102
RTVSPost2010Prop48
 90
       50
102
RTVSPost2010PropOp48
 70
     1
102
RTVSPost2010Prop49
280
     0
102
RTVSPost2010PropOp49
 70
     1
102
RTVSPost2010Prop50
 90
       50
102
RTVSPost2010PropOp50
 70
     1
102
RTVSPost2010Prop51ColorIndex
 90
      256
102
RTVSPost2010Prop51ColorRGB
 90
-16777216
102
RTVSPost2010PropOp51
 70
     0
102
RTVSPost2010Prop52
140
1.0
102
RTVSPost2010PropOp52
 70
     0
102
RTVSPost2010Prop53
 90
        2
102
RTVSPost2010PropOp53
 70
     1
102
RTVSPost2010Prop54
  1
strokes_ogs.tif
102
RTVSPost2010PropOp54
 70
     1
102
RTVSPost2010Prop55
280
     0
102
RTVSPost2010PropOp55
 70
     1
102
RTVSPost2010Prop56
140
1.0
102
RTVSPost2010PropOp56
 70
     1
102
RTVSPost2010Prop57
140
1.0
102
RTVSPost2010PropOp57
 70
     1
  0
XRECORD
  5
2EB
102
{ACAD_REACTORS
330
2EA
102
}
330
2EA
100
AcDbXrecord
280
     1
102
RTVSPropertyOp0
 70
     1
102
RTVSPropertyOp1
 70
     1
102
RTVSPropertyOp2
 70
     1
102
RTVSPropertyOp3
 70
     1
102
RTVSPropertyOp4
 70
     1
102
RTVSPropertyOp5
 70
     1
102
RTVSPropertyOp6
 70
     1
102
RTVSPropertyOp7
 70
     1
102
RTVSPropertyOp8
 70
     1
102
RTVSPropertyOp9
 70
     1
102
RTVSPropertyOp10
 70
     1
102
RTVSPropertyOp11
 70
     1
102
RTVSPropertyOp12
 70
     1
102
RTVSPropertyOp13
 70
     1
102
RTVSPropertyOp14
 70
     1
102
RTVSPropertyOp15
 70
     1
102
RTVSPropertyOp16
 70
     1
102
RTVSPropertyOp17
 70
     1
102
RTVSPropertyOp18
 70
     1
102
RTVSPropertyOp19
 70
     1
102
RTVSPropertyOp20
 70
     1
102
RTVSPropertyOp21
 70
     1
102
RTVSPropertyOp22
 70
     1
102
RTVSPropertyOp23
 70
     1
102
RTVSPropertyOp24
 70
     1
102
RTVSPropertyOp25
 70
     1
102
RTVSPropertyOp26
 70
     1
102
RTVSPropertyOp27
 70
     1
102
RTVSPropertyOp28
 70
     1
102
RTVSPropertyOp29
 70
     1
102
RTVSPropertyOp30
 70
     1
102
RTVSPropertyOp31
 70
     1
102
RTVSPropertyOp32
 70
     1
102
RTVSPropertyOp33
 70
     1
102
RTVSPropertyOp34
 70
     1
102
RTVSPropertyOp35
 70
     1
102
RTVSPropertyOp36
 70
     1
102
RTVSPropertyOp37
 70
     1
102
RTVSPropertyOp38
 70
     1
102
RTVSPropertyOp39
 70
     1
102
RTVSPropertyOp40
 70
     1
102
RTVSPropertyOp41
 70
     1
102
RTVSPropertyOp42
 70
     1
102
RTVSPropertyOp43
 70
     1
102
RTVSPropertyOp44
 70
     1
102
RTVSPropertyOp45
 70
     1
102
RTVSPropertyOp46
 70
     1
102
RTVSPropertyOp47
 70
     1
102
RTVSPropertyOp48
 70
     1
102
RTVSPropertyOp49
 70
     1
102
RTVSPropertyOp50
 70
     1
102
RTVSPropertyOp51
 70
     0
102
RTVSPropertyOp52
 70
     0
102
RTVSPropertyOp53
 70
     1
102
RTVSPropertyOp54
 70
     1
102
RTVSPropertyOp55
 70
     1
102
RTVSPropertyOp56
 70
     1
102
RTVSPropertyOp57
 70
     1
102
RTVSPost2010Prop28
280
     0
102
RTVSPost2010PropOp28
 70
     1
102
RTVSPost2010Prop29
280
     1
102
RTVSPost2010PropOp29
 70
     1
102
RTVSPost2010Prop30
280
     1
102
RTVSPost2010PropOp30
 70
     1
102
RTVSPost2010Prop31
280
     0
102
RTVSPost2010PropOp31
 70
     1
102
RTVSPost2010Prop32
280
     0
102
RTVSPost2010PropOp32
 70
     1
102
RTVSPost2010Prop33
280
     0
102
RTVSPost2010PropOp33
 70
     1
102
RTVSPost2010Prop34
280
     0
102
RTVSPost2010PropOp34
 70
     1
102
RTVSPost2010Prop35
280
     0
102
RTVSPost2010PropOp35
 70
     1
102
RTVSPost2010Prop36
280
     0
102
RTVSPost2010PropOp36
 70
     1
102
RTVSPost2010Prop37
 90
       50
102
RTVSPost2010PropOp37
 70
     1
102
RTVSPost2010Prop38
140
0.0
102
RTVSPost2010PropOp38
 70
     1
102
RTVSPost2010Prop39
140
1.0
102
RTVSPost2010PropOp39
 70
     1
102
RTVSPost2010Prop40
 90
        0
102
RTVSPost2010PropOp40
 70
     1
102
RTVSPost2010Prop41ColorIndex
 90
       18
102
RTVSPost2010Prop41ColorRGB
 90
        0
102
RTVSPost2010PropOp41
 70
     1
102
RTVSPost2010Prop42
 90
       50
102
RTVSPost2010PropOp42
 70
     1
102
RTVSPost2010Prop43
 90
        3
102
RTVSPost2010PropOp43
 70
     1
102
RTVSPost2010Prop44ColorIndex
 90
        5
102
RTVSPost2010Prop44ColorRGB
 90
      255
102
RTVSPost2010PropOp44
 70
     1
102
RTVSPost2010Prop45
280
     0
102
RTVSPost2010PropOp45
 70
     1
102
RTVSPost2010Prop46
 90
       50
102
RTVSPost2010PropOp46
 70
     1
102
RTVSPost2010Prop47
 90
       50
102
RTVSPost2010PropOp47
 70
     1
102
RTVSPost2010Prop48
 90
       50
102
RTVSPost2010PropOp48
 70
     1
102
RTVSPost2010Prop49
280
     0
102
RTVSPost2010PropOp49
 70
     1
102
RTVSPost2010Prop50
 90
       50
102
RTVSPost2010PropOp50
 70
     1
102
RTVSPost2010Prop51ColorIndex
 90
      256
102
RTVSPost2010Prop51ColorRGB
 90
-16777216
102
RTVSPost2010PropOp51
 70
     0
102
RTVSPost2010Prop52
140
1.0
102
RTVSPost2010PropOp52
 70
     0
102
RTVSPost2010Prop53
 90
        2
102
RTVSPost2010PropOp53
 70
     1
102
RTVSPost2010Prop54
  1
strokes_ogs.tif
102
RTVSPost2010PropOp54
 70
     1
102
RTVSPost2010Prop55
280
     0
102
RTVSPost2010PropOp55
 70
     1
102
RTVSPost2010Prop56
140
1.0
102
RTVSPost2010PropOp56
 70
     1
102
RTVSPost2010Prop57
140
1.0
102
RTVSPost2010PropOp57
 70
     1
  0
XRECORD
  5
2DB
102
{ACAD_REACTORS
330
2DA
102
}
330
2DA
100
AcDbXrecord
280
     1
102
RTVSPropertyOp0
 70
     1
102
RTVSPropertyOp1
 70
     1
102
RTVSPropertyOp2
 70
     1
102
RTVSPropertyOp3
 70
     1
102
RTVSPropertyOp4
 70
     1
102
RTVSPropertyOp5
 70
     1
102
RTVSPropertyOp6
 70
     1
102
RTVSPropertyOp7
 70
     1
102
RTVSPropertyOp8
 70
     1
102
RTVSPropertyOp9
 70
     1
102
RTVSPropertyOp10
 70
     1
102
RTVSPropertyOp11
 70
     1
102
RTVSPropertyOp12
 70
     1
102
RTVSPropertyOp13
 70
     1
102
RTVSPropertyOp14
 70
     1
102
RTVSPropertyOp15
 70
     1
102
RTVSPropertyOp16
 70
     1
102
RTVSPropertyOp17
 70
     1
102
RTVSPropertyOp18
 70
     1
102
RTVSPropertyOp19
 70
     1
102
RTVSPropertyOp20
 70
     1
102
RTVSPropertyOp21
 70
     1
102
RTVSPropertyOp22
 70
     1
102
RTVSPropertyOp23
 70
     1
102
RTVSPropertyOp24
 70
     1
102
RTVSPropertyOp25
 70
     1
102
RTVSPropertyOp26
 70
     1
102
RTVSPropertyOp27
 70
     1
102
RTVSPropertyOp28
 70
     1
102
RTVSPropertyOp29
 70
     1
102
RTVSPropertyOp30
 70
     1
102
RTVSPropertyOp31
 70
     1
102
RTVSPropertyOp32
 70
     1
102
RTVSPropertyOp33
 70
     1
102
RTVSPropertyOp34
 70
     1
102
RTVSPropertyOp35
 70
     1
102
RTVSPropertyOp36
 70
     1
102
RTVSPropertyOp37
 70
     1
102
RTVSPropertyOp38
 70
     1
102
RTVSPropertyOp39
 70
     1
102
RTVSPropertyOp40
 70
     1
102
RTVSPropertyOp41
 70
     1
102
RTVSPropertyOp42
 70
     1
102
RTVSPropertyOp43
 70
     1
102
RTVSPropertyOp44
 70
     1
102
RTVSPropertyOp45
 70
     1
102
RTVSPropertyOp46
 70
     1
102
RTVSPropertyOp47
 70
     1
102
RTVSPropertyOp48
 70
     1
102
RTVSPropertyOp49
 70
     1
102
RTVSPropertyOp50
 70
     1
102
RTVSPropertyOp51
 70
     0
102
RTVSPropertyOp52
 70
     0
102
RTVSPropertyOp53
 70
     1
102
RTVSPropertyOp54
 70
     1
102
RTVSPropertyOp55
 70
     1
102
RTVSPropertyOp56
 70
     1
102
RTVSPropertyOp57
 70
     1
102
RTVSPost2010Prop28
280
     0
102
RTVSPost2010PropOp28
 70
     1
102
RTVSPost2010Prop29
280
     1
102
RTVSPost2010PropOp29
 70
     1
102
RTVSPost2010Prop30
280
     1
102
RTVSPost2010PropOp30
 70
     1
102
RTVSPost2010Prop31
280
     0
102
RTVSPost2010PropOp31
 70
     1
102
RTVSPost2010Prop32
280
     0
102
RTVSPost2010PropOp32
 70
     1
102
RTVSPost2010Prop33
280
     0
102
RTVSPost2010PropOp33
 70
     1
102
RTVSPost2010Prop34
280
     0
102
RTVSPost2010PropOp34
 70
     1
102
RTVSPost2010Prop35
280
     0
102
RTVSPost2010PropOp35
 70
     1
102
RTVSPost2010Prop36
280
     0
102
RTVSPost2010PropOp36
 70
     1
102
RTVSPost2010Prop37
 90
       50
102
RTVSPost2010PropOp37
 70
     1
102
RTVSPost2010Prop38
140
0.0
102
RTVSPost2010PropOp38
 70
     1
102
RTVSPost2010Prop39
140
1.0
102
RTVSPost2010PropOp39
 70
     1
102
RTVSPost2010Prop40
 90
        0
102
RTVSPost2010PropOp40
 70
     1
102
RTVSPost2010Prop41ColorIndex
 90
       18
102
RTVSPost2010Prop41ColorRGB
 90
        0
102
RTVSPost2010PropOp41
 70
     1
102
RTVSPost2010Prop42
 90
       50
102
RTVSPost2010PropOp42
 70
     1
102
RTVSPost2010Prop43
 90
        3
102
RTVSPost2010PropOp43
 70
     1
102
RTVSPost2010Prop44ColorIndex
 90
        5
102
RTVSPost2010Prop44ColorRGB
 90
      255
102
RTVSPost2010PropOp44
 70
     1
102
RTVSPost2010Prop45
280
     0
102
RTVSPost2010PropOp45
 70
     1
102
RTVSPost2010Prop46
 90
       50
102
RTVSPost2010PropOp46
 70
     1
102
RTVSPost2010Prop47
 90
       50
102
RTVSPost2010PropOp47
 70
     1
102
RTVSPost2010Prop48
 90
       50
102
RTVSPost2010PropOp48
 70
     1
102
RTVSPost2010Prop49
280
     0
102
RTVSPost2010PropOp49
 70
     1
102
RTVSPost2010Prop50
 90
       50
102
RTVSPost2010PropOp50
 70
     1
102
RTVSPost2010Prop51ColorIndex
 90
      256
102
RTVSPost2010Prop51ColorRGB
 90
-16777216
102
RTVSPost2010PropOp51
 70
     0
102
RTVSPost2010Prop52
140
1.0
102
RTVSPost2010PropOp52
 70
     0
102
RTVSPost2010Prop53
 90
        2
102
RTVSPost2010PropOp53
 70
     1
102
RTVSPost2010Prop54
  1
strokes_ogs.tif
102
RTVSPost2010PropOp54
 70
     1
102
RTVSPost2010Prop55
280
     0
102
RTVSPost2010PropOp55
 70
     1
102
RTVSPost2010Prop56
140
1.0
102
RTVSPost2010PropOp56
 70
     1
102
RTVSPost2010Prop57
140
1.0
102
RTVSPost2010PropOp57
 70
     1
  0
XRECORD
  5
2CD
102
{ACAD_REACTORS
330
2CC
102
}
330
2CC
100
AcDbXrecord
280
     1
102
RTVSPropertyOp0
 70
     1
102
RTVSPropertyOp1
 70
     1
102
RTVSPropertyOp2
 70
     1
102
RTVSPropertyOp3
 70
     1
102
RTVSPropertyOp4
 70
     1
102
RTVSPropertyOp5
 70
     1
102
RTVSPropertyOp6
 70
     1
102
RTVSPropertyOp7
 70
     1
102
RTVSPropertyOp8
 70
     1
102
RTVSPropertyOp9
 70
     1
102
RTVSPropertyOp10
 70
     1
102
RTVSPropertyOp11
 70
     1
102
RTVSPropertyOp12
 70
     1
102
RTVSPropertyOp13
 70
     1
102
RTVSPropertyOp14
 70
     1
102
RTVSPropertyOp15
 70
     1
102
RTVSPropertyOp16
 70
     1
102
RTVSPropertyOp17
 70
     1
102
RTVSPropertyOp18
 70
     1
102
RTVSPropertyOp19
 70
     1
102
RTVSPropertyOp20
 70
     1
102
RTVSPropertyOp21
 70
     1
102
RTVSPropertyOp22
 70
     1
102
RTVSPropertyOp23
 70
     1
102
RTVSPropertyOp24
 70
     1
102
RTVSPropertyOp25
 70
     1
102
RTVSPropertyOp26
 70
     1
102
RTVSPropertyOp27
 70
     1
102
RTVSPropertyOp28
 70
     1
102
RTVSPropertyOp29
 70
     1
102
RTVSPropertyOp30
 70
     1
102
RTVSPropertyOp31
 70
     1
102
RTVSPropertyOp32
 70
     1
102
RTVSPropertyOp33
 70
     1
102
RTVSPropertyOp34
 70
     1
102
RTVSPropertyOp35
 70
     1
102
RTVSPropertyOp36
 70
     1
102
RTVSPropertyOp37
 70
     1
102
RTVSPropertyOp38
 70
     1
102
RTVSPropertyOp39
 70
     1
102
RTVSPropertyOp40
 70
     1
102
RTVSPropertyOp41
 70
     1
102
RTVSPropertyOp42
 70
     1
102
RTVSPropertyOp43
 70
     1
102
RTVSPropertyOp44
 70
     1
102
RTVSPropertyOp45
 70
     1
102
RTVSPropertyOp46
 70
     1
102
RTVSPropertyOp47
 70
     1
102
RTVSPropertyOp48
 70
     1
102
RTVSPropertyOp49
 70
     1
102
RTVSPropertyOp50
 70
     1
102
RTVSPropertyOp51
 70
     0
102
RTVSPropertyOp52
 70
     0
102
RTVSPropertyOp53
 70
     1
102
RTVSPropertyOp54
 70
     1
102
RTVSPropertyOp55
 70
     1
102
RTVSPropertyOp56
 70
     1
102
RTVSPropertyOp57
 70
     1
102
RTVSPost2010Prop28
280
     0
102
RTVSPost2010PropOp28
 70
     1
102
RTVSPost2010Prop29
280
     1
102
RTVSPost2010PropOp29
 70
     1
102
RTVSPost2010Prop30
280
     1
102
RTVSPost2010PropOp30
 70
     1
102
RTVSPost2010Prop31
280
     0
102
RTVSPost2010PropOp31
 70
     1
102
RTVSPost2010Prop32
280
     0
102
RTVSPost2010PropOp32
 70
     1
102
RTVSPost2010Prop33
280
     0
102
RTVSPost2010PropOp33
 70
     1
102
RTVSPost2010Prop34
280
     0
102
RTVSPost2010PropOp34
 70
     1
102
RTVSPost2010Prop35
280
     0
102
RTVSPost2010PropOp35
 70
     1
102
RTVSPost2010Prop36
280
     0
102
RTVSPost2010PropOp36
 70
     1
102
RTVSPost2010Prop37
 90
       50
102
RTVSPost2010PropOp37
 70
     1
102
RTVSPost2010Prop38
140
0.0
102
RTVSPost2010PropOp38
 70
     1
102
RTVSPost2010Prop39
140
1.0
102
RTVSPost2010PropOp39
 70
     1
102
RTVSPost2010Prop40
 90
        0
102
RTVSPost2010PropOp40
 70
     1
102
RTVSPost2010Prop41ColorIndex
 90
       18
102
RTVSPost2010Prop41ColorRGB
 90
        0
102
RTVSPost2010PropOp41
 70
     1
102
RTVSPost2010Prop42
 90
       50
102
RTVSPost2010PropOp42
 70
     1
102
RTVSPost2010Prop43
 90
        3
102
RTVSPost2010PropOp43
 70
     1
102
RTVSPost2010Prop44ColorIndex
 90
        5
102
RTVSPost2010Prop44ColorRGB
 90
      255
102
RTVSPost2010PropOp44
 70
     1
102
RTVSPost2010Prop45
280
     0
102
RTVSPost2010PropOp45
 70
     1
102
RTVSPost2010Prop46
 90
       50
102
RTVSPost2010PropOp46
 70
     1
102
RTVSPost2010Prop47
 90
       50
102
RTVSPost2010PropOp47
 70
     1
102
RTVSPost2010Prop48
 90
       50
102
RTVSPost2010PropOp48
 70
     1
102
RTVSPost2010Prop49
280
     0
102
RTVSPost2010PropOp49
 70
     1
102
RTVSPost2010Prop50
 90
       50
102
RTVSPost2010PropOp50
 70
     1
102
RTVSPost2010Prop51ColorIndex
 90
      256
102
RTVSPost2010Prop51ColorRGB
 90
-16777216
102
RTVSPost2010PropOp51
 70
     0
102
RTVSPost2010Prop52
140
1.0
102
RTVSPost2010PropOp52
 70
     0
102
RTVSPost2010Prop53
 90
        2
102
RTVSPost2010PropOp53
 70
     1
102
RTVSPost2010Prop54
  1
strokes_ogs.tif
102
RTVSPost2010PropOp54
 70
     1
102
RTVSPost2010Prop55
280
     0
102
RTVSPost2010PropOp55
 70
     1
102
RTVSPost2010Prop56
140
1.0
102
RTVSPost2010PropOp56
 70
     1
102
RTVSPost2010Prop57
140
1.0
102
RTVSPost2010PropOp57
 70
     1
  0
XRECORD
  5
2ED
102
{ACAD_REACTORS
330
2EC
102
}
330
2EC
100
AcDbXrecord
280
     1
102
RTVSPropertyOp0
 70
     1
102
RTVSPropertyOp1
 70
     1
102
RTVSPropertyOp2
 70
     1
102
RTVSPropertyOp3
 70
     1
102
RTVSPropertyOp4
 70
     1
102
RTVSPropertyOp5
 70
     1
102
RTVSPropertyOp6
 70
     1
102
RTVSPropertyOp7
 70
     1
102
RTVSPropertyOp8
 70
     1
102
RTVSPropertyOp9
 70
     1
102
RTVSPropertyOp10
 70
     1
102
RTVSPropertyOp11
 70
     1
102
RTVSPropertyOp12
 70
     1
102
RTVSPropertyOp13
 70
     1
102
RTVSPropertyOp14
 70
     1
102
RTVSPropertyOp15
 70
     1
102
RTVSPropertyOp16
 70
     1
102
RTVSPropertyOp17
 70
     1
102
RTVSPropertyOp18
 70
     1
102
RTVSPropertyOp19
 70
     1
102
RTVSPropertyOp20
 70
     1
102
RTVSPropertyOp21
 70
     1
102
RTVSPropertyOp22
 70
     1
102
RTVSPropertyOp23
 70
     1
102
RTVSPropertyOp24
 70
     1
102
RTVSPropertyOp25
 70
     1
102
RTVSPropertyOp26
 70
     1
102
RTVSPropertyOp27
 70
     1
102
RTVSPropertyOp28
 70
     1
102
RTVSPropertyOp29
 70
     1
102
RTVSPropertyOp30
 70
     1
102
RTVSPropertyOp31
 70
     1
102
RTVSPropertyOp32
 70
     1
102
RTVSPropertyOp33
 70
     1
102
RTVSPropertyOp34
 70
     1
102
RTVSPropertyOp35
 70
     1
102
RTVSPropertyOp36
 70
     1
102
RTVSPropertyOp37
 70
     1
102
RTVSPropertyOp38
 70
     1
102
RTVSPropertyOp39
 70
     1
102
RTVSPropertyOp40
 70
     1
102
RTVSPropertyOp41
 70
     1
102
RTVSPropertyOp42
 70
     1
102
RTVSPropertyOp43
 70
     1
102
RTVSPropertyOp44
 70
     1
102
RTVSPropertyOp45
 70
     1
102
RTVSPropertyOp46
 70
     1
102
RTVSPropertyOp47
 70
     1
102
RTVSPropertyOp48
 70
     1
102
RTVSPropertyOp49
 70
     1
102
RTVSPropertyOp50
 70
     1
102
RTVSPropertyOp51
 70
     0
102
RTVSPropertyOp52
 70
     0
102
RTVSPropertyOp53
 70
     1
102
RTVSPropertyOp54
 70
     1
102
RTVSPropertyOp55
 70
     1
102
RTVSPropertyOp56
 70
     1
102
RTVSPropertyOp57
 70
     1
102
RTVSPost2010Prop28
280
     0
102
RTVSPost2010PropOp28
 70
     1
102
RTVSPost2010Prop29
280
     1
102
RTVSPost2010PropOp29
 70
     1
102
RTVSPost2010Prop30
280
     1
102
RTVSPost2010PropOp30
 70
     1
102
RTVSPost2010Prop31
280
     0
102
RTVSPost2010PropOp31
 70
     1
102
RTVSPost2010Prop32
280
     0
102
RTVSPost2010PropOp32
 70
     1
102
RTVSPost2010Prop33
280
     0
102
RTVSPost2010PropOp33
 70
     1
102
RTVSPost2010Prop34
280
     0
102
RTVSPost2010PropOp34
 70
     1
102
RTVSPost2010Prop35
280
     0
102
RTVSPost2010PropOp35
 70
     1
102
RTVSPost2010Prop36
280
     0
102
RTVSPost2010PropOp36
 70
     1
102
RTVSPost2010Prop37
 90
       50
102
RTVSPost2010PropOp37
 70
     1
102
RTVSPost2010Prop38
140
0.0
102
RTVSPost2010PropOp38
 70
     1
102
RTVSPost2010Prop39
140
1.0
102
RTVSPost2010PropOp39
 70
     1
102
RTVSPost2010Prop40
 90
        0
102
RTVSPost2010PropOp40
 70
     1
102
RTVSPost2010Prop41ColorIndex
 90
       18
102
RTVSPost2010Prop41ColorRGB
 90
        0
102
RTVSPost2010PropOp41
 70
     1
102
RTVSPost2010Prop42
 90
       50
102
RTVSPost2010PropOp42
 70
     1
102
RTVSPost2010Prop43
 90
        3
102
RTVSPost2010PropOp43
 70
     1
102
RTVSPost2010Prop44ColorIndex
 90
        5
102
RTVSPost2010Prop44ColorRGB
 90
      255
102
RTVSPost2010PropOp44
 70
     1
102
RTVSPost2010Prop45
280
     0
102
RTVSPost2010PropOp45
 70
     1
102
RTVSPost2010Prop46
 90
       50
102
RTVSPost2010PropOp46
 70
     1
102
RTVSPost2010Prop47
 90
       50
102
RTVSPost2010PropOp47
 70
     1
102
RTVSPost2010Prop48
 90
       50
102
RTVSPost2010PropOp48
 70
     1
102
RTVSPost2010Prop49
280
     0
102
RTVSPost2010PropOp49
 70
     1
102
RTVSPost2010Prop50
 90
       50
102
RTVSPost2010PropOp50
 70
     1
102
RTVSPost2010Prop51ColorIndex
 90
      256
102
RTVSPost2010Prop51ColorRGB
 90
-16777216
102
RTVSPost2010PropOp51
 70
     0
102
RTVSPost2010Prop52
140
1.0
102
RTVSPost2010PropOp52
 70
     0
102
RTVSPost2010Prop53
 90
        2
102
RTVSPost2010PropOp53
 70
     1
102
RTVSPost2010Prop54
  1
strokes_ogs.tif
102
RTVSPost2010PropOp54
 70
     1
102
RTVSPost2010Prop55
280
     0
102
RTVSPost2010PropOp55
 70
     1
102
RTVSPost2010Prop56
140
1.0
102
RTVSPost2010PropOp56
 70
     1
102
RTVSPost2010Prop57
140
1.0
102
RTVSPost2010PropOp57
 70
     1
  0
ENDSEC
  0
EOF
