  0
SECTION
  2
HEADER
  9
$ACADVER
  1
AC1027
  9
$ACADMAINTVER
 70
   125
  9
$DWGCODEPAGE
  3
ANSI_1252
  9
$LASTSAVEDBY
  1
fleminab
  9
$REQUIREDVERSIONS
160
                 0
  9
$INSBASE
 10
0.0
 20
0.0
 30
0.0
  9
$EXTMIN
 10
8.974782649651842
 20
184.85273338766
 30
-0.0015258207003583
  9
$EXTMAX
 10
1035.544274588207
 20
867.0205626971133
 30
0.0000000349246037
  9
$LIMMIN
 10
0.0
 20
0.0
  9
$LIMMAX
 10
12.0
 20
9.0
  9
$ORTHOMODE
 70
     0
  9
$REGENMODE
 70
     1
  9
$FILLMODE
 70
     1
  9
$QTEXTMODE
 70
     0
  9
$MIRRTEXT
 70
     0
  9
$LTSCALE
 40
1.0
  9
$ATTMODE
 70
     1
  9
$TEXTSIZE
 40
0.2
  9
$TRACEWID
 40
0.05
  9
$TEXTSTYLE
  7
Standard
  9
$CLAYER
  8
0
  9
$CELTYPE
  6
ByLayer
  9
$CECOLOR
 62
   256
  9
$CELTSCALE
 40
1.0
  9
$DISPSILH
 70
     0
  9
$DIMSCALE
 40
1.0
  9
$DIMASZ
 40
0.18
  9
$DIMEXO
 40
0.0625
  9
$DIMDLI
 40
0.38
  9
$DIMRND
 40
0.0
  9
$DIMDLE
 40
0.0
  9
$DIMEXE
 40
0.18
  9
$DIMTP
 40
0.0
  9
$DIMTM
 40
0.0
  9
$DIMTXT
 40
0.18
  9
$DIMCEN
 40
0.09
  9
$DIMTSZ
 40
0.0
  9
$DIMTOL
 70
     0
  9
$DIMLIM
 70
     0
  9
$DIMTIH
 70
     1
  9
$DIMTOH
 70
     1
  9
$DIMSE1
 70
     0
  9
$DIMSE2
 70
     0
  9
$DIMTAD
 70
     0
  9
$DIMZIN
 70
     0
  9
$DIMBLK
  1

  9
$DIMASO
 70
     1
  9
$DIMSHO
 70
     1
  9
$DIMPOST
  1

  9
$DIMAPOST
  1

  9
$DIMALT
 70
     0
  9
$DIMALTD
 70
     2
  9
$DIMALTF
 40
25.4
  9
$DIMLFAC
 40
1.0
  9
$DIMTOFL
 70
     0
  9
$DIMTVP
 40
0.0
  9
$DIMTIX
 70
     0
  9
$DIMSOXD
 70
     0
  9
$DIMSAH
 70
     0
  9
$DIMBLK1
  1

  9
$DIMBLK2
  1

  9
$DIMSTYLE
  2
Standard
  9
$DIMCLRD
 70
     0
  9
$DIMCLRE
 70
     0
  9
$DIMCLRT
 70
     0
  9
$DIMTFAC
 40
1.0
  9
$DIMGAP
 40
0.09
  9
$DIMJUST
 70
     0
  9
$DIMSD1
 70
     0
  9
$DIMSD2
 70
     0
  9
$DIMTOLJ
 70
     1
  9
$DIMTZIN
 70
     0
  9
$DIMALTZ
 70
     0
  9
$DIMALTTZ
 70
     0
  9
$DIMUPT
 70
     0
  9
$DIMDEC
 70
     4
  9
$DIMTDEC
 70
     4
  9
$DIMALTU
 70
     2
  9
$DIMALTTD
 70
     2
  9
$DIMTXSTY
  7
Standard
  9
$DIMAUNIT
 70
     0
  9
$DIMADEC
 70
     0
  9
$DIMALTRND
 40
0.0
  9
$DIMAZIN
 70
     0
  9
$DIMDSEP
 70
    46
  9
$DIMATFIT
 70
     3
  9
$DIMFRAC
 70
     0
  9
$DIMLDRBLK
  1

  9
$DIMLUNIT
 70
     2
  9
$DIMLWD
 70
    -2
  9
$DIMLWE
 70
    -2
  9
$DIMTMOVE
 70
     0
  9
$DIMFXL
 40
1.0
  9
$DIMFXLON
 70
     0
  9
$DIMJOGANG
 40
0.7853981633974483
  9
$DIMTFILL
 70
     0
  9
$DIMTFILLCLR
 70
     0
  9
$DIMARCSYM
 70
     0
  9
$DIMLTYPE
  6

  9
$DIMLTEX1
  6

  9
$DIMLTEX2
  6

  9
$DIMTXTDIRECTION
 70
     0
  9
$LUNITS
 70
     2
  9
$LUPREC
 70
     4
  9
$SKETCHINC
 40
0.1
  9
$FILLETRAD
 40
0.0
  9
$AUNITS
 70
     0
  9
$AUPREC
 70
     0
  9
$MENU
  1
.
  9
$ELEVATION
 40
0.0
  9
$PELEVATION
 40
0.0
  9
$THICKNESS
 40
0.0
  9
$LIMCHECK
 70
     0
  9
$CHAMFERA
 40
0.0
  9
$CHAMFERB
 40
0.0
  9
$CHAMFERC
 40
0.0
  9
$CHAMFERD
 40
0.0
  9
$SKPOLY
 70
     0
  9
$TDCREATE
 40
2455050.481215278
  9
$TDUCREATE
 40
2455050.064558912
  9
$TDUPDATE
 40
2458033.542905093
  9
$TDUUPDATE
 40
2458033.084571759
  9
$TDINDWG
 40
0.0022205903
  9
$TDUSRTIMER
 40
0.0022204167
  9
$USRTIMER
 70
     1
  9
$ANGBASE
 50
0.0
  9
$ANGDIR
 70
     0
  9
$PDMODE
 70
     0
  9
$PDSIZE
 40
0.0
  9
$PLINEWID
 40
0.0
  9
$SPLFRAME
 70
     0
  9
$SPLINETYPE
 70
     6
  9
$SPLINESEGS
 70
     8
  9
$HANDSEED
  5
3BF
  9
$SURFTAB1
 70
     6
  9
$SURFTAB2
 70
     6
  9
$SURFTYPE
 70
     6
  9
$SURFU
 70
     6
  9
$SURFV
 70
     6
  9
$UCSBASE
  2

  9
$UCSNAME
  2

  9
$UCSORG
 10
0.0
 20
0.0
 30
0.0
  9
$UCSXDIR
 10
1.0
 20
0.0
 30
0.0
  9
$UCSYDIR
 10
0.0
 20
1.0
 30
0.0
  9
$UCSORTHOREF
  2

  9
$UCSORTHOVIEW
 70
     0
  9
$UCSORGTOP
 10
0.0
 20
0.0
 30
0.0
  9
$UCSORGBOTTOM
 10
0.0
 20
0.0
 30
0.0
  9
$UCSORGLEFT
 10
0.0
 20
0.0
 30
0.0
  9
$UCSORGRIGHT
 10
0.0
 20
0.0
 30
0.0
  9
$UCSORGFRONT
 10
0.0
 20
0.0
 30
0.0
  9
$UCSORGBACK
 10
0.0
 20
0.0
 30
0.0
  9
$PUCSBASE
  2

  9
$PUCSNAME
  2

  9
$PUCSORG
 10
0.0
 20
0.0
 30
0.0
  9
$PUCSXDIR
 10
1.0
 20
0.0
 30
0.0
  9
$PUCSYDIR
 10
0.0
 20
1.0
 30
0.0
  9
$PUCSORTHOREF
  2

  9
$PUCSORTHOVIEW
 70
     0
  9
$PUCSORGTOP
 10
0.0
 20
0.0
 30
0.0
  9
$PUCSORGBOTTOM
 10
0.0
 20
0.0
 30
0.0
  9
$PUCSORGLEFT
 10
0.0
 20
0.0
 30
0.0
  9
$PUCSORGRIGHT
 10
0.0
 20
0.0
 30
0.0
  9
$PUCSORGFRONT
 10
0.0
 20
0.0
 30
0.0
  9
$PUCSORGBACK
 10
0.0
 20
0.0
 30
0.0
  9
$USERI1
 70
     0
  9
$USERI2
 70
     0
  9
$USERI3
 70
     0
  9
$USERI4
 70
     0
  9
$USERI5
 70
     0
  9
$USERR1
 40
0.0
  9
$USERR2
 40
0.0
  9
$USERR3
 40
0.0
  9
$USERR4
 40
0.0
  9
$USERR5
 40
0.0
  9
$WORLDVIEW
 70
     1
  9
$SHADEDGE
 70
     3
  9
$SHADEDIF
 70
    70
  9
$TILEMODE
 70
     1
  9
$MAXACTVP
 70
    64
  9
$PINSBASE
 10
0.0
 20
0.0
 30
0.0
  9
$PLIMCHECK
 70
     0
  9
$PEXTMIN
 10
0.0
 20
0.0
 30
0.0
  9
$PEXTMAX
 10
0.0
 20
0.0
 30
0.0
  9
$PLIMMIN
 10
0.0
 20
0.0
  9
$PLIMMAX
 10
12.0
 20
9.0
  9
$UNITMODE
 70
     0
  9
$VISRETAIN
 70
     1
  9
$PLINEGEN
 70
     0
  9
$PSLTSCALE
 70
     1
  9
$TREEDEPTH
 70
  3020
  9
$CMLSTYLE
  2
Standard
  9
$CMLJUST
 70
     0
  9
$CMLSCALE
 40
1.0
  9
$PROXYGRAPHICS
 70
     1
  9
$MEASUREMENT
 70
     0
  9
$CELWEIGHT
370
    -1
  9
$ENDCAPS
280
     0
  9
$JOINSTYLE
280
     0
  9
$LWDISPLAY
290
     0
  9
$INSUNITS
 70
     1
  9
$HYPERLINKBASE
  1

  9
$STYLESHEET
  1

  9
$XEDIT
290
     1
  9
$CEPSNTYPE
380
     0
  9
$PSTYLEMODE
290
     1
  9
$FINGERPRINTGUID
  2
{FDEAD576-A652-11D2-9A35-0060089B3A3F}
  9
$VERSIONGUID
  2
{0CC712F4-0AE7-CF49-AAE0-BCAF801E7C3A}
  9
$EXTNAMES
290
     1
  9
$PSVPSCALE
 40
0.0
  9
$OLESTARTUP
290
     0
  9
$SORTENTS
280
   127
  9
$INDEXCTL
280
     0
  9
$HIDETEXT
280
     1
  9
$XCLIPFRAME
280
     0
  9
$HALOGAP
280
     0
  9
$OBSCOLOR
 70
   257
  9
$OBSLTYPE
280
     0
  9
$INTERSECTIONDISPLAY
280
     0
  9
$INTERSECTIONCOLOR
 70
   257
  9
$DIMASSOC
280
     2
  9
$PROJECTNAME
  1

  9
$CAMERADISPLAY
290
     0
  9
$LENSLENGTH
 40
50.0
  9
$CAMERAHEIGHT
 40
0.0
  9
$STEPSPERSEC
 40
2.0
  9
$STEPSIZE
 40
6.0
  9
$3DDWFPREC
 40
2.0
  9
$PSOLWIDTH
 40
0.25
  9
$PSOLHEIGHT
 40
4.0
  9
$LOFTANG1
 40
1.570796326794896
  9
$LOFTANG2
 40
1.570796326794896
  9
$LOFTMAG1
 40
0.0
  9
$LOFTMAG2
 40
0.0
  9
$LOFTPARAM
 70
     7
  9
$LOFTNORMALS
280
     1
  9
$LATITUDE
 40
37.795
  9
$LONGITUDE
 40
-122.394
  9
$NORTHDIRECTION
 40
0.0
  9
$TIMEZONE
 70
 -8000
  9
$LIGHTGLYPHDISPLAY
280
     1
  9
$TILEMODELIGHTSYNCH
280
     1
  9
$CMATERIAL
347
34E
  9
$SOLIDHIST
280
     0
  9
$SHOWHIST
280
     1
  9
$DWFFRAME
280
     2
  9
$DGNFRAME
280
     0
  9
$REALWORLDSCALE
290
     1
  9
$INTERFERECOLOR
 62
     1
  9
$INTERFEREOBJVS
345
370
  9
$INTERFEREVPVS
346
36D
  9
$CSHADOW
280
     0
  9
$SHADOWPLANELOCATION
 40
0.0
  0
ENDSEC
  0
SECTION
  2
CLASSES
  0
CLASS
  1
ACDBDICTIONARYWDFLT
  2
AcDbDictionaryWithDefault
  3
ObjectDBX Classes
 90
        0
 91
        1
280
     0
281
     0
  0
CLASS
  1
DICTIONARYVAR
  2
AcDbDictionaryVar
  3
ObjectDBX Classes
 90
        0
 91
       20
280
     0
281
     0
  0
CLASS
  1
MATERIAL
  2
AcDbMaterial
  3
ObjectDBX Classes
 90
     1153
 91
        3
280
     0
281
     0
  0
CLASS
  1
VISUALSTYLE
  2
AcDbVisualStyle
  3
ObjectDBX Classes
 90
     4095
 91
       24
280
     0
281
     0
  0
CLASS
  1
TABLESTYLE
  2
AcDbTableStyle
  3
ObjectDBX Classes
 90
     4095
 91
        1
280
     0
281
     0
  0
CLASS
  1
SCALE
  2
AcDbScale
  3
ObjectDBX Classes
 90
     1153
 91
       17
280
     0
281
     0
  0
CLASS
  1
MLEADERSTYLE
  2
AcDbMLeaderStyle
  3
ACDB_MLEADERSTYLE_CLASS
 90
     4095
 91
        1
280
     0
281
     0
  0
CLASS
  1
ACDBSECTIONVIEWSTYLE
  2
AcDbSectionViewStyle
  3
ObjectDBX Classes
 90
     1025
 91
        1
280
     0
281
     0
  0
CLASS
  1
ACDBDETAILVIEWSTYLE
  2
AcDbDetailViewStyle
  3
ObjectDBX Classes
 90
     1025
 91
        1
280
     0
281
     0
  0
CLASS
  1
CELLSTYLEMAP
  2
AcDbCellStyleMap
  3
ObjectDBX Classes
 90
     1152
 91
        1
280
     0
281
     0
  0
ENDSEC
  0
SECTION
  2
TABLES
  0
TABLE
  2
VPORT
  5
8
330
0
100
AcDbSymbolTable
 70
     1
1001
ACAD
1000
DbSaveVer
1071
        5
  0
VPORT
  5
34C
330
8
100
AcDbSymbolTableRecord
100
AcDbViewportTableRecord
  2
*Active
 70
     0
 10
0.0
 20
0.0
 11
1.0
 21
1.0
 12
522.2595286189293
 22
525.9366480423866
 13
0.0
 23
0.0
 14
0.5
 24
0.5
 15
0.5
 25
0.5
 16
0.0
 26
0.0
 36
1.0
 17
0.0
 27
0.0
 37
0.0
 40
687.0520858438886
 41
2.292712066905615
 42
50.0
 43
0.0
 44
0.0
 50
0.0
 51
0.0
 71
     0
 72
  1000
 73
     1
 74
     3
 75
     0
 76
     0
 77
     0
 78
     0
281
     0
 65
     1
110
0.0
120
0.0
130
0.0
111
1.0
121
0.0
131
0.0
112
0.0
122
1.0
132
0.0
 79
     0
146
0.0
348
36C
 60
     3
 61
     5
292
     1
282
     1
141
0.0
142
0.0
 63
   250
421
  3355443
1001
ACAD_NAV_VCDISPLAY
1070
     3
  0
ENDTAB
  0
TABLE
  2
LTYPE
  5
5
330
0
100
AcDbSymbolTable
 70
     2
  0
LTYPE
  5
14
330
5
100
AcDbSymbolTableRecord
100
AcDbLinetypeTableRecord
  2
ByBlock
 70
     0
  3

 72
    65
 73
     0
 40
0.0
  0
LTYPE
  5
15
330
5
100
AcDbSymbolTableRecord
100
AcDbLinetypeTableRecord
  2
ByLayer
 70
     0
  3

 72
    65
 73
     0
 40
0.0
  0
LTYPE
  5
16
330
5
100
AcDbSymbolTableRecord
100
AcDbLinetypeTableRecord
  2
Continuous
 70
     0
  3
Solid line
 72
    65
 73
     0
 40
0.0
  0
LTYPE
  5
133
330
5
100
AcDbSymbolTableRecord
100
AcDbLinetypeTableRecord
  2
CENTER2
 70
     0
  3
Center (.5x) ___ _ ___ _ ___ _ ___ _ ___ _ ___
 72
    65
 73
     4
 40
28.575
 49
19.05
 74
     0
 49
-3.174999999999999
 74
     0
 49
3.174999999999999
 74
     0
 49
-3.174999999999999
 74
     0
  0
ENDTAB
  0
TABLE
  2
LAYER
  5
2
102
{ACAD_XDICTIONARY
360
136
102
}
330
0
100
AcDbSymbolTable
 70
     2
  0
LAYER
  5
10
102
{ACAD_XDICTIONARY
360
39E
102
}
330
2
100
AcDbSymbolTableRecord
100
AcDbLayerTableRecord
  2
0
 70
     0
 62
     7
  6
Continuous
370
    -3
390
F
347
35E
348
0
  0
LAYER
  5
134
330
2
100
AcDbSymbolTableRecord
100
AcDbLayerTableRecord
  2
Defpoints
 70
     0
 62
     7
  6
Continuous
290
     0
370
    -3
390
F
347
35E
348
0
  0
ENDTAB
  0
TABLE
  2
STYLE
  5
3
330
0
100
AcDbSymbolTable
 70
     1
  0
STYLE
  5
11
330
3
100
AcDbSymbolTableRecord
100
AcDbTextStyleTableRecord
  2
Standard
 70
     0
 40
0.0
 41
1.0
 50
0.0
 71
     0
 42
0.2
  3
txt
  4

  0
ENDTAB
  0
TABLE
  2
VIEW
  5
6
330
0
100
AcDbSymbolTable
 70
     0
  0
ENDTAB
  0
TABLE
  2
UCS
  5
7
330
0
100
AcDbSymbolTable
 70
     0
  0
ENDTAB
  0
TABLE
  2
APPID
  5
9
330
0
100
AcDbSymbolTable
 70
     3
  0
APPID
  5
12
330
9
100
AcDbSymbolTableRecord
100
AcDbRegAppTableRecord
  2
ACAD
 70
     0
  0
APPID
  5
399
330
9
100
AcDbSymbolTableRecord
100
AcDbRegAppTableRecord
  2
AcadStringInfo
 70
     0
  0
APPID
  5
3A0
330
9
100
AcDbSymbolTableRecord
100
AcDbRegAppTableRecord
  2
ACAD_NAV_VCDISPLAY
 70
     0
  0
ENDTAB
  0
TABLE
  2
DIMSTYLE
  5
A
330
0
100
AcDbSymbolTable
 70
     2
100
AcDbDimStyleTable
 71
     0
  0
DIMSTYLE
105
27
330
A
100
AcDbSymbolTableRecord
100
AcDbDimStyleTableRecord
  2
Standard
 70
     0
340
11
  0
DIMSTYLE
105
135
102
{ACAD_REACTORS
330
1BE
330
1BF
330
1C5
330
1CC
330
1CD
330
221
330
222
330
223
330
224
330
225
330
226
330
227
330
22F
330
23A
102
}
330
A
100
AcDbSymbolTableRecord
100
AcDbDimStyleTableRecord
  2
ISO-25
 70
     0
 41
2.5
 42
0.625
 43
3.75
 44
1.25
 73
     0
 74
     0
 77
     1
 78
     8
140
2.5
141
2.5
143
0.03937007874016
147
0.625
171
     3
172
     1
176
     1
177
     1
178
     3
271
     2
272
     2
274
     3
283
     0
284
     8
340
11
  0
ENDTAB
  0
TABLE
  2
BLOCK_RECORD
  5
1
330
0
100
AcDbSymbolTable
 70
    30
  0
BLOCK_RECORD
  5
1F
330
1
100
AcDbSymbolTableRecord
100
AcDbBlockTableRecord
  2
*Model_Space
340
22
 70
     0
280
     1
281
     0
  0
BLOCK_RECORD
  5
58
330
1
100
AcDbSymbolTableRecord
100
AcDbBlockTableRecord
  2
*Paper_Space
340
59
 70
     0
280
     1
281
     0
  0
BLOCK_RECORD
  5
5D
330
1
100
AcDbSymbolTableRecord
100
AcDbBlockTableRecord
  2
*Paper_Space0
340
5E
 70
     0
280
     1
281
     0
  0
BLOCK_RECORD
  5
8F
330
1
100
AcDbSymbolTableRecord
100
AcDbBlockTableRecord
  2
_Closed
340
0
 70
     0
280
     1
281
     0
  0
BLOCK_RECORD
  5
23C
330
1
100
AcDbSymbolTableRecord
100
AcDbBlockTableRecord
  2
*D16
340
0
 70
     0
280
     1
281
     0
  0
BLOCK_RECORD
  5
247
330
1
100
AcDbSymbolTableRecord
100
AcDbBlockTableRecord
  2
*D17
340
0
 70
     0
280
     1
281
     0
  0
BLOCK_RECORD
  5
253
330
1
100
AcDbSymbolTableRecord
100
AcDbBlockTableRecord
  2
*D18
340
0
 70
     0
280
     1
281
     0
  0
BLOCK_RECORD
  5
25F
330
1
100
AcDbSymbolTableRecord
100
AcDbBlockTableRecord
  2
*D19
340
0
 70
     0
280
     1
281
     0
  0
BLOCK_RECORD
  5
268
330
1
100
AcDbSymbolTableRecord
100
AcDbBlockTableRecord
  2
*D20
340
0
 70
     0
280
     1
281
     0
  0
BLOCK_RECORD
  5
271
330
1
100
AcDbSymbolTableRecord
100
AcDbBlockTableRecord
  2
*D21
340
0
 70
     0
280
     1
281
     0
  0
BLOCK_RECORD
  5
27D
330
1
100
AcDbSymbolTableRecord
100
AcDbBlockTableRecord
  2
*D22
340
0
 70
     0
280
     1
281
     0
  0
BLOCK_RECORD
  5
289
330
1
100
AcDbSymbolTableRecord
100
AcDbBlockTableRecord
  2
*D23
340
0
 70
     0
280
     1
281
     0
  0
BLOCK_RECORD
  5
295
330
1
100
AcDbSymbolTableRecord
100
AcDbBlockTableRecord
  2
*D24
340
0
 70
     0
280
     1
281
     0
  0
BLOCK_RECORD
  5
2A1
330
1
100
AcDbSymbolTableRecord
100
AcDbBlockTableRecord
  2
*D25
340
0
 70
     0
280
     1
281
     0
  0
BLOCK_RECORD
  5
2AD
330
1
100
AcDbSymbolTableRecord
100
AcDbBlockTableRecord
  2
*D26
340
0
 70
     0
280
     1
281
     0
  0
BLOCK_RECORD
  5
2B5
330
1
100
AcDbSymbolTableRecord
100
AcDbBlockTableRecord
  2
*D27
340
0
 70
     0
280
     1
281
     0
  0
BLOCK_RECORD
  5
2C1
330
1
100
AcDbSymbolTableRecord
100
AcDbBlockTableRecord
  2
*D28
340
0
 70
     0
280
     1
281
     0
  0
BLOCK_RECORD
  5
2CC
330
1
100
AcDbSymbolTableRecord
100
AcDbBlockTableRecord
  2
*D29
340
0
 70
     0
280
     1
281
     0
  0
ENDTAB
  0
ENDSEC
  0
SECTION
  2
BLOCKS
  0
BLOCK
  5
20
330
1F
100
AcDbEntity
  8
0
100
AcDbBlockBegin
  2
*Model_Space
 70
     0
 10
0.0
 20
0.0
 30
0.0
  3
*Model_Space
  1

  0
ENDBLK
  5
21
330
1F
100
AcDbEntity
  8
0
100
AcDbBlockEnd
  0
BLOCK
  5
5A
330
58
100
AcDbEntity
 67
     1
  8
0
100
AcDbBlockBegin
  2
*Paper_Space
 70
     0
 10
0.0
 20
0.0
 30
0.0
  3
*Paper_Space
  1

  0
ENDBLK
  5
5B
330
58
100
AcDbEntity
 67
     1
  8
0
100
AcDbBlockEnd
  0
BLOCK
  5
5F
330
5D
100
AcDbEntity
 67
     1
  8
0
100
AcDbBlockBegin
  2
*Paper_Space0
 70
     0
 10
0.0
 20
0.0
 30
0.0
  3
*Paper_Space0
  1

  0
ENDBLK
  5
60
330
5D
100
AcDbEntity
 67
     1
  8
0
100
AcDbBlockEnd
  0
BLOCK
  5
90
330
8F
100
AcDbEntity
  8
0
100
AcDbBlockBegin
  2
_Closed
 70
     0
 10
0.0
 20
0.0
 30
0.0
  3
_Closed
  1

  0
LINE
  5
91
330
8F
100
AcDbEntity
  8
0
  6
ByBlock
 62
     0
370
    -2
100
AcDbLine
 10
-1.0
 20
0.166667
 30
0.0
 11
0.0
 21
0.0
 31
0.0
  0
LINE
  5
92
330
8F
100
AcDbEntity
  8
0
  6
ByBlock
 62
     0
370
    -2
100
AcDbLine
 10
0.0
 20
0.0
 30
0.0
 11
-1.0
 21
-0.166667
 31
0.0
  0
LINE
  5
93
330
8F
100
AcDbEntity
  8
0
  6
ByBlock
 62
     0
370
    -2
100
AcDbLine
 10
-1.0
 20
0.166667
 30
0.0
 11
-1.0
 21
-0.166667
 31
0.0
  0
LINE
  5
94
330
8F
100
AcDbEntity
  8
0
  6
ByBlock
 62
     0
370
    -2
100
AcDbLine
 10
0.0
 20
0.0
 30
0.0
 11
-1.0
 21
0.0
 31
0.0
  0
ENDBLK
  5
95
330
8F
100
AcDbEntity
  8
0
100
AcDbBlockEnd
  0
BLOCK
  5
245
330
23C
100
AcDbEntity
  8
0
100
AcDbBlockBegin
  2
*D16
 70
     1
 10
0.0
 20
0.0
 30
0.0
  3
*D16
  1

  0
LINE
  5
2D9
330
23C
100
AcDbEntity
  8
0
 62
     1
440
 16777216
370
    -2
100
AcDbLine
 10
613.7195218381377
 20
854.4435740564773
 30
0.0
 11
567.3515453400583
 21
777.5922418704261
 31
0.0
  0
LINE
  5
2DA
330
23C
100
AcDbEntity
  8
0
 62
     1
440
 16777216
370
    -2
100
AcDbLine
 10
536.8720840881253
 20
727.0748939412751
 30
0.0
 11
530.6728716301078
 21
716.8001791082319
 31
0.0
  0
MTEXT
  5
2DB
330
23C
100
AcDbEntity
  8
0
440
 16777216
100
AcDbMText
 10
588.472927886605
 20
839.699515197933
 30
0.0
 40
14.0
 41
0.0
 46
0.0
 71
     5
 72
     1
  1
∅35
 11
0.5166010381681333
 21
0.8562262360869391
 31
0.0
 73
     1
 44
1.0
  0
LINE
  5
2DC
330
23C
100
AcDbEntity
  8
0
 62
     1
440
 16777216
370
    -2
100
AcDbLine
 10
543.071296546143
 20
737.3496087743184
 30
0.0
 11
561.1523328820407
 21
767.3175270373828
 31
0.0
  0
SOLID
  5
2DD
330
23C
100
AcDbEntity
  8
0
 62
     1
440
 16777216
100
AcDbTrace
 10
535.1596316159515
 20
728.1080960176113
 30
0.0
 11
538.5845365602992
 21
726.0416918649389
 31
0.0
 12
543.071296546143
 22
737.3496087743184
 32
0.0
 13
543.071296546143
 23
737.3496087743184
 33
0.0
  0
SOLID
  5
2DE
330
23C
100
AcDbEntity
  8
0
 62
     1
440
 16777216
100
AcDbTrace
 10
565.6390928678844
 20
778.6254439467624
 30
0.0
 11
569.0639978122321
 21
776.5590397940899
 31
0.0
 12
561.1523328820407
 22
767.3175270373828
 32
0.0
 13
561.1523328820407
 23
767.3175270373828
 33
0.0
  0
POINT
  5
2DF
330
23C
100
AcDbEntity
  8
Defpoints
 62
     0
440
 16777216
100
AcDbPoint
 10
561.1523328820407
 20
767.3175270373828
 30
0.0
  0
POINT
  5
2E0
330
23C
100
AcDbEntity
  8
Defpoints
 62
     0
440
 16777216
100
AcDbPoint
 10
543.071296546143
 20
737.3496087743184
 30
0.0
  0
ENDBLK
  5
246
330
23C
100
AcDbEntity
  8
0
100
AcDbBlockEnd
  0
BLOCK
  5
251
330
247
100
AcDbEntity
  8
0
100
AcDbBlockBegin
  2
*D17
 70
     1
 10
0.0
 20
0.0
 30
0.0
  3
*D17
  1

  0
LINE
  5
2E1
330
247
100
AcDbEntity
  8
0
 62
     1
440
 16777216
370
    -2
100
AcDbLine
 10
102.1118147140737
 20
795.3335679059015
 30
0.0
 11
102.1118147140737
 21
850.994102118209
 31
0.0
  0
LINE
  5
2E2
330
247
100
AcDbEntity
  8
0
 62
     1
440
 16777216
370
    -2
100
AcDbLine
 10
552.1118147132951
 20
776.1485614140761
 30
0.0
 11
552.1118147132951
 21
850.994102118209
 31
0.0
  0
LINE
  5
2E3
330
247
100
AcDbEntity
  8
0
 62
     1
440
 16777216
370
    -2
100
AcDbLine
 10
114.1118147140737
 20
845.9941021182091
 30
0.0
 11
540.1118147132952
 21
845.9941021182091
 31
0.0
  0
SOLID
  5
2E4
330
247
100
AcDbEntity
  8
0
 62
     1
440
 16777216
100
AcDbTrace
 10
114.1118147140737
 20
847.994102118209
 30
0.0
 11
114.1118147140737
 21
843.9941021182089
 31
0.0
 12
102.1118147140737
 22
845.9941021182091
 32
0.0
 13
102.1118147140737
 23
845.9941021182091
 33
0.0
  0
SOLID
  5
2E5
330
247
100
AcDbEntity
  8
0
 62
     1
440
 16777216
100
AcDbTrace
 10
540.1118147132952
 20
847.994102118209
 30
0.0
 11
540.1118147132952
 21
843.9941021182089
 31
0.0
 12
552.1118147132951
 22
845.9941021182091
 32
0.0
 13
552.1118147132951
 23
845.9941021182091
 33
0.0
  0
MTEXT
  5
2E6
330
247
100
AcDbEntity
  8
0
440
 16777216
100
AcDbMText
 10
326.8380390781826
 20
859.994102118209
 30
0.0
 40
14.0
 41
0.0
 46
0.0
 71
     5
 72
     1
  1
450
 73
     1
 44
1.0
  0
POINT
  5
2E7
330
247
100
AcDbEntity
  8
Defpoints
 62
     0
440
 16777216
100
AcDbPoint
 10
102.1118147140737
 20
795.3335679059015
 30
0.0
  0
POINT
  5
2E8
330
247
100
AcDbEntity
  8
Defpoints
 62
     0
440
 16777216
100
AcDbPoint
 10
552.1118147132951
 20
776.1485614140761
 30
0.0
  0
POINT
  5
2E9
330
247
100
AcDbEntity
  8
Defpoints
 62
     0
440
 16777216
100
AcDbPoint
 10
552.1118147132951
 20
845.9941021182091
 30
0.0
  0
ENDBLK
  5
252
330
247
100
AcDbEntity
  8
0
100
AcDbBlockEnd
  0
BLOCK
  5
25D
330
253
100
AcDbEntity
  8
0
100
AcDbBlockBegin
  2
*D18
 70
     1
 10
0.0
 20
0.0
 30
0.0
  3
*D18
  1

  0
LINE
  5
2EA
330
253
100
AcDbEntity
  8
0
 62
     1
440
 16777216
370
    -2
100
AcDbLine
 10
232.4325879201501
 20
619.8335679059161
 30
0.0
 11
66.19540974626634
 21
619.8335679059161
 31
0.0
  0
LINE
  5
2EB
330
253
100
AcDbEntity
  8
0
 62
     1
440
 16777216
370
    -2
100
AcDbLine
 10
102.1118147140737
 20
749.8335679059015
 30
0.0
 11
66.19540974626636
 21
749.8335679059015
 31
0.0
  0
LINE
  5
2EC
330
253
100
AcDbEntity
  8
0
 62
     1
440
 16777216
370
    -2
100
AcDbLine
 10
71.19540974626634
 20
631.8335679059161
 30
0.0
 11
71.19540974626636
 21
737.8335679059015
 31
0.0
  0
SOLID
  5
2ED
330
253
100
AcDbEntity
  8
0
 62
     1
440
 16777216
100
AcDbTrace
 10
69.19540974626634
 20
631.8335679059161
 30
0.0
 11
73.19540974626633
 21
631.8335679059161
 31
0.0
 12
71.19540974626634
 22
619.8335679059161
 32
0.0
 13
71.19540974626634
 23
619.8335679059161
 33
0.0
  0
SOLID
  5
2EE
330
253
100
AcDbEntity
  8
0
 62
     1
440
 16777216
100
AcDbTrace
 10
69.19540974626636
 20
737.8335679059015
 30
0.0
 11
73.19540974626637
 21
737.8335679059015
 31
0.0
 12
71.19540974626636
 22
749.8335679059015
 32
0.0
 13
71.19540974626636
 23
749.8335679059015
 33
0.0
  0
MTEXT
  5
2EF
330
253
100
AcDbEntity
  8
0
440
 16777216
100
AcDbMText
 10
57.19540974626624
 20
683.3646250814123
 30
0.0
 40
14.0
 41
0.0
 46
0.0
 71
     5
 72
     1
  1
130
 11
0.0000000000000001
 21
1.0
 31
0.0
 73
     1
 44
1.0
  0
POINT
  5
2F0
330
253
100
AcDbEntity
  8
Defpoints
 62
     0
440
 16777216
100
AcDbPoint
 10
232.4325879201501
 20
619.8335679059161
 30
0.0
  0
POINT
  5
2F1
330
253
100
AcDbEntity
  8
Defpoints
 62
     0
440
 16777216
100
AcDbPoint
 10
102.1118147140737
 20
749.8335679059015
 30
0.0
  0
POINT
  5
2F2
330
253
100
AcDbEntity
  8
Defpoints
 62
     0
440
 16777216
100
AcDbPoint
 10
71.19540974626636
 20
749.8335679059015
 30
0.0
  0
ENDBLK
  5
25E
330
253
100
AcDbEntity
  8
0
100
AcDbBlockEnd
  0
BLOCK
  5
266
330
25F
100
AcDbEntity
  8
0
100
AcDbBlockBegin
  2
*D19
 70
     1
 10
0.0
 20
0.0
 30
0.0
  3
*D19
  1

  0
LINE
  5
2F3
330
25F
100
AcDbEntity
  8
0
 62
     1
440
 16777216
370
    -2
100
AcDbLine
 10
955.3899163368109
 20
862.1339058474848
 30
0.0
 11
930.568057331807
 21
802.0599904137819
 31
0.0
  0
MTEXT
  5
2F4
330
25F
100
AcDbEntity
  8
0
440
 16777216
100
AcDbMText
 10
931.9798362348009
 20
844.756675066446
 30
0.0
 40
15.0
 41
0.0
 46
0.0
 71
     5
 72
     1
  1
R15
 11
0.3818747539231364
 21
0.9242140835954318
 31
0.0
 73
     1
 44
1.0
  0
LINE
  5
2F5
330
25F
100
AcDbEntity
  8
0
 62
     1
440
 16777216
370
    -2
100
AcDbLine
 10
919.1118147141535
 20
774.3335679060171
 30
0.0
 11
924.8399360229599
 21
788.1967791598504
 31
0.0
  0
SOLID
  5
2F6
330
25F
100
AcDbEntity
  8
0
 62
     1
440
 16777216
100
AcDbTrace
 10
928.2575221228183
 20
803.0146772985897
 30
0.0
 11
932.8785925407956
 21
801.1053035289739
 31
0.0
 12
924.8399360229599
 22
788.1967791598504
 32
0.0
 13
924.8399360229599
 23
788.1967791598504
 33
0.0
  0
POINT
  5
2F7
330
25F
100
AcDbEntity
  8
Defpoints
 62
     0
440
 16777216
100
AcDbPoint
 10
924.8399360229599
 20
788.1967791598504
 30
0.0
  0
POINT
  5
2F8
330
25F
100
AcDbEntity
  8
Defpoints
 62
     0
440
 16777216
100
AcDbPoint
 10
919.1118147141535
 20
774.3335679060171
 30
0.0
  0
ENDBLK
  5
267
330
25F
100
AcDbEntity
  8
0
100
AcDbBlockEnd
  0
BLOCK
  5
26F
330
268
100
AcDbEntity
  8
0
100
AcDbBlockBegin
  2
*D20
 70
     1
 10
0.0
 20
0.0
 30
0.0
  3
*D20
  1

  0
LINE
  5
2F9
330
268
100
AcDbEntity
  8
0
 62
     1
440
 16777216
370
    -2
100
AcDbLine
 10
42.81187471717305
 20
261.1930608866923
 30
0.0
 11
93.18683232364822
 21
302.2705930197919
 31
0.0
  0
MTEXT
  5
2FA
330
268
100
AcDbEntity
  8
0
440
 16777216
100
AcDbMText
 10
52.70742791971743
 20
288.617101923994
 30
0.0
 40
15.0
 41
0.0
 46
0.0
 71
     5
 72
     1
  1
R12
 11
0.7749993477919254
 21
0.6319620328169173
 31
0.0
 73
     1
 44
1.0
  0
LINE
  5
2FB
330
268
100
AcDbEntity
  8
0
 62
     1
440
 16777216
370
    -2
100
AcDbLine
 10
114.1118147140593
 20
319.3335679058724
 30
0.0
 11
104.8118225405271
 21
311.7500235120456
 31
0.0
  0
SOLID
  5
2FC
330
268
100
AcDbEntity
  8
0
 62
     1
440
 16777216
100
AcDbTrace
 10
91.60692724160591
 20
304.2080913892716
 30
0.0
 11
94.76673740569051
 21
300.3330946503121
 31
0.0
 12
104.8118225405271
 22
311.7500235120456
 32
0.0
 13
104.8118225405271
 23
311.7500235120456
 33
0.0
  0
POINT
  5
2FD
330
268
100
AcDbEntity
  8
Defpoints
 62
     0
440
 16777216
100
AcDbPoint
 10
104.8118225405271
 20
311.7500235120456
 30
0.0
  0
POINT
  5
2FE
330
268
100
AcDbEntity
  8
Defpoints
 62
     0
440
 16777216
100
AcDbPoint
 10
114.1118147140593
 20
319.3335679058724
 30
0.0
  0
ENDBLK
  5
270
330
268
100
AcDbEntity
  8
0
100
AcDbBlockEnd
  0
BLOCK
  5
27B
330
271
100
AcDbEntity
  8
0
100
AcDbBlockBegin
  2
*D21
 70
     1
 10
0.0
 20
0.0
 30
0.0
  3
*D21
  1

  0
LINE
  5
2FF
330
271
100
AcDbEntity
  8
0
 62
     1
440
 16777216
370
    -2
100
AcDbLine
 10
144.6118147141101
 20
374.8335679059161
 30
0.0
 11
144.6118147141101
 21
265.9785727290506
 31
0.0
  0
LINE
  5
300
330
271
100
AcDbEntity
  8
0
 62
     1
440
 16777216
370
    -2
100
AcDbLine
 10
494.6118147140482
 20
374.8335679059306
 30
0.0
 11
494.6118147140482
 21
265.9785727290506
 31
0.0
  0
LINE
  5
301
330
271
100
AcDbEntity
  8
0
 62
     1
440
 16777216
370
    -2
100
AcDbLine
 10
159.6118147141101
 20
273.4785727290506
 30
0.0
 11
479.6118147140482
 21
273.4785727290506
 31
0.0
  0
SOLID
  5
302
330
271
100
AcDbEntity
  8
0
 62
     1
440
 16777216
100
AcDbTrace
 10
159.6118147141101
 20
275.9785727290506
 30
0.0
 11
159.6118147141101
 21
270.9785727290506
 31
0.0
 12
144.6118147141101
 22
273.4785727290506
 32
0.0
 13
144.6118147141101
 23
273.4785727290506
 33
0.0
  0
SOLID
  5
303
330
271
100
AcDbEntity
  8
0
 62
     1
440
 16777216
100
AcDbTrace
 10
479.6118147140482
 20
275.9785727290506
 30
0.0
 11
479.6118147140482
 21
270.9785727290506
 31
0.0
 12
494.6118147140482
 22
273.4785727290506
 32
0.0
 13
494.6118147140482
 23
273.4785727290506
 33
0.0
  0
MTEXT
  5
304
330
271
100
AcDbEntity
  8
0
440
 16777216
100
AcDbMText
 10
317.5889959886486
 20
288.4785727290506
 30
0.0
 40
15.0
 41
0.0
 46
0.0
 71
     5
 72
     1
  1
350
 73
     1
 44
1.0
  0
POINT
  5
305
330
271
100
AcDbEntity
  8
Defpoints
 62
     0
440
 16777216
100
AcDbPoint
 10
144.6118147141101
 20
374.8335679059161
 30
0.0
  0
POINT
  5
306
330
271
100
AcDbEntity
  8
Defpoints
 62
     0
440
 16777216
100
AcDbPoint
 10
494.6118147140482
 20
374.8335679059306
 30
0.0
  0
POINT
  5
307
330
271
100
AcDbEntity
  8
Defpoints
 62
     0
440
 16777216
100
AcDbPoint
 10
494.6118147140482
 20
273.4785727290506
 30
0.0
  0
ENDBLK
  5
27C
330
271
100
AcDbEntity
  8
0
100
AcDbBlockEnd
  0
BLOCK
  5
287
330
27D
100
AcDbEntity
  8
0
100
AcDbBlockBegin
  2
*D22
 70
     1
 10
0.0
 20
0.0
 30
0.0
  3
*D22
  1

  0
LINE
  5
308
330
27D
100
AcDbEntity
  8
0
 62
     1
440
 16777216
370
    -2
100
AcDbLine
 10
120.1118147140846
 20
340.3335679058288
 30
0.0
 11
120.1118147140846
 21
222.4659670083125
 31
0.0
  0
LINE
  5
309
330
27D
100
AcDbEntity
  8
0
 62
     1
440
 16777216
370
    -2
100
AcDbLine
 10
934.1118147140701
 20
345.0097901855257
 30
0.0
 11
934.1118147140701
 21
222.4659670083125
 31
0.0
  0
LINE
  5
30A
330
27D
100
AcDbEntity
  8
0
 62
     1
440
 16777216
370
    -2
100
AcDbLine
 10
135.1118147140846
 20
229.9659670083125
 30
0.0
 11
919.11181471407
 21
229.9659670083125
 31
0.0
  0
SOLID
  5
30B
330
27D
100
AcDbEntity
  8
0
 62
     1
440
 16777216
100
AcDbTrace
 10
135.1118147140846
 20
232.4659670083125
 30
0.0
 11
135.1118147140846
 21
227.4659670083125
 31
0.0
 12
120.1118147140846
 22
229.9659670083125
 32
0.0
 13
120.1118147140846
 23
229.9659670083125
 33
0.0
  0
SOLID
  5
30C
330
27D
100
AcDbEntity
  8
0
 62
     1
440
 16777216
100
AcDbTrace
 10
919.11181471407
 20
232.4659670083125
 30
0.0
 11
919.11181471407
 21
227.4659670083125
 31
0.0
 12
934.1118147140701
 22
229.9659670083125
 32
0.0
 13
934.1118147140701
 23
229.9659670083125
 33
0.0
  0
MTEXT
  5
30D
330
27D
100
AcDbEntity
  8
0
440
 16777216
100
AcDbMText
 10
528.5377447716168
 20
244.9659670083125
 30
0.0
 40
15.0
 41
0.0
 46
0.0
 71
     5
 72
     1
  1
814
 73
     1
 44
1.0
  0
POINT
  5
30E
330
27D
100
AcDbEntity
  8
Defpoints
 62
     0
440
 16777216
100
AcDbPoint
 10
120.1118147140846
 20
340.3335679058288
 30
0.0
  0
POINT
  5
30F
330
27D
100
AcDbEntity
  8
Defpoints
 62
     0
440
 16777216
100
AcDbPoint
 10
934.1118147140701
 20
345.0097901855257
 30
0.0
  0
POINT
  5
310
330
27D
100
AcDbEntity
  8
Defpoints
 62
     0
440
 16777216
100
AcDbPoint
 10
934.1118147140701
 20
229.9659670083125
 30
0.0
  0
ENDBLK
  5
288
330
27D
100
AcDbEntity
  8
0
100
AcDbBlockEnd
  0
BLOCK
  5
293
330
289
100
AcDbEntity
  8
0
100
AcDbBlockBegin
  2
*D23
 70
     1
 10
0.0
 20
0.0
 30
0.0
  3
*D23
  1

  0
LINE
  5
311
330
289
100
AcDbEntity
  8
0
 62
     1
440
 16777216
370
    -2
100
AcDbLine
 10
102.1118147140809
 20
324.333567905887
 30
0.0
 11
102.1118147140809
 21
184.863047213577
 31
0.0
  0
LINE
  5
312
330
289
100
AcDbEntity
  8
0
 62
     1
440
 16777216
370
    -2
100
AcDbLine
 10
952.1118147140846
 20
319.333567905887
 30
0.0
 11
952.1118147140846
 21
184.863047213577
 31
0.0
  0
LINE
  5
313
330
289
100
AcDbEntity
  8
0
 62
     1
440
 16777216
370
    -2
100
AcDbLine
 10
117.1118147140809
 20
192.363047213577
 30
0.0
 11
937.1118147140846
 21
192.363047213577
 31
0.0
  0
SOLID
  5
314
330
289
100
AcDbEntity
  8
0
 62
     1
440
 16777216
100
AcDbTrace
 10
117.1118147140809
 20
194.863047213577
 30
0.0
 11
117.1118147140809
 21
189.863047213577
 31
0.0
 12
102.1118147140809
 22
192.363047213577
 32
0.0
 13
102.1118147140809
 23
192.363047213577
 33
0.0
  0
SOLID
  5
315
330
289
100
AcDbEntity
  8
0
 62
     1
440
 16777216
100
AcDbTrace
 10
937.1118147140846
 20
194.863047213577
 30
0.0
 11
937.1118147140846
 21
189.863047213577
 31
0.0
 12
952.1118147140846
 22
192.363047213577
 32
0.0
 13
952.1118147140846
 23
192.363047213577
 33
0.0
  0
MTEXT
  5
316
330
289
100
AcDbEntity
  8
0
440
 16777216
100
AcDbMText
 10
527.0904973593574
 20
207.3630472135771
 30
0.0
 40
15.0
 41
0.0
 46
0.0
 71
     5
 72
     1
  1
850
 73
     1
 44
1.0
  0
POINT
  5
317
330
289
100
AcDbEntity
  8
Defpoints
 62
     0
440
 16777216
100
AcDbPoint
 10
102.1118147140809
 20
324.333567905887
 30
0.0
  0
POINT
  5
318
330
289
100
AcDbEntity
  8
Defpoints
 62
     0
440
 16777216
100
AcDbPoint
 10
952.1118147140846
 20
319.333567905887
 30
0.0
  0
POINT
  5
319
330
289
100
AcDbEntity
  8
Defpoints
 62
     0
440
 16777216
100
AcDbPoint
 10
952.1118147140846
 20
192.363047213577
 30
0.0
  0
ENDBLK
  5
294
330
289
100
AcDbEntity
  8
0
100
AcDbBlockEnd
  0
BLOCK
  5
29F
330
295
100
AcDbEntity
  8
0
100
AcDbBlockBegin
  2
*D24
 70
     1
 10
0.0
 20
0.0
 30
0.0
  3
*D24
  1

  0
LINE
  5
31A
330
295
100
AcDbEntity
  8
0
 62
     1
440
 16777216
370
    -2
100
AcDbLine
 10
919.1118147140954
 20
325.3335679058288
 30
0.0
 11
1000.197394798292
 21
325.3335679058288
 31
0.0
  0
LINE
  5
31B
330
295
100
AcDbEntity
  8
0
 62
     1
440
 16777216
370
    -2
100
AcDbLine
 10
919.1118147140954
 20
789.3335679059743
 30
0.0
 11
1000.197394798292
 21
789.3335679059743
 31
0.0
  0
LINE
  5
31C
330
295
100
AcDbEntity
  8
0
 62
     1
440
 16777216
370
    -2
100
AcDbLine
 10
992.697394798292
 20
340.3335679058288
 30
0.0
 11
992.6973947982922
 21
774.3335679059742
 31
0.0
  0
SOLID
  5
31D
330
295
100
AcDbEntity
  8
0
 62
     1
440
 16777216
100
AcDbTrace
 10
990.197394798292
 20
340.3335679058288
 30
0.0
 11
995.1973947982921
 21
340.3335679058288
 31
0.0
 12
992.697394798292
 22
325.3335679058288
 32
0.0
 13
992.697394798292
 23
325.3335679058288
 33
0.0
  0
SOLID
  5
31E
330
295
100
AcDbEntity
  8
0
 62
     1
440
 16777216
100
AcDbTrace
 10
990.1973947982922
 20
774.3335679059742
 30
0.0
 11
995.1973947982921
 21
774.3335679059742
 31
0.0
 12
992.6973947982922
 22
789.3335679059743
 32
0.0
 13
992.6973947982922
 23
789.3335679059743
 33
0.0
  0
MTEXT
  5
31F
330
295
100
AcDbEntity
  8
0
440
 16777216
100
AcDbMText
 10
977.697394798292
 20
555.8298588832473
 30
0.0
 40
15.0
 41
0.0
 46
0.0
 71
     5
 72
     1
  1
464
 11
0.0000000000000001
 21
1.0
 31
0.0
 73
     1
 44
1.0
  0
POINT
  5
320
330
295
100
AcDbEntity
  8
Defpoints
 62
     0
440
 16777216
100
AcDbPoint
 10
919.1118147140954
 20
325.3335679058288
 30
0.0
  0
POINT
  5
321
330
295
100
AcDbEntity
  8
Defpoints
 62
     0
440
 16777216
100
AcDbPoint
 10
919.1118147140954
 20
789.3335679059743
 30
0.0
  0
POINT
  5
322
330
295
100
AcDbEntity
  8
Defpoints
 62
     0
440
 16777216
100
AcDbPoint
 10
992.6973947982922
 20
789.3335679059743
 30
0.0
  0
ENDBLK
  5
2A0
330
295
100
AcDbEntity
  8
0
100
AcDbBlockEnd
  0
BLOCK
  5
2AB
330
2A1
100
AcDbEntity
  8
0
100
AcDbBlockBegin
  2
*D25
 70
     1
 10
0.0
 20
0.0
 30
0.0
  3
*D25
  1

  0
LINE
  5
323
330
2A1
100
AcDbEntity
  8
0
 62
     1
440
 16777216
370
    -2
100
AcDbLine
 10
940.111814714081
 20
807.3335679059015
 30
0.0
 11
1035.512670838347
 21
807.3335679059015
 31
0.0
  0
LINE
  5
324
330
2A1
100
AcDbEntity
  8
0
 62
     1
440
 16777216
370
    -2
100
AcDbLine
 10
940.111814714081
 20
307.3335679059161
 30
0.0
 11
1035.512670838347
 21
307.3335679059161
 31
0.0
  0
LINE
  5
325
330
2A1
100
AcDbEntity
  8
0
 62
     1
440
 16777216
370
    -2
100
AcDbLine
 10
1028.012670838347
 20
792.3335679059015
 30
0.0
 11
1028.012670838347
 21
322.3335679059161
 31
0.0
  0
SOLID
  5
326
330
2A1
100
AcDbEntity
  8
0
 62
     1
440
 16777216
100
AcDbTrace
 10
1025.512670838347
 20
792.3335679059015
 30
0.0
 11
1030.512670838347
 21
792.3335679059015
 31
0.0
 12
1028.012670838347
 22
807.3335679059015
 32
0.0
 13
1028.012670838347
 23
807.3335679059015
 33
0.0
  0
SOLID
  5
327
330
2A1
100
AcDbEntity
  8
0
 62
     1
440
 16777216
100
AcDbTrace
 10
1025.512670838347
 20
322.3335679059161
 30
0.0
 11
1030.512670838347
 21
322.3335679059161
 31
0.0
 12
1028.012670838347
 22
307.3335679059161
 32
0.0
 13
1028.012670838347
 23
307.3335679059161
 33
0.0
  0
MTEXT
  5
328
330
2A1
100
AcDbEntity
  8
0
440
 16777216
100
AcDbMText
 10
1013.012670838347
 20
554.6913778739614
 30
0.0
 40
15.0
 41
0.0
 46
0.0
 71
     5
 72
     1
  1
500
 11
0.0000000000000001
 21
1.0
 31
0.0
 73
     1
 44
1.0
  0
POINT
  5
329
330
2A1
100
AcDbEntity
  8
Defpoints
 62
     0
440
 16777216
100
AcDbPoint
 10
940.111814714081
 20
807.3335679059015
 30
0.0
  0
POINT
  5
32A
330
2A1
100
AcDbEntity
  8
Defpoints
 62
     0
440
 16777216
100
AcDbPoint
 10
940.111814714081
 20
307.3335679059161
 30
0.0
  0
POINT
  5
32B
330
2A1
100
AcDbEntity
  8
Defpoints
 62
     0
440
 16777216
100
AcDbPoint
 10
1028.012670838347
 20
307.3335679059161
 30
0.0
  0
ENDBLK
  5
2AC
330
2A1
100
AcDbEntity
  8
0
100
AcDbBlockEnd
  0
BLOCK
  5
2B3
330
2AD
100
AcDbEntity
  8
0
100
AcDbBlockBegin
  2
*D26
 70
     1
 10
0.0
 20
0.0
 30
0.0
  3
*D26
  1

  0
LINE
  5
32C
330
2AD
100
AcDbEntity
  8
0
 62
     1
440
 16777216
370
    -2
100
AcDbLine
 10
245.8340761624626
 20
384.77706794146
 30
0.0
 11
159.6958350627868
 21
373.5399885482546
 31
0.0
  0
MTEXT
  5
32D
330
2AD
100
AcDbEntity
  8
0
440
 16777216
100
AcDbMText
 10
216.624763084685
 20
396.0936941844871
 30
0.0
 40
15.0
 41
0.0
 46
0.0
 71
     5
 72
     1
  1
R25
 11
0.9915979651304873
 21
0.1293579357792815
 31
0.0
 73
     1
 44
1.0
  0
SOLID
  5
32E
330
2AD
100
AcDbEntity
  8
0
 62
     1
440
 16777216
100
AcDbTrace
 10
159.3724402233386
 20
376.0189834610809
 30
0.0
 11
160.019229902235
 21
371.0609936354285
 31
0.0
 12
144.8218655858295
 22
371.5996195115654
 32
0.0
 13
144.8218655858295
 23
371.5996195115654
 33
0.0
  0
POINT
  5
32F
330
2AD
100
AcDbEntity
  8
Defpoints
 62
     0
440
 16777216
100
AcDbPoint
 10
144.8218655858295
 20
371.5996195115654
 30
0.0
  0
POINT
  5
330
330
2AD
100
AcDbEntity
  8
Defpoints
 62
     0
440
 16777216
100
AcDbPoint
 10
169.6118147140881
 20
374.833567906047
 30
0.0
  0
ENDBLK
  5
2B4
330
2AD
100
AcDbEntity
  8
0
100
AcDbBlockEnd
  0
BLOCK
  5
2BF
330
2B5
100
AcDbEntity
  8
0
100
AcDbBlockBegin
  2
*D27
 70
     1
 10
0.0
 20
0.0
 30
0.0
  3
*D27
  1

  0
LINE
  5
331
330
2B5
100
AcDbEntity
  8
0
 62
     1
440
 16777216
370
    -2
100
AcDbLine
 10
164.6118147141101
 20
749.8335679059015
 30
0.0
 11
24.00171090858259
 21
749.8335679059015
 31
0.0
  0
LINE
  5
332
330
2B5
100
AcDbEntity
  8
0
 62
     1
440
 16777216
370
    -2
100
AcDbLine
 10
164.6118147141101
 20
349.8335679059015
 30
0.0
 11
24.0017109085825
 21
349.8335679059016
 31
0.0
  0
LINE
  5
333
330
2B5
100
AcDbEntity
  8
0
 62
     1
440
 16777216
370
    -2
100
AcDbLine
 10
31.5017109085826
 20
734.8335679059015
 30
0.0
 11
31.50171090858252
 21
364.8335679059016
 31
0.0
  0
SOLID
  5
334
330
2B5
100
AcDbEntity
  8
0
 62
     1
440
 16777216
100
AcDbTrace
 10
29.0017109085826
 20
734.8335679059015
 30
0.0
 11
34.0017109085826
 21
734.8335679059015
 31
0.0
 12
31.5017109085826
 22
749.8335679059015
 32
0.0
 13
31.5017109085826
 23
749.8335679059015
 33
0.0
  0
SOLID
  5
335
330
2B5
100
AcDbEntity
  8
0
 62
     1
440
 16777216
100
AcDbTrace
 10
29.00171090858252
 20
364.8335679059016
 30
0.0
 11
34.00171090858252
 21
364.8335679059016
 31
0.0
 12
31.50171090858251
 22
349.8335679059016
 32
0.0
 13
31.50171090858251
 23
349.8335679059016
 33
0.0
  0
MTEXT
  5
336
330
2B5
100
AcDbEntity
  8
0
440
 16777216
100
AcDbMText
 10
16.50171090858246
 20
550.6676993409561
 30
0.0
 40
15.0
 41
0.0
 46
0.0
 71
     5
 72
     1
  1
400
 11
0.0000000000000001
 21
1.0
 31
0.0
 73
     1
 44
1.0
  0
POINT
  5
337
330
2B5
100
AcDbEntity
  8
Defpoints
 62
     0
440
 16777216
100
AcDbPoint
 10
164.6118147141101
 20
749.8335679059015
 30
0.0
  0
POINT
  5
338
330
2B5
100
AcDbEntity
  8
Defpoints
 62
     0
440
 16777216
100
AcDbPoint
 10
164.6118147141101
 20
349.8335679059015
 30
0.0
  0
POINT
  5
339
330
2B5
100
AcDbEntity
  8
Defpoints
 62
     0
440
 16777216
100
AcDbPoint
 10
31.50171090858251
 20
349.8335679059016
 30
0.0
  0
ENDBLK
  5
2C0
330
2B5
100
AcDbEntity
  8
0
100
AcDbBlockEnd
  0
BLOCK
  5
2CA
330
2C1
100
AcDbEntity
  8
0
100
AcDbBlockBegin
  2
*D28
 70
     1
 10
0.0
 20
0.0
 30
0.0
  3
*D28
  1

  0
LINE
  5
33A
330
2C1
100
AcDbEntity
  8
0
 62
     1
440
 16777216
370
    -2
100
AcDbLine
 10
234.278843481359
 20
730.7743730249288
 30
0.0
 11
283.0308145467512
 21
667.3922729641859
 31
0.0
  0
LINE
  5
33B
330
2C1
100
AcDbEntity
  8
0
 62
     1
440
 16777216
370
    -2
100
AcDbLine
 10
356.1928148803044
 20
572.2748628482864
 30
0.0
 11
365.3380649220104
 21
560.3851865837837
 31
0.0
  0
MTEXT
  5
33C
330
2C1
100
AcDbEntity
  8
0
440
 16777216
100
AcDbMText
 10
261.47154310864
 20
719.2041704778482
 30
0.0
 40
15.0
 41
0.0
 46
0.0
 71
     5
 72
     1
  1
∅90
 11
0.6096833361137258
 21
-0.7926450843001789
 31
0.0
 73
     1
 44
1.0
  0
LINE
  5
33D
330
2C1
100
AcDbEntity
  8
0
 62
     1
440
 16777216
370
    -2
100
AcDbLine
 10
347.0475648385985
 20
584.164539112789
 30
0.0
 11
292.1760645884571
 21
655.5025966996831
 31
0.0
  0
SOLID
  5
33E
330
2C1
100
AcDbEntity
  8
0
 62
     1
440
 16777216
100
AcDbTrace
 10
358.174427591055
 20
573.7990711885706
 30
0.0
 11
354.211202169554
 21
570.750654508002
 31
0.0
 12
347.0475648385985
 22
584.164539112789
 32
0.0
 13
347.0475648385985
 23
584.164539112789
 33
0.0
  0
SOLID
  5
33F
330
2C1
100
AcDbEntity
  8
0
 62
     1
440
 16777216
100
AcDbTrace
 10
285.0124272575016
 20
668.9164813044701
 30
0.0
 11
281.0492018360008
 21
665.8680646239015
 31
0.0
 12
292.1760645884571
 22
655.5025966996831
 32
0.0
 13
292.1760645884571
 23
655.5025966996831
 33
0.0
  0
POINT
  5
340
330
2C1
100
AcDbEntity
  8
Defpoints
 62
     0
440
 16777216
100
AcDbPoint
 10
292.1760645884571
 20
655.5025966996831
 30
0.0
  0
POINT
  5
341
330
2C1
100
AcDbEntity
  8
Defpoints
 62
     0
440
 16777216
100
AcDbPoint
 10
347.0475648385985
 20
584.164539112789
 30
0.0
  0
ENDBLK
  5
2CB
330
2C1
100
AcDbEntity
  8
0
100
AcDbBlockEnd
  0
BLOCK
  5
2D7
330
2CC
100
AcDbEntity
  8
0
100
AcDbBlockBegin
  2
*D29
 70
     1
 10
0.0
 20
0.0
 30
0.0
  3
*D29
  1

  0
LINE
  5
342
330
2CC
100
AcDbEntity
  8
0
 62
     1
440
 16777216
370
    -2
100
AcDbLine
 10
579.099805910308
 20
752.3335679058288
 30
0.0
 11
646.1812770429101
 21
752.3335679058288
 31
0.0
  0
LINE
  5
343
330
2CC
100
AcDbEntity
  8
0
 62
     1
440
 16777216
370
    -2
100
AcDbLine
 10
614.5399200605611
 20
807.3335679059015
 30
0.0
 11
646.1812770429103
 21
807.3335679059015
 31
0.0
  0
LINE
  5
344
330
2CC
100
AcDbEntity
  8
0
 62
     1
440
 16777216
370
    -2
100
AcDbLine
 10
641.1812770429102
 20
764.3335679058288
 30
0.0
 11
641.1812770429103
 21
795.3335679059015
 31
0.0
  0
LINE
  5
345
330
2CC
100
AcDbEntity
  8
0
 62
     1
440
 16777216
370
    -2
100
AcDbLine
 10
641.1812770429103
 20
807.3335679059015
 30
0.0
 11
641.1812770429103
 21
856.6669012392397
 31
0.0
  0
SOLID
  5
346
330
2CC
100
AcDbEntity
  8
0
 62
     1
440
 16777216
100
AcDbTrace
 10
639.1812770429102
 20
764.3335679058288
 30
0.0
 11
643.1812770429102
 21
764.3335679058288
 31
0.0
 12
641.1812770429102
 22
752.3335679058288
 32
0.0
 13
641.1812770429102
 23
752.3335679058288
 33
0.0
  0
SOLID
  5
347
330
2CC
100
AcDbEntity
  8
0
 62
     1
440
 16777216
100
AcDbTrace
 10
639.1812770429103
 20
795.3335679059015
 30
0.0
 11
643.1812770429103
 21
795.3335679059015
 31
0.0
 12
641.1812770429103
 22
807.3335679059015
 32
0.0
 13
641.1812770429103
 23
807.3335679059015
 33
0.0
  0
MTEXT
  5
348
330
2CC
100
AcDbEntity
  8
0
440
 16777216
100
AcDbMText
 10
627.18127704291
 20
838.0002345725729
 30
0.0
 40
14.0
 41
0.0
 46
0.0
 71
     5
 72
     1
  1
55
 11
0.0000000000000001
 21
1.0
 31
0.0
 73
     1
 44
1.0
  0
POINT
  5
349
330
2CC
100
AcDbEntity
  8
Defpoints
 62
     0
440
 16777216
100
AcDbPoint
 10
579.099805910308
 20
752.3335679058288
 30
0.0
  0
POINT
  5
34A
330
2CC
100
AcDbEntity
  8
Defpoints
 62
     0
440
 16777216
100
AcDbPoint
 10
614.5399200605611
 20
807.3335679059015
 30
0.0
  0
POINT
  5
34B
330
2CC
100
AcDbEntity
  8
Defpoints
 62
     0
440
 16777216
100
AcDbPoint
 10
641.1812770429103
 20
807.3335679059015
 30
0.0
  0
ENDBLK
  5
2D8
330
2CC
100
AcDbEntity
  8
0
100
AcDbBlockEnd
  0
ENDSEC
  0
SECTION
  2
ENTITIES
  0
ARC
  5
1BC
330
1F
100
AcDbEntity
  8
0
 48
1.199999999999999
100
AcDbCircle
 10
529.968224714154
 20
730.1889579059567
 30
0.0
 40
14.6077
100
AcDbArc
 50
180.0
 51
270.0
  0
ARC
  5
1BD
330
1F
100
AcDbEntity
  8
0
 48
1.199999999999999
100
AcDbCircle
 10
529.968224714154
 20
730.1889579059567
 30
0.0
 40
13.0
100
AcDbArc
 50
180.0
 51
270.0
  0
DIMENSION
  5
1BE
330
1F
100
AcDbEntity
  8
0
 48
1.199999999999999
100
AcDbDimension
280
     0
  2
*D16
 10
543.071296546143
 20
737.3496087743184
 30
0.0
 11
600.4600951918222
 21
832.467100663579
 31
0.0
 70
   163
 71
     5
 42
35.00000000002524
 73
     0
 74
     0
 75
     0
  3
ISO-25
100
AcDbDiametricDimension
 15
561.1523328820407
 25
767.3175270373828
 35
0.0
 40
0.0
1001
ACAD
1000
DSTYLE
1002
{
1070
    41
1040
12.0
1070
    42
1040
0.0
1070
    44
1040
5.0
1070
    78
1070
    12
1070
    79
1070
     3
1070
   140
1040
14.0
1070
   147
1040
7.0
1070
   178
1070
   256
1070
   179
1070
     5
1070
   271
1070
     4
1070
   272
1070
     4
1070
   288
1070
     1
1002
}
  0
DIMENSION
  5
1BF
330
1F
100
AcDbEntity
  8
0
 48
1.199999999999999
100
AcDbDimension
280
     0
  2
*D17
 10
552.1118147132951
 20
845.9941021182091
 30
0.0
 11
326.8380390781826
 21
845.9941021182091
 31
0.0
 70
   160
 71
     5
 42
449.9999999992215
 73
     0
 74
     0
 75
     0
  3
ISO-25
100
AcDbAlignedDimension
 13
102.1118147140737
 23
795.3335679059015
 33
0.0
 14
552.1118147132951
 24
776.1485614140761
 34
0.0
100
AcDbRotatedDimension
1001
ACAD
1000
DSTYLE
1002
{
1070
    41
1040
12.0
1070
    42
1040
0.0
1070
    44
1040
5.0
1070
    78
1070
    12
1070
    79
1070
     3
1070
   140
1040
14.0
1070
   147
1040
7.0
1070
   178
1070
   256
1070
   179
1070
     5
1070
   271
1070
     4
1070
   272
1070
     4
1070
   288
1070
     1
1002
}
  0
LWPOLYLINE
  5
1C0
330
1F
100
AcDbEntity
  8
0
  6
CENTER2
 62
     6
 48
2.1
100
AcDbPolyline
 90
        2
 70
     0
 43
0.0
 10
552.1118147130041
 20
727.02932377137
 10
552.1118147132951
 20
776.1485614140761
  0
LWPOLYLINE
  5
1C1
330
1F
100
AcDbEntity
  8
0
  6
CENTER2
 62
     6
 48
2.1
100
AcDbPolyline
 90
        2
 70
     0
 43
0.0
 10
579.099805910308
 20
752.3335679058288
 10
524.6929844511837
 20
752.3335679060179
  0
ARC
  5
1C2
330
1F
100
AcDbEntity
  8
0
 48
1.199999999999999
100
AcDbCircle
 10
917.3605347140988
 20
702.5812579058616
 30
0.0
 40
13.0
100
AcDbArc
 50
0.0
 51
90.0
  0
ARC
  5
1C3
330
1F
100
AcDbEntity
  8
0
 48
1.199999999999999
100
AcDbCircle
 10
917.3605347140988
 20
702.5812579058616
 30
0.0
 40
14.6077
100
AcDbArc
 50
0.0670419655477291
 51
90.0
  0
LINE
  5
1C4
330
1F
100
AcDbEntity
  8
0
 48
1.199999999999999
100
AcDbLine
 10
917.3605347141023
 20
715.581257905818
 30
0.0
 11
529.9682247141504
 21
715.5812579059634
 31
0.0
  0
DIMENSION
  5
1C5
330
1F
100
AcDbEntity
  8
0
 48
1.199999999999999
100
AcDbDimension
280
     0
  2
*D18
 10
71.19540974626636
 20
749.8335679059015
 30
0.0
 11
71.19540974626623
 21
683.3646250814123
 31
0.0
 70
   160
 71
     5
 42
129.9999999999854
 73
     0
 74
     0
 75
     0
  3
ISO-25
100
AcDbAlignedDimension
 13
232.4325879201501
 23
619.8335679059161
 33
0.0
 14
102.1118147140737
 24
749.8335679059015
 34
0.0
 50
90.0
100
AcDbRotatedDimension
1001
ACAD
1000
DSTYLE
1002
{
1070
    41
1040
12.0
1070
    42
1040
0.0
1070
    44
1040
5.0
1070
    78
1070
    12
1070
    79
1070
     3
1070
   140
1040
14.0
1070
   147
1040
7.0
1070
   178
1070
   256
1070
   179
1070
     5
1070
   271
1070
     4
1070
   272
1070
     4
1070
   288
1070
     1
1002
}
  0
ARC
  5
1C6
330
1F
100
AcDbEntity
  8
0
 48
1.199999999999999
100
AcDbCircle
 10
138.4707947140709
 20
755.9735679058864
 30
0.0
 40
16.21539
100
AcDbArc
 50
90.0
 51
180.0
  0
ARC
  5
1C7
330
1F
100
AcDbEntity
  8
0
 48
1.199999999999999
100
AcDbCircle
 10
138.4707947140709
 20
755.9735679058864
 30
0.0
 40
13.0
100
AcDbArc
 50
90.0
 51
180.0
  0
ARC
  5
1C8
330
1F
100
AcDbEntity
  8
0
 48
1.199999999999999
100
AcDbCircle
 10
905.7528347140911
 20
656.5812579059053
 30
0.0
 40
2.196150000003399
100
AcDbArc
 50
270.0
 51
0.0
  0
ARC
  5
1C9
330
1F
100
AcDbEntity
  8
0
 48
1.199999999999999
100
AcDbCircle
 10
905.7528347140911
 20
656.5812579059053
 30
0.0
 40
3.0
100
AcDbArc
 50
270.0
 51
0.0
  0
ARC
  5
1CA
330
1F
100
AcDbEntity
  8
0
 48
1.199999999999999
100
AcDbCircle
 10
905.7528347140911
 20
662.5812579059052
 30
0.0
 40
2.196150000003399
100
AcDbArc
 50
0.0
 51
90.0
  0
ARC
  5
1CB
330
1F
100
AcDbEntity
  8
0
 48
1.199999999999999
100
AcDbCircle
 10
905.7528347140911
 20
662.5812579059052
 30
0.0
 40
3.0
100
AcDbArc
 50
0.0
 51
90.0
  0
DIMENSION
  5
1CC
330
1F
100
AcDbEntity
  8
0
 48
1.199999999999999
100
AcDbDimension
280
     0
  2
*D19
 10
919.1118147141535
 20
774.3335679060171
 30
0.0
 11
931.9798362348009
 21
844.756675066446
 31
0.0
 70
    36
 71
     5
 42
14.99999999989359
 73
     0
 74
     0
 75
     0
  3
ISO-25
100
AcDbRadialDimension
 15
924.8399360229599
 25
788.1967791598504
 35
0.0
 40
0.0
1001
ACAD
1000
DSTYLE
1002
{
1070
    41
1040
15.0
1070
    42
1040
0.0
1070
    44
1040
7.5
1070
    78
1070
    12
1070
    79
1070
     3
1070
   140
1040
15.0
1070
   147
1040
7.5
1070
   178
1070
   256
1070
   179
1070
     5
1070
   271
1070
     5
1070
   272
1070
     5
1070
   288
1070
     1
1002
}
  0
DIMENSION
  5
1CD
330
1F
100
AcDbEntity
  8
0
 48
1.199999999999999
100
AcDbDimension
280
     0
  2
*D20
 10
114.1118147140593
 20
319.3335679058724
 30
0.0
 11
52.70742791971743
 21
288.617101923994
 31
0.0
 70
    36
 71
     5
 42
12.00000000003768
 73
     0
 74
     0
 75
     0
  3
ISO-25
100
AcDbRadialDimension
 15
104.8118225405271
 25
311.7500235120456
 35
0.0
 40
0.0
1001
ACAD
1000
DSTYLE
1002
{
1070
    41
1040
15.0
1070
    42
1040
0.0
1070
    44
1040
7.5
1070
    78
1070
    12
1070
    79
1070
     3
1070
   140
1040
15.0
1070
   147
1040
7.5
1070
   178
1070
   256
1070
   179
1070
     5
1070
   271
1070
     5
1070
   272
1070
     5
1070
   288
1070
     1
1002
}
  0
LWPOLYLINE
  5
1CE
330
1F
100
AcDbEntity
  8
0
 48
1.199999999999999
100
AcDbPolyline
 90
        2
 70
     0
 43
0.0
 10
272.7107872641432
 20
652.664287120882
 10
169.6118147141101
 20
724.8335679059015
  0
LWPOLYLINE
  5
1CF
330
1F
100
AcDbEntity
  8
0
 48
1.199999999999999
100
AcDbPolyline
 90
        2
 70
     0
 43
0.0
 10
289.718506249716
 20
571.0078307474101
 10
169.6118147141101
 20
374.8335679059015
  0
LWPOLYLINE
  5
1D0
330
1F
100
AcDbEntity
  8
0
 48
1.199999999999999
100
AcDbPolyline
 90
        2
 70
     0
 43
0.0
 10
469.6118147140518
 20
374.8335679059015
 10
349.5051231783004
 20
571.0078307477157
  0
LWPOLYLINE
  5
1D1
330
1F
100
AcDbEntity
  8
0
 48
1.199999999999999
100
AcDbPolyline
 90
        2
 70
     0
 43
0.0
 10
469.6118147141101
 20
724.8335679059015
 10
366.5128421636114
 20
652.6642871205618
  0
LINE
  5
1D2
330
1F
100
AcDbEntity
  8
0
 48
1.199999999999999
100
AcDbLine
 10
500.7528347140728
 20
330.6925479058624
 30
0.0
 11
135.1118147140591
 21
330.6925479058915
 31
0.0
  0
LWPOLYLINE
  5
1D3
330
1F
100
AcDbEntity
  8
0
 48
1.199999999999999
100
AcDbPolyline
 90
        2
 70
     0
 43
0.0
 10
500.7528347140728
 20
329.0848479058255
 10
919.1118147140954
 20
329.0848479058255
  0
LINE
  5
1D4
330
1F
100
AcDbEntity
  8
0
 48
1.199999999999999
100
AcDbLine
 10
515.3605247141281
 20
613.5812579059198
 30
0.0
 11
515.3605247141281
 21
650.5812579059344
 31
0.0
  0
LINE
  5
1D5
330
1F
100
AcDbEntity
  8
0
 48
1.199999999999999
100
AcDbLine
 10
515.3605247141208
 20
558.5812579059198
 30
0.0
 11
515.3605247141281
 21
595.5812579059198
 31
0.0
  0
LWPOLYLINE
  5
1D6
330
1F
100
AcDbEntity
  8
0
 48
1.199999999999999
100
AcDbPolyline
 90
        2
 70
     0
 43
0.0
 10
514.5566747141242
 20
558.5812579059198
 10
514.5566747141169
 20
540.5812579059198
  0
ARC
  5
1D7
330
1F
100
AcDbEntity
  8
0
 48
1.199999999999999
100
AcDbCircle
 10
518.3605247141136
 20
540.5812579059198
 30
0.0
 40
3.803849999999999
100
AcDbArc
 50
90.0
 51
180.0
  0
ARC
  5
1D8
330
1F
100
AcDbEntity
  8
0
 48
1.199999999999999
100
AcDbCircle
 10
518.3605247141208
 20
558.5812579059198
 30
0.0
 40
3.803849999999999
100
AcDbArc
 50
180.0
 51
270.0
  0
ARC
  5
1D9
330
1F
100
AcDbEntity
  8
0
 48
1.199999999999999
100
AcDbCircle
 10
518.3605247141136
 20
540.5812579059198
 30
0.0
 40
3.0
100
AcDbArc
 50
90.0
 51
180.0
  0
ARC
  5
1DA
330
1F
100
AcDbEntity
  8
0
 48
1.199999999999999
100
AcDbCircle
 10
518.3605247141208
 20
558.5812579059198
 30
0.0
 40
3.0
100
AcDbArc
 50
180.0
 51
270.0
  0
ARC
  5
1DB
330
1F
100
AcDbEntity
  8
0
 48
1.199999999999999
100
AcDbCircle
 10
518.3605247141281
 20
613.5812579059198
 30
0.0
 40
3.0
100
AcDbArc
 50
180.0
 51
270.0
  0
ARC
  5
1DC
330
1F
100
AcDbEntity
  8
0
 48
1.199999999999999
100
AcDbCircle
 10
518.3605247141208
 20
595.5812579059198
 30
0.0
 40
3.0
100
AcDbArc
 50
90.0
 51
180.0
  0
ARC
  5
1DD
330
1F
100
AcDbEntity
  8
0
 48
1.199999999999999
100
AcDbCircle
 10
518.3605247141281
 20
613.5812579059198
 30
0.0
 40
3.803849999999999
100
AcDbArc
 50
180.0
 51
270.0
  0
ARC
  5
1DE
330
1F
100
AcDbEntity
  8
0
 48
1.199999999999999
100
AcDbCircle
 10
518.3605247141208
 20
595.5812579059198
 30
0.0
 40
3.803849999999999
100
AcDbArc
 50
90.0
 51
180.0
  0
LWPOLYLINE
  5
1DF
330
1F
100
AcDbEntity
  8
0
 48
1.199999999999999
100
AcDbPolyline
 90
        2
 70
     0
 43
0.0
 10
514.5566747141315
 20
613.5812579059198
 10
514.5566747141242
 20
595.5812579059198
  0
LINE
  5
1E0
330
1F
100
AcDbEntity
  8
0
 48
1.199999999999999
100
AcDbLine
 10
515.3605247141208
 20
668.5812579059344
 30
0.0
 11
515.3605247141609
 21
730.1889579059567
 31
0.0
  0
LWPOLYLINE
  5
1E1
330
1F
100
AcDbEntity
  8
0
 48
1.199999999999999
100
AcDbPolyline
 90
        2
 70
     0
 43
0.0
 10
514.5566747141388
 20
668.5812579059344
 10
514.5566747141315
 20
650.5812579059344
  0
ARC
  5
1E2
330
1F
100
AcDbEntity
  8
0
 48
1.199999999999999
100
AcDbCircle
 10
518.3605247141281
 20
650.5812579059344
 30
0.0
 40
3.803849999999999
100
AcDbArc
 50
90.0
 51
180.0
  0
ARC
  5
1E3
330
1F
100
AcDbEntity
  8
0
 48
1.199999999999999
100
AcDbCircle
 10
518.3605247141354
 20
668.5812579059344
 30
0.0
 40
3.803849999999999
100
AcDbArc
 50
180.0
 51
270.0
  0
ARC
  5
1E4
330
1F
100
AcDbEntity
  8
0
 48
1.199999999999999
100
AcDbCircle
 10
518.3605247141281
 20
650.5812579059344
 30
0.0
 40
3.0
100
AcDbArc
 50
90.0
 51
180.0
  0
ARC
  5
1E5
330
1F
100
AcDbEntity
  8
0
 48
1.199999999999999
100
AcDbCircle
 10
518.3605247141354
 20
668.5812579059344
 30
0.0
 40
3.0
100
AcDbArc
 50
180.0
 51
270.0
  0
LINE
  5
1E6
330
1F
100
AcDbEntity
  8
0
 48
1.199999999999999
100
AcDbLine
 10
905.7528347140838
 20
598.5812579058907
 30
0.0
 11
518.3605247141208
 21
598.5812579059344
 31
0.0
  0
ARC
  5
1E7
330
1F
100
AcDbEntity
  8
0
 48
1.199999999999999
100
AcDbCircle
 10
905.7528347140838
 20
601.5812579058907
 30
0.0
 40
3.0
100
AcDbArc
 50
270.0
 51
0.0
  0
LINE
  5
1E8
330
1F
100
AcDbEntity
  8
0
 48
1.199999999999999
100
AcDbLine
 10
908.7528347140837
 20
607.5812579058907
 30
0.0
 11
908.7528347140837
 21
601.5812579058907
 31
0.0
  0
ARC
  5
1E9
330
1F
100
AcDbEntity
  8
0
 48
1.199999999999999
100
AcDbCircle
 10
905.7528347140838
 20
607.5812579058907
 30
0.0
 40
3.0
100
AcDbArc
 50
0.0
 51
90.0
  0
LINE
  5
1EA
330
1F
100
AcDbEntity
  8
0
 48
1.199999999999999
100
AcDbLine
 10
518.3605247141281
 20
610.5812579059344
 30
0.0
 11
905.7528347140838
 21
610.5812579058616
 31
0.0
  0
LINE
  5
1EB
330
1F
100
AcDbEntity
  8
0
 48
1.199999999999999
100
AcDbLine
 10
905.7528347140765
 20
543.5812579058762
 30
0.0
 11
518.3605247141136
 21
543.5812579059199
 31
0.0
  0
ARC
  5
1EC
330
1F
100
AcDbEntity
  8
0
 48
1.199999999999999
100
AcDbCircle
 10
905.7528347140765
 20
546.5812579058908
 30
0.0
 40
3.0
100
AcDbArc
 50
270.0
 51
0.0
  0
LINE
  5
1ED
330
1F
100
AcDbEntity
  8
0
 48
1.199999999999999
100
AcDbLine
 10
908.7528347140764
 20
552.5812579058907
 30
0.0
 11
908.7528347140764
 21
546.5812579058908
 31
0.0
  0
ARC
  5
1EE
330
1F
100
AcDbEntity
  8
0
 48
1.199999999999999
100
AcDbCircle
 10
905.7528347140765
 20
552.5812579058907
 30
0.0
 40
3.0
100
AcDbArc
 50
0.0
 51
90.0
  0
LINE
  5
1EF
330
1F
100
AcDbEntity
  8
0
 48
1.199999999999999
100
AcDbLine
 10
518.3605247141208
 20
555.5812579059344
 30
0.0
 11
905.7528347140765
 21
555.5812579058762
 31
0.0
  0
LINE
  5
1F0
330
1F
100
AcDbEntity
  8
0
 48
1.199999999999999
100
AcDbLine
 10
905.7528347140838
 20
599.3851079058873
 30
0.0
 11
518.3605247141208
 21
599.385107905931
 31
0.0
  0
ARC
  5
1F1
330
1F
100
AcDbEntity
  8
0
 48
1.199999999999999
100
AcDbCircle
 10
905.7528347140838
 20
601.5812579058907
 30
0.0
 40
2.196150000003399
100
AcDbArc
 50
270.0
 51
0.0
  0
LINE
  5
1F2
330
1F
100
AcDbEntity
  8
0
 48
1.199999999999999
100
AcDbLine
 10
907.9489847140871
 20
607.5812579058907
 30
0.0
 11
907.9489847140871
 21
601.5812579058907
 31
0.0
  0
ARC
  5
1F3
330
1F
100
AcDbEntity
  8
0
 48
1.199999999999999
100
AcDbCircle
 10
905.7528347140838
 20
607.5812579058907
 30
0.0
 40
2.196150000003399
100
AcDbArc
 50
0.0
 51
90.0
  0
LINE
  5
1F4
330
1F
100
AcDbEntity
  8
0
 48
1.199999999999999
100
AcDbLine
 10
518.3605247141281
 20
609.7774079059377
 30
0.0
 11
905.7528347140838
 21
609.777407905865
 31
0.0
  0
LINE
  5
1F5
330
1F
100
AcDbEntity
  8
0
 48
1.199999999999999
100
AcDbLine
 10
905.7528347140765
 20
544.3851079058728
 30
0.0
 11
518.3605247141136
 21
544.3851079059164
 31
0.0
  0
ARC
  5
1F6
330
1F
100
AcDbEntity
  8
0
 48
1.199999999999999
100
AcDbCircle
 10
905.7528347140765
 20
546.5812579058908
 30
0.0
 40
2.196150000003399
100
AcDbArc
 50
270.0
 51
0.0
  0
LINE
  5
1F7
330
1F
100
AcDbEntity
  8
0
 48
1.199999999999999
100
AcDbLine
 10
907.9489847140798
 20
552.5812579058907
 30
0.0
 11
907.9489847140798
 21
546.5812579058908
 31
0.0
  0
ARC
  5
1F8
330
1F
100
AcDbEntity
  8
0
 48
1.199999999999999
100
AcDbCircle
 10
905.7528347140765
 20
552.5812579058907
 30
0.0
 40
2.196150000003399
100
AcDbArc
 50
0.0
 51
90.0
  0
LINE
  5
1F9
330
1F
100
AcDbEntity
  8
0
 48
1.199999999999999
100
AcDbLine
 10
518.3605247141208
 20
554.7774079059378
 30
0.0
 11
905.7528347140765
 21
554.7774079058796
 31
0.0
  0
LINE
  5
1FA
330
1F
100
AcDbEntity
  8
0
 48
1.199999999999999
100
AcDbLine
 10
905.7528347140911
 20
653.5812579058762
 30
0.0
 11
518.3605247141281
 21
653.5812579059198
 31
0.0
  0
LINE
  5
1FB
330
1F
100
AcDbEntity
  8
0
 48
1.199999999999999
100
AcDbLine
 10
908.752834714091
 20
662.5812579059052
 30
0.0
 11
908.752834714091
 21
656.5812579059053
 31
0.0
  0
LINE
  5
1FC
330
1F
100
AcDbEntity
  8
0
 48
1.199999999999999
100
AcDbLine
 10
518.3605247141354
 20
665.5812579059344
 30
0.0
 11
905.7528347140911
 21
665.5812579058761
 31
0.0
  0
LINE
  5
1FD
330
1F
100
AcDbEntity
  8
0
 48
1.199999999999999
100
AcDbLine
 10
905.7528347140911
 20
654.3851079058728
 30
0.0
 11
518.3605247141281
 21
654.3851079059164
 31
0.0
  0
LINE
  5
1FE
330
1F
100
AcDbEntity
  8
0
 48
1.199999999999999
100
AcDbLine
 10
907.9489847140944
 20
662.5812579059052
 30
0.0
 11
907.9489847140944
 21
656.5812579059053
 31
0.0
  0
LINE
  5
1FF
330
1F
100
AcDbEntity
  8
0
 48
1.199999999999999
100
AcDbLine
 10
518.3605247141354
 20
664.7774079059233
 30
0.0
 11
905.7528347140911
 21
664.7774079058796
 31
0.0
  0
LWPOLYLINE
  5
200
330
1F
100
AcDbEntity
  8
0
 48
1.199999999999999
100
AcDbPolyline
 90
        2
 70
     0
 43
0.0
 10
919.1118147140954
 20
787.1899779059673
 10
135.1118147140591
 20
787.1899779059673
  0
LINE
  5
201
330
1F
100
AcDbEntity
  8
0
 48
1.199999999999999
100
AcDbLine
 10
515.3605247140772
 20
343.6754553982097
 30
0.0
 11
515.3605247141172
 21
540.5812579059198
 31
0.0
  0
LINE
  5
202
330
1F
100
AcDbEntity
  8
0
 48
1.199999999999999
100
AcDbLine
 10
513.7528347140764
 20
343.6925479057896
 30
0.0
 11
513.7528347141819
 21
755.9735679058864
 31
0.0
  0
ARC
  5
203
330
1F
100
AcDbEntity
  8
0
 48
1.199999999999999
100
AcDbCircle
 10
135.1118147140591
 20
340.3335679058288
 30
0.0
 40
9.641020000000001
100
AcDbArc
 50
180.0
 51
270.0
  0
ARC
  5
204
330
1F
100
AcDbEntity
  8
0
 48
1.199999999999999
100
AcDbCircle
 10
135.1118147140591
 20
774.3335679059742
 30
0.0
 40
15.0
100
AcDbArc
 50
90.0
 51
180.0
  0
ARC
  5
205
330
1F
100
AcDbEntity
  8
0
 48
1.199999999999999
100
AcDbCircle
 10
114.111814714081
 20
795.333567905916
 30
0.0
 40
12.0
100
AcDbArc
 50
90.0
 51
180.0
  0
LINE
  5
206
330
1F
100
AcDbEntity
  8
0
 48
1.199999999999999
100
AcDbLine
 10
940.111814714081
 20
807.3335679059015
 30
0.0
 11
114.111814714081
 21
807.3335679059161
 31
0.0
  0
LINE
  5
207
330
1F
100
AcDbEntity
  8
0
 48
1.199999999999999
100
AcDbLine
 10
919.1118147140954
 20
789.3335679059597
 30
0.0
 11
135.1118147140591
 21
789.3335679059161
 31
0.0
  0
LWPOLYLINE
  5
208
330
1F
100
AcDbEntity
  8
0
  6
CENTER2
 62
     6
 48
2.1
100
AcDbPolyline
 90
        2
 70
     0
 43
0.0
 10
319.6118147141101
 20
534.2792550294758
 10
319.6118147141101
 20
706.0320233322633
  0
LWPOLYLINE
  5
209
330
1F
100
AcDbEntity
  8
0
  6
CENTER2
 62
     6
 48
2.1
100
AcDbPolyline
 90
        2
 70
     0
 43
0.0
 10
403.7694600762774
 20
619.8335679059161
 10
237.4325879201501
 20
619.8335679059161
  0
ARC
  5
20A
330
1F
100
AcDbEntity
  8
0
 48
1.199999999999999
100
AcDbCircle
 10
169.6118147141101
 20
724.8335679059015
 30
0.0
 40
25.0
100
AcDbArc
 50
90.0
 51
180.0
  0
ARC
  5
20B
330
1F
100
AcDbEntity
  8
0
 48
1.199999999999999
100
AcDbCircle
 10
469.6118147141101
 20
724.8335679059015
 30
0.0
 40
25.0
100
AcDbArc
 50
0.0
 51
90.0
  0
ARC
  5
20C
330
1F
100
AcDbEntity
  8
0
 48
1.199999999999999
100
AcDbCircle
 10
469.6118147140518
 20
374.8335679059015
 30
0.0
 40
25.0
100
AcDbArc
 50
270.0
 51
0.0
  0
ARC
  5
20D
330
1F
100
AcDbEntity
  8
0
 48
1.199999999999999
100
AcDbCircle
 10
169.6118147141101
 20
374.8335679059015
 30
0.0
 40
25.0
100
AcDbArc
 50
180.0
 51
270.0
  0
LINE
  5
20E
330
1F
100
AcDbEntity
  8
0
 48
1.199999999999999
100
AcDbLine
 10
169.6118147141101
 20
349.8335679059161
 30
0.0
 11
469.6118147140518
 21
349.8335679059161
 31
0.0
  0
LINE
  5
20F
330
1F
100
AcDbEntity
  8
0
 48
1.199999999999999
100
AcDbLine
 10
144.6118147141101
 20
724.833567905916
 30
0.0
 11
144.6118147141101
 21
374.8335679059161
 31
0.0
  0
LINE
  5
210
330
1F
100
AcDbEntity
  8
0
 48
1.199999999999999
100
AcDbLine
 10
469.6118147141101
 20
749.833567905916
 30
0.0
 11
169.6118147141101
 21
749.833567905916
 31
0.0
  0
LINE
  5
211
330
1F
100
AcDbEntity
  8
0
 48
1.199999999999999
100
AcDbLine
 10
494.6118147140518
 20
374.8335679059161
 30
0.0
 11
494.6118147141101
 21
724.833567905916
 31
0.0
  0
LINE
  5
212
330
1F
100
AcDbEntity
  8
0
 48
1.199999999999999
100
AcDbLine
 10
102.1118147140773
 20
319.333567905887
 30
0.0
 11
102.1118147140737
 21
795.333567905916
 31
0.0
  0
ARC
  5
213
330
1F
100
AcDbEntity
  8
0
 48
1.199999999999999
100
AcDbCircle
 10
114.111814714081
 20
319.333567905887
 30
0.0
 40
12.0
100
AcDbArc
 50
180.0
 51
270.0
  0
LINE
  5
214
330
1F
100
AcDbEntity
  8
0
 48
1.199999999999999
100
AcDbLine
 10
940.111814714081
 20
307.3335679059015
 30
0.0
 11
114.111814714081
 21
307.3335679058724
 31
0.0
  0
ARC
  5
215
330
1F
100
AcDbEntity
  8
0
 48
1.199999999999999
100
AcDbCircle
 10
940.111814714081
 20
319.333567905887
 30
0.0
 40
12.0
100
AcDbArc
 50
270.0
 51
0.0
  0
LINE
  5
216
330
1F
100
AcDbEntity
  8
0
 48
1.199999999999999
100
AcDbLine
 10
952.1118147140846
 20
319.333567905887
 30
0.0
 11
952.1118147140809
 21
795.333567905916
 31
0.0
  0
LINE
  5
217
330
1F
100
AcDbEntity
  8
0
 48
1.199999999999999
100
AcDbLine
 10
934.1118147140701
 20
340.3335679058288
 30
0.0
 11
934.1118147140955
 21
774.3335679059742
 31
0.0
  0
ARC
  5
218
330
1F
100
AcDbEntity
  8
0
 48
1.199999999999999
100
AcDbCircle
 10
940.111814714081
 20
795.333567905916
 30
0.0
 40
12.0
100
AcDbArc
 50
0.0
 51
90.0
  0
LINE
  5
219
330
1F
100
AcDbEntity
  8
0
 48
1.199999999999999
100
AcDbLine
 10
120.1118147140846
 20
340.3335679058288
 30
0.0
 11
120.1118147140591
 21
774.3335679059742
 31
0.0
  0
LINE
  5
21A
330
1F
100
AcDbEntity
  8
0
 48
1.199999999999999
100
AcDbLine
 10
125.4707947140709
 20
340.3335679058288
 30
0.0
 11
125.4707947140673
 21
755.9735679058864
 31
0.0
  0
ARC
  5
21B
330
1F
100
AcDbEntity
  8
0
 48
1.199999999999999
100
AcDbCircle
 10
135.1118147140591
 20
774.3335679059742
 30
0.0
 40
12.85641
100
AcDbArc
 50
90.0
 51
180.0
  0
ARC
  5
21C
330
1F
100
AcDbEntity
  8
0
 48
1.199999999999999
100
AcDbCircle
 10
919.1118147140954
 20
340.3335679058288
 30
0.0
 40
15.0
100
AcDbArc
 50
270.0
 51
0.0
  0
LINE
  5
21D
330
1F
100
AcDbEntity
  8
0
 48
1.199999999999999
100
AcDbLine
 10
919.1118147140954
 20
325.3335679058433
 30
0.0
 11
135.1118147140591
 21
325.333567905887
 31
0.0
  0
ARC
  5
21E
330
1F
100
AcDbEntity
  8
0
 48
1.199999999999999
100
AcDbCircle
 10
135.1118147140591
 20
340.3335679058288
 30
0.0
 40
15.0
100
AcDbArc
 50
180.0
 51
270.0
  0
LINE
  5
21F
330
1F
100
AcDbEntity
  8
0
 48
1.199999999999999
100
AcDbLine
 10
122.2554047140624
 20
755.9735679058864
 30
0.0
 11
122.2554047140588
 21
774.3335679059742
 31
0.0
  0
ARC
  5
220
330
1F
100
AcDbEntity
  8
0
 48
1.199999999999999
100
AcDbCircle
 10
919.1118147140954
 20
774.3335679059742
 30
0.0
 40
15.0
100
AcDbArc
 50
0.0
 51
90.0
  0
DIMENSION
  5
221
330
1F
100
AcDbEntity
  8
0
 48
1.199999999999999
100
AcDbDimension
280
     0
  2
*D21
 10
494.6118147140482
 20
273.4785727290506
 30
0.0
 11
317.5889959886486
 21
273.4785727290506
 31
0.0
 70
   160
 71
     5
 42
349.9999999999382
 73
     0
 74
     0
 75
     0
  3
ISO-25
100
AcDbAlignedDimension
 13
144.6118147141101
 23
374.8335679059161
 33
0.0
 14
494.6118147140482
 24
374.8335679059306
 34
0.0
100
AcDbRotatedDimension
1001
ACAD
1000
DSTYLE
1002
{
1070
    41
1040
15.0
1070
    42
1040
0.0
1070
    44
1040
7.5
1070
    78
1070
    12
1070
    79
1070
     3
1070
   140
1040
15.0
1070
   147
1040
7.5
1070
   178
1070
   256
1070
   179
1070
     5
1070
   271
1070
     5
1070
   272
1070
     5
1070
   288
1070
     1
1002
}
  0
DIMENSION
  5
222
330
1F
100
AcDbEntity
  8
0
 48
1.199999999999999
100
AcDbDimension
280
     0
  2
*D22
 10
934.1118147140701
 20
229.9659670083125
 30
0.0
 11
528.5377447716168
 21
229.9659670083125
 31
0.0
 70
   160
 71
     5
 42
813.9999999999854
 73
     0
 74
     0
 75
     0
  3
ISO-25
100
AcDbAlignedDimension
 13
120.1118147140846
 23
340.3335679058288
 33
0.0
 14
934.1118147140701
 24
345.0097901855257
 34
0.0
100
AcDbRotatedDimension
1001
ACAD
1000
DSTYLE
1002
{
1070
    41
1040
15.0
1070
    42
1040
0.0
1070
    44
1040
7.5
1070
    78
1070
    12
1070
    79
1070
     3
1070
   140
1040
15.0
1070
   147
1040
7.5
1070
   178
1070
   256
1070
   179
1070
     5
1070
   271
1070
     5
1070
   272
1070
     5
1070
   288
1070
     1
1002
}
  0
DIMENSION
  5
223
330
1F
100
AcDbEntity
  8
0
 48
1.199999999999999
100
AcDbDimension
280
     0
  2
*D23
 10
952.1118147140846
 20
192.363047213577
 30
0.0
 11
527.0904973593574
 21
192.363047213577
 31
0.0
 70
   160
 71
     5
 42
850.0000000000037
 73
     0
 74
     0
 75
     0
  3
ISO-25
100
AcDbAlignedDimension
 13
102.1118147140809
 23
324.333567905887
 33
0.0
 14
952.1118147140846
 24
319.333567905887
 34
0.0
100
AcDbRotatedDimension
1001
ACAD
1000
DSTYLE
1002
{
1070
    41
1040
15.0
1070
    42
1040
0.0
1070
    44
1040
7.5
1070
    78
1070
    12
1070
    79
1070
     3
1070
   140
1040
15.0
1070
   147
1040
7.5
1070
   178
1070
   256
1070
   179
1070
     5
1070
   271
1070
     5
1070
   272
1070
     5
1070
   288
1070
     1
1002
}
  0
DIMENSION
  5
224
330
1F
100
AcDbEntity
  8
0
 48
1.199999999999999
100
AcDbDimension
280
     0
  2
*D24
 10
992.6973947982922
 20
789.3335679059743
 30
0.0
 11
992.6973947982919
 21
555.8298588832473
 31
0.0
 70
   160
 71
     5
 42
464.0000000001455
 73
     0
 74
     0
 75
     0
  3
ISO-25
100
AcDbAlignedDimension
 13
919.1118147140954
 23
325.3335679058288
 33
0.0
 14
919.1118147140954
 24
789.3335679059743
 34
0.0
 50
90.0
100
AcDbRotatedDimension
1001
ACAD
1000
DSTYLE
1002
{
1070
    41
1040
15.0
1070
    42
1040
0.0
1070
    44
1040
7.5
1070
    78
1070
    12
1070
    79
1070
     3
1070
   140
1040
15.0
1070
   147
1040
7.5
1070
   178
1070
   256
1070
   179
1070
     5
1070
   271
1070
     5
1070
   272
1070
     5
1070
   288
1070
     1
1002
}
  0
DIMENSION
  5
225
330
1F
100
AcDbEntity
  8
0
 48
1.199999999999999
100
AcDbDimension
280
     0
  2
*D25
 10
1028.012670838347
 20
307.3335679059161
 30
0.0
 11
1028.012670838347
 21
554.6913778739614
 31
0.0
 70
   160
 71
     5
 42
499.9999999999854
 73
     0
 74
     0
 75
     0
  3
ISO-25
100
AcDbAlignedDimension
 13
940.111814714081
 23
807.3335679059015
 33
0.0
 14
940.111814714081
 24
307.3335679059161
 34
0.0
 50
90.0
100
AcDbRotatedDimension
1001
ACAD
1000
DSTYLE
1002
{
1070
    41
1040
15.0
1070
    42
1040
0.0
1070
    44
1040
7.5
1070
    78
1070
    12
1070
    79
1070
     3
1070
   140
1040
15.0
1070
   147
1040
7.5
1070
   178
1070
   256
1070
   179
1070
     5
1070
   271
1070
     5
1070
   272
1070
     5
1070
   288
1070
     1
1002
}
  0
DIMENSION
  5
226
330
1F
100
AcDbEntity
  8
0
 48
1.199999999999999
100
AcDbDimension
280
     0
  2
*D26
 10
169.6118147140881
 20
374.833567906047
 30
0.0
 11
218.5651321213742
 21
381.2197247075297
 31
0.0
 70
   164
 71
     5
 42
24.99999999999639
 73
     0
 74
     0
 75
     0
  3
ISO-25
100
AcDbRadialDimension
 15
144.8218655858295
 25
371.5996195115654
 35
0.0
 40
0.0
1001
ACAD
1000
DSTYLE
1002
{
1070
    41
1040
15.0
1070
    42
1040
0.0
1070
    44
1040
7.5
1070
    78
1070
    12
1070
    79
1070
     3
1070
   140
1040
15.0
1070
   147
1040
7.5
1070
   178
1070
   256
1070
   179
1070
     5
1070
   271
1070
     5
1070
   272
1070
     5
1070
   279
1070
     1
1070
   288
1070
     1
1002
}
  0
DIMENSION
  5
227
330
1F
100
AcDbEntity
  8
0
 48
1.199999999999999
100
AcDbDimension
280
     0
  2
*D27
 10
31.50171090858251
 20
349.8335679059016
 30
0.0
 11
31.50171090858247
 21
550.6676993409561
 31
0.0
 70
   160
 71
     5
 42
400.0
 73
     0
 74
     0
 75
     0
  3
ISO-25
100
AcDbAlignedDimension
 13
164.6118147141101
 23
749.8335679059015
 33
0.0
 14
164.6118147141101
 24
349.8335679059015
 34
0.0
 50
90.0
100
AcDbRotatedDimension
1001
ACAD
1000
DSTYLE
1002
{
1070
    41
1040
15.0
1070
    42
1040
0.0
1070
    44
1040
7.5
1070
    78
1070
    12
1070
    79
1070
     3
1070
   140
1040
15.0
1070
   147
1040
7.5
1070
   178
1070
   256
1070
   179
1070
     5
1070
   271
1070
     5
1070
   272
1070
     5
1070
   288
1070
     1
1002
}
  0
LWPOLYLINE
  5
228
330
1F
100
AcDbEntity
  8
0
 48
1.199999999999999
100
AcDbPolyline
 90
        2
 70
     0
 43
0.0
 10
138.4707947140709
 20
772.1889579058839
 10
500.7708432670811
 20
772.1889579058839
  0
ARC
  5
229
330
1F
100
AcDbEntity
  8
0
 48
1.199999999999999
100
AcDbCircle
 10
500.7528347140728
 20
343.6925479057896
 30
0.0
 40
13.0
100
AcDbArc
 50
270.0
 51
0.0
  0
ARC
  5
22A
330
1F
100
AcDbEntity
  8
0
 48
1.199999999999999
100
AcDbCircle
 10
500.7528347140728
 20
343.6925479057896
 30
0.0
 40
14.6077
100
AcDbArc
 50
270.0
 51
0.0
  0
CIRCLE
  5
22B
330
1F
100
AcDbEntity
  8
0
 48
1.199999999999999
100
AcDbCircle
 10
319.6118147141101
 20
619.8335679059161
 30
0.0
 40
45.0
  0
CIRCLE
  5
22C
330
1F
100
AcDbEntity
  8
0
 48
1.199999999999999
100
AcDbCircle
 10
319.6118147137609
 20
619.8335679059452
 30
0.0
 40
57.25
  0
MTEXT
  5
22D
330
1F
100
AcDbEntity
  8
0
 48
1.199999999999999
100
AcDbMText
 10
284.149244792287
 20
702.1118156988737
 30
0.0
 40
7.499999999999996
 41
61.53952624395694
 46
0.0
 71
     1
 72
     5
  1
+2
 11
0.6676142506770335
 21
-0.7445073621482484
 31
0.0
 73
     1
 44
1.0
  0
MTEXT
  5
22E
330
1F
100
AcDbEntity
  8
0
 48
1.199999999999999
100
AcDbMText
 10
279.5708136272811
 20
690.6787933247466
 30
0.0
 40
7.499999999999996
 41
61.53952624395694
 46
0.0
 71
     1
 72
     5
  1
0
 11
0.6676142506770332
 21
-0.7445073621482489
 31
0.0
 73
     1
 44
1.0
  0
DIMENSION
  5
22F
330
1F
100
AcDbEntity
  8
0
 48
1.199999999999999
100
AcDbDimension
280
     0
  2
*D28
 10
347.0475648385985
 20
584.164539112789
 30
0.0
 11
249.9781893862874
 21
710.3637621041992
 31
0.0
 70
   163
 71
     5
 42
89.99999999984613
 73
     0
 74
     0
 75
     0
  3
ISO-25
100
AcDbDiametricDimension
 15
292.1760645884571
 25
655.5025966996831
 35
0.0
 40
0.0
1001
ACAD
1000
DSTYLE
1002
{
1070
    41
1040
15.0
1070
    42
1040
0.0
1070
    44
1040
7.0
1070
    78
1070
    12
1070
    79
1070
     3
1070
   140
1040
15.0
1070
   147
1040
7.0
1070
   178
1070
   256
1070
   179
1070
     5
1070
   271
1070
     4
1070
   272
1070
     4
1070
   288
1070
     1
1002
}
  0
ARC
  5
230
330
1F
100
AcDbEntity
  8
0
 48
1.199999999999999
100
AcDbCircle
 10
500.7528347141492
 20
755.9735679058864
 30
0.0
 40
13.0
100
AcDbArc
 50
0.0
 51
90.0
  0
LINE
  5
231
330
1F
100
AcDbEntity
  8
0
 48
1.199999999999999
100
AcDbLine
 10
500.7528347141492
 20
768.9735679058864
 30
0.0
 11
138.4707947140709
 21
768.9735679058718
 31
0.0
  0
ARC
  5
232
330
1F
100
AcDbEntity
  8
0
 48
1.199999999999999
100
AcDbCircle
 10
500.7528347141492
 20
755.9735679058864
 30
0.0
 40
16.2154
100
AcDbArc
 50
0.0
 51
90.0
  0
LWPOLYLINE
  5
233
330
1F
100
AcDbEntity
  8
0
 48
1.199999999999999
100
AcDbPolyline
 90
        2
 70
     0
 43
0.0
 10
516.9682347141502
 20
730.1728333966963
 10
516.9682347141502
 20
755.9735679058864
  0
LINE
  5
234
330
1F
100
AcDbEntity
  8
0
 48
1.199999999999999
100
AcDbLine
 10
917.4764505126882
 20
717.1884979880193
 30
0.0
 11
529.8050219262081
 21
717.1899823751661
 31
0.0
  0
ARC
  5
235
330
1F
100
AcDbEntity
  8
0
 48
1.199999999999999
100
AcDbCircle
 10
919.1118147140954
 20
340.3335679058288
 30
0.0
 40
11.24872
100
AcDbArc
 50
270.0
 51
0.0
  0
LINE
  5
236
330
1F
100
AcDbEntity
  8
0
 48
1.199999999999999
100
AcDbLine
 10
930.3605347140843
 20
340.3335679058288
 30
0.0
 11
930.3605347140987
 21
702.5812579058616
 31
0.0
  0
LINE
  5
237
330
1F
100
AcDbEntity
  8
0
 48
1.199999999999999
100
AcDbLine
 10
931.9682247140885
 20
702.5983504221873
 30
0.0
 11
931.9682247140923
 21
774.3335679059742
 31
0.0
  0
ARC
  5
238
330
1F
100
AcDbEntity
  8
0
 48
1.199999999999999
100
AcDbCircle
 10
919.1118147140954
 20
774.3335679059742
 30
0.0
 40
12.85641
100
AcDbArc
 50
0.0
 51
90.0
  0
CIRCLE
  5
239
330
1F
100
AcDbEntity
  8
0
 48
1.199999999999999
100
AcDbCircle
 10
552.1118147140737
 20
752.3335679058724
 30
0.0
 40
17.5
  0
DIMENSION
  5
23A
330
1F
100
AcDbEntity
  8
0
 48
1.199999999999999
100
AcDbDimension
280
     0
  2
*D29
 10
641.1812770429103
 20
807.3335679059015
 30
0.0
 11
641.1812770429101
 21
838.0002345725729
 31
0.0
 70
   160
 71
     5
 42
55.00000000007275
 73
     0
 74
     0
 75
     0
  3
ISO-25
100
AcDbAlignedDimension
 13
579.099805910308
 23
752.3335679058288
 33
0.0
 14
614.5399200605611
 24
807.3335679059015
 34
0.0
 50
90.0
100
AcDbRotatedDimension
1001
ACAD
1000
DSTYLE
1002
{
1070
    41
1040
12.0
1070
    42
1040
0.0
1070
    44
1040
5.0
1070
    78
1070
    12
1070
    79
1070
     3
1070
   140
1040
14.0
1070
   147
1040
7.0
1070
   178
1070
   256
1070
   179
1070
     5
1070
   271
1070
     4
1070
   272
1070
     4
1070
   288
1070
     1
1002
}
  0
ENDSEC
  0
SECTION
  2
OBJECTS
  0
DICTIONARY
  5
C
330
0
100
AcDbDictionary
281
     1
  3
ACAD_CIP_PREVIOUS_PRODUCT_INFO
350
39D
  3
ACAD_COLOR
350
73
  3
ACAD_DETAILVIEWSTYLE
350
397
  3
ACAD_GROUP
350
D
  3
ACAD_LAYOUT
350
1A
  3
ACAD_MATERIAL
350
72
  3
ACAD_MLEADERSTYLE
350
393
  3
ACAD_MLINESTYLE
350
17
  3
ACAD_PLOTSETTINGS
350
19
  3
ACAD_PLOTSTYLENAME
350
E
  3
ACAD_SCALELIST
350
381
  3
ACAD_SECTIONVIEWSTYLE
350
395
  3
ACAD_TABLESTYLE
350
37F
  3
ACAD_VISUALSTYLE
350
366
  3
ACDB_RECOMPOSE_DATA
350
3BE
  3
AcDbVariableDictionary
350
66
  0
DICTIONARY
  5
136
330
2
100
AcDbDictionary
280
     1
281
     1
  3
ACAD_LAYERSTATES
360
137
  0
DICTIONARY
  5
39E
330
10
100
AcDbDictionary
280
     1
281
     1
  3
ADSK_XREC_LAYER_RECONCILED
360
39F
  0
XRECORD
  5
39D
102
{ACAD_REACTORS
330
C
102
}
330
C
100
AcDbXrecord
280
     1
300
ACD
300
2017
300
ACD_F_S
  0
DICTIONARY
  5
73
102
{ACAD_REACTORS
330
C
102
}
330
C
100
AcDbDictionary
281
     1
  0
DICTIONARY
  5
397
102
{ACAD_REACTORS
330
C
102
}
330
C
100
AcDbDictionary
281
     1
  3
Imperial24
350
398
  0
DICTIONARY
  5
D
102
{ACAD_REACTORS
330
C
102
}
330
C
100
AcDbDictionary
281
     1
  0
DICTIONARY
  5
1A
102
{ACAD_REACTORS
330
C
102
}
330
C
100
AcDbDictionary
281
     1
  3
Model
350
22
  3
布局1
350
59
  3
布局2
350
5E
1001
AcadStringInfo
1000
MIFCodePage
1070
     5
  0
DICTIONARY
  5
72
102
{ACAD_REACTORS
330
C
102
}
330
C
100
AcDbDictionary
281
     1
  3
ByBlock
350
356
  3
ByLayer
350
34E
  3
Global
350
35E
  0
DICTIONARY
  5
393
102
{ACAD_REACTORS
330
C
102
}
330
C
100
AcDbDictionary
281
     1
  3
Standard
350
394
  0
DICTIONARY
  5
17
102
{ACAD_REACTORS
330
C
102
}
330
C
100
AcDbDictionary
281
     1
  3
Standard
350
18
  0
DICTIONARY
  5
19
102
{ACAD_REACTORS
330
C
102
}
330
C
100
AcDbDictionary
281
     1
  0
ACDBDICTIONARYWDFLT
  5
E
102
{ACAD_REACTORS
330
C
102
}
330
C
100
AcDbDictionary
281
     1
  3
Normal
350
F
100
AcDbDictionaryWithDefault
340
F
  0
DICTIONARY
  5
381
102
{ACAD_REACTORS
330
C
102
}
330
C
100
AcDbDictionary
281
     1
  3
A0
350
382
  3
A1
350
383
  3
A2
350
384
  3
A3
350
385
  3
A4
350
386
  3
A5
350
387
  3
A6
350
388
  3
A7
350
389
  3
A8
350
38A
  3
A9
350
38B
  3
B0
350
38C
  3
B1
350
38D
  3
B2
350
38E
  3
B3
350
38F
  3
B4
350
390
  3
B5
350
391
  3
B6
350
392
  0
DICTIONARY
  5
395
102
{ACAD_REACTORS
330
C
102
}
330
C
100
AcDbDictionary
281
     1
  3
Imperial24
350
396
  0
DICTIONARY
  5
37F
102
{ACAD_REACTORS
330
C
102
}
330
C
100
AcDbDictionary
281
     1
  3
Standard
350
380
  0
DICTIONARY
  5
366
102
{ACAD_REACTORS
330
C
102
}
330
C
100
AcDbDictionary
281
     1
  3
2dWireframe
350
36C
  3
Basic
350
36B
  3
Brighten
350
372
  3
ColorChange
350
376
  3
Conceptual
350
36F
  3
Dim
350
371
  3
EdgeColorOff
350
37E
  3
Facepattern
350
375
  3
Flat
350
367
  3
FlatWithEdges
350
368
  3
Gouraud
350
369
  3
GouraudWithEdges
350
36A
  3
Hidden
350
36E
  3
JitterOff
350
37C
  3
Linepattern
350
374
  3
OverhangOff
350
37D
  3
Realistic
350
370
  3
Shaded
350
37B
  3
Shaded with edges
350
37A
  3
Shades of Gray
350
377
  3
Sketchy
350
378
  3
Thicken
350
373
  3
Wireframe
350
36D
  3
X-Ray
350
379
  0
XRECORD
  5
3BE
102
{ACAD_REACTORS
330
C
102
}
330
C
100
AcDbXrecord
280
     1
 90
        1
330
380
330
396
330
398
  0
DICTIONARY
  5
66
102
{ACAD_REACTORS
330
C
102
}
330
C
100
AcDbDictionary
281
     1
  3
CANNOSCALE
350
3B4
  3
CMLEADERSTYLE
350
3B0
  3
CTABLESTYLE
350
3AF
  3
CVIEWDETAILSTYLE
350
3B1
  3
CVIEWSECTIONSTYLE
350
3B2
  3
DIMASSOC
350
67
  3
HIDETEXT
350
6B
  3
LAYEREVAL
350
3B6
  3
LAYERNOTIFY
350
3B7
  3
LIGHTINGUNITS
350
3B5
  3
MSLTSCALE
350
3B3
  0
DICTIONARY
  5
137
102
{ACAD_REACTORS
330
136
102
}
330
136
100
AcDbDictionary
281
     1
  0
XRECORD
  5
39F
102
{ACAD_REACTORS
330
39E
102
}
330
39E
100
AcDbXrecord
280
     1
290
     1
  0
ACDBDETAILVIEWSTYLE
  5
398
102
{ACAD_XDICTIONARY
360
3BC
102
}
102
{ACAD_REACTORS
330
397
102
}
330
397
100
AcDbModelDocViewStyle
 70
     0
  3
Imperial24
290
     0
100
AcDbDetailViewStyle
 70
     0
 71
     0
 90
        3
 71
     1
340
11
 62
   256
 40
0.24
340
0
 62
   256
 40
0.24
300

 40
0.36
280
     3
 71
     2
340
16
 90
       25
 62
   256
 71
     3
340
11
 62
   256
 40
0.24
 90
        1
 40
0.75
 90
        1
300
%<\AcVar ViewType \f "%tc1">% %<\AcVar ViewDetailId>%\PSCALE %<\AcVar ViewScale \f "%sn">%
 71
     4
340
16
 90
       25
 62
   256
340
16
 90
       25
 62
   256
280
     0
  0
LAYOUT
  5
22
102
{ACAD_REACTORS
330
1A
102
}
330
1A
100
AcDbPlotSettings
  1

  2
none_device
  4
ANSI_A_(8.50_x_11.00_Inches)
  6

 40
6.349999904632568
 41
19.04999923706055
 42
6.350006103515625
 43
19.04998779296875
 44
215.8999938964844
 45
279.3999938964844
 46
0.0
 47
0.0
 48
0.0
 49
0.0
140
0.0
141
0.0
142
1.0
143
2.584895464708373
 70
 11952
 72
     0
 73
     1
 74
     0
  7

 75
     0
147
0.3868628397755418
 76
     0
 77
     2
 78
   300
148
0.0
149
0.0
100
AcDbLayout
  1
Model
 70
     1
 71
     0
 10
0.0
 20
0.0
 11
12.0
 21
9.0
 12
0.0
 22
0.0
 32
0.0
 14
0.0
 24
0.0
 34
0.0
 15
0.0
 25
0.0
 35
0.0
146
0.0
 13
0.0
 23
0.0
 33
0.0
 16
1.0
 26
0.0
 36
0.0
 17
0.0
 27
1.0
 37
0.0
 76
     0
330
1F
331
34C
  0
LAYOUT
  5
59
102
{ACAD_REACTORS
330
1A
102
}
330
1A
100
AcDbPlotSettings
  1

  2
None
  4

  6

 40
0.0
 41
0.0
 42
0.0
 43
0.0
 44
0.0
 45
0.0
 46
0.0
 47
0.0
 48
0.0
 49
0.0
140
0.0
141
0.0
142
1.0
143
1.0
 70
   688
 72
     0
 73
     0
 74
     5
  7

 75
    16
147
1.0
 76
     0
 77
     2
 78
   300
148
0.0
149
0.0
100
AcDbLayout
  1
布局1
 70
     1
 71
     1
 10
0.0
 20
0.0
 11
12.0
 21
9.0
 12
0.0
 22
0.0
 32
0.0
 14
0.0
 24
0.0
 34
0.0
 15
0.0
 25
0.0
 35
0.0
146
0.0
 13
0.0
 23
0.0
 33
0.0
 16
1.0
 26
0.0
 36
0.0
 17
0.0
 27
1.0
 37
0.0
 76
     0
330
58
1001
AcadStringInfo
1000
MIFCodePage
1070
     5
  0
LAYOUT
  5
5E
102
{ACAD_REACTORS
330
1A
102
}
330
1A
100
AcDbPlotSettings
  1

  2
None
  4

  6

 40
0.0
 41
0.0
 42
0.0
 43
0.0
 44
0.0
 45
0.0
 46
0.0
 47
0.0
 48
0.0
 49
0.0
140
0.0
141
0.0
142
1.0
143
1.0
 70
   688
 72
     0
 73
     0
 74
     5
  7

 75
    16
147
1.0
 76
     0
 77
     2
 78
   300
148
0.0
149
0.0
100
AcDbLayout
  1
布局2
 70
     1
 71
     2
 10
0.0
 20
0.0
 11
12.0
 21
9.0
 12
0.0
 22
0.0
 32
0.0
 14
0.0
 24
0.0
 34
0.0
 15
0.0
 25
0.0
 35
0.0
146
0.0
 13
0.0
 23
0.0
 33
0.0
 16
1.0
 26
0.0
 36
0.0
 17
0.0
 27
1.0
 37
0.0
 76
     0
330
5D
1001
AcadStringInfo
1000
MIFCodePage
1070
     5
  0
MATERIAL
  5
356
102
{ACAD_XDICTIONARY
360
357
102
}
102
{ACAD_REACTORS
330
72
102
}
330
72
100
AcDbMaterial
  1
ByBlock
 72
     0
 43
0.0208333333333333
 43
0.0
 43
0.0
 43
0.0
 43
0.0
 43
0.0208333333333333
 43
0.0
 43
0.0
 43
0.0
 43
0.0
 43
1.0
 43
0.0
 43
0.0
 43
0.0
 43
0.0
 43
1.0
 77
     0
 47
0.0208333333333333
 47
0.0
 47
0.0
 47
0.0
 47
0.0
 47
0.0208333333333333
 47
0.0
 47
0.0
 47
0.0
 47
0.0
 47
1.0
 47
0.0
 47
0.0
 47
0.0
 47
0.0
 47
1.0
171
     0
 49
0.0208333333333333
 49
0.0
 49
0.0
 49
0.0
 49
0.0
 49
0.0208333333333333
 49
0.0
 49
0.0
 49
0.0
 49
0.0
 49
1.0
 49
0.0
 49
0.0
 49
0.0
 49
0.0
 49
1.0
175
     0
142
0.0208333333333333
142
0.0
142
0.0
142
0.0
142
0.0
142
0.0208333333333333
142
0.0
142
0.0
142
0.0
142
0.0
142
1.0
142
0.0
142
0.0
142
0.0
142
0.0
142
1.0
179
     0
144
0.0208333333333333
144
0.0
144
0.0
144
0.0
144
0.0
144
0.0208333333333333
144
0.0
144
0.0
144
0.0
144
0.0
144
1.0
144
0.0
144
0.0
144
0.0
144
0.0
144
1.0
147
0.0208333333333333
147
0.0
147
0.0
147
0.0
147
0.0
147
0.0208333333333333
147
0.0
147
0.0
147
0.0
147
0.0
147
1.0
147
0.0
147
0.0
147
0.0
147
0.0
147
1.0
  0
MATERIAL
  5
34E
102
{ACAD_XDICTIONARY
360
34F
102
}
102
{ACAD_REACTORS
330
72
102
}
330
72
100
AcDbMaterial
  1
ByLayer
 72
     0
 43
0.0208333333333333
 43
0.0
 43
0.0
 43
0.0
 43
0.0
 43
0.0208333333333333
 43
0.0
 43
0.0
 43
0.0
 43
0.0
 43
1.0
 43
0.0
 43
0.0
 43
0.0
 43
0.0
 43
1.0
 77
     0
 47
0.0208333333333333
 47
0.0
 47
0.0
 47
0.0
 47
0.0
 47
0.0208333333333333
 47
0.0
 47
0.0
 47
0.0
 47
0.0
 47
1.0
 47
0.0
 47
0.0
 47
0.0
 47
0.0
 47
1.0
171
     0
 49
0.0208333333333333
 49
0.0
 49
0.0
 49
0.0
 49
0.0
 49
0.0208333333333333
 49
0.0
 49
0.0
 49
0.0
 49
0.0
 49
1.0
 49
0.0
 49
0.0
 49
0.0
 49
0.0
 49
1.0
175
     0
142
0.0208333333333333
142
0.0
142
0.0
142
0.0
142
0.0
142
0.0208333333333333
142
0.0
142
0.0
142
0.0
142
0.0
142
1.0
142
0.0
142
0.0
142
0.0
142
0.0
142
1.0
179
     0
144
0.0208333333333333
144
0.0
144
0.0
144
0.0
144
0.0
144
0.0208333333333333
144
0.0
144
0.0
144
0.0
144
0.0
144
1.0
144
0.0
144
0.0
144
0.0
144
0.0
144
1.0
147
0.0208333333333333
147
0.0
147
0.0
147
0.0
147
0.0
147
0.0208333333333333
147
0.0
147
0.0
147
0.0
147
0.0
147
1.0
147
0.0
147
0.0
147
0.0
147
0.0
147
1.0
  0
MATERIAL
  5
35E
102
{ACAD_XDICTIONARY
360
35F
102
}
102
{ACAD_REACTORS
330
72
102
}
330
72
100
AcDbMaterial
  1
Global
 72
     0
 43
0.0208333333333333
 43
0.0
 43
0.0
 43
0.0
 43
0.0
 43
0.0208333333333333
 43
0.0
 43
0.0
 43
0.0
 43
0.0
 43
1.0
 43
0.0
 43
0.0
 43
0.0
 43
0.0
 43
1.0
 77
     0
 47
0.0208333333333333
 47
0.0
 47
0.0
 47
0.0
 47
0.0
 47
0.0208333333333333
 47
0.0
 47
0.0
 47
0.0
 47
0.0
 47
1.0
 47
0.0
 47
0.0
 47
0.0
 47
0.0
 47
1.0
171
     0
 49
0.0208333333333333
 49
0.0
 49
0.0
 49
0.0
 49
0.0
 49
0.0208333333333333
 49
0.0
 49
0.0
 49
0.0
 49
0.0
 49
1.0
 49
0.0
 49
0.0
 49
0.0
 49
0.0
 49
1.0
175
     0
142
0.0208333333333333
142
0.0
142
0.0
142
0.0
142
0.0
142
0.0208333333333333
142
0.0
142
0.0
142
0.0
142
0.0
142
1.0
142
0.0
142
0.0
142
0.0
142
0.0
142
1.0
179
     0
144
0.0208333333333333
144
0.0
144
0.0
144
0.0
144
0.0
144
0.0208333333333333
144
0.0
144
0.0
144
0.0
144
0.0
144
1.0
144
0.0
144
0.0
144
0.0
144
0.0
144
1.0
147
0.0208333333333333
147
0.0
147
0.0
147
0.0
147
0.0
147
0.0208333333333333
147
0.0
147
0.0
147
0.0
147
0.0
147
1.0
147
0.0
147
0.0
147
0.0
147
0.0
147
1.0
  0
MLEADERSTYLE
  5
394
102
{ACAD_REACTORS
330
393
102
}
330
393
100
AcDbMLeaderStyle
179
     2
170
     2
171
     1
172
     0
 90
        2
 40
0.0
 41
0.0
173
     1
 91
-1056964608
340
14
 92
       -2
290
     1
 42
0.09
291
     1
 43
0.36
  3
Standard
 44
0.18
300

342
11
174
     1
178
     6
175
     1
176
     0
 93
-1056964608
 45
0.18
292
     0
297
     0
 46
0.18
 94
-1056964608
 47
1.0
 49
1.0
140
1.0
293
     1
141
0.0
294
     1
177
     0
142
1.0
295
     1
296
     0
143
0.125
271
     0
272
     9
273
     9
298
     1
  0
MLINESTYLE
  5
18
102
{ACAD_REACTORS
330
17
102
}
330
17
100
AcDbMlineStyle
  2
STANDARD
 70
     0
  3

 62
   256
 51
90.0
 52
90.0
 71
     2
 49
0.5
 62
   256
  6
BYLAYER
 49
-0.5
 62
   256
  6
BYLAYER
  0
ACDBPLACEHOLDER
  5
F
102
{ACAD_REACTORS
330
E
102
}
330
E
  0
SCALE
  5
382
102
{ACAD_REACTORS
330
381
102
}
330
381
100
AcDbScale
 70
     0
300
1:1
140
1.0
141
1.0
290
     1
  0
SCALE
  5
383
102
{ACAD_REACTORS
330
381
102
}
330
381
100
AcDbScale
 70
     0
300
1/128" = 1'-0"
140
0.0078125
141
12.0
290
     0
  0
SCALE
  5
384
102
{ACAD_REACTORS
330
381
102
}
330
381
100
AcDbScale
 70
     0
300
1/64" = 1'-0"
140
0.015625
141
12.0
290
     0
  0
SCALE
  5
385
102
{ACAD_REACTORS
330
381
102
}
330
381
100
AcDbScale
 70
     0
300
1/32" = 1'-0"
140
0.03125
141
12.0
290
     0
  0
SCALE
  5
386
102
{ACAD_REACTORS
330
381
102
}
330
381
100
AcDbScale
 70
     0
300
1/16" = 1'-0"
140
0.0625
141
12.0
290
     0
  0
SCALE
  5
387
102
{ACAD_REACTORS
330
381
102
}
330
381
100
AcDbScale
 70
     0
300
3/32" = 1'-0"
140
0.09375
141
12.0
290
     0
  0
SCALE
  5
388
102
{ACAD_REACTORS
330
381
102
}
330
381
100
AcDbScale
 70
     0
300
1/8" = 1'-0"
140
0.125
141
12.0
290
     0
  0
SCALE
  5
389
102
{ACAD_REACTORS
330
381
102
}
330
381
100
AcDbScale
 70
     0
300
3/16" = 1'-0"
140
0.1875
141
12.0
290
     0
  0
SCALE
  5
38A
102
{ACAD_REACTORS
330
381
102
}
330
381
100
AcDbScale
 70
     0
300
1/4" = 1'-0"
140
0.25
141
12.0
290
     0
  0
SCALE
  5
38B
102
{ACAD_REACTORS
330
381
102
}
330
381
100
AcDbScale
 70
     0
300
3/8" = 1'-0"
140
0.375
141
12.0
290
     0
  0
SCALE
  5
38C
102
{ACAD_REACTORS
330
381
102
}
330
381
100
AcDbScale
 70
     0
300
1/2" = 1'-0"
140
0.5
141
12.0
290
     0
  0
SCALE
  5
38D
102
{ACAD_REACTORS
330
381
102
}
330
381
100
AcDbScale
 70
     0
300
3/4" = 1'-0"
140
0.75
141
12.0
290
     0
  0
SCALE
  5
38E
102
{ACAD_REACTORS
330
381
102
}
330
381
100
AcDbScale
 70
     0
300
1" = 1'-0"
140
1.0
141
12.0
290
     0
  0
SCALE
  5
38F
102
{ACAD_REACTORS
330
381
102
}
330
381
100
AcDbScale
 70
     0
300
1-1/2" = 1'-0"
140
1.5
141
12.0
290
     0
  0
SCALE
  5
390
102
{ACAD_REACTORS
330
381
102
}
330
381
100
AcDbScale
 70
     0
300
3" = 1'-0"
140
3.0
141
12.0
290
     0
  0
SCALE
  5
391
102
{ACAD_REACTORS
330
381
102
}
330
381
100
AcDbScale
 70
     0
300
6" = 1'-0"
140
6.0
141
12.0
290
     0
  0
SCALE
  5
392
102
{ACAD_REACTORS
330
381
102
}
330
381
100
AcDbScale
 70
     0
300
1'-0" = 1'-0"
140
12.0
141
12.0
290
     0
  0
ACDBSECTIONVIEWSTYLE
  5
396
102
{ACAD_XDICTIONARY
360
3BA
102
}
102
{ACAD_REACTORS
330
395
102
}
330
395
100
AcDbModelDocViewStyle
 70
     0
  3
Imperial24
290
     0
100
AcDbSectionViewStyle
 70
     0
 71
     0
 90
       78
 71
     1
340
11
 62
   256
 40
0.24
340
0
340
0
 62
   256
 40
0.24
300
I, O, Q, S, X, Z
 40
0.48
 90
        3
 40
0.18
 90
        1
 71
     2
340
16
 90
       25
 62
   256
340
16
 90
       50
 62
   256
 40
0.24
 40
0.0
 40
0.24
 71
     3
340
11
 62
   256
 40
0.24
 90
        1
 40
0.75
 90
        1
300
%<\AcVar ViewType \f "%tc1">% %<\AcVar ViewSectionStartId>%-%<\AcVar ViewSectionEndId>%\PSCALE %<\AcVar ViewScale \f "%sn">%
 71
     4
 62
   256
 62
   257
300
ANSI31
 40
1.0
 90
        0
290
     0
290
     0
 90
        6
 40
0.0
 40
1.570796326794896
 40
0.2617993877991494
 40
1.308996938995747
 40
-0.2617993877991494
 40
1.832595714594046
  0
TABLESTYLE
  5
380
102
{ACAD_XDICTIONARY
360
3B8
102
}
102
{ACAD_REACTORS
330
37F
102
}
330
37F
100
AcDbTableStyle
280
     0
  3
Standard
 70
     0
 71
     0
 40
0.06
 41
0.06
280
     0
281
     0
  7
Standard
140
0.18
170
     2
 62
     0
 63
     7
283
     0
 90
      512
 91
        0
  1

274
    -2
284
     1
 64
     0
275
    -2
285
     1
 65
     0
276
    -2
286
     1
 66
     0
277
    -2
287
     1
 67
     0
278
    -2
288
     1
 68
     0
279
    -2
289
     1
 69
     0
  7
Standard
140
0.25
170
     5
 62
     0
 63
     7
283
     0
 90
      512
 91
        0
  1

274
    -2
284
     1
 64
     0
275
    -2
285
     1
 65
     0
276
    -2
286
     1
 66
     0
277
    -2
287
     1
 67
     0
278
    -2
288
     1
 68
     0
279
    -2
289
     1
 69
     0
  7
Standard
140
0.18
170
     5
 62
     0
 63
     7
283
     0
 90
      512
 91
        0
  1

274
    -2
284
     1
 64
     0
275
    -2
285
     1
 65
     0
276
    -2
286
     1
 66
     0
277
    -2
287
     1
 67
     0
278
    -2
288
     1
 68
     0
279
    -2
289
     1
 69
     0
  0
VISUALSTYLE
  5
36C
102
{ACAD_REACTORS
330
366
102
}
330
366
100
AcDbVisualStyle
  2
2dWireframe
 70
     4
177
     3
291
     0
 70
    58
 90
        0
176
     1
 90
        2
176
     1
 90
        0
176
     1
 90
        0
176
     1
 40
0.6
176
     1
 40
30.0
176
     1
 62
     7
420
 16777215
176
     1
 90
        1
176
     1
 90
        4
176
     1
 62
     7
176
     1
 62
   257
176
     1
 90
        1
176
     1
 90
        1
176
     1
 40
1.0
176
     1
 90
        0
176
     1
 62
   257
176
     1
 40
1.0
176
     1
 90
        1
176
     1
 90
        6
176
     1
 90
        2
176
     1
 62
     7
176
     1
 90
        5
176
     1
 90
        0
176
     1
 90
        0
176
     1
290
     0
176
     1
 90
        1
176
     1
 40
0.0
176
     1
 90
        0
176
     1
290
     1
176
     1
290
     1
176
     1
290
     0
176
     1
290
     0
176
     1
290
     0
176
     1
290
     0
176
     1
290
     0
176
     1
290
     0
176
     1
290
     0
176
     1
 90
       50
176
     1
 40
0.0
176
     1
 40
1.0
176
     1
 90
        0
176
     1
 62
    18
420
        0
176
     1
 90
       50
176
     1
 90
        3
176
     1
 62
     5
420
      255
176
     1
290
     0
176
     1
 90
       50
176
     1
 90
       50
176
     1
 90
       50
176
     1
290
     0
176
     1
 90
       50
176
     1
 62
   256
176
     0
 40
1.0
176
     0
 90
        2
176
     1
  1
strokes_ogs.tif
176
     1
290
     0
176
     1
 40
1.0
176
     1
 40
1.0
176
     1
  0
VISUALSTYLE
  5
36B
102
{ACAD_REACTORS
330
366
102
}
330
366
100
AcDbVisualStyle
  2
Basic
 70
     7
177
     3
291
     1
 70
    58
 90
        1
176
     1
 90
        0
176
     1
 90
        1
176
     1
 90
        0
176
     1
 40
0.6
176
     1
 40
30.0
176
     1
 62
     7
420
 16777215
176
     1
 90
        0
176
     1
 90
        4
176
     1
 62
     7
176
     1
 62
   257
176
     1
 90
        1
176
     1
 90
        1
176
     1
 40
1.0
176
     1
 90
        8
176
     1
 62
     7
176
     1
 40
1.0
176
     1
 90
        1
176
     1
 90
        6
176
     1
 90
        2
176
     1
 62
     7
176
     1
 90
        5
176
     1
 90
        0
176
     1
 90
        0
176
     1
290
     0
176
     1
 90
        1
176
     1
 40
0.0
176
     1
 90
        0
176
     1
290
     0
176
     1
290
     1
176
     1
290
     1
176
     1
290
     0
176
     1
290
     0
176
     1
290
     0
176
     1
290
     0
176
     1
290
     0
176
     1
290
     0
176
     1
 90
       50
176
     1
 40
0.0
176
     1
 40
1.0
176
     1
 90
        0
176
     1
 62
    18
420
        0
176
     1
 90
       50
176
     1
 90
        3
176
     1
 62
     5
420
      255
176
     1
290
     0
176
     1
 90
       50
176
     1
 90
       50
176
     1
 90
       50
176
     1
290
     0
176
     1
 90
       50
176
     1
 62
   256
176
     0
 40
1.0
176
     0
 90
        2
176
     1
  1
strokes_ogs.tif
176
     1
290
     0
176
     1
 40
1.0
176
     1
 40
1.0
176
     1
  0
VISUALSTYLE
  5
372
102
{ACAD_REACTORS
330
366
102
}
330
366
100
AcDbVisualStyle
  2
Brighten
 70
    12
177
     3
291
     1
 70
    58
 90
        2
176
     1
 90
        2
176
     1
 90
        0
176
     1
 90
        0
176
     1
 40
0.6
176
     1
 40
30.0
176
     1
 62
     7
420
 16777215
176
     1
 90
        1
176
     1
 90
        4
176
     1
 62
     7
176
     1
 62
   257
176
     1
 90
        1
176
     1
 90
        1
176
     1
 40
1.0
176
     1
 90
        8
176
     1
 62
     7
176
     1
 40
1.0
176
     1
 90
        1
176
     1
 90
        6
176
     1
 90
        2
176
     1
 62
     7
176
     1
 90
        5
176
     1
 90
        0
176
     1
 90
        0
176
     1
290
     0
176
     1
 90
        1
176
     1
 40
50.0
176
     1
 90
        0
176
     1
290
     0
176
     1
290
     1
176
     1
290
     1
176
     1
290
     0
176
     1
290
     0
176
     1
290
     0
176
     1
290
     0
176
     1
290
     0
176
     1
290
     0
176
     1
 90
       50
176
     1
 40
0.0
176
     1
 40
1.0
176
     1
 90
        0
176
     1
 62
    18
420
        0
176
     1
 90
       50
176
     1
 90
        3
176
     1
 62
     5
420
      255
176
     1
290
     0
176
     1
 90
       50
176
     1
 90
       50
176
     1
 90
       50
176
     1
290
     0
176
     1
 90
       50
176
     1
 62
   256
176
     0
 40
1.0
176
     0
 90
        2
176
     1
  1
strokes_ogs.tif
176
     1
290
     0
176
     1
 40
1.0
176
     1
 40
1.0
176
     1
  0
VISUALSTYLE
  5
376
102
{ACAD_REACTORS
330
366
102
}
330
366
100
AcDbVisualStyle
  2
ColorChange
 70
    16
177
     3
291
     1
 70
    58
 90
        2
176
     1
 90
        2
176
     1
 90
        3
176
     1
 90
        0
176
     1
 40
0.6
176
     1
 40
30.0
176
     1
 62
     8
420
  8421504
176
     1
 90
        1
176
     1
 90
        4
176
     1
 62
     7
176
     1
 62
   257
176
     1
 90
        1
176
     1
 90
        1
176
     1
 40
1.0
176
     1
 90
        8
176
     1
 62
     8
420
  8421504
176
     1
 40
1.0
176
     1
 90
        1
176
     1
 90
        6
176
     1
 90
        2
176
     1
 62
     7
176
     1
 90
        5
176
     1
 90
        0
176
     1
 90
        0
176
     1
290
     0
176
     1
 90
        1
176
     1
 40
0.0
176
     1
 90
        0
176
     1
290
     0
176
     1
290
     1
176
     1
290
     1
176
     1
290
     0
176
     1
290
     0
176
     1
290
     0
176
     1
290
     0
176
     1
290
     0
176
     1
290
     0
176
     1
 90
       50
176
     1
 40
0.0
176
     1
 40
1.0
176
     1
 90
        0
176
     1
 62
    18
420
        0
176
     1
 90
       50
176
     1
 90
        3
176
     1
 62
     5
420
      255
176
     1
290
     0
176
     1
 90
       50
176
     1
 90
       50
176
     1
 90
       50
176
     1
290
     0
176
     1
 90
       50
176
     1
 62
   256
176
     0
 40
1.0
176
     0
 90
        2
176
     1
  1
strokes_ogs.tif
176
     1
290
     0
176
     1
 40
1.0
176
     1
 40
1.0
176
     1
  0
VISUALSTYLE
  5
36F
102
{ACAD_REACTORS
330
366
102
}
330
366
100
AcDbVisualStyle
  2
Conceptual
 70
     9
177
     3
291
     0
 70
    58
 90
        3
176
     1
 90
        2
176
     1
 90
        0
176
     1
 90
        0
176
     1
 40
0.6
176
     1
 40
30.0
176
     1
 62
     7
420
 16777215
176
     1
 90
        2
176
     1
 90
        2
176
     1
 62
     7
176
     1
 62
   257
176
     1
 90
        1
176
     1
 90
        1
176
     1
 40
179.0
176
     1
 90
        8
176
     1
 62
     7
176
     1
 40
1.0
176
     1
 90
        1
176
     1
 90
        6
176
     1
 90
        2
176
     1
 62
     7
176
     1
 90
        3
176
     1
 90
        0
176
     1
 90
        0
176
     1
290
     0
176
     1
 90
        1
176
     1
 40
0.0
176
     1
 90
        0
176
     1
290
     0
176
     1
290
     1
176
     1
290
     1
176
     1
290
     0
176
     1
290
     0
176
     1
290
     0
176
     1
290
     0
176
     1
290
     0
176
     1
290
     0
176
     1
 90
       50
176
     1
 40
0.0
176
     1
 40
1.0
176
     1
 90
        0
176
     1
 62
    18
420
        0
176
     1
 90
       50
176
     1
 90
        3
176
     1
 62
     5
420
      255
176
     1
290
     0
176
     1
 90
       50
176
     1
 90
       50
176
     1
 90
       50
176
     1
290
     0
176
     1
 90
       50
176
     1
 62
   256
176
     0
 40
1.0
176
     0
 90
        2
176
     1
  1
strokes_ogs.tif
176
     1
290
     0
176
     1
 40
1.0
176
     1
 40
1.0
176
     1
  0
VISUALSTYLE
  5
371
102
{ACAD_REACTORS
330
366
102
}
330
366
100
AcDbVisualStyle
  2
Dim
 70
    11
177
     3
291
     1
 70
    58
 90
        2
176
     1
 90
        2
176
     1
 90
        0
176
     1
 90
        0
176
     1
 40
0.6
176
     1
 40
30.0
176
     1
 62
     7
420
 16777215
176
     1
 90
        1
176
     1
 90
        4
176
     1
 62
     7
176
     1
 62
   257
176
     1
 90
        1
176
     1
 90
        1
176
     1
 40
1.0
176
     1
 90
        8
176
     1
 62
     7
176
     1
 40
1.0
176
     1
 90
        1
176
     1
 90
        6
176
     1
 90
        2
176
     1
 62
     7
176
     1
 90
        5
176
     1
 90
        0
176
     1
 90
        0
176
     1
290
     0
176
     1
 90
        1
176
     1
 40
-50.0
176
     1
 90
        0
176
     1
290
     0
176
     1
290
     1
176
     1
290
     1
176
     1
290
     0
176
     1
290
     0
176
     1
290
     0
176
     1
290
     0
176
     1
290
     0
176
     1
290
     0
176
     1
 90
       50
176
     1
 40
0.0
176
     1
 40
1.0
176
     1
 90
        0
176
     1
 62
    18
420
        0
176
     1
 90
       50
176
     1
 90
        3
176
     1
 62
     5
420
      255
176
     1
290
     0
176
     1
 90
       50
176
     1
 90
       50
176
     1
 90
       50
176
     1
290
     0
176
     1
 90
       50
176
     1
 62
   256
176
     0
 40
1.0
176
     0
 90
        2
176
     1
  1
strokes_ogs.tif
176
     1
290
     0
176
     1
 40
1.0
176
     1
 40
1.0
176
     1
  0
VISUALSTYLE
  5
37E
102
{ACAD_REACTORS
330
366
102
}
330
366
100
AcDbVisualStyle
  2
EdgeColorOff
 70
    22
177
     3
291
     1
 70
    58
 90
        2
176
     0
 90
        2
176
     0
 90
        0
176
     0
 90
        0
176
     0
 40
0.6
176
     0
 40
30.0
176
     0
 62
     7
420
 16777215
176
     0
 90
        1
176
     0
 90
        4
176
     0
 62
     7
176
     0
 62
   257
176
     0
 90
        1
176
     0
 90
        1
176
     0
 40
1.0
176
     0
 90
        8
176
     2
 62
     7
176
     0
 40
1.0
176
     0
 90
        1
176
     0
 90
        6
176
     0
 90
        2
176
     0
 62
     7
176
     0
 90
        5
176
     0
 90
        0
176
     0
 90
        0
176
     0
290
     0
176
     0
 90
        1
176
     0
 40
0.0
176
     0
 90
        0
176
     0
290
     0
176
     0
290
     1
176
     0
290
     1
176
     0
290
     0
176
     0
290
     0
176
     0
290
     0
176
     0
290
     0
176
     0
290
     0
176
     0
290
     0
176
     0
 90
       50
176
     0
 40
0.0
176
     0
 40
1.0
176
     0
 90
        0
176
     0
 62
    18
420
        0
176
     0
 90
       50
176
     0
 90
        3
176
     0
 62
     5
420
      255
176
     0
290
     0
176
     0
 90
       50
176
     0
 90
       50
176
     0
 90
       50
176
     0
290
     0
176
     0
 90
       50
176
     0
 62
   256
176
     0
 40
1.0
176
     0
 90
        2
176
     0
  1
strokes_ogs.tif
176
     0
290
     0
176
     0
 40
1.0
176
     0
 40
1.0
176
     0
  0
VISUALSTYLE
  5
375
102
{ACAD_REACTORS
330
366
102
}
330
366
100
AcDbVisualStyle
  2
Facepattern
 70
    15
177
     3
291
     1
 70
    58
 90
        2
176
     1
 90
        2
176
     1
 90
        0
176
     1
 90
        0
176
     1
 40
0.6
176
     1
 40
30.0
176
     1
 62
     7
420
 16777215
176
     1
 90
        1
176
     1
 90
        4
176
     1
 62
     7
176
     1
 62
   257
176
     1
 90
        1
176
     1
 90
        1
176
     1
 40
1.0
176
     1
 90
        8
176
     1
 62
     7
176
     1
 40
1.0
176
     1
 90
        1
176
     1
 90
        6
176
     1
 90
        2
176
     1
 62
     7
176
     1
 90
        5
176
     1
 90
        0
176
     1
 90
        0
176
     1
290
     0
176
     1
 90
        1
176
     1
 40
0.0
176
     1
 90
        0
176
     1
290
     0
176
     1
290
     1
176
     1
290
     1
176
     1
290
     0
176
     1
290
     0
176
     1
290
     0
176
     1
290
     0
176
     1
290
     0
176
     1
290
     0
176
     1
 90
       50
176
     1
 40
0.0
176
     1
 40
1.0
176
     1
 90
        0
176
     1
 62
    18
420
        0
176
     1
 90
       50
176
     1
 90
        3
176
     1
 62
     5
420
      255
176
     1
290
     0
176
     1
 90
       50
176
     1
 90
       50
176
     1
 90
       50
176
     1
290
     0
176
     1
 90
       50
176
     1
 62
   256
176
     0
 40
1.0
176
     0
 90
        2
176
     1
  1
strokes_ogs.tif
176
     1
290
     0
176
     1
 40
1.0
176
     1
 40
1.0
176
     1
  0
VISUALSTYLE
  5
367
102
{ACAD_REACTORS
330
366
102
}
330
366
100
AcDbVisualStyle
  2
Flat
 70
     0
177
     3
291
     1
 70
    58
 90
        2
176
     1
 90
        1
176
     1
 90
        1
176
     1
 90
        2
176
     1
 40
0.6
176
     1
 40
30.0
176
     1
 62
     7
420
 16777215
176
     1
 90
        0
176
     1
 90
        0
176
     1
 62
     7
176
     1
 62
   257
176
     1
 90
        1
176
     1
 90
        1
176
     1
 40
1.0
176
     1
 90
        8
176
     1
 62
     7
176
     1
 40
1.0
176
     1
 90
        1
176
     1
 90
        6
176
     1
 90
        2
176
     1
 62
     7
176
     1
 90
        5
176
     1
 90
        0
176
     1
 90
        0
176
     1
290
     0
176
     1
 90
       13
176
     1
 40
0.0
176
     1
 90
        0
176
     1
290
     0
176
     1
290
     1
176
     1
290
     1
176
     1
290
     0
176
     1
290
     0
176
     1
290
     0
176
     1
290
     0
176
     1
290
     0
176
     1
290
     0
176
     1
 90
       50
176
     1
 40
0.0
176
     1
 40
1.0
176
     1
 90
        0
176
     1
 62
    18
420
        0
176
     1
 90
       50
176
     1
 90
        3
176
     1
 62
     5
420
      255
176
     1
290
     0
176
     1
 90
       50
176
     1
 90
       50
176
     1
 90
       50
176
     1
290
     0
176
     1
 90
       50
176
     1
 62
   256
176
     0
 40
1.0
176
     0
 90
        2
176
     1
  1
strokes_ogs.tif
176
     1
290
     0
176
     1
 40
1.0
176
     1
 40
1.0
176
     1
  0
VISUALSTYLE
  5
368
102
{ACAD_REACTORS
330
366
102
}
330
366
100
AcDbVisualStyle
  2
FlatWithEdges
 70
     1
177
     3
291
     1
 70
    58
 90
        2
176
     1
 90
        1
176
     1
 90
        1
176
     1
 90
        2
176
     1
 40
0.6
176
     1
 40
30.0
176
     1
 62
     7
420
 16777215
176
     1
 90
        1
176
     1
 90
        0
176
     1
 62
     7
176
     1
 62
   257
176
     1
 90
        1
176
     1
 90
        1
176
     1
 40
1.0
176
     1
 90
        0
176
     1
 62
   257
176
     1
 40
1.0
176
     1
 90
        1
176
     1
 90
        6
176
     1
 90
        2
176
     1
 62
     7
176
     1
 90
        5
176
     1
 90
        0
176
     1
 90
        0
176
     1
290
     0
176
     1
 90
       13
176
     1
 40
0.0
176
     1
 90
        0
176
     1
290
     0
176
     1
290
     1
176
     1
290
     1
176
     1
290
     0
176
     1
290
     0
176
     1
290
     0
176
     1
290
     0
176
     1
290
     0
176
     1
290
     0
176
     1
 90
       50
176
     1
 40
0.0
176
     1
 40
1.0
176
     1
 90
        0
176
     1
 62
    18
420
        0
176
     1
 90
       50
176
     1
 90
        3
176
     1
 62
     5
420
      255
176
     1
290
     0
176
     1
 90
       50
176
     1
 90
       50
176
     1
 90
       50
176
     1
290
     0
176
     1
 90
       50
176
     1
 62
   256
176
     0
 40
1.0
176
     0
 90
        2
176
     1
  1
strokes_ogs.tif
176
     1
290
     0
176
     1
 40
1.0
176
     1
 40
1.0
176
     1
  0
VISUALSTYLE
  5
369
102
{ACAD_REACTORS
330
366
102
}
330
366
100
AcDbVisualStyle
  2
Gouraud
 70
     2
177
     3
291
     1
 70
    58
 90
        2
176
     1
 90
        2
176
     1
 90
        1
176
     1
 90
        2
176
     1
 40
0.6
176
     1
 40
30.0
176
     1
 62
     7
420
 16777215
176
     1
 90
        0
176
     1
 90
        0
176
     1
 62
     7
176
     1
 62
   257
176
     1
 90
        1
176
     1
 90
        1
176
     1
 40
1.0
176
     1
 90
        0
176
     1
 62
     7
176
     1
 40
1.0
176
     1
 90
        1
176
     1
 90
        6
176
     1
 90
        2
176
     1
 62
     7
176
     1
 90
        5
176
     1
 90
        0
176
     1
 90
        0
176
     1
290
     0
176
     1
 90
       13
176
     1
 40
0.0
176
     1
 90
        0
176
     1
290
     0
176
     1
290
     1
176
     1
290
     1
176
     1
290
     0
176
     1
290
     0
176
     1
290
     0
176
     1
290
     0
176
     1
290
     0
176
     1
290
     0
176
     1
 90
       50
176
     1
 40
0.0
176
     1
 40
1.0
176
     1
 90
        0
176
     1
 62
    18
420
        0
176
     1
 90
       50
176
     1
 90
        3
176
     1
 62
     5
420
      255
176
     1
290
     0
176
     1
 90
       50
176
     1
 90
       50
176
     1
 90
       50
176
     1
290
     0
176
     1
 90
       50
176
     1
 62
   256
176
     0
 40
1.0
176
     0
 90
        2
176
     1
  1
strokes_ogs.tif
176
     1
290
     0
176
     1
 40
1.0
176
     1
 40
1.0
176
     1
  0
VISUALSTYLE
  5
36A
102
{ACAD_REACTORS
330
366
102
}
330
366
100
AcDbVisualStyle
  2
GouraudWithEdges
 70
     3
177
     3
291
     1
 70
    58
 90
        2
176
     1
 90
        2
176
     1
 90
        1
176
     1
 90
        2
176
     1
 40
0.6
176
     1
 40
30.0
176
     1
 62
     7
420
 16777215
176
     1
 90
        1
176
     1
 90
        0
176
     1
 62
     7
176
     1
 62
   257
176
     1
 90
        1
176
     1
 90
        1
176
     1
 40
1.0
176
     1
 90
        0
176
     1
 62
   257
176
     1
 40
1.0
176
     1
 90
        1
176
     1
 90
        6
176
     1
 90
        2
176
     1
 62
     7
176
     1
 90
        5
176
     1
 90
        0
176
     1
 90
        0
176
     1
290
     0
176
     1
 90
       13
176
     1
 40
0.0
176
     1
 90
        0
176
     1
290
     0
176
     1
290
     1
176
     1
290
     1
176
     1
290
     0
176
     1
290
     0
176
     1
290
     0
176
     1
290
     0
176
     1
290
     0
176
     1
290
     0
176
     1
 90
       50
176
     1
 40
0.0
176
     1
 40
1.0
176
     1
 90
        0
176
     1
 62
    18
420
        0
176
     1
 90
       50
176
     1
 90
        3
176
     1
 62
     5
420
      255
176
     1
290
     0
176
     1
 90
       50
176
     1
 90
       50
176
     1
 90
       50
176
     1
290
     0
176
     1
 90
       50
176
     1
 62
   256
176
     0
 40
1.0
176
     0
 90
        2
176
     1
  1
strokes_ogs.tif
176
     1
290
     0
176
     1
 40
1.0
176
     1
 40
1.0
176
     1
  0
VISUALSTYLE
  5
36E
102
{ACAD_REACTORS
330
366
102
}
330
366
100
AcDbVisualStyle
  2
Hidden
 70
     6
177
     3
291
     0
 70
    58
 90
        1
176
     1
 90
        2
176
     1
 90
        2
176
     1
 90
        0
176
     1
 40
0.6
176
     1
 40
30.0
176
     1
 62
     7
420
 16777215
176
     1
 90
        2
176
     1
 90
        2
176
     1
 62
     7
176
     1
 62
   257
176
     1
 90
        2
176
     1
 90
        1
176
     1
 40
40.0
176
     1
 90
        0
176
     1
 62
   257
176
     1
 40
1.0
176
     1
 90
        1
176
     1
 90
        6
176
     1
 90
        2
176
     1
 62
     7
176
     1
 90
        3
176
     1
 90
        0
176
     1
 90
        0
176
     1
290
     0
176
     1
 90
        1
176
     1
 40
0.0
176
     1
 90
        0
176
     1
290
     0
176
     1
290
     1
176
     1
290
     1
176
     1
290
     0
176
     1
290
     0
176
     1
290
     0
176
     1
290
     0
176
     1
290
     0
176
     1
290
     0
176
     1
 90
       50
176
     1
 40
0.0
176
     1
 40
1.0
176
     1
 90
        0
176
     1
 62
    18
420
        0
176
     1
 90
       50
176
     1
 90
        3
176
     1
 62
     5
420
      255
176
     1
290
     0
176
     1
 90
       50
176
     1
 90
       50
176
     1
 90
       50
176
     1
290
     0
176
     1
 90
       50
176
     1
 62
   256
176
     0
 40
1.0
176
     0
 90
        2
176
     1
  1
strokes_ogs.tif
176
     1
290
     0
176
     1
 40
1.0
176
     1
 40
1.0
176
     1
  0
VISUALSTYLE
  5
37C
102
{ACAD_REACTORS
330
366
102
}
330
366
100
AcDbVisualStyle
  2
JitterOff
 70
    20
177
     3
291
     1
 70
    58
 90
        2
176
     0
 90
        2
176
     0
 90
        0
176
     0
 90
        0
176
     0
 40
0.6
176
     0
 40
30.0
176
     0
 62
     7
420
 16777215
176
     0
 90
        1
176
     0
 90
        4
176
     0
 62
     7
176
     0
 62
   257
176
     0
 90
        1
176
     0
 90
        1
176
     0
 40
1.0
176
     0
 90
       10
176
     2
 62
     7
176
     0
 40
1.0
176
     0
 90
        1
176
     0
 90
        6
176
     0
 90
        2
176
     0
 62
     7
176
     0
 90
        5
176
     0
 90
        0
176
     0
 90
        0
176
     0
290
     0
176
     0
 90
        1
176
     0
 40
0.0
176
     0
 90
        0
176
     0
290
     0
176
     0
290
     1
176
     0
290
     1
176
     0
290
     0
176
     0
290
     0
176
     0
290
     0
176
     0
290
     0
176
     0
290
     0
176
     0
290
     0
176
     0
 90
       50
176
     0
 40
0.0
176
     0
 40
1.0
176
     0
 90
        0
176
     0
 62
    18
420
        0
176
     0
 90
       50
176
     0
 90
        3
176
     0
 62
     5
420
      255
176
     0
290
     0
176
     0
 90
       50
176
     0
 90
       50
176
     0
 90
       50
176
     0
290
     0
176
     0
 90
       50
176
     0
 62
   256
176
     0
 40
1.0
176
     0
 90
        2
176
     0
  1
strokes_ogs.tif
176
     0
290
     0
176
     0
 40
1.0
176
     0
 40
1.0
176
     0
  0
VISUALSTYLE
  5
374
102
{ACAD_REACTORS
330
366
102
}
330
366
100
AcDbVisualStyle
  2
Linepattern
 70
    14
177
     3
291
     1
 70
    58
 90
        2
176
     1
 90
        2
176
     1
 90
        0
176
     1
 90
        0
176
     1
 40
0.6
176
     1
 40
30.0
176
     1
 62
     7
420
 16777215
176
     1
 90
        1
176
     1
 90
        4
176
     1
 62
     7
176
     1
 62
   257
176
     1
 90
        7
176
     1
 90
        7
176
     1
 40
1.0
176
     1
 90
        8
176
     1
 62
     7
176
     1
 40
1.0
176
     1
 90
        1
176
     1
 90
        6
176
     1
 90
        2
176
     1
 62
     7
176
     1
 90
        5
176
     1
 90
        0
176
     1
 90
        0
176
     1
290
     0
176
     1
 90
        1
176
     1
 40
0.0
176
     1
 90
        0
176
     1
290
     0
176
     1
290
     1
176
     1
290
     1
176
     1
290
     0
176
     1
290
     0
176
     1
290
     0
176
     1
290
     0
176
     1
290
     0
176
     1
290
     0
176
     1
 90
       50
176
     1
 40
0.0
176
     1
 40
1.0
176
     1
 90
        0
176
     1
 62
    18
420
        0
176
     1
 90
       50
176
     1
 90
        3
176
     1
 62
     5
420
      255
176
     1
290
     0
176
     1
 90
       50
176
     1
 90
       50
176
     1
 90
       50
176
     1
290
     0
176
     1
 90
       50
176
     1
 62
   256
176
     0
 40
1.0
176
     0
 90
        2
176
     1
  1
strokes_ogs.tif
176
     1
290
     0
176
     1
 40
1.0
176
     1
 40
1.0
176
     1
  0
VISUALSTYLE
  5
37D
102
{ACAD_REACTORS
330
366
102
}
330
366
100
AcDbVisualStyle
  2
OverhangOff
 70
    21
177
     3
291
     1
 70
    58
 90
        2
176
     0
 90
        2
176
     0
 90
        0
176
     0
 90
        0
176
     0
 40
0.6
176
     0
 40
30.0
176
     0
 62
     7
420
 16777215
176
     0
 90
        1
176
     0
 90
        4
176
     0
 62
     7
176
     0
 62
   257
176
     0
 90
        1
176
     0
 90
        1
176
     0
 40
1.0
176
     0
 90
        9
176
     2
 62
     7
176
     0
 40
1.0
176
     0
 90
        1
176
     0
 90
        6
176
     0
 90
        2
176
     0
 62
     7
176
     0
 90
        5
176
     0
 90
        0
176
     0
 90
        0
176
     0
290
     0
176
     0
 90
        1
176
     0
 40
0.0
176
     0
 90
        0
176
     0
290
     0
176
     0
290
     1
176
     0
290
     1
176
     0
290
     0
176
     0
290
     0
176
     0
290
     0
176
     0
290
     0
176
     0
290
     0
176
     0
290
     0
176
     0
 90
       50
176
     0
 40
0.0
176
     0
 40
1.0
176
     0
 90
        0
176
     0
 62
    18
420
        0
176
     0
 90
       50
176
     0
 90
        3
176
     0
 62
     5
420
      255
176
     0
290
     0
176
     0
 90
       50
176
     0
 90
       50
176
     0
 90
       50
176
     0
290
     0
176
     0
 90
       50
176
     0
 62
   256
176
     0
 40
1.0
176
     0
 90
        2
176
     0
  1
strokes_ogs.tif
176
     0
290
     0
176
     0
 40
1.0
176
     0
 40
1.0
176
     0
  0
VISUALSTYLE
  5
370
102
{ACAD_REACTORS
330
366
102
}
330
366
100
AcDbVisualStyle
  2
Realistic
 70
     8
177
     3
291
     0
 70
    58
 90
        2
176
     1
 90
        3
176
     1
 90
        0
176
     1
 90
        2
176
     1
 40
0.6
176
     1
 40
30.0
176
     1
 62
     7
420
 16777215
176
     1
 90
        0
176
     1
 90
        0
176
     1
 62
     7
176
     1
 62
   257
176
     1
 90
        1
176
     1
 90
        1
176
     1
 40
1.0
176
     1
 90
        8
176
     1
 62
   257
176
     1
 40
1.0
176
     1
 90
        1
176
     1
 90
        6
176
     1
 90
        2
176
     1
 62
     7
176
     1
 90
        3
176
     1
 90
        0
176
     1
 90
        0
176
     1
290
     0
176
     1
 90
       13
176
     1
 40
0.0
176
     1
 90
        0
176
     1
290
     0
176
     1
290
     1
176
     1
290
     1
176
     1
290
     0
176
     1
290
     0
176
     1
290
     0
176
     1
290
     0
176
     1
290
     0
176
     1
290
     0
176
     1
 90
       50
176
     1
 40
0.0
176
     1
 40
1.0
176
     1
 90
        0
176
     1
 62
    18
420
        0
176
     1
 90
       50
176
     1
 90
        3
176
     1
 62
     5
420
      255
176
     1
290
     0
176
     1
 90
       50
176
     1
 90
       50
176
     1
 90
       50
176
     1
290
     0
176
     1
 90
       50
176
     1
 62
   256
176
     0
 40
1.0
176
     0
 90
        2
176
     1
  1
strokes_ogs.tif
176
     1
290
     0
176
     1
 40
1.0
176
     1
 40
1.0
176
     1
  0
VISUALSTYLE
  5
37B
102
{ACAD_REACTORS
330
366
102
}
330
366
100
AcDbVisualStyle
  2
Shaded
 70
    27
177
     3
291
     0
 70
    58
 90
        2
176
     1
 90
        2
176
     1
 90
        1
176
     1
 90
        2
176
     1
 40
0.6
176
     1
 40
30.0
176
     1
 62
     7
420
 16777215
176
     1
 90
        0
176
     1
 90
        4
176
     1
 62
     7
176
     1
 62
   257
176
     1
 90
        1
176
     1
 90
        1
176
     1
 40
1.0
176
     1
 90
        8
176
     1
 62
   257
176
     1
 40
1.0
176
     1
 90
        1
176
     1
 90
        6
176
     1
 90
        2
176
     1
 62
     8
420
  7895160
176
     1
 90
        3
176
     1
 90
        0
176
     1
 90
        0
176
     1
290
     0
176
     1
 90
        5
176
     1
 40
0.0
176
     1
 90
        0
176
     1
290
     0
176
     1
290
     1
176
     1
290
     1
176
     1
290
     0
176
     1
290
     0
176
     1
290
     0
176
     1
290
     0
176
     1
290
     0
176
     1
290
     0
176
     1
 90
       50
176
     1
 40
0.0
176
     1
 40
1.0
176
     1
 90
        0
176
     1
 62
    18
420
        0
176
     1
 90
       50
176
     1
 90
        3
176
     1
 62
     5
420
      255
176
     1
290
     0
176
     1
 90
       50
176
     1
 90
       50
176
     1
 90
       50
176
     1
290
     0
176
     1
 90
       50
176
     1
 62
   256
176
     0
 40
1.0
176
     0
 90
        2
176
     1
  1
strokes_ogs.tif
176
     1
290
     0
176
     1
 40
1.0
176
     1
 40
1.0
176
     1
  0
VISUALSTYLE
  5
37A
102
{ACAD_REACTORS
330
366
102
}
330
366
100
AcDbVisualStyle
  2
Shaded with edges
 70
    26
177
     3
291
     0
 70
    58
 90
        2
176
     1
 90
        2
176
     1
 90
        1
176
     1
 90
        2
176
     1
 40
0.6
176
     1
 40
30.0
176
     1
 62
     7
420
 16777215
176
     1
 90
        1
176
     1
 90
        2
176
     1
 62
     7
176
     1
 62
   257
176
     1
 90
        2
176
     1
 90
        1
176
     1
 40
1.0
176
     1
 90
        8
176
     1
 62
   257
176
     1
 40
1.0
176
     1
 90
        1
176
     1
 90
        6
176
     1
 90
        2
176
     1
 62
     7
176
     1
 90
        3
176
     1
 90
        0
176
     1
 90
        0
176
     1
290
     0
176
     1
 90
        5
176
     1
 40
0.0
176
     1
 90
        0
176
     1
290
     0
176
     1
290
     1
176
     1
290
     1
176
     1
290
     0
176
     1
290
     0
176
     1
290
     0
176
     1
290
     0
176
     1
290
     0
176
     1
290
     0
176
     1
 90
       50
176
     1
 40
0.0
176
     1
 40
1.0
176
     1
 90
        0
176
     1
 62
    18
420
        0
176
     1
 90
       50
176
     1
 90
        3
176
     1
 62
     5
420
      255
176
     1
290
     0
176
     1
 90
       50
176
     1
 90
       50
176
     1
 90
       50
176
     1
290
     0
176
     1
 90
       50
176
     1
 62
   256
176
     0
 40
1.0
176
     0
 90
        2
176
     1
  1
strokes_ogs.tif
176
     1
290
     0
176
     1
 40
1.0
176
     1
 40
1.0
176
     1
  0
VISUALSTYLE
  5
377
102
{ACAD_REACTORS
330
366
102
}
330
366
100
AcDbVisualStyle
  2
Shades of Gray
 70
    23
177
     3
291
     0
 70
    58
 90
        2
176
     1
 90
        2
176
     1
 90
        3
176
     1
 90
        0
176
     1
 40
0.6
176
     1
 40
30.0
176
     1
 62
     7
420
 16777215
176
     1
 90
        2
176
     1
 90
        2
176
     1
 62
     7
176
     1
 62
     7
176
     1
 90
        1
176
     1
 90
        1
176
     1
 40
40.0
176
     1
 90
        8
176
     1
 62
     7
176
     1
 40
1.0
176
     1
 90
        1
176
     1
 90
        6
176
     1
 90
        2
176
     1
 62
     7
176
     1
 90
        3
176
     1
 90
        0
176
     1
 90
        0
176
     1
290
     0
176
     1
 90
        1
176
     1
 40
0.0
176
     1
 90
        0
176
     1
290
     0
176
     1
290
     1
176
     1
290
     1
176
     1
290
     0
176
     1
290
     0
176
     1
290
     0
176
     1
290
     0
176
     1
290
     0
176
     1
290
     0
176
     1
 90
       50
176
     1
 40
0.0
176
     1
 40
1.0
176
     1
 90
        0
176
     1
 62
    18
420
        0
176
     1
 90
       50
176
     1
 90
        3
176
     1
 62
     5
420
      255
176
     1
290
     0
176
     1
 90
       50
176
     1
 90
       50
176
     1
 90
       50
176
     1
290
     0
176
     1
 90
       50
176
     1
 62
   256
176
     0
 40
1.0
176
     0
 90
        2
176
     1
  1
strokes_ogs.tif
176
     1
290
     0
176
     1
 40
1.0
176
     1
 40
1.0
176
     1
  0
VISUALSTYLE
  5
378
102
{ACAD_REACTORS
330
366
102
}
330
366
100
AcDbVisualStyle
  2
Sketchy
 70
    24
177
     3
291
     0
 70
    58
 90
        1
176
     1
 90
        2
176
     1
 90
        2
176
     1
 90
        0
176
     1
 40
0.6
176
     1
 40
30.0
176
     1
 62
     7
420
 16777215
176
     1
 90
        2
176
     1
 90
        2
176
     1
 62
     7
176
     1
 62
     7
176
     1
 90
        1
176
     1
 90
        1
176
     1
 40
40.0
176
     1
 90
       11
176
     1
 62
     7
176
     1
 40
1.0
176
     1
 90
        1
176
     1
 90
        6
176
     1
 90
        2
176
     1
 62
     7
176
     1
 90
        6
176
     1
 90
        0
176
     1
 90
        0
176
     1
290
     0
176
     1
 90
        1
176
     1
 40
0.0
176
     1
 90
        0
176
     1
290
     0
176
     1
290
     1
176
     1
290
     1
176
     1
290
     0
176
     1
290
     0
176
     1
290
     0
176
     1
290
     0
176
     1
290
     0
176
     1
290
     0
176
     1
 90
       50
176
     1
 40
0.0
176
     1
 40
1.0
176
     1
 90
        0
176
     1
 62
    18
420
        0
176
     1
 90
       50
176
     1
 90
        3
176
     1
 62
     5
420
      255
176
     1
290
     0
176
     1
 90
       50
176
     1
 90
       50
176
     1
 90
       50
176
     1
290
     0
176
     1
 90
       50
176
     1
 62
   256
176
     0
 40
1.0
176
     0
 90
        2
176
     1
  1
strokes_ogs.tif
176
     1
290
     0
176
     1
 40
1.0
176
     1
 40
1.0
176
     1
  0
VISUALSTYLE
  5
373
102
{ACAD_REACTORS
330
366
102
}
330
366
100
AcDbVisualStyle
  2
Thicken
 70
    13
177
     3
291
     1
 70
    58
 90
        2
176
     1
 90
        2
176
     1
 90
        0
176
     1
 90
        0
176
     1
 40
0.6
176
     1
 40
30.0
176
     1
 62
     7
420
 16777215
176
     1
 90
        1
176
     1
 90
        4
176
     1
 62
     7
176
     1
 62
   257
176
     1
 90
        1
176
     1
 90
        1
176
     1
 40
1.0
176
     1
 90
       12
176
     1
 62
     7
176
     1
 40
1.0
176
     1
 90
        1
176
     1
 90
        6
176
     1
 90
        2
176
     1
 62
     7
176
     1
 90
        5
176
     1
 90
        0
176
     1
 90
        0
176
     1
290
     0
176
     1
 90
        1
176
     1
 40
0.0
176
     1
 90
        0
176
     1
290
     0
176
     1
290
     1
176
     1
290
     1
176
     1
290
     0
176
     1
290
     0
176
     1
290
     0
176
     1
290
     0
176
     1
290
     0
176
     1
290
     0
176
     1
 90
       50
176
     1
 40
0.0
176
     1
 40
1.0
176
     1
 90
        0
176
     1
 62
    18
420
        0
176
     1
 90
       50
176
     1
 90
        3
176
     1
 62
     5
420
      255
176
     1
290
     0
176
     1
 90
       50
176
     1
 90
       50
176
     1
 90
       50
176
     1
290
     0
176
     1
 90
       50
176
     1
 62
   256
176
     0
 40
1.0
176
     0
 90
        2
176
     1
  1
strokes_ogs.tif
176
     1
290
     0
176
     1
 40
1.0
176
     1
 40
1.0
176
     1
  0
VISUALSTYLE
  5
36D
102
{ACAD_REACTORS
330
366
102
}
330
366
100
AcDbVisualStyle
  2
Wireframe
 70
     5
177
     3
291
     0
 70
    58
 90
        0
176
     1
 90
        2
176
     1
 90
        0
176
     1
 90
        0
176
     1
 40
0.6
176
     1
 40
30.0
176
     1
 62
     7
420
 16777215
176
     1
 90
        1
176
     1
 90
        4
176
     1
 62
     7
176
     1
 62
   257
176
     1
 90
        1
176
     1
 90
        1
176
     1
 40
1.0
176
     1
 90
        0
176
     1
 62
   257
176
     1
 40
1.0
176
     1
 90
        1
176
     1
 90
        6
176
     1
 90
        2
176
     1
 62
     7
176
     1
 90
        3
176
     1
 90
        0
176
     1
 90
        0
176
     1
290
     0
176
     1
 90
        1
176
     1
 40
0.0
176
     1
 90
        0
176
     1
290
     0
176
     1
290
     1
176
     1
290
     1
176
     1
290
     0
176
     1
290
     0
176
     1
290
     0
176
     1
290
     0
176
     1
290
     0
176
     1
290
     0
176
     1
 90
       50
176
     1
 40
0.0
176
     1
 40
1.0
176
     1
 90
        0
176
     1
 62
    18
420
        0
176
     1
 90
       50
176
     1
 90
        3
176
     1
 62
     5
420
      255
176
     1
290
     0
176
     1
 90
       50
176
     1
 90
       50
176
     1
 90
       50
176
     1
290
     0
176
     1
 90
       50
176
     1
 62
   256
176
     0
 40
1.0
176
     0
 90
        2
176
     1
  1
strokes_ogs.tif
176
     1
290
     0
176
     1
 40
1.0
176
     1
 40
1.0
176
     1
  0
VISUALSTYLE
  5
379
102
{ACAD_REACTORS
330
366
102
}
330
366
100
AcDbVisualStyle
  2
X-Ray
 70
    25
177
     3
291
     0
 70
    58
 90
        2
176
     1
 90
        2
176
     1
 90
        1
176
     1
 90
        1
176
     1
 40
0.5
176
     1
 40
30.0
176
     1
 62
     7
420
 16777215
176
     1
 90
        1
176
     1
 90
        0
176
     1
 62
     7
176
     1
 62
   257
176
     1
 90
        1
176
     1
 90
        1
176
     1
 40
1.0
176
     1
 90
        8
176
     1
 62
     7
176
     1
 40
1.0
176
     1
 90
        1
176
     1
 90
        6
176
     1
 90
        2
176
     1
 62
     7
176
     1
 90
        3
176
     1
 90
        0
176
     1
 90
        0
176
     1
290
     0
176
     1
 90
       13
176
     1
 40
0.0
176
     1
 90
        0
176
     1
290
     0
176
     1
290
     1
176
     1
290
     1
176
     1
290
     0
176
     1
290
     0
176
     1
290
     0
176
     1
290
     0
176
     1
290
     0
176
     1
290
     0
176
     1
 90
       50
176
     1
 40
0.0
176
     1
 40
1.0
176
     1
 90
        0
176
     1
 62
    18
420
        0
176
     1
 90
       50
176
     1
 90
        3
176
     1
 62
     5
420
      255
176
     1
290
     0
176
     1
 90
       50
176
     1
 90
       50
176
     1
 90
       50
176
     1
290
     0
176
     1
 90
       50
176
     1
 62
   256
176
     0
 40
1.0
176
     0
 90
        2
176
     1
  1
strokes_ogs.tif
176
     1
290
     0
176
     1
 40
1.0
176
     1
 40
1.0
176
     1
  0
DICTIONARYVAR
  5
3B4
102
{ACAD_REACTORS
330
66
102
}
330
66
100
DictionaryVariables
280
     0
  1
1:1
  0
DICTIONARYVAR
  5
3B0
102
{ACAD_REACTORS
330
66
102
}
330
66
100
DictionaryVariables
280
     0
  1
STANDARD
  0
DICTIONARYVAR
  5
3AF
102
{ACAD_REACTORS
330
66
102
}
330
66
100
DictionaryVariables
280
     0
  1
STANDARD
  0
DICTIONARYVAR
  5
3B1
102
{ACAD_REACTORS
330
66
102
}
330
66
100
DictionaryVariables
280
     0
  1
Imperial24
  0
DICTIONARYVAR
  5
3B2
102
{ACAD_REACTORS
330
66
102
}
330
66
100
DictionaryVariables
280
     0
  1
Imperial24
  0
DICTIONARYVAR
  5
67
102
{ACAD_REACTORS
330
66
102
}
330
66
100
DictionaryVariables
280
     0
  1
2
  0
DICTIONARYVAR
  5
6B
102
{ACAD_REACTORS
330
66
102
}
330
66
100
DictionaryVariables
280
     0
  1
1
  0
DICTIONARYVAR
  5
3B6
102
{ACAD_REACTORS
330
66
102
}
330
66
100
DictionaryVariables
280
     0
  1
1
  0
DICTIONARYVAR
  5
3B7
102
{ACAD_REACTORS
330
66
102
}
330
66
100
DictionaryVariables
280
     0
  1
15
  0
DICTIONARYVAR
  5
3B5
102
{ACAD_REACTORS
330
66
102
}
330
66
100
DictionaryVariables
280
     0
  1
0
  0
DICTIONARYVAR
  5
3B3
102
{ACAD_REACTORS
330
66
102
}
330
66
100
DictionaryVariables
280
     0
  1
0
  0
DICTIONARY
  5
3BC
330
398
100
AcDbDictionary
280
     1
281
     1
  3
ACAD_XREC_ROUNDTRIP
360
3BD
  0
DICTIONARY
  5
357
330
356
100
AcDbDictionary
280
     1
281
     1
  3
BUMPTILE
360
359
  3
DIFFUSETILE
360
358
  3
OPACITYTILE
360
35C
  3
REFLECTIONTILE
360
35B
  3
REFRACTIONTILE
360
35D
  3
SPECULARTILE
360
35A
  0
DICTIONARY
  5
34F
330
34E
100
AcDbDictionary
280
     1
281
     1
  3
BUMPTILE
360
351
  3
DIFFUSETILE
360
350
  3
OPACITYTILE
360
354
  3
REFLECTIONTILE
360
353
  3
REFRACTIONTILE
360
355
  3
SPECULARTILE
360
352
  0
DICTIONARY
  5
35F
330
35E
100
AcDbDictionary
280
     1
281
     1
  3
BUMPTILE
360
361
  3
DIFFUSETILE
360
360
  3
OPACITYTILE
360
364
  3
REFLECTIONTILE
360
363
  3
REFRACTIONTILE
360
365
  3
SPECULARTILE
360
362
  0
DICTIONARY
  5
3BA
330
396
100
AcDbDictionary
280
     1
281
     1
  3
ACAD_XREC_ROUNDTRIP
360
3BB
  0
DICTIONARY
  5
3B8
330
380
100
AcDbDictionary
280
     1
281
     1
  3
ACAD_ROUNDTRIP_2008_TABLESTYLE_CELLSTYLEMAP
360
3B9
  0
XRECORD
  5
3BD
102
{ACAD_REACTORS
330
3BC
102
}
330
3BC
100
AcDbXrecord
280
     1
102
DISPLAYNAME
  1
Imperial24
102
FLAGS
 90
        0
  0
XRECORD
  5
359
102
{ACAD_REACTORS
330
357
102
}
330
357
100
AcDbXrecord
280
     1
270
     1
271
     1
  0
XRECORD
  5
358
102
{ACAD_REACTORS
330
357
102
}
330
357
100
AcDbXrecord
280
     1
270
     1
271
     1
  0
XRECORD
  5
35C
102
{ACAD_REACTORS
330
357
102
}
330
357
100
AcDbXrecord
280
     1
270
     1
271
     1
  0
XRECORD
  5
35B
102
{ACAD_REACTORS
330
357
102
}
330
357
100
AcDbXrecord
280
     1
270
     1
271
     1
  0
XRECORD
  5
35D
102
{ACAD_REACTORS
330
357
102
}
330
357
100
AcDbXrecord
280
     1
270
     1
271
     1
  0
XRECORD
  5
35A
102
{ACAD_REACTORS
330
357
102
}
330
357
100
AcDbXrecord
280
     1
270
     1
271
     1
  0
XRECORD
  5
351
102
{ACAD_REACTORS
330
34F
102
}
330
34F
100
AcDbXrecord
280
     1
270
     1
271
     1
  0
XRECORD
  5
350
102
{ACAD_REACTORS
330
34F
102
}
330
34F
100
AcDbXrecord
280
     1
270
     1
271
     1
  0
XRECORD
  5
354
102
{ACAD_REACTORS
330
34F
102
}
330
34F
100
AcDbXrecord
280
     1
270
     1
271
     1
  0
XRECORD
  5
353
102
{ACAD_REACTORS
330
34F
102
}
330
34F
100
AcDbXrecord
280
     1
270
     1
271
     1
  0
XRECORD
  5
355
102
{ACAD_REACTORS
330
34F
102
}
330
34F
100
AcDbXrecord
280
     1
270
     1
271
     1
  0
XRECORD
  5
352
102
{ACAD_REACTORS
330
34F
102
}
330
34F
100
AcDbXrecord
280
     1
270
     1
271
     1
  0
XRECORD
  5
361
102
{ACAD_REACTORS
330
35F
102
}
330
35F
100
AcDbXrecord
280
     1
270
     1
271
     1
  0
XRECORD
  5
360
102
{ACAD_REACTORS
330
35F
102
}
330
35F
100
AcDbXrecord
280
     1
270
     1
271
     1
  0
XRECORD
  5
364
102
{ACAD_REACTORS
330
35F
102
}
330
35F
100
AcDbXrecord
280
     1
270
     1
271
     1
  0
XRECORD
  5
363
102
{ACAD_REACTORS
330
35F
102
}
330
35F
100
AcDbXrecord
280
     1
270
     1
271
     1
  0
XRECORD
  5
365
102
{ACAD_REACTORS
330
35F
102
}
330
35F
100
AcDbXrecord
280
     1
270
     1
271
     1
  0
XRECORD
  5
362
102
{ACAD_REACTORS
330
35F
102
}
330
35F
100
AcDbXrecord
280
     1
270
     1
271
     1
  0
XRECORD
  5
3BB
102
{ACAD_REACTORS
330
3BA
102
}
330
3BA
100
AcDbXrecord
280
     1
102
DISPLAYNAME
  1
Imperial24
102
FLAGS
 90
        0
  0
CELLSTYLEMAP
  5
3B9
102
{ACAD_REACTORS
330
3B8
102
}
330
3B8
100
AcDbCellStyleMap
 90
        3
300
CELLSTYLE
  1
TABLEFORMAT_BEGIN
 90
        5
170
     1
 91
        0
 92
    32768
 62
   257
 93
        1
300
CONTENTFORMAT
  1
CONTENTFORMAT_BEGIN
 90
        0
 91
        0
 92
      512
 93
        0
300

 40
0.0
140
1.0
 94
        5
 62
     0
340
11
144
0.25
309
CONTENTFORMAT_END
171
     0
 94
        0
309
TABLEFORMAT_END
  1
CELLSTYLE_BEGIN
 90
        1
 91
        1
300
_TITLE
309
CELLSTYLE_END
300
CELLSTYLE
  1
TABLEFORMAT_BEGIN
 90
        5
170
     1
 91
        0
 92
        0
 62
   257
 93
        1
300
CONTENTFORMAT
  1
CONTENTFORMAT_BEGIN
 90
        0
 91
        0
 92
      512
 93
        0
300

 40
0.0
140
1.0
 94
        5
 62
     0
340
11
144
0.18
309
CONTENTFORMAT_END
171
     0
 94
        0
309
TABLEFORMAT_END
  1
CELLSTYLE_BEGIN
 90
        2
 91
        1
300
_HEADER
309
CELLSTYLE_END
300
CELLSTYLE
  1
TABLEFORMAT_BEGIN
 90
        5
170
     1
 91
        0
 92
        0
 62
   257
 93
        1
300
CONTENTFORMAT
  1
CONTENTFORMAT_BEGIN
 90
        0
 91
        0
 92
      512
 93
        0
300

 40
0.0
140
1.0
 94
        2
 62
     0
340
11
144
0.18
309
CONTENTFORMAT_END
171
     0
 94
        0
309
TABLEFORMAT_END
  1
CELLSTYLE_BEGIN
 90
        3
 91
        2
300
_DATA
309
CELLSTYLE_END
  0
ENDSEC
  0
EOF
