  0
SECTION
  2
HEADER
  9
$ACADVER
  1
AC1032
  9
$ACADMAINTVER
 90
      174
  9
$DWGCODEPAGE
  3
ANSI_1252
  9
$LASTSAVEDBY
  1
pengb
  9
$REQUIREDVERSIONS
160
                 0
  9
$INSBASE
 10
0.0
 20
0.0
 30
0.0
  9
$EXTMIN
 10
-15.97597133836667
 20
-4.207447518219851
 30
0.0
  9
$EXTMAX
 10
378.8642595559
 20
289.1359729796795
 30
0.0
  9
$LIMMIN
 10
0.0
 20
0.0
  9
$LIMMAX
 10
420.0
 20
297.0
  9
$ORTHOMODE
 70
     0
  9
$REGENMODE
 70
     1
  9
$FILLMODE
 70
     1
  9
$QTEXTMODE
 70
     0
  9
$MIRRTEXT
 70
     1
  9
$LTSCALE
 40
1.0
  9
$ATTMODE
 70
     1
  9
$TEXTSIZE
 40
3.5
  9
$TRACEWID
 40
1.0
  9
$TEXTSTYLE
  7
Standard
  9
$CLAYER
  8
0
  9
$CELTYPE
  6
ByLayer
  9
$CECOLOR
 62
   256
  9
$CELTSCALE
 40
1.0
  9
$DISPSILH
 70
     0
  9
$DIMSCALE
 40
1.0
  9
$DIMASZ
 40
3.302
  9
$DIMEXO
 40
1.0
  9
$DIMDLI
 40
3.75
  9
$DIMRND
 40
0.0
  9
$DIMDLE
 40
0.0
  9
$DIMEXE
 40
1.0
  9
$DIMTP
 40
0.0
  9
$DIMTM
 40
0.0
  9
$DIMTXT
 40
3.5
  9
$DIMCEN
 40
2.5
  9
$DIMTSZ
 40
0.0
  9
$DIMTOL
 70
     0
  9
$DIMLIM
 70
     0
  9
$DIMTIH
 70
     1
  9
$DIMTOH
 70
     1
  9
$DIMSE1
 70
     0
  9
$DIMSE2
 70
     0
  9
$DIMTAD
 70
     1
  9
$DIMZIN
 70
     1
  9
$DIMBLK
  1

  9
$DIMASO
 70
     1
  9
$DIMSHO
 70
     1
  9
$DIMPOST
  1

  9
$DIMAPOST
  1

  9
$DIMALT
 70
     0
  9
$DIMALTD
 70
     3
  9
$DIMALTF
 40
0.0393700787
  9
$DIMLFAC
 40
2.0
  9
$DIMTOFL
 70
     1
  9
$DIMTVP
 40
0.0
  9
$DIMTIX
 70
     0
  9
$DIMSOXD
 70
     0
  9
$DIMSAH
 70
     0
  9
$DIMBLK1
  1

  9
$DIMBLK2
  1

  9
$DIMSTYLE
  2
ISO-25
  9
$DIMCLRD
 70
     0
  9
$DIMCLRE
 70
     0
  9
$DIMCLRT
 70
     0
  9
$DIMTFAC
 40
1.0
  9
$DIMGAP
 40
1.524
  9
$DIMJUST
 70
     0
  9
$DIMSD1
 70
     0
  9
$DIMSD2
 70
     0
  9
$DIMTOLJ
 70
     0
  9
$DIMTZIN
 70
     1
  9
$DIMALTZ
 70
     0
  9
$DIMALTTZ
 70
     0
  9
$DIMUPT
 70
     0
  9
$DIMDEC
 70
     2
  9
$DIMTDEC
 70
     2
  9
$DIMALTU
 70
     2
  9
$DIMALTTD
 70
     3
  9
$DIMTXSTY
  7
Standard
  9
$DIMAUNIT
 70
     0
  9
$DIMADEC
 70
     2
  9
$DIMALTRND
 40
0.0
  9
$DIMAZIN
 70
     0
  9
$DIMDSEP
 70
    44
  9
$DIMATFIT
 70
     3
  9
$DIMFRAC
 70
     0
  9
$DIMLDRBLK
  1

  9
$DIMLUNIT
 70
     2
  9
$DIMLWD
 70
    -2
  9
$DIMLWE
 70
    -2
  9
$DIMTMOVE
 70
     0
  9
$DIMFXL
 40
1.0
  9
$DIMFXLON
 70
     0
  9
$DIMJOGANG
 40
0.7853981633974483
  9
$DIMTFILL
 70
     0
  9
$DIMTFILLCLR
 70
     0
  9
$DIMARCSYM
 70
     0
  9
$DIMLTYPE
  6

  9
$DIMLTEX1
  6

  9
$DIMLTEX2
  6

  9
$DIMTXTDIRECTION
 70
     0
  9
$LUNITS
 70
     2
  9
$LUPREC
 70
     2
  9
$SKETCHINC
 40
1.0
  9
$FILLETRAD
 40
10.0
  9
$AUNITS
 70
     0
  9
$AUPREC
 70
     2
  9
$MENU
  1
.
  9
$ELEVATION
 40
0.0
  9
$PELEVATION
 40
0.0
  9
$THICKNESS
 40
0.0
  9
$LIMCHECK
 70
     0
  9
$CHAMFERA
 40
0.0
  9
$CHAMFERB
 40
0.0
  9
$CHAMFERC
 40
0.0
  9
$CHAMFERD
 40
0.0
  9
$SKPOLY
 70
     0
  9
$TDCREATE
 40
2459998.437604167
  9
$TDUCREATE
 40
2459997.979273565
  9
$TDUPDATE
 40
2460007.654421296
  9
$TDUUPDATE
 40
2460007.196087963
  9
$TDINDWG
 40
0.0040972338
  9
$TDUSRTIMER
 40
0.0040972338
  9
$USRTIMER
 70
     1
  9
$ANGBASE
 50
0.0
  9
$ANGDIR
 70
     0
  9
$PDMODE
 70
     0
  9
$PDSIZE
 40
-1.0
  9
$PLINEWID
 40
0.0
  9
$SPLFRAME
 70
     0
  9
$SPLINETYPE
 70
     6
  9
$SPLINESEGS
 70
     8
  9
$HANDSEED
  5
48A
  9
$SURFTAB1
 70
     6
  9
$SURFTAB2
 70
     6
  9
$SURFTYPE
 70
     6
  9
$SURFU
 70
     6
  9
$SURFV
 70
     6
  9
$UCSBASE
  2

  9
$UCSNAME
  2

  9
$UCSORG
 10
0.0
 20
0.0
 30
0.0
  9
$UCSXDIR
 10
1.0
 20
0.0
 30
0.0
  9
$UCSYDIR
 10
0.0
 20
1.0
 30
0.0
  9
$UCSORTHOREF
  2

  9
$UCSORTHOVIEW
 70
     0
  9
$UCSORGTOP
 10
0.0
 20
0.0
 30
0.0
  9
$UCSORGBOTTOM
 10
0.0
 20
0.0
 30
0.0
  9
$UCSORGLEFT
 10
0.0
 20
0.0
 30
0.0
  9
$UCSORGRIGHT
 10
0.0
 20
0.0
 30
0.0
  9
$UCSORGFRONT
 10
0.0
 20
0.0
 30
0.0
  9
$UCSORGBACK
 10
0.0
 20
0.0
 30
0.0
  9
$PUCSBASE
  2

  9
$PUCSNAME
  2

  9
$PUCSORG
 10
0.0
 20
0.0
 30
0.0
  9
$PUCSXDIR
 10
1.0
 20
0.0
 30
0.0
  9
$PUCSYDIR
 10
0.0
 20
1.0
 30
0.0
  9
$PUCSORTHOREF
  2

  9
$PUCSORTHOVIEW
 70
     0
  9
$PUCSORGTOP
 10
0.0
 20
0.0
 30
0.0
  9
$PUCSORGBOTTOM
 10
0.0
 20
0.0
 30
0.0
  9
$PUCSORGLEFT
 10
0.0
 20
0.0
 30
0.0
  9
$PUCSORGRIGHT
 10
0.0
 20
0.0
 30
0.0
  9
$PUCSORGFRONT
 10
0.0
 20
0.0
 30
0.0
  9
$PUCSORGBACK
 10
0.0
 20
0.0
 30
0.0
  9
$USERI1
 70
     0
  9
$USERI2
 70
     0
  9
$USERI3
 70
     0
  9
$USERI4
 70
     0
  9
$USERI5
 70
     0
  9
$USERR1
 40
0.0
  9
$USERR2
 40
0.0
  9
$USERR3
 40
0.0
  9
$USERR4
 40
0.0
  9
$USERR5
 40
0.0
  9
$WORLDVIEW
 70
     1
  9
$SHADEDGE
 70
     3
  9
$SHADEDIF
 70
    70
  9
$TILEMODE
 70
     1
  9
$MAXACTVP
 70
    64
  9
$PINSBASE
 10
0.0
 20
0.0
 30
0.0
  9
$PLIMCHECK
 70
     0
  9
$PEXTMIN
 10
1.000000000000000E+20
 20
1.000000000000000E+20
 30
1.000000000000000E+20
  9
$PEXTMAX
 10
-1.000000000000000E+20
 20
-1.000000000000000E+20
 30
-1.000000000000000E+20
  9
$PLIMMIN
 10
0.0
 20
0.0
  9
$PLIMMAX
 10
420.0
 20
297.0
  9
$UNITMODE
 70
     0
  9
$VISRETAIN
 70
     1
  9
$PLINEGEN
 70
     0
  9
$PSLTSCALE
 70
     1
  9
$TREEDEPTH
 70
  3020
  9
$CMLSTYLE
  2
Standard
  9
$CMLJUST
 70
     0
  9
$CMLSCALE
 40
20.0
  9
$PROXYGRAPHICS
 70
     1
  9
$MEASUREMENT
 70
     1
  9
$CELWEIGHT
370
    -1
  9
$ENDCAPS
280
     0
  9
$JOINSTYLE
280
     0
  9
$LWDISPLAY
290
     1
  9
$INSUNITS
 70
     4
  9
$HYPERLINKBASE
  1

  9
$STYLESHEET
  1

  9
$XEDIT
290
     1
  9
$CEPSNTYPE
380
     0
  9
$PSTYLEMODE
290
     1
  9
$FINGERPRINTGUID
  2
{FDE116B8-B716-4EEF-95B4-2DD3B0094871}
  9
$VERSIONGUID
  2
{1F8DFEC8-309C-E845-A07C-2B048DA7B750}
  9
$EXTNAMES
290
     1
  9
$PSVPSCALE
 40
0.0
  9
$OLESTARTUP
290
     0
  9
$SORTENTS
280
   127
  9
$INDEXCTL
280
     0
  9
$HIDETEXT
280
     0
  9
$XCLIPFRAME
280
     2
  9
$HALOGAP
280
     0
  9
$OBSCOLOR
 70
   257
  9
$OBSLTYPE
280
     0
  9
$INTERSECTIONDISPLAY
280
     0
  9
$INTERSECTIONCOLOR
 70
   257
  9
$DIMASSOC
280
     1
  9
$PROJECTNAME
  1

  9
$CAMERADISPLAY
290
     0
  9
$LENSLENGTH
 40
50.0
  9
$CAMERAHEIGHT
 40
0.0
  9
$STEPSPERSEC
 40
2.0
  9
$STEPSIZE
 40
6.0
  9
$3DDWFPREC
 40
2.0
  9
$PSOLWIDTH
 40
0.25
  9
$PSOLHEIGHT
 40
4.0
  9
$LOFTANG1
 40
1.570796326794896
  9
$LOFTANG2
 40
1.570796326794896
  9
$LOFTMAG1
 40
0.0
  9
$LOFTMAG2
 40
0.0
  9
$LOFTPARAM
 70
     7
  9
$LOFTNORMALS
280
     1
  9
$LATITUDE
 40
37.795
  9
$LONGITUDE
 40
-122.394
  9
$NORTHDIRECTION
 40
0.0
  9
$TIMEZONE
 70
 -8000
  9
$LIGHTGLYPHDISPLAY
280
     1
  9
$TILEMODELIGHTSYNCH
280
     1
  9
$CMATERIAL
347
33C
  9
$SOLIDHIST
280
     0
  9
$SHOWHIST
280
     1
  9
$DWFFRAME
280
     2
  9
$DGNFRAME
280
     0
  9
$REALWORLDSCALE
290
     1
  9
$INTERFERECOLOR
 62
     1
  9
$INTERFEREOBJVS
345
35E
  9
$INTERFEREVPVS
346
35B
  9
$CSHADOW
280
     0
  9
$SHADOWPLANELOCATION
 40
0.0
  0
ENDSEC
  0
SECTION
  2
CLASSES
  0
CLASS
  1
ACDBDICTIONARYWDFLT
  2
AcDbDictionaryWithDefault
  3
ObjectDBX Classes
 90
        0
 91
        1
280
     0
281
     0
  0
CLASS
  1
VISUALSTYLE
  2
AcDbVisualStyle
  3
ObjectDBX Classes
 90
     4095
 91
       24
280
     0
281
     0
  0
CLASS
  1
MATERIAL
  2
AcDbMaterial
  3
ObjectDBX Classes
 90
     1153
 91
        3
280
     0
281
     0
  0
CLASS
  1
SCALE
  2
AcDbScale
  3
ObjectDBX Classes
 90
     1153
 91
       33
280
     0
281
     0
  0
CLASS
  1
TABLESTYLE
  2
AcDbTableStyle
  3
ObjectDBX Classes
 90
     4095
 91
        1
280
     0
281
     0
  0
CLASS
  1
MLEADERSTYLE
  2
AcDbMLeaderStyle
  3
ACDB_MLEADERSTYLE_CLASS
 90
     4095
 91
        1
280
     0
281
     0
  0
CLASS
  1
SUN
  2
AcDbSun
  3
SCENEOE
 90
     1153
 91
        0
280
     0
281
     0
  0
CLASS
  1
ACDBSECTIONVIEWSTYLE
  2
AcDbSectionViewStyle
  3
ObjectDBX Classes
 90
     1025
 91
        1
280
     0
281
     0
  0
CLASS
  1
ACDBDETAILVIEWSTYLE
  2
AcDbDetailViewStyle
  3
ObjectDBX Classes
 90
     1025
 91
        1
280
     0
281
     0
  0
CLASS
  1
ACDB_ALDIMOBJECTCONTEXTDATA_CLASS
  2
AcDbAlignedDimensionObjectContextData
  3
ObjectDBX Classes
 90
     1153
 91
       12
280
     0
281
     0
  0
CLASS
  1
DICTIONARYVAR
  2
AcDbDictionaryVar
  3
ObjectDBX Classes
 90
        0
 91
       18
280
     0
281
     0
  0
CLASS
  1
CELLSTYLEMAP
  2
AcDbCellStyleMap
  3
ObjectDBX Classes
 90
     1152
 91
        2
280
     0
281
     0
  0
ENDSEC
  0
SECTION
  2
TABLES
  0
TABLE
  2
VPORT
  5
8
330
0
100
AcDbSymbolTable
 70
     1
  0
VPORT
  5
29
330
8
100
AcDbSymbolTableRecord
100
AcDbViewportTableRecord
  2
*Active
 70
     0
 10
0.0
 20
0.0
 11
1.0
 21
1.0
 12
141.1487243352319
 22
140.1943386642704
 13
0.0
 23
0.0
 14
10.0
 24
10.0
 15
10.0
 25
10.0
 16
0.0
 26
0.0
 36
1.0
 17
0.0
 27
0.0
 37
0.0
 40
298.0436063432302
 41
1.907960199004974
 42
50.0
 43
0.0
 44
0.0
 50
0.0
 51
0.0
 71
     0
 72
  2000
 73
     1
 74
     3
 75
     0
 76
     0
 77
     0
 78
     0
281
     0
 65
     1
110
0.0
120
0.0
130
0.0
111
1.0
121
0.0
131
0.0
112
0.0
122
1.0
132
0.0
 79
     0
146
0.0
348
35A
 60
     3
 61
     5
292
     1
282
     1
141
0.0
142
0.0
 63
   250
421
  3355443
1001
ACAD_NAV_VCDISPLAY
1070
     3
  0
ENDTAB
  0
TABLE
  2
LTYPE
  5
5
330
0
100
AcDbSymbolTable
 70
     7
  0
LTYPE
  5
14
330
5
100
AcDbSymbolTableRecord
100
AcDbLinetypeTableRecord
  2
ByBlock
 70
     0
  3

 72
    65
 73
     0
 40
0.0
  0
LTYPE
  5
15
330
5
100
AcDbSymbolTableRecord
100
AcDbLinetypeTableRecord
  2
ByLayer
 70
     0
  3

 72
    65
 73
     0
 40
0.0
  0
LTYPE
  5
16
330
5
100
AcDbSymbolTableRecord
100
AcDbLinetypeTableRecord
  2
Continuous
 70
     0
  3
Solid line
 72
    65
 73
     0
 40
0.0
  0
LTYPE
  5
6E
330
5
100
AcDbSymbolTableRecord
100
AcDbLinetypeTableRecord
  2
HIDDEN
 70
     0
  3
Hidden __ __ __ __ __ __ __ __ __ __ __ __ __ __
 72
    65
 73
     2
 40
1.905
 49
1.27
 74
     0
 49
-0.635
 74
     0
  0
LTYPE
  5
6F
330
5
100
AcDbSymbolTableRecord
100
AcDbLinetypeTableRecord
  2
PHANTOM
 70
     0
  3
Phantom ______  __  __  ______  __  __  ______
 72
    65
 73
     6
 40
12.7
 49
6.349999999999999
 74
     0
 49
-1.27
 74
     0
 49
1.27
 74
     0
 49
-1.27
 74
     0
 49
1.27
 74
     0
 49
-1.27
 74
     0
  0
LTYPE
  5
70
330
5
100
AcDbSymbolTableRecord
100
AcDbLinetypeTableRecord
  2
CENTER
 70
     0
  3
Center ____ _ ____ _ ____ _ ____ _ ____ _ ____
 72
    65
 73
     4
 40
10.16
 49
6.349999999999999
 74
     0
 49
-1.27
 74
     0
 49
1.27
 74
     0
 49
-1.27
 74
     0
  0
LTYPE
  5
71
330
5
100
AcDbSymbolTableRecord
100
AcDbLinetypeTableRecord
  2
CENTERX2
 70
     0
  3
Center (2x) ________  __  ________  __  _____
 72
    65
 73
     4
 40
20.32
 49
12.7
 74
     0
 49
-2.54
 74
     0
 49
2.54
 74
     0
 49
-2.54
 74
     0
  0
LTYPE
  5
72
330
5
100
AcDbSymbolTableRecord
100
AcDbLinetypeTableRecord
  2
DOT2
 70
     0
  3
Dot (.5x) ........................................
 72
    65
 73
     2
 40
0.635
 49
0.0
 74
     0
 49
-0.635
 74
     0
  0
ENDTAB
  0
TABLE
  2
LAYER
  5
2
102
{ACAD_XDICTIONARY
360
3AB
102
}
330
0
100
AcDbSymbolTable
 70
     4
  0
LAYER
  5
10
102
{ACAD_XDICTIONARY
360
45D
102
}
330
2
100
AcDbSymbolTableRecord
100
AcDbLayerTableRecord
  2
0
 70
     0
 62
     7
  6
Continuous
370
    -3
390
F
347
34C
348
0
  0
LAYER
  5
73
102
{ACAD_XDICTIONARY
360
45F
102
}
330
2
100
AcDbSymbolTableRecord
100
AcDbLayerTableRecord
  2
FORMAT
 70
     0
 62
     7
  6
Continuous
370
    -3
390
F
347
34C
348
0
  0
LAYER
  5
3A2
330
2
100
AcDbSymbolTableRecord
100
AcDbLayerTableRecord
  2
Defpoints
 70
     0
 62
     7
  6
Continuous
290
     0
370
    -3
390
F
347
34C
348
0
  0
LAYER
  5
3A3
102
{ACAD_XDICTIONARY
360
3A4
102
}
330
2
100
AcDbSymbolTableRecord
100
AcDbLayerTableRecord
  2
DIMENSION
 70
     0
 62
   255
  6
Continuous
370
    -3
390
F
347
34C
348
0
  0
ENDTAB
  0
TABLE
  2
STYLE
  5
3
330
0
100
AcDbSymbolTable
 70
     2
  0
STYLE
  5
11
330
3
100
AcDbSymbolTableRecord
100
AcDbTextStyleTableRecord
  2
Standard
 70
     0
 40
0.0
 41
1.0
 50
0.0
 71
     0
 42
3.5
  3
txt
  4

  0
STYLE
  5
A0
330
3
100
AcDbSymbolTableRecord
100
AcDbTextStyleTableRecord
  2
SLDTEXTSTYLE0
 70
     0
 40
0.0
 41
0.75
 50
0.0
 71
     0
 42
3.5
  3
TXT
  4

  0
ENDTAB
  0
TABLE
  2
VIEW
  5
6
330
0
100
AcDbSymbolTable
 70
     1
  0
ENDTAB
  0
TABLE
  2
UCS
  5
7
330
0
100
AcDbSymbolTable
 70
     0
  0
ENDTAB
  0
TABLE
  2
APPID
  5
9
330
0
100
AcDbSymbolTable
 70
     7
  0
APPID
  5
12
330
9
100
AcDbSymbolTableRecord
100
AcDbRegAppTableRecord
  2
ACAD
 70
     0
  0
APPID
  5
3A6
330
9
100
AcDbSymbolTableRecord
100
AcDbRegAppTableRecord
  2
AcadAnnotative
 70
     0
  0
APPID
  5
3A7
330
9
100
AcDbSymbolTableRecord
100
AcDbRegAppTableRecord
  2
ACAD_DSTYLE_DIMJAG
 70
     0
  0
APPID
  5
3A8
330
9
100
AcDbSymbolTableRecord
100
AcDbRegAppTableRecord
  2
ACAD_DSTYLE_DIMTALN
 70
     0
  0
APPID
  5
3A9
330
9
100
AcDbSymbolTableRecord
100
AcDbRegAppTableRecord
  2
ACAD_NAV_VCDISPLAY
 70
     0
  0
APPID
  5
3AA
330
9
100
AcDbSymbolTableRecord
100
AcDbRegAppTableRecord
  2
ACAD_DSTYLE_DIMBREAK
 70
     0
  0
APPID
  5
479
330
9
100
AcDbSymbolTableRecord
100
AcDbRegAppTableRecord
  2
ACAD_EXEMPT_FROM_CAD_STANDARDS
 70
     0
  0
ENDTAB
  0
TABLE
  2
DIMSTYLE
  5
A
330
0
100
AcDbSymbolTable
 70
     4
100
AcDbDimStyleTable
 71
     1
340
3A5
  0
DIMSTYLE
105
27
330
A
100
AcDbSymbolTableRecord
100
AcDbDimStyleTableRecord
  2
ISO-25
 70
     0
 41
2.5
 42
0.625
 43
3.75
 44
1.25
 73
     0
 74
     0
 77
     1
 78
     8
140
2.5
141
2.5
143
0.0393700787
147
0.625
171
     3
172
     1
271
     2
272
     2
274
     3
278
    44
283
     0
284
     8
340
11
  0
DIMSTYLE
105
A1
330
A
100
AcDbSymbolTableRecord
100
AcDbDimStyleTableRecord
  2
SLDDIMSTYLE0
 70
     0
 41
3.302
 44
0.0
 45
0.000000001
 73
     0
 74
     0
 77
     1
 78
     4
 79
     1
140
3.5
147
0.875
173
     1
271
     2
272
     2
276
     2
284
    12
340
A0
341
A2
343
A2
344
A2
  0
DIMSTYLE
105
3A5
102
{ACAD_REACTORS
330
3AE
330
3B8
330
3B3
330
3BD
330
3CA
330
3D4
330
3CF
330
3C5
330
317
330
B4
330
AC
330
32F
102
}
330
A
100
AcDbSymbolTableRecord
100
AcDbDimStyleTableRecord
  2
RG Dimension Lines
 70
     0
 40
12.0
 41
3.5
 42
1.0
 43
10.0
 44
5.0
 49
5.0
 77
     2
140
8.0
141
0.0
147
4.0
172
     1
176
   256
177
   256
178
     7
271
     0
272
     0
290
     1
340
11
341
A2
342
A2
371
     0
372
     0
1001
ACAD_DSTYLE_DIMBREAK
1070
   391
1040
0.125
1001
AcadAnnotative
1000
AnnotativeData
1002
{
1070
     1
1070
     1
1002
}
1001
ACAD_DSTYLE_DIMJAG
1070
   388
1040
1.5
1001
ACAD_DSTYLE_DIMTALN
1070
   392
1070
     0
  0
ENDTAB
  0
TABLE
  2
BLOCK_RECORD
  5
1
330
0
100
AcDbSymbolTable
 70
    21
  0
BLOCK_RECORD
  5
1F
330
1
100
AcDbSymbolTableRecord
100
AcDbBlockTableRecord
  2
*Model_Space
340
22
 70
     0
280
     1
281
     0
  0
BLOCK_RECORD
  5
1B
330
1
100
AcDbSymbolTableRecord
100
AcDbBlockTableRecord
  2
*Paper_Space
340
1E
 70
     0
280
     1
281
     0
  0
BLOCK_RECORD
  5
23
330
1
100
AcDbSymbolTableRecord
100
AcDbBlockTableRecord
  2
*Paper_Space0
340
26
 70
     0
280
     1
281
     0
  0
BLOCK_RECORD
  5
A2
330
1
100
AcDbSymbolTableRecord
100
AcDbBlockTableRecord
  2
_None
340
0
 70
     0
280
     1
281
     0
  0
BLOCK_RECORD
  5
A5
330
1
100
AcDbSymbolTableRecord
100
AcDbBlockTableRecord
  2
_D
340
0
 70
     0
280
     1
281
     0
  0
BLOCK_RECORD
  5
AD
330
1
100
AcDbSymbolTableRecord
100
AcDbBlockTableRecord
  2
_D_1
340
0
 70
     0
280
     1
281
     0
  0
BLOCK_RECORD
  5
B5
330
1
100
AcDbSymbolTableRecord
100
AcDbBlockTableRecord
  2
_D_2
340
0
 70
     0
280
     1
281
     0
  0
BLOCK_RECORD
  5
318
330
1
100
AcDbSymbolTableRecord
100
AcDbBlockTableRecord
  2
_D_3
340
0
 70
     0
280
     1
281
     0
  0
BLOCK_RECORD
  5
330
330
1
100
AcDbSymbolTableRecord
100
AcDbBlockTableRecord
  2
_D_4
340
0
 70
     0
280
     1
281
     0
  0
BLOCK_RECORD
  5
379
330
1
100
AcDbSymbolTableRecord
100
AcDbBlockTableRecord
  2
*D7
340
0
 70
     0
280
     1
281
     0
  0
BLOCK_RECORD
  5
383
330
1
100
AcDbSymbolTableRecord
100
AcDbBlockTableRecord
  2
*D8
340
0
 70
     0
280
     1
281
     0
  0
BLOCK_RECORD
  5
38D
330
1
100
AcDbSymbolTableRecord
100
AcDbBlockTableRecord
  2
*D9
340
0
 70
     0
280
     1
281
     0
  0
BLOCK_RECORD
  5
398
330
1
100
AcDbSymbolTableRecord
100
AcDbBlockTableRecord
  2
*D10
340
0
 70
     0
280
     1
281
     0
  0
BLOCK_RECORD
  5
3D9
330
1
100
AcDbSymbolTableRecord
100
AcDbBlockTableRecord
  2
*D12
340
0
 70
     0
280
     1
281
     0
  0
BLOCK_RECORD
  5
3E3
330
1
100
AcDbSymbolTableRecord
100
AcDbBlockTableRecord
  2
*D13
340
0
 70
     0
280
     1
281
     0
  0
BLOCK_RECORD
  5
3EE
330
1
100
AcDbSymbolTableRecord
100
AcDbBlockTableRecord
  2
*D14
340
0
 70
     0
280
     1
281
     0
  0
BLOCK_RECORD
  5
3F8
330
1
100
AcDbSymbolTableRecord
100
AcDbBlockTableRecord
  2
*D15
340
0
 70
     0
280
     1
281
     0
  0
BLOCK_RECORD
  5
417
330
1
100
AcDbSymbolTableRecord
100
AcDbBlockTableRecord
  2
*D16
340
0
 70
     0
280
     1
281
     0
  0
BLOCK_RECORD
  5
425
330
1
100
AcDbSymbolTableRecord
100
AcDbBlockTableRecord
  2
*D17
340
0
 70
     0
280
     1
281
     0
  0
BLOCK_RECORD
  5
433
330
1
100
AcDbSymbolTableRecord
100
AcDbBlockTableRecord
  2
*D18
340
0
 70
     0
280
     1
281
     0
  0
BLOCK_RECORD
  5
441
330
1
100
AcDbSymbolTableRecord
100
AcDbBlockTableRecord
  2
*D19
340
0
 70
     0
280
     1
281
     0
  0
ENDTAB
  0
ENDSEC
  0
SECTION
  2
BLOCKS
  0
BLOCK
  5
20
330
1F
100
AcDbEntity
  8
0
100
AcDbBlockBegin
  2
*Model_Space
 70
     0
 10
0.0
 20
0.0
 30
0.0
  3
*Model_Space
  1

  0
ENDBLK
  5
21
330
1F
100
AcDbEntity
  8
0
100
AcDbBlockEnd
  0
BLOCK
  5
1C
330
1B
100
AcDbEntity
 67
     1
  8
0
100
AcDbBlockBegin
  2
*Paper_Space
 70
     0
 10
0.0
 20
0.0
 30
0.0
  3
*Paper_Space
  1

  0
ENDBLK
  5
1D
330
1B
100
AcDbEntity
 67
     1
  8
0
100
AcDbBlockEnd
  0
BLOCK
  5
24
330
23
100
AcDbEntity
 67
     1
  8
0
100
AcDbBlockBegin
  2
*Paper_Space0
 70
     0
 10
0.0
 20
0.0
 30
0.0
  3
*Paper_Space0
  1

  0
ENDBLK
  5
25
330
23
100
AcDbEntity
 67
     1
  8
0
100
AcDbBlockEnd
  0
BLOCK
  5
A3
330
A2
100
AcDbEntity
  8
0
100
AcDbBlockBegin
  2
_None
 70
     0
 10
0.0
 20
0.0
 30
0.0
  3
_None
  1

  0
ENDBLK
  5
A4
330
A2
100
AcDbEntity
  8
0
100
AcDbBlockEnd
  0
BLOCK
  5
A6
330
A5
100
AcDbEntity
  8
0
100
AcDbBlockBegin
  2
_D
 70
     0
 10
0.0
 20
0.0
 30
0.0
  3
_D
  1

  0
LINE
  5
A8
330
A5
100
AcDbEntity
  8
0
  6
Continuous
 62
     7
440
 16777216
370
     0
100
AcDbLine
 10
36.5995009304
 20
73.7767306802
 30
0.0
 11
23.6906953283
 21
73.7767306802
 31
0.0
  0
LINE
  5
A9
330
A5
100
AcDbEntity
  8
0
  6
Continuous
 62
     7
440
 16777216
370
     0
100
AcDbLine
 10
69.1450129975
 20
136.3916090691
 30
0.0
 11
23.6906953283
 21
136.3916090691
 31
0.0
  0
LINE
  5
AA
330
A5
100
AcDbEntity
  8
0
  6
Continuous
 62
     7
440
 16777216
370
     0
100
AcDbLine
 10
24.6906953283
 20
73.7767306802
 30
0.0
 11
24.6906953283
 21
136.3916090691
 31
0.0
  0
MTEXT
  5
AB
330
A5
100
AcDbEntity
  8
0
  6
Continuous
 62
     7
440
 16777216
370
    18
100
AcDbMText
 10
20.1789584137
 20
101.7422425085
 30
0.0
 40
3.5
 41
0.0
 46
0.0
 71
     1
 72
     1
  1
63.00
  7
SLDTEXTSTYLE0
 11
0.0000000000000001
 21
1.0
 31
0.0
 73
     1
 44
1.0
  0
ENDBLK
  5
A7
330
A5
100
AcDbEntity
  8
0
100
AcDbBlockEnd
  0
BLOCK
  5
AE
330
AD
100
AcDbEntity
  8
0
100
AcDbBlockBegin
  2
_D_1
 70
     0
 10
0.0
 20
0.0
 30
0.0
  3
_D_1
  1

  0
LINE
  5
402
330
AD
100
AcDbEntity
  8
0
  6
Continuous
 62
     0
440
 16777216
370
    -2
100
AcDbLine
 10
240.9404645612
 20
98.20382067700002
 30
0.0
 11
240.9404645612
 21
7.792552481780148
 31
0.0
  0
LINE
  5
403
330
AD
100
AcDbEntity
  8
0
  6
Continuous
 62
     0
440
 16777216
370
    -2
100
AcDbLine
 10
40.6906953283
 20
46.7142306802
 30
0.0
 11
40.6906953283
 21
7.792552481780148
 31
0.0
  0
LINE
  5
404
330
AD
100
AcDbEntity
  8
0
  6
Continuous
 62
     0
440
 16777216
370
    -2
100
AcDbLine
 10
240.9404645612
 20
7.792552481780148
 30
0.0
 11
40.6906953283
 21
7.792552481780148
 31
0.0
  0
MTEXT
  5
405
330
AD
100
AcDbEntity
  8
0
  6
Continuous
 62
     0
440
 16777216
370
    18
100
AcDbMText
 10
143.4607188823
 20
12.16755248178015
 30
0.0
 40
3.5
 41
0.0
 46
0.0
 71
     2
 72
     1
  1
\A1;200.25
  7
SLDTEXTSTYLE0
 73
     1
 44
1.0
  0
POINT
  5
406
330
AD
100
AcDbEntity
  8
Defpoints
  6
Continuous
 62
     0
440
 16777216
100
AcDbPoint
 10
240.9404645612
 20
98.26632067700002
 30
0.0
  0
POINT
  5
407
330
AD
100
AcDbEntity
  8
Defpoints
  6
Continuous
 62
     0
440
 16777216
100
AcDbPoint
 10
40.6906953283
 20
46.7767306802
 30
0.0
  0
POINT
  5
408
330
AD
100
AcDbEntity
  8
Defpoints
  6
Continuous
 62
     0
440
 16777216
100
AcDbPoint
 10
40.6906953283
 20
7.792552481780148
 30
0.0
  0
ENDBLK
  5
AF
330
AD
100
AcDbEntity
  8
0
100
AcDbBlockEnd
  0
BLOCK
  5
B6
330
B5
100
AcDbEntity
  8
0
100
AcDbBlockBegin
  2
_D_2
 70
     0
 10
0.0
 20
0.0
 30
0.0
  3
_D_2
  1

  0
LINE
  5
B8
330
B5
100
AcDbEntity
  8
0
  6
Continuous
 62
     7
440
 16777216
370
     0
100
AcDbLine
 10
248.8726886796
 20
98.26632067700002
 30
0.0
 11
270.7892977315
 21
98.26632067700002
 31
0.0
  0
LINE
  5
B9
330
B5
100
AcDbEntity
  8
0
  6
Continuous
 62
     7
440
 16777216
370
     0
100
AcDbLine
 10
257.2633687771
 20
132.5916090691
 30
0.0
 11
270.7892977315
 21
132.5916090691
 31
0.0
  0
LINE
  5
BA
330
B5
100
AcDbEntity
  8
0
  6
Continuous
 62
     7
440
 16777216
370
     0
100
AcDbLine
 10
269.7892977315
 20
98.26632067700002
 30
0.0
 11
269.7892977315
 21
132.5916090691
 31
0.0
  0
MTEXT
  5
BB
330
B5
100
AcDbEntity
  8
0
  6
Continuous
 62
     7
440
 16777216
370
    18
100
AcDbMText
 10
265.2775608169
 20
110.2348671377
 30
0.0
 40
3.5
 41
0.0
 46
0.0
 71
     1
 72
     1
  1
35.00
  7
SLDTEXTSTYLE0
 11
0.0000000000000001
 21
1.0
 31
0.0
 73
     1
 44
1.0
  0
ENDBLK
  5
B7
330
B5
100
AcDbEntity
  8
0
100
AcDbBlockEnd
  0
BLOCK
  5
319
330
318
100
AcDbEntity
  8
0
100
AcDbBlockBegin
  2
_D_3
 70
     0
 10
0.0
 20
0.0
 30
0.0
  3
_D_3
  1

  0
LINE
  5
31B
330
318
100
AcDbEntity
  8
0
  6
Continuous
 62
     7
440
 16777216
370
     0
100
AcDbLine
 10
339.0106093583
 20
133.3948170818
 30
0.0
 11
339.0106093583
 21
153.3916090691
 31
0.0
  0
LINE
  5
31C
330
318
100
AcDbEntity
  8
0
  6
Continuous
 62
     7
440
 16777216
370
     0
100
AcDbLine
 10
364.4105918434
 20
133.6348516967
 30
0.0
 11
364.4105918434
 21
153.3916090691
 31
0.0
  0
LINE
  5
31D
330
318
100
AcDbEntity
  8
0
  6
Continuous
 62
     7
440
 16777216
370
     0
100
AcDbLine
 10
339.0106093583
 20
152.3916090691
 30
0.0
 11
364.4105918434
 21
152.3916090691
 31
0.0
  0
MTEXT
  5
31E
330
318
100
AcDbEntity
  8
0
  6
Continuous
 62
     7
440
 16777216
370
    18
100
AcDbMText
 10
344.6304088395
 20
156.9033459837
 30
0.0
 40
3.5
 41
0.0
 46
0.0
 71
     1
 72
     1
  1
25.00
  7
SLDTEXTSTYLE0
 73
     1
 44
1.0
  0
ENDBLK
  5
31A
330
318
100
AcDbEntity
  8
0
100
AcDbBlockEnd
  0
BLOCK
  5
331
330
330
100
AcDbEntity
  8
0
100
AcDbBlockBegin
  2
_D_4
 70
     0
 10
0.0
 20
0.0
 30
0.0
  3
_D_4
  1

  0
LINE
  5
333
330
330
100
AcDbEntity
  8
0
  6
Continuous
 62
     7
440
 16777216
370
     0
100
AcDbLine
 10
37.3565303973
 20
245.429355355
 30
0.0
 11
21.289483807
 21
245.429355355
 31
0.0
  0
LINE
  5
334
330
330
100
AcDbEntity
  8
0
  6
Continuous
 62
     7
440
 16777216
370
     0
100
AcDbLine
 10
37.0577942408
 20
191.429355355
 30
0.0
 11
21.289483807
 21
191.429355355
 31
0.0
  0
LINE
  5
335
330
330
100
AcDbEntity
  8
0
  6
Continuous
 62
     7
440
 16777216
370
     0
100
AcDbLine
 10
22.289483807
 20
245.429355355
 30
0.0
 11
22.289483807
 21
191.429355355
 31
0.0
  0
MTEXT
  5
336
330
330
100
AcDbEntity
  8
0
  6
Continuous
 62
     7
440
 16777216
370
    18
100
AcDbMText
 10
17.7777467178
 20
211.2100939682
 30
0.0
 40
3.5
 41
0.0
 46
0.0
 71
     1
 72
     1
  1
%%c
  7
SLDTEXTSTYLE0
 11
-0.000000000000007
 21
1.0
 31
0.0
 73
     1
 44
1.0
  0
MTEXT
  5
337
330
330
100
AcDbEntity
  8
0
  6
Continuous
 62
     7
440
 16777216
370
    18
100
AcDbMText
 10
17.72427454109999
 20
216.4885313666
 30
0.0
 40
3.5
 41
0.0
 46
0.0
 71
     1
 72
     1
  1
54.00
  7
SLDTEXTSTYLE0
 11
-0.000000000000007
 21
1.0
 31
0.0
 73
     1
 44
1.0
  0
ENDBLK
  5
332
330
330
100
AcDbEntity
  8
0
100
AcDbBlockEnd
  0
BLOCK
  5
37A
330
379
100
AcDbEntity
  8
0
100
AcDbBlockBegin
  2
*D7
 70
     1
 10
0.0
 20
0.0
 30
0.0
  3
*D7
  1

  0
LINE
  5
37B
330
379
100
AcDbEntity
  8
DIMENSION
440
 16777216
370
     0
100
AcDbLine
 10
-50.61684137493335
 20
12.8421456342
 30
0.0
 11
-60.61684137493335
 21
12.8421456342
 31
0.0
  0
LINE
  5
37C
330
379
100
AcDbEntity
  8
DIMENSION
440
 16777216
370
     0
100
AcDbLine
 10
-50.61684137493336
 20
75.45702402310002
 30
0.0
 11
-60.61684137493336
 21
75.45702402310002
 31
0.0
  0
LINE
  5
37D
330
379
100
AcDbEntity
  8
DIMENSION
440
 16777216
370
     0
100
AcDbLine
 10
-55.61684137493335
 20
12.8421456342
 30
0.0
 11
-55.61684137493337
 21
75.45702402310002
 31
0.0
  0
MTEXT
  5
37E
330
379
100
AcDbEntity
  8
DIMENSION
 62
     7
440
 16777216
100
AcDbMText
 10
-66.2835080416
 20
49.8667437547
 30
0.0
 40
8.0
 41
0.0
 46
0.0
 71
     2
 72
     1
  1
\A1;63
 73
     1
 44
1.0
  0
POINT
  5
37F
330
379
100
AcDbEntity
  8
Defpoints
 62
     0
440
 16777216
100
AcDbPoint
 10
-16.28350804160001
 20
12.84214563420001
 30
0.0
  0
POINT
  5
380
330
379
100
AcDbEntity
  8
Defpoints
 62
     0
440
 16777216
100
AcDbPoint
 10
16.5478254901
 20
75.45702402310003
 30
0.0
  0
POINT
  5
381
330
379
100
AcDbEntity
  8
Defpoints
 62
     0
440
 16777216
100
AcDbPoint
 10
-55.61684137493337
 20
75.45702402310002
 30
0.0
  0
ENDBLK
  5
382
330
379
100
AcDbEntity
  8
0
100
AcDbBlockEnd
  0
BLOCK
  5
384
330
383
100
AcDbEntity
  8
0
100
AcDbBlockBegin
  2
*D8
 70
     1
 10
0.0
 20
0.0
 30
0.0
  3
*D8
  1

  0
LINE
  5
385
330
383
100
AcDbEntity
  8
DIMENSION
440
 16777216
370
     0
100
AcDbLine
 10
29.614552544
 20
-24.2755889423172
 30
0.0
 11
29.614552544
 21
-34.2755889423172
 31
0.0
  0
LINE
  5
386
330
383
100
AcDbEntity
  8
DIMENSION
440
 16777216
370
     0
100
AcDbLine
 10
-16.2835080416
 20
-24.2755889423172
 30
0.0
 11
-16.2835080416
 21
-34.2755889423172
 31
0.0
  0
LINE
  5
387
330
383
100
AcDbEntity
  8
DIMENSION
440
 16777216
370
     0
100
AcDbLine
 10
29.614552544
 20
-29.2755889423172
 30
0.0
 11
-16.2835080416
 21
-29.2755889423172
 31
0.0
  0
MTEXT
  5
388
330
383
100
AcDbEntity
  8
DIMENSION
 62
     7
440
 16777216
100
AcDbMText
 10
6.665522251199997
 20
-37.2755889423172
 30
0.0
 40
8.0
 41
0.0
 46
0.0
 71
     5
 72
     1
  1
\A1;46
 73
     1
 44
1.0
  0
POINT
  5
389
330
383
100
AcDbEntity
  8
Defpoints
 62
     0
440
 16777216
100
AcDbPoint
 10
29.614552544
 20
-4.142975976899999
 30
0.0
  0
POINT
  5
38A
330
383
100
AcDbEntity
  8
Defpoints
 62
     0
440
 16777216
100
AcDbPoint
 10
-16.2835080416
 20
-14.1578543658
 30
0.0
  0
POINT
  5
38B
330
383
100
AcDbEntity
  8
Defpoints
 62
     0
440
 16777216
100
AcDbPoint
 10
-16.2835080416
 20
-29.2755889423172
 30
0.0
  0
ENDBLK
  5
38C
330
383
100
AcDbEntity
  8
0
100
AcDbBlockEnd
  0
BLOCK
  5
38E
330
38D
100
AcDbEntity
  8
0
100
AcDbBlockBegin
  2
*D9
 70
     1
 10
0.0
 20
0.0
 30
0.0
  3
*D9
  1

  0
LINE
  5
38F
330
38D
100
AcDbEntity
  8
DIMENSION
440
 16777216
370
     0
100
AcDbLine
 10
-6.283508041599999
 20
211.2013879336795
 30
0.0
 11
-6.283508041599998
 21
221.2013879336795
 31
0.0
  0
LINE
  5
390
330
38D
100
AcDbEntity
  8
DIMENSION
440
 16777216
370
     0
100
AcDbLine
 10
-16.2835080416
 20
211.2013879336795
 30
0.0
 11
-16.2835080416
 21
221.2013879336795
 31
0.0
  0
LINE
  5
391
330
38D
100
AcDbEntity
  8
DIMENSION
440
 16777216
370
     0
100
AcDbLine
 10
-6.283508041599998
 20
216.2013879336795
 30
0.0
 11
-16.2835080416
 21
216.2013879336795
 31
0.0
  0
LINE
  5
392
330
38D
100
AcDbEntity
  8
DIMENSION
440
 16777216
370
     0
100
AcDbLine
 10
-16.2835080416
 20
216.2013879336795
 30
0.0
 11
-37.11684137493333
 21
216.2013879336795
 31
0.0
  0
MTEXT
  5
393
330
38D
100
AcDbEntity
  8
DIMENSION
 62
     7
440
 16777216
100
AcDbMText
 10
-28.45017470826667
 20
224.2013879336795
 30
0.0
 40
8.0
 41
0.0
 46
0.0
 71
     5
 72
     1
  1
\A1;10
 73
     1
 44
1.0
  0
POINT
  5
394
330
38D
100
AcDbEntity
  8
Defpoints
 62
     0
440
 16777216
100
AcDbPoint
 10
-6.283508041599999
 20
206.9070621783
 30
0.0
  0
POINT
  5
395
330
38D
100
AcDbEntity
  8
Defpoints
 62
     0
440
 16777216
100
AcDbPoint
 10
-16.2835080416
 20
206.9070621783
 30
0.0
  0
POINT
  5
396
330
38D
100
AcDbEntity
  8
Defpoints
 62
     0
440
 16777216
100
AcDbPoint
 10
-16.2835080416
 20
216.2013879336795
 30
0.0
  0
ENDBLK
  5
397
330
38D
100
AcDbEntity
  8
0
100
AcDbBlockEnd
  0
BLOCK
  5
399
330
398
100
AcDbEntity
  8
0
100
AcDbBlockBegin
  2
*D10
 70
     1
 10
0.0
 20
0.0
 30
0.0
  3
*D10
  1

  0
LINE
  5
39A
330
398
100
AcDbEntity
  8
DIMENSION
440
 16777216
370
     0
100
AcDbLine
 10
-22.74847097938847
 20
58.94745074617037
 30
0.0
 11
-32.74847097938848
 21
58.94745074617037
 31
0.0
  0
LINE
  5
39B
330
398
100
AcDbEntity
  8
DIMENSION
440
 16777216
370
     0
100
AcDbLine
 10
-22.74847097938847
 20
12.52591786819485
 30
0.0
 11
-32.74847097938847
 21
12.52591786819485
 31
0.0
  0
LINE
  5
39C
330
398
100
AcDbEntity
  8
DIMENSION
440
 16777216
370
     0
100
AcDbLine
 10
-27.74847097938848
 20
58.94745074617037
 30
0.0
 11
-27.74847097938847
 21
12.52591786819485
 31
0.0
  0
MTEXT
  5
39D
330
398
100
AcDbEntity
  8
DIMENSION
 62
     7
440
 16777216
100
AcDbMText
 10
-38.41513764605513
 20
35.73668430718261
 30
0.0
 40
8.0
 41
0.0
 46
0.0
 71
     5
 72
     1
  1
\A1;46
 73
     1
 44
1.0
  0
POINT
  5
39E
330
398
100
AcDbEntity
  8
Defpoints
 62
     0
440
 16777216
100
AcDbPoint
 10
36.44894365464808
 20
58.94745074617038
 30
0.0
  0
POINT
  5
39F
330
398
100
AcDbEntity
  8
Defpoints
 62
     0
440
 16777216
100
AcDbPoint
 10
24.71649195844574
 20
12.52591786819486
 30
0.0
  0
POINT
  5
3A0
330
398
100
AcDbEntity
  8
Defpoints
 62
     0
440
 16777216
100
AcDbPoint
 10
-27.74847097938847
 20
12.52591786819485
 30
0.0
  0
ENDBLK
  5
3A1
330
398
100
AcDbEntity
  8
0
100
AcDbBlockEnd
  0
BLOCK
  5
3DA
330
3D9
100
AcDbEntity
  8
0
100
AcDbBlockBegin
  2
*D12
 70
     1
 10
0.0
 20
0.0
 30
0.0
  3
*D12
  1

  0
LINE
  5
410
330
3D9
100
AcDbEntity
  8
DIMENSION
440
 16777216
370
     0
100
AcDbLine
 10
6.357361994966645
 20
73.77673068020001
 30
0.0
 11
-3.642638005033357
 21
73.77673068020001
 31
0.0
  0
LINE
  5
411
330
3D9
100
AcDbEntity
  8
DIMENSION
440
 16777216
370
     0
100
AcDbLine
 10
6.357361994966636
 20
136.3916090691
 30
0.0
 11
-3.642638005033364
 21
136.3916090691
 31
0.0
  0
LINE
  5
412
330
3D9
100
AcDbEntity
  8
DIMENSION
440
 16777216
370
     0
100
AcDbLine
 10
1.357361994966643
 20
73.77673068020001
 30
0.0
 11
1.35736199496663
 21
136.3916090691
 31
0.0
  0
MTEXT
  5
413
330
3D9
100
AcDbEntity
  8
DIMENSION
 62
     7
440
 16777216
100
AcDbMText
 10
-9.309304671700001
 20
110.8013288007
 30
0.0
 40
8.0
 41
0.0
 46
0.0
 71
     2
 72
     1
  1
\A1;63
 73
     1
 44
1.0
  0
POINT
  5
414
330
3D9
100
AcDbEntity
  8
Defpoints
 62
     0
440
 16777216
100
AcDbPoint
 10
40.69069532830002
 20
73.77673068020003
 30
0.0
  0
POINT
  5
415
330
3D9
100
AcDbEntity
  8
Defpoints
 62
     0
440
 16777216
100
AcDbPoint
 10
73.52202886000004
 20
136.3916090691001
 30
0.0
  0
POINT
  5
416
330
3D9
100
AcDbEntity
  8
Defpoints
 62
     0
440
 16777216
100
AcDbPoint
 10
1.35736199496663
 20
136.3916090691
 30
0.0
  0
ENDBLK
  5
3DB
330
3D9
100
AcDbEntity
  8
0
100
AcDbBlockEnd
  0
BLOCK
  5
3E4
330
3E3
100
AcDbEntity
  8
0
100
AcDbBlockBegin
  2
*D13
 70
     1
 10
0.0
 20
0.0
 30
0.0
  3
*D13
  1

  0
LINE
  5
3E6
330
3E3
100
AcDbEntity
  8
DIMENSION
440
 16777216
370
     0
100
AcDbLine
 10
50.6906953283
 20
272.1359729796795
 30
0.0
 11
50.6906953283
 21
282.1359729796795
 31
0.0
  0
LINE
  5
3E7
330
3E3
100
AcDbEntity
  8
DIMENSION
440
 16777216
370
     0
100
AcDbLine
 10
40.6906953283
 20
272.1359729796795
 30
0.0
 11
40.6906953283
 21
282.1359729796795
 31
0.0
  0
LINE
  5
3E8
330
3E3
100
AcDbEntity
  8
DIMENSION
440
 16777216
370
     0
100
AcDbLine
 10
50.6906953283
 20
277.1359729796795
 30
0.0
 11
40.6906953283
 21
277.1359729796795
 31
0.0
  0
LINE
  5
3E9
330
3E3
100
AcDbEntity
  8
DIMENSION
440
 16777216
370
     0
100
AcDbLine
 10
40.6906953283
 20
277.1359729796795
 30
0.0
 11
19.85736199496667
 21
277.1359729796795
 31
0.0
  0
MTEXT
  5
3EA
330
3E3
100
AcDbEntity
  8
DIMENSION
 62
     7
440
 16777216
100
AcDbMText
 10
28.52402866163334
 20
285.1359729796795
 30
0.0
 40
8.0
 41
0.0
 46
0.0
 71
     5
 72
     1
  1
\A1;10
 73
     1
 44
1.0
  0
POINT
  5
3EB
330
3E3
100
AcDbEntity
  8
Defpoints
 62
     0
440
 16777216
100
AcDbPoint
 10
50.6906953283
 20
267.8416472243
 30
0.0
  0
POINT
  5
3EC
330
3E3
100
AcDbEntity
  8
Defpoints
 62
     0
440
 16777216
100
AcDbPoint
 10
40.6906953283
 20
267.8416472243
 30
0.0
  0
POINT
  5
3ED
330
3E3
100
AcDbEntity
  8
Defpoints
 62
     0
440
 16777216
100
AcDbPoint
 10
40.6906953283
 20
277.1359729796795
 30
0.0
  0
ENDBLK
  5
3E5
330
3E3
100
AcDbEntity
  8
0
100
AcDbBlockEnd
  0
BLOCK
  5
3EF
330
3EE
100
AcDbEntity
  8
0
100
AcDbBlockBegin
  2
*D14
 70
     1
 10
0.0
 20
0.0
 30
0.0
  3
*D14
  1

  0
LINE
  5
409
330
3EE
100
AcDbEntity
  8
DIMENSION
440
 16777216
370
     0
100
AcDbLine
 10
86.5887559139
 20
36.6589961036828
 30
0.0
 11
86.5887559139
 21
26.6589961036828
 31
0.0
  0
LINE
  5
40A
330
3EE
100
AcDbEntity
  8
DIMENSION
440
 16777216
370
     0
100
AcDbLine
 10
40.6906953283
 20
36.6589961036828
 30
0.0
 11
40.6906953283
 21
26.6589961036828
 31
0.0
  0
LINE
  5
40B
330
3EE
100
AcDbEntity
  8
DIMENSION
440
 16777216
370
     0
100
AcDbLine
 10
86.5887559139
 20
31.6589961036828
 30
0.0
 11
40.6906953283
 21
31.6589961036828
 31
0.0
  0
MTEXT
  5
40C
330
3EE
100
AcDbEntity
  8
DIMENSION
 62
     7
440
 16777216
100
AcDbMText
 10
63.63972562109999
 20
23.65899610368281
 30
0.0
 40
8.0
 41
0.0
 46
0.0
 71
     5
 72
     1
  1
\A1;46
 73
     1
 44
1.0
  0
POINT
  5
40D
330
3EE
100
AcDbEntity
  8
Defpoints
 62
     0
440
 16777216
100
AcDbPoint
 10
86.5887559139
 20
56.7916090691
 30
0.0
  0
POINT
  5
40E
330
3EE
100
AcDbEntity
  8
Defpoints
 62
     0
440
 16777216
100
AcDbPoint
 10
40.6906953283
 20
46.7767306802
 30
0.0
  0
POINT
  5
40F
330
3EE
100
AcDbEntity
  8
Defpoints
 62
     0
440
 16777216
100
AcDbPoint
 10
40.6906953283
 20
31.6589961036828
 30
0.0
  0
ENDBLK
  5
3F0
330
3EE
100
AcDbEntity
  8
0
100
AcDbBlockEnd
  0
BLOCK
  5
3F9
330
3F8
100
AcDbEntity
  8
0
100
AcDbBlockBegin
  2
*D15
 70
     1
 10
0.0
 20
0.0
 30
0.0
  3
*D15
  1

  0
LINE
  5
3FB
330
3F8
100
AcDbEntity
  8
DIMENSION
440
 16777216
370
     0
100
AcDbLine
 10
34.22573239051152
 20
119.8820357921704
 30
0.0
 11
24.22573239051152
 21
119.8820357921704
 31
0.0
  0
LINE
  5
3FC
330
3F8
100
AcDbEntity
  8
DIMENSION
440
 16777216
370
     0
100
AcDbLine
 10
34.22573239051153
 20
73.46050291419487
 30
0.0
 11
24.22573239051153
 21
73.46050291419486
 31
0.0
  0
LINE
  5
3FD
330
3F8
100
AcDbEntity
  8
DIMENSION
440
 16777216
370
     0
100
AcDbLine
 10
29.22573239051152
 20
119.8820357921704
 30
0.0
 11
29.22573239051153
 21
73.46050291419486
 31
0.0
  0
MTEXT
  5
3FE
330
3F8
100
AcDbEntity
  8
DIMENSION
 62
     7
440
 16777216
100
AcDbMText
 10
18.55906572384488
 20
96.67126935318261
 30
0.0
 40
8.0
 41
0.0
 46
0.0
 71
     5
 72
     1
  1
\A1;46
 73
     1
 44
1.0
  0
POINT
  5
3FF
330
3F8
100
AcDbEntity
  8
Defpoints
 62
     0
440
 16777216
100
AcDbPoint
 10
93.4231470245481
 20
119.8820357921704
 30
0.0
  0
POINT
  5
400
330
3F8
100
AcDbEntity
  8
Defpoints
 62
     0
440
 16777216
100
AcDbPoint
 10
81.69069532834575
 20
73.46050291419487
 30
0.0
  0
POINT
  5
401
330
3F8
100
AcDbEntity
  8
Defpoints
 62
     0
440
 16777216
100
AcDbPoint
 10
29.22573239051153
 20
73.46050291419486
 30
0.0
  0
ENDBLK
  5
3FA
330
3F8
100
AcDbEntity
  8
0
100
AcDbBlockEnd
  0
BLOCK
  5
418
330
417
100
AcDbEntity
  8
0
100
AcDbBlockBegin
  2
*D16
 70
     1
 10
0.0
 20
0.0
 30
0.0
  3
*D16
  1

  0
LINE
  5
456
330
417
100
AcDbEntity
  8
DIMENSION
440
 16777216
370
     0
100
AcDbLine
 10
339.0106093583
 20
147.3916090691
 30
0.0
 11
339.0106093583
 21
157.3916090691
 31
0.0
  0
LINE
  5
457
330
417
100
AcDbEntity
  8
DIMENSION
440
 16777216
370
     0
100
AcDbLine
 10
364.4105918434
 20
147.3916090691
 30
0.0
 11
364.4105918434
 21
157.3916090691
 31
0.0
  0
LINE
  5
458
330
417
100
AcDbEntity
  8
DIMENSION
440
 16777216
370
     0
100
AcDbLine
 10
339.0106093583
 20
152.3916090691
 30
0.0
 11
364.4105918434
 21
152.3916090691
 31
0.0
  0
MTEXT
  5
459
330
417
100
AcDbEntity
  8
DIMENSION
 62
     7
440
 16777216
100
AcDbMText
 10
351.71060060085
 20
164.3916090691
 30
0.0
 40
8.0
 41
0.0
 46
0.0
 71
     2
 72
     1
  1
\A1;%%C25
 73
     1
 44
1.0
  0
POINT
  5
45A
330
417
100
AcDbEntity
  8
Defpoints
 62
     0
440
 16777216
100
AcDbPoint
 10
339.0106093583
 20
119.8916090691
 30
0.0
  0
POINT
  5
45B
330
417
100
AcDbEntity
  8
Defpoints
 62
     0
440
 16777216
100
AcDbPoint
 10
364.4105918434
 20
119.8916090691
 30
0.0
  0
POINT
  5
45C
330
417
100
AcDbEntity
  8
Defpoints
 62
     0
440
 16777216
100
AcDbPoint
 10
364.4105918434
 20
152.3916090691
 30
0.0
  0
ENDBLK
  5
419
330
417
100
AcDbEntity
  8
0
100
AcDbBlockEnd
  0
BLOCK
  5
426
330
425
100
AcDbEntity
  8
0
100
AcDbBlockBegin
  2
*D17
 70
     1
 10
0.0
 20
0.0
 30
0.0
  3
*D17
  1

  0
LINE
  5
44F
330
425
100
AcDbEntity
  8
DIMENSION
440
 16777216
370
     0
100
AcDbLine
 10
264.7892977315001
 20
98.26632067700007
 30
0.0
 11
274.7892977315001
 21
98.26632067700007
 31
0.0
  0
LINE
  5
450
330
425
100
AcDbEntity
  8
DIMENSION
440
 16777216
370
     0
100
AcDbLine
 10
264.7892977315
 20
132.5916090691
 30
0.0
 11
274.7892977315
 21
132.5916090691
 31
0.0
  0
LINE
  5
451
330
425
100
AcDbEntity
  8
DIMENSION
440
 16777216
370
     0
100
AcDbLine
 10
269.7892977315001
 20
98.26632067700007
 30
0.0
 11
269.7892977315
 21
132.5916090691
 31
0.0
  0
MTEXT
  5
452
330
425
100
AcDbEntity
  8
DIMENSION
 62
     7
440
 16777216
100
AcDbMText
 10
280.4559643981667
 20
120.0536173813
 30
0.0
 40
8.0
 41
0.0
 46
0.0
 71
     2
 72
     1
  1
\A1;35
 73
     1
 44
1.0
  0
POINT
  5
453
330
425
100
AcDbEntity
  8
Defpoints
 62
     0
440
 16777216
100
AcDbPoint
 10
240.9404645612001
 20
98.26632067700007
 30
0.0
  0
POINT
  5
454
330
425
100
AcDbEntity
  8
Defpoints
 62
     0
440
 16777216
100
AcDbPoint
 10
250.6918820380001
 20
132.5916090691
 30
0.0
  0
POINT
  5
455
330
425
100
AcDbEntity
  8
Defpoints
 62
     0
440
 16777216
100
AcDbPoint
 10
269.7892977315
 20
132.5916090691
 30
0.0
  0
ENDBLK
  5
427
330
425
100
AcDbEntity
  8
0
100
AcDbBlockEnd
  0
BLOCK
  5
434
330
433
100
AcDbEntity
  8
0
100
AcDbBlockBegin
  2
*D18
 70
     1
 10
0.0
 20
0.0
 30
0.0
  3
*D18
  1

  0
LINE
  5
436
330
433
100
AcDbEntity
  8
DIMENSION
440
 16777216
370
     0
100
AcDbLine
 10
240.9404645612
 20
12.79255248178015
 30
0.0
 11
240.9404645612
 21
2.792552481780148
 31
0.0
  0
LINE
  5
437
330
433
100
AcDbEntity
  8
DIMENSION
440
 16777216
370
     0
100
AcDbLine
 10
40.6906953283
 20
12.79255248178015
 30
0.0
 11
40.6906953283
 21
2.792552481780148
 31
0.0
  0
LINE
  5
438
330
433
100
AcDbEntity
  8
DIMENSION
440
 16777216
370
     0
100
AcDbLine
 10
240.9404645612
 20
7.792552481780148
 30
0.0
 11
40.6906953283
 21
7.792552481780148
 31
0.0
  0
MTEXT
  5
439
330
433
100
AcDbEntity
  8
DIMENSION
 62
     7
440
 16777216
100
AcDbMText
 10
143.4607188823
 20
3.792552481780148
 30
0.0
 40
8.0
 41
0.0
 46
0.0
 71
     2
 72
     1
  1
\A1;200
 73
     1
 44
1.0
  0
POINT
  5
43A
330
433
100
AcDbEntity
  8
Defpoints
 62
     0
440
 16777216
100
AcDbPoint
 10
240.9404645612
 20
98.26632067700002
 30
0.0
  0
POINT
  5
43B
330
433
100
AcDbEntity
  8
Defpoints
 62
     0
440
 16777216
100
AcDbPoint
 10
40.6906953283
 20
46.7767306802
 30
0.0
  0
POINT
  5
43C
330
433
100
AcDbEntity
  8
Defpoints
 62
     0
440
 16777216
100
AcDbPoint
 10
40.6906953283
 20
7.792552481780148
 30
0.0
  0
ENDBLK
  5
435
330
433
100
AcDbEntity
  8
0
100
AcDbBlockEnd
  0
BLOCK
  5
442
330
441
100
AcDbEntity
  8
0
100
AcDbBlockBegin
  2
*D19
 70
     1
 10
0.0
 20
0.0
 30
0.0
  3
*D19
  1

  0
LINE
  5
444
330
441
100
AcDbEntity
  8
DIMENSION
440
 16777216
370
     0
100
AcDbLine
 10
27.28948380699994
 20
245.4293553550001
 30
0.0
 11
17.28948380699993
 21
245.4293553550001
 31
0.0
  0
LINE
  5
445
330
441
100
AcDbEntity
  8
DIMENSION
440
 16777216
370
     0
100
AcDbLine
 10
27.28948380699995
 20
191.4293553550001
 30
0.0
 11
17.28948380699994
 21
191.4293553550001
 31
0.0
  0
LINE
  5
446
330
441
100
AcDbEntity
  8
DIMENSION
440
 16777216
370
     0
100
AcDbLine
 10
22.28948380699993
 20
245.4293553550001
 30
0.0
 11
22.28948380699995
 21
191.4293553550001
 31
0.0
  0
MTEXT
  5
447
330
441
100
AcDbEntity
  8
DIMENSION
 62
     7
440
 16777216
100
AcDbMText
 10
7.62281714033333
 20
223.668062911
 30
0.0
 40
8.0
 41
0.0
 46
0.0
 71
     2
 72
     1
  1
\A1;%%c54
 73
     1
 44
1.0
  0
POINT
  5
448
330
441
100
AcDbEntity
  8
Defpoints
 62
     0
440
 16777216
100
AcDbPoint
 10
40.69069532830002
 20
245.4293553550001
 30
0.0
  0
POINT
  5
449
330
441
100
AcDbEntity
  8
Defpoints
 62
     0
440
 16777216
100
AcDbPoint
 10
40.69069532830002
 20
191.4293553550001
 30
0.0
  0
POINT
  5
44A
330
441
100
AcDbEntity
  8
Defpoints
 62
     0
440
 16777216
100
AcDbPoint
 10
22.28948380699995
 20
191.4293553550001
 30
0.0
  0
ENDBLK
  5
443
330
441
100
AcDbEntity
  8
0
100
AcDbBlockEnd
  0
ENDSEC
  0
SECTION
  2
ENTITIES
  0
LINE
  5
74
330
1F
100
AcDbEntity
  8
DIMENSION
100
AcDbLine
 10
227.0450745228
 20
107.351745872
 30
0.0
 11
231.4182140913
 21
95.3366353702
 31
0.0
  0
LINE
  5
75
330
1F
100
AcDbEntity
  8
DIMENSION
100
AcDbLine
 10
250.1180987533
 20
102.1428320781
 30
0.0
 11
248.2233878548
 21
107.3485110778
 31
0.0
  0
LINE
  5
76
330
1F
100
AcDbEntity
  8
DIMENSION
100
AcDbLine
 10
231.4182153945
 20
95.3366341363
 30
0.0
 11
232.059071631
 21
95.03779785549999
 31
0.0
  0
LINE
  5
77
330
1F
100
AcDbEntity
  8
DIMENSION
100
AcDbLine
 10
249.8192621639
 20
101.5019741069
 30
0.0
 11
250.1180985481
 21
102.1428302952
 31
0.0
  0
LINE
  5
78
330
1F
100
AcDbEntity
  8
DIMENSION
100
AcDbLine
 10
101.72202886
 20
132.7108821598
 30
0.0
 11
101.72202886
 21
136.3916090691
 31
0.0
  0
LINE
  5
79
330
1F
100
AcDbEntity
  8
DIMENSION
100
AcDbLine
 10
101.72202886
 20
102.3916090691
 30
0.0
 11
101.72202886
 21
107.0747732529
 31
0.0
  0
LINE
  5
7A
330
1F
100
AcDbEntity
  8
DIMENSION
100
AcDbLine
 10
73.52202886
 20
136.3916090691
 30
0.0
 11
73.52202886
 21
102.3916090691
 31
0.0
  0
LINE
  5
7B
330
1F
100
AcDbEntity
  8
DIMENSION
100
AcDbLine
 10
250.691882038
 20
132.5916090691
 30
0.0
 11
101.5834304063
 21
132.5916090691
 31
0.0
  0
LINE
  5
7C
330
1F
100
AcDbEntity
  8
DIMENSION
100
AcDbLine
 10
248.4923076318
 20
107.1916090691
 30
0.0
 11
250.691882038
 21
107.1916090691
 31
0.0
  0
LINE
  5
7D
330
1F
100
AcDbEntity
  8
DIMENSION
100
AcDbLine
 10
101.5834903031
 20
107.1916090691
 30
0.0
 11
226.9134973889
 21
107.1916090691
 31
0.0
  0
LINE
  5
7E
330
1F
100
AcDbEntity
  8
DIMENSION
100
AcDbLine
 10
73.52202886
 20
102.2916090691
 30
0.0
 11
73.52202886
 21
86.47673068020001
 31
0.0
  0
LINE
  5
7F
330
1F
100
AcDbEntity
  8
DIMENSION
100
AcDbLine
 10
73.52202886
 20
61.07673068020001
 30
0.0
 11
73.52202886
 21
57.29160906909999
 31
0.0
  0
LINE
  5
80
330
1F
100
AcDbEntity
  8
DIMENSION
100
AcDbLine
 10
101.72202886
 20
57.29160906909999
 30
0.0
 11
101.72202886
 21
102.2916090691
 31
0.0
  0
ARC
  5
81
330
1F
100
AcDbEntity
  8
DIMENSION
100
AcDbCircle
 10
74.02202886000001
 20
57.29160906909999
 30
0.0
 40
0.5
100
AcDbArc
 50
180.0
 51
270.0
  0
ARC
  5
82
330
1F
100
AcDbEntity
  8
DIMENSION
100
AcDbCircle
 10
101.22202886
 20
57.29160906909999
 30
0.0
 40
0.5
100
AcDbArc
 50
270.0
 51
0.0
  0
LINE
  5
83
330
1F
100
AcDbEntity
  8
0
  6
Continuous
 62
     7
370
    25
100
AcDbLine
 10
40.6906953283
 20
46.7767306802
 30
0.0
 11
50.6906953283
 21
46.7767306802
 31
0.0
  0
LINE
  5
84
330
1F
100
AcDbEntity
  8
0
  6
Continuous
 62
     7
370
    25
100
AcDbLine
 10
50.6906953283
 20
100.7767306802
 30
0.0
 11
40.6906953283
 21
100.7767306802
 31
0.0
  0
LINE
  5
85
330
1F
100
AcDbEntity
  8
DIMENSION
100
AcDbLine
 10
50.6906953283
 20
61.07673068020001
 30
0.0
 11
73.5220796464
 21
61.07673068020001
 31
0.0
  0
LINE
  5
86
330
1F
100
AcDbEntity
  8
DIMENSION
100
AcDbLine
 10
73.5220796464
 20
86.47673068020001
 30
0.0
 11
50.6906953283
 21
86.47673068020001
 31
0.0
  0
LWPOLYLINE
  5
87
330
1F
100
AcDbEntity
  8
DIMENSION
100
AcDbPolyline
 90
       27
 70
   128
 43
0.0
 10
231.4182140913
 20
95.3366353702
 10
231.424987538
 20
95.33926317950001
 10
231.5471980155
 20
95.38428624959999
 10
231.8208163752
 20
95.48440567450001
 10
232.2413498111
 20
95.637977496
 10
232.8018931758
 20
95.84248006889998
 10
233.4932423628
 20
96.0945554669
 10
234.3040454375
 20
96.39006461860001
 10
235.2209890358
 20
96.72415527209999
 10
236.2290169693
 20
97.09134166810001
 10
237.3115774471
 20
97.4855946161
 10
238.4508948562
 20
97.90044049350001
 10
239.6282616361
 20
98.32906754260001
 10
240.8243454568
 20
98.7644377191
 10
242.0195066552
 20
99.19940225659999
 10
243.1941207173
 20
99.62681904950002
 10
244.3289005128
 20
100.0396699259
 10
245.4052129887
 20
100.4311758859
 10
246.4053851241
 20
100.7949084122
 10
247.31299412
 20
101.1248950271
 10
248.1131370618
 20
101.4157173593
 10
248.7926756246
 20
101.6626001141
 10
249.340451804
 20
101.8614894837
 10
249.7474711302
 20
102.00911971
 10
250.0070503571
 20
102.1030667088
 10
250.114927201
 20
102.1417878729
 10
250.1180987533
 20
102.1428320781
  0
LWPOLYLINE
  5
88
330
1F
100
AcDbEntity
  8
DIMENSION
100
AcDbPolyline
 90
       32
 70
   128
 43
0.0
 10
234.696460973
 20
95.9948577823
 10
234.2510455201
 20
95.8329554548
 10
233.5457719623
 20
95.57667691410001
 10
232.9670014328
 20
95.3664799517
 10
232.5246368557
 20
95.20596109600001
 10
232.2262472117
 20
95.0978668691
 10
232.0769380303
 20
95.04404679309999
 10
232.0792640329
 20
95.0454217445
 10
232.2331854211
 20
95.10196819749999
 10
232.5360685571
 20
95.21271862669999
 10
232.9827310266
 20
95.3757780613
 10
233.5655303109
 20
95.5883565094
 10
234.2744945526
 20
95.8468166948
 10
235.097493177
 20
96.14673629190001
 10
236.0204444495
 20
96.48298359340001
 10
237.0275564178
 20
96.84980531469999
 10
238.101597117
 20
97.24092503440001
 10
239.224189413
 20
97.6496505857
 10
240.3761254403
 20
98.06898856110001
 10
241.5376952541
 20
98.49176397149999
 10
242.6890240729
 20
98.91074301260001
 10
243.8104123413
 20
99.3187568367
 10
244.8826727952
 20
99.70882421410001
 10
245.8874587609
 20
100.0742709839
 10
246.807578072
 20
100.4088442506
 10
247.627287232
 20
100.7068193728
 10
248.3325607898
 20
100.9630979135
 10
248.9113313193
 20
101.1732948759
 10
249.3536958964
 20
101.3338137316
 10
249.6520855404
 20
101.4419079585
 10
249.8013947218
 20
101.4957280345
 10
249.8192621639
 20
101.5019741069
  0
LWPOLYLINE
  5
89
330
1F
100
AcDbEntity
  8
DIMENSION
100
AcDbPolyline
 90
       23
 70
   128
 43
0.0
 10
233.9384559401
 20
95.72184023250001
 10
233.9918211904
 20
95.74165520059999
 10
234.1980041257
 20
95.81716619139999
 10
234.5547734862
 20
95.9474669213
 10
235.0541596341
 20
96.1296466873
 10
235.6850071078
 20
96.35963589459999
 10
236.4332238174
 20
96.63229696409999
 10
237.2820958379
 20
96.94153909829999
 10
238.2126607711
 20
97.28045433890001
 10
239.2041313341
 20
97.64147187929999
 10
240.2343597128
 20
98.0165271843
 10
241.2803323078
 20
98.3972421382
 10
242.3186838196
 20
98.77511219799998
 10
243.3262191913
 20
99.14169637100002
 10
244.2804317476
 20
99.48880577250001
 10
245.1600059568
 20
99.80868655209999
 10
245.9452935844
 20
100.0941931017
 10
246.6187526026
 20
100.3389476768
 10
247.1653390498
 20
100.5374828647
 10
247.5728430878
 20
100.6853637172
 10
247.8321617499
 20
100.7792868207
 10
247.9375022858
 20
100.817154088
 10
247.9398759898
 20
100.8179368539
  0
SPLINE
  5
8A
330
1F
100
AcDbEntity
  8
DIMENSION
100
AcDbSpline
210
0.0
220
0.0
230
1.0
 70
     8
 71
     3
 72
    32
 73
    28
 74
     0
 42
0.00000001
 43
0.0000000001
 40
0.0
 40
0.0
 40
0.0
 40
0.0
 40
0.0259973215629038
 40
0.0620654571635151
 40
0.0990959979747168
 40
0.1370351070788106
 40
0.1757551517374062
 40
0.2335502719092838
 40
0.2929949382411657
 40
0.3523518198451137
 40
0.4131274632897471
 40
0.4383481216042617
 40
0.4639647867682034
 40
0.4848732192219369
 40
0.5063648914681373
 40
0.5272876955383281
 40
0.5487546679476385
 40
0.5848082229182847
 40
0.6217474092713432
 40
0.6878119596158872
 40
0.7557417152856361
 40
0.8066165859773624
 40
0.8587532246914406
 40
0.8990165961989312
 40
0.9403513296576273
 40
0.9806665207947023
 40
1.0
 40
1.0
 40
1.0
 40
1.0
 10
101.6940432521277
 20
132.7108821597989
 30
0.0
 10
101.6961684490004
 20
132.7137154189107
 30
0.0
 10
101.7012420991895
 20
132.7204794819551
 30
0.0
 10
101.4782658986223
 20
132.4774513238798
 30
0.0
 10
101.0897447558057
 20
132.0506922243989
 30
0.0
 10
100.5304877082843
 20
131.4305722071615
 30
0.0
 10
99.72313500945739
 20
130.5235578330742
 30
0.0
 10
98.61851736503508
 20
129.2552584247434
 30
0.0
 10
97.233095078236
 20
127.5917156444632
 30
0.0
 10
95.77983058315771
 20
125.6974796274292
 30
0.0
 10
94.66046819679965
 20
123.9832343713186
 30
0.0
 10
93.96176407152498
 20
122.5336699452321
 30
0.0
 10
93.61570249580401
 20
121.5421562984174
 30
0.0
 10
93.42413512781229
 20
120.5563816144351
 30
0.0
 10
93.39185160253391
 20
119.617171292364
 30
0.0
 10
93.5134430418069
 20
118.679234795918
 30
0.0
 10
93.82388581423805
 20
117.5692455850721
 30
0.0
 10
94.38933082178193
 20
116.3185866428544
 30
0.0
 10
95.4008828146358
 20
114.628912638708
 30
0.0
 10
96.78179300712947
 20
112.751224453339
 30
0.0
 10
98.25686649261079
 20
110.9537983277743
 30
0.0
 10
99.50377581285401
 20
109.5081456519595
 30
0.0
 10
100.4067233980682
 20
108.4902230990068
 30
0.0
 10
101.0789344066988
 20
107.7442776862806
 30
0.0
 10
101.5022665142293
 20
107.27943369954
 30
0.0
 10
101.7187243337888
 20
107.0437372952254
 30
0.0
 10
101.6984065840198
 20
107.0671761813267
 30
0.0
 10
101.6918211431306
 20
107.0747732528865
 30
0.0
  0
LINE
  5
8B
330
1F
100
AcDbEntity
  8
DIMENSION
100
AcDbLine
 10
87.605470366
 20
102.3916090691
 30
0.0
 11
73.52202886
 21
102.3916090691
 31
0.0
  0
LINE
  5
8C
330
1F
100
AcDbEntity
  8
DIMENSION
100
AcDbLine
 10
101.72202886
 20
102.3916090691
 30
0.0
 11
87.605470366
 21
102.3916090691
 31
0.0
  0
LINE
  5
8D
330
1F
100
AcDbEntity
  8
DIMENSION
100
AcDbLine
 10
87.605470366
 20
136.3916090691
 30
0.0
 11
73.52202886
 21
136.3916090691
 31
0.0
  0
LINE
  5
8E
330
1F
100
AcDbEntity
  8
DIMENSION
100
AcDbLine
 10
101.72202886
 20
136.3916090691
 30
0.0
 11
87.605470366
 21
136.3916090691
 31
0.0
  0
LWPOLYLINE
  5
8F
330
1F
100
AcDbEntity
  8
DIMENSION
100
AcDbPolyline
 90
       56
 70
   128
 43
0.0
 10
250.7067964262
 20
119.8916090691
 10
250.7066992102
 20
121.3392999747
 10
250.7064088298
 20
122.7681180154
 10
250.7059290704
 20
124.1594363629
 10
250.7052661865
 20
125.4951170549
 10
250.7044288197
 20
126.7577474508
 10
250.7034278865
 20
127.9308672325
 10
250.7022764354
 20
128.9991829895
 10
250.7009894775
 20
129.9487675923
 10
250.6995837902
 20
130.7672417533
 10
250.6980776988
 20
131.4439354101
 10
250.6964908374
 20
131.9700268261
 10
250.6948438933001
 20
132.338657595
 10
250.6931583369
 20
132.5450220511
 10
250.691456142
 20
132.586429918
 10
250.6897594993
 20
132.462341381
 10
250.6880905271
 20
132.1743741238
 10
250.6864709831
 20
131.7262822401
 10
250.6849219804
 20
131.1239072928
 10
250.6834637128
 20
130.3751021605
 10
250.6821151908
 20
129.4896286634
 10
250.6808939947
 20
128.4790303026
 10
250.6798160445
 20
127.3564817732
 10
250.678895393
 20
126.1366172121
 10
250.6781440423
 20
124.8353394193
 10
250.6775717874
 20
123.469612541
 10
250.6771860884
 20
122.0572409155
 10
250.6769919737
 20
120.6166369671
 10
250.6769919737
 20
119.1665811711
 10
250.6771860884
 20
117.7259772227
 10
250.6775717874
 20
116.3136055972
 10
250.6781440423
 20
114.9478787189
 10
250.678895393
 20
113.6466009261
 10
250.6798160445
 20
112.426736365
 10
250.6808939947
 20
111.3041878356
 10
250.6821151908
 20
110.2935894748
 10
250.6834637128
 20
109.4081159777
 10
250.6849219804
 20
108.6593108454
 10
250.6864709831
 20
108.0569358981
 10
250.6880905271
 20
107.6088440144
 10
250.6897594993
 20
107.3208767572
 10
250.691456142
 20
107.1967882202
 10
250.6931583369
 20
107.2381960871
 10
250.6948438933001
 20
107.4445605432
 10
250.6964908374
 20
107.8131913122
 10
250.6980776988
 20
108.3392827281
 10
250.6995837902
 20
109.0159763849
 10
250.7009894775
 20
109.8344505459
 10
250.7022764354
 20
110.7840351487
 10
250.7034278865
 20
111.8523509057
 10
250.7044288197
 20
113.0254706874
 10
250.7052661865
 20
114.2881010833
 10
250.7059290704
 20
115.6237817753
 10
250.7064088298
 20
117.0151001228
 10
250.7066992102
 20
118.4439181635
 10
250.7067964262
 20
119.8916090691
  0
SPLINE
  5
91
330
1F
100
AcDbEntity
  8
DIMENSION
100
AcDbSpline
210
0.0
220
0.0
230
1.0
 70
     8
 71
     3
 72
    13
 73
     9
 74
     0
 42
0.00000001
 43
0.0000000001
 40
0.0
 40
0.0
 40
0.0
 40
0.0
 40
0.001979890543042
 40
0.1936065638513047
 40
0.3606831523975594
 40
0.5317271654341682
 40
0.7628655671849791
 40
1.0
 40
1.0
 40
1.0
 40
1.0
 10
248.4923075994896
 20
107.1922053182967
 30
0.0
 10
248.4926378755951
 20
107.1920068049607
 30
0.0
 10
248.5249344195277
 20
107.1725948809105
 30
0.0
 10
248.4111563982921
 20
107.2389874261464
 30
0.0
 10
248.1579418873595
 20
107.3868524900907
 30
0.0
 10
247.7105592575099
 20
107.6467413018222
 30
0.0
 10
247.0530382501623
 20
108.0257503790977
 30
0.0
 10
246.4384887823097
 20
108.369208965936
 30
0.0
 10
246.1272795283475
 20
108.5431371786645
 30
0.0
  0
SPLINE
  5
92
330
1F
100
AcDbEntity
  8
DIMENSION
100
AcDbSpline
210
0.0
220
0.0
230
1.0
 70
     8
 71
     3
 72
    25
 73
    21
 74
     0
 42
0.00000001
 43
0.0000000001
 40
0.0
 40
0.0
 40
0.0
 40
0.0
 40
0.0250524371585606
 40
0.1129711453567091
 40
0.2033130067412987
 40
0.2772242167169811
 40
0.3526885323873231
 40
0.3950232250121803
 40
0.4382756063074507
 40
0.4807046697951061
 40
0.5247357675827863
 40
0.5624252161607699
 40
0.6008915706980391
 40
0.6597751070530076
 40
0.7203300131758629
 40
0.780320117982532
 40
0.8419304864692053
 40
0.9034717549446462
 40
0.9671893823400568
 40
1.0
 40
1.0
 40
1.0
 40
1.0
 10
246.1272795283476
 20
108.5431371786645
 30
0.0
 10
245.9753350902674
 20
108.6269663195893
 30
0.0
 10
245.2901587502627
 20
109.0049843944216
 30
0.0
 10
243.8886663534094
 20
109.7483932547072
 30
0.0
 10
241.962147547251
 20
110.6756531944658
 30
0.0
 10
239.9774214662964
 20
111.4782228059367
 30
0.0
 10
238.277144592928
 20
111.9864650498533
 30
0.0
 10
236.7821755061397
 20
112.231327132596
 30
0.0
 10
235.5681281337142
 20
112.2822742810201
 30
0.0
 10
234.3456308059462
 20
112.1530493271803
 30
0.0
 10
233.2281742331089
 20
111.8528788614964
 30
0.0
 10
232.228835409997
 20
111.435691641466
 30
0.0
 10
231.2014587194059
 20
110.8784585003334
 30
0.0
 10
230.1418716507411
 20
110.1542426581191
 30
0.0
 10
229.1227830467186
 20
109.3298861280333
 30
0.0
 10
228.2708445267296
 20
108.5630708700299
 30
0.0
 10
227.600697281549
 20
107.9160901570389
 30
0.0
 10
227.1355128488737
 20
107.4467017146288
 30
0.0
 10
226.9025681146064
 20
107.2054388897484
 30
0.0
 10
226.9107250872128
 20
107.2128500922068
 30
0.0
 10
226.9134976985795
 20
107.2153692111458
 30
0.0
  0
LINE
  5
93
330
1F
100
AcDbEntity
  8
DIMENSION
100
AcDbLine
 10
73.52202886
 20
102.2916090691
 30
0.0
 11
101.72202886
 21
102.2916090691
 31
0.0
  0
LINE
  5
94
330
1F
100
AcDbEntity
  8
DIMENSION
100
AcDbLine
 10
101.22202886
 20
56.79160906909999
 30
0.0
 11
74.02202886000001
 21
56.79160906909999
 31
0.0
  0
LINE
  5
95
330
1F
100
AcDbEntity
  8
0
  6
Continuous
 62
     7
370
    25
100
AcDbLine
 10
50.6906953283
 20
46.7767306802
 30
0.0
 11
50.6906953283
 21
100.7767306802
 31
0.0
  0
LINE
  5
96
330
1F
100
AcDbEntity
  8
0
  6
Continuous
 62
     7
370
    25
100
AcDbLine
 10
40.6906953283
 20
46.7767306802
 30
0.0
 11
40.6906953283
 21
100.7767306802
 31
0.0
  0
SPLINE
  5
97
330
1F
100
AcDbEntity
  8
DIMENSION
100
AcDbSpline
210
0.0
220
0.0
230
1.0
 70
    24
 71
     3
 72
     8
 73
     4
 74
     0
 42
0.00000001
 43
0.0000000001
 40
0.0
 40
0.0
 40
0.0
 40
0.0
 40
1.0
 40
1.0
 40
1.0
 40
1.0
 10
81.69069532827254
 20
73.46050291422631
 30
0.0
 10
81.69069532827254
 20
73.67127784484942
 30
0.0
 10
81.69069532827254
 20
73.88218351563768
 30
0.0
 10
81.69069532827254
 20
74.09295844626079
 30
0.0
  0
SPLINE
  5
98
330
1F
100
AcDbEntity
  8
DIMENSION
100
AcDbSpline
210
0.0
220
0.0
230
1.0
 70
     8
 71
     3
 72
    19
 73
    15
 74
     0
 42
0.00000001
 43
0.0000000001
 40
0.0
 40
0.0
 40
0.0
 40
0.0
 40
0.0551382642123178
 40
0.1124240744501013
 40
0.2007279180638799
 40
0.2911915802237875
 40
0.4264611177961555
 40
0.5656912329021621
 40
0.6610952997940921
 40
0.7588429865183803
 40
0.8377688274111873
 40
0.9188521339929266
 40
0.9978579998985997
 40
1.0
 40
1.0
 40
1.0
 40
1.0
 10
81.69069532827254
 20
74.09295844626079
 30
0.0
 10
81.64609576083279
 20
74.4865706820559
 30
0.0
 10
81.55515954508647
 20
75.28912571228149
 30
0.0
 10
81.07935580102234
 20
76.63966847723411
 30
0.0
 10
80.32083910528658
 20
78.10027375724705
 30
0.0
 10
79.14948360191337
 20
79.8676660138768
 30
0.0
 10
77.72176783924111
 20
81.72174307496717
 30
0.0
 10
76.3443226752929
 20
83.36544821862561
 30
0.0
 10
75.25504304525256
 20
84.61799293128018
 30
0.0
 10
74.51233431180774
 20
85.45430902261481
 30
0.0
 10
73.97645085196242
 20
86.05066635909832
 30
0.0
 10
73.68282705207251
 20
86.37521350058339
 30
0.0
 10
73.55725662518896
 20
86.5136215182264
 30
0.0
 10
73.59256682665772
 20
86.4746659962457
 30
0.0
 10
73.59349888388667
 20
86.47363771619177
 30
0.0
  0
SPLINE
  5
99
330
1F
100
AcDbEntity
  8
DIMENSION
100
AcDbSpline
210
0.0
220
0.0
230
1.0
 70
     8
 71
     3
 72
    19
 73
    15
 74
     0
 42
0.00000001
 43
0.0000000001
 40
0.0
 40
0.0
 40
0.0
 40
0.0
 40
0.0795542368197897
 40
0.1527655597262624
 40
0.2278190053962536
 40
0.3243910115748054
 40
0.4237510991652493
 40
0.5514448362562787
 40
0.6827798129020453
 40
0.7709517119798828
 40
0.8605225696851366
 40
0.9139830296241532
 40
0.9686491074238167
 40
1.0
 40
1.0
 40
1.0
 40
1.0
 10
73.59349888388667
 20
61.07982364429535
 30
0.0
 10
73.61253641639606
 20
61.10079045711128
 30
0.0
 10
73.64909360587915
 20
61.14105238436415
 30
0.0
 10
73.94673116721136
 20
61.46991827326875
 30
0.0
 10
74.42267679584396
 20
61.99907069546203
 30
0.0
 10
75.13974905587945
 20
62.80466031288998
 30
0.0
 10
76.18112387544158
 20
63.99796834697256
 30
0.0
 10
77.49724073884768
 20
65.55974980788345
 30
0.0
 10
78.8523900276483
 20
67.28607433042935
 30
0.0
 10
80.0245051451016
 20
68.98234700468613
 30
0.0
 10
80.82178994487788
 20
70.36943005722999
 30
0.0
 10
81.3552362440086
 20
71.65624668071965
 30
0.0
 10
81.6168743401789
 20
72.62195444672602
 30
0.0
 10
81.67097652442469
 20
73.23651278385078
 30
0.0
 10
81.69069532827254
 20
73.46050291422631
 30
0.0
  0
LINE
  5
9A
330
1F
100
AcDbEntity
  8
DIMENSION
100
AcDbLine
 10
73.52202886
 20
57.29160906909999
 30
0.0
 11
101.72202886
 21
57.29160906909999
 31
0.0
  0
LINE
  5
9B
330
1F
100
AcDbEntity
  8
DIMENSION
100
AcDbLine
 10
232.059071631
 20
95.03779785549999
 30
0.0
 11
240.9404645612
 21
98.26632067700002
 31
0.0
  0
LINE
  5
9C
330
1F
100
AcDbEntity
  8
DIMENSION
100
AcDbLine
 10
240.9404645612
 20
98.26632067700002
 30
0.0
 11
249.8192621639
 21
101.5019741069
 31
0.0
  0
POINT
  5
9D
330
1F
100
AcDbEntity
  8
0
  6
Continuous
 62
     7
370
     0
100
AcDbPoint
 10
40.6906953283
 20
73.7767306802
 30
0.0
  0
POINT
  5
9E
330
1F
100
AcDbEntity
  8
DIMENSION
100
AcDbPoint
 10
73.52202886
 20
119.3916090691
 30
0.0
  0
DIMENSION
  5
AC
102
{ACAD_XDICTIONARY
360
43D
102
}
330
1F
100
AcDbEntity
  8
DIMENSION
100
AcDbDimension
280
     0
  2
*D18
 10
40.6906953283
 20
7.792552481780148
 30
0.0
 11
143.4607188823
 21
7.792552481780148
 31
0.0
 70
   160
  1
<>
 71
     2
 42
200.2497692329
 73
     0
 74
     0
 75
     0
  3
RG Dimension Lines
100
AcDbAlignedDimension
 13
240.9404645612
 23
98.26632067700002
 33
0.0
 14
40.6906953283
 24
46.7767306802
 34
0.0
100
AcDbRotatedDimension
1001
AcadAnnotative
1000
AnnotativeData
1002
{
1070
     1
1070
     1
1002
}
  0
DIMENSION
  5
B4
102
{ACAD_XDICTIONARY
360
42F
102
}
330
1F
100
AcDbEntity
  8
DIMENSION
100
AcDbDimension
280
     0
  2
*D17
 10
269.7892977315
 20
132.5916090691
 30
0.0
 11
269.7892977315
 21
116.0536173813
 31
0.0
 70
   160
  1
<>
 71
     2
 42
34.32528839209999
 73
     0
 74
     0
 75
     0
  3
RG Dimension Lines
100
AcDbAlignedDimension
 13
240.9404645612
 23
98.26632067700002
 33
0.0
 14
250.691882038
 24
132.5916090691
 34
0.0
 50
90.0
100
AcDbRotatedDimension
1001
AcadAnnotative
1000
AnnotativeData
1002
{
1070
     1
1070
     1
1002
}
1001
ACAD
1000
DSTYLE
1002
{
1070
    45
1040
5.0
1002
}
  0
LINE
  5
BC
330
1F
100
AcDbEntity
  8
DIMENSION
100
AcDbLine
 10
341.7815153927
 20
111.97307821
 30
0.0
 11
341.7758608485
 21
98.74398667760001
 31
0.0
  0
LINE
  5
BD
330
1F
100
AcDbEntity
  8
DIMENSION
100
AcDbLine
 10
361.6758590305999
 20
98.73548077069999
 30
0.0
 11
361.6815321117
 21
112.007940152
 31
0.0
  0
LINE
  5
BE
330
1F
100
AcDbEntity
  8
DIMENSION
100
AcDbLine
 10
342.457794981
 20
97.5050696457
 30
0.0
 11
342.9233260609
 21
97.09726675629999
 31
0.0
  0
LINE
  5
BF
330
1F
100
AcDbEntity
  8
DIMENSION
100
AcDbLine
 10
360.5269865143
 20
97.0897423789
 30
0.0
 11
360.9928660405
 21
97.49714715309998
 31
0.0
  0
LINE
  5
C0
330
1F
100
AcDbEntity
  8
DIMENSION
100
AcDbLine
 10
366.0021036531
 20
102.3916090691
 30
0.0
 11
366.0021036531
 21
136.3916090691
 31
0.0
  0
LINE
  5
C1
330
1F
100
AcDbEntity
  8
DIMENSION
100
AcDbLine
 10
337.8021036531
 20
136.3916090691
 30
0.0
 11
337.8021036531
 21
102.3916090691
 31
0.0
  0
LINE
  5
C2
330
1F
100
AcDbEntity
  8
DIMENSION
100
AcDbLine
 10
345.2816240331
 20
97.6933239398
 30
0.0
 11
345.560942681
 21
97.44864220620002
 31
0.0
  0
LINE
  5
C3
330
1F
100
AcDbEntity
  8
DIMENSION
100
AcDbLine
 10
357.8896712365
 20
97.4433725063
 30
0.0
 11
358.1691989522
 21
97.6878153708
 31
0.0
  0
LINE
  5
C4
330
1F
100
AcDbEntity
  8
DIMENSION
100
AcDbLine
 10
344.8077468299
 20
99.2022238082
 30
0.0
 11
344.8074700795
 21
98.5547523107
 31
0.0
  0
LINE
  5
C5
330
1F
100
AcDbEntity
  8
DIMENSION
100
AcDbLine
 10
358.6440891375
 20
98.54883808940002
 30
0.0
 11
358.6443658879
 21
99.19630958689999
 31
0.0
  0
LINE
  5
C6
330
1F
100
AcDbEntity
  8
DIMENSION
100
AcDbLine
 10
351.7106006009
 20
107.1916090691
 30
0.0
 11
351.7131836976
 21
107.1916090691
 31
0.0
  0
LINE
  5
C7
330
1F
100
AcDbEntity
  8
DIMENSION
100
AcDbLine
 10
351.8871305469001
 20
132.5916090691
 30
0.0
 11
351.7106006009
 21
132.5916090691
 31
0.0
  0
LINE
  5
C8
330
1F
100
AcDbEntity
  8
DIMENSION
100
AcDbLine
 10
337.8021036531
 20
102.2916090691
 30
0.0
 11
337.8021036531
 21
57.29160906909999
 31
0.0
  0
LINE
  5
C9
330
1F
100
AcDbEntity
  8
DIMENSION
100
AcDbLine
 10
366.0021036531
 20
57.29160906909999
 30
0.0
 11
366.0021036531
 21
102.2916090691
 31
0.0
  0
ARC
  5
CA
330
1F
100
AcDbEntity
  8
DIMENSION
100
AcDbCircle
 10
338.3021036531
 20
57.29160906909999
 30
0.0
 40
0.5
100
AcDbArc
 50
180.0
 51
270.0
  0
ARC
  5
CB
330
1F
100
AcDbEntity
  8
DIMENSION
100
AcDbCircle
 10
365.5021036531
 20
57.29160906909999
 30
0.0
 40
0.5
100
AcDbArc
 50
270.0
 51
0.0
  0
LWPOLYLINE
  5
CC
330
1F
100
AcDbEntity
  8
DIMENSION
100
AcDbPolyline
 90
        3
 70
   128
 43
0.0
 10
361.480479315
 20
98.06497042170001
 10
361.1494846668
 20
97.64397159979999
 10
360.9928660405
 20
97.49714715309998
  0
LWPOLYLINE
  5
CD
330
1F
100
AcDbEntity
  8
DIMENSION
100
AcDbPolyline
 90
       31
 70
   128
 43
0.0
 10
342.457794981
 20
97.5050696457
 10
342.0859229217
 20
97.90044049350001
 10
341.8499046357
 20
98.32906754260001
 10
341.7760492627
 20
98.7644377191
 10
341.8655695059
 20
99.19940225659999
 10
342.1169954455
 20
99.62681904950002
 10
342.5261986744
 20
100.0396699259
 10
343.0864600869
 20
100.4311758859
 10
343.7885802062
 20
100.7949084122
 10
344.6210302392
 20
101.1248950271
 10
345.5701413794999
 20
101.4157173593
 10
346.6203292484
 20
101.6626001141
 10
347.7543497901
 20
101.8614894837
 10
348.9535824186
 20
102.00911971
 10
350.1983357674
 20
102.1030667088
 10
351.4681710208
 20
102.1417878729
 10
352.7422375192
 20
102.124647402
 10
353.9996151258
 20
102.0519267421
 10
355.2196577351001
 20
101.9248199644
 10
356.3823322812
 20
101.7454141587
 10
357.4685476801999
 20
101.5166551634
 10
358.4604683053
 20
101.2422991948
 10
359.3418068472
 20
100.9268511704
 10
360.0980917514
 20
100.5754907379
 10
360.7169048407
 20
100.1939872261
 10
361.1880852212999
 20
99.78860491190001
 10
361.5038961244
 20
99.3660001619
 10
361.6591519436
 20
98.9331121342
 10
361.6513033828
 20
98.49704883840001
 10
361.480479315
 20
98.06497042170001
 10
361.480479315
 20
98.06497042170001
  0
LWPOLYLINE
  5
CE
330
1F
100
AcDbEntity
  8
DIMENSION
100
AcDbPolyline
 90
       49
 70
   128
 43
0.0
 10
360.9900966093
 20
97.629031815
 10
360.6676007098
 20
97.22101799089999
 10
360.1921057105
 20
96.83095061350002
 10
359.5717474625
 20
96.46550384360001
 10
358.8171404675
 20
96.130930577
 10
357.9411962604
 20
95.8329554548
 10
356.9589024894
 20
95.57667691410001
 10
355.8870664732
 20
95.3664799517
 10
354.7440276234
 20
95.20596109600001
 10
353.5493436515
 20
95.0978668691
 10
352.3234559314
 20
95.04404679309999
 10
351.0873397421
 20
95.0454217445
 10
349.8621453741
 20
95.10196819749999
 10
348.6688362429
 20
95.21271862669999
 10
347.5278301985
 20
95.3757780613
 10
346.4586501706
 20
95.5883565094
 10
345.479590126
 20
95.8468166948
 10
344.6074020535
 20
96.14673629190001
 10
343.8570093329
 20
96.48298359340001
 10
343.2412513915001
 20
96.84980531469999
 10
342.7706640186
 20
97.24092503440001
 10
342.4532990945
 20
97.6496505857
 10
342.294586821
 20
98.06898856110001
 10
342.2972428093
 20
98.49176397149999
 10
342.4612216146
 20
98.91074301260001
 10
342.783717514
 20
99.3187568367
 10
343.2592125133
 20
99.70882421410001
 10
343.8795707613
 20
100.0742709839
 10
344.6341777563
 20
100.4088442506
 10
345.5101219635
 20
100.7068193728
 10
346.4924157345
 20
100.9630979135
 10
347.5642517505999
 20
101.1732948759
 10
348.7072906005
 20
101.3338137316
 10
349.9019745724
 20
101.4419079585
 10
351.1278622924
 20
101.4957280345
 10
352.3639784817
 20
101.4943530831
 10
353.5891728497
 20
101.43780663
 10
354.7824819809
 20
101.3270562009
 10
355.9234880254
 20
101.1639967662
 10
356.9926680532
 20
100.9514183181
 10
357.9717280978
 20
100.6929581328
 10
358.8439161703
 20
100.3930385357
 10
359.594308891
 20
100.0567912342
 10
360.2100668323
 20
99.68996951290002
 10
360.6806542053
 20
99.2988497932
 10
360.9980191294
 20
98.89012424190001
 10
361.1567314028
 20
98.4707862665
 10
361.1540754145
 20
98.04801085600001
 10
360.9900966093
 20
97.629031815
  0
LWPOLYLINE
  5
CF
330
1F
100
AcDbEntity
  8
DIMENSION
100
AcDbPolyline
 90
       43
 70
   128
 43
0.0
 10
359.0293690966
 20
97.76466262959999
 10
358.7288318214
 20
97.39807845660001
 10
358.2718552403
 20
97.0509690551
 10
357.668647455
 20
96.73108827550001
 10
356.9326831305001
 20
96.4455817259
 10
356.0804024939
 20
96.2008271508
 10
355.1308440861
 20
96.00229196290001
 10
354.1052194728
 20
95.8544111103
 10
353.0264394132
 20
95.76048800690001
 10
351.9186020711
 20
95.72262073959999
 10
350.8064547022
 20
95.74165520059999
 10
349.7148408408
 20
95.81716619139999
 10
348.6681453369
 20
95.9474669213
 10
347.6897496382
 20
96.1296466873
 10
346.8015094881
 20
96.35963589459999
 10
346.0232667037
 20
96.63229696409999
 10
345.3724059427
 20
96.94153909829999
 10
344.8634663591
 20
97.28045433890001
 10
344.5078168222
 20
97.64147187929999
 10
344.3134019549
 20
98.0165271843
 10
344.2845646641
 20
98.3972421382
 10
344.4219491272
 20
98.77511219799998
 10
344.7224864024
 20
99.14169637100002
 10
345.1794629835
 20
99.48880577250001
 10
345.7826707689
 20
99.80868655209999
 10
346.5186350933
 20
100.0941931017
 10
347.37091573
 20
100.3389476768
 10
348.3204741378
 20
100.5374828647
 10
349.346098751
 20
100.6853637172
 10
350.4248788106
 20
100.7792868207
 10
351.5327161526999
 20
100.817154088
 10
352.6448635216
 20
100.798119627
 10
353.736477383
 20
100.7226086362
 10
354.783172887
 20
100.5923079063
 10
355.7615685856
 20
100.4101281402
 10
356.6498087357
 20
100.180138933
 10
357.4280515202
 20
99.90747786340001
 10
358.0789122811
 20
99.5982357293
 10
358.5878518647
 20
99.25932048870002
 10
358.9435014016
 20
98.8983029483
 10
359.1379162689
 20
98.52324764329999
 10
359.1667535597
 20
98.14253268939999
 10
359.0293690966
 20
97.76466262959999
  0
LWPOLYLINE
  5
D0
330
1F
100
AcDbEntity
  8
DIMENSION
100
AcDbPolyline
 90
       23
 70
   128
 43
0.0
 10
358.8333766764
 20
97.96616423520001
 10
358.540907516
 20
97.60942124799999
 10
358.0961987626
 20
97.2716302197
 10
357.5091844748
 20
96.96033684360001
 10
356.7929775819
 20
96.68249489940002
 10
355.9635769623
 20
96.44431091690002
 10
355.0395100554
 20
96.25110553270001
 10
354.0414189888
 20
96.10719463590001
 10
352.9915994677
 20
96.01579295809999
 10
351.9135027254
 20
95.9789422617
 10
350.8312116617
 20
95.9974657304
 10
349.7689028704
 20
96.07094958060001
 10
348.7503065746
 20
96.19775230430001
 10
347.7981765323
 20
96.3750413384
 10
346.9337817554
 20
96.5988563387
 10
346.1764313947
 20
96.864197648
 10
345.5430434058
 20
97.1651379799
 10
345.0477666299
 20
97.4949548248
 10
344.7016647315
 20
97.8462806191
 10
344.5124690552999
 20
98.21126732540001
 10
344.4844059199
 20
98.58176174360002
 10
344.6181022096
 20
98.94948764070001
 10
344.8850069972
 20
99.28174521350001
  0
ARC
  5
D1
330
1F
100
AcDbEntity
  8
DIMENSION
100
AcDbCircle
 10
357.9285820576
 20
98.46418413169999
 30
0.0
 40
1.032800619459442
100
AcDbArc
 50
331.1705959762
 51
51.8071226832
  0
SPLINE
  5
D2
330
1F
100
AcDbEntity
  8
DIMENSION
100
AcDbSpline
210
0.0
220
0.0
230
1.0
 70
     8
 71
     3
 72
    24
 73
    20
 74
     0
 42
0.00000001
 43
0.0000000001
 40
0.0
 40
0.0
 40
0.0
 40
0.0
 40
0.0349213301986769
 40
0.071177684421689
 40
0.124152136926576
 40
0.1784532983698935
 40
0.2725980939677019
 40
0.3694327047750318
 40
0.440200824924933
 40
0.5127158028482138
 40
0.5692283859951233
 40
0.627252560056977
 40
0.6838353640729612
 40
0.7424589465349713
 40
0.7934462070030821
 40
0.8457939593383523
 40
0.8994260976678344
 40
0.9541621955966453
 40
1.0
 40
1.0
 40
1.0
 40
1.0
 10
364.7452786897451
 20
119.8916090691018
 30
0.0
 10
364.7361066617667
 20
120.2567676423443
 30
0.0
 10
364.7174119640205
 20
121.0010446083778
 30
0.0
 10
364.5488749205314
 20
122.2461735977309
 30
0.0
 10
364.2333473272596
 20
123.5824188642384
 30
0.0
 10
363.6067515956
 20
125.2997711053916
 30
0.0
 10
362.5664384981752
 20
127.1893812607471
 30
0.0
 10
361.0770118221692
 20
128.9709093005031
 30
0.0
 10
359.3933608935581
 20
130.3859267097617
 30
0.0
 10
357.7613400720029
 20
131.3723065629184
 30
0.0
 10
356.0528875545756
 20
132.0881822240202
 30
0.0
 10
354.3641256556878
 20
132.5420336022917
 30
0.0
 10
352.570610285459
 20
132.7659335526852
 30
0.0
 10
350.8244785341702
 20
132.7363138384302
 30
0.0
 10
349.161708815491
 20
132.4829373442355
 30
0.0
 10
347.6226331616665
 20
132.0501431820482
 30
0.0
 10
346.1651230067904
 20
131.4269496804188
 30
0.0
 10
344.863028963572
 20
130.709050649466
 30
0.0
 10
344.1602060809504
 20
130.1161736737243
 30
0.0
 10
343.8398858281137
 20
129.8459626326975
 30
0.0
  0
SPLINE
  5
D3
330
1F
100
AcDbEntity
  8
DIMENSION
100
AcDbSpline
210
0.0
220
0.0
230
1.0
 70
     8
 71
     3
 72
    13
 73
     9
 74
     0
 42
0.00000001
 43
0.0000000001
 40
0.0
 40
0.0
 40
0.0
 40
0.0
 40
0.0745048761937771
 40
0.332662667708805
 40
0.5967525725861479
 40
0.7168558981956759
 40
0.8390293810115185
 40
1.0
 40
1.0
 40
1.0
 40
1.0
 10
361.6813709078645
 20
111.630795595045
 30
0.0
 10
361.8283100889748
 20
111.7870144559266
 30
0.0
 10
362.4843903682298
 20
112.4845283055187
 30
0.0
 10
363.3334199476873
 20
113.9451423253237
 30
0.0
 10
364.0670940904027
 20
115.6436802980162
 30
0.0
 10
364.4592604930405
 20
117.1303480053992
 30
0.0
 10
364.6899276734645
 20
118.3935118862827
 30
0.0
 10
364.7252165595451
 20
119.3486195676667
 30
0.0
 10
364.7452786897451
 20
119.8916090691018
 30
0.0
  0
SPLINE
  5
D4
330
1F
100
AcDbEntity
  8
DIMENSION
100
AcDbSpline
210
0.0
220
0.0
230
1.0
 70
     8
 71
     3
 72
    15
 73
    11
 74
     0
 42
0.00000001
 43
0.0000000001
 40
0.0
 40
0.0
 40
0.0
 40
0.0
 40
0.0608618616019264
 40
0.1813541179540565
 40
0.3051741523436087
 40
0.4297666456609648
 40
0.5569585022105823
 40
0.7470606147810836
 40
0.94256997656272
 40
1.0
 40
1.0
 40
1.0
 40
1.0
 10
351.8868588277356
 20
132.7106151855513
 30
0.0
 10
351.6288083751677
 20
132.718135735944
 30
0.0
 10
350.8598783592047
 20
132.7405452177953
 30
0.0
 10
349.5804058126857
 20
132.5561066319064
 30
0.0
 10
348.0983733116373
 20
132.2036026939415
 30
0.0
 10
346.6897953688163
 20
131.6733562519728
 30
0.0
 10
345.1707195714827
 20
130.8978379648894
 30
0.0
 10
343.6468665131081
 20
129.8042671572592
 30
0.0
 10
342.5013439141826
 20
128.7478484624059
 30
0.0
 10
342.0160073477734
 20
128.0801831601726
 30
0.0
 10
341.9058114193705
 20
127.9285893942498
 30
0.0
  0
LINE
  5
D5
330
1F
100
AcDbEntity
  8
DIMENSION
100
AcDbLine
 10
366.0021036531
 20
102.3916090691
 30
0.0
 11
361.6774217788
 21
102.3916090691
 31
0.0
  0
LINE
  5
D6
330
1F
100
AcDbEntity
  8
DIMENSION
100
AcDbLine
 10
341.777419961
 20
102.3916090691
 30
0.0
 11
337.8021133759
 21
102.3916090691
 31
0.0
  0
LINE
  5
D7
330
1F
100
AcDbEntity
  8
DIMENSION
100
AcDbLine
 10
366.0021036531
 20
136.3916090691
 30
0.0
 11
337.8021133759
 21
136.3916090691
 31
0.0
  0
LINE
  5
D8
330
1F
100
AcDbEntity
  8
DIMENSION
100
AcDbLine
 10
363.6249278648
 20
125.1413709685
 30
0.0
 11
363.6249278648
 21
124.7513712002
 31
0.0
  0
LINE
  5
D9
330
1F
100
AcDbEntity
  8
DIMENSION
100
AcDbLine
 10
363.6249278648
 20
115.031846938
 30
0.0
 11
363.6249278648
 21
114.6418471697
 31
0.0
  0
LWPOLYLINE
  5
DA
330
1F
100
AcDbEntity
  8
DIMENSION
100
AcDbPolyline
 90
       41
 70
   128
 43
0.0
 10
354.2881765864
 20
96.18188296580001
 10
355.2112052383
 20
96.34433366839999
 10
356.0484081768
 20
96.5541978947
 10
356.7791706868
 20
96.80630809110001
 10
357.3854989702
 20
97.09445646769999
 10
357.8524632124
 20
97.4115478552
 10
358.168565204
 20
97.7497744114
 10
358.3260214648
 20
98.1008078758
 10
358.3209548991001
 20
98.45600463950001
 10
358.1534902625
 20
98.80661857950002
 10
357.8277510904
 20
99.1440164169
 10
357.3517581619999
 20
99.45989029719999
 10
356.737232003
 20
99.74646235709998
 10
355.9993042871
 20
99.9966762414
 10
355.1561452435
 20
100.2043708538
 10
354.2285162462
 20
100.3644320638
 10
353.2392585997
 20
100.4729186332
 10
352.2127311105001
 20
100.5271592624
 10
351.1742102922
 20
100.5258183673
 10
350.149267974
 20
100.4689289651
 10
349.1631416374
 20
100.3578918618
 10
348.2401129855
 20
100.1954411592
 10
347.4029100471
 20
99.98557693290001
 10
346.6721475369999
 20
99.73346673649999
 10
346.0658192536
 20
99.4453183599
 10
345.5988550114
 20
99.12822697240001
 10
345.2827530199
 20
98.79000041620001
 10
345.1252967591
 20
98.43896695179999
 10
345.1303633248
 20
98.08377018799999
 10
345.2978279613
 20
97.73315624799998
 10
345.6235671335
 20
97.39575841069999
 10
346.0995600619
 20
97.07988453040002
 10
346.7140862208
 20
96.79331247050001
 10
347.4520139368
 20
96.54309858620001
 10
348.2951729804
 20
96.33540397370001
 10
349.2228019777
 20
96.17534276370001
 10
350.2120596241001
 20
96.0668561944
 10
351.2385871133
 20
96.01261556510001
 10
352.2771079316
 20
96.01395646020002
 10
353.3020502498001
 20
96.07084586239999
 10
354.2881765864
 20
96.18188296580001
  0
LWPOLYLINE
  5
DB
330
1F
100
AcDbEntity
  8
DIMENSION
100
AcDbPolyline
 90
        9
 70
   128
 43
0.0
 10
345.2816240331
 20
97.6933239398
 10
345.0819737875
 20
97.894385753
 10
344.8653042609
 20
98.24906861809999
 10
344.8094384618
 20
98.61084713780002
 10
344.9156858371
 20
98.97124153
 10
345.1815560385
 20
99.32180445580002
 10
345.6008172938
 20
99.65431901729999
 10
346.1636424744
 20
99.9609913549
 10
346.2458178612
 20
99.9981853907
  0
LWPOLYLINE
  5
DC
330
1F
100
AcDbEntity
  8
DIMENSION
100
AcDbPolyline
 90
        8
 70
   128
 43
0.0
 10
357.2069758217
 20
99.99350023499999
 10
357.7551865716001
 20
99.70983247139999
 10
358.2023917451
 20
99.3812753793
 10
358.4977906194
 20
99.0332759748
 10
358.6344592954
 20
98.67399106909999
 10
358.609194375
 20
98.3118419958
 10
358.4225880465
 20
97.95531722219999
 10
358.1691989522
 20
97.6878153708
  0
LWPOLYLINE
  5
DD
330
1F
100
AcDbEntity
  8
DIMENSION
100
AcDbPolyline
 90
       40
 70
   128
 43
0.0
 10
354.1455720242
 20
96.2980807921
 10
355.0386063098001
 20
96.45603204610001
 10
355.8458370032
 20
96.66096120129999
 10
356.5463572535
 20
96.9075607002
 10
357.1220239541
 20
97.18944374549998
 10
357.5579276398999
 20
97.49930971419999
 10
357.8427786344
 20
97.8291332406
 10
357.9691994464
 20
98.1703720686
 10
357.9339158433
 20
98.5141882917
 10
357.7378416519
 20
98.85167725040002
 10
357.3860550908
 20
99.17409815799999
 10
356.8876672471
 20
99.4731004822
 10
356.2555861042
 20
99.74094022
 10
355.5061822316001
 20
99.9706804628
 10
354.6588647961
 20
100.156371059
 10
353.7355788741
 20
100.2932027198
 10
352.7602370859999
 20
100.3776315769
 10
351.7581002718
 20
100.4074709673
 10
350.7551232486
 20
100.3819480665
 10
349.7772825945
 20
100.3017239042
 10
348.8499038687
 20
100.1688762441
 10
347.9970056932
 20
99.9868457708
 10
347.2406776827
 20
99.76034697790002
 10
346.6005083353
 20
99.4952460652
 10
346.0930777009
 20
99.19840900709999
 10
345.7315279664
 20
98.8775237275
 10
345.52522308
 20
98.54090098649999
 10
345.4795062299
 20
98.1972591363
 10
345.5955614585
 20
97.8554983204
 10
345.8703829962999
 20
97.5244699643
 10
346.2968531098001
 20
97.21274752860001
 10
346.8639264473001
 20
96.92840446059999
 10
347.5569161069
 20
96.6788050965
 10
348.3578740207
 20
96.47041392860002
 10
349.2460557993
 20
96.3086281788
 10
350.1984580012
 20
96.19763801299999
 10
351.1904139097
 20
96.1403180181
 10
352.1962323878
 20
96.13815275200002
 10
353.1898632652
 20
96.19119829389999
 10
354.1455720242
 20
96.2980807921
  0
LINE
  5
DE
330
1F
100
AcDbEntity
  8
DIMENSION
100
AcDbLine
 10
345.4927257164
 20
98.43010167799999
 30
0.0
 11
345.4926713633999
 21
98.30294004850001
 31
0.0
  0
ARC
  5
DF
330
1F
100
AcDbEntity
  8
DIMENSION
100
AcDbCircle
 10
346.2804907936
 20
98.47342080190001
 30
0.0
 40
0.8060540564343456
100
AcDbArc
 50
192.2102938764
 51
198.6034738357
  0
LINE
  5
E0
330
1F
100
AcDbEntity
  8
DIMENSION
100
AcDbLine
 10
345.7557906644
 20
98.2058192849
 30
0.0
 11
345.755628979
 21
97.82754805180001
 31
0.0
  0
ARC
  5
E1
330
1F
100
AcDbEntity
  8
DIMENSION
100
AcDbCircle
 10
347.414731639
 20
99.3842367831
 30
0.0
 40
2.275060755786361
100
AcDbArc
 50
223.1759067832
 51
238.4760450227
  0
LINE
  5
E2
330
1F
100
AcDbEntity
  8
DIMENSION
100
AcDbLine
 10
346.8692089768
 20
97.3729603882
 30
0.0
 11
346.8690983692
 21
97.11418831430002
 31
0.0
  0
ARC
  5
E3
330
1F
100
AcDbEntity
  8
DIMENSION
100
AcDbCircle
 10
349.2669949257
 20
102.7922696713
 30
0.0
 40
6.163644684174244
100
AcDbArc
 50
247.105299839
 51
248.7521405681
  0
LINE
  5
E4
330
1F
100
AcDbEntity
  8
DIMENSION
100
AcDbLine
 10
347.8983664194
 20
97.12298252810001
 30
0.0
 11
347.8982152791
 21
96.7693820715
 31
0.0
  0
ARC
  5
E5
330
1F
100
AcDbEntity
  8
DIMENSION
100
AcDbCircle
 10
350.5580169672
 20
106.7989417423
 30
0.0
 40
10.37625232012727
100
AcDbArc
 50
255.1472665773
 51
256.2769355837
  0
LINE
  5
E6
330
1F
100
AcDbEntity
  8
DIMENSION
100
AcDbLine
 10
349.1276471427
 20
96.7694142306
 30
0.0
 11
349.1275382461
 21
96.51464512850001
 31
0.0
  0
ARC
  5
E7
330
1F
100
AcDbEntity
  8
DIMENSION
100
AcDbCircle
 10
351.3865717157
 20
110.9362487729
 30
0.0
 40
14.59746155647832
100
AcDbArc
 50
261.0973995263
 51
262.0347268952
  0
ARC
  5
E8
330
1F
100
AcDbEntity
  8
DIMENSION
100
AcDbCircle
 10
351.6910798675
 20
113.6754491068
 30
0.0
 40
17.35419520046539
100
AcDbArc
 50
265.6514059861
 51
266.4970869207
  0
LINE
  5
E9
330
1F
100
AcDbEntity
  8
DIMENSION
100
AcDbLine
 10
350.6308784587
 20
96.6520916468
 30
0.0
 11
350.6307509065
 21
96.35367686629999
 31
0.0
  0
LINE
  5
EA
330
1F
100
AcDbEntity
  8
DIMENSION
100
AcDbLine
 10
351.3887807573
 20
96.70657550459999
 30
0.0
 11
351.388616993
 21
96.32344053799998
 31
0.0
  0
ARC
  5
EB
330
1F
100
AcDbEntity
  8
DIMENSION
100
AcDbCircle
 10
351.7325191449
 20
114.5712449937
 30
0.0
 40
18.25104479594677
100
AcDbArc
 50
268.9203189033
 51
269.9107145572
  0
ARC
  5
EC
330
1F
100
AcDbEntity
  8
DIMENSION
100
AcDbCircle
 10
351.7598339923001
 20
113.8905686718
 30
0.0
 40
17.56977672713403
100
AcDbArc
 50
273.0146336153
 51
273.7275749814
  0
LINE
  5
ED
330
1F
100
AcDbEntity
  8
DIMENSION
100
AcDbLine
 10
352.9021342474
 20
96.46063010929999
 30
0.0
 11
352.9020903636
 21
96.35796177430002
 31
0.0
  0
ARC
  5
EE
330
1F
100
AcDbEntity
  8
DIMENSION
100
AcDbCircle
 10
352.0516774596
 20
111.1013476095
 30
0.0
 40
14.76457083947101
100
AcDbArc
 50
277.7620729009
 51
278.5423267562
  0
LINE
  5
EF
330
1F
100
AcDbEntity
  8
DIMENSION
100
AcDbLine
 10
354.2448787287999
 20
96.668906414
 30
0.0
 11
354.2448067759
 21
96.5005690044
 31
0.0
  0
ARC
  5
F0
330
1F
100
AcDbEntity
  8
DIMENSION
100
AcDbCircle
 10
352.8285564126
 20
107.0869670281
 30
0.0
 40
10.67411698977104
100
AcDbArc
 50
283.3029221263
 51
284.2968333989
  0
LINE
  5
F1
330
1F
100
AcDbEntity
  8
DIMENSION
100
AcDbLine
 10
355.4645163491001
 20
96.82587201090001
 30
0.0
 11
355.4644811124
 21
96.7434340491
 31
0.0
  0
ARC
  5
F2
330
1F
100
AcDbEntity
  8
DIMENSION
100
AcDbCircle
 10
353.9086099161
 20
103.5127613358
 30
0.0
 40
6.938439602112669
100
AcDbArc
 50
289.3117454333
 51
291.1990651217
  0
LINE
  5
F3
330
1F
100
AcDbEntity
  8
DIMENSION
100
AcDbLine
 10
356.4177890925
 20
97.4520745052
 30
0.0
 11
356.4176146032
 21
97.04384801190002
 31
0.0
  0
ARC
  5
F4
330
1F
100
AcDbEntity
  8
DIMENSION
100
AcDbCircle
 10
354.9655167827
 20
101.0936415676
 30
0.0
 40
4.296865576781873
100
AcDbArc
 50
296.5441430023
 51
298.6889997603
  0
LINE
  5
F5
330
1F
100
AcDbEntity
  8
DIMENSION
100
AcDbLine
 10
357.0283471083
 20
97.55390751010001
 30
0.0
 11
357.0282489522
 21
97.32426631670001
 31
0.0
  0
ARC
  5
F6
330
1F
100
AcDbEntity
  8
DIMENSION
100
AcDbCircle
 10
356.2117234479
 20
99.20291265659999
 30
0.0
 40
2.027244760599693
100
AcDbArc
 50
309.8571346103
 51
313.3526992899001
  0
LINE
  5
F7
330
1F
100
AcDbEntity
  8
DIMENSION
100
AcDbLine
 10
357.6035750974
 20
98.1348750847
 30
0.0
 11
357.6034015357
 21
97.72881855530002
 31
0.0
  0
ARC
  5
F8
330
1F
100
AcDbEntity
  8
DIMENSION
100
AcDbCircle
 10
357.0921968123
 20
98.4957112792
 30
0.0
 40
0.8893398979628969
100
AcDbArc
 50
335.2388642243
 51
341.05113608
  0
LINE
  5
F9
330
1F
100
AcDbEntity
  8
DIMENSION
100
AcDbLine
 10
357.9334741744
 20
98.51548546690001
 30
0.0
 11
357.933342284
 21
98.20692113120001
 31
0.0
  0
LINE
  5
FA
330
1F
100
AcDbEntity
  8
DIMENSION
100
AcDbLine
 10
349.1804082985
 20
99.81813992760001
 30
0.0
 11
348.7630507943
 21
99.63521331030001
 31
0.0
  0
LINE
  5
FB
330
1F
100
AcDbEntity
  8
DIMENSION
100
AcDbLine
 10
348.9157050805
 20
100.0338268457
 30
0.0
 11
349.1804082985
 21
99.81813992760001
 31
0.0
  0
LINE
  5
FC
330
1F
100
AcDbEntity
  8
DIMENSION
100
AcDbLine
 10
348.3060983101
 20
100.0604720216
 30
0.0
 11
348.9157050805
 21
100.0338268457
 31
0.0
  0
LINE
  5
FD
330
1F
100
AcDbEntity
  8
DIMENSION
100
AcDbLine
 10
347.8239335573001
 20
99.8774298008
 30
0.0
 11
348.1516643128
 21
100.0248702933
 31
0.0
  0
LINE
  5
FE
330
1F
100
AcDbEntity
  8
DIMENSION
100
AcDbLine
 10
348.0886367752999
 20
99.66174288270002
 30
0.0
 11
347.8239335573001
 21
99.8774298008
 31
0.0
  0
LINE
  5
FF
330
1F
100
AcDbEntity
  8
DIMENSION
100
AcDbLine
 10
348.7630507943
 20
99.63521331030001
 30
0.0
 11
348.0886367752999
 21
99.66174288270002
 31
0.0
  0
LINE
  5
100
330
1F
100
AcDbEntity
  8
DIMENSION
100
AcDbLine
 10
349.0210663528
 20
99.32963243389998
 30
0.0
 11
348.6075322002
 21
99.14359045239999
 31
0.0
  0
LINE
  5
101
330
1F
100
AcDbEntity
  8
DIMENSION
100
AcDbLine
 10
348.7563631348
 20
99.54531935200002
 30
0.0
 11
349.0210663528
 21
99.32963243389998
 31
0.0
  0
LINE
  5
102
330
1F
100
AcDbEntity
  8
DIMENSION
100
AcDbLine
 10
348.0781257643
 20
99.5749642886
 30
0.0
 11
348.7563631348
 21
99.54531935200002
 31
0.0
  0
LINE
  5
103
330
1F
100
AcDbEntity
  8
DIMENSION
100
AcDbLine
 10
347.6645916117
 20
99.38892230709999
 30
0.0
 11
348.0781257643
 21
99.5749642886
 31
0.0
  0
LINE
  5
104
330
1F
100
AcDbEntity
  8
DIMENSION
100
AcDbLine
 10
347.9292948297
 20
99.17323538899999
 30
0.0
 11
347.6645916117
 21
99.38892230709999
 31
0.0
  0
LINE
  5
105
330
1F
100
AcDbEntity
  8
DIMENSION
100
AcDbLine
 10
348.6075322002
 20
99.14359045239999
 30
0.0
 11
347.9292948297
 21
99.17323538899999
 31
0.0
  0
LINE
  5
106
330
1F
100
AcDbEntity
  8
DIMENSION
100
AcDbLine
 10
351.4356819389
 20
99.21717230590001
 30
0.0
 11
351.1709787208999
 21
99.43285922400001
 31
0.0
  0
LINE
  5
107
330
1F
100
AcDbEntity
  8
DIMENSION
100
AcDbLine
 10
351.1709787208999
 20
99.43285922400001
 30
0.0
 11
350.4927413504
 21
99.46250416059999
 31
0.0
  0
LINE
  5
108
330
1F
100
AcDbEntity
  8
DIMENSION
100
AcDbLine
 10
350.0792071978
 20
99.2764621791
 30
0.0
 11
350.4927413504
 21
99.46250416059999
 31
0.0
  0
LINE
  5
109
330
1F
100
AcDbEntity
  8
DIMENSION
100
AcDbLine
 10
350.3439104158
 20
99.060775261
 30
0.0
 11
350.0792071978
 21
99.2764621791
 31
0.0
  0
LINE
  5
10A
330
1F
100
AcDbEntity
  8
DIMENSION
100
AcDbLine
 10
351.0221477864
 20
99.03113032440002
 30
0.0
 11
350.3439104158
 21
99.060775261
 31
0.0
  0
LINE
  5
10B
330
1F
100
AcDbEntity
  8
DIMENSION
100
AcDbLine
 10
351.0221477864
 20
99.03113032440002
 30
0.0
 11
351.4356819389
 21
99.21717230590001
 31
0.0
  0
LINE
  5
10C
330
1F
100
AcDbEntity
  8
DIMENSION
100
AcDbLine
 10
347.505249666
 20
98.9004148134
 30
0.0
 11
347.9187838186
 21
99.0864567949
 31
0.0
  0
LINE
  5
10D
330
1F
100
AcDbEntity
  8
DIMENSION
100
AcDbLine
 10
347.769952884
 20
98.68472789530001
 30
0.0
 11
347.505249666
 21
98.9004148134
 31
0.0
  0
LINE
  5
10E
330
1F
100
AcDbEntity
  8
DIMENSION
100
AcDbLine
 10
348.444366903
 20
98.6581983229
 30
0.0
 11
347.769952884
 21
98.68472789530001
 31
0.0
  0
LINE
  5
10F
330
1F
100
AcDbEntity
  8
DIMENSION
100
AcDbLine
 10
348.8617244072
 20
98.84112494020001
 30
0.0
 11
348.444366903
 21
98.6581983229
 31
0.0
  0
LINE
  5
110
330
1F
100
AcDbEntity
  8
DIMENSION
100
AcDbLine
 10
348.5970211892
 20
99.05681185829999
 30
0.0
 11
348.8617244072
 21
98.84112494020001
 31
0.0
  0
LINE
  5
111
330
1F
100
AcDbEntity
  8
DIMENSION
100
AcDbLine
 10
347.9187838186
 20
99.0864567949
 30
0.0
 11
348.5970211892
 21
99.05681185829999
 31
0.0
  0
LINE
  5
112
330
1F
100
AcDbEntity
  8
DIMENSION
100
AcDbLine
 10
346.9903994883
 20
97.98789787469999
 30
0.0
 11
346.3159854693
 21
98.0144274471
 31
0.0
  0
LINE
  5
113
330
1F
100
AcDbEntity
  8
DIMENSION
100
AcDbLine
 10
347.4077569925
 20
98.170824492
 30
0.0
 11
346.9903994883
 21
97.98789787469999
 31
0.0
  0
LINE
  5
114
330
1F
100
AcDbEntity
  8
DIMENSION
100
AcDbLine
 10
347.1430537744999
 20
98.3865114101
 30
0.0
 11
347.4077569925
 21
98.170824492
 31
0.0
  0
LINE
  5
115
330
1F
100
AcDbEntity
  8
DIMENSION
100
AcDbLine
 10
346.4648164039
 20
98.41615634660001
 30
0.0
 11
347.1430537744999
 21
98.3865114101
 31
0.0
  0
LINE
  5
116
330
1F
100
AcDbEntity
  8
DIMENSION
100
AcDbLine
 10
346.0512822513
 20
98.23011436520001
 30
0.0
 11
346.4648164039
 21
98.41615634660001
 31
0.0
  0
LINE
  5
117
330
1F
100
AcDbEntity
  8
DIMENSION
100
AcDbLine
 10
346.3159854693
 20
98.0144274471
 30
0.0
 11
346.0512822513
 21
98.23011436520001
 31
0.0
  0
LINE
  5
118
330
1F
100
AcDbEntity
  8
DIMENSION
100
AcDbLine
 10
349.5720037233001
 20
98.35771451200001
 30
0.0
 11
348.8975897043
 21
98.38424408450002
 31
0.0
  0
LINE
  5
119
330
1F
100
AcDbEntity
  8
DIMENSION
100
AcDbLine
 10
349.9893612274
 20
98.54064112940001
 30
0.0
 11
349.5720037233001
 21
98.35771451200001
 31
0.0
  0
LINE
  5
11A
330
1F
100
AcDbEntity
  8
DIMENSION
100
AcDbLine
 10
349.7246580094
 20
98.7563280474
 30
0.0
 11
349.9893612274
 21
98.54064112940001
 31
0.0
  0
LINE
  5
11B
330
1F
100
AcDbEntity
  8
DIMENSION
100
AcDbLine
 10
349.0464206389
 20
98.785972984
 30
0.0
 11
349.7246580094
 21
98.7563280474
 31
0.0
  0
LINE
  5
11C
330
1F
100
AcDbEntity
  8
DIMENSION
100
AcDbLine
 10
348.6328864863
 20
98.59993100250001
 30
0.0
 11
349.0464206389
 21
98.785972984
 31
0.0
  0
LINE
  5
11D
330
1F
100
AcDbEntity
  8
DIMENSION
100
AcDbLine
 10
348.8975897043
 20
98.38424408450002
 30
0.0
 11
348.6328864863
 21
98.59993100250001
 31
0.0
  0
LINE
  5
11E
330
1F
100
AcDbEntity
  8
DIMENSION
100
AcDbLine
 10
349.7566999549
 20
98.3025625558
 30
0.0
 11
350.1702341075
 21
98.48860453729999
 31
0.0
  0
LINE
  5
11F
330
1F
100
AcDbEntity
  8
DIMENSION
100
AcDbLine
 10
349.7566999549
 20
98.3025625558
 30
0.0
 11
350.0214031729
 21
98.08687563780001
 31
0.0
  0
LINE
  5
120
330
1F
100
AcDbEntity
  8
DIMENSION
100
AcDbLine
 10
350.0214031729
 20
98.08687563780001
 30
0.0
 11
350.6996405435
 21
98.05723070120002
 31
0.0
  0
LINE
  5
121
330
1F
100
AcDbEntity
  8
DIMENSION
100
AcDbLine
 10
350.6996405435
 20
98.05723070120002
 30
0.0
 11
351.1131746961
 21
98.24327268270002
 31
0.0
  0
LINE
  5
122
330
1F
100
AcDbEntity
  8
DIMENSION
100
AcDbLine
 10
351.1131746961
 20
98.24327268270002
 30
0.0
 11
350.8484714780999
 21
98.4589596008
 31
0.0
  0
LINE
  5
123
330
1F
100
AcDbEntity
  8
DIMENSION
100
AcDbLine
 10
350.1702341075
 20
98.48860453729999
 30
0.0
 11
350.8484714780999
 21
98.4589596008
 31
0.0
  0
LINE
  5
124
330
1F
100
AcDbEntity
  8
DIMENSION
100
AcDbLine
 10
347.17509572
 20
97.9327459185
 30
0.0
 11
347.5886298726
 21
98.11878790000001
 31
0.0
  0
LINE
  5
125
330
1F
100
AcDbEntity
  8
DIMENSION
100
AcDbLine
 10
347.17509572
 20
97.9327459185
 30
0.0
 11
347.439798938
 21
97.71705900040002
 31
0.0
  0
LINE
  5
126
330
1F
100
AcDbEntity
  8
DIMENSION
100
AcDbLine
 10
347.439798938
 20
97.71705900040002
 30
0.0
 11
348.1180363086
 21
97.6874140638
 31
0.0
  0
LINE
  5
127
330
1F
100
AcDbEntity
  8
DIMENSION
100
AcDbLine
 10
348.1180363086
 20
97.6874140638
 30
0.0
 11
348.5315704612
 21
97.87345604530001
 31
0.0
  0
LINE
  5
128
330
1F
100
AcDbEntity
  8
DIMENSION
100
AcDbLine
 10
348.5315704612
 20
97.87345604530001
 30
0.0
 11
348.2668672432
 21
98.08914296340001
 31
0.0
  0
LINE
  5
129
330
1F
100
AcDbEntity
  8
DIMENSION
100
AcDbLine
 10
347.5886298726
 20
98.11878790000001
 30
0.0
 11
348.2668672432
 21
98.08914296340001
 31
0.0
  0
LINE
  5
12A
330
1F
100
AcDbEntity
  8
DIMENSION
100
AcDbLine
 10
345.8627626681
 20
98.28838168549999
 30
0.0
 11
345.4926713633999
 21
98.30294004850001
 31
0.0
  0
LINE
  5
12B
330
1F
100
AcDbEntity
  8
DIMENSION
100
AcDbLine
 10
346.2801201723
 20
98.47130830280001
 30
0.0
 11
345.8627626681
 21
98.28838168549999
 31
0.0
  0
LINE
  5
12C
330
1F
100
AcDbEntity
  8
DIMENSION
100
AcDbLine
 10
346.0154169543
 20
98.6869952209
 30
0.0
 11
346.2801201723
 21
98.47130830280001
 31
0.0
  0
LINE
  5
12D
330
1F
100
AcDbEntity
  8
DIMENSION
100
AcDbLine
 10
345.6050637115
 20
98.7049312657
 30
0.0
 11
346.0154169543
 21
98.6869952209
 31
0.0
  0
LINE
  5
12E
330
1F
100
AcDbEntity
  8
DIMENSION
100
AcDbLine
 10
346.0259279653
 20
98.77377381510001
 30
0.0
 11
345.660463326
 21
98.7881501778
 31
0.0
  0
LINE
  5
12F
330
1F
100
AcDbEntity
  8
DIMENSION
100
AcDbLine
 10
346.4432854695
 20
98.9567004324
 30
0.0
 11
346.0259279653
 21
98.77377381510001
 31
0.0
  0
LINE
  5
130
330
1F
100
AcDbEntity
  8
DIMENSION
100
AcDbLine
 10
346.1785822515
 20
99.17238735040001
 30
0.0
 11
346.4432854695
 21
98.9567004324
 31
0.0
  0
LINE
  5
131
330
1F
100
AcDbEntity
  8
DIMENSION
100
AcDbLine
 10
346.0639322413
 20
99.177398564
 30
0.0
 11
346.1785822515
 21
99.17238735040001
 31
0.0
  0
LINE
  5
132
330
1F
100
AcDbEntity
  8
DIMENSION
100
AcDbLine
 10
346.1890932625
 20
99.25916594459998
 30
0.0
 11
346.1824543409
 21
99.2594271013
 31
0.0
  0
LINE
  5
133
330
1F
100
AcDbEntity
  8
DIMENSION
100
AcDbLine
 10
346.6064507667
 20
99.44209256190001
 30
0.0
 11
346.1890932625
 21
99.25916594459998
 31
0.0
  0
LINE
  5
134
330
1F
100
AcDbEntity
  8
DIMENSION
100
AcDbLine
 10
346.5636280337
 20
99.47698561450001
 30
0.0
 11
346.6064507667
 21
99.44209256190001
 31
0.0
  0
LINE
  5
135
330
1F
100
AcDbEntity
  8
DIMENSION
100
AcDbLine
 10
346.8016580094
 20
99.4737191998
 30
0.0
 11
346.7109586272
 21
99.54762336450002
 31
0.0
  0
LINE
  5
136
330
1F
100
AcDbEntity
  8
DIMENSION
100
AcDbLine
 10
347.47989538
 20
99.4440742633
 30
0.0
 11
346.8016580094
 21
99.4737191998
 31
0.0
  0
LINE
  5
137
330
1F
100
AcDbEntity
  8
DIMENSION
100
AcDbLine
 10
347.8934295326
 20
99.63011624469999
 30
0.0
 11
347.47989538
 21
99.4440742633
 31
0.0
  0
LINE
  5
138
330
1F
100
AcDbEntity
  8
DIMENSION
100
AcDbLine
 10
347.6287263146
 20
99.84580316280002
 30
0.0
 11
347.8934295326
 21
99.63011624469999
 31
0.0
  0
LINE
  5
139
330
1F
100
AcDbEntity
  8
DIMENSION
100
AcDbLine
 10
347.5138540401
 20
99.85082409120002
 30
0.0
 11
347.6287263146
 21
99.84580316280002
 31
0.0
  0
LINE
  5
13A
330
1F
100
AcDbEntity
  8
DIMENSION
100
AcDbLine
 10
348.9262160915
 20
100.1206054398
 30
0.0
 11
348.6531791591001
 21
100.1325395545
 31
0.0
  0
LINE
  5
13B
330
1F
100
AcDbEntity
  8
DIMENSION
100
AcDbLine
 10
349.1406667117
 20
100.2170831263
 30
0.0
 11
348.9262160915
 21
100.1206054398
 31
0.0
  0
LINE
  5
13C
330
1F
100
AcDbEntity
  8
DIMENSION
100
AcDbLine
 10
349.9299561989
 20
100.3180608924
 30
0.0
 11
350.217018209
 21
100.3055137585
 31
0.0
  0
LINE
  5
13D
330
1F
100
AcDbEntity
  8
DIMENSION
100
AcDbLine
 10
350.217018209
 20
100.3055137585
 30
0.0
 11
350.323861686
 21
100.3535808215
 31
0.0
  0
LINE
  5
13E
330
1F
100
AcDbEntity
  8
DIMENSION
100
AcDbLine
 10
351.7265833454
 20
100.4075116358
 30
0.0
 11
351.9648664793
 21
100.2133524746
 31
0.0
  0
LINE
  5
13F
330
1F
100
AcDbEntity
  8
DIMENSION
100
AcDbLine
 10
351.9648664793
 20
100.2133524746
 30
0.0
 11
352.6431038499
 21
100.183707538
 31
0.0
  0
LINE
  5
140
330
1F
100
AcDbEntity
  8
DIMENSION
100
AcDbLine
 10
352.6431038499
 20
100.183707538
 30
0.0
 11
353.0341759141001
 21
100.359644208
 31
0.0
  0
LINE
  5
141
330
1F
100
AcDbEntity
  8
DIMENSION
100
AcDbLine
 10
354.222836383
 20
100.2285312349
 30
0.0
 11
354.3871287686
 21
100.0946616182
 31
0.0
  0
LINE
  5
142
330
1F
100
AcDbEntity
  8
DIMENSION
100
AcDbLine
 10
354.3871287686
 20
100.0946616182
 30
0.0
 11
355.0615427876
 21
100.0681320458
 31
0.0
  0
LINE
  5
143
330
1F
100
AcDbEntity
  8
DIMENSION
100
AcDbLine
 10
355.0615427876
 20
100.0681320458
 30
0.0
 11
355.0740195948
 21
100.0736005953
 31
0.0
  0
LINE
  5
144
330
1F
100
AcDbEntity
  8
DIMENSION
100
AcDbLine
 10
355.2851139876
 20
100.0256338517
 30
0.0
 11
355.2500623708001
 21
100.0098647255
 31
0.0
  0
LINE
  5
145
330
1F
100
AcDbEntity
  8
DIMENSION
100
AcDbLine
 10
355.2500623708001
 20
100.0098647255
 30
0.0
 11
355.5147655888
 21
99.7941778074
 31
0.0
  0
LINE
  5
146
330
1F
100
AcDbEntity
  8
DIMENSION
100
AcDbLine
 10
355.5147655888
 20
99.7941778074
 30
0.0
 11
356.1789817081
 21
99.768049392
 31
0.0
  0
LINE
  5
147
330
1F
100
AcDbEntity
  8
DIMENSION
100
AcDbLine
 10
356.4095604083
 20
99.68341958399999
 30
0.0
 11
356.642402409
 21
99.49369399650001
 31
0.0
  0
LINE
  5
148
330
1F
100
AcDbEntity
  8
DIMENSION
100
AcDbLine
 10
356.642402409
 20
99.49369399650001
 30
0.0
 11
356.8637936018
 21
99.48498508260001
 31
0.0
  0
LINE
  5
149
330
1F
100
AcDbEntity
  8
DIMENSION
100
AcDbLine
 10
357.3345240109
 20
98.9297357026
 30
0.0
 11
357.564249115
 21
99.030423568
 31
0.0
  0
LINE
  5
14A
330
1F
100
AcDbEntity
  8
DIMENSION
100
AcDbLine
 10
357.5992272289
 20
98.7140487845
 30
0.0
 11
357.3345240109
 21
98.9297357026
 31
0.0
  0
LINE
  5
14B
330
1F
100
AcDbEntity
  8
DIMENSION
100
AcDbLine
 10
357.844422671
 20
98.70333158780001
 30
0.0
 11
357.5992272289
 21
98.7140487845
 31
0.0
  0
LINE
  5
14C
330
1F
100
AcDbEntity
  8
DIMENSION
100
AcDbLine
 10
357.5887162178
 20
98.62727019040001
 30
0.0
 11
357.8923940669
 21
98.61532434809999
 31
0.0
  0
LINE
  5
14D
330
1F
100
AcDbEntity
  8
DIMENSION
100
AcDbLine
 10
357.1713587137001
 20
98.444343573
 30
0.0
 11
357.5887162178
 21
98.62727019040001
 31
0.0
  0
LINE
  5
14E
330
1F
100
AcDbEntity
  8
DIMENSION
100
AcDbLine
 10
357.4360619316
 20
98.228656655
 30
0.0
 11
357.1713587137001
 21
98.444343573
 31
0.0
  0
LINE
  5
14F
330
1F
100
AcDbEntity
  8
DIMENSION
100
AcDbLine
 10
357.933342284
 20
98.20692113120001
 30
0.0
 11
357.4360619316
 21
98.228656655
 31
0.0
  0
LINE
  5
150
330
1F
100
AcDbEntity
  8
DIMENSION
100
AcDbLine
 10
357.4255509205999
 20
98.14187806079999
 30
0.0
 11
357.8997723899
 21
98.12322350670001
 31
0.0
  0
LINE
  5
151
330
1F
100
AcDbEntity
  8
DIMENSION
100
AcDbLine
 10
357.0081934164
 20
97.9589514435
 30
0.0
 11
357.4255509205999
 21
98.14187806079999
 31
0.0
  0
LINE
  5
152
330
1F
100
AcDbEntity
  8
DIMENSION
100
AcDbLine
 10
357.2728966344
 20
97.74326452549999
 30
0.0
 11
357.0081934164
 21
97.9589514435
 31
0.0
  0
LINE
  5
153
330
1F
100
AcDbEntity
  8
DIMENSION
100
AcDbLine
 10
357.6034015357
 20
97.72881855530002
 30
0.0
 11
357.2728966344
 21
97.74326452549999
 31
0.0
  0
LINE
  5
154
330
1F
100
AcDbEntity
  8
DIMENSION
100
AcDbLine
 10
357.2623856233999
 20
97.6564859313
 30
0.0
 11
357.5109349546
 21
97.6467086917
 31
0.0
  0
LINE
  5
155
330
1F
100
AcDbEntity
  8
DIMENSION
100
AcDbLine
 10
356.8450281192
 20
97.47355931400001
 30
0.0
 11
357.2623856233999
 21
97.6564859313
 31
0.0
  0
LINE
  5
156
330
1F
100
AcDbEntity
  8
DIMENSION
100
AcDbLine
 10
357.0282489522
 20
97.32426631670001
 30
0.0
 11
356.8450281192
 21
97.47355931400001
 31
0.0
  0
LINE
  5
157
330
1F
100
AcDbEntity
  8
DIMENSION
100
AcDbLine
 10
356.6498208765001
 20
97.4419326761
 30
0.0
 11
356.8857308995
 21
97.24970718600001
 31
0.0
  0
LINE
  5
158
330
1F
100
AcDbEntity
  8
DIMENSION
100
AcDbLine
 10
355.9715835058999
 20
97.4715776126
 30
0.0
 11
356.6498208765001
 21
97.4419326761
 31
0.0
  0
LINE
  5
159
330
1F
100
AcDbEntity
  8
DIMENSION
100
AcDbLine
 10
355.5580493533
 20
97.28553563110001
 30
0.0
 11
355.9715835058999
 21
97.4715776126
 31
0.0
  0
LINE
  5
15A
330
1F
100
AcDbEntity
  8
DIMENSION
100
AcDbLine
 10
355.8227525713
 20
97.0698487131
 30
0.0
 11
355.5580493533
 21
97.28553563110001
 31
0.0
  0
LINE
  5
15B
330
1F
100
AcDbEntity
  8
DIMENSION
100
AcDbLine
 10
356.4176146032
 20
97.04384801190002
 30
0.0
 11
355.8227525713
 21
97.0698487131
 31
0.0
  0
LINE
  5
15C
330
1F
100
AcDbEntity
  8
DIMENSION
100
AcDbLine
 10
355.8160649119
 20
96.97995475479999
 30
0.0
 11
356.20320644
 21
96.9647256834
 31
0.0
  0
LINE
  5
15D
330
1F
100
AcDbEntity
  8
DIMENSION
100
AcDbLine
 10
355.3987074077
 20
96.79702813750001
 30
0.0
 11
355.8160649119
 21
96.97995475479999
 31
0.0
  0
LINE
  5
15E
330
1F
100
AcDbEntity
  8
DIMENSION
100
AcDbLine
 10
355.4644811124
 20
96.7434340491
 30
0.0
 11
355.3987074077
 21
96.79702813750001
 31
0.0
  0
LINE
  5
15F
330
1F
100
AcDbEntity
  8
DIMENSION
100
AcDbLine
 10
355.203500165
 20
96.7654014995
 30
0.0
 11
355.2846640043
 21
96.69926713790001
 31
0.0
  0
LINE
  5
160
330
1F
100
AcDbEntity
  8
DIMENSION
100
AcDbLine
 10
354.5252627944
 20
96.79504643610002
 30
0.0
 11
355.203500165
 21
96.7654014995
 31
0.0
  0
LINE
  5
161
330
1F
100
AcDbEntity
  8
DIMENSION
100
AcDbLine
 10
354.1117286418
 20
96.60900445460001
 30
0.0
 11
354.5252627944
 21
96.79504643610002
 31
0.0
  0
LINE
  5
162
330
1F
100
AcDbEntity
  8
DIMENSION
100
AcDbLine
 10
354.2448067759
 20
96.5005690044
 30
0.0
 11
354.1117286418
 21
96.60900445460001
 31
0.0
  0
LINE
  5
163
330
1F
100
AcDbEntity
  8
DIMENSION
100
AcDbLine
 10
354.0457761816
 20
96.4720577307
 30
0.0
 11
353.9126980475
 21
96.58049318080001
 31
0.0
  0
LINE
  5
164
330
1F
100
AcDbEntity
  8
DIMENSION
100
AcDbLine
 10
353.9126980475
 20
96.58049318080001
 30
0.0
 11
353.2344606769
 21
96.6101381174
 31
0.0
  0
LINE
  5
165
330
1F
100
AcDbEntity
  8
DIMENSION
100
AcDbLine
 10
353.2344606769
 20
96.6101381174
 30
0.0
 11
352.8209265244
 21
96.4240961359
 31
0.0
  0
LINE
  5
166
330
1F
100
AcDbEntity
  8
DIMENSION
100
AcDbLine
 10
352.8209265244
 20
96.4240961359
 30
0.0
 11
352.9020903636
 21
96.35796177430002
 31
0.0
  0
LINE
  5
167
330
1F
100
AcDbEntity
  8
DIMENSION
100
AcDbLine
 10
352.6838462832
 20
96.3451061379
 30
0.0
 11
352.6180725785
 21
96.39870022629999
 31
0.0
  0
LINE
  5
168
330
1F
100
AcDbEntity
  8
DIMENSION
100
AcDbLine
 10
352.6180725785
 20
96.39870022629999
 30
0.0
 11
351.9436585595
 21
96.42522979870001
 31
0.0
  0
LINE
  5
169
330
1F
100
AcDbEntity
  8
DIMENSION
100
AcDbLine
 10
351.9436585595
 20
96.42522979870001
 30
0.0
 11
351.7040780979
 21
96.32022235790001
 31
0.0
  0
LINE
  5
16A
330
1F
100
AcDbEntity
  8
DIMENSION
100
AcDbLine
 10
351.388616993
 20
96.32344053799998
 30
0.0
 11
351.7513156247
 21
96.4866124833
 31
0.0
  0
LINE
  5
16B
330
1F
100
AcDbEntity
  8
DIMENSION
100
AcDbLine
 10
351.7513156247
 20
96.4866124833
 30
0.0
 11
351.4866124067
 21
96.70229940129999
 31
0.0
  0
LINE
  5
16C
330
1F
100
AcDbEntity
  8
DIMENSION
100
AcDbLine
 10
351.4866124067
 20
96.70229940129999
 30
0.0
 11
350.8083750361
 21
96.73194433790001
 31
0.0
  0
LINE
  5
16D
330
1F
100
AcDbEntity
  8
DIMENSION
100
AcDbLine
 10
350.8083750361
 20
96.73194433790001
 30
0.0
 11
350.3948408835
 21
96.5459023564
 31
0.0
  0
LINE
  5
16E
330
1F
100
AcDbEntity
  8
DIMENSION
100
AcDbLine
 10
350.3948408835
 20
96.5459023564
 30
0.0
 11
350.6307509065
 21
96.35367686629999
 31
0.0
  0
LINE
  5
16F
330
1F
100
AcDbEntity
  8
DIMENSION
100
AcDbLine
 10
350.3752077706
 20
96.3712134496
 30
0.0
 11
350.1919869376
 21
96.5205064468
 31
0.0
  0
LINE
  5
170
330
1F
100
AcDbEntity
  8
DIMENSION
100
AcDbLine
 10
350.1919869376
 20
96.5205064468
 30
0.0
 11
349.5175729186
 21
96.54703601920001
 31
0.0
  0
LINE
  5
171
330
1F
100
AcDbEntity
  8
DIMENSION
100
AcDbLine
 10
349.5175729186
 20
96.54703601920001
 30
0.0
 11
349.363759496
 21
96.47962002979999
 31
0.0
  0
LINE
  5
172
330
1F
100
AcDbEntity
  8
DIMENSION
100
AcDbLine
 10
349.1275382461
 20
96.51464512850001
 30
0.0
 11
349.3290533354
 21
96.60530333959998
 31
0.0
  0
LINE
  5
173
330
1F
100
AcDbEntity
  8
DIMENSION
100
AcDbLine
 10
349.3290533354
 20
96.60530333959998
 30
0.0
 11
349.0643501174
 21
96.8209902577
 31
0.0
  0
LINE
  5
174
330
1F
100
AcDbEntity
  8
DIMENSION
100
AcDbLine
 10
349.0643501174
 20
96.8209902577
 30
0.0
 11
348.3899360984
 21
96.8475198301
 31
0.0
  0
LINE
  5
175
330
1F
100
AcDbEntity
  8
DIMENSION
100
AcDbLine
 10
348.3899360984
 20
96.8475198301
 30
0.0
 11
348.0964666816
 21
96.71889301210001
 31
0.0
  0
LINE
  5
176
330
1F
100
AcDbEntity
  8
DIMENSION
100
AcDbLine
 10
347.8982152791
 20
96.7693820715
 30
0.0
 11
348.2014165151
 21
96.90578715040002
 31
0.0
  0
LINE
  5
177
330
1F
100
AcDbEntity
  8
DIMENSION
100
AcDbLine
 10
348.2014165151
 20
96.90578715040002
 30
0.0
 11
347.9367132971
 21
97.1214740685
 31
0.0
  0
LINE
  5
178
330
1F
100
AcDbEntity
  8
DIMENSION
100
AcDbLine
 10
347.9367132971
 20
97.1214740685
 30
0.0
 11
347.2622992781
 21
97.14800364090001
 31
0.0
  0
LINE
  5
179
330
1F
100
AcDbEntity
  8
DIMENSION
100
AcDbLine
 10
347.2622992781
 20
97.14800364090001
 30
0.0
 11
347.033270256
 21
97.04762086629999
 31
0.0
  0
LINE
  5
17A
330
1F
100
AcDbEntity
  8
DIMENSION
100
AcDbLine
 10
346.8690983692
 20
97.11418831430002
 30
0.0
 11
347.0737796949
 21
97.2062709613
 31
0.0
  0
LINE
  5
17B
330
1F
100
AcDbEntity
  8
DIMENSION
100
AcDbLine
 10
347.0737796949
 20
97.2062709613
 30
0.0
 11
346.8090764769
 21
97.42195787940001
 31
0.0
  0
LINE
  5
17C
330
1F
100
AcDbEntity
  8
DIMENSION
100
AcDbLine
 10
346.8090764769
 20
97.42195787940001
 30
0.0
 11
346.2252047427
 21
97.44492577
 31
0.0
  0
LINE
  5
17D
330
1F
100
AcDbEntity
  8
DIMENSION
100
AcDbLine
 10
346.1169548751
 20
97.9859161733
 30
0.0
 11
345.755628979
 21
97.82754805180001
 31
0.0
  0
LINE
  5
17E
330
1F
100
AcDbEntity
  8
DIMENSION
100
AcDbLine
 10
345.8522516571
 20
98.2016030914
 30
0.0
 11
346.1169548751
 21
97.9859161733
 31
0.0
  0
LINE
  5
17F
330
1F
100
AcDbEntity
  8
DIMENSION
100
AcDbLine
 10
345.5165538114
 20
98.2162760389
 30
0.0
 11
345.8522516571
 21
98.2016030914
 31
0.0
  0
LINE
  5
180
330
1F
100
AcDbEntity
  8
DIMENSION
100
AcDbLine
 10
354.3405665628
 20
96.85019839230001
 30
0.0
 11
353.9270324102
 21
96.6641564108
 31
0.0
  0
LINE
  5
181
330
1F
100
AcDbEntity
  8
DIMENSION
100
AcDbLine
 10
354.0758633448001
 20
97.06588531040001
 30
0.0
 11
354.3405665628
 21
96.85019839230001
 31
0.0
  0
LINE
  5
182
330
1F
100
AcDbEntity
  8
DIMENSION
100
AcDbLine
 10
353.3976259742
 20
97.09553024690002
 30
0.0
 11
354.0758633448001
 21
97.06588531040001
 31
0.0
  0
LINE
  5
183
330
1F
100
AcDbEntity
  8
DIMENSION
100
AcDbLine
 10
353.3976259742
 20
97.09553024690002
 30
0.0
 11
352.9840918216
 21
96.90948826540001
 31
0.0
  0
LINE
  5
184
330
1F
100
AcDbEntity
  8
DIMENSION
100
AcDbLine
 10
352.9840918216
 20
96.90948826540001
 30
0.0
 11
353.2487950396
 21
96.6938013474
 31
0.0
  0
LINE
  5
185
330
1F
100
AcDbEntity
  8
DIMENSION
100
AcDbLine
 10
353.2487950396
 20
96.6938013474
 30
0.0
 11
353.9270324102
 21
96.6641564108
 31
0.0
  0
LINE
  5
186
330
1F
100
AcDbEntity
  8
DIMENSION
100
AcDbLine
 10
351.9541695705
 20
96.51200839290002
 30
0.0
 11
352.6324069411
 21
96.48236345629999
 31
0.0
  0
LINE
  5
187
330
1F
100
AcDbEntity
  8
DIMENSION
100
AcDbLine
 10
352.6324069411
 20
96.48236345629999
 30
0.0
 11
353.0459410937
 21
96.66840543780001
 31
0.0
  0
LINE
  5
188
330
1F
100
AcDbEntity
  8
DIMENSION
100
AcDbLine
 10
353.0459410937
 20
96.66840543780001
 30
0.0
 11
352.7812378757
 21
96.8840923558
 31
0.0
  0
LINE
  5
189
330
1F
100
AcDbEntity
  8
DIMENSION
100
AcDbLine
 10
352.7812378757
 20
96.8840923558
 30
0.0
 11
352.1068238567
 21
96.91062192830001
 31
0.0
  0
LINE
  5
18A
330
1F
100
AcDbEntity
  8
DIMENSION
100
AcDbLine
 10
352.1068238567
 20
96.91062192830001
 30
0.0
 11
351.6894663525
 21
96.72769531090001
 31
0.0
  0
LINE
  5
18B
330
1F
100
AcDbEntity
  8
DIMENSION
100
AcDbLine
 10
351.6894663525
 20
96.72769531090001
 30
0.0
 11
351.9541695705
 21
96.51200839290002
 31
0.0
  0
LINE
  5
18C
330
1F
100
AcDbEntity
  8
DIMENSION
100
AcDbLine
 10
350.3551522348
 20
97.00589857629999
 30
0.0
 11
349.6807382158
 21
97.03242814879999
 31
0.0
  0
LINE
  5
18D
330
1F
100
AcDbEntity
  8
DIMENSION
100
AcDbLine
 10
349.6807382158
 20
97.03242814879999
 30
0.0
 11
349.2633807117
 21
96.8495015314
 31
0.0
  0
LINE
  5
18E
330
1F
100
AcDbEntity
  8
DIMENSION
100
AcDbLine
 10
349.2633807117
 20
96.8495015314
 30
0.0
 11
349.5280839297
 21
96.63381461340001
 31
0.0
  0
LINE
  5
18F
330
1F
100
AcDbEntity
  8
DIMENSION
100
AcDbLine
 10
349.5280839297
 20
96.63381461340001
 30
0.0
 11
350.2063213002
 21
96.60416967679999
 31
0.0
  0
LINE
  5
190
330
1F
100
AcDbEntity
  8
DIMENSION
100
AcDbLine
 10
350.2063213002
 20
96.60416967679999
 30
0.0
 11
350.6198554528
 21
96.7902116583
 31
0.0
  0
LINE
  5
191
330
1F
100
AcDbEntity
  8
DIMENSION
100
AcDbLine
 10
350.6198554528
 20
96.7902116583
 30
0.0
 11
350.3551522348
 21
97.00589857629999
 31
0.0
  0
LINE
  5
192
330
1F
100
AcDbEntity
  8
DIMENSION
100
AcDbLine
 10
350.8227093987001
 20
96.8156075679
 30
0.0
 11
351.5009467693
 21
96.7859626313
 31
0.0
  0
LINE
  5
193
330
1F
100
AcDbEntity
  8
DIMENSION
100
AcDbLine
 10
351.5009467693
 20
96.7859626313
 30
0.0
 11
351.9144809219
 21
96.97200461280001
 31
0.0
  0
LINE
  5
194
330
1F
100
AcDbEntity
  8
DIMENSION
100
AcDbLine
 10
351.9144809219
 20
96.97200461280001
 30
0.0
 11
351.6497777039
 21
97.18769153090001
 31
0.0
  0
LINE
  5
195
330
1F
100
AcDbEntity
  8
DIMENSION
100
AcDbLine
 10
351.6497777039
 20
97.18769153090001
 30
0.0
 11
350.9715403333
 21
97.2173364674
 31
0.0
  0
LINE
  5
196
330
1F
100
AcDbEntity
  8
DIMENSION
100
AcDbLine
 10
350.9715403333
 20
97.2173364674
 30
0.0
 11
350.5580061807
 21
97.03129448600002
 31
0.0
  0
LINE
  5
197
330
1F
100
AcDbEntity
  8
DIMENSION
100
AcDbLine
 10
350.5580061807
 20
97.03129448600002
 30
0.0
 11
350.8227093987001
 21
96.8156075679
 31
0.0
  0
LINE
  5
198
330
1F
100
AcDbEntity
  8
DIMENSION
100
AcDbLine
 10
352.1173348678
 20
96.99740052240001
 30
0.0
 11
352.7955722383
 21
96.9677555858
 31
0.0
  0
LINE
  5
199
330
1F
100
AcDbEntity
  8
DIMENSION
100
AcDbLine
 10
352.7955722383
 20
96.9677555858
 30
0.0
 11
353.2091063909
 21
97.15379756729999
 31
0.0
  0
LINE
  5
19A
330
1F
100
AcDbEntity
  8
DIMENSION
100
AcDbLine
 10
353.2091063909
 20
97.15379756729999
 30
0.0
 11
352.9444031729
 21
97.36948448540001
 31
0.0
  0
LINE
  5
19B
330
1F
100
AcDbEntity
  8
DIMENSION
100
AcDbLine
 10
352.9444031729
 20
97.36948448540001
 30
0.0
 11
352.2699891539
 21
97.3960140578
 31
0.0
  0
LINE
  5
19C
330
1F
100
AcDbEntity
  8
DIMENSION
100
AcDbLine
 10
352.2699891539
 20
97.3960140578
 30
0.0
 11
351.8526316498001
 21
97.21308744049999
 31
0.0
  0
LINE
  5
19D
330
1F
100
AcDbEntity
  8
DIMENSION
100
AcDbLine
 10
351.8526316498001
 20
97.21308744049999
 30
0.0
 11
352.1173348678
 21
96.99740052240001
 31
0.0
  0
LINE
  5
19E
330
1F
100
AcDbEntity
  8
DIMENSION
100
AcDbLine
 10
353.3722716882
 20
97.6391896968
 30
0.0
 11
352.9587375356
 21
97.45314771530001
 31
0.0
  0
LINE
  5
19F
330
1F
100
AcDbEntity
  8
DIMENSION
100
AcDbLine
 10
353.1075684701999
 20
97.8548766149
 30
0.0
 11
353.3722716882
 21
97.6391896968
 31
0.0
  0
LINE
  5
1A0
330
1F
100
AcDbEntity
  8
DIMENSION
100
AcDbLine
 10
352.4293310996
 20
97.8845215515
 30
0.0
 11
353.1075684701999
 21
97.8548766149
 31
0.0
  0
LINE
  5
1A1
330
1F
100
AcDbEntity
  8
DIMENSION
100
AcDbLine
 10
352.4293310996
 20
97.8845215515
 30
0.0
 11
352.015796947
 21
97.69847957000001
 31
0.0
  0
LINE
  5
1A2
330
1F
100
AcDbEntity
  8
DIMENSION
100
AcDbLine
 10
352.015796947
 20
97.69847957000001
 30
0.0
 11
352.280500165
 21
97.48279265189999
 31
0.0
  0
LINE
  5
1A3
330
1F
100
AcDbEntity
  8
DIMENSION
100
AcDbLine
 10
352.280500165
 20
97.48279265189999
 30
0.0
 11
352.9587375356
 21
97.45314771530001
 31
0.0
  0
LINE
  5
1A4
330
1F
100
AcDbEntity
  8
DIMENSION
100
AcDbLine
 10
351.8129430011
 20
97.67308366040001
 30
0.0
 11
351.1385289821
 21
97.6996132328
 31
0.0
  0
LINE
  5
1A5
330
1F
100
AcDbEntity
  8
DIMENSION
100
AcDbLine
 10
351.1385289821
 20
97.6996132328
 30
0.0
 11
350.7211714779
 21
97.51668661549999
 31
0.0
  0
LINE
  5
1A6
330
1F
100
AcDbEntity
  8
DIMENSION
100
AcDbLine
 10
350.7211714779
 20
97.51668661549999
 30
0.0
 11
350.9858746958999
 21
97.30099969740001
 31
0.0
  0
LINE
  5
1A7
330
1F
100
AcDbEntity
  8
DIMENSION
100
AcDbLine
 10
350.9858746958999
 20
97.30099969740001
 30
0.0
 11
351.6641120665
 21
97.2713547608
 31
0.0
  0
LINE
  5
1A8
330
1F
100
AcDbEntity
  8
DIMENSION
100
AcDbLine
 10
351.6641120665
 20
97.2713547608
 30
0.0
 11
352.0776462191
 21
97.4573967423
 31
0.0
  0
LINE
  5
1A9
330
1F
100
AcDbEntity
  8
DIMENSION
100
AcDbLine
 10
352.0776462191
 20
97.4573967423
 30
0.0
 11
351.8129430011
 21
97.67308366040001
 31
0.0
  0
LINE
  5
1AA
330
1F
100
AcDbEntity
  8
DIMENSION
100
AcDbLine
 10
350.5183175321
 20
97.49129070590001
 30
0.0
 11
349.8439035131
 21
97.5178202783
 31
0.0
  0
LINE
  5
1AB
330
1F
100
AcDbEntity
  8
DIMENSION
100
AcDbLine
 10
349.8439035131
 20
97.5178202783
 30
0.0
 11
349.4265460089
 21
97.33489366100002
 31
0.0
  0
LINE
  5
1AC
330
1F
100
AcDbEntity
  8
DIMENSION
100
AcDbLine
 10
349.4265460089
 20
97.33489366100002
 30
0.0
 11
349.6912492269
 21
97.1192067429
 31
0.0
  0
LINE
  5
1AD
330
1F
100
AcDbEntity
  8
DIMENSION
100
AcDbLine
 10
349.6912492269
 20
97.1192067429
 30
0.0
 11
350.3694865975
 21
97.0895618063
 31
0.0
  0
LINE
  5
1AE
330
1F
100
AcDbEntity
  8
DIMENSION
100
AcDbLine
 10
350.3694865975
 20
97.0895618063
 30
0.0
 11
350.7830207501001
 21
97.27560378780001
 31
0.0
  0
LINE
  5
1AF
330
1F
100
AcDbEntity
  8
DIMENSION
100
AcDbLine
 10
350.7830207501001
 20
97.27560378780001
 30
0.0
 11
350.5183175321
 21
97.49129070590001
 31
0.0
  0
LINE
  5
1B0
330
1F
100
AcDbEntity
  8
DIMENSION
100
AcDbLine
 10
349.4922186326001
 20
97.09069546910001
 30
0.0
 11
349.2275154146
 21
97.30638238719999
 31
0.0
  0
LINE
  5
1B1
330
1F
100
AcDbEntity
  8
DIMENSION
100
AcDbLine
 10
349.2275154146
 20
97.30638238719999
 30
0.0
 11
348.5531013956
 21
97.33291195959999
 31
0.0
  0
LINE
  5
1B2
330
1F
100
AcDbEntity
  8
DIMENSION
100
AcDbLine
 10
348.5531013956
 20
97.33291195959999
 30
0.0
 11
348.1357438914
 21
97.1499853423
 31
0.0
  0
LINE
  5
1B3
330
1F
100
AcDbEntity
  8
DIMENSION
100
AcDbLine
 10
348.1357438914
 20
97.1499853423
 30
0.0
 11
348.4004471094
 21
96.9342984242
 31
0.0
  0
LINE
  5
1B4
330
1F
100
AcDbEntity
  8
DIMENSION
100
AcDbLine
 10
348.4004471094
 20
96.9342984242
 30
0.0
 11
349.07868448
 21
96.9046534876
 31
0.0
  0
LINE
  5
1B5
330
1F
100
AcDbEntity
  8
DIMENSION
100
AcDbLine
 10
349.07868448
 20
96.9046534876
 30
0.0
 11
349.4922186326001
 21
97.09069546910001
 31
0.0
  0
LINE
  5
1B6
330
1F
100
AcDbEntity
  8
DIMENSION
100
AcDbLine
 10
347.9510476598
 20
97.20513729850001
 30
0.0
 11
348.3645818124
 21
97.39117928
 31
0.0
  0
LINE
  5
1B7
330
1F
100
AcDbEntity
  8
DIMENSION
100
AcDbLine
 10
348.3645818124
 20
97.39117928
 30
0.0
 11
348.0998785944
 21
97.60686619799999
 31
0.0
  0
LINE
  5
1B8
330
1F
100
AcDbEntity
  8
DIMENSION
100
AcDbLine
 10
348.0998785944
 20
97.60686619799999
 30
0.0
 11
347.4254645754
 21
97.63339577040001
 31
0.0
  0
LINE
  5
1B9
330
1F
100
AcDbEntity
  8
DIMENSION
100
AcDbLine
 10
347.4254645754
 20
97.63339577040001
 30
0.0
 11
347.0081070712
 21
97.45046915309998
 31
0.0
  0
LINE
  5
1BA
330
1F
100
AcDbEntity
  8
DIMENSION
100
AcDbLine
 10
347.0081070712
 20
97.45046915309998
 30
0.0
 11
347.2728102892
 21
97.23478223509999
 31
0.0
  0
LINE
  5
1BB
330
1F
100
AcDbEntity
  8
DIMENSION
100
AcDbLine
 10
347.2728102892
 20
97.23478223509999
 30
0.0
 11
347.9510476598
 21
97.20513729850001
 31
0.0
  0
LINE
  5
1BC
330
1F
100
AcDbEntity
  8
DIMENSION
100
AcDbLine
 10
350.5326518947
 20
97.57495393580001
 30
0.0
 11
350.9461860473
 21
97.7609959173
 31
0.0
  0
LINE
  5
1BD
330
1F
100
AcDbEntity
  8
DIMENSION
100
AcDbLine
 10
350.9461860473
 20
97.7609959173
 30
0.0
 11
350.6814828293
 21
97.97668283540001
 31
0.0
  0
LINE
  5
1BE
330
1F
100
AcDbEntity
  8
DIMENSION
100
AcDbLine
 10
350.6814828293
 20
97.97668283540001
 30
0.0
 11
350.0070688103
 21
98.0032124078
 31
0.0
  0
LINE
  5
1BF
330
1F
100
AcDbEntity
  8
DIMENSION
100
AcDbLine
 10
350.0070688103
 20
98.0032124078
 30
0.0
 11
349.5897113061
 21
97.82028579049999
 31
0.0
  0
LINE
  5
1C0
330
1F
100
AcDbEntity
  8
DIMENSION
100
AcDbLine
 10
349.5897113061
 20
97.82028579049999
 30
0.0
 11
349.8544145241
 21
97.60459887240001
 31
0.0
  0
LINE
  5
1C1
330
1F
100
AcDbEntity
  8
DIMENSION
100
AcDbLine
 10
349.8544145241
 20
97.60459887240001
 30
0.0
 11
350.5326518947
 21
97.57495393580001
 31
0.0
  0
LINE
  5
1C2
330
1F
100
AcDbEntity
  8
DIMENSION
100
AcDbLine
 10
351.8272773637
 20
97.75674689040002
 30
0.0
 11
352.2408115163
 21
97.9427888718
 31
0.0
  0
LINE
  5
1C3
330
1F
100
AcDbEntity
  8
DIMENSION
100
AcDbLine
 10
352.2408115163
 20
97.9427888718
 30
0.0
 11
351.9761082983
 21
98.1584757899
 31
0.0
  0
LINE
  5
1C4
330
1F
100
AcDbEntity
  8
DIMENSION
100
AcDbLine
 10
351.9761082983
 20
98.1584757899
 30
0.0
 11
351.2978709277
 21
98.1881207265
 31
0.0
  0
LINE
  5
1C5
330
1F
100
AcDbEntity
  8
DIMENSION
100
AcDbLine
 10
351.2978709277
 20
98.1881207265
 30
0.0
 11
350.8843367752
 21
98.00207874500001
 31
0.0
  0
LINE
  5
1C6
330
1F
100
AcDbEntity
  8
DIMENSION
100
AcDbLine
 10
350.8843367752
 20
98.00207874500001
 30
0.0
 11
351.1490399932
 21
97.7863918269
 31
0.0
  0
LINE
  5
1C7
330
1F
100
AcDbEntity
  8
DIMENSION
100
AcDbLine
 10
351.1490399932
 20
97.7863918269
 30
0.0
 11
351.8272773637
 21
97.75674689040002
 31
0.0
  0
LINE
  5
1C8
330
1F
100
AcDbEntity
  8
DIMENSION
100
AcDbLine
 10
357.0738660401
 20
97.71475325170001
 30
0.0
 11
356.6603318875
 21
97.5287112702
 31
0.0
  0
LINE
  5
1C9
330
1F
100
AcDbEntity
  8
DIMENSION
100
AcDbLine
 10
356.8091628221
 20
97.93044016979999
 30
0.0
 11
357.0738660401
 21
97.71475325170001
 31
0.0
  0
LINE
  5
1CA
330
1F
100
AcDbEntity
  8
DIMENSION
100
AcDbLine
 10
356.1347488031
 20
97.9569697422
 30
0.0
 11
356.8091628221
 21
97.93044016979999
 31
0.0
  0
LINE
  5
1CB
330
1F
100
AcDbEntity
  8
DIMENSION
100
AcDbLine
 10
355.7173912990001
 20
97.77404312480001
 30
0.0
 11
356.1347488031
 21
97.9569697422
 31
0.0
  0
LINE
  5
1CC
330
1F
100
AcDbEntity
  8
DIMENSION
100
AcDbLine
 10
355.9820945169999
 20
97.5583562068
 30
0.0
 11
355.7173912990001
 21
97.77404312480001
 31
0.0
  0
LINE
  5
1CD
330
1F
100
AcDbEntity
  8
DIMENSION
100
AcDbLine
 10
356.6603318875
 20
97.5287112702
 30
0.0
 11
355.9820945169999
 21
97.5583562068
 31
0.0
  0
LINE
  5
1CE
330
1F
100
AcDbEntity
  8
DIMENSION
100
AcDbLine
 10
353.1434337672
 20
97.3979957591
 30
0.0
 11
353.5607912714
 21
97.5809223765
 31
0.0
  0
LINE
  5
1CF
330
1F
100
AcDbEntity
  8
DIMENSION
100
AcDbLine
 10
353.4081369852
 20
97.18230884110001
 30
0.0
 11
353.1434337672
 21
97.3979957591
 31
0.0
  0
LINE
  5
1D0
330
1F
100
AcDbEntity
  8
DIMENSION
100
AcDbLine
 10
354.0863743558
 20
97.1526639045
 30
0.0
 11
353.4081369852
 21
97.18230884110001
 31
0.0
  0
LINE
  5
1D1
330
1F
100
AcDbEntity
  8
DIMENSION
100
AcDbLine
 10
354.4999085084
 20
97.338705886
 30
0.0
 11
354.0863743558
 21
97.1526639045
 31
0.0
  0
LINE
  5
1D2
330
1F
100
AcDbEntity
  8
DIMENSION
100
AcDbLine
 10
354.2352052904
 20
97.55439280410001
 30
0.0
 11
354.4999085084
 21
97.338705886
 31
0.0
  0
LINE
  5
1D3
330
1F
100
AcDbEntity
  8
DIMENSION
100
AcDbLine
 10
353.5607912714
 20
97.5809223765
 30
0.0
 11
354.2352052904
 21
97.55439280410001
 31
0.0
  0
LINE
  5
1D4
330
1F
100
AcDbEntity
  8
DIMENSION
100
AcDbLine
 10
354.659250454
 20
97.8272133797
 30
0.0
 11
354.2457163014
 21
97.64117139820001
 31
0.0
  0
LINE
  5
1D5
330
1F
100
AcDbEntity
  8
DIMENSION
100
AcDbLine
 10
354.394547236
 20
98.04290029770001
 30
0.0
 11
354.659250454
 21
97.8272133797
 31
0.0
  0
LINE
  5
1D6
330
1F
100
AcDbEntity
  8
DIMENSION
100
AcDbLine
 10
353.7201332169999
 20
98.06942987020001
 30
0.0
 11
354.394547236
 21
98.04290029770001
 31
0.0
  0
LINE
  5
1D7
330
1F
100
AcDbEntity
  8
DIMENSION
100
AcDbLine
 10
353.3027757129
 20
97.88650325280002
 30
0.0
 11
353.7201332169999
 21
98.06942987020001
 31
0.0
  0
LINE
  5
1D8
330
1F
100
AcDbEntity
  8
DIMENSION
100
AcDbLine
 10
353.5674789308999
 20
97.6708163348
 30
0.0
 11
353.3027757129
 21
97.88650325280002
 31
0.0
  0
LINE
  5
1D9
330
1F
100
AcDbEntity
  8
DIMENSION
100
AcDbLine
 10
354.2457163014
 20
97.64117139820001
 30
0.0
 11
353.5674789308999
 21
97.6708163348
 31
0.0
  0
LINE
  5
1DA
330
1F
100
AcDbEntity
  8
DIMENSION
100
AcDbLine
 10
356.9723281194
 20
98.41583229930002
 30
0.0
 11
357.2370313374
 21
98.2001453812
 31
0.0
  0
LINE
  5
1DB
330
1F
100
AcDbEntity
  8
DIMENSION
100
AcDbLine
 10
356.2979141004
 20
98.4423618717
 30
0.0
 11
356.9723281194
 21
98.41583229930002
 31
0.0
  0
LINE
  5
1DC
330
1F
100
AcDbEntity
  8
DIMENSION
100
AcDbLine
 10
355.8805565962
 20
98.25943525440001
 30
0.0
 11
356.2979141004
 21
98.4423618717
 31
0.0
  0
LINE
  5
1DD
330
1F
100
AcDbEntity
  8
DIMENSION
100
AcDbLine
 10
356.1452598141999
 20
98.04374833629999
 30
0.0
 11
355.8805565962
 21
98.25943525440001
 31
0.0
  0
LINE
  5
1DE
330
1F
100
AcDbEntity
  8
DIMENSION
100
AcDbLine
 10
356.8234971848
 20
98.01410339969999
 30
0.0
 11
356.1452598141999
 21
98.04374833629999
 31
0.0
  0
LINE
  5
1DF
330
1F
100
AcDbEntity
  8
DIMENSION
100
AcDbLine
 10
357.2370313374
 20
98.2001453812
 30
0.0
 11
356.8234971848
 21
98.01410339969999
 31
0.0
  0
LINE
  5
1E0
330
1F
100
AcDbEntity
  8
DIMENSION
100
AcDbLine
 10
355.1702772801001
 20
98.74284568250001
 30
0.0
 11
355.8446912991
 21
98.7163161101
 31
0.0
  0
LINE
  5
1E1
330
1F
100
AcDbEntity
  8
DIMENSION
100
AcDbLine
 10
354.752919776
 20
98.55991906520001
 30
0.0
 11
355.1702772801001
 21
98.74284568250001
 31
0.0
  0
LINE
  5
1E2
330
1F
100
AcDbEntity
  8
DIMENSION
100
AcDbLine
 10
355.0176229939
 20
98.3442321471
 30
0.0
 11
354.752919776
 21
98.55991906520001
 31
0.0
  0
LINE
  5
1E3
330
1F
100
AcDbEntity
  8
DIMENSION
100
AcDbLine
 10
355.6958603645
 20
98.3145872106
 30
0.0
 11
355.0176229939
 21
98.3442321471
 31
0.0
  0
LINE
  5
1E4
330
1F
100
AcDbEntity
  8
DIMENSION
100
AcDbLine
 10
356.1093945171
 20
98.50062919209999
 30
0.0
 11
355.6958603645
 21
98.3145872106
 31
0.0
  0
LINE
  5
1E5
330
1F
100
AcDbEntity
  8
DIMENSION
100
AcDbLine
 10
355.8446912991
 20
98.7163161101
 30
0.0
 11
356.1093945171
 21
98.50062919209999
 31
0.0
  0
LINE
  5
1E6
330
1F
100
AcDbEntity
  8
DIMENSION
100
AcDbLine
 10
352.5886730452
 20
98.37302904520001
 30
0.0
 11
353.2669104158
 21
98.3433841086
 31
0.0
  0
LINE
  5
1E7
330
1F
100
AcDbEntity
  8
DIMENSION
100
AcDbLine
 10
352.1751388926
 20
98.1869870637
 30
0.0
 11
352.5886730452
 21
98.37302904520001
 31
0.0
  0
LINE
  5
1E8
330
1F
100
AcDbEntity
  8
DIMENSION
100
AcDbLine
 10
352.4398421105999
 20
97.9713001456
 30
0.0
 11
352.1751388926
 21
98.1869870637
 31
0.0
  0
LINE
  5
1E9
330
1F
100
AcDbEntity
  8
DIMENSION
100
AcDbLine
 10
353.1180794812
 20
97.941655209
 30
0.0
 11
352.4398421105999
 21
97.9713001456
 31
0.0
  0
LINE
  5
1EA
330
1F
100
AcDbEntity
  8
DIMENSION
100
AcDbLine
 10
353.5316136338
 20
98.12769719049999
 30
0.0
 11
353.1180794812
 21
97.941655209
 31
0.0
  0
LINE
  5
1EB
330
1F
100
AcDbEntity
  8
DIMENSION
100
AcDbLine
 10
353.2669104158
 20
98.3433841086
 30
0.0
 11
353.5316136338
 21
98.12769719049999
 31
0.0
  0
LINE
  5
1EC
330
1F
100
AcDbEntity
  8
DIMENSION
100
AcDbLine
 10
354.9855810484999
 20
98.79799763870002
 30
0.0
 11
354.5720468959
 21
98.6119556572
 31
0.0
  0
LINE
  5
1ED
330
1F
100
AcDbEntity
  8
DIMENSION
100
AcDbLine
 10
354.9855810484999
 20
98.79799763870002
 30
0.0
 11
354.7208778305001
 21
99.0136845568
 31
0.0
  0
LINE
  5
1EE
330
1F
100
AcDbEntity
  8
DIMENSION
100
AcDbLine
 10
354.7208778305001
 20
99.0136845568
 30
0.0
 11
354.0426404599
 21
99.0433294934
 31
0.0
  0
LINE
  5
1EF
330
1F
100
AcDbEntity
  8
DIMENSION
100
AcDbLine
 10
354.0426404599
 20
99.0433294934
 30
0.0
 11
353.6291063073
 21
98.85728751190001
 31
0.0
  0
LINE
  5
1F0
330
1F
100
AcDbEntity
  8
DIMENSION
100
AcDbLine
 10
353.6291063073
 20
98.85728751190001
 30
0.0
 11
353.8938095253
 21
98.64160059379999
 31
0.0
  0
LINE
  5
1F1
330
1F
100
AcDbEntity
  8
DIMENSION
100
AcDbLine
 10
354.5720468959
 20
98.6119556572
 30
0.0
 11
353.8938095253
 21
98.64160059379999
 31
0.0
  0
LINE
  5
1F2
330
1F
100
AcDbEntity
  8
DIMENSION
100
AcDbLine
 10
357.4586807859
 20
99.1189999482
 30
0.0
 11
357.1536511308
 21
98.98177229459999
 31
0.0
  0
LINE
  5
1F3
330
1F
100
AcDbEntity
  8
DIMENSION
100
AcDbLine
 10
357.0359771356
 20
99.39514980290001
 30
0.0
 11
356.6242446948
 21
99.4131461307
 31
0.0
  0
LINE
  5
1F4
330
1F
100
AcDbEntity
  8
DIMENSION
100
AcDbLine
 10
356.6242446948
 20
99.4131461307
 30
0.0
 11
356.2107105422
 21
99.22710414930001
 31
0.0
  0
LINE
  5
1F5
330
1F
100
AcDbEntity
  8
DIMENSION
100
AcDbLine
 10
356.2107105422
 20
99.22710414930001
 30
0.0
 11
356.4754137602
 21
99.01141723120002
 31
0.0
  0
LINE
  5
1F6
330
1F
100
AcDbEntity
  8
DIMENSION
100
AcDbLine
 10
357.1536511308
 20
98.98177229459999
 30
0.0
 11
356.4754137602
 21
99.01141723120002
 31
0.0
  0
LINE
  5
1F7
330
1F
100
AcDbEntity
  8
DIMENSION
100
AcDbLine
 10
351.6242015222
 20
99.15890498549998
 30
0.0
 11
351.2106673696
 21
98.9728630041
 31
0.0
  0
LINE
  5
1F8
330
1F
100
AcDbEntity
  8
DIMENSION
100
AcDbLine
 10
351.2106673696
 20
98.9728630041
 30
0.0
 11
351.4753705876
 21
98.757176086
 31
0.0
  0
LINE
  5
1F9
330
1F
100
AcDbEntity
  8
DIMENSION
100
AcDbLine
 10
351.4753705876
 20
98.757176086
 30
0.0
 11
352.1536079582
 21
98.72753114940001
 31
0.0
  0
LINE
  5
1FA
330
1F
100
AcDbEntity
  8
DIMENSION
100
AcDbLine
 10
352.1536079582
 20
98.72753114940001
 30
0.0
 11
352.5671421108
 21
98.91357313090001
 31
0.0
  0
LINE
  5
1FB
330
1F
100
AcDbEntity
  8
DIMENSION
100
AcDbLine
 10
352.5671421108
 20
98.91357313090001
 30
0.0
 11
352.3024388928
 21
99.129260049
 31
0.0
  0
LINE
  5
1FC
330
1F
100
AcDbEntity
  8
DIMENSION
100
AcDbLine
 10
352.3024388928
 20
99.129260049
 30
0.0
 11
351.6242015222
 21
99.15890498549998
 31
0.0
  0
LINE
  5
1FD
330
1F
100
AcDbEntity
  8
DIMENSION
100
AcDbLine
 10
352.9188269912
 20
99.3406979401
 30
0.0
 11
352.5052928387
 21
99.1546559586
 31
0.0
  0
LINE
  5
1FE
330
1F
100
AcDbEntity
  8
DIMENSION
100
AcDbLine
 10
352.5052928387
 20
99.1546559586
 30
0.0
 11
352.7699960566001
 21
98.9389690405
 31
0.0
  0
LINE
  5
1FF
330
1F
100
AcDbEntity
  8
DIMENSION
100
AcDbLine
 10
352.7699960566001
 20
98.9389690405
 30
0.0
 11
353.4444100756
 21
98.9124394681
 31
0.0
  0
LINE
  5
200
330
1F
100
AcDbEntity
  8
DIMENSION
100
AcDbLine
 10
353.4444100756
 20
98.9124394681
 30
0.0
 11
353.8617675798
 21
99.09536608540001
 31
0.0
  0
LINE
  5
201
330
1F
100
AcDbEntity
  8
DIMENSION
100
AcDbLine
 10
353.8617675798
 20
99.09536608540001
 30
0.0
 11
353.5970643618
 21
99.31105300350001
 31
0.0
  0
LINE
  5
202
330
1F
100
AcDbEntity
  8
DIMENSION
100
AcDbLine
 10
353.5970643618
 20
99.31105300350001
 30
0.0
 11
352.9188269912
 21
99.3406979401
 31
0.0
  0
LINE
  5
203
330
1F
100
AcDbEntity
  8
DIMENSION
100
AcDbLine
 10
354.2096291087
 20
99.52560625870001
 30
0.0
 11
353.7960949561
 21
99.3395642772
 31
0.0
  0
LINE
  5
204
330
1F
100
AcDbEntity
  8
DIMENSION
100
AcDbLine
 10
353.7960949561
 20
99.3395642772
 30
0.0
 11
354.0607981741
 21
99.12387735919999
 31
0.0
  0
LINE
  5
205
330
1F
100
AcDbEntity
  8
DIMENSION
100
AcDbLine
 10
354.0607981741
 20
99.12387735919999
 30
0.0
 11
354.7352121931
 21
99.0973477868
 31
0.0
  0
LINE
  5
206
330
1F
100
AcDbEntity
  8
DIMENSION
100
AcDbLine
 10
354.7352121931
 20
99.0973477868
 30
0.0
 11
355.1525696973
 21
99.2802744041
 31
0.0
  0
LINE
  5
207
330
1F
100
AcDbEntity
  8
DIMENSION
100
AcDbLine
 10
355.1525696973
 20
99.2802744041
 30
0.0
 11
354.8878664793
 21
99.49596132219999
 31
0.0
  0
LINE
  5
208
330
1F
100
AcDbEntity
  8
DIMENSION
100
AcDbLine
 10
354.8878664793
 20
99.49596132219999
 30
0.0
 11
354.2096291087
 21
99.52560625870001
 31
0.0
  0
LINE
  5
209
330
1F
100
AcDbEntity
  8
DIMENSION
100
AcDbLine
 10
355.5004312262
 20
99.71051457739999
 30
0.0
 11
355.0868970736
 21
99.52447259590002
 31
0.0
  0
LINE
  5
20A
330
1F
100
AcDbEntity
  8
DIMENSION
100
AcDbLine
 10
355.0868970736
 20
99.52447259590002
 30
0.0
 11
355.3516002916
 21
99.30878567790001
 31
0.0
  0
LINE
  5
20B
330
1F
100
AcDbEntity
  8
DIMENSION
100
AcDbLine
 10
355.3516002916
 20
99.30878567790001
 30
0.0
 11
356.0260143106
 21
99.28225610540001
 31
0.0
  0
LINE
  5
20C
330
1F
100
AcDbEntity
  8
DIMENSION
100
AcDbLine
 10
356.0260143106
 20
99.28225610540001
 30
0.0
 11
356.4433718147
 21
99.46518272280002
 31
0.0
  0
LINE
  5
20D
330
1F
100
AcDbEntity
  8
DIMENSION
100
AcDbLine
 10
356.4433718147
 20
99.46518272280002
 30
0.0
 11
356.1786685967
 21
99.68086964080001
 31
0.0
  0
LINE
  5
20E
330
1F
100
AcDbEntity
  8
DIMENSION
100
AcDbLine
 10
356.1786685967
 20
99.68086964080001
 30
0.0
 11
355.5004312262
 21
99.71051457739999
 31
0.0
  0
LINE
  5
20F
330
1F
100
AcDbEntity
  8
DIMENSION
100
AcDbLine
 10
353.9592602533001
 20
99.82495640679999
 30
0.0
 11
354.2239634712999
 21
99.60926948870001
 31
0.0
  0
LINE
  5
210
330
1F
100
AcDbEntity
  8
DIMENSION
100
AcDbLine
 10
354.2239634712999
 20
99.60926948870001
 30
0.0
 11
354.8983774903
 21
99.58273991629999
 31
0.0
  0
LINE
  5
211
330
1F
100
AcDbEntity
  8
DIMENSION
100
AcDbLine
 10
354.8983774903
 20
99.58273991629999
 30
0.0
 11
355.3157349945
 21
99.76566653360002
 31
0.0
  0
LINE
  5
212
330
1F
100
AcDbEntity
  8
DIMENSION
100
AcDbLine
 10
355.3157349945
 20
99.76566653360002
 30
0.0
 11
355.0510317765
 21
99.9813534517
 31
0.0
  0
LINE
  5
213
330
1F
100
AcDbEntity
  8
DIMENSION
100
AcDbLine
 10
355.0510317765
 20
99.9813534517
 30
0.0
 11
354.3727944059
 21
100.0109983883
 31
0.0
  0
LINE
  5
214
330
1F
100
AcDbEntity
  8
DIMENSION
100
AcDbLine
 10
354.3727944059
 20
100.0109983883
 30
0.0
 11
353.9592602533001
 21
99.82495640679999
 31
0.0
  0
LINE
  5
215
330
1F
100
AcDbEntity
  8
DIMENSION
100
AcDbLine
 10
352.9331613539
 20
99.42436116999999
 30
0.0
 11
353.6075753729
 21
99.39783159760001
 31
0.0
  0
LINE
  5
216
330
1F
100
AcDbEntity
  8
DIMENSION
100
AcDbLine
 10
353.6075753729
 20
99.39783159760001
 30
0.0
 11
354.024932877
 21
99.5807582149
 31
0.0
  0
LINE
  5
217
330
1F
100
AcDbEntity
  8
DIMENSION
100
AcDbLine
 10
354.024932877
 20
99.5807582149
 30
0.0
 11
353.760229659
 21
99.796445133
 31
0.0
  0
LINE
  5
218
330
1F
100
AcDbEntity
  8
DIMENSION
100
AcDbLine
 10
353.760229659
 20
99.796445133
 30
0.0
 11
353.0819922885
 21
99.82609006959998
 31
0.0
  0
LINE
  5
219
330
1F
100
AcDbEntity
  8
DIMENSION
100
AcDbLine
 10
353.0819922885
 20
99.82609006959998
 30
0.0
 11
352.6684581359
 21
99.64004808809999
 31
0.0
  0
LINE
  5
21A
330
1F
100
AcDbEntity
  8
DIMENSION
100
AcDbLine
 10
352.6684581359
 20
99.64004808809999
 30
0.0
 11
352.9331613539
 21
99.42436116999999
 31
0.0
  0
LINE
  5
21B
330
1F
100
AcDbEntity
  8
DIMENSION
100
AcDbLine
 10
351.6385358848
 20
99.24256821549999
 30
0.0
 11
352.3129499038
 21
99.2160386431
 31
0.0
  0
LINE
  5
21C
330
1F
100
AcDbEntity
  8
DIMENSION
100
AcDbLine
 10
352.3129499038
 20
99.2160386431
 30
0.0
 11
352.7303074080001
 21
99.39896526040001
 31
0.0
  0
LINE
  5
21D
330
1F
100
AcDbEntity
  8
DIMENSION
100
AcDbLine
 10
352.7303074080001
 20
99.39896526040001
 30
0.0
 11
352.46560419
 21
99.61465217850001
 31
0.0
  0
LINE
  5
21E
330
1F
100
AcDbEntity
  8
DIMENSION
100
AcDbLine
 10
352.46560419
 20
99.61465217850001
 30
0.0
 11
351.7873668194
 21
99.6442971151
 31
0.0
  0
LINE
  5
21F
330
1F
100
AcDbEntity
  8
DIMENSION
100
AcDbLine
 10
351.7873668194
 20
99.6442971151
 30
0.0
 11
351.3738326668
 21
99.4582551336
 31
0.0
  0
LINE
  5
220
330
1F
100
AcDbEntity
  8
DIMENSION
100
AcDbLine
 10
351.3738326668
 20
99.4582551336
 30
0.0
 11
351.6385358848
 21
99.24256821549999
 31
0.0
  0
LINE
  5
221
330
1F
100
AcDbEntity
  8
DIMENSION
100
AcDbLine
 10
351.3341440182
 20
99.9182513535
 30
0.0
 11
350.6559066476
 21
99.9478962901
 31
0.0
  0
LINE
  5
222
330
1F
100
AcDbEntity
  8
DIMENSION
100
AcDbLine
 10
350.6559066476
 20
99.9478962901
 30
0.0
 11
350.242372495
 21
99.76185430860001
 31
0.0
  0
LINE
  5
223
330
1F
100
AcDbEntity
  8
DIMENSION
100
AcDbLine
 10
350.242372495
 20
99.76185430860001
 30
0.0
 11
350.507075713
 21
99.54616739049999
 31
0.0
  0
LINE
  5
224
330
1F
100
AcDbEntity
  8
DIMENSION
100
AcDbLine
 10
350.507075713
 20
99.54616739049999
 30
0.0
 11
351.181489732
 21
99.5196378181
 31
0.0
  0
LINE
  5
225
330
1F
100
AcDbEntity
  8
DIMENSION
100
AcDbLine
 10
351.181489732
 20
99.5196378181
 30
0.0
 11
351.5988472362
 21
99.70256443540002
 31
0.0
  0
LINE
  5
226
330
1F
100
AcDbEntity
  8
DIMENSION
100
AcDbLine
 10
351.5988472362
 20
99.70256443540002
 30
0.0
 11
351.3341440182
 21
99.9182513535
 31
0.0
  0
LINE
  5
227
330
1F
100
AcDbEntity
  8
DIMENSION
100
AcDbLine
 10
353.0963266511
 20
99.90975329950002
 30
0.0
 11
353.7707406701
 21
99.88322372709999
 31
0.0
  0
LINE
  5
228
330
1F
100
AcDbEntity
  8
DIMENSION
100
AcDbLine
 10
353.7707406701
 20
99.88322372709999
 30
0.0
 11
354.1880981743
 21
100.0661503445
 31
0.0
  0
LINE
  5
229
330
1F
100
AcDbEntity
  8
DIMENSION
100
AcDbLine
 10
354.1880981743
 20
100.0661503445
 30
0.0
 11
353.9404237973
 21
100.2679617295
 31
0.0
  0
LINE
  5
22A
330
1F
100
AcDbEntity
  8
DIMENSION
100
AcDbLine
 10
353.7781143727
 20
100.2881873014
 30
0.0
 11
353.2451575857
 21
100.3114821991
 31
0.0
  0
LINE
  5
22B
330
1F
100
AcDbEntity
  8
DIMENSION
100
AcDbLine
 10
353.2451575857
 20
100.3114821991
 30
0.0
 11
352.8316234331
 21
100.1254402176
 31
0.0
  0
LINE
  5
22C
330
1F
100
AcDbEntity
  8
DIMENSION
100
AcDbLine
 10
352.8316234331
 20
100.1254402176
 30
0.0
 11
353.0963266511
 21
99.90975329950002
 31
0.0
  0
LINE
  5
22D
330
1F
100
AcDbEntity
  8
DIMENSION
100
AcDbLine
 10
351.4973093154
 20
100.403643483
 30
0.0
 11
351.4530065769
 21
100.4055799022
 31
0.0
  0
LINE
  5
22E
330
1F
100
AcDbEntity
  8
DIMENSION
100
AcDbLine
 10
350.6979632539
 20
100.3788036795
 30
0.0
 11
350.4055377922
 21
100.2472464381
 31
0.0
  0
LINE
  5
22F
330
1F
100
AcDbEntity
  8
DIMENSION
100
AcDbLine
 10
350.4055377922
 20
100.2472464381
 30
0.0
 11
350.6702410102
 21
100.0315595201
 31
0.0
  0
LINE
  5
230
330
1F
100
AcDbEntity
  8
DIMENSION
100
AcDbLine
 10
350.6702410102
 20
100.0315595201
 30
0.0
 11
351.3446550292
 21
100.0050299476
 31
0.0
  0
LINE
  5
231
330
1F
100
AcDbEntity
  8
DIMENSION
100
AcDbLine
 10
351.3446550292
 20
100.0050299476
 30
0.0
 11
351.7620125334
 21
100.187956565
 31
0.0
  0
LINE
  5
232
330
1F
100
AcDbEntity
  8
DIMENSION
100
AcDbLine
 10
351.7620125334
 20
100.187956565
 30
0.0
 11
351.4973093154
 21
100.403643483
 31
0.0
  0
LINE
  5
233
330
1F
100
AcDbEntity
  8
DIMENSION
100
AcDbLine
 10
356.2763831659
 20
98.9829059574
 30
0.0
 11
355.8628490133
 21
98.79686397589999
 31
0.0
  0
LINE
  5
234
330
1F
100
AcDbEntity
  8
DIMENSION
100
AcDbLine
 10
356.2763831659
 20
98.9829059574
 30
0.0
 11
356.0116799479
 21
99.1985928755
 31
0.0
  0
LINE
  5
235
330
1F
100
AcDbEntity
  8
DIMENSION
100
AcDbLine
 10
356.0116799479
 20
99.1985928755
 30
0.0
 11
355.3334425773
 21
99.22823781209999
 31
0.0
  0
LINE
  5
236
330
1F
100
AcDbEntity
  8
DIMENSION
100
AcDbLine
 10
355.3334425773
 20
99.22823781209999
 30
0.0
 11
354.9199084248
 21
99.04219583059999
 31
0.0
  0
LINE
  5
237
330
1F
100
AcDbEntity
  8
DIMENSION
100
AcDbLine
 10
354.9199084248
 20
99.04219583059999
 30
0.0
 11
355.1846116428
 21
98.82650891250001
 31
0.0
  0
LINE
  5
238
330
1F
100
AcDbEntity
  8
DIMENSION
100
AcDbLine
 10
355.8628490133
 20
98.79686397589999
 30
0.0
 11
355.1846116428
 21
98.82650891250001
 31
0.0
  0
LINE
  5
239
330
1F
100
AcDbEntity
  8
DIMENSION
100
AcDbLine
 10
353.694778931
 20
98.61308932
 30
0.0
 11
353.2812447784
 21
98.42704733860001
 31
0.0
  0
LINE
  5
23A
330
1F
100
AcDbEntity
  8
DIMENSION
100
AcDbLine
 10
353.694778931
 20
98.61308932
 30
0.0
 11
353.430075713
 21
98.82877623809999
 31
0.0
  0
LINE
  5
23B
330
1F
100
AcDbEntity
  8
DIMENSION
100
AcDbLine
 10
353.430075713
 20
98.82877623809999
 30
0.0
 11
352.7518383424
 21
98.8584211747
 31
0.0
  0
LINE
  5
23C
330
1F
100
AcDbEntity
  8
DIMENSION
100
AcDbLine
 10
352.7518383424
 20
98.8584211747
 30
0.0
 11
352.3383041898001
 21
98.6723791932
 31
0.0
  0
LINE
  5
23D
330
1F
100
AcDbEntity
  8
DIMENSION
100
AcDbLine
 10
352.3383041898001
 20
98.6723791932
 30
0.0
 11
352.6030074078
 21
98.45669227510001
 31
0.0
  0
LINE
  5
23E
330
1F
100
AcDbEntity
  8
DIMENSION
100
AcDbLine
 10
353.2812447784
 20
98.42704733860001
 30
0.0
 11
352.6030074078
 21
98.45669227510001
 31
0.0
  0
LINE
  5
23F
330
1F
100
AcDbEntity
  8
DIMENSION
100
AcDbLine
 10
353.8794751627
 20
98.55793736389999
 30
0.0
 11
354.5538891816999
 21
98.5314077914
 31
0.0
  0
LINE
  5
240
330
1F
100
AcDbEntity
  8
DIMENSION
100
AcDbLine
 10
353.4621176585
 20
98.37501074649999
 30
0.0
 11
353.8794751627
 21
98.55793736389999
 31
0.0
  0
LINE
  5
241
330
1F
100
AcDbEntity
  8
DIMENSION
100
AcDbLine
 10
353.7268208765
 20
98.1593238285
 30
0.0
 11
353.4621176585
 21
98.37501074649999
 31
0.0
  0
LINE
  5
242
330
1F
100
AcDbEntity
  8
DIMENSION
100
AcDbLine
 10
354.4050582471
 20
98.1296788919
 30
0.0
 11
353.7268208765
 21
98.1593238285
 31
0.0
  0
LINE
  5
243
330
1F
100
AcDbEntity
  8
DIMENSION
100
AcDbLine
 10
354.8185923997
 20
98.31572087339999
 30
0.0
 11
354.4050582471
 21
98.1296788919
 31
0.0
  0
LINE
  5
244
330
1F
100
AcDbEntity
  8
DIMENSION
100
AcDbLine
 10
354.5538891816999
 20
98.5314077914
 30
0.0
 11
354.8185923997
 21
98.31572087339999
 31
0.0
  0
LINE
  5
245
330
1F
100
AcDbEntity
  8
DIMENSION
100
AcDbLine
 10
356.4610793976001
 20
98.92775400120001
 30
0.0
 11
357.1354934166
 21
98.90122442879999
 31
0.0
  0
LINE
  5
246
330
1F
100
AcDbEntity
  8
DIMENSION
100
AcDbLine
 10
356.0437218934
 20
98.7448273839
 30
0.0
 11
356.4610793976001
 21
98.92775400120001
 31
0.0
  0
LINE
  5
247
330
1F
100
AcDbEntity
  8
DIMENSION
100
AcDbLine
 10
356.3084251114
 20
98.5291404658
 30
0.0
 11
356.0437218934
 21
98.7448273839
 31
0.0
  0
LINE
  5
248
330
1F
100
AcDbEntity
  8
DIMENSION
100
AcDbLine
 10
356.986662482
 20
98.49949552920001
 30
0.0
 11
356.3084251114
 21
98.5291404658
 31
0.0
  0
LINE
  5
249
330
1F
100
AcDbEntity
  8
DIMENSION
100
AcDbLine
 10
357.4001966346
 20
98.68553751070001
 30
0.0
 11
356.986662482
 21
98.49949552920001
 31
0.0
  0
LINE
  5
24A
330
1F
100
AcDbEntity
  8
DIMENSION
100
AcDbLine
 10
357.1354934166
 20
98.90122442879999
 30
0.0
 11
357.4001966346
 21
98.68553751070001
 31
0.0
  0
LINE
  5
24B
330
1F
100
AcDbEntity
  8
DIMENSION
100
AcDbLine
 10
354.4304125331
 20
97.58601944200002
 30
0.0
 11
354.8439466857
 21
97.77206142350001
 31
0.0
  0
LINE
  5
24C
330
1F
100
AcDbEntity
  8
DIMENSION
100
AcDbLine
 10
354.6951157511
 20
97.37033252389998
 30
0.0
 11
354.4304125331
 21
97.58601944200002
 31
0.0
  0
LINE
  5
24D
330
1F
100
AcDbEntity
  8
DIMENSION
100
AcDbLine
 10
355.3733531217
 20
97.3406875873
 30
0.0
 11
354.6951157511
 21
97.37033252389998
 31
0.0
  0
LINE
  5
24E
330
1F
100
AcDbEntity
  8
DIMENSION
100
AcDbLine
 10
355.7868872743
 20
97.52672956879999
 30
0.0
 11
355.3733531217
 21
97.3406875873
 31
0.0
  0
LINE
  5
24F
330
1F
100
AcDbEntity
  8
DIMENSION
100
AcDbLine
 10
355.5221840563
 20
97.74241648690001
 30
0.0
 11
355.7868872743
 21
97.52672956879999
 31
0.0
  0
LINE
  5
250
330
1F
100
AcDbEntity
  8
DIMENSION
100
AcDbLine
 10
354.8439466857
 20
97.77206142350001
 30
0.0
 11
355.5221840563
 21
97.74241648690001
 31
0.0
  0
LINE
  5
251
330
1F
100
AcDbEntity
  8
DIMENSION
100
AcDbLine
 10
354.2710705875
 20
97.09751194829999
 30
0.0
 11
354.6884280916
 21
97.28043856559999
 31
0.0
  0
LINE
  5
252
330
1F
100
AcDbEntity
  8
DIMENSION
100
AcDbLine
 10
354.5357738055
 20
96.88182503020001
 30
0.0
 11
354.2710705875
 21
97.09751194829999
 31
0.0
  0
LINE
  5
253
330
1F
100
AcDbEntity
  8
DIMENSION
100
AcDbLine
 10
355.214011176
 20
96.85218009370002
 30
0.0
 11
354.5357738055
 21
96.88182503020001
 31
0.0
  0
LINE
  5
254
330
1F
100
AcDbEntity
  8
DIMENSION
100
AcDbLine
 10
355.6275453286
 20
97.0382220751
 30
0.0
 11
355.214011176
 21
96.85218009370002
 31
0.0
  0
LINE
  5
255
330
1F
100
AcDbEntity
  8
DIMENSION
100
AcDbLine
 10
355.3628421106
 20
97.2539089932
 30
0.0
 11
355.6275453286
 21
97.0382220751
 31
0.0
  0
LINE
  5
256
330
1F
100
AcDbEntity
  8
DIMENSION
100
AcDbLine
 10
354.6884280916
 20
97.28043856559999
 30
0.0
 11
355.3628421106
 21
97.2539089932
 31
0.0
  0
LINE
  5
257
330
1F
100
AcDbEntity
  8
DIMENSION
100
AcDbLine
 10
345.8842936025
 20
97.7478375998
 30
0.0
 11
346.2978277551
 21
97.93387958129999
 31
0.0
  0
LINE
  5
258
330
1F
100
AcDbEntity
  8
DIMENSION
100
AcDbLine
 10
345.8842936025
 20
97.7478375998
 30
0.0
 11
346.1489968205
 21
97.5321506817
 31
0.0
  0
LINE
  5
259
330
1F
100
AcDbEntity
  8
DIMENSION
100
AcDbLine
 10
346.1489968205
 20
97.5321506817
 30
0.0
 11
346.8272341911
 21
97.50250574520002
 31
0.0
  0
LINE
  5
25A
330
1F
100
AcDbEntity
  8
DIMENSION
100
AcDbLine
 10
346.8272341911
 20
97.50250574520002
 30
0.0
 11
347.2407683437
 21
97.68854772659999
 31
0.0
  0
LINE
  5
25B
330
1F
100
AcDbEntity
  8
DIMENSION
100
AcDbLine
 10
347.2407683437
 20
97.68854772659999
 30
0.0
 11
346.9760651257
 21
97.9042346447
 31
0.0
  0
LINE
  5
25C
330
1F
100
AcDbEntity
  8
DIMENSION
100
AcDbLine
 10
346.2978277551
 20
97.93387958129999
 30
0.0
 11
346.9760651257
 21
97.9042346447
 31
0.0
  0
LINE
  5
25D
330
1F
100
AcDbEntity
  8
DIMENSION
100
AcDbLine
 10
348.4658978375
 20
98.1176542372
 30
0.0
 11
348.87943199
 21
98.30369621870001
 31
0.0
  0
LINE
  5
25E
330
1F
100
AcDbEntity
  8
DIMENSION
100
AcDbLine
 10
348.4658978375
 20
98.1176542372
 30
0.0
 11
348.7306010555
 21
97.9019673191
 31
0.0
  0
LINE
  5
25F
330
1F
100
AcDbEntity
  8
DIMENSION
100
AcDbLine
 10
348.7306010555
 20
97.9019673191
 30
0.0
 11
349.408838426
 21
97.8723223825
 31
0.0
  0
LINE
  5
260
330
1F
100
AcDbEntity
  8
DIMENSION
100
AcDbLine
 10
349.408838426
 20
97.8723223825
 30
0.0
 11
349.8223725786
 21
98.05836436399999
 31
0.0
  0
LINE
  5
261
330
1F
100
AcDbEntity
  8
DIMENSION
100
AcDbLine
 10
349.8223725786
 20
98.05836436399999
 30
0.0
 11
349.5576693605999
 21
98.27405128209999
 31
0.0
  0
LINE
  5
262
330
1F
100
AcDbEntity
  8
DIMENSION
100
AcDbLine
 10
348.87943199
 20
98.30369621870001
 30
0.0
 11
349.5576693605999
 21
98.27405128209999
 31
0.0
  0
LINE
  5
263
330
1F
100
AcDbEntity
  8
DIMENSION
100
AcDbLine
 10
350.8628058407
 20
98.54262283069999
 30
0.0
 11
350.1845684701
 21
98.5722677673
 31
0.0
  0
LINE
  5
264
330
1F
100
AcDbEntity
  8
DIMENSION
100
AcDbLine
 10
351.2763399933001
 20
98.7286648122
 30
0.0
 11
350.8628058407
 21
98.54262283069999
 31
0.0
  0
LINE
  5
265
330
1F
100
AcDbEntity
  8
DIMENSION
100
AcDbLine
 10
351.0116367753
 20
98.94435173030002
 30
0.0
 11
351.2763399933001
 21
98.7286648122
 31
0.0
  0
LINE
  5
266
330
1F
100
AcDbEntity
  8
DIMENSION
100
AcDbLine
 10
350.3333994047
 20
98.97399666690001
 30
0.0
 11
351.0116367753
 21
98.94435173030002
 31
0.0
  0
LINE
  5
267
330
1F
100
AcDbEntity
  8
DIMENSION
100
AcDbLine
 10
349.9198652521
 20
98.78795468540001
 30
0.0
 11
350.3333994047
 21
98.97399666690001
 31
0.0
  0
LINE
  5
268
330
1F
100
AcDbEntity
  8
DIMENSION
100
AcDbLine
 10
350.1845684701
 20
98.5722677673
 30
0.0
 11
349.9198652521
 21
98.78795468540001
 31
0.0
  0
LINE
  5
269
330
1F
100
AcDbEntity
  8
DIMENSION
100
AcDbLine
 10
348.2812016058
 20
98.17280619340001
 30
0.0
 11
347.6067875868
 21
98.1993357658
 31
0.0
  0
LINE
  5
26A
330
1F
100
AcDbEntity
  8
DIMENSION
100
AcDbLine
 10
348.69855911
 20
98.35573281069999
 30
0.0
 11
348.2812016058
 21
98.17280619340001
 31
0.0
  0
LINE
  5
26B
330
1F
100
AcDbEntity
  8
DIMENSION
100
AcDbLine
 10
348.433855892
 20
98.5714197288
 30
0.0
 11
348.69855911
 21
98.35573281069999
 31
0.0
  0
LINE
  5
26C
330
1F
100
AcDbEntity
  8
DIMENSION
100
AcDbLine
 10
347.7556185214
 20
98.6010646653
 30
0.0
 11
348.433855892
 21
98.5714197288
 31
0.0
  0
LINE
  5
26D
330
1F
100
AcDbEntity
  8
DIMENSION
100
AcDbLine
 10
347.3420843688
 20
98.41502268379999
 30
0.0
 11
347.7556185214
 21
98.6010646653
 31
0.0
  0
LINE
  5
26E
330
1F
100
AcDbEntity
  8
DIMENSION
100
AcDbLine
 10
347.6067875868
 20
98.1993357658
 30
0.0
 11
347.3420843688
 21
98.41502268379999
 31
0.0
  0
LINE
  5
26F
330
1F
100
AcDbEntity
  8
DIMENSION
100
AcDbLine
 10
346.4791507666
 20
98.4998195766
 30
0.0
 11
346.2144475486
 21
98.7155064947
 31
0.0
  0
LINE
  5
270
330
1F
100
AcDbEntity
  8
DIMENSION
100
AcDbLine
 10
347.1535647856
 20
98.4732900042
 30
0.0
 11
346.4791507666
 21
98.4998195766
 31
0.0
  0
LINE
  5
271
330
1F
100
AcDbEntity
  8
DIMENSION
100
AcDbLine
 10
347.5709222897001
 20
98.65621662149999
 30
0.0
 11
347.1535647856
 21
98.4732900042
 31
0.0
  0
LINE
  5
272
330
1F
100
AcDbEntity
  8
DIMENSION
100
AcDbLine
 10
347.3062190717
 20
98.87190353959999
 30
0.0
 11
347.5709222897001
 21
98.65621662149999
 31
0.0
  0
LINE
  5
273
330
1F
100
AcDbEntity
  8
DIMENSION
100
AcDbLine
 10
346.6279817012
 20
98.90154847620001
 30
0.0
 11
347.3062190717
 21
98.87190353959999
 31
0.0
  0
LINE
  5
274
330
1F
100
AcDbEntity
  8
DIMENSION
100
AcDbLine
 10
346.2144475486
 20
98.7155064947
 30
0.0
 11
346.6279817012
 21
98.90154847620001
 31
0.0
  0
LINE
  5
275
330
1F
100
AcDbEntity
  8
DIMENSION
100
AcDbLine
 10
348.7922284319
 20
99.08843849620001
 30
0.0
 11
349.2057625845
 21
99.27448047770001
 31
0.0
  0
LINE
  5
276
330
1F
100
AcDbEntity
  8
DIMENSION
100
AcDbLine
 10
349.0569316499
 20
98.8727515781
 30
0.0
 11
348.7922284319
 21
99.08843849620001
 31
0.0
  0
LINE
  5
277
330
1F
100
AcDbEntity
  8
DIMENSION
100
AcDbLine
 10
349.7313456689
 20
98.84622200569999
 30
0.0
 11
349.0569316499
 21
98.8727515781
 31
0.0
  0
LINE
  5
278
330
1F
100
AcDbEntity
  8
DIMENSION
100
AcDbLine
 10
350.1487031731
 20
99.0291486231
 30
0.0
 11
349.7313456689
 21
98.84622200569999
 31
0.0
  0
LINE
  5
279
330
1F
100
AcDbEntity
  8
DIMENSION
100
AcDbLine
 10
349.8839999551
 20
99.2448355411
 30
0.0
 11
350.1487031731
 21
99.0291486231
 31
0.0
  0
LINE
  5
27A
330
1F
100
AcDbEntity
  8
DIMENSION
100
AcDbLine
 10
349.2057625845
 20
99.27448047770001
 30
0.0
 11
349.8839999551
 21
99.2448355411
 31
0.0
  0
LINE
  5
27B
330
1F
100
AcDbEntity
  8
DIMENSION
100
AcDbLine
 10
350.3080451187
 20
99.5176561168
 30
0.0
 11
349.8906876145
 21
99.33472949940002
 31
0.0
  0
LINE
  5
27C
330
1F
100
AcDbEntity
  8
DIMENSION
100
AcDbLine
 10
350.0433419007
 20
99.73334303480001
 30
0.0
 11
350.3080451187
 21
99.5176561168
 31
0.0
  0
LINE
  5
27D
330
1F
100
AcDbEntity
  8
DIMENSION
100
AcDbLine
 10
349.3651045301001
 20
99.7629879714
 30
0.0
 11
350.0433419007
 21
99.73334303480001
 31
0.0
  0
LINE
  5
27E
330
1F
100
AcDbEntity
  8
DIMENSION
100
AcDbLine
 10
348.9515703775
 20
99.5769459899
 30
0.0
 11
349.3651045301001
 21
99.7629879714
 31
0.0
  0
LINE
  5
27F
330
1F
100
AcDbEntity
  8
DIMENSION
100
AcDbLine
 10
349.2162735955
 20
99.3612590718
 30
0.0
 11
348.9515703775
 21
99.5769459899
 31
0.0
  0
LINE
  5
280
330
1F
100
AcDbEntity
  8
DIMENSION
100
AcDbLine
 10
349.8906876145
 20
99.33472949940002
 30
0.0
 11
349.2162735955
 21
99.3612590718
 31
0.0
  0
LINE
  5
281
330
1F
100
AcDbEntity
  8
DIMENSION
100
AcDbLine
 10
346.3776128458
 20
99.20089862420001
 30
0.0
 11
346.7911469983999
 21
99.3869406057
 31
0.0
  0
LINE
  5
282
330
1F
100
AcDbEntity
  8
DIMENSION
100
AcDbLine
 10
346.6423160638
 20
98.98521170610001
 30
0.0
 11
346.3776128458
 21
99.20089862420001
 31
0.0
  0
LINE
  5
283
330
1F
100
AcDbEntity
  8
DIMENSION
100
AcDbLine
 10
347.3167300828
 20
98.9586821337
 30
0.0
 11
346.6423160638
 21
98.98521170610001
 31
0.0
  0
LINE
  5
284
330
1F
100
AcDbEntity
  8
DIMENSION
100
AcDbLine
 10
347.734087587
 20
99.14160875110001
 30
0.0
 11
347.3167300828
 21
98.9586821337
 31
0.0
  0
LINE
  5
285
330
1F
100
AcDbEntity
  8
DIMENSION
100
AcDbLine
 10
347.469384369
 20
99.3572956691
 30
0.0
 11
347.734087587
 21
99.14160875110001
 31
0.0
  0
LINE
  5
286
330
1F
100
AcDbEntity
  8
DIMENSION
100
AcDbLine
 10
346.7911469983999
 20
99.3869406057
 30
0.0
 11
347.469384369
 21
99.3572956691
 31
0.0
  0
LINE
  5
287
330
1F
100
AcDbEntity
  8
DIMENSION
100
AcDbLine
 10
350.4673870643
 20
100.0061636104
 30
0.0
 11
350.2026838463
 21
100.2218505285
 31
0.0
  0
LINE
  5
288
330
1F
100
AcDbEntity
  8
DIMENSION
100
AcDbLine
 10
350.2026838463
 20
100.2218505285
 30
0.0
 11
349.5244464758
 21
100.2514954651
 31
0.0
  0
LINE
  5
289
330
1F
100
AcDbEntity
  8
DIMENSION
100
AcDbLine
 10
349.1109123232
 20
100.0654534836
 30
0.0
 11
349.5244464758
 21
100.2514954651
 31
0.0
  0
LINE
  5
28A
330
1F
100
AcDbEntity
  8
DIMENSION
100
AcDbLine
 10
349.3756155412
 20
99.84976656549999
 30
0.0
 11
349.1109123232
 21
100.0654534836
 31
0.0
  0
LINE
  5
28B
330
1F
100
AcDbEntity
  8
DIMENSION
100
AcDbLine
 10
350.0538529118
 20
99.820121629
 30
0.0
 11
349.3756155412
 21
99.84976656549999
 31
0.0
  0
LINE
  5
28C
330
1F
100
AcDbEntity
  8
DIMENSION
100
AcDbLine
 10
350.0538529118
 20
99.820121629
 30
0.0
 11
350.4673870643
 21
100.0061636104
 31
0.0
  0
LINE
  5
28D
330
1F
100
AcDbEntity
  8
DIMENSION
100
AcDbLine
 10
350.2170350326
 20
100.344873364
 30
0.0
 11
350.217018209
 21
100.3055137585
 31
0.0
  0
LINE
  5
28E
330
1F
100
AcDbEntity
  8
DIMENSION
100
AcDbLine
 10
351.9649487609
 20
100.4058544052
 30
0.0
 11
351.9648664793
 21
100.2133524746
 31
0.0
  0
LINE
  5
28F
330
1F
100
AcDbEntity
  8
DIMENSION
100
AcDbLine
 10
352.6431894637
 20
100.3840055484
 30
0.0
 11
352.6431038499
 21
100.183707538
 31
0.0
  0
LINE
  5
290
330
1F
100
AcDbEntity
  8
DIMENSION
100
AcDbLine
 10
354.3871750758
 20
100.2029997564
 30
0.0
 11
354.3871287686
 21
100.0946616182
 31
0.0
  0
LINE
  5
291
330
1F
100
AcDbEntity
  8
DIMENSION
100
AcDbLine
 10
348.9262423985
 20
100.1821520384
 30
0.0
 11
348.9262160915
 21
100.1206054398
 31
0.0
  0
LINE
  5
292
330
1F
100
AcDbEntity
  8
DIMENSION
100
AcDbLine
 10
350.6703841304
 20
100.3663963009
 30
0.0
 11
350.6702410102
 21
100.0315595201
 31
0.0
  0
LINE
  5
293
330
1F
100
AcDbEntity
  8
DIMENSION
100
AcDbLine
 10
355.0615462809
 20
100.0763049749
 30
0.0
 11
355.0615427876
 21
100.0681320458
 31
0.0
  0
LINE
  5
294
330
1F
100
AcDbEntity
  8
DIMENSION
100
AcDbLine
 10
351.3448254268
 20
100.4036836863
 30
0.0
 11
351.3446550292
 21
100.0050299476
 31
0.0
  0
LINE
  5
295
330
1F
100
AcDbEntity
  8
DIMENSION
100
AcDbLine
 10
353.0964697712
 20
100.2445900804
 30
0.0
 11
353.0963266511
 21
99.90975329950002
 31
0.0
  0
LINE
  5
296
330
1F
100
AcDbEntity
  8
DIMENSION
100
AcDbLine
 10
353.7709138992
 20
100.2885020254
 30
0.0
 11
353.7707406701
 21
99.88322372709999
 31
0.0
  0
LINE
  5
297
330
1F
100
AcDbEntity
  8
DIMENSION
100
AcDbLine
 10
349.3757586613
 20
100.1846033464
 30
0.0
 11
349.3756155412
 21
99.84976656549999
 31
0.0
  0
LINE
  5
298
330
1F
100
AcDbEntity
  8
DIMENSION
100
AcDbLine
 10
355.5148400672
 20
99.96842382229999
 30
0.0
 11
355.5147655888
 21
99.7941778074
 31
0.0
  0
LINE
  5
299
330
1F
100
AcDbEntity
  8
DIMENSION
100
AcDbLine
 10
350.054027401
 20
100.2283481223
 30
0.0
 11
350.0538529118
 21
99.820121629
 31
0.0
  0
LINE
  5
29A
330
1F
100
AcDbEntity
  8
DIMENSION
100
AcDbLine
 10
348.0887798954
 20
99.9965796635
 30
0.0
 11
348.0886367752999
 21
99.66174288270002
 31
0.0
  0
LINE
  5
29B
330
1F
100
AcDbEntity
  8
DIMENSION
100
AcDbLine
 10
354.2241065915
 20
99.94410626959998
 30
0.0
 11
354.2239634712999
 21
99.60926948870001
 31
0.0
  0
LINE
  5
29C
330
1F
100
AcDbEntity
  8
DIMENSION
100
AcDbLine
 10
348.7632240234
 20
100.0404916086
 30
0.0
 11
348.7630507943
 21
99.63521331030001
 31
0.0
  0
LINE
  5
29D
330
1F
100
AcDbEntity
  8
DIMENSION
100
AcDbLine
 10
354.8985507194999
 20
99.98801821459998
 30
0.0
 11
354.8983774903
 21
99.58273991629999
 31
0.0
  0
LINE
  5
29E
330
1F
100
AcDbEntity
  8
DIMENSION
100
AcDbLine
 10
350.5072188330999
 20
99.8810041714
 30
0.0
 11
350.507075713
 21
99.54616739049999
 31
0.0
  0
LINE
  5
29F
330
1F
100
AcDbEntity
  8
DIMENSION
100
AcDbLine
 10
356.6424425915
 20
99.5877029066
 30
0.0
 11
356.642402409
 21
99.49369399650001
 31
0.0
  0
LINE
  5
2A0
330
1F
100
AcDbEntity
  8
DIMENSION
100
AcDbLine
 10
351.1816629611
 20
99.9249161164
 30
0.0
 11
351.181489732
 21
99.5196378181
 31
0.0
  0
LINE
  5
2A1
330
1F
100
AcDbEntity
  8
DIMENSION
100
AcDbLine
 10
346.8017069793
 20
99.5882868077
 30
0.0
 11
346.8016580094
 21
99.4737191998
 31
0.0
  0
LINE
  5
2A2
330
1F
100
AcDbEntity
  8
DIMENSION
100
AcDbLine
 10
352.933304474
 20
99.7591979509
 30
0.0
 11
352.9331613539
 21
99.42436116999999
 31
0.0
  0
LINE
  5
2A3
330
1F
100
AcDbEntity
  8
DIMENSION
100
AcDbLine
 10
347.4800647048001
 20
99.8402180723
 30
0.0
 11
347.47989538
 21
99.4440742633
 31
0.0
  0
LINE
  5
2A4
330
1F
100
AcDbEntity
  8
DIMENSION
100
AcDbLine
 10
353.6077486019999
 20
99.80310989590002
 30
0.0
 11
353.6075753729
 21
99.39783159760001
 31
0.0
  0
LINE
  5
2A5
330
1F
100
AcDbEntity
  8
DIMENSION
100
AcDbLine
 10
349.2164167157
 20
99.69609585270001
 30
0.0
 11
349.2162735955
 21
99.3612590718
 31
0.0
  0
LINE
  5
2A6
330
1F
100
AcDbEntity
  8
DIMENSION
100
AcDbLine
 10
355.3517434117
 20
99.64362245870001
 30
0.0
 11
355.3516002916
 21
99.30878567790001
 31
0.0
  0
LINE
  5
2A7
330
1F
100
AcDbEntity
  8
DIMENSION
100
AcDbLine
 10
349.8908608437
 20
99.74000779770001
 30
0.0
 11
349.8906876145
 21
99.33472949940002
 31
0.0
  0
LINE
  5
2A8
330
1F
100
AcDbEntity
  8
DIMENSION
100
AcDbLine
 10
356.0261875397
 20
99.68753440370001
 30
0.0
 11
356.0260143106
 21
99.28225610540001
 31
0.0
  0
LINE
  5
2A9
330
1F
100
AcDbEntity
  8
DIMENSION
100
AcDbLine
 10
351.638679005
 20
99.57740499639999
 30
0.0
 11
351.6385358848
 21
99.24256821549999
 31
0.0
  0
LINE
  5
2AA
330
1F
100
AcDbEntity
  8
DIMENSION
100
AcDbLine
 10
346.1890952319
 20
99.2637733071
 30
0.0
 11
346.1890932625
 21
99.25916594459998
 31
0.0
  0
LINE
  5
2AB
330
1F
100
AcDbEntity
  8
DIMENSION
100
AcDbLine
 10
352.313123133
 20
99.62131694139999
 30
0.0
 11
352.3129499038
 21
99.2160386431
 31
0.0
  0
LINE
  5
2AC
330
1F
100
AcDbEntity
  8
DIMENSION
100
AcDbLine
 10
347.9294379498
 20
99.50807216980001
 30
0.0
 11
347.9292948297
 21
99.17323538899999
 31
0.0
  0
LINE
  5
2AD
330
1F
100
AcDbEntity
  8
DIMENSION
100
AcDbLine
 10
354.0609412942
 20
99.45871414
 30
0.0
 11
354.0607981741
 21
99.12387735919999
 31
0.0
  0
LINE
  5
2AE
330
1F
100
AcDbEntity
  8
DIMENSION
100
AcDbLine
 10
348.6077066895
 20
99.55181694570001
 30
0.0
 11
348.6075322002
 21
99.14359045239999
 31
0.0
  0
LINE
  5
2AF
330
1F
100
AcDbEntity
  8
DIMENSION
100
AcDbLine
 10
354.7353854222
 20
99.50262608510001
 30
0.0
 11
354.7352121931
 21
99.0973477868
 31
0.0
  0
LINE
  5
2B0
330
1F
100
AcDbEntity
  8
DIMENSION
100
AcDbLine
 10
350.3440535359
 20
99.39561204180002
 30
0.0
 11
350.3439104158
 21
99.060775261
 31
0.0
  0
LINE
  5
2B1
330
1F
100
AcDbEntity
  8
DIMENSION
100
AcDbLine
 10
356.4755568804
 20
99.34625401200001
 30
0.0
 11
356.4754137602
 21
99.01141723120002
 31
0.0
  0
LINE
  5
2B2
330
1F
100
AcDbEntity
  8
DIMENSION
100
AcDbLine
 10
351.0223222756
 20
99.4393568177
 30
0.0
 11
351.0221477864
 21
99.03113032440002
 31
0.0
  0
LINE
  5
2B3
330
1F
100
AcDbEntity
  8
DIMENSION
100
AcDbLine
 10
346.6424591839
 20
99.32004848700001
 30
0.0
 11
346.6423160638
 21
98.98521170610001
 31
0.0
  0
LINE
  5
2B4
330
1F
100
AcDbEntity
  8
DIMENSION
100
AcDbLine
 10
357.1537988748
 20
99.32742690209998
 30
0.0
 11
357.1536511308
 21
98.98177229459999
 31
0.0
  0
LINE
  5
2B5
330
1F
100
AcDbEntity
  8
DIMENSION
100
AcDbLine
 10
352.7701391768
 20
99.27380582129998
 30
0.0
 11
352.7699960566001
 21
98.9389690405
 31
0.0
  0
LINE
  5
2B6
330
1F
100
AcDbEntity
  8
DIMENSION
100
AcDbLine
 10
347.3169033119
 20
99.36396043200002
 30
0.0
 11
347.3167300828
 21
98.9586821337
 31
0.0
  0
LINE
  5
2B7
330
1F
100
AcDbEntity
  8
DIMENSION
100
AcDbLine
 10
353.4445833048
 20
99.31771776639999
 30
0.0
 11
353.4444100756
 21
98.9124394681
 31
0.0
  0
LINE
  5
2B8
330
1F
100
AcDbEntity
  8
DIMENSION
100
AcDbLine
 10
349.05707477
 20
99.207588359
 30
0.0
 11
349.0569316499
 21
98.8727515781
 31
0.0
  0
LINE
  5
2B9
330
1F
100
AcDbEntity
  8
DIMENSION
100
AcDbLine
 10
355.1847547629
 20
99.16134569340002
 30
0.0
 11
355.1846116428
 21
98.82650891250001
 31
0.0
  0
LINE
  5
2BA
330
1F
100
AcDbEntity
  8
DIMENSION
100
AcDbLine
 10
349.731518898
 20
99.25150030399999
 30
0.0
 11
349.7313456689
 21
98.84622200569999
 31
0.0
  0
LINE
  5
2BB
330
1F
100
AcDbEntity
  8
DIMENSION
100
AcDbLine
 10
355.8630235026
 20
99.20509046920001
 30
0.0
 11
355.8628490133
 21
98.79686397589999
 31
0.0
  0
LINE
  5
2BC
330
1F
100
AcDbEntity
  8
DIMENSION
100
AcDbLine
 10
351.4755137077
 20
99.09201286680001
 30
0.0
 11
351.4753705876
 21
98.757176086
 31
0.0
  0
LINE
  5
2BD
330
1F
100
AcDbEntity
  8
DIMENSION
100
AcDbLine
 10
346.0260884336
 20
99.14919732420001
 30
0.0
 11
346.0259279653
 21
98.77377381510001
 31
0.0
  0
LINE
  5
2BE
330
1F
100
AcDbEntity
  8
DIMENSION
100
AcDbLine
 10
357.5993486872
 20
98.9982065961
 30
0.0
 11
357.5992272289
 21
98.7140487845
 31
0.0
  0
LINE
  5
2BF
330
1F
100
AcDbEntity
  8
DIMENSION
100
AcDbLine
 10
352.1537824475
 20
99.13575764269999
 30
0.0
 11
352.1536079582
 21
98.72753114940001
 31
0.0
  0
LINE
  5
2C0
330
1F
100
AcDbEntity
  8
DIMENSION
100
AcDbLine
 10
347.7700960042
 20
99.01956467620001
 30
0.0
 11
347.769952884
 21
98.68472789530001
 31
0.0
  0
LINE
  5
2C1
330
1F
100
AcDbEntity
  8
DIMENSION
100
AcDbLine
 10
353.8939526454
 20
98.9764373747
 30
0.0
 11
353.8938095253
 21
98.64160059379999
 31
0.0
  0
LINE
  5
2C2
330
1F
100
AcDbEntity
  8
DIMENSION
100
AcDbLine
 10
348.4445401322
 20
99.06347662120001
 30
0.0
 11
348.444366903
 21
98.6581983229
 31
0.0
  0
LINE
  5
2C3
330
1F
100
AcDbEntity
  8
DIMENSION
100
AcDbLine
 10
354.5722213852
 20
99.02018215049999
 30
0.0
 11
354.5720468959
 21
98.6119556572
 31
0.0
  0
LINE
  5
2C4
330
1F
100
AcDbEntity
  8
DIMENSION
100
AcDbLine
 10
350.1847115903
 20
98.9071045482
 30
0.0
 11
350.1845684701
 21
98.5722677673
 31
0.0
  0
LINE
  5
2C5
330
1F
100
AcDbEntity
  8
DIMENSION
100
AcDbLine
 10
356.3085669197
 20
98.86090821219999
 30
0.0
 11
356.3084251114
 21
98.5291404658
 31
0.0
  0
LINE
  5
2C6
330
1F
100
AcDbEntity
  8
DIMENSION
100
AcDbLine
 10
350.86298033
 20
98.95084932399999
 30
0.0
 11
350.8628058407
 21
98.54262283069999
 31
0.0
  0
LINE
  5
2C7
330
1F
100
AcDbEntity
  8
DIMENSION
100
AcDbLine
 10
346.4792938867
 20
98.83465635749999
 30
0.0
 11
346.4791507666
 21
98.4998195766
 31
0.0
  0
LINE
  5
2C8
330
1F
100
AcDbEntity
  8
DIMENSION
100
AcDbLine
 10
356.9868366935
 20
98.90707217100001
 30
0.0
 11
356.986662482
 21
98.49949552920001
 31
0.0
  0
LINE
  5
2C9
330
1F
100
AcDbEntity
  8
DIMENSION
100
AcDbLine
 10
352.603150528
 20
98.79152905600001
 30
0.0
 11
352.6030074078
 21
98.45669227510001
 31
0.0
  0
LINE
  5
2CA
330
1F
100
AcDbEntity
  8
DIMENSION
100
AcDbLine
 10
347.1537380147
 20
98.87856830250001
 30
0.0
 11
347.1535647856
 21
98.4732900042
 31
0.0
  0
LINE
  5
2CB
330
1F
100
AcDbEntity
  8
DIMENSION
100
AcDbLine
 10
353.2814192677
 20
98.83527383190001
 30
0.0
 11
353.2812447784
 21
98.42704733860001
 31
0.0
  0
LINE
  5
2CC
330
1F
100
AcDbEntity
  8
DIMENSION
100
AcDbLine
 10
348.8977328244
 20
98.7190808653
 30
0.0
 11
348.8975897043
 21
98.38424408450002
 31
0.0
  0
LINE
  5
2CD
330
1F
100
AcDbEntity
  8
DIMENSION
100
AcDbLine
 10
355.0177648023
 20
98.67599989350001
 30
0.0
 11
355.0176229939
 21
98.3442321471
 31
0.0
  0
LINE
  5
2CE
330
1F
100
AcDbEntity
  8
DIMENSION
100
AcDbLine
 10
349.5721769524
 20
98.7629928103
 30
0.0
 11
349.5720037233001
 21
98.35771451200001
 31
0.0
  0
LINE
  5
2CF
330
1F
100
AcDbEntity
  8
DIMENSION
100
AcDbLine
 10
355.6960345761
 20
98.7221638523
 30
0.0
 11
355.6958603645
 21
98.3145872106
 31
0.0
  0
LINE
  5
2D0
330
1F
100
AcDbEntity
  8
DIMENSION
100
AcDbLine
 10
345.8629358972
 20
98.69365998379999
 30
0.0
 11
345.8627626681
 21
98.28838168549999
 31
0.0
  0
LINE
  5
2D1
330
1F
100
AcDbEntity
  8
DIMENSION
100
AcDbLine
 10
357.43620374
 20
98.5604244013
 30
0.0
 11
357.4360619316
 21
98.228656655
 31
0.0
  0
LINE
  5
2D2
330
1F
100
AcDbEntity
  8
DIMENSION
100
AcDbLine
 10
347.6069307069
 20
98.53417254660001
 30
0.0
 11
347.6067875868
 21
98.1993357658
 31
0.0
  0
LINE
  5
2D3
330
1F
100
AcDbEntity
  8
DIMENSION
100
AcDbLine
 10
353.7269626848
 20
98.4910915748
 30
0.0
 11
353.7268208765
 21
98.1593238285
 31
0.0
  0
LINE
  5
2D4
330
1F
100
AcDbEntity
  8
DIMENSION
100
AcDbLine
 10
348.2813748349
 20
98.57808449170001
 30
0.0
 11
348.2812016058
 21
98.17280619340001
 31
0.0
  0
LINE
  5
2D5
330
1F
100
AcDbEntity
  8
DIMENSION
100
AcDbLine
 10
354.4052324586
 20
98.5372555336
 30
0.0
 11
354.4050582471
 21
98.1296788919
 31
0.0
  0
LINE
  5
2D6
330
1F
100
AcDbEntity
  8
DIMENSION
100
AcDbLine
 10
350.0215462931
 20
98.4217124186
 30
0.0
 11
350.0214031729
 21
98.08687563780001
 31
0.0
  0
LINE
  5
2D7
330
1F
100
AcDbEntity
  8
DIMENSION
100
AcDbLine
 10
356.1454016225
 20
98.3755160827
 30
0.0
 11
356.1452598141999
 21
98.04374833629999
 31
0.0
  0
LINE
  5
2D8
330
1F
100
AcDbEntity
  8
DIMENSION
100
AcDbLine
 10
350.6998150328
 20
98.4654571945
 30
0.0
 11
350.6996405435
 21
98.05723070120002
 31
0.0
  0
LINE
  5
2D9
330
1F
100
AcDbEntity
  8
DIMENSION
100
AcDbLine
 10
346.3161285895
 20
98.34926422790001
 30
0.0
 11
346.3159854693
 21
98.0144274471
 31
0.0
  0
LINE
  5
2DA
330
1F
100
AcDbEntity
  8
DIMENSION
100
AcDbLine
 10
356.8236713963
 20
98.42168004139999
 30
0.0
 11
356.8234971848
 21
98.01410339969999
 31
0.0
  0
LINE
  5
2DB
330
1F
100
AcDbEntity
  8
DIMENSION
100
AcDbLine
 10
352.4399852308
 20
98.3061369265
 30
0.0
 11
352.4398421105999
 21
97.9713001456
 31
0.0
  0
LINE
  5
2DC
330
1F
100
AcDbEntity
  8
DIMENSION
100
AcDbLine
 10
346.9905727175
 20
98.39317617299998
 30
0.0
 11
346.9903994883
 21
97.98789787469999
 31
0.0
  0
LINE
  5
2DD
330
1F
100
AcDbEntity
  8
DIMENSION
100
AcDbLine
 10
353.1182539705
 20
98.34988170229999
 30
0.0
 11
353.1180794812
 21
97.941655209
 31
0.0
  0
LINE
  5
2DE
330
1F
100
AcDbEntity
  8
DIMENSION
100
AcDbLine
 10
348.7307441756
 20
98.2368040999
 30
0.0
 11
348.7306010555
 21
97.9019673191
 31
0.0
  0
LINE
  5
2DF
330
1F
100
AcDbEntity
  8
DIMENSION
100
AcDbLine
 10
349.4090129153
 20
98.2805488758
 30
0.0
 11
349.408838426
 21
97.8723223825
 31
0.0
  0
LINE
  5
2E0
330
1F
100
AcDbEntity
  8
DIMENSION
100
AcDbLine
 10
351.1491831133
 20
98.1212286078
 30
0.0
 11
351.1490399932
 21
97.7863918269
 31
0.0
  0
LINE
  5
2E1
330
1F
100
AcDbEntity
  8
DIMENSION
100
AcDbLine
 10
357.2730384428
 20
98.07503227179999
 30
0.0
 11
357.2728966344
 21
97.74326452549999
 31
0.0
  0
LINE
  5
2E2
330
1F
100
AcDbEntity
  8
DIMENSION
100
AcDbLine
 10
351.827451853
 20
98.1649733837
 30
0.0
 11
351.8272773637
 21
97.75674689040002
 31
0.0
  0
LINE
  5
2E3
330
1F
100
AcDbEntity
  8
DIMENSION
100
AcDbLine
 10
347.4399420581
 20
98.05189578129999
 30
0.0
 11
347.439798938
 21
97.71705900040002
 31
0.0
  0
LINE
  5
2E4
330
1F
100
AcDbEntity
  8
DIMENSION
100
AcDbLine
 10
353.5676207392
 20
98.00258408110002
 30
0.0
 11
353.5674789308999
 21
97.6708163348
 31
0.0
  0
LINE
  5
2E5
330
1F
100
AcDbEntity
  8
DIMENSION
100
AcDbLine
 10
348.1182107979
 20
98.0956405571
 30
0.0
 11
348.1180363086
 21
97.6874140638
 31
0.0
  0
LINE
  5
2E6
330
1F
100
AcDbEntity
  8
DIMENSION
100
AcDbLine
 10
354.245890513
 20
98.04874803989999
 30
0.0
 11
354.2457163014
 21
97.64117139820001
 31
0.0
  0
LINE
  5
2E7
330
1F
100
AcDbEntity
  8
DIMENSION
100
AcDbLine
 10
349.8545563324
 20
97.9363666188
 30
0.0
 11
349.8544145241
 21
97.60459887240001
 31
0.0
  0
LINE
  5
2E8
330
1F
100
AcDbEntity
  8
DIMENSION
100
AcDbLine
 10
355.9822363253
 20
97.89012395310001
 30
0.0
 11
355.9820945169999
 21
97.5583562068
 31
0.0
  0
LINE
  5
2E9
330
1F
100
AcDbEntity
  8
DIMENSION
100
AcDbLine
 10
350.5328261062
 20
97.9825305776
 30
0.0
 11
350.5326518947
 21
97.57495393580001
 31
0.0
  0
LINE
  5
2EA
330
1F
100
AcDbEntity
  8
DIMENSION
100
AcDbLine
 10
346.1491399407
 20
97.8669874626
 30
0.0
 11
346.1489968205
 21
97.5321506817
 31
0.0
  0
LINE
  5
2EB
330
1F
100
AcDbEntity
  8
DIMENSION
100
AcDbLine
 10
356.6605060991
 20
97.93628791190002
 30
0.0
 11
356.6603318875
 21
97.5287112702
 31
0.0
  0
LINE
  5
2EC
330
1F
100
AcDbEntity
  8
DIMENSION
100
AcDbLine
 10
352.2806432851
 20
97.8176294328
 30
0.0
 11
352.280500165
 21
97.48279265189999
 31
0.0
  0
LINE
  5
2ED
330
1F
100
AcDbEntity
  8
DIMENSION
100
AcDbLine
 10
346.8274086804
 20
97.9107322385
 30
0.0
 11
346.8272341911
 21
97.50250574520002
 31
0.0
  0
LINE
  5
2EE
330
1F
100
AcDbEntity
  8
DIMENSION
100
AcDbLine
 10
352.9589120249
 20
97.86137420860001
 30
0.0
 11
352.9587375356
 21
97.45314771530001
 31
0.0
  0
LINE
  5
2EF
330
1F
100
AcDbEntity
  8
DIMENSION
100
AcDbLine
 10
354.6952588712001
 20
97.70516930479999
 30
0.0
 11
354.6951157511
 21
97.37033252389998
 31
0.0
  0
LINE
  5
2F0
330
1F
100
AcDbEntity
  8
DIMENSION
100
AcDbLine
 10
355.373527611
 20
97.7489140806
 30
0.0
 11
355.3733531217
 21
97.3406875873
 31
0.0
  0
LINE
  5
2F1
330
1F
100
AcDbEntity
  8
DIMENSION
100
AcDbLine
 10
350.9860165043
 20
97.6327674438
 30
0.0
 11
350.9858746958999
 21
97.30099969740001
 31
0.0
  0
LINE
  5
2F2
330
1F
100
AcDbEntity
  8
DIMENSION
100
AcDbLine
 10
351.664286278
 20
97.67893140259999
 30
0.0
 11
351.6641120665
 21
97.2713547608
 31
0.0
  0
LINE
  5
2F3
330
1F
100
AcDbEntity
  8
DIMENSION
100
AcDbLine
 10
347.2729520975
 20
97.5665499814
 30
0.0
 11
347.2728102892
 21
97.23478223509999
 31
0.0
  0
LINE
  5
2F4
330
1F
100
AcDbEntity
  8
DIMENSION
100
AcDbLine
 10
353.4082787935
 20
97.51407658739999
 30
0.0
 11
353.4081369852
 21
97.18230884110001
 31
0.0
  0
LINE
  5
2F5
330
1F
100
AcDbEntity
  8
DIMENSION
100
AcDbLine
 10
347.9512218713
 20
97.61271394020001
 30
0.0
 11
347.9510476598
 21
97.20513729850001
 31
0.0
  0
LINE
  5
2F6
330
1F
100
AcDbEntity
  8
DIMENSION
100
AcDbLine
 10
354.0865485673001
 20
97.5602405462
 30
0.0
 11
354.0863743558
 21
97.1526639045
 31
0.0
  0
LINE
  5
2F7
330
1F
100
AcDbEntity
  8
DIMENSION
100
AcDbLine
 10
349.6913910352
 20
97.45097448930001
 30
0.0
 11
349.6912492269
 21
97.1192067429
 31
0.0
  0
LINE
  5
2F8
330
1F
100
AcDbEntity
  8
DIMENSION
100
AcDbLine
 10
355.8228956915
 20
97.4046854939
 30
0.0
 11
355.8227525713
 21
97.0698487131
 31
0.0
  0
LINE
  5
2F9
330
1F
100
AcDbEntity
  8
DIMENSION
100
AcDbLine
 10
350.369660809
 20
97.49713844799998
 30
0.0
 11
350.3694865975
 21
97.0895618063
 31
0.0
  0
LINE
  5
2FA
330
1F
100
AcDbEntity
  8
DIMENSION
100
AcDbLine
 10
352.1174766761
 20
97.3291682688
 30
0.0
 11
352.1173348678
 21
96.99740052240001
 31
0.0
  0
LINE
  5
2FB
330
1F
100
AcDbEntity
  8
DIMENSION
100
AcDbLine
 10
352.7957464499
 20
97.3753322275
 30
0.0
 11
352.7955722383
 21
96.9677555858
 31
0.0
  0
LINE
  5
2FC
330
1F
100
AcDbEntity
  8
DIMENSION
100
AcDbLine
 10
348.4005889178
 20
97.26606617059999
 30
0.0
 11
348.4004471094
 21
96.9342984242
 31
0.0
  0
LINE
  5
2FD
330
1F
100
AcDbEntity
  8
DIMENSION
100
AcDbLine
 10
354.5359156138
 20
97.21359277659999
 30
0.0
 11
354.5357738055
 21
96.88182503020001
 31
0.0
  0
LINE
  5
2FE
330
1F
100
AcDbEntity
  8
DIMENSION
100
AcDbLine
 10
349.0788586915
 20
97.31223012940001
 30
0.0
 11
349.07868448
 21
96.9046534876
 31
0.0
  0
LINE
  5
2FF
330
1F
100
AcDbEntity
  8
DIMENSION
100
AcDbLine
 10
355.2141853876
 20
97.2597567354
 30
0.0
 11
355.214011176
 21
96.85218009370002
 31
0.0
  0
LINE
  5
300
330
1F
100
AcDbEntity
  8
DIMENSION
100
AcDbLine
 10
350.8228525188
 20
97.15044434870002
 30
0.0
 11
350.8227093987001
 21
96.8156075679
 31
0.0
  0
LINE
  5
301
330
1F
100
AcDbEntity
  8
DIMENSION
100
AcDbLine
 10
351.5011212586
 20
97.1941891246
 30
0.0
 11
351.5009467693
 21
96.7859626313
 31
0.0
  0
LINE
  5
302
330
1F
100
AcDbEntity
  8
DIMENSION
100
AcDbLine
 10
353.2489381597
 20
97.0286381282
 30
0.0
 11
353.2487950396
 21
96.6938013474
 31
0.0
  0
LINE
  5
303
330
1F
100
AcDbEntity
  8
DIMENSION
100
AcDbLine
 10
353.9272068995
 20
97.0723829041
 30
0.0
 11
353.9270324102
 21
96.6641564108
 31
0.0
  0
LINE
  5
304
330
1F
100
AcDbEntity
  8
DIMENSION
100
AcDbLine
 10
349.528225738
 20
96.9655823597
 30
0.0
 11
349.5280839297
 21
96.63381461340001
 31
0.0
  0
LINE
  5
305
330
1F
100
AcDbEntity
  8
DIMENSION
100
AcDbLine
 10
350.2064955118
 20
97.01174631850001
 30
0.0
 11
350.2063213002
 21
96.60416967679999
 31
0.0
  0
LINE
  5
306
330
1F
100
AcDbEntity
  8
DIMENSION
100
AcDbLine
 10
351.9543113789
 20
96.8437761392
 30
0.0
 11
351.9541695705
 21
96.51200839290002
 31
0.0
  0
LINE
  5
307
330
1F
100
AcDbEntity
  8
DIMENSION
100
AcDbLine
 10
352.6325811526
 20
96.889940098
 30
0.0
 11
352.6324069411
 21
96.48236345629999
 31
0.0
  0
CIRCLE
  5
308
330
1F
100
AcDbEntity
  8
DIMENSION
100
AcDbCircle
 10
351.7105946198999
 20
119.8916084128
 30
0.0
 40
12.69999722352044
  0
ARC
  5
309
330
1F
100
AcDbEntity
  8
DIMENSION
100
AcDbCircle
 10
351.8915216367
 20
119.8916099813
 30
0.0
 40
12.70000400755043
100
AcDbArc
 50
359.9999958847
 51
44.67404161229999
  0
ARC
  5
30A
330
1F
100
AcDbEntity
  8
DIMENSION
100
AcDbCircle
 10
351.891520392
 20
119.89160853
 30
0.0
 40
12.70000525219577
100
AcDbArc
 50
320.4311612781
 51
0.0000024319
  0
SPLINE
  5
30B
330
1F
100
AcDbEntity
  8
DIMENSION
100
AcDbSpline
210
0.0
220
0.0
230
1.0
 70
     8
 71
     3
 72
    12
 73
     8
 74
     0
 42
0.00000001
 43
0.0000000001
 40
0.0
 40
0.0
 40
0.0
 40
0.0
 40
0.2196194690897282
 40
0.4436519231211682
 40
0.6280259989840311
 40
0.8173505369538563
 40
1.0
 40
1.0
 40
1.0
 40
1.0
 10
357.4260519656
 20
108.547678210125
 30
0.0
 10
357.0835207467752
 20
108.3858852568628
 30
0.0
 10
356.3915755627233
 20
108.0590483185907
 30
0.0
 10
355.2564841926161
 20
107.6760493322883
 30
0.0
 10
354.0824426883361
 20
107.3977266607464
 30
0.0
 10
352.9159152928149
 20
107.2243375976873
 30
0.0
 10
352.1092506971856
 20
107.2027871705937
 30
0.0
 10
351.713156199055
 20
107.1922053182967
 30
0.0
  0
SPLINE
  5
30C
330
1F
100
AcDbEntity
  8
DIMENSION
100
AcDbSpline
210
0.0
220
0.0
230
1.0
 70
     8
 71
     3
 72
    16
 73
    12
 74
     0
 42
0.00000001
 43
0.0000000001
 40
0.0
 40
0.0
 40
0.0
 40
0.0
 40
0.0227447875288094
 40
0.101875272009222
 40
0.1834768284197027
 40
0.2907950521407334
 40
0.4010231387714204
 40
0.585284920182305
 40
0.7745513391224879
 40
0.8865788797401677
 40
1.0
 40
1.0
 40
1.0
 40
1.0
 10
361.6815299364021
 20
112.0028508785476
 30
0.0
 10
361.7056524184722
 20
112.0329034584411
 30
0.0
 10
361.813698467234
 20
112.1675107721982
 30
0.0
 10
361.8804863743455
 20
112.2619637112461
 30
0.0
 10
361.8832201817984
 20
112.2657748636708
 30
0.0
 10
361.7235596492017
 20
112.0570503633778
 30
0.0
 10
361.3273179996663
 20
111.5691064655027
 30
0.0
 10
360.5991996889282
 20
110.7725531670571
 30
0.0
 10
359.5719269812167
 20
109.8815954758778
 30
0.0
 10
358.4926010268709
 20
109.1233547386628
 30
0.0
 10
357.7830305130377
 20
108.7403596089378
 30
0.0
 10
357.426052200241
 20
108.5476783284264
 30
0.0
  0
LINE
  5
30D
330
1F
100
AcDbEntity
  8
DIMENSION
100
AcDbLine
 10
361.8723092678
 20
102.2916090691
 30
0.0
 11
366.0021036531
 21
102.2916090691
 31
0.0
  0
LINE
  5
30E
330
1F
100
AcDbEntity
  8
DIMENSION
100
AcDbLine
 10
337.8021036531
 20
102.2916090691
 30
0.0
 11
341.7773772177
 21
102.2916090691
 31
0.0
  0
LINE
  5
30F
330
1F
100
AcDbEntity
  8
DIMENSION
100
AcDbLine
 10
361.6773790356
 20
102.2916090691
 30
0.0
 11
361.8723092678
 21
102.2916090691
 31
0.0
  0
LINE
  5
310
330
1F
100
AcDbEntity
  8
DIMENSION
100
AcDbLine
 10
361.5187558772
 20
56.79160906909999
 30
0.0
 11
338.3021036531
 21
56.79160906909999
 31
0.0
  0
LINE
  5
311
330
1F
100
AcDbEntity
  8
DIMENSION
100
AcDbLine
 10
365.5021036531
 20
56.79160906909999
 30
0.0
 11
361.5187558772
 21
56.79160906909999
 31
0.0
  0
ARC
  5
312
330
1F
100
AcDbEntity
  8
DIMENSION
100
AcDbCircle
 10
351.8642595559
 20
73.7767306802
 30
0.0
 40
27.00000000000001
100
AcDbArc
 50
121.3873110945
 51
58.42435200149999
  0
LINE
  5
313
330
1F
100
AcDbEntity
  8
DIMENSION
100
AcDbLine
 10
361.8723092678
 20
57.29160906909999
 30
0.0
 11
366.0021036531
 21
57.29160906909999
 31
0.0
  0
LINE
  5
314
330
1F
100
AcDbEntity
  8
DIMENSION
100
AcDbLine
 10
337.8021036531
 20
57.29160906909999
 30
0.0
 11
361.8723092678
 21
57.29160906909999
 31
0.0
  0
POINT
  5
315
330
1F
100
AcDbEntity
  8
DIMENSION
100
AcDbPoint
 10
339.0106093583
 20
119.8916090691
 30
0.0
  0
POINT
  5
316
330
1F
100
AcDbEntity
  8
DIMENSION
100
AcDbPoint
 10
364.4105918434
 20
119.8916090691
 30
0.0
  0
DIMENSION
  5
317
102
{ACAD_XDICTIONARY
360
421
102
}
330
1F
100
AcDbEntity
  8
DIMENSION
100
AcDbDimension
280
     0
  2
*D16
 10
364.4105918434
 20
152.3916090691
 30
0.0
 11
351.71060060085
 21
152.3916090691
 31
0.0
 70
   160
  1
<>
 71
     2
 42
25.39998248509994
 73
     0
 74
     0
 75
     0
  3
RG Dimension Lines
100
AcDbAlignedDimension
 13
339.0106093583
 23
119.8916090691
 33
0.0
 14
364.4105918434
 24
119.8916090691
 34
0.0
100
AcDbRotatedDimension
1001
AcadAnnotative
1000
AnnotativeData
1002
{
1070
     1
1070
     1
1002
}
1001
ACAD
1000
DSTYLE
1002
{
1070
     3
1000
%%C<>
1002
}
  0
LINE
  5
31F
330
1F
100
AcDbEntity
  8
0
  6
Continuous
 62
     7
370
    25
100
AcDbLine
 10
250.7067964262
 20
230.9756876426
 30
0.0
 11
96.63693704209999
 21
231.1566214434
 31
0.0
  0
LINE
  5
320
330
1F
100
AcDbEntity
  8
0
  6
Continuous
 62
     7
370
    25
100
AcDbLine
 10
96.60710826569999
 20
205.7566389583
 30
0.0
 11
250.6769676499
 21
205.5757051575
 31
0.0
  0
LINE
  5
321
330
1F
100
AcDbEntity
  8
0
  6
Continuous
 62
     7
370
    25
100
AcDbLine
 10
96.63693704209999
 20
231.1566214434
 30
0.0
 11
93.90199728399998
 21
231.091461672
 31
0.0
  0
LINE
  5
322
330
1F
100
AcDbEntity
  8
0
  6
Continuous
 62
     7
370
    25
100
AcDbLine
 10
93.8723290935
 20
205.8282221601
 30
0.0
 11
96.60710826569999
 21
205.7566389583
 31
0.0
  0
LINE
  5
323
330
1F
100
AcDbEntity
  8
0
  6
Continuous
 62
     7
370
    25
100
AcDbLine
 10
40.6906953283
 20
191.429355355
 30
0.0
 11
50.6906953283
 21
191.429355355
 31
0.0
  0
LINE
  5
324
330
1F
100
AcDbEntity
  8
0
  6
Continuous
 62
     7
370
    25
100
AcDbLine
 10
50.6906953283
 20
245.429355355
 30
0.0
 11
40.6906953283
 21
245.429355355
 31
0.0
  0
LINE
  5
325
330
1F
100
AcDbEntity
  8
0
  6
Continuous
 62
     7
370
    25
100
AcDbLine
 10
50.6906953283
 20
205.729355355
 30
0.0
 11
81.5757632559
 21
205.729355355
 31
0.0
  0
LINE
  5
326
330
1F
100
AcDbEntity
  8
0
  6
Continuous
 62
     7
370
    25
100
AcDbLine
 10
81.4188193767
 20
231.129355355
 30
0.0
 11
50.6906953283
 21
231.129355355
 31
0.0
  0
CIRCLE
  5
327
330
1F
100
AcDbEntity
  8
0
  6
Continuous
 62
     7
370
    25
100
AcDbCircle
 10
87.62202886
 20
218.4671994523
 30
0.0
 40
14.10000000000002
  0
LINE
  5
328
330
1F
100
AcDbEntity
  8
0
  6
Continuous
 62
     7
370
    25
100
AcDbLine
 10
250.7067964262
 20
230.9756876426
 30
0.0
 11
250.6769676499
 21
205.5757051575
 31
0.0
  0
LINE
  5
329
330
1F
100
AcDbEntity
  8
0
  6
Continuous
 62
     7
370
    25
100
AcDbLine
 10
96.63693704209999
 20
231.1566214434
 30
0.0
 11
96.63476920809999
 21
229.3106542254
 31
0.0
  0
LINE
  5
32A
330
1F
100
AcDbEntity
  8
0
  6
Continuous
 62
     7
370
    25
100
AcDbLine
 10
96.60927609959999
 20
207.6026061763
 30
0.0
 11
96.60710826569999
 21
205.7566389583
 31
0.0
  0
LINE
  5
32B
330
1F
100
AcDbEntity
  8
0
  6
Continuous
 62
     7
370
    25
100
AcDbLine
 10
50.6906953283
 20
218.429355355
 30
0.0
 11
50.6906953283
 21
245.429355355
 31
0.0
  0
LINE
  5
32C
330
1F
100
AcDbEntity
  8
0
  6
Continuous
 62
     7
370
    25
100
AcDbLine
 10
50.6906953283
 20
191.429355355
 30
0.0
 11
50.6906953283
 21
218.429355355
 31
0.0
  0
LINE
  5
32D
330
1F
100
AcDbEntity
  8
0
  6
Continuous
 62
     7
370
    25
100
AcDbLine
 10
40.6906953283
 20
218.429355355
 30
0.0
 11
40.6906953283
 21
245.429355355
 31
0.0
  0
LINE
  5
32E
330
1F
100
AcDbEntity
  8
0
  6
Continuous
 62
     7
370
    25
100
AcDbLine
 10
40.6906953283
 20
191.429355355
 30
0.0
 11
40.6906953283
 21
218.429355355
 31
0.0
  0
DIMENSION
  5
32F
102
{ACAD_XDICTIONARY
360
44B
102
}
330
1F
100
AcDbEntity
  8
DIMENSION
100
AcDbDimension
280
     0
  2
*D19
 10
22.28948380699995
 20
191.4293553550001
 30
0.0
 11
22.289483807
 21
219.668062911
 31
0.0
 70
   160
  1
%%c<>
 71
     2
 42
54.00000000000003
 73
     0
 74
     0
 75
     0
  3
RG Dimension Lines
100
AcDbAlignedDimension
 13
40.6906953283
 23
245.429355355
 33
0.0
 14
40.6906953283
 24
191.429355355
 34
0.0
 50
90.0
100
AcDbRotatedDimension
1001
AcadAnnotative
1000
AnnotativeData
1002
{
1070
     1
1070
     1
1002
}
  0
DIMENSION
  5
3C5
102
{ACAD_XDICTIONARY
360
3C6
102
}
330
1F
100
AcDbEntity
  8
DIMENSION
100
AcDbDimension
280
     0
  2
*D12
 10
1.35736199496663
 20
136.3916090691
 30
0.0
 11
1.357361994966666
 21
106.8013288007
 31
0.0
 70
   160
  1
<>
 71
     2
 42
62.61487838890001
 73
     0
 74
     0
 75
     0
  3
RG Dimension Lines
100
AcDbAlignedDimension
 13
40.6906953283
 23
73.7767306802
 33
0.0
 14
73.52202886
 24
136.3916090691
 34
0.0
 50
90.0
100
AcDbRotatedDimension
1001
AcadAnnotative
1000
AnnotativeData
1002
{
1070
     1
1070
     1
1002
}
  0
DIMENSION
  5
3CA
102
{ACAD_XDICTIONARY
360
3CB
102
}
330
1F
100
AcDbEntity
  8
DIMENSION
100
AcDbDimension
280
     0
  2
*D13
 10
40.6906953283
 20
277.1359729796795
 30
0.0
 11
28.52402866163334
 21
285.1359729796795
 31
0.0
 70
    32
 71
     5
 42
10.0
 73
     0
 74
     0
 75
     0
  3
RG Dimension Lines
100
AcDbAlignedDimension
 13
50.6906953283
 23
267.8416472243
 33
0.0
 14
40.6906953283
 24
267.8416472243
 34
0.0
100
AcDbRotatedDimension
1001
AcadAnnotative
1000
AnnotativeData
1002
{
1070
     1
1070
     1
1002
}
  0
DIMENSION
  5
3CF
102
{ACAD_XDICTIONARY
360
3D0
102
}
330
1F
100
AcDbEntity
  8
DIMENSION
100
AcDbDimension
280
     0
  2
*D14
 10
40.6906953283
 20
31.6589961036828
 30
0.0
 11
63.63972562109999
 21
23.65899610368281
 31
0.0
 70
    32
 71
     5
 42
45.89806058559999
 73
     0
 74
     0
 75
     0
  3
RG Dimension Lines
100
AcDbAlignedDimension
 13
86.5887559139
 23
56.7916090691
 33
0.0
 14
40.6906953283
 24
46.7767306802
 34
0.0
100
AcDbRotatedDimension
1001
AcadAnnotative
1000
AnnotativeData
1002
{
1070
     1
1070
     1
1002
}
  0
DIMENSION
  5
3D4
102
{ACAD_XDICTIONARY
360
3D5
102
}
330
1F
100
AcDbEntity
  8
DIMENSION
100
AcDbDimension
280
     0
  2
*D15
 10
29.22573239051153
 20
73.46050291419486
 30
0.0
 11
29.22573239051155
 21
96.67126935318261
 31
0.0
 70
   160
 71
     5
 42
46.42153287797552
 73
     0
 74
     0
 75
     0
  3
RG Dimension Lines
100
AcDbAlignedDimension
 13
93.42314702454807
 23
119.8820357921703
 33
0.0
 14
81.69069532834573
 24
73.46050291419484
 34
0.0
 50
90.0
100
AcDbRotatedDimension
1001
AcadAnnotative
1000
AnnotativeData
1002
{
1070
     1
1070
     1
1002
}
  0
ENDSEC
  0
SECTION
  2
OBJECTS
  0
DICTIONARY
  5
C
330
0
100
AcDbDictionary
281
     1
  3
ACAD_CIP_PREVIOUS_PRODUCT_INFO
350
378
  3
ACAD_COLOR
350
36D
  3
ACAD_DETAILVIEWSTYLE
350
374
  3
ACAD_GROUP
350
D
  3
ACAD_LAYOUT
350
1A
  3
ACAD_MATERIAL
350
33B
  3
ACAD_MLEADERSTYLE
350
370
  3
ACAD_MLINESTYLE
350
17
  3
ACAD_PLOTSETTINGS
350
19
  3
ACAD_PLOTSTYLENAME
350
E
  3
ACAD_SCALELIST
350
47
  3
ACAD_SECTIONVIEWSTYLE
350
372
  3
ACAD_TABLESTYLE
350
36E
  3
ACAD_VISUALSTYLE
350
354
  3
ACDB_RECOMPOSE_DATA
350
489
  3
AcDbVariableDictionary
350
46C
  0
DICTIONARY
  5
3AB
330
2
100
AcDbDictionary
280
     1
281
     1
  3
ACAD_LAYERSTATES
360
3AC
  0
DICTIONARY
  5
45D
330
10
100
AcDbDictionary
280
     1
281
     1
  3
ADSK_XREC_LAYER_RECONCILED
360
45E
  0
DICTIONARY
  5
45F
330
73
100
AcDbDictionary
280
     1
281
     1
  3
ADSK_XREC_LAYER_RECONCILED
360
460
  0
DICTIONARY
  5
3A4
330
3A3
100
AcDbDictionary
280
     1
281
     1
  3
ADSK_XREC_LAYER_RECONCILED
360
461
  0
DICTIONARY
  5
43D
330
AC
100
AcDbDictionary
280
     1
281
     1
  3
AcDbContextDataManager
360
43E
  0
DICTIONARY
  5
42F
330
B4
100
AcDbDictionary
280
     1
281
     1
  3
AcDbContextDataManager
360
430
  0
DICTIONARY
  5
421
330
317
100
AcDbDictionary
280
     1
281
     1
  3
AcDbContextDataManager
360
422
  0
DICTIONARY
  5
44B
330
32F
100
AcDbDictionary
280
     1
281
     1
  3
AcDbContextDataManager
360
44C
  0
DICTIONARY
  5
3C6
330
3C5
100
AcDbDictionary
280
     1
281
     1
  3
AcDbContextDataManager
360
3C7
  0
DICTIONARY
  5
3CB
330
3CA
100
AcDbDictionary
280
     1
281
     1
  3
AcDbContextDataManager
360
3CC
  0
DICTIONARY
  5
3D0
330
3CF
100
AcDbDictionary
280
     1
281
     1
  3
AcDbContextDataManager
360
3D1
  0
DICTIONARY
  5
3D5
330
3D4
100
AcDbDictionary
280
     1
281
     1
  3
AcDbContextDataManager
360
3D6
  0
XRECORD
  5
378
102
{ACAD_REACTORS
330
C
102
}
330
C
100
AcDbXrecord
280
     1
300
ACD
300
2021
300

  0
DICTIONARY
  5
36D
102
{ACAD_REACTORS
330
C
102
}
330
C
100
AcDbDictionary
281
     1
  0
DICTIONARY
  5
374
102
{ACAD_REACTORS
330
C
102
}
330
C
100
AcDbDictionary
281
     1
  3
Metric50
350
375
  0
DICTIONARY
  5
D
102
{ACAD_REACTORS
330
C
102
}
330
C
100
AcDbDictionary
281
     1
  0
DICTIONARY
  5
1A
102
{ACAD_REACTORS
330
C
102
}
330
C
100
AcDbDictionary
281
     1
  3
Layout1
350
1E
  3
Layout2
350
26
  3
Model
350
22
  0
DICTIONARY
  5
33B
102
{ACAD_REACTORS
330
C
102
}
330
C
100
AcDbDictionary
281
     1
  3
ByBlock
350
344
  3
ByLayer
350
33C
  3
Global
350
34C
  0
DICTIONARY
  5
370
102
{ACAD_REACTORS
330
C
102
}
330
C
100
AcDbDictionary
281
     1
  3
Standard
350
371
  0
DICTIONARY
  5
17
102
{ACAD_REACTORS
330
C
102
}
330
C
100
AcDbDictionary
281
     1
  3
Standard
350
18
  0
DICTIONARY
  5
19
102
{ACAD_REACTORS
330
C
102
}
330
C
100
AcDbDictionary
281
     1
  0
ACDBDICTIONARYWDFLT
  5
E
102
{ACAD_REACTORS
330
C
102
}
330
C
100
AcDbDictionary
281
     1
  3
Normal
350
F
100
AcDbDictionaryWithDefault
340
F
  0
DICTIONARY
  5
47
102
{ACAD_REACTORS
330
C
102
}
330
C
100
AcDbDictionary
281
     1
  3
A0
350
48
  3
A1
350
49
  3
A2
350
4A
  3
A3
350
4B
  3
A4
350
4C
  3
A5
350
4D
  3
A6
350
4E
  3
A7
350
4F
  3
A8
350
50
  3
A9
350
51
  3
B0
350
52
  3
B1
350
53
  3
B2
350
54
  3
B3
350
55
  3
B4
350
56
  3
B5
350
57
  3
B6
350
58
  3
B7
350
59
  3
B8
350
5A
  3
B9
350
5B
  3
C0
350
5C
  3
C1
350
5D
  3
C2
350
5E
  3
C3
350
5F
  3
C4
350
60
  3
C5
350
61
  3
C6
350
62
  3
C7
350
63
  3
C8
350
64
  3
C9
350
65
  3
D0
350
66
  3
D1
350
67
  3
D2
350
68
  0
DICTIONARY
  5
372
102
{ACAD_REACTORS
330
C
102
}
330
C
100
AcDbDictionary
281
     1
  3
Metric50
350
373
  0
DICTIONARY
  5
36E
102
{ACAD_REACTORS
330
C
102
}
330
C
100
AcDbDictionary
281
     1
  3
Standard
350
36F
  0
DICTIONARY
  5
354
102
{ACAD_REACTORS
330
C
102
}
330
C
100
AcDbDictionary
281
     1
  3
2dWireframe
350
35A
  3
Basic
350
359
  3
Brighten
350
360
  3
ColorChange
350
364
  3
Conceptual
350
35D
  3
Dim
350
35F
  3
EdgeColorOff
350
36C
  3
Facepattern
350
363
  3
Flat
350
355
  3
FlatWithEdges
350
356
  3
Gouraud
350
357
  3
GouraudWithEdges
350
358
  3
Hidden
350
35C
  3
JitterOff
350
36A
  3
Linepattern
350
362
  3
OverhangOff
350
36B
  3
Realistic
350
35E
  3
Shaded
350
369
  3
Shaded with edges
350
368
  3
Shades of Gray
350
365
  3
Sketchy
350
366
  3
Thicken
350
361
  3
Wireframe
350
35B
  3
X-Ray
350
367
  0
XRECORD
  5
489
102
{ACAD_REACTORS
330
C
102
}
330
C
100
AcDbXrecord
280
     1
 90
        1
330
36F
  0
DICTIONARY
  5
46C
102
{ACAD_REACTORS
330
C
102
}
330
C
100
AcDbDictionary
281
     1
  3
CANNOSCALE
350
472
  3
CMLEADERSTYLE
350
46E
  3
CTABLESTYLE
350
46D
  3
CVIEWDETAILSTYLE
350
46F
  3
CVIEWSECTIONSTYLE
350
470
  3
LAYEREVAL
350
474
  3
LAYERNOTIFY
350
475
  3
LIGHTINGUNITS
350
473
  3
MSLTSCALE
350
471
  0
DICTIONARY
  5
3AC
102
{ACAD_REACTORS
330
3AB
102
}
330
3AB
100
AcDbDictionary
281
     1
  0
XRECORD
  5
45E
102
{ACAD_REACTORS
330
45D
102
}
330
45D
100
AcDbXrecord
280
     1
290
     1
  0
XRECORD
  5
460
102
{ACAD_REACTORS
330
45F
102
}
330
45F
100
AcDbXrecord
280
     1
290
     1
  0
XRECORD
  5
461
102
{ACAD_REACTORS
330
3A4
102
}
330
3A4
100
AcDbXrecord
280
     1
290
     1
  0
DICTIONARY
  5
43E
102
{ACAD_REACTORS
330
43D
102
}
330
43D
100
AcDbDictionary
281
     1
  3
ACDB_ANNOTATIONSCALES
350
43F
  0
DICTIONARY
  5
430
102
{ACAD_REACTORS
330
42F
102
}
330
42F
100
AcDbDictionary
281
     1
  3
ACDB_ANNOTATIONSCALES
350
431
  0
DICTIONARY
  5
422
102
{ACAD_REACTORS
330
421
102
}
330
421
100
AcDbDictionary
281
     1
  3
ACDB_ANNOTATIONSCALES
350
423
  0
DICTIONARY
  5
44C
102
{ACAD_REACTORS
330
44B
102
}
330
44B
100
AcDbDictionary
281
     1
  3
ACDB_ANNOTATIONSCALES
350
44D
  0
DICTIONARY
  5
3C7
102
{ACAD_REACTORS
330
3C6
102
}
330
3C6
100
AcDbDictionary
281
     1
  3
ACDB_ANNOTATIONSCALES
350
3C8
  0
DICTIONARY
  5
3CC
102
{ACAD_REACTORS
330
3CB
102
}
330
3CB
100
AcDbDictionary
281
     1
  3
ACDB_ANNOTATIONSCALES
350
3CD
  0
DICTIONARY
  5
3D1
102
{ACAD_REACTORS
330
3D0
102
}
330
3D0
100
AcDbDictionary
281
     1
  3
ACDB_ANNOTATIONSCALES
350
3D2
  0
DICTIONARY
  5
3D6
102
{ACAD_REACTORS
330
3D5
102
}
330
3D5
100
AcDbDictionary
281
     1
  3
ACDB_ANNOTATIONSCALES
350
3D7
  0
ACDBDETAILVIEWSTYLE
  5
375
102
{ACAD_REACTORS
330
374
102
}
330
374
100
AcDbModelDocViewStyle
 70
     0
  3
Metric50
290
     0
300
Metric50
 90
        0
100
AcDbDetailViewStyle
 70
     0
 71
     0
 90
        3
 71
     1
340
11
 62
   256
 40
5.0
340
0
 62
   256
 40
5.0
300

 40
0.0
280
     1
 71
     2
340
16
 90
       25
 62
   256
 71
     3
340
11
 62
   256
 40
5.0
 90
        0
 40
15.0
 90
        1
300
%<\AcVar ViewDetailId>% (%<\AcVar ViewScale \f "%sn">%)
 71
     4
340
16
 90
       25
 62
   256
340
16
 90
       25
 62
   256
280
     0
  0
LAYOUT
  5
1E
102
{ACAD_REACTORS
330
1A
102
}
330
1A
100
AcDbPlotSettings
  1

  2
none_device
  4

  6

 40
0.0
 41
0.0
 42
0.0
 43
0.0
 44
0.0
 45
0.0
 46
0.0
 47
0.0
 48
0.0
 49
0.0
140
0.0
141
0.0
142
1.0
143
1.0
 70
   688
 72
     1
 73
     0
 74
     5
  7

 75
    16
147
1.0
 76
     0
 77
     2
 78
   300
148
0.0
149
0.0
100
AcDbLayout
  1
Layout1
 70
     1
 71
     1
 10
0.0
 20
0.0
 11
420.0
 21
297.0
 12
0.0
 22
0.0
 32
0.0
 14
1.000000000000000E+20
 24
1.000000000000000E+20
 34
1.000000000000000E+20
 15
-1.000000000000000E+20
 25
-1.000000000000000E+20
 35
-1.000000000000000E+20
146
0.0
 13
0.0
 23
0.0
 33
0.0
 16
1.0
 26
0.0
 36
0.0
 17
0.0
 27
1.0
 37
0.0
 76
     0
330
1B
  0
LAYOUT
  5
26
102
{ACAD_REACTORS
330
1A
102
}
330
1A
100
AcDbPlotSettings
  1

  2
none_device
  4

  6

 40
0.0
 41
0.0
 42
0.0
 43
0.0
 44
0.0
 45
0.0
 46
0.0
 47
0.0
 48
0.0
 49
0.0
140
0.0
141
0.0
142
1.0
143
1.0
 70
   688
 72
     1
 73
     0
 74
     5
  7

 75
    16
147
1.0
 76
     0
 77
     2
 78
   300
148
0.0
149
0.0
100
AcDbLayout
  1
Layout2
 70
     1
 71
     2
 10
0.0
 20
0.0
 11
0.0
 21
0.0
 12
0.0
 22
0.0
 32
0.0
 14
0.0
 24
0.0
 34
0.0
 15
0.0
 25
0.0
 35
0.0
146
0.0
 13
0.0
 23
0.0
 33
0.0
 16
1.0
 26
0.0
 36
0.0
 17
0.0
 27
1.0
 37
0.0
 76
     0
330
23
  0
LAYOUT
  5
22
102
{ACAD_REACTORS
330
1A
102
}
330
1A
100
AcDbPlotSettings
  1

  2
none_device
  4
Letter_(8.50_x_11.00_Inches)
  6

 40
6.349999999999999
 41
6.349999999999999
 42
6.350005079999999
 43
6.350005079999999
 44
215.9
 45
279.4
 46
0.0
 47
0.0
 48
0.0
 49
0.0
140
0.0
141
0.0
142
1.0
143
1.0
 70
  1712
 72
     1
 73
     0
 74
     0
  7

 75
     0
147
1.0
 76
     0
 77
     2
 78
   300
148
0.0
149
0.0
100
AcDbLayout
  1
Model
 70
     1
 71
     0
 10
0.0
 20
0.0
 11
420.0
 21
297.0
 12
0.0
 22
0.0
 32
0.0
 14
0.0
 24
0.0
 34
0.0
 15
420.0
 25
297.0
 35
0.0
146
0.0
 13
0.0
 23
0.0
 33
0.0
 16
1.0
 26
0.0
 36
0.0
 17
0.0
 27
1.0
 37
0.0
 76
     0
330
1F
331
29
  0
MATERIAL
  5
344
102
{ACAD_XDICTIONARY
360
345
102
}
102
{ACAD_REACTORS
330
33B
102
}
330
33B
100
AcDbMaterial
  1
ByBlock
 72
     0
 43
0.0008202099737533
 43
0.0
 43
0.0
 43
0.0
 43
0.0
 43
0.0008202099737533
 43
0.0
 43
0.0
 43
0.0
 43
0.0
 43
1.0
 43
0.0
 43
0.0
 43
0.0
 43
0.0
 43
1.0
 77
     0
 47
0.0008202099737533
 47
0.0
 47
0.0
 47
0.0
 47
0.0
 47
0.0008202099737533
 47
0.0
 47
0.0
 47
0.0
 47
0.0
 47
1.0
 47
0.0
 47
0.0
 47
0.0
 47
0.0
 47
1.0
171
     0
 49
0.0008202099737533
 49
0.0
 49
0.0
 49
0.0
 49
0.0
 49
0.0008202099737533
 49
0.0
 49
0.0
 49
0.0
 49
0.0
 49
1.0
 49
0.0
 49
0.0
 49
0.0
 49
0.0
 49
1.0
175
     0
142
0.0008202099737533
142
0.0
142
0.0
142
0.0
142
0.0
142
0.0008202099737533
142
0.0
142
0.0
142
0.0
142
0.0
142
1.0
142
0.0
142
0.0
142
0.0
142
0.0
142
1.0
179
     0
144
0.0008202099737533
144
0.0
144
0.0
144
0.0
144
0.0
144
0.0008202099737533
144
0.0
144
0.0
144
0.0
144
0.0
144
1.0
144
0.0
144
0.0
144
0.0
144
0.0
144
1.0
147
0.0008202099737533
147
0.0
147
0.0
147
0.0
147
0.0
147
0.0008202099737533
147
0.0
147
0.0
147
0.0
147
0.0
147
1.0
147
0.0
147
0.0
147
0.0
147
0.0
147
1.0
  0
MATERIAL
  5
33C
102
{ACAD_XDICTIONARY
360
33D
102
}
102
{ACAD_REACTORS
330
33B
102
}
330
33B
100
AcDbMaterial
  1
ByLayer
 72
     0
 43
0.0008202099737533
 43
0.0
 43
0.0
 43
0.0
 43
0.0
 43
0.0008202099737533
 43
0.0
 43
0.0
 43
0.0
 43
0.0
 43
1.0
 43
0.0
 43
0.0
 43
0.0
 43
0.0
 43
1.0
 77
     0
 47
0.0008202099737533
 47
0.0
 47
0.0
 47
0.0
 47
0.0
 47
0.0008202099737533
 47
0.0
 47
0.0
 47
0.0
 47
0.0
 47
1.0
 47
0.0
 47
0.0
 47
0.0
 47
0.0
 47
1.0
171
     0
 49
0.0008202099737533
 49
0.0
 49
0.0
 49
0.0
 49
0.0
 49
0.0008202099737533
 49
0.0
 49
0.0
 49
0.0
 49
0.0
 49
1.0
 49
0.0
 49
0.0
 49
0.0
 49
0.0
 49
1.0
175
     0
142
0.0008202099737533
142
0.0
142
0.0
142
0.0
142
0.0
142
0.0008202099737533
142
0.0
142
0.0
142
0.0
142
0.0
142
1.0
142
0.0
142
0.0
142
0.0
142
0.0
142
1.0
179
     0
144
0.0008202099737533
144
0.0
144
0.0
144
0.0
144
0.0
144
0.0008202099737533
144
0.0
144
0.0
144
0.0
144
0.0
144
1.0
144
0.0
144
0.0
144
0.0
144
0.0
144
1.0
147
0.0008202099737533
147
0.0
147
0.0
147
0.0
147
0.0
147
0.0008202099737533
147
0.0
147
0.0
147
0.0
147
0.0
147
1.0
147
0.0
147
0.0
147
0.0
147
0.0
147
1.0
  0
MATERIAL
  5
34C
102
{ACAD_XDICTIONARY
360
34D
102
}
102
{ACAD_REACTORS
330
33B
102
}
330
33B
100
AcDbMaterial
  1
Global
 72
     0
 43
0.0008202099737533
 43
0.0
 43
0.0
 43
0.0
 43
0.0
 43
0.0008202099737533
 43
0.0
 43
0.0
 43
0.0
 43
0.0
 43
1.0
 43
0.0
 43
0.0
 43
0.0
 43
0.0
 43
1.0
 77
     0
 47
0.0008202099737533
 47
0.0
 47
0.0
 47
0.0
 47
0.0
 47
0.0008202099737533
 47
0.0
 47
0.0
 47
0.0
 47
0.0
 47
1.0
 47
0.0
 47
0.0
 47
0.0
 47
0.0
 47
1.0
171
     0
 49
0.0008202099737533
 49
0.0
 49
0.0
 49
0.0
 49
0.0
 49
0.0008202099737533
 49
0.0
 49
0.0
 49
0.0
 49
0.0
 49
1.0
 49
0.0
 49
0.0
 49
0.0
 49
0.0
 49
1.0
175
     0
142
0.0008202099737533
142
0.0
142
0.0
142
0.0
142
0.0
142
0.0008202099737533
142
0.0
142
0.0
142
0.0
142
0.0
142
1.0
142
0.0
142
0.0
142
0.0
142
0.0
142
1.0
179
     0
144
0.0008202099737533
144
0.0
144
0.0
144
0.0
144
0.0
144
0.0008202099737533
144
0.0
144
0.0
144
0.0
144
0.0
144
1.0
144
0.0
144
0.0
144
0.0
144
0.0
144
1.0
147
0.0008202099737533
147
0.0
147
0.0
147
0.0
147
0.0
147
0.0008202099737533
147
0.0
147
0.0
147
0.0
147
0.0
147
1.0
147
0.0
147
0.0
147
0.0
147
0.0
147
1.0
  0
MLEADERSTYLE
  5
371
102
{ACAD_REACTORS
330
370
102
}
330
370
100
AcDbMLeaderStyle
179
     2
170
     2
171
     1
172
     0
 90
        2
 40
0.0
 41
0.0
173
     1
 91
-1056964608
340
14
 92
       -2
290
     1
 42
2.0
291
     1
 43
0.36
  3
Standard
 44
4.0
300

342
11
174
     1
178
     6
175
     1
176
     0
 93
-1056964608
 45
4.0
292
     0
297
     0
 46
4.0
 94
-1056964608
 47
1.0
 49
1.0
140
1.0
293
     1
141
0.0
294
     1
177
     0
142
1.0
295
     0
296
     0
143
0.125
271
     0
272
     9
273
     9
298
     0
  0
MLINESTYLE
  5
18
102
{ACAD_REACTORS
330
17
102
}
330
17
100
AcDbMlineStyle
  2
STANDARD
 70
     0
  3

 62
   256
 51
90.0
 52
90.0
 71
     2
 49
0.5
 62
   256
  6
BYLAYER
 49
-0.5
 62
   256
  6
BYLAYER
  0
ACDBPLACEHOLDER
  5
F
102
{ACAD_REACTORS
330
E
102
}
330
E
  0
SCALE
  5
48
102
{ACAD_REACTORS
330
47
102
}
330
47
100
AcDbScale
 70
     0
300
1:1
140
1.0
141
1.0
290
     1
  0
SCALE
  5
49
102
{ACAD_REACTORS
330
47
102
}
330
47
100
AcDbScale
 70
     0
300
1:2
140
1.0
141
2.0
290
     0
  0
SCALE
  5
4A
102
{ACAD_REACTORS
330
47
102
}
330
47
100
AcDbScale
 70
     0
300
1:4
140
1.0
141
4.0
290
     0
  0
SCALE
  5
4B
102
{ACAD_REACTORS
330
47
102
}
330
47
100
AcDbScale
 70
     0
300
1:5
140
1.0
141
5.0
290
     0
  0
SCALE
  5
4C
102
{ACAD_REACTORS
330
47
102
}
330
47
100
AcDbScale
 70
     0
300
1:8
140
1.0
141
8.0
290
     0
  0
SCALE
  5
4D
102
{ACAD_REACTORS
330
47
102
}
330
47
100
AcDbScale
 70
     0
300
1:10
140
1.0
141
10.0
290
     0
  0
SCALE
  5
4E
102
{ACAD_REACTORS
330
47
102
}
330
47
100
AcDbScale
 70
     0
300
1:16
140
1.0
141
16.0
290
     0
  0
SCALE
  5
4F
102
{ACAD_REACTORS
330
47
102
}
330
47
100
AcDbScale
 70
     0
300
1:20
140
1.0
141
20.0
290
     0
  0
SCALE
  5
50
102
{ACAD_REACTORS
330
47
102
}
330
47
100
AcDbScale
 70
     0
300
1:30
140
1.0
141
30.0
290
     0
  0
SCALE
  5
51
102
{ACAD_REACTORS
330
47
102
}
330
47
100
AcDbScale
 70
     0
300
1:40
140
1.0
141
40.0
290
     0
  0
SCALE
  5
52
102
{ACAD_REACTORS
330
47
102
}
330
47
100
AcDbScale
 70
     0
300
1:50
140
1.0
141
50.0
290
     0
  0
SCALE
  5
53
102
{ACAD_REACTORS
330
47
102
}
330
47
100
AcDbScale
 70
     0
300
1:100
140
1.0
141
100.0
290
     0
  0
SCALE
  5
54
102
{ACAD_REACTORS
330
47
102
}
330
47
100
AcDbScale
 70
     0
300
2:1
140
2.0
141
1.0
290
     0
  0
SCALE
  5
55
102
{ACAD_REACTORS
330
47
102
}
330
47
100
AcDbScale
 70
     0
300
4:1
140
4.0
141
1.0
290
     0
  0
SCALE
  5
56
102
{ACAD_REACTORS
330
47
102
}
330
47
100
AcDbScale
 70
     0
300
8:1
140
8.0
141
1.0
290
     0
  0
SCALE
  5
57
102
{ACAD_REACTORS
330
47
102
}
330
47
100
AcDbScale
 70
     0
300
10:1
140
10.0
141
1.0
290
     0
  0
SCALE
  5
58
102
{ACAD_REACTORS
330
47
102
}
330
47
100
AcDbScale
 70
     0
300
100:1
140
100.0
141
1.0
290
     0
  0
SCALE
  5
59
102
{ACAD_REACTORS
330
47
102
}
330
47
100
AcDbScale
 70
     0
300
1/128" = 1'-0"
140
0.0078125
141
12.0
290
     0
  0
SCALE
  5
5A
102
{ACAD_REACTORS
330
47
102
}
330
47
100
AcDbScale
 70
     0
300
1/64" = 1'-0"
140
0.015625
141
12.0
290
     0
  0
SCALE
  5
5B
102
{ACAD_REACTORS
330
47
102
}
330
47
100
AcDbScale
 70
     0
300
1/32" = 1'-0"
140
0.03125
141
12.0
290
     0
  0
SCALE
  5
5C
102
{ACAD_REACTORS
330
47
102
}
330
47
100
AcDbScale
 70
     0
300
1/16" = 1'-0"
140
0.0625
141
12.0
290
     0
  0
SCALE
  5
5D
102
{ACAD_REACTORS
330
47
102
}
330
47
100
AcDbScale
 70
     0
300
3/32" = 1'-0"
140
0.09375
141
12.0
290
     0
  0
SCALE
  5
5E
102
{ACAD_REACTORS
330
47
102
}
330
47
100
AcDbScale
 70
     0
300
1/8" = 1'-0"
140
0.125
141
12.0
290
     0
  0
SCALE
  5
5F
102
{ACAD_REACTORS
330
47
102
}
330
47
100
AcDbScale
 70
     0
300
3/16" = 1'-0"
140
0.1875
141
12.0
290
     0
  0
SCALE
  5
60
102
{ACAD_REACTORS
330
47
102
}
330
47
100
AcDbScale
 70
     0
300
1/4" = 1'-0"
140
0.25
141
12.0
290
     0
  0
SCALE
  5
61
102
{ACAD_REACTORS
330
47
102
}
330
47
100
AcDbScale
 70
     0
300
3/8" = 1'-0"
140
0.375
141
12.0
290
     0
  0
SCALE
  5
62
102
{ACAD_REACTORS
330
47
102
}
330
47
100
AcDbScale
 70
     0
300
1/2" = 1'-0"
140
0.5
141
12.0
290
     0
  0
SCALE
  5
63
102
{ACAD_REACTORS
330
47
102
}
330
47
100
AcDbScale
 70
     0
300
3/4" = 1'-0"
140
0.75
141
12.0
290
     0
  0
SCALE
  5
64
102
{ACAD_REACTORS
330
47
102
}
330
47
100
AcDbScale
 70
     0
300
1" = 1'-0"
140
1.0
141
12.0
290
     0
  0
SCALE
  5
65
102
{ACAD_REACTORS
330
47
102
}
330
47
100
AcDbScale
 70
     0
300
1-1/2" = 1'-0"
140
1.5
141
12.0
290
     0
  0
SCALE
  5
66
102
{ACAD_REACTORS
330
47
102
}
330
47
100
AcDbScale
 70
     0
300
3" = 1'-0"
140
3.0
141
12.0
290
     0
  0
SCALE
  5
67
102
{ACAD_REACTORS
330
47
102
}
330
47
100
AcDbScale
 70
     0
300
6" = 1'-0"
140
6.0
141
12.0
290
     0
  0
SCALE
  5
68
102
{ACAD_REACTORS
330
47
102
}
330
47
100
AcDbScale
 70
     0
300
1'-0" = 1'-0"
140
12.0
141
12.0
290
     0
  0
ACDBSECTIONVIEWSTYLE
  5
373
102
{ACAD_REACTORS
330
372
102
}
330
372
100
AcDbModelDocViewStyle
 70
     0
  3
Metric50
290
     0
300
Metric50
 90
        0
100
AcDbSectionViewStyle
 70
     0
 71
     0
 90
      102
 71
     1
340
11
 62
   256
 40
5.0
340
0
340
0
 62
   256
 40
5.0
300
I, O, Q, S, X, Z
 40
10.0
 90
        0
 40
2.5
 90
        0
 71
     2
340
16
 90
       25
 62
   256
340
16
 90
       50
 62
   256
 40
5.0
 40
2.5
 40
5.0
 71
     3
340
11
 62
   256
 40
5.0
 90
        0
 40
15.0
 90
        1
300
%<\AcVar ViewSectionStartId>%-%<\AcVar ViewSectionEndId>% (%<\AcVar ViewScale \f "%sn">%)
 71
     4
 62
   256
 62
   257
300
ANSI31
 40
1.0
 90
        0
290
     0
290
     0
 90
        6
 40
0.0
 40
1.570796326794896
 40
0.2617993877991494
 40
1.308996938995747
 40
-0.2617993877991494
 40
1.832595714594046
  0
TABLESTYLE
  5
36F
102
{ACAD_XDICTIONARY
360
487
102
}
102
{ACAD_REACTORS
330
36E
102
}
330
36E
100
AcDbTableStyle
280
     0
  3
Standard
 70
     0
 71
     0
 40
1.5
 41
1.5
280
     0
281
     0
  7
Standard
140
4.5
170
     2
 62
     0
 63
     7
283
     0
 90
      512
 91
        0
  1

274
    -2
284
     1
 64
     0
275
    -2
285
     1
 65
     0
276
    -2
286
     1
 66
     0
277
    -2
287
     1
 67
     0
278
    -2
288
     1
 68
     0
279
    -2
289
     1
 69
     0
  7
Standard
140
6.0
170
     5
 62
     0
 63
     7
283
     0
 90
      512
 91
        0
  1

274
    -2
284
     1
 64
     0
275
    -2
285
     1
 65
     0
276
    -2
286
     1
 66
     0
277
    -2
287
     1
 67
     0
278
    -2
288
     1
 68
     0
279
    -2
289
     1
 69
     0
  7
Standard
140
4.5
170
     5
 62
     0
 63
     7
283
     0
 90
      512
 91
        0
  1

274
    -2
284
     1
 64
     0
275
    -2
285
     1
 65
     0
276
    -2
286
     1
 66
     0
277
    -2
287
     1
 67
     0
278
    -2
288
     1
 68
     0
279
    -2
289
     1
 69
     0
  0
VISUALSTYLE
  5
35A
102
{ACAD_REACTORS
330
354
102
}
330
354
100
AcDbVisualStyle
  2
2dWireframe
 70
     4
177
     3
291
     0
 70
    58
 90
        0
176
     1
 90
        2
176
     1
 90
        0
176
     1
 90
        0
176
     1
 40
0.6
176
     1
 40
30.0
176
     1
 62
     7
420
 16777215
176
     1
 90
        1
176
     1
 90
        4
176
     1
 62
     7
176
     1
 62
   257
176
     1
 90
        1
176
     1
 90
        1
176
     1
 40
1.0
176
     1
 90
        0
176
     1
 62
   257
176
     1
 40
1.0
176
     1
 90
        1
176
     1
 90
        6
176
     1
 90
        2
176
     1
 62
     7
176
     1
 90
        5
176
     1
 90
        0
176
     1
 90
        0
176
     1
290
     0
176
     1
 90
        1
176
     1
 40
0.0
176
     1
 90
        0
176
     1
290
     1
176
     1
290
     1
176
     1
290
     0
176
     1
290
     0
176
     1
290
     0
176
     1
290
     0
176
     1
290
     0
176
     1
290
     0
176
     1
290
     0
176
     1
 90
       50
176
     1
 40
0.0
176
     1
 40
1.0
176
     1
 90
        0
176
     1
 62
    18
420
        0
176
     1
 90
       50
176
     1
 90
        3
176
     1
 62
     5
420
      255
176
     1
290
     0
176
     1
 90
       50
176
     1
 90
       50
176
     1
 90
       50
176
     1
290
     0
176
     1
 90
       50
176
     1
 62
   256
176
     0
 40
1.0
176
     0
 90
        2
176
     1
  1
strokes_ogs.tif
176
     1
290
     0
176
     1
 40
1.0
176
     1
 40
1.0
176
     1
  0
VISUALSTYLE
  5
359
102
{ACAD_REACTORS
330
354
102
}
330
354
100
AcDbVisualStyle
  2
Basic
 70
     7
177
     3
291
     1
 70
    58
 90
        1
176
     1
 90
        0
176
     1
 90
        1
176
     1
 90
        0
176
     1
 40
0.6
176
     1
 40
30.0
176
     1
 62
     7
420
 16777215
176
     1
 90
        0
176
     1
 90
        4
176
     1
 62
     7
176
     1
 62
   257
176
     1
 90
        1
176
     1
 90
        1
176
     1
 40
1.0
176
     1
 90
        8
176
     1
 62
     7
176
     1
 40
1.0
176
     1
 90
        1
176
     1
 90
        6
176
     1
 90
        2
176
     1
 62
     7
176
     1
 90
        5
176
     1
 90
        0
176
     1
 90
        0
176
     1
290
     0
176
     1
 90
        1
176
     1
 40
0.0
176
     1
 90
        0
176
     1
290
     0
176
     1
290
     1
176
     1
290
     1
176
     1
290
     0
176
     1
290
     0
176
     1
290
     0
176
     1
290
     0
176
     1
290
     0
176
     1
290
     0
176
     1
 90
       50
176
     1
 40
0.0
176
     1
 40
1.0
176
     1
 90
        0
176
     1
 62
    18
420
        0
176
     1
 90
       50
176
     1
 90
        3
176
     1
 62
     5
420
      255
176
     1
290
     0
176
     1
 90
       50
176
     1
 90
       50
176
     1
 90
       50
176
     1
290
     0
176
     1
 90
       50
176
     1
 62
   256
176
     0
 40
1.0
176
     0
 90
        2
176
     1
  1
strokes_ogs.tif
176
     1
290
     0
176
     1
 40
1.0
176
     1
 40
1.0
176
     1
  0
VISUALSTYLE
  5
360
102
{ACAD_REACTORS
330
354
102
}
330
354
100
AcDbVisualStyle
  2
Brighten
 70
    12
177
     3
291
     1
 70
    58
 90
        2
176
     1
 90
        2
176
     1
 90
        0
176
     1
 90
        0
176
     1
 40
0.6
176
     1
 40
30.0
176
     1
 62
     7
420
 16777215
176
     1
 90
        1
176
     1
 90
        4
176
     1
 62
     7
176
     1
 62
   257
176
     1
 90
        1
176
     1
 90
        1
176
     1
 40
1.0
176
     1
 90
        8
176
     1
 62
     7
176
     1
 40
1.0
176
     1
 90
        1
176
     1
 90
        6
176
     1
 90
        2
176
     1
 62
     7
176
     1
 90
        5
176
     1
 90
        0
176
     1
 90
        0
176
     1
290
     0
176
     1
 90
        1
176
     1
 40
50.0
176
     1
 90
        0
176
     1
290
     0
176
     1
290
     1
176
     1
290
     1
176
     1
290
     0
176
     1
290
     0
176
     1
290
     0
176
     1
290
     0
176
     1
290
     0
176
     1
290
     0
176
     1
 90
       50
176
     1
 40
0.0
176
     1
 40
1.0
176
     1
 90
        0
176
     1
 62
    18
420
        0
176
     1
 90
       50
176
     1
 90
        3
176
     1
 62
     5
420
      255
176
     1
290
     0
176
     1
 90
       50
176
     1
 90
       50
176
     1
 90
       50
176
     1
290
     0
176
     1
 90
       50
176
     1
 62
   256
176
     0
 40
1.0
176
     0
 90
        2
176
     1
  1
strokes_ogs.tif
176
     1
290
     0
176
     1
 40
1.0
176
     1
 40
1.0
176
     1
  0
VISUALSTYLE
  5
364
102
{ACAD_REACTORS
330
354
102
}
330
354
100
AcDbVisualStyle
  2
ColorChange
 70
    16
177
     3
291
     1
 70
    58
 90
        2
176
     1
 90
        2
176
     1
 90
        3
176
     1
 90
        0
176
     1
 40
0.6
176
     1
 40
30.0
176
     1
 62
     8
420
  8421504
176
     1
 90
        1
176
     1
 90
        4
176
     1
 62
     7
176
     1
 62
   257
176
     1
 90
        1
176
     1
 90
        1
176
     1
 40
1.0
176
     1
 90
        8
176
     1
 62
     8
420
  8421504
176
     1
 40
1.0
176
     1
 90
        1
176
     1
 90
        6
176
     1
 90
        2
176
     1
 62
     7
176
     1
 90
        5
176
     1
 90
        0
176
     1
 90
        0
176
     1
290
     0
176
     1
 90
        1
176
     1
 40
0.0
176
     1
 90
        0
176
     1
290
     0
176
     1
290
     1
176
     1
290
     1
176
     1
290
     0
176
     1
290
     0
176
     1
290
     0
176
     1
290
     0
176
     1
290
     0
176
     1
290
     0
176
     1
 90
       50
176
     1
 40
0.0
176
     1
 40
1.0
176
     1
 90
        0
176
     1
 62
    18
420
        0
176
     1
 90
       50
176
     1
 90
        3
176
     1
 62
     5
420
      255
176
     1
290
     0
176
     1
 90
       50
176
     1
 90
       50
176
     1
 90
       50
176
     1
290
     0
176
     1
 90
       50
176
     1
 62
   256
176
     0
 40
1.0
176
     0
 90
        2
176
     1
  1
strokes_ogs.tif
176
     1
290
     0
176
     1
 40
1.0
176
     1
 40
1.0
176
     1
  0
VISUALSTYLE
  5
35D
102
{ACAD_REACTORS
330
354
102
}
330
354
100
AcDbVisualStyle
  2
Conceptual
 70
     9
177
     3
291
     0
 70
    58
 90
        3
176
     1
 90
        2
176
     1
 90
        0
176
     1
 90
        0
176
     1
 40
0.6
176
     1
 40
30.0
176
     1
 62
     7
420
 16777215
176
     1
 90
        2
176
     1
 90
        2
176
     1
 62
     7
176
     1
 62
   257
176
     1
 90
        1
176
     1
 90
        1
176
     1
 40
179.0
176
     1
 90
        8
176
     1
 62
     7
176
     1
 40
1.0
176
     1
 90
        1
176
     1
 90
        6
176
     1
 90
        2
176
     1
 62
     7
176
     1
 90
        3
176
     1
 90
        0
176
     1
 90
        0
176
     1
290
     0
176
     1
 90
        1
176
     1
 40
0.0
176
     1
 90
        0
176
     1
290
     0
176
     1
290
     1
176
     1
290
     1
176
     1
290
     0
176
     1
290
     0
176
     1
290
     0
176
     1
290
     0
176
     1
290
     0
176
     1
290
     0
176
     1
 90
       50
176
     1
 40
0.0
176
     1
 40
1.0
176
     1
 90
        0
176
     1
 62
    18
420
        0
176
     1
 90
       50
176
     1
 90
        3
176
     1
 62
     5
420
      255
176
     1
290
     0
176
     1
 90
       50
176
     1
 90
       50
176
     1
 90
       50
176
     1
290
     0
176
     1
 90
       50
176
     1
 62
   256
176
     0
 40
1.0
176
     0
 90
        2
176
     1
  1
strokes_ogs.tif
176
     1
290
     0
176
     1
 40
1.0
176
     1
 40
1.0
176
     1
  0
VISUALSTYLE
  5
35F
102
{ACAD_REACTORS
330
354
102
}
330
354
100
AcDbVisualStyle
  2
Dim
 70
    11
177
     3
291
     1
 70
    58
 90
        2
176
     1
 90
        2
176
     1
 90
        0
176
     1
 90
        0
176
     1
 40
0.6
176
     1
 40
30.0
176
     1
 62
     7
420
 16777215
176
     1
 90
        1
176
     1
 90
        4
176
     1
 62
     7
176
     1
 62
   257
176
     1
 90
        1
176
     1
 90
        1
176
     1
 40
1.0
176
     1
 90
        8
176
     1
 62
     7
176
     1
 40
1.0
176
     1
 90
        1
176
     1
 90
        6
176
     1
 90
        2
176
     1
 62
     7
176
     1
 90
        5
176
     1
 90
        0
176
     1
 90
        0
176
     1
290
     0
176
     1
 90
        1
176
     1
 40
-50.0
176
     1
 90
        0
176
     1
290
     0
176
     1
290
     1
176
     1
290
     1
176
     1
290
     0
176
     1
290
     0
176
     1
290
     0
176
     1
290
     0
176
     1
290
     0
176
     1
290
     0
176
     1
 90
       50
176
     1
 40
0.0
176
     1
 40
1.0
176
     1
 90
        0
176
     1
 62
    18
420
        0
176
     1
 90
       50
176
     1
 90
        3
176
     1
 62
     5
420
      255
176
     1
290
     0
176
     1
 90
       50
176
     1
 90
       50
176
     1
 90
       50
176
     1
290
     0
176
     1
 90
       50
176
     1
 62
   256
176
     0
 40
1.0
176
     0
 90
        2
176
     1
  1
strokes_ogs.tif
176
     1
290
     0
176
     1
 40
1.0
176
     1
 40
1.0
176
     1
  0
VISUALSTYLE
  5
36C
102
{ACAD_REACTORS
330
354
102
}
330
354
100
AcDbVisualStyle
  2
EdgeColorOff
 70
    22
177
     3
291
     1
 70
    58
 90
        2
176
     0
 90
        2
176
     0
 90
        0
176
     0
 90
        0
176
     0
 40
0.6
176
     0
 40
30.0
176
     0
 62
     7
420
 16777215
176
     0
 90
        1
176
     0
 90
        4
176
     0
 62
     7
176
     0
 62
   257
176
     0
 90
        1
176
     0
 90
        1
176
     0
 40
1.0
176
     0
 90
        8
176
     2
 62
     7
176
     0
 40
1.0
176
     0
 90
        1
176
     0
 90
        6
176
     0
 90
        2
176
     0
 62
     7
176
     0
 90
        5
176
     0
 90
        0
176
     0
 90
        0
176
     0
290
     0
176
     0
 90
        1
176
     0
 40
0.0
176
     0
 90
        0
176
     0
290
     0
176
     1
290
     1
176
     1
290
     1
176
     1
290
     0
176
     1
290
     0
176
     1
290
     0
176
     1
290
     0
176
     1
290
     0
176
     1
290
     0
176
     1
 90
       50
176
     0
 40
0.0
176
     0
 40
1.0
176
     0
 90
        0
176
     0
 62
    18
420
        0
176
     0
 90
       50
176
     0
 90
        3
176
     0
 62
     5
420
      255
176
     0
290
     0
176
     1
 90
       50
176
     0
 90
       50
176
     0
 90
       50
176
     0
290
     0
176
     1
 90
       50
176
     0
 62
   256
176
     0
 40
1.0
176
     0
 90
        2
176
     0
  1
strokes_ogs.tif
176
     0
290
     0
176
     1
 40
1.0
176
     0
 40
1.0
176
     0
  0
VISUALSTYLE
  5
363
102
{ACAD_REACTORS
330
354
102
}
330
354
100
AcDbVisualStyle
  2
Facepattern
 70
    15
177
     3
291
     1
 70
    58
 90
        2
176
     1
 90
        2
176
     1
 90
        0
176
     1
 90
        0
176
     1
 40
0.6
176
     1
 40
30.0
176
     1
 62
     7
420
 16777215
176
     1
 90
        1
176
     1
 90
        4
176
     1
 62
     7
176
     1
 62
   257
176
     1
 90
        1
176
     1
 90
        1
176
     1
 40
1.0
176
     1
 90
        8
176
     1
 62
     7
176
     1
 40
1.0
176
     1
 90
        1
176
     1
 90
        6
176
     1
 90
        2
176
     1
 62
     7
176
     1
 90
        5
176
     1
 90
        0
176
     1
 90
        0
176
     1
290
     0
176
     1
 90
        1
176
     1
 40
0.0
176
     1
 90
        0
176
     1
290
     0
176
     1
290
     1
176
     1
290
     1
176
     1
290
     0
176
     1
290
     0
176
     1
290
     0
176
     1
290
     0
176
     1
290
     0
176
     1
290
     0
176
     1
 90
       50
176
     1
 40
0.0
176
     1
 40
1.0
176
     1
 90
        0
176
     1
 62
    18
420
        0
176
     1
 90
       50
176
     1
 90
        3
176
     1
 62
     5
420
      255
176
     1
290
     0
176
     1
 90
       50
176
     1
 90
       50
176
     1
 90
       50
176
     1
290
     0
176
     1
 90
       50
176
     1
 62
   256
176
     0
 40
1.0
176
     0
 90
        2
176
     1
  1
strokes_ogs.tif
176
     1
290
     0
176
     1
 40
1.0
176
     1
 40
1.0
176
     1
  0
VISUALSTYLE
  5
355
102
{ACAD_REACTORS
330
354
102
}
330
354
100
AcDbVisualStyle
  2
Flat
 70
     0
177
     3
291
     1
 70
    58
 90
        2
176
     1
 90
        1
176
     1
 90
        1
176
     1
 90
        2
176
     1
 40
0.6
176
     1
 40
30.0
176
     1
 62
     7
420
 16777215
176
     1
 90
        0
176
     1
 90
        0
176
     1
 62
     7
176
     1
 62
   257
176
     1
 90
        1
176
     1
 90
        1
176
     1
 40
1.0
176
     1
 90
        8
176
     1
 62
     7
176
     1
 40
1.0
176
     1
 90
        1
176
     1
 90
        6
176
     1
 90
        2
176
     1
 62
     7
176
     1
 90
        5
176
     1
 90
        0
176
     1
 90
        0
176
     1
290
     0
176
     1
 90
       13
176
     1
 40
0.0
176
     1
 90
        0
176
     1
290
     0
176
     1
290
     1
176
     1
290
     1
176
     1
290
     0
176
     1
290
     0
176
     1
290
     0
176
     1
290
     0
176
     1
290
     0
176
     1
290
     0
176
     1
 90
       50
176
     1
 40
0.0
176
     1
 40
1.0
176
     1
 90
        0
176
     1
 62
    18
420
        0
176
     1
 90
       50
176
     1
 90
        3
176
     1
 62
     5
420
      255
176
     1
290
     0
176
     1
 90
       50
176
     1
 90
       50
176
     1
 90
       50
176
     1
290
     0
176
     1
 90
       50
176
     1
 62
   256
176
     0
 40
1.0
176
     0
 90
        2
176
     1
  1
strokes_ogs.tif
176
     1
290
     0
176
     1
 40
1.0
176
     1
 40
1.0
176
     1
  0
VISUALSTYLE
  5
356
102
{ACAD_REACTORS
330
354
102
}
330
354
100
AcDbVisualStyle
  2
FlatWithEdges
 70
     1
177
     3
291
     1
 70
    58
 90
        2
176
     1
 90
        1
176
     1
 90
        1
176
     1
 90
        2
176
     1
 40
0.6
176
     1
 40
30.0
176
     1
 62
     7
420
 16777215
176
     1
 90
        1
176
     1
 90
        0
176
     1
 62
     7
176
     1
 62
   257
176
     1
 90
        1
176
     1
 90
        1
176
     1
 40
1.0
176
     1
 90
        0
176
     1
 62
   257
176
     1
 40
1.0
176
     1
 90
        1
176
     1
 90
        6
176
     1
 90
        2
176
     1
 62
     7
176
     1
 90
        5
176
     1
 90
        0
176
     1
 90
        0
176
     1
290
     0
176
     1
 90
       13
176
     1
 40
0.0
176
     1
 90
        0
176
     1
290
     0
176
     1
290
     1
176
     1
290
     1
176
     1
290
     0
176
     1
290
     0
176
     1
290
     0
176
     1
290
     0
176
     1
290
     0
176
     1
290
     0
176
     1
 90
       50
176
     1
 40
0.0
176
     1
 40
1.0
176
     1
 90
        0
176
     1
 62
    18
420
        0
176
     1
 90
       50
176
     1
 90
        3
176
     1
 62
     5
420
      255
176
     1
290
     0
176
     1
 90
       50
176
     1
 90
       50
176
     1
 90
       50
176
     1
290
     0
176
     1
 90
       50
176
     1
 62
   256
176
     0
 40
1.0
176
     0
 90
        2
176
     1
  1
strokes_ogs.tif
176
     1
290
     0
176
     1
 40
1.0
176
     1
 40
1.0
176
     1
  0
VISUALSTYLE
  5
357
102
{ACAD_REACTORS
330
354
102
}
330
354
100
AcDbVisualStyle
  2
Gouraud
 70
     2
177
     3
291
     1
 70
    58
 90
        2
176
     1
 90
        2
176
     1
 90
        1
176
     1
 90
        2
176
     1
 40
0.6
176
     1
 40
30.0
176
     1
 62
     7
420
 16777215
176
     1
 90
        0
176
     1
 90
        0
176
     1
 62
     7
176
     1
 62
   257
176
     1
 90
        1
176
     1
 90
        1
176
     1
 40
1.0
176
     1
 90
        0
176
     1
 62
     7
176
     1
 40
1.0
176
     1
 90
        1
176
     1
 90
        6
176
     1
 90
        2
176
     1
 62
     7
176
     1
 90
        5
176
     1
 90
        0
176
     1
 90
        0
176
     1
290
     0
176
     1
 90
       13
176
     1
 40
0.0
176
     1
 90
        0
176
     1
290
     0
176
     1
290
     1
176
     1
290
     1
176
     1
290
     0
176
     1
290
     0
176
     1
290
     0
176
     1
290
     0
176
     1
290
     0
176
     1
290
     0
176
     1
 90
       50
176
     1
 40
0.0
176
     1
 40
1.0
176
     1
 90
        0
176
     1
 62
    18
420
        0
176
     1
 90
       50
176
     1
 90
        3
176
     1
 62
     5
420
      255
176
     1
290
     0
176
     1
 90
       50
176
     1
 90
       50
176
     1
 90
       50
176
     1
290
     0
176
     1
 90
       50
176
     1
 62
   256
176
     0
 40
1.0
176
     0
 90
        2
176
     1
  1
strokes_ogs.tif
176
     1
290
     0
176
     1
 40
1.0
176
     1
 40
1.0
176
     1
  0
VISUALSTYLE
  5
358
102
{ACAD_REACTORS
330
354
102
}
330
354
100
AcDbVisualStyle
  2
GouraudWithEdges
 70
     3
177
     3
291
     1
 70
    58
 90
        2
176
     1
 90
        2
176
     1
 90
        1
176
     1
 90
        2
176
     1
 40
0.6
176
     1
 40
30.0
176
     1
 62
     7
420
 16777215
176
     1
 90
        1
176
     1
 90
        0
176
     1
 62
     7
176
     1
 62
   257
176
     1
 90
        1
176
     1
 90
        1
176
     1
 40
1.0
176
     1
 90
        0
176
     1
 62
   257
176
     1
 40
1.0
176
     1
 90
        1
176
     1
 90
        6
176
     1
 90
        2
176
     1
 62
     7
176
     1
 90
        5
176
     1
 90
        0
176
     1
 90
        0
176
     1
290
     0
176
     1
 90
       13
176
     1
 40
0.0
176
     1
 90
        0
176
     1
290
     0
176
     1
290
     1
176
     1
290
     1
176
     1
290
     0
176
     1
290
     0
176
     1
290
     0
176
     1
290
     0
176
     1
290
     0
176
     1
290
     0
176
     1
 90
       50
176
     1
 40
0.0
176
     1
 40
1.0
176
     1
 90
        0
176
     1
 62
    18
420
        0
176
     1
 90
       50
176
     1
 90
        3
176
     1
 62
     5
420
      255
176
     1
290
     0
176
     1
 90
       50
176
     1
 90
       50
176
     1
 90
       50
176
     1
290
     0
176
     1
 90
       50
176
     1
 62
   256
176
     0
 40
1.0
176
     0
 90
        2
176
     1
  1
strokes_ogs.tif
176
     1
290
     0
176
     1
 40
1.0
176
     1
 40
1.0
176
     1
  0
VISUALSTYLE
  5
35C
102
{ACAD_REACTORS
330
354
102
}
330
354
100
AcDbVisualStyle
  2
Hidden
 70
     6
177
     3
291
     0
 70
    58
 90
        1
176
     1
 90
        2
176
     1
 90
        2
176
     1
 90
        0
176
     1
 40
0.6
176
     1
 40
30.0
176
     1
 62
     7
420
 16777215
176
     1
 90
        2
176
     1
 90
        2
176
     1
 62
     7
176
     1
 62
   257
176
     1
 90
        2
176
     1
 90
        1
176
     1
 40
40.0
176
     1
 90
        0
176
     1
 62
   257
176
     1
 40
1.0
176
     1
 90
        1
176
     1
 90
        6
176
     1
 90
        2
176
     1
 62
     7
176
     1
 90
        3
176
     1
 90
        0
176
     1
 90
        0
176
     1
290
     0
176
     1
 90
        1
176
     1
 40
0.0
176
     1
 90
        0
176
     1
290
     0
176
     1
290
     1
176
     1
290
     1
176
     1
290
     0
176
     1
290
     0
176
     1
290
     0
176
     1
290
     0
176
     1
290
     0
176
     1
290
     0
176
     1
 90
       50
176
     1
 40
0.0
176
     1
 40
1.0
176
     1
 90
        0
176
     1
 62
    18
420
        0
176
     1
 90
       50
176
     1
 90
        3
176
     1
 62
     5
420
      255
176
     1
290
     0
176
     1
 90
       50
176
     1
 90
       50
176
     1
 90
       50
176
     1
290
     0
176
     1
 90
       50
176
     1
 62
   256
176
     0
 40
1.0
176
     0
 90
        2
176
     1
  1
strokes_ogs.tif
176
     1
290
     0
176
     1
 40
1.0
176
     1
 40
1.0
176
     1
  0
VISUALSTYLE
  5
36A
102
{ACAD_REACTORS
330
354
102
}
330
354
100
AcDbVisualStyle
  2
JitterOff
 70
    20
177
     3
291
     1
 70
    58
 90
        2
176
     0
 90
        2
176
     0
 90
        0
176
     0
 90
        0
176
     0
 40
0.6
176
     0
 40
30.0
176
     0
 62
     7
420
 16777215
176
     0
 90
        1
176
     0
 90
        4
176
     0
 62
     7
176
     0
 62
   257
176
     0
 90
        1
176
     0
 90
        1
176
     0
 40
1.0
176
     0
 90
       10
176
     2
 62
     7
176
     0
 40
1.0
176
     0
 90
        1
176
     0
 90
        6
176
     0
 90
        2
176
     0
 62
     7
176
     0
 90
        5
176
     0
 90
        0
176
     0
 90
        0
176
     0
290
     0
176
     0
 90
        1
176
     0
 40
0.0
176
     0
 90
        0
176
     0
290
     0
176
     1
290
     1
176
     1
290
     1
176
     1
290
     0
176
     1
290
     0
176
     1
290
     0
176
     1
290
     0
176
     1
290
     0
176
     1
290
     0
176
     1
 90
       50
176
     0
 40
0.0
176
     0
 40
1.0
176
     0
 90
        0
176
     0
 62
    18
420
        0
176
     0
 90
       50
176
     0
 90
        3
176
     0
 62
     5
420
      255
176
     0
290
     0
176
     1
 90
       50
176
     0
 90
       50
176
     0
 90
       50
176
     0
290
     0
176
     1
 90
       50
176
     0
 62
   256
176
     0
 40
1.0
176
     0
 90
        2
176
     0
  1
strokes_ogs.tif
176
     0
290
     0
176
     1
 40
1.0
176
     0
 40
1.0
176
     0
  0
VISUALSTYLE
  5
362
102
{ACAD_REACTORS
330
354
102
}
330
354
100
AcDbVisualStyle
  2
Linepattern
 70
    14
177
     3
291
     1
 70
    58
 90
        2
176
     1
 90
        2
176
     1
 90
        0
176
     1
 90
        0
176
     1
 40
0.6
176
     1
 40
30.0
176
     1
 62
     7
420
 16777215
176
     1
 90
        1
176
     1
 90
        4
176
     1
 62
     7
176
     1
 62
   257
176
     1
 90
        7
176
     1
 90
        7
176
     1
 40
1.0
176
     1
 90
        8
176
     1
 62
     7
176
     1
 40
1.0
176
     1
 90
        1
176
     1
 90
        6
176
     1
 90
        2
176
     1
 62
     7
176
     1
 90
        5
176
     1
 90
        0
176
     1
 90
        0
176
     1
290
     0
176
     1
 90
        1
176
     1
 40
0.0
176
     1
 90
        0
176
     1
290
     0
176
     1
290
     1
176
     1
290
     1
176
     1
290
     0
176
     1
290
     0
176
     1
290
     0
176
     1
290
     0
176
     1
290
     0
176
     1
290
     0
176
     1
 90
       50
176
     1
 40
0.0
176
     1
 40
1.0
176
     1
 90
        0
176
     1
 62
    18
420
        0
176
     1
 90
       50
176
     1
 90
        3
176
     1
 62
     5
420
      255
176
     1
290
     0
176
     1
 90
       50
176
     1
 90
       50
176
     1
 90
       50
176
     1
290
     0
176
     1
 90
       50
176
     1
 62
   256
176
     0
 40
1.0
176
     0
 90
        2
176
     1
  1
strokes_ogs.tif
176
     1
290
     0
176
     1
 40
1.0
176
     1
 40
1.0
176
     1
  0
VISUALSTYLE
  5
36B
102
{ACAD_REACTORS
330
354
102
}
330
354
100
AcDbVisualStyle
  2
OverhangOff
 70
    21
177
     3
291
     1
 70
    58
 90
        2
176
     0
 90
        2
176
     0
 90
        0
176
     0
 90
        0
176
     0
 40
0.6
176
     0
 40
30.0
176
     0
 62
     7
420
 16777215
176
     0
 90
        1
176
     0
 90
        4
176
     0
 62
     7
176
     0
 62
   257
176
     0
 90
        1
176
     0
 90
        1
176
     0
 40
1.0
176
     0
 90
        9
176
     2
 62
     7
176
     0
 40
1.0
176
     0
 90
        1
176
     0
 90
        6
176
     0
 90
        2
176
     0
 62
     7
176
     0
 90
        5
176
     0
 90
        0
176
     0
 90
        0
176
     0
290
     0
176
     0
 90
        1
176
     0
 40
0.0
176
     0
 90
        0
176
     0
290
     0
176
     1
290
     1
176
     1
290
     1
176
     1
290
     0
176
     1
290
     0
176
     1
290
     0
176
     1
290
     0
176
     1
290
     0
176
     1
290
     0
176
     1
 90
       50
176
     0
 40
0.0
176
     0
 40
1.0
176
     0
 90
        0
176
     0
 62
    18
420
        0
176
     0
 90
       50
176
     0
 90
        3
176
     0
 62
     5
420
      255
176
     0
290
     0
176
     1
 90
       50
176
     0
 90
       50
176
     0
 90
       50
176
     0
290
     0
176
     1
 90
       50
176
     0
 62
   256
176
     0
 40
1.0
176
     0
 90
        2
176
     0
  1
strokes_ogs.tif
176
     0
290
     0
176
     1
 40
1.0
176
     0
 40
1.0
176
     0
  0
VISUALSTYLE
  5
35E
102
{ACAD_REACTORS
330
354
102
}
330
354
100
AcDbVisualStyle
  2
Realistic
 70
     8
177
     3
291
     0
 70
    58
 90
        2
176
     1
 90
        3
176
     1
 90
        0
176
     1
 90
        2
176
     1
 40
0.6
176
     1
 40
30.0
176
     1
 62
     7
420
 16777215
176
     1
 90
        0
176
     1
 90
        0
176
     1
 62
     7
176
     1
 62
   257
176
     1
 90
        1
176
     1
 90
        1
176
     1
 40
1.0
176
     1
 90
        8
176
     1
 62
   257
176
     1
 40
1.0
176
     1
 90
        1
176
     1
 90
        6
176
     1
 90
        2
176
     1
 62
     7
176
     1
 90
        3
176
     1
 90
        0
176
     1
 90
        0
176
     1
290
     0
176
     1
 90
       13
176
     1
 40
0.0
176
     1
 90
        0
176
     1
290
     0
176
     1
290
     1
176
     1
290
     1
176
     1
290
     0
176
     1
290
     0
176
     1
290
     0
176
     1
290
     0
176
     1
290
     0
176
     1
290
     0
176
     1
 90
       50
176
     1
 40
0.0
176
     1
 40
1.0
176
     1
 90
        0
176
     1
 62
    18
420
        0
176
     1
 90
       50
176
     1
 90
        3
176
     1
 62
     5
420
      255
176
     1
290
     0
176
     1
 90
       50
176
     1
 90
       50
176
     1
 90
       50
176
     1
290
     0
176
     1
 90
       50
176
     1
 62
   256
176
     0
 40
1.0
176
     0
 90
        2
176
     1
  1
strokes_ogs.tif
176
     1
290
     0
176
     1
 40
1.0
176
     1
 40
1.0
176
     1
  0
VISUALSTYLE
  5
369
102
{ACAD_REACTORS
330
354
102
}
330
354
100
AcDbVisualStyle
  2
Shaded
 70
    27
177
     3
291
     0
 70
    58
 90
        2
176
     1
 90
        2
176
     1
 90
        1
176
     1
 90
        2
176
     1
 40
0.6
176
     1
 40
30.0
176
     1
 62
     7
420
 16777215
176
     1
 90
        0
176
     1
 90
        4
176
     1
 62
     7
176
     1
 62
   257
176
     1
 90
        1
176
     1
 90
        1
176
     1
 40
1.0
176
     1
 90
        8
176
     1
 62
   257
176
     1
 40
1.0
176
     1
 90
        1
176
     1
 90
        6
176
     1
 90
        2
176
     1
 62
     8
420
  7895160
176
     1
 90
        3
176
     1
 90
        0
176
     1
 90
        0
176
     1
290
     0
176
     1
 90
        5
176
     1
 40
0.0
176
     1
 90
        0
176
     1
290
     0
176
     1
290
     1
176
     1
290
     1
176
     1
290
     0
176
     1
290
     0
176
     1
290
     0
176
     1
290
     0
176
     1
290
     0
176
     1
290
     0
176
     1
 90
       50
176
     1
 40
0.0
176
     1
 40
1.0
176
     1
 90
        0
176
     1
 62
    18
420
        0
176
     1
 90
       50
176
     1
 90
        3
176
     1
 62
     5
420
      255
176
     1
290
     0
176
     1
 90
       50
176
     1
 90
       50
176
     1
 90
       50
176
     1
290
     0
176
     1
 90
       50
176
     1
 62
   256
176
     0
 40
1.0
176
     0
 90
        2
176
     1
  1
strokes_ogs.tif
176
     1
290
     0
176
     1
 40
1.0
176
     1
 40
1.0
176
     1
  0
VISUALSTYLE
  5
368
102
{ACAD_REACTORS
330
354
102
}
330
354
100
AcDbVisualStyle
  2
Shaded with edges
 70
    26
177
     3
291
     0
 70
    58
 90
        2
176
     1
 90
        2
176
     1
 90
        1
176
     1
 90
        2
176
     1
 40
0.6
176
     1
 40
30.0
176
     1
 62
     7
420
 16777215
176
     1
 90
        1
176
     1
 90
        2
176
     1
 62
     7
176
     1
 62
   257
176
     1
 90
        2
176
     1
 90
        1
176
     1
 40
1.0
176
     1
 90
        8
176
     1
 62
   257
176
     1
 40
1.0
176
     1
 90
        1
176
     1
 90
        6
176
     1
 90
        2
176
     1
 62
     7
176
     1
 90
        3
176
     1
 90
        0
176
     1
 90
        0
176
     1
290
     0
176
     1
 90
        5
176
     1
 40
0.0
176
     1
 90
        0
176
     1
290
     0
176
     1
290
     1
176
     1
290
     1
176
     1
290
     0
176
     1
290
     0
176
     1
290
     0
176
     1
290
     0
176
     1
290
     0
176
     1
290
     0
176
     1
 90
       50
176
     1
 40
0.0
176
     1
 40
1.0
176
     1
 90
        0
176
     1
 62
    18
420
        0
176
     1
 90
       50
176
     1
 90
        3
176
     1
 62
     5
420
      255
176
     1
290
     0
176
     1
 90
       50
176
     1
 90
       50
176
     1
 90
       50
176
     1
290
     0
176
     1
 90
       50
176
     1
 62
   256
176
     0
 40
1.0
176
     0
 90
        2
176
     1
  1
strokes_ogs.tif
176
     1
290
     0
176
     1
 40
1.0
176
     1
 40
1.0
176
     1
  0
VISUALSTYLE
  5
365
102
{ACAD_REACTORS
330
354
102
}
330
354
100
AcDbVisualStyle
  2
Shades of Gray
 70
    23
177
     3
291
     0
 70
    58
 90
        2
176
     1
 90
        2
176
     1
 90
        3
176
     1
 90
        0
176
     1
 40
0.6
176
     1
 40
30.0
176
     1
 62
     7
420
 16777215
176
     1
 90
        2
176
     1
 90
        2
176
     1
 62
     7
176
     1
 62
     7
176
     1
 90
        1
176
     1
 90
        1
176
     1
 40
40.0
176
     1
 90
        8
176
     1
 62
     7
176
     1
 40
1.0
176
     1
 90
        1
176
     1
 90
        6
176
     1
 90
        2
176
     1
 62
     7
176
     1
 90
        3
176
     1
 90
        0
176
     1
 90
        0
176
     1
290
     0
176
     1
 90
        1
176
     1
 40
0.0
176
     1
 90
        0
176
     1
290
     0
176
     1
290
     1
176
     1
290
     1
176
     1
290
     0
176
     1
290
     0
176
     1
290
     0
176
     1
290
     0
176
     1
290
     0
176
     1
290
     0
176
     1
 90
       50
176
     1
 40
0.0
176
     1
 40
1.0
176
     1
 90
        0
176
     1
 62
    18
420
        0
176
     1
 90
       50
176
     1
 90
        3
176
     1
 62
     5
420
      255
176
     1
290
     0
176
     1
 90
       50
176
     1
 90
       50
176
     1
 90
       50
176
     1
290
     0
176
     1
 90
       50
176
     1
 62
   256
176
     0
 40
1.0
176
     0
 90
        2
176
     1
  1
strokes_ogs.tif
176
     1
290
     0
176
     1
 40
1.0
176
     1
 40
1.0
176
     1
  0
VISUALSTYLE
  5
366
102
{ACAD_REACTORS
330
354
102
}
330
354
100
AcDbVisualStyle
  2
Sketchy
 70
    24
177
     3
291
     0
 70
    58
 90
        1
176
     1
 90
        2
176
     1
 90
        2
176
     1
 90
        0
176
     1
 40
0.6
176
     1
 40
30.0
176
     1
 62
     7
420
 16777215
176
     1
 90
        2
176
     1
 90
        2
176
     1
 62
     7
176
     1
 62
     7
176
     1
 90
        1
176
     1
 90
        1
176
     1
 40
40.0
176
     1
 90
       11
176
     1
 62
     7
176
     1
 40
1.0
176
     1
 90
        1
176
     1
 90
        6
176
     1
 90
        2
176
     1
 62
     7
176
     1
 90
        6
176
     1
 90
        0
176
     1
 90
        0
176
     1
290
     0
176
     1
 90
        1
176
     1
 40
0.0
176
     1
 90
        0
176
     1
290
     0
176
     1
290
     1
176
     1
290
     1
176
     1
290
     0
176
     1
290
     0
176
     1
290
     0
176
     1
290
     0
176
     1
290
     0
176
     1
290
     0
176
     1
 90
       50
176
     1
 40
0.0
176
     1
 40
1.0
176
     1
 90
        0
176
     1
 62
    18
420
        0
176
     1
 90
       50
176
     1
 90
        3
176
     1
 62
     5
420
      255
176
     1
290
     0
176
     1
 90
       50
176
     1
 90
       50
176
     1
 90
       50
176
     1
290
     0
176
     1
 90
       50
176
     1
 62
   256
176
     0
 40
1.0
176
     0
 90
        2
176
     1
  1
strokes_ogs.tif
176
     1
290
     0
176
     1
 40
1.0
176
     1
 40
1.0
176
     1
  0
VISUALSTYLE
  5
361
102
{ACAD_REACTORS
330
354
102
}
330
354
100
AcDbVisualStyle
  2
Thicken
 70
    13
177
     3
291
     1
 70
    58
 90
        2
176
     1
 90
        2
176
     1
 90
        0
176
     1
 90
        0
176
     1
 40
0.6
176
     1
 40
30.0
176
     1
 62
     7
420
 16777215
176
     1
 90
        1
176
     1
 90
        4
176
     1
 62
     7
176
     1
 62
   257
176
     1
 90
        1
176
     1
 90
        1
176
     1
 40
1.0
176
     1
 90
       12
176
     1
 62
     7
176
     1
 40
1.0
176
     1
 90
        1
176
     1
 90
        6
176
     1
 90
        2
176
     1
 62
     7
176
     1
 90
        5
176
     1
 90
        0
176
     1
 90
        0
176
     1
290
     0
176
     1
 90
        1
176
     1
 40
0.0
176
     1
 90
        0
176
     1
290
     0
176
     1
290
     1
176
     1
290
     1
176
     1
290
     0
176
     1
290
     0
176
     1
290
     0
176
     1
290
     0
176
     1
290
     0
176
     1
290
     0
176
     1
 90
       50
176
     1
 40
0.0
176
     1
 40
1.0
176
     1
 90
        0
176
     1
 62
    18
420
        0
176
     1
 90
       50
176
     1
 90
        3
176
     1
 62
     5
420
      255
176
     1
290
     0
176
     1
 90
       50
176
     1
 90
       50
176
     1
 90
       50
176
     1
290
     0
176
     1
 90
       50
176
     1
 62
   256
176
     0
 40
1.0
176
     0
 90
        2
176
     1
  1
strokes_ogs.tif
176
     1
290
     0
176
     1
 40
1.0
176
     1
 40
1.0
176
     1
  0
VISUALSTYLE
  5
35B
102
{ACAD_REACTORS
330
354
102
}
330
354
100
AcDbVisualStyle
  2
Wireframe
 70
     5
177
     3
291
     0
 70
    58
 90
        0
176
     1
 90
        2
176
     1
 90
        0
176
     1
 90
        0
176
     1
 40
0.6
176
     1
 40
30.0
176
     1
 62
     7
420
 16777215
176
     1
 90
        1
176
     1
 90
        4
176
     1
 62
     7
176
     1
 62
   257
176
     1
 90
        1
176
     1
 90
        1
176
     1
 40
1.0
176
     1
 90
        0
176
     1
 62
   257
176
     1
 40
1.0
176
     1
 90
        1
176
     1
 90
        6
176
     1
 90
        2
176
     1
 62
     7
176
     1
 90
        3
176
     1
 90
        0
176
     1
 90
        0
176
     1
290
     0
176
     1
 90
        1
176
     1
 40
0.0
176
     1
 90
        0
176
     1
290
     0
176
     1
290
     1
176
     1
290
     1
176
     1
290
     0
176
     1
290
     0
176
     1
290
     0
176
     1
290
     0
176
     1
290
     0
176
     1
290
     0
176
     1
 90
       50
176
     1
 40
0.0
176
     1
 40
1.0
176
     1
 90
        0
176
     1
 62
    18
420
        0
176
     1
 90
       50
176
     1
 90
        3
176
     1
 62
     5
420
      255
176
     1
290
     0
176
     1
 90
       50
176
     1
 90
       50
176
     1
 90
       50
176
     1
290
     0
176
     1
 90
       50
176
     1
 62
   256
176
     0
 40
1.0
176
     0
 90
        2
176
     1
  1
strokes_ogs.tif
176
     1
290
     0
176
     1
 40
1.0
176
     1
 40
1.0
176
     1
  0
VISUALSTYLE
  5
367
102
{ACAD_REACTORS
330
354
102
}
330
354
100
AcDbVisualStyle
  2
X-Ray
 70
    25
177
     3
291
     0
 70
    58
 90
        2
176
     1
 90
        2
176
     1
 90
        1
176
     1
 90
        1
176
     1
 40
0.5
176
     1
 40
30.0
176
     1
 62
     7
420
 16777215
176
     1
 90
        1
176
     1
 90
        0
176
     1
 62
     7
176
     1
 62
   257
176
     1
 90
        1
176
     1
 90
        1
176
     1
 40
1.0
176
     1
 90
        8
176
     1
 62
     7
176
     1
 40
1.0
176
     1
 90
        1
176
     1
 90
        6
176
     1
 90
        2
176
     1
 62
     7
176
     1
 90
        3
176
     1
 90
        0
176
     1
 90
        0
176
     1
290
     0
176
     1
 90
       13
176
     1
 40
0.0
176
     1
 90
        0
176
     1
290
     0
176
     1
290
     1
176
     1
290
     1
176
     1
290
     0
176
     1
290
     0
176
     1
290
     0
176
     1
290
     0
176
     1
290
     0
176
     1
290
     0
176
     1
 90
       50
176
     1
 40
0.0
176
     1
 40
1.0
176
     1
 90
        0
176
     1
 62
    18
420
        0
176
     1
 90
       50
176
     1
 90
        3
176
     1
 62
     5
420
      255
176
     1
290
     0
176
     1
 90
       50
176
     1
 90
       50
176
     1
 90
       50
176
     1
290
     0
176
     1
 90
       50
176
     1
 62
   256
176
     0
 40
1.0
176
     0
 90
        2
176
     1
  1
strokes_ogs.tif
176
     1
290
     0
176
     1
 40
1.0
176
     1
 40
1.0
176
     1
  0
DICTIONARYVAR
  5
472
102
{ACAD_REACTORS
330
46C
102
}
330
46C
100
DictionaryVariables
280
     0
  1
1:1
  0
DICTIONARYVAR
  5
46E
102
{ACAD_REACTORS
330
46C
102
}
330
46C
100
DictionaryVariables
280
     0
  1
STANDARD
  0
DICTIONARYVAR
  5
46D
102
{ACAD_REACTORS
330
46C
102
}
330
46C
100
DictionaryVariables
280
     0
  1
STANDARD
  0
DICTIONARYVAR
  5
46F
102
{ACAD_REACTORS
330
46C
102
}
330
46C
100
DictionaryVariables
280
     0
  1
Metric50
  0
DICTIONARYVAR
  5
470
102
{ACAD_REACTORS
330
46C
102
}
330
46C
100
DictionaryVariables
280
     0
  1
Metric50
  0
DICTIONARYVAR
  5
474
102
{ACAD_REACTORS
330
46C
102
}
330
46C
100
DictionaryVariables
280
     0
  1
1
  0
DICTIONARYVAR
  5
475
102
{ACAD_REACTORS
330
46C
102
}
330
46C
100
DictionaryVariables
280
     0
  1
15
  0
DICTIONARYVAR
  5
473
102
{ACAD_REACTORS
330
46C
102
}
330
46C
100
DictionaryVariables
280
     0
  1
0
  0
DICTIONARYVAR
  5
471
102
{ACAD_REACTORS
330
46C
102
}
330
46C
100
DictionaryVariables
280
     0
  1
0
  0
DICTIONARY
  5
43F
102
{ACAD_REACTORS
330
43E
102
}
330
43E
100
AcDbDictionary
281
     1
  3
*A1
350
440
  0
DICTIONARY
  5
431
102
{ACAD_REACTORS
330
430
102
}
330
430
100
AcDbDictionary
281
     1
  3
*A1
350
432
  0
DICTIONARY
  5
423
102
{ACAD_REACTORS
330
422
102
}
330
422
100
AcDbDictionary
281
     1
  3
*A1
350
424
  0
DICTIONARY
  5
44D
102
{ACAD_REACTORS
330
44C
102
}
330
44C
100
AcDbDictionary
281
     1
  3
*A1
350
44E
  0
DICTIONARY
  5
3C8
102
{ACAD_REACTORS
330
3C7
102
}
330
3C7
100
AcDbDictionary
281
     1
  3
*A1
350
3C9
  0
DICTIONARY
  5
3CD
102
{ACAD_REACTORS
330
3CC
102
}
330
3CC
100
AcDbDictionary
281
     1
  3
*A1
350
3CE
  0
DICTIONARY
  5
3D2
102
{ACAD_REACTORS
330
3D1
102
}
330
3D1
100
AcDbDictionary
281
     1
  3
*A1
350
3D3
  0
DICTIONARY
  5
3D7
102
{ACAD_REACTORS
330
3D6
102
}
330
3D6
100
AcDbDictionary
281
     1
  3
*A1
350
3D8
  0
DICTIONARY
  5
345
330
344
100
AcDbDictionary
280
     1
281
     1
  3
BUMPTILE
360
347
  3
DIFFUSETILE
360
346
  3
OPACITYTILE
360
34A
  3
REFLECTIONTILE
360
349
  3
REFRACTIONTILE
360
34B
  3
SPECULARTILE
360
348
  0
DICTIONARY
  5
33D
330
33C
100
AcDbDictionary
280
     1
281
     1
  3
BUMPTILE
360
33F
  3
DIFFUSETILE
360
33E
  3
OPACITYTILE
360
342
  3
REFLECTIONTILE
360
341
  3
REFRACTIONTILE
360
343
  3
SPECULARTILE
360
340
  0
DICTIONARY
  5
34D
330
34C
100
AcDbDictionary
280
     1
281
     1
  3
BUMPTILE
360
34F
  3
DIFFUSETILE
360
34E
  3
OPACITYTILE
360
352
  3
REFLECTIONTILE
360
351
  3
REFRACTIONTILE
360
353
  3
SPECULARTILE
360
350
  0
DICTIONARY
  5
487
330
36F
100
AcDbDictionary
280
     1
281
     1
  3
ACAD_ROUNDTRIP_2008_TABLESTYLE_CELLSTYLEMAP
360
488
  0
ACDB_ALDIMOBJECTCONTEXTDATA_CLASS
  5
440
102
{ACAD_REACTORS
330
43F
102
}
330
43F
100
AcDbObjectContextData
 70
     4
290
     1
100
AcDbAnnotScaleObjectContextData
340
48
100
AcDbDimensionObjectContextData
  2
*D18
293
     0
 10
143.4607188823
 20
7.792552481780148
294
     0
140
0.0
298
     0
291
     0
 70
     0
292
     0
 71
     0
280
     0
295
     0
296
     0
297
     0
100
AcDbAlignedDimensionObjectContextData
 11
40.6906953283
 21
7.792552481780148
 31
0.0
  0
ACDB_ALDIMOBJECTCONTEXTDATA_CLASS
  5
432
102
{ACAD_REACTORS
330
431
102
}
330
431
100
AcDbObjectContextData
 70
     4
290
     1
100
AcDbAnnotScaleObjectContextData
340
48
100
AcDbDimensionObjectContextData
  2
*D17
293
     0
 10
269.7892977315
 20
116.0536173813
294
     0
140
0.0
298
     0
291
     0
 70
     0
292
     0
 71
     0
280
     0
295
     0
296
     0
297
     0
100
AcDbAlignedDimensionObjectContextData
 11
269.7892977315
 21
132.5916090691
 31
0.0
  0
ACDB_ALDIMOBJECTCONTEXTDATA_CLASS
  5
424
102
{ACAD_REACTORS
330
423
102
}
330
423
100
AcDbObjectContextData
 70
     4
290
     1
100
AcDbAnnotScaleObjectContextData
340
48
100
AcDbDimensionObjectContextData
  2
*D16
293
     0
 10
351.71060060085
 20
152.3916090691
294
     0
140
0.0
298
     0
291
     0
 70
     0
292
     0
 71
     0
280
     0
295
     0
296
     0
297
     0
100
AcDbAlignedDimensionObjectContextData
 11
364.4105918434
 21
152.3916090691
 31
0.0
  0
ACDB_ALDIMOBJECTCONTEXTDATA_CLASS
  5
44E
102
{ACAD_REACTORS
330
44D
102
}
330
44D
100
AcDbObjectContextData
 70
     4
290
     1
100
AcDbAnnotScaleObjectContextData
340
48
100
AcDbDimensionObjectContextData
  2
*D19
293
     0
 10
22.289483807
 20
219.668062911
294
     0
140
0.0
298
     0
291
     0
 70
     0
292
     0
 71
     0
280
     0
295
     0
296
     0
297
     0
100
AcDbAlignedDimensionObjectContextData
 11
22.28948380699995
 21
191.4293553550001
 31
0.0
  0
ACDB_ALDIMOBJECTCONTEXTDATA_CLASS
  5
3C9
102
{ACAD_REACTORS
330
3C8
102
}
330
3C8
100
AcDbObjectContextData
 70
     4
290
     1
100
AcDbAnnotScaleObjectContextData
340
48
100
AcDbDimensionObjectContextData
  2
*D12
293
     0
 10
1.357361994966666
 20
106.8013288007
294
     0
140
0.0
298
     0
291
     0
 70
     0
292
     0
 71
     0
280
     0
295
     0
296
     0
297
     0
100
AcDbAlignedDimensionObjectContextData
 11
1.35736199496663
 21
136.3916090691
 31
0.0
  0
ACDB_ALDIMOBJECTCONTEXTDATA_CLASS
  5
3CE
102
{ACAD_REACTORS
330
3CD
102
}
330
3CD
100
AcDbObjectContextData
 70
     4
290
     1
100
AcDbAnnotScaleObjectContextData
340
48
100
AcDbDimensionObjectContextData
  2
*D13
293
     0
 10
28.52402866163334
 20
285.1359729796795
294
     1
140
0.0
298
     0
291
     0
 70
     0
292
     0
 71
     0
280
     0
295
     0
296
     0
297
     0
100
AcDbAlignedDimensionObjectContextData
 11
40.6906953283
 21
277.1359729796795
 31
0.0
  0
ACDB_ALDIMOBJECTCONTEXTDATA_CLASS
  5
3D3
102
{ACAD_REACTORS
330
3D2
102
}
330
3D2
100
AcDbObjectContextData
 70
     4
290
     1
100
AcDbAnnotScaleObjectContextData
340
48
100
AcDbDimensionObjectContextData
  2
*D14
293
     0
 10
63.63972562109999
 20
23.65899610368281
294
     1
140
0.0
298
     0
291
     0
 70
     0
292
     0
 71
     0
280
     0
295
     0
296
     0
297
     0
100
AcDbAlignedDimensionObjectContextData
 11
40.6906953283
 21
31.6589961036828
 31
0.0
  0
ACDB_ALDIMOBJECTCONTEXTDATA_CLASS
  5
3D8
102
{ACAD_REACTORS
330
3D7
102
}
330
3D7
100
AcDbObjectContextData
 70
     4
290
     1
100
AcDbAnnotScaleObjectContextData
340
48
100
AcDbDimensionObjectContextData
  2
*D15
293
     0
 10
29.22573239051155
 20
96.67126935318261
294
     0
140
0.0
298
     0
291
     0
 70
     0
292
     0
 71
     0
280
     0
295
     0
296
     0
297
     0
100
AcDbAlignedDimensionObjectContextData
 11
29.22573239051153
 21
73.46050291419486
 31
0.0
  0
XRECORD
  5
347
102
{ACAD_REACTORS
330
345
102
}
330
345
100
AcDbXrecord
280
     1
270
     1
271
     1
  0
XRECORD
  5
346
102
{ACAD_REACTORS
330
345
102
}
330
345
100
AcDbXrecord
280
     1
270
     1
271
     1
  0
XRECORD
  5
34A
102
{ACAD_REACTORS
330
345
102
}
330
345
100
AcDbXrecord
280
     1
270
     1
271
     1
  0
XRECORD
  5
349
102
{ACAD_REACTORS
330
345
102
}
330
345
100
AcDbXrecord
280
     1
270
     1
271
     1
  0
XRECORD
  5
34B
102
{ACAD_REACTORS
330
345
102
}
330
345
100
AcDbXrecord
280
     1
270
     1
271
     1
  0
XRECORD
  5
348
102
{ACAD_REACTORS
330
345
102
}
330
345
100
AcDbXrecord
280
     1
270
     1
271
     1
  0
XRECORD
  5
33F
102
{ACAD_REACTORS
330
33D
102
}
330
33D
100
AcDbXrecord
280
     1
270
     1
271
     1
  0
XRECORD
  5
33E
102
{ACAD_REACTORS
330
33D
102
}
330
33D
100
AcDbXrecord
280
     1
270
     1
271
     1
  0
XRECORD
  5
342
102
{ACAD_REACTORS
330
33D
102
}
330
33D
100
AcDbXrecord
280
     1
270
     1
271
     1
  0
XRECORD
  5
341
102
{ACAD_REACTORS
330
33D
102
}
330
33D
100
AcDbXrecord
280
     1
270
     1
271
     1
  0
XRECORD
  5
343
102
{ACAD_REACTORS
330
33D
102
}
330
33D
100
AcDbXrecord
280
     1
270
     1
271
     1
  0
XRECORD
  5
340
102
{ACAD_REACTORS
330
33D
102
}
330
33D
100
AcDbXrecord
280
     1
270
     1
271
     1
  0
XRECORD
  5
34F
102
{ACAD_REACTORS
330
34D
102
}
330
34D
100
AcDbXrecord
280
     1
270
     1
271
     1
  0
XRECORD
  5
34E
102
{ACAD_REACTORS
330
34D
102
}
330
34D
100
AcDbXrecord
280
     1
270
     1
271
     1
  0
XRECORD
  5
352
102
{ACAD_REACTORS
330
34D
102
}
330
34D
100
AcDbXrecord
280
     1
270
     1
271
     1
  0
XRECORD
  5
351
102
{ACAD_REACTORS
330
34D
102
}
330
34D
100
AcDbXrecord
280
     1
270
     1
271
     1
  0
XRECORD
  5
353
102
{ACAD_REACTORS
330
34D
102
}
330
34D
100
AcDbXrecord
280
     1
270
     1
271
     1
  0
XRECORD
  5
350
102
{ACAD_REACTORS
330
34D
102
}
330
34D
100
AcDbXrecord
280
     1
270
     1
271
     1
  0
CELLSTYLEMAP
  5
488
102
{ACAD_REACTORS
330
487
102
}
330
487
100
AcDbCellStyleMap
 90
        3
300
CELLSTYLE
  1
TABLEFORMAT_BEGIN
 90
        5
170
     1
 91
        0
 92
    32768
 62
   257
 93
        1
300
CONTENTFORMAT
  1
CONTENTFORMAT_BEGIN
 90
        0
 91
        0
 92
      512
 93
        0
300

 40
0.0
140
1.0
 94
        5
 62
     0
340
11
144
6.0
309
CONTENTFORMAT_END
171
     1
301
MARGIN
  1
CELLMARGIN_BEGIN
 40
1.5
 40
1.5
 40
1.5
 40
1.5
 40
4.5
 40
4.5
309
CELLMARGIN_END
 94
        6
 95
        1
302
GRIDFORMAT
  1
GRIDFORMAT_BEGIN
 90
        0
 91
        1
 62
     0
 92
       -2
340
0
 93
        0
 40
1.125
309
GRIDFORMAT_END
 95
        2
302
GRIDFORMAT
  1
GRIDFORMAT_BEGIN
 90
        0
 91
        1
 62
     0
 92
       -2
340
0
 93
        0
 40
1.125
309
GRIDFORMAT_END
 95
        4
302
GRIDFORMAT
  1
GRIDFORMAT_BEGIN
 90
        0
 91
        1
 62
     0
 92
       -2
340
0
 93
        0
 40
1.125
309
GRIDFORMAT_END
 95
        8
302
GRIDFORMAT
  1
GRIDFORMAT_BEGIN
 90
        0
 91
        1
 62
     0
 92
       -2
340
0
 93
        0
 40
1.125
309
GRIDFORMAT_END
 95
       16
302
GRIDFORMAT
  1
GRIDFORMAT_BEGIN
 90
        0
 91
        1
 62
     0
 92
       -2
340
0
 93
        0
 40
1.125
309
GRIDFORMAT_END
 95
       32
302
GRIDFORMAT
  1
GRIDFORMAT_BEGIN
 90
        0
 91
        1
 62
     0
 92
       -2
340
0
 93
        0
 40
1.125
309
GRIDFORMAT_END
309
TABLEFORMAT_END
  1
CELLSTYLE_BEGIN
 90
        1
 91
        1
300
_TITLE
309
CELLSTYLE_END
300
CELLSTYLE
  1
TABLEFORMAT_BEGIN
 90
        5
170
     1
 91
        0
 92
        0
 62
   257
 93
        1
300
CONTENTFORMAT
  1
CONTENTFORMAT_BEGIN
 90
        0
 91
        0
 92
      512
 93
        0
300

 40
0.0
140
1.0
 94
        5
 62
     0
340
11
144
4.5
309
CONTENTFORMAT_END
171
     1
301
MARGIN
  1
CELLMARGIN_BEGIN
 40
1.5
 40
1.5
 40
1.5
 40
1.5
 40
4.5
 40
4.5
309
CELLMARGIN_END
 94
        6
 95
        1
302
GRIDFORMAT
  1
GRIDFORMAT_BEGIN
 90
        0
 91
        1
 62
     0
 92
       -2
340
0
 93
        0
 40
1.125
309
GRIDFORMAT_END
 95
        2
302
GRIDFORMAT
  1
GRIDFORMAT_BEGIN
 90
        0
 91
        1
 62
     0
 92
       -2
340
0
 93
        0
 40
1.125
309
GRIDFORMAT_END
 95
        4
302
GRIDFORMAT
  1
GRIDFORMAT_BEGIN
 90
        0
 91
        1
 62
     0
 92
       -2
340
0
 93
        0
 40
1.125
309
GRIDFORMAT_END
 95
        8
302
GRIDFORMAT
  1
GRIDFORMAT_BEGIN
 90
        0
 91
        1
 62
     0
 92
       -2
340
0
 93
        0
 40
1.125
309
GRIDFORMAT_END
 95
       16
302
GRIDFORMAT
  1
GRIDFORMAT_BEGIN
 90
        0
 91
        1
 62
     0
 92
       -2
340
0
 93
        0
 40
1.125
309
GRIDFORMAT_END
 95
       32
302
GRIDFORMAT
  1
GRIDFORMAT_BEGIN
 90
        0
 91
        1
 62
     0
 92
       -2
340
0
 93
        0
 40
1.125
309
GRIDFORMAT_END
309
TABLEFORMAT_END
  1
CELLSTYLE_BEGIN
 90
        2
 91
        1
300
_HEADER
309
CELLSTYLE_END
300
CELLSTYLE
  1
TABLEFORMAT_BEGIN
 90
        5
170
     1
 91
        0
 92
        0
 62
   257
 93
        1
300
CONTENTFORMAT
  1
CONTENTFORMAT_BEGIN
 90
        0
 91
        0
 92
      512
 93
        0
300

 40
0.0
140
1.0
 94
        2
 62
     0
340
11
144
4.5
309
CONTENTFORMAT_END
171
     1
301
MARGIN
  1
CELLMARGIN_BEGIN
 40
1.5
 40
1.5
 40
1.5
 40
1.5
 40
4.5
 40
4.5
309
CELLMARGIN_END
 94
        6
 95
        1
302
GRIDFORMAT
  1
GRIDFORMAT_BEGIN
 90
        0
 91
        1
 62
     0
 92
       -2
340
0
 93
        0
 40
1.125
309
GRIDFORMAT_END
 95
        2
302
GRIDFORMAT
  1
GRIDFORMAT_BEGIN
 90
        0
 91
        1
 62
     0
 92
       -2
340
0
 93
        0
 40
1.125
309
GRIDFORMAT_END
 95
        4
302
GRIDFORMAT
  1
GRIDFORMAT_BEGIN
 90
        0
 91
        1
 62
     0
 92
       -2
340
0
 93
        0
 40
1.125
309
GRIDFORMAT_END
 95
        8
302
GRIDFORMAT
  1
GRIDFORMAT_BEGIN
 90
        0
 91
        1
 62
     0
 92
       -2
340
0
 93
        0
 40
1.125
309
GRIDFORMAT_END
 95
       16
302
GRIDFORMAT
  1
GRIDFORMAT_BEGIN
 90
        0
 91
        1
 62
     0
 92
       -2
340
0
 93
        0
 40
1.125
309
GRIDFORMAT_END
 95
       32
302
GRIDFORMAT
  1
GRIDFORMAT_BEGIN
 90
        0
 91
        1
 62
     0
 92
       -2
340
0
 93
        0
 40
1.125
309
GRIDFORMAT_END
309
TABLEFORMAT_END
  1
CELLSTYLE_BEGIN
 90
        3
 91
        2
300
_DATA
309
CELLSTYLE_END
  0
ENDSEC
  0
SECTION
  2
ACDSDATA
 70
     2
 71
     8
  0
ACDSSCHEMA
 90
        0
  1
AcDb_Thumbnail_Schema
  2
AcDbDs::ID
280
    10
 91
        8
  2
Thumbnail_Data
280
    15
 91
        0
101
ACDSRECORD
 95
        0
 90
        1
  2
AcDbDs::TreatedAsObjectData
280
     1
291
     1
101
ACDSRECORD
 95
        0
 90
        2
  2
AcDbDs::Legacy
280
     1
291
     1
101
ACDSRECORD
  1
AcDbDs::ID
 90
        3
  2
AcDs:Indexable
280
     1
291
     1
101
ACDSRECORD
  1
AcDbDs::ID
 90
        4
  2
AcDbDs::HandleAttribute
280
     7
282
     1
  0
ACDSSCHEMA
 90
        1
  1
AcDbDs::TreatedAsObjectDataSchema
  2
AcDbDs::TreatedAsObjectData
280
     1
 91
        0
  0
ACDSSCHEMA
 90
        2
  1
AcDbDs::LegacySchema
  2
AcDbDs::Legacy
280
     1
 91
        0
  0
ACDSSCHEMA
 90
        3
  1
AcDbDs::IndexedPropertySchema
  2
AcDs:Indexable
280
     1
 91
        0
  0
ACDSSCHEMA
 90
        4
  1
AcDbDs::HandleAttributeSchema
  2
AcDbDs::HandleAttribute
280
     7
 91
        1
284
     1
  0
ACDSRECORD
 90
        0
  2
AcDbDs::ID
280
    10
320
22
  2
Thumbnail_Data
280
    15
 94
     1508
310
89504E470D0A1A0A0000000D49484452000001000000008608030000000532A42500000300504C5445212830FFFFFF2128300000000000000000000000000000000000000000000000000000330000660000990000CC0000FF0033000033330033660033990033CC0033FF0066000066330066660066990066CC0066FF0099
310
000099330099660099990099CC0099FF00CC0000CC3300CC6600CC9900CCCC00CCFF00FF0000FF3300FF6600FF9900FFCC00FFFF3300003300333300663300993300CC3300FF3333003333333333663333993333CC3333FF3366003366333366663366993366CC3366FF3399003399333399663399993399CC3399FF33CC00
310
33CC3333CC6633CC9933CCCC33CCFF33FF0033FF3333FF6633FF9933FFCC33FFFF6600006600336600666600996600CC6600FF6633006633336633666633996633CC6633FF6666006666336666666666996666CC6666FF6699006699336699666699996699CC6699FF66CC0066CC3366CC6666CC9966CCCC66CCFF66FF0066
310
FF3366FF6666FF9966FFCC66FFFF9900009900339900669900999900CC9900FF9933009933339933669933999933CC9933FF9966009966339966669966999966CC9966FF9999009999339999669999999999CC9999FF99CC0099CC3399CC6699CC9999CCCC99CCFF99FF0099FF3399FF6699FF9999FFCC99FFFFCC0000CC00
310
33CC0066CC0099CC00CCCC00FFCC3300CC3333CC3366CC3399CC33CCCC33FFCC6600CC6633CC6666CC6699CC66CCCC66FFCC9900CC9933CC9966CC9999CC99CCCC99FFCCCC00CCCC33CCCC66CCCC99CCCCCCCCCCFFCCFF00CCFF33CCFF66CCFF99CCFFCCCCFFFFFF0000FF0033FF0066FF0099FF00CCFF00FFFF3300FF3333
310
FF3366FF3399FF33CCFF33FFFF6600FF6633FF6666FF6699FF66CCFF66FFFF9900FF9933FF9966FF9999FF99CCFF99FFFFCC00FFCC33FFCC66FFCC99FFCCCCFFCCFFFFFF00FFFF33FFFF66FFFF99FFFFCCFFFFFF0000000D0D0D1A1A1A2828283535354343435050505D5D5D6B6B6B787878868686939393A1A1A1AEAEAEBB
310
BBBBC9C9C9D6D6D6E4E4E4F1F1F1FFFFFF0000000000000000000000000000000000000000000000000000000000002E4550F10000029F4944415478DAED9C6D6FC3200C84F9FFFFF7BE6F6A9386BC50203586707793A6698B16786A633B31846028FC7F310B10010140783300B101B002C05ECC8E40EB02022000922C4092
310
2449922489B41A8EEA62D614983915160001100001D8009C74F1AB7B7AA005BC066DF5D6E48100603AF4E1002C66892400D88E1D034E1F3B03A703F01A541A008C073FA0052CDF49017C16795200055160EE3540006AF2002A00A7F415C4A9F01A2D550D0A80000880004C3B7DBD1790244992244992246990EA24506FDF89
310
5EC81303089CA5F95A94539B80F51BB9475A006401CC16C00E409224BF68531E8FE03B3097BBA2E6EF8E00DCEE5A03C0AE4122FBC1226CB5E0300060D92586DC65519BF63000822F80AD2A1A03806DB3741EC0E6776300003D80600DE05DF1279F8718932F30F1CBA5B91D007C3BBCAC0780EB39367481D12C2003C07C11FC
310
6A037DD600B40B831FF73A5A40FAFAD6001603AC01805F6EB64CA5340AAC236B96081D77CA140008BF7708473FE589AD7960230061BF4FA204C0EDA1A03AA800E7D5C0DE028A5CC0A430C52D009BE3345F04237738CCD4A61CC66941CB02F02D868E6729B6001073CD97C3BE0062776802A0BAA8732E873FBB271B02B871F9
310
B659C5750D6802A03A45393C1D72CC04FB03C0C5B0E00DE03AF21101B8765E78CD3F31AC1E007604280104C0150012452ABA0108028079011C4AD57D3A585DC23DD202F26B9000CCBD061444217200B3E701B9FB4F9F09A6EB63925A206F01EE2D32A7032BD80044ED213E4D22D93CC05DB87A3EC404A0C3D23B1880ED41A0
310
7FB3F8381DEA3AC84092A4FE31B84B241280EEC1E73967C0C9021A02889AB858F72E7247039DA9A55C5C5226F890FF2C0002D03C159EFB4CE5BB9FD3F2C01AAC2EF0D9F380A900547A4B68DECB3AB6AD7003583A6A942E4BFDF4074838329287E9E3EE0000000049454E44AE426082
  0
ENDSEC
  0
EOF
