  0
SECTION
  2
HEADER
  9
$ACADVER
  1
AC1032
  9
$ACADMAINTVER
 90
      174
  9
$DWGCODEPAGE
  3
ANSI_1252
  9
$LASTSAVEDBY
  1
pengb
  9
$REQUIREDVERSIONS
160
                 0
  9
$INSBASE
 10
0.0
 20
0.0
 30
0.0
  9
$EXTMIN
 10
-232.4466262280689
 20
-291.8579749433506
 30
-0.0015258207003583
  9
$EXTMAX
 10
401.0653964302414
 20
327.7683570197341
 30
0.0000000349246037
  9
$LIMMIN
 10
0.0
 20
0.0
  9
$LIMMAX
 10
420.0
 20
297.0
  9
$ORTHOMODE
 70
     0
  9
$REGENMODE
 70
     1
  9
$FILLMODE
 70
     1
  9
$QTEXTMODE
 70
     0
  9
$MIRRTEXT
 70
     1
  9
$LTSCALE
 40
1.0
  9
$ATTMODE
 70
     1
  9
$TEXTSIZE
 40
3.5
  9
$TRACEWID
 40
1.0
  9
$TEXTSTYLE
  7
Standard
  9
$CLAYER
  8
0
  9
$CELTYPE
  6
ByLayer
  9
$CECOLOR
 62
   256
  9
$CELTSCALE
 40
1.0
  9
$DISPSILH
 70
     0
  9
$DIMSCALE
 40
1.0
  9
$DIMASZ
 40
3.302
  9
$DIMEXO
 40
1.0
  9
$DIMDLI
 40
3.75
  9
$DIMRND
 40
0.0
  9
$DIMDLE
 40
0.0
  9
$DIMEXE
 40
1.0
  9
$DIMTP
 40
0.0
  9
$DIMTM
 40
0.0
  9
$DIMTXT
 40
3.5
  9
$DIMCEN
 40
2.5
  9
$DIMTSZ
 40
0.0
  9
$DIMTOL
 70
     0
  9
$DIMLIM
 70
     0
  9
$DIMTIH
 70
     1
  9
$DIMTOH
 70
     1
  9
$DIMSE1
 70
     0
  9
$DIMSE2
 70
     0
  9
$DIMTAD
 70
     1
  9
$DIMZIN
 70
     1
  9
$DIMBLK
  1

  9
$DIMASO
 70
     1
  9
$DIMSHO
 70
     1
  9
$DIMPOST
  1

  9
$DIMAPOST
  1

  9
$DIMALT
 70
     0
  9
$DIMALTD
 70
     3
  9
$DIMALTF
 40
0.0393700787
  9
$DIMLFAC
 40
5.0
  9
$DIMTOFL
 70
     1
  9
$DIMTVP
 40
0.0
  9
$DIMTIX
 70
     0
  9
$DIMSOXD
 70
     0
  9
$DIMSAH
 70
     0
  9
$DIMBLK1
  1

  9
$DIMBLK2
  1

  9
$DIMSTYLE
  2
ISO-25
  9
$DIMCLRD
 70
     0
  9
$DIMCLRE
 70
     0
  9
$DIMCLRT
 70
     0
  9
$DIMTFAC
 40
1.0
  9
$DIMGAP
 40
1.524
  9
$DIMJUST
 70
     0
  9
$DIMSD1
 70
     0
  9
$DIMSD2
 70
     0
  9
$DIMTOLJ
 70
     0
  9
$DIMTZIN
 70
     1
  9
$DIMALTZ
 70
     0
  9
$DIMALTTZ
 70
     0
  9
$DIMUPT
 70
     0
  9
$DIMDEC
 70
     2
  9
$DIMTDEC
 70
     2
  9
$DIMALTU
 70
     2
  9
$DIMALTTD
 70
     3
  9
$DIMTXSTY
  7
Standard
  9
$DIMAUNIT
 70
     0
  9
$DIMADEC
 70
     2
  9
$DIMALTRND
 40
0.0
  9
$DIMAZIN
 70
     0
  9
$DIMDSEP
 70
    44
  9
$DIMATFIT
 70
     3
  9
$DIMFRAC
 70
     0
  9
$DIMLDRBLK
  1

  9
$DIMLUNIT
 70
     2
  9
$DIMLWD
 70
    -2
  9
$DIMLWE
 70
    -2
  9
$DIMTMOVE
 70
     0
  9
$DIMFXL
 40
1.0
  9
$DIMFXLON
 70
     0
  9
$DIMJOGANG
 40
0.7853981633974483
  9
$DIMTFILL
 70
     0
  9
$DIMTFILLCLR
 70
     0
  9
$DIMARCSYM
 70
     0
  9
$DIMLTYPE
  6

  9
$DIMLTEX1
  6

  9
$DIMLTEX2
  6

  9
$DIMTXTDIRECTION
 70
     0
  9
$LUNITS
 70
     2
  9
$LUPREC
 70
     2
  9
$SKETCHINC
 40
1.0
  9
$FILLETRAD
 40
10.0
  9
$AUNITS
 70
     0
  9
$AUPREC
 70
     2
  9
$MENU
  1
.
  9
$ELEVATION
 40
0.0
  9
$PELEVATION
 40
0.0
  9
$THICKNESS
 40
0.0
  9
$LIMCHECK
 70
     0
  9
$CHAMFERA
 40
0.0
  9
$CHAMFERB
 40
0.0
  9
$CHAMFERC
 40
0.0
  9
$CHAMFERD
 40
0.0
  9
$SKPOLY
 70
     0
  9
$TDCREATE
 40
2460000.460381945
  9
$TDUCREATE
 40
2460000.002058901
  9
$TDUPDATE
 40
2460007.488761574
  9
$TDUUPDATE
 40
2460007.030428240
  9
$TDINDWG
 40
0.0065393634
  9
$TDUSRTIMER
 40
0.0065393634
  9
$USRTIMER
 70
     1
  9
$ANGBASE
 50
0.0
  9
$ANGDIR
 70
     0
  9
$PDMODE
 70
     0
  9
$PDSIZE
 40
-1.0
  9
$PLINEWID
 40
0.0
  9
$SPLFRAME
 70
     0
  9
$SPLINETYPE
 70
     6
  9
$SPLINESEGS
 70
     8
  9
$HANDSEED
  5
30F
  9
$SURFTAB1
 70
     6
  9
$SURFTAB2
 70
     6
  9
$SURFTYPE
 70
     6
  9
$SURFU
 70
     6
  9
$SURFV
 70
     6
  9
$UCSBASE
  2

  9
$UCSNAME
  2

  9
$UCSORG
 10
0.0
 20
0.0
 30
0.0
  9
$UCSXDIR
 10
1.0
 20
0.0
 30
0.0
  9
$UCSYDIR
 10
0.0
 20
1.0
 30
0.0
  9
$UCSORTHOREF
  2

  9
$UCSORTHOVIEW
 70
     0
  9
$UCSORGTOP
 10
0.0
 20
0.0
 30
0.0
  9
$UCSORGBOTTOM
 10
0.0
 20
0.0
 30
0.0
  9
$UCSORGLEFT
 10
0.0
 20
0.0
 30
0.0
  9
$UCSORGRIGHT
 10
0.0
 20
0.0
 30
0.0
  9
$UCSORGFRONT
 10
0.0
 20
0.0
 30
0.0
  9
$UCSORGBACK
 10
0.0
 20
0.0
 30
0.0
  9
$PUCSBASE
  2

  9
$PUCSNAME
  2

  9
$PUCSORG
 10
0.0
 20
0.0
 30
0.0
  9
$PUCSXDIR
 10
1.0
 20
0.0
 30
0.0
  9
$PUCSYDIR
 10
0.0
 20
1.0
 30
0.0
  9
$PUCSORTHOREF
  2

  9
$PUCSORTHOVIEW
 70
     0
  9
$PUCSORGTOP
 10
0.0
 20
0.0
 30
0.0
  9
$PUCSORGBOTTOM
 10
0.0
 20
0.0
 30
0.0
  9
$PUCSORGLEFT
 10
0.0
 20
0.0
 30
0.0
  9
$PUCSORGRIGHT
 10
0.0
 20
0.0
 30
0.0
  9
$PUCSORGFRONT
 10
0.0
 20
0.0
 30
0.0
  9
$PUCSORGBACK
 10
0.0
 20
0.0
 30
0.0
  9
$USERI1
 70
     0
  9
$USERI2
 70
     0
  9
$USERI3
 70
     0
  9
$USERI4
 70
     0
  9
$USERI5
 70
     0
  9
$USERR1
 40
0.0
  9
$USERR2
 40
0.0
  9
$USERR3
 40
0.0
  9
$USERR4
 40
0.0
  9
$USERR5
 40
0.0
  9
$WORLDVIEW
 70
     1
  9
$SHADEDGE
 70
     3
  9
$SHADEDIF
 70
    70
  9
$TILEMODE
 70
     1
  9
$MAXACTVP
 70
    64
  9
$PINSBASE
 10
0.0
 20
0.0
 30
0.0
  9
$PLIMCHECK
 70
     0
  9
$PEXTMIN
 10
1.000000000000000E+20
 20
1.000000000000000E+20
 30
1.000000000000000E+20
  9
$PEXTMAX
 10
-1.000000000000000E+20
 20
-1.000000000000000E+20
 30
-1.000000000000000E+20
  9
$PLIMMIN
 10
0.0
 20
0.0
  9
$PLIMMAX
 10
420.0
 20
297.0
  9
$UNITMODE
 70
     0
  9
$VISRETAIN
 70
     1
  9
$PLINEGEN
 70
     0
  9
$PSLTSCALE
 70
     1
  9
$TREEDEPTH
 70
  3020
  9
$CMLSTYLE
  2
Standard
  9
$CMLJUST
 70
     0
  9
$CMLSCALE
 40
20.0
  9
$PROXYGRAPHICS
 70
     1
  9
$MEASUREMENT
 70
     1
  9
$CELWEIGHT
370
    -1
  9
$ENDCAPS
280
     0
  9
$JOINSTYLE
280
     0
  9
$LWDISPLAY
290
     1
  9
$INSUNITS
 70
     4
  9
$HYPERLINKBASE
  1

  9
$STYLESHEET
  1

  9
$XEDIT
290
     1
  9
$CEPSNTYPE
380
     0
  9
$PSTYLEMODE
290
     1
  9
$FINGERPRINTGUID
  2
{10C52A61-9DEB-4086-AEE0-14741E6D141B}
  9
$VERSIONGUID
  2
{9D508B75-C334-4A43-B402-26BAA285E795}
  9
$EXTNAMES
290
     1
  9
$PSVPSCALE
 40
0.0
  9
$OLESTARTUP
290
     0
  9
$SORTENTS
280
   127
  9
$INDEXCTL
280
     0
  9
$HIDETEXT
280
     0
  9
$XCLIPFRAME
280
     2
  9
$HALOGAP
280
     0
  9
$OBSCOLOR
 70
   257
  9
$OBSLTYPE
280
     0
  9
$INTERSECTIONDISPLAY
280
     0
  9
$INTERSECTIONCOLOR
 70
   257
  9
$DIMASSOC
280
     1
  9
$PROJECTNAME
  1

  9
$CAMERADISPLAY
290
     0
  9
$LENSLENGTH
 40
50.0
  9
$CAMERAHEIGHT
 40
0.0
  9
$STEPSPERSEC
 40
2.0
  9
$STEPSIZE
 40
6.0
  9
$3DDWFPREC
 40
2.0
  9
$PSOLWIDTH
 40
0.25
  9
$PSOLHEIGHT
 40
4.0
  9
$LOFTANG1
 40
1.570796326794896
  9
$LOFTANG2
 40
1.570796326794896
  9
$LOFTMAG1
 40
0.0
  9
$LOFTMAG2
 40
0.0
  9
$LOFTPARAM
 70
     7
  9
$LOFTNORMALS
280
     1
  9
$LATITUDE
 40
37.795
  9
$LONGITUDE
 40
-122.394
  9
$NORTHDIRECTION
 40
0.0
  9
$TIMEZONE
 70
 -8000
  9
$LIGHTGLYPHDISPLAY
280
     1
  9
$TILEMODELIGHTSYNCH
280
     1
  9
$CMATERIAL
347
156
  9
$SOLIDHIST
280
     0
  9
$SHOWHIST
280
     1
  9
$DWFFRAME
280
     2
  9
$DGNFRAME
280
     0
  9
$REALWORLDSCALE
290
     1
  9
$INTERFERECOLOR
 62
     1
  9
$INTERFEREOBJVS
345
178
  9
$INTERFEREVPVS
346
175
  9
$CSHADOW
280
     0
  9
$SHADOWPLANELOCATION
 40
0.0
  0
ENDSEC
  0
SECTION
  2
CLASSES
  0
CLASS
  1
ACDBDICTIONARYWDFLT
  2
AcDbDictionaryWithDefault
  3
ObjectDBX Classes
 90
        0
 91
        1
280
     0
281
     0
  0
CLASS
  1
VISUALSTYLE
  2
AcDbVisualStyle
  3
ObjectDBX Classes
 90
     4095
 91
       24
280
     0
281
     0
  0
CLASS
  1
MATERIAL
  2
AcDbMaterial
  3
ObjectDBX Classes
 90
     1153
 91
        3
280
     0
281
     0
  0
CLASS
  1
SCALE
  2
AcDbScale
  3
ObjectDBX Classes
 90
     1153
 91
       33
280
     0
281
     0
  0
CLASS
  1
TABLESTYLE
  2
AcDbTableStyle
  3
ObjectDBX Classes
 90
     4095
 91
        1
280
     0
281
     0
  0
CLASS
  1
MLEADERSTYLE
  2
AcDbMLeaderStyle
  3
ACDB_MLEADERSTYLE_CLASS
 90
     4095
 91
        1
280
     0
281
     0
  0
CLASS
  1
SUN
  2
AcDbSun
  3
SCENEOE
 90
     1153
 91
        0
280
     0
281
     0
  0
CLASS
  1
ACDBSECTIONVIEWSTYLE
  2
AcDbSectionViewStyle
  3
ObjectDBX Classes
 90
     1025
 91
        1
280
     0
281
     0
  0
CLASS
  1
ACDBDETAILVIEWSTYLE
  2
AcDbDetailViewStyle
  3
ObjectDBX Classes
 90
     1025
 91
        1
280
     0
281
     0
  0
CLASS
  1
DICTIONARYVAR
  2
AcDbDictionaryVar
  3
ObjectDBX Classes
 90
        0
 91
        9
280
     0
281
     0
  0
CLASS
  1
ACDB_ALDIMOBJECTCONTEXTDATA_CLASS
  2
AcDbAlignedDimensionObjectContextData
  3
ObjectDBX Classes
 90
     1153
 91
       12
280
     0
281
     0
  0
CLASS
  1
CELLSTYLEMAP
  2
AcDbCellStyleMap
  3
ObjectDBX Classes
 90
     1152
 91
        1
280
     0
281
     0
  0
ENDSEC
  0
SECTION
  2
TABLES
  0
TABLE
  2
VPORT
  5
8
330
0
100
AcDbSymbolTable
 70
     1
  0
VPORT
  5
29
330
8
100
AcDbSymbolTableRecord
100
AcDbViewportTableRecord
  2
*Active
 70
     0
 10
0.0
 20
0.0
 11
1.0
 21
1.0
 12
84.30938510108632
 22
17.95519103819174
 13
0.0
 23
0.0
 14
10.0
 24
10.0
 15
10.0
 25
10.0
 16
0.0
 26
0.0
 36
1.0
 17
0.0
 27
0.0
 37
0.0
 40
621.9369335738856
 41
1.907960199004975
 42
50.0
 43
0.0
 44
0.0
 50
0.0
 51
0.0
 71
     0
 72
  2000
 73
     1
 74
     3
 75
     0
 76
     0
 77
     0
 78
     0
281
     0
 65
     1
110
0.0
120
0.0
130
0.0
111
1.0
121
0.0
131
0.0
112
0.0
122
1.0
132
0.0
 79
     0
146
0.0
348
174
 60
     3
 61
     5
292
     1
282
     1
141
0.0
142
0.0
 63
   250
421
  3355443
1001
ACAD_NAV_VCDISPLAY
1070
     3
  0
ENDTAB
  0
TABLE
  2
LTYPE
  5
5
330
0
100
AcDbSymbolTable
 70
     6
  0
LTYPE
  5
14
330
5
100
AcDbSymbolTableRecord
100
AcDbLinetypeTableRecord
  2
ByBlock
 70
     0
  3

 72
    65
 73
     0
 40
0.0
  0
LTYPE
  5
15
330
5
100
AcDbSymbolTableRecord
100
AcDbLinetypeTableRecord
  2
ByLayer
 70
     0
  3

 72
    65
 73
     0
 40
0.0
  0
LTYPE
  5
16
330
5
100
AcDbSymbolTableRecord
100
AcDbLinetypeTableRecord
  2
Continuous
 70
     0
  3
Solid line
 72
    65
 73
     0
 40
0.0
  0
LTYPE
  5
6E
330
5
100
AcDbSymbolTableRecord
100
AcDbLinetypeTableRecord
  2
HIDDEN
 70
     0
  3
Hidden __ __ __ __ __ __ __ __ __ __ __ __ __ __
 72
    65
 73
     2
 40
1.905
 49
1.27
 74
     0
 49
-0.635
 74
     0
  0
LTYPE
  5
6F
330
5
100
AcDbSymbolTableRecord
100
AcDbLinetypeTableRecord
  2
PHANTOM
 70
     0
  3
Phantom ______  __  __  ______  __  __  ______
 72
    65
 73
     6
 40
12.7
 49
6.349999999999999
 74
     0
 49
-1.27
 74
     0
 49
1.27
 74
     0
 49
-1.27
 74
     0
 49
1.27
 74
     0
 49
-1.27
 74
     0
  0
LTYPE
  5
70
330
5
100
AcDbSymbolTableRecord
100
AcDbLinetypeTableRecord
  2
CENTER
 70
     0
  3
Center ____ _ ____ _ ____ _ ____ _ ____ _ ____
 72
    65
 73
     4
 40
10.16
 49
6.349999999999999
 74
     0
 49
-1.27
 74
     0
 49
1.27
 74
     0
 49
-1.27
 74
     0
  0
LTYPE
  5
71
330
5
100
AcDbSymbolTableRecord
100
AcDbLinetypeTableRecord
  2
CENTERX2
 70
     0
  3
Center (2x) ________  __  ________  __  _____
 72
    65
 73
     4
 40
20.32
 49
12.7
 74
     0
 49
-2.54
 74
     0
 49
2.54
 74
     0
 49
-2.54
 74
     0
  0
LTYPE
  5
72
330
5
100
AcDbSymbolTableRecord
100
AcDbLinetypeTableRecord
  2
DOT2
 70
     0
  3
Dot (.5x) ........................................
 72
    65
 73
     2
 40
0.635
 49
0.0
 74
     0
 49
-0.635
 74
     0
  0
ENDTAB
  0
TABLE
  2
LAYER
  5
2
102
{ACAD_XDICTIONARY
360
24A
102
}
330
0
100
AcDbSymbolTable
 70
     4
  0
LAYER
  5
10
102
{ACAD_XDICTIONARY
360
306
102
}
330
2
100
AcDbSymbolTableRecord
100
AcDbLayerTableRecord
  2
0
 70
     0
 62
     7
  6
Continuous
370
    -3
390
F
347
166
348
0
  0
LAYER
  5
73
102
{ACAD_XDICTIONARY
360
308
102
}
330
2
100
AcDbSymbolTableRecord
100
AcDbLayerTableRecord
  2
FORMAT
 70
     0
 62
     7
  6
Continuous
370
    -3
390
F
347
166
348
0
  0
LAYER
  5
242
330
2
100
AcDbSymbolTableRecord
100
AcDbLayerTableRecord
  2
Defpoints
 70
     0
 62
     7
  6
Continuous
290
     0
370
    -3
390
F
347
166
348
0
  0
LAYER
  5
243
102
{ACAD_XDICTIONARY
360
30A
102
}
330
2
100
AcDbSymbolTableRecord
100
AcDbLayerTableRecord
  2
DIMENSION
 70
     0
 62
   255
  6
Continuous
370
    -3
390
F
347
166
348
0
  0
ENDTAB
  0
TABLE
  2
STYLE
  5
3
330
0
100
AcDbSymbolTable
 70
     2
  0
STYLE
  5
11
330
3
100
AcDbSymbolTableRecord
100
AcDbTextStyleTableRecord
  2
Standard
 70
     0
 40
0.0
 41
1.0
 50
0.0
 71
     0
 42
3.5
  3
txt
  4

  0
STYLE
  5
A3
330
3
100
AcDbSymbolTableRecord
100
AcDbTextStyleTableRecord
  2
SLDTEXTSTYLE0
 70
     0
 40
0.0
 41
0.75
 50
0.0
 71
     0
 42
3.5
  3
TXT
  4

  0
ENDTAB
  0
TABLE
  2
VIEW
  5
6
330
0
100
AcDbSymbolTable
 70
     0
  0
ENDTAB
  0
TABLE
  2
UCS
  5
7
330
0
100
AcDbSymbolTable
 70
     0
  0
ENDTAB
  0
TABLE
  2
APPID
  5
9
330
0
100
AcDbSymbolTable
 70
     7
  0
APPID
  5
12
330
9
100
AcDbSymbolTableRecord
100
AcDbRegAppTableRecord
  2
ACAD
 70
     0
  0
APPID
  5
193
330
9
100
AcDbSymbolTableRecord
100
AcDbRegAppTableRecord
  2
ACAD_NAV_VCDISPLAY
 70
     0
  0
APPID
  5
245
330
9
100
AcDbSymbolTableRecord
100
AcDbRegAppTableRecord
  2
ACAD_PSEXT
 70
     0
  0
APPID
  5
246
330
9
100
AcDbSymbolTableRecord
100
AcDbRegAppTableRecord
  2
AcadAnnotative
 70
     0
  0
APPID
  5
247
330
9
100
AcDbSymbolTableRecord
100
AcDbRegAppTableRecord
  2
ACAD_DSTYLE_DIMJAG
 70
     0
  0
APPID
  5
248
330
9
100
AcDbSymbolTableRecord
100
AcDbRegAppTableRecord
  2
ACAD_DSTYLE_DIMTALN
 70
     0
  0
APPID
  5
249
330
9
100
AcDbSymbolTableRecord
100
AcDbRegAppTableRecord
  2
ACAD_DSTYLE_DIMBREAK
 70
     0
  0
ENDTAB
  0
TABLE
  2
DIMSTYLE
  5
A
330
0
100
AcDbSymbolTable
 70
     3
100
AcDbDimStyleTable
 71
     2
340
244
340
27
  0
DIMSTYLE
105
27
330
A
100
AcDbSymbolTableRecord
100
AcDbDimStyleTableRecord
  2
ISO-25
 70
     0
 41
2.5
 42
0.625
 43
3.75
 44
1.25
 73
     0
 74
     0
 77
     1
 78
     8
140
2.5
141
2.5
143
0.0393700787
147
0.625
171
     3
172
     1
271
     2
272
     2
274
     3
278
    44
283
     0
284
     8
340
11
  0
DIMSTYLE
105
A4
330
A
100
AcDbSymbolTableRecord
100
AcDbDimStyleTableRecord
  2
SLDDIMSTYLE0
 70
     0
 41
3.302
 44
0.0
 45
0.000000001
 73
     0
 74
     0
 77
     1
 78
     4
 79
     1
140
6.879166666699999
147
1.719791666699999
173
     1
271
     2
272
     2
276
     2
284
    12
340
A3
341
A5
343
A5
344
A5
  0
DIMSTYLE
105
244
102
{ACAD_REACTORS
330
24D
330
112
330
109
330
101
330
F9
330
B7
330
AF
330
A2
330
149
330
141
330
2E3
102
}
330
A
100
AcDbSymbolTableRecord
100
AcDbDimStyleTableRecord
  2
RG Dimension Lines
 70
     0
 40
12.0
 41
3.5
 42
1.0
 43
10.0
 44
5.0
 49
5.0
 77
     2
140
8.0
141
0.0
147
4.0
172
     1
176
   256
177
   256
178
     7
271
     0
272
     0
290
     1
340
11
341
A5
342
A5
371
     0
372
     0
1001
ACAD_DSTYLE_DIMBREAK
1070
   391
1040
0.125
1001
AcadAnnotative
1000
AnnotativeData
1002
{
1070
     1
1070
     1
1002
}
1001
ACAD_DSTYLE_DIMJAG
1070
   388
1040
1.5
1001
ACAD_DSTYLE_DIMTALN
1070
   392
1070
     0
  0
ENDTAB
  0
TABLE
  2
BLOCK_RECORD
  5
1
330
0
100
AcDbSymbolTable
 70
    26
  0
BLOCK_RECORD
  5
1F
330
1
100
AcDbSymbolTableRecord
100
AcDbBlockTableRecord
  2
*Model_Space
340
22
 70
     0
280
     1
281
     0
  0
BLOCK_RECORD
  5
1B
330
1
100
AcDbSymbolTableRecord
100
AcDbBlockTableRecord
  2
*Paper_Space
340
1E
 70
     0
280
     1
281
     0
  0
BLOCK_RECORD
  5
23
330
1
100
AcDbSymbolTableRecord
100
AcDbBlockTableRecord
  2
*Paper_Space0
340
26
 70
     0
280
     1
281
     0
  0
BLOCK_RECORD
  5
A5
330
1
100
AcDbSymbolTableRecord
100
AcDbBlockTableRecord
  2
_None
340
0
 70
     0
280
     1
281
     0
  0
BLOCK_RECORD
  5
A8
330
1
100
AcDbSymbolTableRecord
100
AcDbBlockTableRecord
  2
_D
340
0
 70
     0
280
     1
281
     0
  0
BLOCK_RECORD
  5
B0
330
1
100
AcDbSymbolTableRecord
100
AcDbBlockTableRecord
  2
_D_1
340
0
 70
     0
280
     1
281
     0
  0
BLOCK_RECORD
  5
B8
330
1
100
AcDbSymbolTableRecord
100
AcDbBlockTableRecord
  2
_D_2
340
0
 70
     0
280
     1
281
     0
  0
BLOCK_RECORD
  5
FA
330
1
100
AcDbSymbolTableRecord
100
AcDbBlockTableRecord
  2
_D_3
340
0
 70
     0
280
     1
281
     0
  0
BLOCK_RECORD
  5
102
330
1
100
AcDbSymbolTableRecord
100
AcDbBlockTableRecord
  2
_D_4
340
0
 70
     0
280
     1
281
     0
  0
BLOCK_RECORD
  5
10A
330
1
100
AcDbSymbolTableRecord
100
AcDbBlockTableRecord
  2
_D_5
340
0
 70
     0
280
     1
281
     0
  0
BLOCK_RECORD
  5
113
330
1
100
AcDbSymbolTableRecord
100
AcDbBlockTableRecord
  2
_D_6
340
0
 70
     0
280
     1
281
     0
  0
BLOCK_RECORD
  5
142
330
1
100
AcDbSymbolTableRecord
100
AcDbBlockTableRecord
  2
_D_7
340
0
 70
     0
280
     1
281
     0
  0
BLOCK_RECORD
  5
14A
330
1
100
AcDbSymbolTableRecord
100
AcDbBlockTableRecord
  2
_D_8
340
0
 70
     0
280
     1
281
     0
  0
BLOCK_RECORD
  5
19E
330
1
100
AcDbSymbolTableRecord
100
AcDbBlockTableRecord
  2
A$C79d5e8fb
340
0
 70
     4
280
     1
281
     0
  0
BLOCK_RECORD
  5
238
330
1
100
AcDbSymbolTableRecord
100
AcDbBlockTableRecord
  2
*D12
340
0
 70
     0
280
     1
281
     0
  0
BLOCK_RECORD
  5
25B
330
1
100
AcDbSymbolTableRecord
100
AcDbBlockTableRecord
  2
*D14
340
0
 70
     0
280
     1
281
     0
  0
BLOCK_RECORD
  5
265
330
1
100
AcDbSymbolTableRecord
100
AcDbBlockTableRecord
  2
*D15
340
0
 70
     0
280
     1
281
     0
  0
BLOCK_RECORD
  5
273
330
1
100
AcDbSymbolTableRecord
100
AcDbBlockTableRecord
  2
*D16
340
0
 70
     0
280
     1
281
     0
  0
BLOCK_RECORD
  5
281
330
1
100
AcDbSymbolTableRecord
100
AcDbBlockTableRecord
  2
*D17
340
0
 70
     0
280
     1
281
     0
  0
BLOCK_RECORD
  5
28F
330
1
100
AcDbSymbolTableRecord
100
AcDbBlockTableRecord
  2
*D18
340
0
 70
     0
280
     1
281
     0
  0
BLOCK_RECORD
  5
29D
330
1
100
AcDbSymbolTableRecord
100
AcDbBlockTableRecord
  2
*D19
340
0
 70
     0
280
     1
281
     0
  0
BLOCK_RECORD
  5
2AB
330
1
100
AcDbSymbolTableRecord
100
AcDbBlockTableRecord
  2
*D20
340
0
 70
     0
280
     1
281
     0
  0
BLOCK_RECORD
  5
2B9
330
1
100
AcDbSymbolTableRecord
100
AcDbBlockTableRecord
  2
*D21
340
0
 70
     0
280
     1
281
     0
  0
BLOCK_RECORD
  5
2C7
330
1
100
AcDbSymbolTableRecord
100
AcDbBlockTableRecord
  2
*D22
340
0
 70
     0
280
     1
281
     0
  0
BLOCK_RECORD
  5
2D5
330
1
100
AcDbSymbolTableRecord
100
AcDbBlockTableRecord
  2
*D23
340
0
 70
     0
280
     1
281
     0
  0
BLOCK_RECORD
  5
2E4
330
1
100
AcDbSymbolTableRecord
100
AcDbBlockTableRecord
  2
*D24
340
0
 70
     0
280
     1
281
     0
  0
BLOCK_RECORD
  5
2F1
330
1
100
AcDbSymbolTableRecord
100
AcDbBlockTableRecord
  2
*D25
340
0
 70
     0
280
     1
281
     0
  0
ENDTAB
  0
ENDSEC
  0
SECTION
  2
BLOCKS
  0
BLOCK
  5
20
330
1F
100
AcDbEntity
  8
0
100
AcDbBlockBegin
  2
*Model_Space
 70
     0
 10
0.0
 20
0.0
 30
0.0
  3
*Model_Space
  1

  0
ENDBLK
  5
21
330
1F
100
AcDbEntity
  8
0
100
AcDbBlockEnd
  0
BLOCK
  5
1C
330
1B
100
AcDbEntity
 67
     1
  8
0
100
AcDbBlockBegin
  2
*Paper_Space
 70
     0
 10
0.0
 20
0.0
 30
0.0
  3
*Paper_Space
  1

  0
ENDBLK
  5
1D
330
1B
100
AcDbEntity
 67
     1
  8
0
100
AcDbBlockEnd
  0
BLOCK
  5
24
330
23
100
AcDbEntity
 67
     1
  8
0
100
AcDbBlockBegin
  2
*Paper_Space0
 70
     0
 10
0.0
 20
0.0
 30
0.0
  3
*Paper_Space0
  1

  0
ENDBLK
  5
25
330
23
100
AcDbEntity
 67
     1
  8
0
100
AcDbBlockEnd
  0
BLOCK
  5
A6
330
A5
100
AcDbEntity
  8
0
100
AcDbBlockBegin
  2
_None
 70
     0
 10
0.0
 20
0.0
 30
0.0
  3
_None
  1

  0
ENDBLK
  5
A7
330
A5
100
AcDbEntity
  8
0
100
AcDbBlockEnd
  0
BLOCK
  5
A9
330
A8
100
AcDbEntity
  8
0
100
AcDbBlockBegin
  2
_D
 70
     0
 10
0.0
 20
0.0
 30
0.0
  3
_D
  1

  0
LINE
  5
AB
330
A8
100
AcDbEntity
  8
0
  6
Continuous
 62
     7
440
 16777216
370
     0
100
AcDbLine
 10
74.5820851938
 20
-14.1703444733
 30
0.0
 11
74.5820851938
 21
-280.8390680449999
 31
0.0
  0
LINE
  5
AC
330
A8
100
AcDbEntity
  8
0
  6
Continuous
 62
     7
440
 16777216
370
     0
100
AcDbLine
 10
-135.4179139928
 20
-251.0733694802
 30
0.0
 11
-135.4179139928
 21
-280.8390680449999
 31
0.0
  0
LINE
  5
AD
330
A8
100
AcDbEntity
  8
0
  6
Continuous
 62
     7
440
 16777216
370
     0
100
AcDbLine
 10
74.5820851938
 20
-279.839068045
 30
0.0
 11
-135.4179139928
 21
-279.839068045
 31
0.0
  0
MTEXT
  5
AE
330
A8
100
AcDbEntity
  8
0
  6
Continuous
 62
     7
440
 16777216
370
    18
100
AcDbMText
 10
-45.2392571074
 20
-270.9713559856
 30
0.0
 40
6.879166666699999
 41
0.0
 46
0.0
 71
     1
 72
     1
  1
210.00
  7
SLDTEXTSTYLE0
 73
     1
 44
1.0
  0
ENDBLK
  5
AA
330
A8
100
AcDbEntity
  8
0
100
AcDbBlockEnd
  0
BLOCK
  5
B1
330
B0
100
AcDbEntity
  8
0
100
AcDbBlockBegin
  2
_D_1
 70
     0
 10
0.0
 20
0.0
 30
0.0
  3
_D_1
  1

  0
LINE
  5
B3
330
B0
100
AcDbEntity
  8
0
  6
Continuous
 62
     7
440
 16777216
370
     0
100
AcDbLine
 10
-91.1614961599
 20
-239.839068045
 30
0.0
 11
128.2820851939
 21
-239.839068045
 31
0.0
  0
LINE
  5
B4
330
B0
100
AcDbEntity
  8
0
  6
Continuous
 62
     7
440
 16777216
370
     0
100
AcDbLine
 10
101.6285517767
 20
0.164030781
 30
0.0
 11
128.2820851939
 21
0.164030781
 31
0.0
  0
LINE
  5
B5
330
B0
100
AcDbEntity
  8
0
  6
Continuous
 62
     7
440
 16777216
370
     0
100
AcDbLine
 10
127.2820851939
 20
-239.839068045
 30
0.0
 11
127.2820851939
 21
0.164030781
 31
0.0
  0
MTEXT
  5
B6
330
B0
100
AcDbEntity
  8
0
  6
Continuous
 62
     7
440
 16777216
370
    18
100
AcDbMText
 10
118.4143731346
 20
-141.6751150197
 30
0.0
 40
6.879166666699999
 41
0.0
 46
0.0
 71
     1
 72
     1
  1
240.00
  7
SLDTEXTSTYLE0
 11
0.0000000000000001
 21
1.0
 31
0.0
 73
     1
 44
1.0
  0
ENDBLK
  5
B2
330
B0
100
AcDbEntity
  8
0
100
AcDbBlockEnd
  0
BLOCK
  5
B9
330
B8
100
AcDbEntity
  8
0
100
AcDbBlockBegin
  2
_D_2
 70
     0
 10
0.0
 20
0.0
 30
0.0
  3
_D_2
  1

  0
LINE
  5
BB
330
B8
100
AcDbEntity
  8
0
  6
Continuous
 62
     7
440
 16777216
370
     0
100
AcDbLine
 10
-173.1202760797
 20
-239.839068045
 30
0.0
 11
-209.4179139928
 21
-239.839068045
 31
0.0
  0
LINE
  5
BC
330
B8
100
AcDbEntity
  8
0
  6
Continuous
 62
     7
440
 16777216
370
     0
100
AcDbLine
 10
-123.8546531729
 20
90.16403078100001
 30
0.0
 11
-209.4179139928
 21
90.16403078100001
 31
0.0
  0
LINE
  5
BD
330
B8
100
AcDbEntity
  8
0
  6
Continuous
 62
     7
440
 16777216
370
     0
100
AcDbLine
 10
-208.4179139928
 20
-239.839068045
 30
0.0
 11
-208.4179139928
 21
90.16403078100001
 31
0.0
  0
MTEXT
  5
BE
330
B8
100
AcDbEntity
  8
0
  6
Continuous
 62
     7
440
 16777216
370
    18
100
AcDbMText
 10
-217.2856260521
 20
-89.2014954955
 30
0.0
 40
6.879166666699999
 41
0.0
 46
0.0
 71
     1
 72
     1
  1
330.00
  7
SLDTEXTSTYLE0
 11
0.0000000000000001
 21
1.0
 31
0.0
 73
     1
 44
1.0
  0
ENDBLK
  5
BA
330
B8
100
AcDbEntity
  8
0
100
AcDbBlockEnd
  0
BLOCK
  5
FB
330
FA
100
AcDbEntity
  8
0
100
AcDbBlockBegin
  2
_D_3
 70
     0
 10
0.0
 20
0.0
 30
0.0
  3
_D_3
  1

  0
LINE
  5
FD
330
FA
100
AcDbEntity
  8
0
  6
Continuous
 62
     7
440
 16777216
370
     0
100
AcDbLine
 10
217.6293433318
 20
-149.844068045
 30
0.0
 11
200.667638191
 21
-149.844068045
 31
0.0
  0
LINE
  5
FE
330
FA
100
AcDbEntity
  8
0
  6
Continuous
 62
     7
440
 16777216
370
     0
100
AcDbLine
 10
233.9674829875
 20
-239.839068045
 30
0.0
 11
200.667638191
 21
-239.839068045
 31
0.0
  0
LINE
  5
FF
330
FA
100
AcDbEntity
  8
0
  6
Continuous
 62
     7
440
 16777216
370
     0
100
AcDbLine
 10
201.667638191
 20
-149.844068045
 30
0.0
 11
201.667638191
 21
-239.839068045
 31
0.0
  0
MTEXT
  5
100
330
FA
100
AcDbEntity
  8
0
  6
Continuous
 62
     7
440
 16777216
370
    18
100
AcDbMText
 10
192.7999261316
 20
-202.3417953736
 30
0.0
 40
6.879166666699999
 41
0.0
 46
0.0
 71
     1
 72
     1
  1
90.00
  7
SLDTEXTSTYLE0
 11
-0.000000000000007
 21
1.0
 31
0.0
 73
     1
 44
1.0
  0
ENDBLK
  5
FC
330
FA
100
AcDbEntity
  8
0
100
AcDbBlockEnd
  0
BLOCK
  5
103
330
102
100
AcDbEntity
  8
0
100
AcDbBlockBegin
  2
_D_4
 70
     0
 10
0.0
 20
0.0
 30
0.0
  3
_D_4
  1

  0
LINE
  5
105
330
102
100
AcDbEntity
  8
0
  6
Continuous
 62
     7
440
 16777216
370
     0
100
AcDbLine
 10
354.8697164393
 20
-109.2980766267
 30
0.0
 11
384.667638191
 21
-109.2980766267
 31
0.0
  0
LINE
  5
106
330
102
100
AcDbEntity
  8
0
  6
Continuous
 62
     7
440
 16777216
370
     0
100
AcDbLine
 10
360.1796118274
 20
-194.294068045
 30
0.0
 11
384.667638191
 21
-194.294068045
 31
0.0
  0
LINE
  5
107
330
102
100
AcDbEntity
  8
0
  6
Continuous
 62
     7
440
 16777216
370
     0
100
AcDbLine
 10
383.667638191
 20
-109.2980766267
 30
0.0
 11
383.667638191
 21
-194.294068045
 31
0.0
  0
MTEXT
  5
108
330
102
100
AcDbEntity
  8
0
  6
Continuous
 62
     7
440
 16777216
370
    18
100
AcDbMText
 10
374.7999261316
 20
-163.2338361155
 30
0.0
 40
6.879166666699999
 41
0.0
 46
0.0
 71
     1
 72
     1
  1
85.00
  7
SLDTEXTSTYLE0
 11
-0.000000000000007
 21
1.0
 31
0.0
 73
     1
 44
1.0
  0
ENDBLK
  5
104
330
102
100
AcDbEntity
  8
0
100
AcDbBlockEnd
  0
BLOCK
  5
10B
330
10A
100
AcDbEntity
  8
0
100
AcDbBlockBegin
  2
_D_5
 70
     0
 10
0.0
 20
0.0
 30
0.0
  3
_D_5
  1

  0
LINE
  5
10D
330
10A
100
AcDbEntity
  8
0
  6
Continuous
 62
     7
440
 16777216
370
     0
100
AcDbLine
 10
248.667638191
 20
-246.5803810749
 30
0.0
 11
248.667638191
 21
-280.8390680449999
 31
0.0
  0
LINE
  5
10E
330
10A
100
AcDbEntity
  8
0
  6
Continuous
 62
     7
440
 16777216
370
     0
100
AcDbLine
 10
302.667638191
 20
-246.5803810749
 30
0.0
 11
302.667638191
 21
-280.8390680449999
 31
0.0
  0
LINE
  5
10F
330
10A
100
AcDbEntity
  8
0
  6
Continuous
 62
     7
440
 16777216
370
     0
100
AcDbLine
 10
248.667638191
 20
-279.839068045
 30
0.0
 11
302.667638191
 21
-279.839068045
 31
0.0
  0
MTEXT
  5
110
330
10A
100
AcDbEntity
  8
0
  6
Continuous
 62
     7
440
 16777216
370
    18
100
AcDbMText
 10
258.1276953718
 20
-270.9713559856
 30
0.0
 40
6.879166666699999
 41
0.0
 46
0.0
 71
     1
 72
     1
  1
%%c
  7
SLDTEXTSTYLE0
 73
     1
 44
1.0
  0
MTEXT
  5
111
330
10A
100
AcDbEntity
  8
0
  6
Continuous
 62
     7
440
 16777216
370
    18
100
AcDbMText
 10
268.5114149502
 20
-270.9713559856
 30
0.0
 40
6.879166666699999
 41
0.0
 46
0.0
 71
     1
 72
     1
  1
54.00
  7
SLDTEXTSTYLE0
 73
     1
 44
1.0
  0
ENDBLK
  5
10C
330
10A
100
AcDbEntity
  8
0
100
AcDbBlockEnd
  0
BLOCK
  5
114
330
113
100
AcDbEntity
  8
0
100
AcDbBlockBegin
  2
_D_6
 70
     0
 10
0.0
 20
0.0
 30
0.0
  3
_D_6
  1

  0
LINE
  5
116
330
113
100
AcDbEntity
  8
0
  6
Continuous
 62
     7
440
 16777216
370
     0
100
AcDbLine
 10
288.3861138046
 20
95.70364471100001
 30
0.0
 11
288.3861138046
 21
119.164030781
 31
0.0
  0
LINE
  5
117
330
113
100
AcDbEntity
  8
0
  6
Continuous
 62
     7
440
 16777216
370
     0
100
AcDbLine
 10
262.9861138046
 20
95.70364471100001
 30
0.0
 11
262.9861138046
 21
119.164030781
 31
0.0
  0
LINE
  5
118
330
113
100
AcDbEntity
  8
0
  6
Continuous
 62
     7
440
 16777216
370
     0
100
AcDbLine
 10
288.3861138046
 20
118.164030781
 30
0.0
 11
262.9861138046
 21
118.164030781
 31
0.0
  0
MTEXT
  5
119
330
113
100
AcDbEntity
  8
0
  6
Continuous
 62
     7
440
 16777216
370
    18
100
AcDbMText
 10
258.1276953718
 20
127.0317428403
 30
0.0
 40
6.879166666699999
 41
0.0
 46
0.0
 71
     1
 72
     1
  1
%%c
  7
SLDTEXTSTYLE0
 73
     1
 44
1.0
  0
MTEXT
  5
11A
330
113
100
AcDbEntity
  8
0
  6
Continuous
 62
     7
440
 16777216
370
    18
100
AcDbMText
 10
268.5114149502
 20
127.0317428403
 30
0.0
 40
6.879166666699999
 41
0.0
 46
0.0
 71
     1
 72
     1
  1
25.00
  7
SLDTEXTSTYLE0
 73
     1
 44
1.0
  0
ENDBLK
  5
115
330
113
100
AcDbEntity
  8
0
100
AcDbBlockEnd
  0
BLOCK
  5
143
330
142
100
AcDbEntity
  8
0
100
AcDbBlockBegin
  2
_D_7
 70
     0
 10
0.0
 20
0.0
 30
0.0
  3
_D_7
  1

  0
LINE
  5
145
330
142
100
AcDbEntity
  8
0
  6
Continuous
 62
     7
440
 16777216
370
     0
100
AcDbLine
 10
-171.0797980379999
 20
173.7494472362
 30
0.0
 11
-209.4179139928
 21
173.7494472362
 31
0.0
  0
LINE
  5
146
330
142
100
AcDbEntity
  8
0
  6
Continuous
 62
     7
440
 16777216
370
     0
100
AcDbLine
 10
-170.2045405565
 20
293.7494472362
 30
0.0
 11
-209.4179139928
 21
293.7494472362
 31
0.0
  0
LINE
  5
147
330
142
100
AcDbEntity
  8
0
  6
Continuous
 62
     7
440
 16777216
370
     0
100
AcDbLine
 10
-208.4179139928
 20
173.7494472362
 30
0.0
 11
-208.4179139928
 21
293.7494472362
 31
0.0
  0
MTEXT
  5
148
330
142
100
AcDbEntity
  8
0
  6
Continuous
 62
     7
440
 16777216
370
    18
100
AcDbMText
 10
-217.2856260521
 20
214.1527197502
 30
0.0
 40
6.879166666699999
 41
0.0
 46
0.0
 71
     1
 72
     1
  1
120.00
  7
SLDTEXTSTYLE0
 11
0.0000000000000001
 21
1.0
 31
0.0
 73
     1
 44
1.0
  0
ENDBLK
  5
144
330
142
100
AcDbEntity
  8
0
100
AcDbBlockEnd
  0
BLOCK
  5
14B
330
14A
100
AcDbEntity
  8
0
100
AcDbBlockBegin
  2
_D_8
 70
     0
 10
0.0
 20
0.0
 30
0.0
  3
_D_8
  1

  0
LINE
  5
14D
330
14A
100
AcDbEntity
  8
0
  6
Continuous
 62
     7
440
 16777216
370
     0
100
AcDbLine
 10
-157.5779139928
 20
299.6047820241
 30
0.0
 11
-157.5779139928
 21
316.7494472362
 31
0.0
  0
LINE
  5
14E
330
14A
100
AcDbEntity
  8
0
  6
Continuous
 62
     7
440
 16777216
370
     0
100
AcDbLine
 10
-113.1279139928
 20
300.5392685048
 30
0.0
 11
-113.1279139928
 21
316.7494472362
 31
0.0
  0
LINE
  5
14F
330
14A
100
AcDbEntity
  8
0
  6
Continuous
 62
     7
440
 16777216
370
     0
100
AcDbLine
 10
-157.5779139928
 20
315.7494472362
 30
0.0
 11
-113.1279139928
 21
315.7494472362
 31
0.0
  0
MTEXT
  5
150
330
14A
100
AcDbEntity
  8
0
  6
Continuous
 62
     7
440
 16777216
370
    18
100
AcDbMText
 10
-153.9676086893
 20
324.6171592955
 30
0.0
 40
6.879166666699999
 41
0.0
 46
0.0
 71
     1
 72
     1
  1
%%c
  7
SLDTEXTSTYLE0
 73
     1
 44
1.0
  0
MTEXT
  5
151
330
14A
100
AcDbEntity
  8
0
  6
Continuous
 62
     7
440
 16777216
370
    18
100
AcDbMText
 10
-143.5838891109
 20
324.6171592955
 30
0.0
 40
6.879166666699999
 41
0.0
 46
0.0
 71
     1
 72
     1
  1
45.00
  7
SLDTEXTSTYLE0
 73
     1
 44
1.0
  0
ENDBLK
  5
14C
330
14A
100
AcDbEntity
  8
0
100
AcDbBlockEnd
  0
BLOCK
  5
236
330
19E
100
AcDbEntity
  8
0
100
AcDbBlockBegin
  2
A$C79d5e8fb
 70
     0
 10
0.0
 20
0.0
 30
0.0
  3
A$C79d5e8fb
  1

  0
LINE
  5
19F
330
19E
100
AcDbEntity
  8
0
  6
Continuous
 62
     7
370
    25
100
AcDbLine
 10
85.68839776409999
 20
130.6753749086
 30
0.0
 11
85.68541245009999
 21
130.942767225
 31
0.0
  0
LINE
  5
1A0
330
19E
100
AcDbEntity
  8
0
  6
Continuous
 62
     7
370
    25
100
AcDbLine
 10
77.68567831169997
 20
130.8742974022
 30
0.0
 11
77.68875655849999
 21
130.5985811705999
 31
0.0
  0
LINE
  5
1A1
330
19E
100
AcDbEntity
  8
0
  6
Continuous
 62
     7
370
    25
100
AcDbLine
 10
304.5677112459
 20
281.503098826
 30
0.0
 11
304.5677112459
 21
297.703098826
 31
0.0
  0
LINE
  5
1A2
330
19E
100
AcDbEntity
  8
0
  6
Continuous
 62
     7
370
    25
100
AcDbLine
 10
279.1677112459
 20
297.703098826
 30
0.0
 11
279.1677112459
 21
281.503098826
 31
0.0
  0
ARC
  5
1A3
330
19E
100
AcDbEntity
  8
0
  6
Continuous
 62
     7
370
    25
100
AcDbCircle
 10
304.0677112459
 20
281.503098826
 30
0.0
 40
0.5000000000000005
100
AcDbArc
 50
270.0
 51
0.0
  0
ARC
  5
1A4
330
19E
100
AcDbEntity
  8
0
  6
Continuous
 62
     7
370
    25
100
AcDbCircle
 10
279.6677112459
 20
281.503098826
 30
0.0
 40
0.5000000000000005
100
AcDbArc
 50
180.0
 51
270.0
  0
LINE
  5
1A5
330
19E
100
AcDbEntity
  8
0
  6
Continuous
 62
     7
370
    25
100
AcDbLine
 10
94.56771205879999
 20
144.843098826
 30
0.0
 11
94.56771205879999
 21
313.303098826
 31
0.0
  0
LINE
  5
1A6
330
19E
100
AcDbEntity
  8
0
  6
Continuous
 62
     7
370
    25
100
AcDbLine
 10
69.16771205879999
 20
313.303098826
 30
0.0
 11
69.16771205879999
 21
144.843098826
 31
0.0
  0
SPLINE
  5
1A7
330
19E
100
AcDbEntity
  8
0
  6
Continuous
 62
     7
370
    25
100
AcDbSpline
210
0.0
220
0.0
230
1.0
 70
     8
 71
     3
 72
    25
 73
    21
 74
     0
 42
0.00000001
 43
0.0000000001
 40
0.0
 40
0.0
 40
0.0
 40
0.0
 40
0.0257175514060286
 40
0.0834278838952855
 40
0.1411540474951548
 40
0.1988802219453977
 40
0.2566063964089922
 40
0.3143325708812393
 40
0.3720587453645728
 40
0.4297849198610725
 40
0.4875110943723872
 40
0.5452372688996771
 40
0.6029634434435774
 40
0.6606896180041861
 40
0.7184157925810334
 40
0.7761419671731455
 40
0.8338681417790274
 40
0.8915943163967476
 40
0.9493204910239612
 40
1.0
 40
1.0
 40
1.0
 40
1.0
 10
94.56771205875657
 20
313.303098826004
 30
0.0
 10
94.57306635581389
 20
313.7379054527155
 30
0.0
 10
94.5904357261009
 20
315.148420637364
 30
0.0
 10
94.80277397450658
 20
317.5296749340351
 30
0.0
 10
95.3146149254359
 20
320.415702113252
 30
0.0
 10
96.08899603799628
 20
323.2436827936012
 30
0.0
 10
97.11541083324469
 20
325.9899496241214
 30
0.0
 10
98.38652327981098
 20
328.6319818725035
 30
0.0
 10
99.8915948878448
 20
331.1480588236458
 30
0.0
 10
101.6183377532386
 20
333.5175096814007
 30
0.0
 10
103.5525426367282
 20
335.720865126858
 30
0.0
 10
105.678322406615
 20
337.7400188348644
 30
0.0
 10
107.9782087065554
 20
339.5583883634607
 30
0.0
 10
110.4333042859191
 20
341.16100140285
 30
0.0
 10
113.0234369521089
 20
342.5348066988967
 30
0.0
 10
115.7273218039045
 20
343.6680796930935
 30
0.0
 10
118.5227515055799
 20
344.5531373521651
 30
0.0
 10
121.3867207432586
 20
345.1766289257093
 30
0.0
 10
124.1774596649111
 20
345.5406752148368
 30
0.0
 10
126.0106826457056
 20
345.5832126385396
 30
0.0
 10
126.8677118845994
 20
345.6030988260043
 30
0.0
  0
SPLINE
  5
1A8
330
19E
100
AcDbEntity
  8
0
  6
Continuous
 62
     7
370
    25
100
AcDbSpline
210
0.0
220
0.0
230
1.0
 70
     8
 71
     3
 72
    31
 73
    27
 74
     0
 42
0.00000001
 43
0.0000000001
 40
0.0
 40
0.0
 40
0.0
 40
0.0
 40
0.0257137917816326
 40
0.0688924265640615
 40
0.1120764018346581
 40
0.1552603791532648
 40
0.1984443564732227
 40
0.2416283337941354
 40
0.284812311116381
 40
0.3279962884403038
 40
0.3711802657662274
 40
0.4143642430944274
 40
0.4575482204251471
 40
0.5007321977585705
 40
0.5439161750948506
 40
0.5871001524340721
 40
0.6302841297762753
 40
0.6734681071214414
 40
0.7166520844694944
 40
0.7598360618203121
 40
0.8030200391737166
 40
0.8462040165294842
 40
0.8893879938873466
 40
0.9325719712469972
 40
0.9757559486081003
 40
1.0
 40
1.0
 40
1.0
 40
1.0
 10
126.8677118845996
 20
371.0030988260042
 30
0.0
 10
126.0909665213293
 20
370.9937081487801
 30
0.0
 10
124.0099092679879
 20
370.9685486333517
 30
0.0
 10
120.6310926774143
 20
370.7071726197134
 30
0.0
 10
116.7545431612581
 20
370.155517694444
 30
0.0
 10
112.9242794673726
 20
369.338460352733
 30
0.0
 10
109.1581696040145
 20
368.2646997476812
 30
0.0
 10
105.4735121780691
 20
366.9378569641239
 30
0.0
 10
101.8872617816348
 20
365.3643881186107
 30
0.0
 10
98.4159121442947
 20
363.5514359876277
 30
0.0
 10
95.07543069706427
 20
361.507364854351
 30
0.0
 10
91.88118233440718
 20
359.2415699209462
 30
0.0
 10
88.84785948612289
 20
356.7644748530175
 30
0.0
 10
85.98941435134998
 20
354.087472913413
 30
0.0
 10
83.3189947228662
 20
351.2228774825431
 30
0.0
 10
80.84888370034988
 20
348.1838646413189
 30
0.0
 10
78.59044243949418
 20
344.9844127603332
 30
0.0
 10
76.55406071845971
 20
341.6392382065485
 30
0.0
 10
74.7490986068336
 20
338.1637274500929
 30
0.0
 10
73.18388275608057
 20
334.5738671025661
 30
0.0
 10
71.86552126802837
 20
330.8861673452993
 30
0.0
 10
70.8004189843144
 20
327.1175973340786
 30
0.0
 10
69.99220292162189
 20
323.2854648035744
 30
0.0
 10
69.44933802366728
 20
319.4074944864284
 30
0.0
 10
69.19940008449208
 20
316.0722463014776
 30
0.0
 10
69.1760924306563
 20
314.0354412535022
 30
0.0
 10
69.16771205875656
 20
313.3030988260039
 30
0.0
  0
LINE
  5
1A9
330
19E
100
AcDbEntity
  8
0
  6
Continuous
 62
     7
370
    25
100
AcDbLine
 10
246.8677114202
 20
371.003098826
 30
0.0
 11
126.8677118845999
 21
371.003098826
 31
0.0
  0
LINE
  5
1AA
330
19E
100
AcDbEntity
  8
0
  6
Continuous
 62
     7
370
    25
100
AcDbLine
 10
126.8677118845999
 20
345.603098826
 30
0.0
 11
246.8677114202
 21
345.603098826
 31
0.0
  0
SPLINE
  5
1AB
330
19E
100
AcDbEntity
  8
0
  6
Continuous
 62
     7
370
    25
100
AcDbSpline
210
0.0
220
0.0
230
1.0
 70
     8
 71
     3
 72
    25
 73
    21
 74
     0
 42
0.00000001
 43
0.0000000001
 40
0.0
 40
0.0
 40
0.0
 40
0.0
 40
0.0257175513823365
 40
0.0834278840557921
 40
0.1411540478387905
 40
0.1988802224652031
 40
0.2566063970922096
 40
0.3143325717097707
 40
0.3720587463155557
 40
0.4297849209076042
 40
0.4875110954844585
 40
0.5452372700451188
 40
0.6029634445891296
 40
0.6606896191165698
 40
0.7184157936280849
 40
0.7761419681248237
 40
0.8338681426084292
 40
0.8915943170809701
 40
0.9493204915448766
 40
1.0
 40
1.0
 40
1.0
 40
1.0
 10
246.8677114201796
 20
345.6030988260043
 30
0.0
 10
247.3025180432239
 20
345.5977445289493
 30
0.0
 10
248.7130332199893
 20
345.5803751586207
 30
0.0
 10
251.0942875046375
 20
345.3680369091913
 30
0.0
 10
253.9803146715747
 20
344.8561959548421
 30
0.0
 10
256.80829533993
 20
344.0818148368172
 30
0.0
 10
259.5545621586758
 20
343.0554000341488
 30
0.0
 10
262.1965943954411
 20
341.7842875783315
 30
0.0
 10
264.7126713350872
 20
340.2792159594028
 30
0.0
 10
267.0821221814614
 20
338.5524730816998
 30
0.0
 10
269.2854776156897
 20
336.6182681847505
 30
0.0
 10
271.3046313126996
 20
334.4924884005354
 30
0.0
 10
273.1230008306562
 20
332.192602085685
 30
0.0
 10
274.7256138599296
 20
329.7375064911046
 30
0.0
 10
276.0994191465833
 20
327.1473738096433
 30
0.0
 10
277.2326921323377
 20
324.4434889427369
 30
0.0
 10
278.1177497841368
 20
321.6480592262821
 30
0.0
 10
278.7412413518709
 20
318.7840899742813
 30
0.0
 10
279.1052876360083
 20
315.9933510455126
 30
0.0
 10
279.147825058979
 20
314.1601280625238
 30
0.0
 10
279.1677112460225
 20
313.303098826004
 30
0.0
  0
SPLINE
  5
1AC
330
19E
100
AcDbEntity
  8
0
  6
Continuous
 62
     7
370
    25
100
AcDbSpline
210
0.0
220
0.0
230
1.0
 70
     8
 71
     3
 72
    31
 73
    27
 74
     0
 42
0.00000001
 43
0.0000000001
 40
0.0
 40
0.0
 40
0.0
 40
0.0
 40
0.0257137917549489
 40
0.0688924265808306
 40
0.1120764018952608
 40
0.1552603792572373
 40
0.1984443566193091
 40
0.2416283339803057
 40
0.2848123113398605
 40
0.3279962886976427
 40
0.3711802660533535
 40
0.414364243406711
 40
0.4575482207574972
 40
0.5007321981055438
 40
0.543916175450721
 40
0.5871001527929521
 40
0.6302841301322212
 40
0.6734681074685616
 40
0.7166520848020724
 40
0.7598360621328828
 40
0.8030200394611897
 40
0.8462040167872356
 40
0.889387994111281
 40
0.9325719714336539
 40
0.9757559487547084
 40
1.0
 40
1.0
 40
1.0
 40
1.0
 10
304.5677112460225
 20
313.3030988260039
 30
0.0
 10
304.5583205688574
 20
314.0798441902962
 30
0.0
 10
304.533161053555
 20
316.1609014490419
 30
0.0
 10
304.2717850409389
 20
319.5397180494304
 30
0.0
 10
303.720130117256
 20
323.4162675787377
 30
0.0
 10
302.9030727777207
 20
327.2465312856848
 30
0.0
 10
301.8293121754013
 20
331.012641161909
 30
0.0
 10
300.5024693951302
 20
334.697298600422
 30
0.0
 10
298.9290005534535
 20
338.2835490090256
 30
0.0
 10
297.1160484268615
 20
341.7548986580418
 30
0.0
 10
295.0719772985392
 20
345.0953801163683
 30
0.0
 10
292.8061823706646
 20
348.2896284894632
 30
0.0
 10
290.3290873088559
 20
351.3229513474598
 30
0.0
 10
287.6520853759762
 20
354.1813964911642
 30
0.0
 10
284.7874899524484
 20
356.8518161277556
 30
0.0
 10
281.7484771191945
 20
359.321927157525
 30
0.0
 10
278.5490252468115
 20
361.5803684247619
 30
0.0
 10
275.2038507022597
 20
363.6167501513002
 30
0.0
 10
271.7283399556564
 20
365.4217122675576
 30
0.0
 10
268.1384796185809
 20
366.9869281220854
 30
0.0
 10
264.4507798723333
 20
368.3052896130788
 30
0.0
 10
260.6822098726574
 20
369.3703918989306
 30
0.0
 10
256.85007735417
 20
370.1786079629911
 30
0.0
 10
252.9721070494487
 20
370.7214728615835
 30
0.0
 10
249.6368588790658
 20
370.9714108004271
 30
0.0
 10
247.6000538415247
 20
370.9947184541666
 30
0.0
 10
246.8677114201794
 20
371.0030988260044
 30
0.0
  0
LINE
  5
1AD
330
19E
100
AcDbEntity
  8
0
  6
Continuous
 62
     7
370
    25
100
AcDbLine
 10
304.567711246
 20
297.9030988259999
 30
0.0
 11
304.567711246
 21
313.303098826
 31
0.0
  0
LINE
  5
1AE
330
19E
100
AcDbEntity
  8
0
  6
Continuous
 62
     7
370
    25
100
AcDbLine
 10
279.167711246
 20
313.303098826
 30
0.0
 11
279.167711246
 21
297.9030988259999
 31
0.0
  0
LINE
  5
1AF
330
19E
100
AcDbEntity
  8
0
  6
Continuous
 62
     7
370
    25
100
AcDbLine
 10
104.0927120593
 20
44.99999999999997
 30
0.0
 11
104.0927120593
 21
89.16999999999999
 31
0.0
  0
LINE
  5
1B0
330
19E
100
AcDbEntity
  8
0
  6
Continuous
 62
     7
370
    25
100
AcDbLine
 10
59.64271205929998
 20
89.16999999999999
 30
0.0
 11
59.64271205929998
 21
44.99999999999997
 31
0.0
  0
ARC
  5
1B1
330
19E
100
AcDbEntity
  8
0
  6
Continuous
 62
     7
370
    25
100
AcDbCircle
 10
39.14095403689998
 20
91.67382303469997
 30
0.0
 40
65.0
100
AcDbArc
 50
357.7924000930014
 51
8.846472607600732
  0
ARC
  5
1B2
330
19E
100
AcDbEntity
  8
0
  6
Continuous
 62
     7
370
    25
100
AcDbCircle
 10
124.5944700818
 20
91.67382303469997
 30
0.0
 40
65.0
100
AcDbArc
 50
171.1535273923992
 51
182.2075999069985
  0
LINE
  5
1B3
330
19E
100
AcDbEntity
  8
0
  6
Continuous
 62
     7
370
    25
100
AcDbLine
 10
94.56771205929998
 20
127.3444713077
 30
0.0
 11
94.56771205929998
 21
144.843098826
 31
0.0
  0
LINE
  5
1B4
330
19E
100
AcDbEntity
  8
0
  6
Continuous
 62
     7
370
    25
100
AcDbLine
 10
69.16771205929999
 20
144.843098826
 30
0.0
 11
69.16771205929999
 21
127.3520746662
 31
0.0
  0
LINE
  5
1B5
330
19E
100
AcDbEntity
  8
0
  6
Continuous
 62
     7
370
    25
100
AcDbLine
 10
108.8677120592999
 20
40.99999999999996
 30
0.0
 11
108.8677120592999
 21
44.99999999999997
 31
0.0
  0
LINE
  5
1B6
330
19E
100
AcDbEntity
  8
0
  6
Continuous
 62
     7
370
    25
100
AcDbLine
 10
54.86771205929997
 20
44.99999999999997
 30
0.0
 11
54.86771205929997
 21
40.99999999999996
 31
0.0
  0
LINE
  5
1B7
330
19E
100
AcDbEntity
  8
0
  6
Continuous
 62
     7
370
    25
100
AcDbLine
 10
104.1091461326
 20
110.2384674989999
 30
0.0
 11
104.0441941389
 21
110.2377423394
 31
0.0
  0
ARC
  5
1B8
330
19E
100
AcDbEntity
  8
0
  6
Continuous
 62
     7
370
    25
100
AcDbCircle
 10
81.93271205929997
 20
108.77
 30
0.0
 40
22.22500000000001
100
AcDbArc
 50
341.3697247942001
 51
3.788451242499184
  0
ARC
  5
1B9
330
19E
100
AcDbEntity
  8
0
  6
Continuous
 62
     7
370
    25
100
AcDbCircle
 10
81.93271205929997
 20
108.77
 30
0.0
 40
22.22500000000002
100
AcDbArc
 50
3.788451242499184
 51
90.08378476569959
  0
LINE
  5
1BA
330
19E
100
AcDbEntity
  8
0
  6
Continuous
 62
     7
370
    25
100
AcDbLine
 10
291.8677112459
 20
297.703098826
 30
0.0
 11
279.1677112459
 21
297.703098826
 31
0.0
  0
LINE
  5
1BB
330
19E
100
AcDbEntity
  8
0
  6
Continuous
 62
     7
370
    25
100
AcDbLine
 10
304.5677112459
 20
297.703098826
 30
0.0
 11
291.8677112459
 21
297.703098826
 31
0.0
  0
LINE
  5
1BC
330
19E
100
AcDbEntity
  8
0
  6
Continuous
 62
     7
370
    25
100
AcDbLine
 10
291.8677112459
 20
281.003098826
 30
0.0
 11
279.6677112459
 21
281.003098826
 31
0.0
  0
LINE
  5
1BD
330
19E
100
AcDbEntity
  8
0
  6
Continuous
 62
     7
370
    25
100
AcDbLine
 10
304.0677112459
 20
281.003098826
 30
0.0
 11
291.8677112459
 21
281.003098826
 31
0.0
  0
LINE
  5
1BE
330
19E
100
AcDbEntity
  8
0
  6
Continuous
 62
     7
370
    25
100
AcDbLine
 10
69.16771205879999
 20
144.843098826
 30
0.0
 11
94.56771205879999
 21
144.843098826
 31
0.0
  0
LINE
  5
1BF
330
19E
100
AcDbEntity
  8
0
  6
Continuous
 62
     7
370
    25
100
AcDbLine
 10
304.567711246
 20
297.9030988259999
 30
0.0
 11
279.167711246
 21
297.9030988259999
 31
0.0
  0
LINE
  5
1C0
330
19E
100
AcDbEntity
  8
0
  6
Continuous
 62
     7
370
    25
100
AcDbLine
 10
71.38960989339998
 20
89.16999999999999
 30
0.0
 11
59.64271205929998
 21
89.16999999999999
 31
0.0
  0
LINE
  5
1C1
330
19E
100
AcDbEntity
  8
0
  6
Continuous
 62
     7
370
    25
100
AcDbLine
 10
104.0927120593
 20
89.16999999999999
 30
0.0
 11
92.34581422529998
 21
89.16999999999999
 31
0.0
  0
LINE
  5
1C2
330
19E
100
AcDbEntity
  8
0
  6
Continuous
 62
     7
370
    25
100
AcDbLine
 10
103.3677120594
 20
101.67
 30
0.0
 11
102.9281162576999
 21
101.67
 31
0.0
  0
LINE
  5
1C3
330
19E
100
AcDbEntity
  8
0
  6
Continuous
 62
     7
370
    25
100
AcDbLine
 10
60.80730786089998
 20
101.67
 30
0.0
 11
60.36771205929998
 21
101.67
 31
0.0
  0
LINE
  5
1C4
330
19E
100
AcDbEntity
  8
0
  6
Continuous
 62
     7
370
    25
100
AcDbLine
 10
81.86771205929998
 20
144.843098826
 30
0.0
 11
69.16771205929999
 21
144.843098826
 31
0.0
  0
LINE
  5
1C5
330
19E
100
AcDbEntity
  8
0
  6
Continuous
 62
     7
370
    25
100
AcDbLine
 10
94.56771205929998
 20
144.843098826
 30
0.0
 11
81.86771205929998
 21
144.843098826
 31
0.0
  0
SPLINE
  5
1C6
330
19E
100
AcDbEntity
  8
0
  6
Continuous
 62
     7
370
    25
100
AcDbSpline
210
0.0
220
0.0
230
1.0
 70
     8
 71
     3
 72
    24
 73
    20
 74
     0
 42
0.00000001
 43
0.0000000001
 40
0.0
 40
0.0
 40
0.0
 40
0.0
 40
0.0954324209452641
 40
0.1439388785296951
 40
0.1931994565299781
 40
0.2885060959694474
 40
0.3368038307354984
 40
0.3856993242918054
 40
0.4365337187175677
 40
0.4879725906917037
 40
0.5397112356974684
 40
0.5920617900536481
 40
0.6479740656005685
 40
0.7047487532403532
 40
0.7619819299205225
 40
0.8202045324343472
 40
0.9084595584224876
 40
0.9985779052102188
 40
1.0
 40
1.0
 40
1.0
 40
1.0
 10
81.86771205934419
 20
131.27000000002
 30
0.0
 10
82.51781376385897
 20
131.2543146684305
 30
0.0
 10
83.49834961688708
 20
131.2306567855435
 30
0.0
 10
84.78233184267569
 20
131.0867888008671
 30
0.0
 10
86.03578416139828
 20
130.8965599584708
 30
0.0
 10
87.23333574152055
 20
130.6345244167969
 30
0.0
 10
88.35139354931758
 20
130.3213418288728
 30
0.0
 10
89.16891186458318
 20
130.058094752042
 30
0.0
 10
89.95574405583798
 20
129.7714816856914
 30
0.0
 10
90.70422946269168
 20
129.4671660033599
 30
0.0
 10
91.40306899254857
 20
129.154072246821
 30
0.0
 10
92.06000248607358
 20
128.833298436829
 30
0.0
 10
92.66779305778191
 20
128.512246498453
 30
0.0
 10
93.21498435172157
 20
128.2020413244796
 30
0.0
 10
93.68279164081508
 20
127.9204304353223
 30
0.0
 10
94.1319238835705
 20
127.6358909256588
 30
0.0
 10
94.4555540603452
 20
127.420167062741
 30
0.0
 10
94.60965108083858
 20
127.3146229903416
 30
0.0
 10
94.56636323353029
 20
127.344014702974
 30
0.0
 10
94.56569075018789
 20
127.3444713077345
 30
0.0
  0
SPLINE
  5
1C7
330
19E
100
AcDbEntity
  8
0
  6
Continuous
 62
     7
370
    25
100
AcDbSpline
210
0.0
220
0.0
230
1.0
 70
     8
 71
     3
 72
    23
 73
    19
 74
     0
 42
0.00000001
 43
0.0000000001
 40
0.0
 40
0.0
 40
0.0
 40
0.0
 40
0.078434198915316
 40
0.1691199189797497
 40
0.2571700396603467
 40
0.3466696536575767
 40
0.3971732464790744
 40
0.4482630023017095
 40
0.4996442411820416
 40
0.5516228344666016
 40
0.6076641119599869
 40
0.6641177568357695
 40
0.7219545644535089
 40
0.780313387195506
 40
0.8339279080349966
 40
0.8885548747677432
 40
0.9437165566892003
 40
1.0
 40
1.0
 40
1.0
 40
1.0
 10
69.18090653272097
 20
127.3520746662359
 30
0.0
 10
69.1951351969943
 20
127.3618974808909
 30
0.0
 10
69.22581506091029
 20
127.3830774462833
 30
0.0
 10
69.58947889365799
 20
127.6275737162864
 30
0.0
 10
70.18322977177049
 20
128.0039321571464
 30
0.0
 10
70.8781186576571
 20
128.4096080693374
 30
0.0
 10
71.56928590267799
 20
128.7783724640965
 30
0.0
 10
72.18418274559408
 20
129.0838117859328
 30
0.0
 10
72.86451441214149
 20
129.3950699676024
 30
0.0
 10
73.62587573615906
 20
129.712072778469
 30
0.0
 10
74.47224109275708
 20
130.0269809156589
 30
0.0
 10
75.41023569583197
 20
130.3314243808113
 30
0.0
 10
76.41938594799029
 20
130.6092791004559
 30
0.0
 10
77.46406644002568
 20
130.8435748872671
 30
0.0
 10
78.53057835462988
 20
131.0298642383304
 30
0.0
 10
79.60824155970169
 20
131.1646671233206
 30
0.0
 10
80.72631110912178
 20
131.253147932686
 30
0.0
 10
81.48470052925857
 20
131.2643450756103
 30
0.0
 10
81.86771205934419
 20
131.27000000002
 30
0.0
  0
CIRCLE
  5
1C8
330
19E
100
AcDbEntity
  8
0
  6
Continuous
 62
     7
370
    25
100
AcDbCircle
 10
81.86771205929998
 20
108.77
 30
0.0
 40
22.22500000000001
  0
LINE
  5
1C9
330
19E
100
AcDbEntity
  8
0
  6
Continuous
 62
     7
370
    25
100
AcDbLine
 10
54.86771205929997
 20
40.99999999999996
 30
0.0
 11
108.8677120592999
 21
40.99999999999996
 31
0.0
  0
LINE
  5
1CA
330
19E
100
AcDbEntity
  8
0
  6
Continuous
 62
     7
370
    25
100
AcDbLine
 10
54.86771205929997
 20
44.99999999999997
 30
0.0
 11
108.8677120592999
 21
44.99999999999997
 31
0.0
  0
POINT
  5
1CB
330
19E
100
AcDbEntity
  8
0
  6
Continuous
 62
     7
370
     0
100
AcDbPoint
 10
81.86771205929998
 20
40.99999999999996
 30
0.0
  0
POINT
  5
1CC
330
19E
100
AcDbEntity
  8
0
  6
Continuous
 62
     7
370
     0
100
AcDbPoint
 10
291.8677112459
 20
281.003098826
 30
0.0
  0
DIMENSION
  5
1CD
330
19E
100
AcDbEntity
  8
0
  6
Continuous
 62
     7
370
    18
100
AcDbDimension
280
     0
  2
_D
 10
81.86771205929998
 20
1.0
 30
0.0
 11
186.0212683708
 21
1.0
 31
0.0
 12
217.2856260521
 22
280.8390680449999
 32
0.0
 70
   128
  1
<>
 71
     2
 42
-1.0
 73
     0
 74
     0
 75
     0
  3
SLDDIMSTYLE0
100
AcDbAlignedDimension
 13
291.8677112459
 23
281.003098826
 33
0.0
 14
81.86771205929998
 24
40.99999999999996
 34
0.0
100
AcDbRotatedDimension
  0
DIMENSION
  5
1CE
330
19E
100
AcDbEntity
  8
0
  6
Continuous
 62
     7
370
    18
100
AcDbDimension
280
     0
  2
_D_1
 10
344.567711246
 20
281.003098826
 30
0.0
 11
344.567711246
 21
153.1388524513999
 31
0.0
 12
217.2856260521
 22
280.8390680449999
 32
0.0
 70
   128
  1
<>
 71
     2
 42
-1.0
 73
     0
 74
     0
 75
     0
  3
SLDDIMSTYLE0
100
AcDbAlignedDimension
 13
108.8677120592999
 23
40.99999999999996
 33
0.0
 14
304.0677112459
 24
281.003098826
 34
0.0
 50
90.0
100
AcDbRotatedDimension
  0
DIMENSION
  5
1CF
330
19E
100
AcDbEntity
  8
0
  6
Continuous
 62
     7
370
    18
100
AcDbDimension
280
     0
  2
_D_2
 10
8.867712059300004
 20
371.003098826
 30
0.0
 11
8.867712059300004
 21
205.6124719756
 31
0.0
 12
217.2856260521
 22
280.8390680449999
 32
0.0
 70
   128
  1
<>
 71
     2
 42
-1.0
 73
     0
 74
     0
 75
     0
  3
SLDDIMSTYLE0
100
AcDbAlignedDimension
 13
54.86771205929997
 23
40.99999999999996
 33
0.0
 14
126.8677118845999
 24
371.003098826
 34
0.0
 50
90.0
100
AcDbRotatedDimension
  0
LINE
  5
1D0
330
19E
100
AcDbEntity
  8
0
  6
Continuous
 62
     7
370
    25
100
AcDbLine
 10
552.5175667992999
 20
130.9949999999999
 30
0.0
 11
539.9532642430999
 21
130.9949999999999
 31
0.0
  0
LINE
  5
1D1
330
19E
100
AcDbEntity
  8
0
  6
Continuous
 62
     7
370
    25
100
AcDbLine
 10
566.7532642430999
 20
130.9949999999999
 30
0.0
 11
560.6224795477999
 21
130.9949999999999
 31
0.0
  0
LINE
  5
1D2
330
19E
100
AcDbEntity
  8
0
  6
Continuous
 62
     7
370
    25
100
AcDbLine
 10
548.952732587
 20
86.54499999999998
 30
0.0
 11
566.7532642430999
 21
86.54499999999998
 31
0.0
  0
LINE
  5
1D3
330
19E
100
AcDbEntity
  8
0
  6
Continuous
 62
     7
370
    25
100
AcDbLine
 10
566.7532642430999
 20
86.54499999999998
 30
0.0
 11
566.9532642431
 21
86.74499999999998
 31
0.0
  0
LINE
  5
1D4
330
19E
100
AcDbEntity
  8
0
  6
Continuous
 62
     7
370
    25
100
AcDbLine
 10
566.9532642431
 20
130.795
 30
0.0
 11
566.7532642430999
 21
130.9949999999999
 31
0.0
  0
LINE
  5
1D5
330
19E
100
AcDbEntity
  8
0
  6
Continuous
 62
     7
370
    25
100
AcDbLine
 10
560.5532642431
 20
130.9844333997
 30
0.0
 11
560.5532642431
 21
171.5409914183
 31
0.0
  0
LINE
  5
1D6
330
19E
100
AcDbEntity
  8
0
  6
Continuous
 62
     7
370
    25
100
AcDbLine
 10
552.5532642431
 20
171.5409914183
 30
0.0
 11
552.5532642431
 21
130.9853430934
 31
0.0
  0
LINE
  5
1D7
330
19E
100
AcDbEntity
  8
0
  6
Continuous
 62
     7
370
    25
100
AcDbLine
 10
505.6717398566999
 20
281.503098826
 30
0.0
 11
505.6717398566999
 21
297.703098826
 31
0.0
  0
LINE
  5
1D8
330
19E
100
AcDbEntity
  8
0
  6
Continuous
 62
     7
370
    25
100
AcDbLine
 10
480.2717398567
 20
297.703098826
 30
0.0
 11
480.2717398567
 21
281.503098826
 31
0.0
  0
ARC
  5
1D9
330
19E
100
AcDbEntity
  8
0
  6
Continuous
 62
     7
370
    25
100
AcDbCircle
 10
505.1717398566999
 20
281.503098826
 30
0.0
 40
0.5000000000000005
100
AcDbArc
 50
270.0
 51
0.0
  0
ARC
  5
1DA
330
19E
100
AcDbEntity
  8
0
  6
Continuous
 62
     7
370
    25
100
AcDbCircle
 10
480.7717398567
 20
281.503098826
 30
0.0
 40
0.5000000000000005
100
AcDbArc
 50
180.0
 51
270.0
  0
SPLINE
  5
1DB
330
19E
100
AcDbEntity
  8
0
  6
Continuous
 62
     7
370
    25
100
AcDbSpline
210
0.0
220
0.0
230
1.0
 70
     8
 71
     3
 72
    29
 73
    25
 74
     0
 42
0.00000001
 43
0.0000000001
 40
0.0
 40
0.0
 40
0.0
 40
0.0
 40
0.0013654291940286
 40
0.0204716805359523
 40
0.0572437538596022
 40
0.104437335231022
 40
0.1538004906958151
 40
0.2035017222655461
 40
0.2532803729493577
 40
0.3030849361166404
 40
0.3529005263766274
 40
0.4027215977650158
 40
0.4525457034809651
 40
0.5023716265605902
 40
0.5521987048707527
 40
0.602026551940419
 40
0.6518549289458772
 40
0.7016836810243933
 40
0.751512703416366
 40
0.8013419224336026
 40
0.8511712842288009
 40
0.901000747865569
 40
0.9508302808467615
 40
1.0
 40
1.0
 40
1.0
 40
1.0
 10
480.2679649990195
 20
358.2430897909296
 30
0.0
 10
480.2679614172851
 20
358.2439092120113
 30
0.0
 10
480.2679077168636
 20
358.2561946726445
 30
0.0
 10
480.26811239666
 20
358.1827840886119
 30
0.0
 10
480.2682473437363
 20
357.9921127539154
 30
0.0
 10
480.2685420564723
 20
357.5158851223789
 30
0.0
 10
480.268823164224
 20
356.7534303563941
 30
0.0
 10
480.2691143184747
 20
355.7207195952413
 30
0.0
 10
480.2693956809772
 20
354.4358940020071
 30
0.0
 10
480.2696685851156
 20
352.9074544502594
 30
0.0
 10
480.269930256279
 20
351.1450992455922
 30
0.0
 10
480.270179360898
 20
349.1593320417086
 30
0.0
 10
480.270414333751
 20
346.9619604637841
 30
0.0
 10
480.2706337961959
 20
344.5659831537168
 30
0.0
 10
480.2708364423064
 20
341.9855583577775
 30
0.0
 10
480.2710210743064
 20
339.2359215322255
 30
0.0
 10
480.2711866013634
 20
336.3333012354005
 30
0.0
 10
480.2713320429254
 20
333.2948249825748
 30
0.0
 10
480.2714565510842
 20
330.1384194199957
 30
0.0
 10
480.2715593502209
 20
326.8827056377456
 30
0.0
 10
480.271639985247
 20
323.5468883723087
 30
0.0
 10
480.2716974142894
 20
320.150648344361
 30
0.0
 10
480.2717332518725
 20
316.7291762071359
 30
0.0
 10
480.2717376649092
 20
314.4400390447523
 30
0.0
 10
480.2717398567216
 20
313.303098826004
 30
0.0
  0
SPLINE
  5
1DC
330
19E
100
AcDbEntity
  8
0
  6
Continuous
 62
     7
370
    25
100
AcDbSpline
210
0.0
220
0.0
230
1.0
 70
     8
 71
     3
 72
    33
 73
    29
 74
     0
 42
0.00000001
 43
0.0000000001
 40
0.0
 40
0.0
 40
0.0
 40
0.0
 40
0.0256876721411873
 40
0.0745288046016159
 40
0.1233786336634965
 40
0.1722285045454411
 40
0.2210784377330771
 40
0.2699284620572663
 40
0.3187786128281931
 40
0.3676289352187003
 40
0.4164794893208466
 40
0.4653303580535232
 40
0.5141816600733225
 40
0.5630335718166753
 40
0.6118863670473935
 40
0.66074049203419
 40
0.7095967187574371
 40
0.7584564853040736
 40
0.8073227409294808
 40
0.85620238149683
 40
0.9051149466988242
 40
0.9541366216549054
 40
0.9765645337039336
 40
0.9877932310680902
 40
0.9934801477604572
 40
0.9954294178887883
 40
0.9971272613942263
 40
1.0
 40
1.0
 40
1.0
 40
1.0
 10
505.6717398567216
 20
313.303098826004
 30
0.0
 10
505.6717392071261
 20
313.9088894413453
 30
0.0
 10
505.6717373224256
 20
315.6664971432854
 30
0.0
 10
505.6717163710247
 20
318.5700896446006
 30
0.0
 10
505.6716694585522
 20
321.9873710099313
 30
0.0
 10
505.6715992918186
 20
325.3537373574854
 30
0.0
 10
505.6715066883769
 20
328.649014689588
 30
0.0
 10
505.6713920866406
 20
331.8538035002385
 30
0.0
 10
505.6712561909255
 20
334.9491976004428
 30
0.0
 10
505.6710997944338
 20
337.9169475608579
 30
0.0
 10
505.6709238208752
 20
340.7395547270114
 30
0.0
 10
505.6707293062006
 20
343.4003785591794
 30
0.0
 10
505.6705173966548
 20
345.8837343946905
 30
0.0
 10
505.6702893367851
 20
348.1749873159531
 30
0.0
 10
505.6700464763364
 20
350.2606399014756
 30
0.0
 10
505.6697902057475
 20
352.1284159510891
 30
0.0
 10
505.6695221500036
 20
353.7673356189783
 30
0.0
 10
505.6692433851293
 20
355.1678061904582
 30
0.0
 10
505.6689572699961
 20
356.3216622416316
 30
0.0
 10
505.6686586788514
 20
357.2224823105851
 30
0.0
 10
505.6683735881911
 20
357.8652829035787
 30
0.0
 10
505.6680748991949
 20
358.1796663167836
 30
0.0
 10
505.6679701295676
 20
358.2925423129272
 30
0.0
 10
505.6677223349583
 20
358.3436706574793
 30
0.0
 10
505.6676158076853
 20
358.3900634177372
 30
0.0
 10
505.666654745537
 20
358.4767298868907
 30
0.0
 10
505.664914804424
 20
358.5882813024752
 30
0.0
 10
505.6616283228745
 20
358.6937501349892
 30
0.0
 10
505.6595626773626
 20
358.7600402441036
 30
0.0
  0
LINE
  5
1DD
330
19E
100
AcDbEntity
  8
0
  6
Continuous
 62
     7
370
    25
100
AcDbLine
 10
505.6717398566999
 20
297.9030988259999
 30
0.0
 11
505.6717398566999
 21
313.303098826
 31
0.0
  0
LINE
  5
1DE
330
19E
100
AcDbEntity
  8
0
  6
Continuous
 62
     7
370
    25
100
AcDbLine
 10
480.2717398567
 20
313.303098826
 30
0.0
 11
480.2717398567
 21
297.9030988259999
 31
0.0
  0
LINE
  5
1DF
330
19E
100
AcDbEntity
  8
0
  6
Continuous
 62
     7
370
    25
100
AcDbLine
 10
492.9677807964999
 20
371.003098826
 30
0.0
 11
492.9572233027
 21
371.003098826
 31
0.0
  0
SPLINE
  5
1E0
330
19E
100
AcDbEntity
  8
0
  6
Continuous
 62
     7
370
    25
100
AcDbSpline
210
0.0
220
0.0
230
1.0
 70
     8
 71
     3
 72
    32
 73
    28
 74
     0
 42
0.00000001
 43
0.0000000001
 40
0.0
 40
0.0
 40
0.0
 40
0.0
 40
0.0012746404983041
 40
0.0033022995416016
 40
0.0073850964428446
 40
0.0175405997647331
 40
0.0416891032203702
 40
0.0888178764981071
 40
0.1387325019564521
 40
0.1879751603788676
 40
0.2371077320740427
 40
0.2862078564953925
 40
0.3352949442093523
 40
0.3843757713510381
 40
0.4334532125513765
 40
0.4825286596998686
 40
0.5316028552497732
 40
0.5806762259256903
 40
0.6297490321453719
 40
0.6788214409925627
 40
0.7278935644359408
 40
0.776965480544701
 40
0.8260372458708404
 40
0.8751089030117464
 40
0.9241804854386547
 40
0.9732520207316998
 40
1.0
 40
1.0
 40
1.0
 40
1.0
 10
480.2585905437367
 20
358.4897797532232
 30
0.0
 10
480.2583782378211
 20
358.474192007607
 30
0.0
 10
480.2578282021609
 20
358.4338077539519
 30
0.0
 10
480.257492526121
 20
358.3900210255653
 30
0.0
 10
480.2571929498628
 20
358.3417661753149
 30
0.0
 10
480.2571096203005
 20
358.296812881458
 30
0.0
 10
480.2568810333347
 20
358.1840998689862
 30
0.0
 10
480.2566560225149
 20
357.8750023126259
 30
0.0
 10
480.2563486435111
 20
357.2449325762302
 30
0.0
 10
480.2560545606437
 20
356.3442207037465
 30
0.0
 10
480.2557661236616
 20
355.1939017542271
 30
0.0
 10
480.2554875023609
 20
353.7976323498929
 30
0.0
 10
480.2552190414429
 20
352.1629739100454
 30
0.0
 10
480.2549625271054
 20
350.2993752976861
 30
0.0
 10
480.2547193659954
 20
348.2177313551046
 30
0.0
 10
480.2544909974525
 20
345.9302709486434
 30
0.0
 10
480.2542787551034
 20
343.4504555252735
 30
0.0
 10
480.2540838876049
 20
340.7928917427598
 30
0.0
 10
480.2539075412745
 20
337.9732404690954
 30
0.0
 10
480.2537507539654
 20
335.0081219449385
 30
0.0
 10
480.2536144513197
 20
331.9150173823544
 30
0.0
 10
480.2534994285685
 20
328.7121615212273
 30
0.0
 10
480.253406393008
 20
325.4184479342051
 30
0.0
 10
480.2533357830876
 20
322.0532674947448
 30
0.0
 10
480.2532884251346
 20
318.6365795814606
 30
0.0
 10
480.2532669128738
 20
315.7110259577504
 30
0.0
 10
480.2532649389413
 20
313.9310481167072
 30
0.0
 10
480.2532642425679
 20
313.3030988260039
 30
0.0
  0
LINE
  5
1E1
330
19E
100
AcDbEntity
  8
0
  6
Continuous
 62
     7
370
    25
100
AcDbLine
 10
505.6532642425999
 20
144.843098826
 30
0.0
 11
505.6532642425999
 21
281.3684352978
 31
0.0
  0
LINE
  5
1E2
330
19E
100
AcDbEntity
  8
0
  6
Continuous
 62
     7
370
    25
100
AcDbLine
 10
505.6532642425999
 20
297.703098826
 30
0.0
 11
505.6532642425999
 21
297.9030988259999
 31
0.0
  0
LINE
  5
1E3
330
19E
100
AcDbEntity
  8
0
  6
Continuous
 62
     7
370
    25
100
AcDbLine
 10
480.2532642425999
 20
313.303098826
 30
0.0
 11
480.2532642425999
 21
144.843098826
 31
0.0
  0
LINE
  5
1E4
330
19E
100
AcDbEntity
  8
0
  6
Continuous
 62
     7
370
    25
100
AcDbLine
 10
515.1782642430999
 20
44.99999999999997
 30
0.0
 11
515.1782642430999
 21
86.54499999999998
 31
0.0
  0
LINE
  5
1E5
330
19E
100
AcDbEntity
  8
0
  6
Continuous
 62
     7
370
    25
100
AcDbLine
 10
470.7282642430999
 20
86.54499999999998
 30
0.0
 11
470.7282642430999
 21
44.99999999999997
 31
0.0
  0
LINE
  5
1E6
330
19E
100
AcDbEntity
  8
0
  6
Continuous
 62
     7
370
    25
100
AcDbLine
 10
505.6532642430999
 20
131.266530532
 30
0.0
 11
505.6532642430999
 21
144.843098826
 31
0.0
  0
LINE
  5
1E7
330
19E
100
AcDbEntity
  8
0
  6
Continuous
 62
     7
370
    25
100
AcDbLine
 10
480.2532642431
 20
144.843098826
 30
0.0
 11
480.2532642431
 21
131.2699999999999
 31
0.0
  0
LINE
  5
1E8
330
19E
100
AcDbEntity
  8
0
  6
Continuous
 62
     7
370
    25
100
AcDbLine
 10
446.9532642431
 20
86.54499999999998
 30
0.0
 11
470.7282642430999
 21
86.54499999999998
 31
0.0
  0
LINE
  5
1E9
330
19E
100
AcDbEntity
  8
0
  6
Continuous
 62
     7
370
    25
100
AcDbLine
 10
515.1782642430999
 20
86.54499999999998
 30
0.0
 11
537.3532642430999
 21
86.54499999999998
 31
0.0
  0
LINE
  5
1EA
330
19E
100
AcDbEntity
  8
0
  6
Continuous
 62
     7
370
    25
100
AcDbLine
 10
537.3532642430999
 20
130.9949999999999
 30
0.0
 11
505.1575604367999
 21
130.9949999999999
 31
0.0
  0
LINE
  5
1EB
330
19E
100
AcDbEntity
  8
0
  6
Continuous
 62
     7
370
    25
100
AcDbLine
 10
480.7481519818
 20
130.9949999999999
 30
0.0
 11
446.9532642431
 21
130.9949999999999
 31
0.0
  0
ARC
  5
1EC
330
19E
100
AcDbEntity
  8
0
  6
Continuous
 62
     7
370
    25
100
AcDbCircle
 10
536.5039534406999
 20
108.2519586417999
 30
0.0
 40
20.00000000000001
100
AcDbArc
 50
272.4338280936998
 51
301.9181266377999
  0
LWPOLYLINE
  5
1ED
330
19E
100
AcDbEntity
  8
0
  6
Continuous
 62
     7
370
    25
100
AcDbPolyline
 90
        3
 70
   128
 43
0.0
 10
539.9532642430999
 20
128.9883523961
 10
538.9053078180999
 20
129.1433554366999
 10
537.3532642430999
 20
129.2699999999999
  0
LINE
  5
1EE
330
19E
100
AcDbEntity
  8
0
  6
Continuous
 62
     7
370
    25
100
AcDbLine
 10
519.9532642430999
 20
40.99999999999996
 30
0.0
 11
519.9532642430999
 21
44.99999999999997
 31
0.0
  0
LINE
  5
1EF
330
19E
100
AcDbEntity
  8
0
  6
Continuous
 62
     7
370
    25
100
AcDbLine
 10
465.9532642430999
 20
44.99999999999997
 30
0.0
 11
465.9532642430999
 21
40.99999999999996
 31
0.0
  0
SPLINE
  5
1F0
330
19E
100
AcDbEntity
  8
0
  6
Continuous
 62
     7
370
    25
100
AcDbSpline
210
0.0
220
0.0
230
1.0
 70
     8
 71
     3
 72
    20
 73
    16
 74
     0
 42
0.00000001
 43
0.0000000001
 40
0.0
 40
0.0
 40
0.0
 40
0.0
 40
0.0780656689926662
 40
0.1561311897911999
 40
0.2342018316412223
 40
0.3122719044169936
 40
0.3902825904503759
 40
0.4682924713711331
 40
0.54615454689337
 40
0.6240159256520846
 40
0.7017112194088197
 40
0.7794062960098273
 40
0.8569960001120861
 40
0.9345860904466736
 40
1.0
 40
1.0
 40
1.0
 40
1.0
 10
539.9532642430552
 20
110.2275655292486
 30
0.0
 10
540.3838121393813
 20
109.1062601880111
 30
0.0
 10
541.2449071147134
 20
106.8636516341399
 30
0.0
 10
542.5190883183108
 20
103.5367490840951
 30
0.0
 10
543.7328889265216
 20
100.3609420238716
 30
0.0
 10
544.8559578597255
 20
97.4153238170386
 30
0.0
 10
545.8514599768888
 20
94.79634589830704
 30
0.0
 10
546.6963435612924
 20
92.56497844277758
 30
0.0
 10
547.3600510868425
 20
90.80152035292158
 30
0.0
 10
547.8314145015798
 20
89.53621737288296
 30
0.0
 10
548.0888805161034
 20
88.82617209655066
 30
0.0
 10
548.1360756813972
 20
88.66310442983829
 30
0.0
 10
547.9567140926383
 20
89.09065754441826
 30
0.0
 10
547.6085669727092
 20
89.96101963090319
 30
0.0
 10
547.2264744323348
 20
90.93484596221177
 30
0.0
 10
547.0516949373791
 20
91.38030054814496
 30
0.0
  0
LINE
  5
1F1
330
19E
100
AcDbEntity
  8
0
  6
Continuous
 62
     7
370
    25
100
AcDbLine
 10
539.9532642430999
 20
110.2384674989999
 30
0.0
 11
539.9532642430999
 21
110.2275655292
 31
0.0
  0
ELLIPSE
  5
1F2
330
19E
100
AcDbEntity
  8
0
  6
Continuous
 62
     7
370
    25
100
AcDbEllipse
 10
540.4218860644
 20
108.77
 30
0.0
 11
-8.530974304832227
 21
22.22497715834226
 31
0.0
210
0.0
220
0.0
230
1.0
 40
0.0037350893
 41
2.475516701757944
 42
4.777076229053119
  0
SPLINE
  5
1F3
330
19E
100
AcDbEntity
  8
0
  6
Continuous
 62
     7
370
    25
100
AcDbSpline
210
0.0
220
0.0
230
1.0
 70
     8
 71
     3
 72
    17
 73
    13
 74
     0
 42
0.00000001
 43
0.0000000001
 40
0.0
 40
0.0
 40
0.0
 40
0.0
 40
0.0500351234661242
 40
0.1597518070623498
 40
0.2706434167774492
 40
0.3829462369049629
 40
0.4946948426881307
 40
0.6047319525173013
 40
0.7145929219440291
 40
0.8260583168320586
 40
0.9384342557803035
 40
1.0
 40
1.0
 40
1.0
 40
1.0
 10
552.5175667992791
 20
130.9846329639246
 30
0.0
 10
552.5176384606677
 20
130.9869042441879
 30
0.0
 10
552.5178672606694
 20
130.994155972599
 30
0.0
 10
552.9988649293715
 20
130.9197244912693
 30
0.0
 10
553.8852875087713
 20
130.8021331031882
 30
0.0
 10
555.1035936180297
 20
130.6905275429016
 30
0.0
 10
556.4801109198574
 20
130.6439965551129
 30
0.0
 10
557.8549324066741
 20
130.6819829918556
 30
0.0
 10
559.0837244462009
 20
130.7864075276369
 30
0.0
 10
560.0276106899977
 20
130.9080717508724
 30
0.0
 10
560.5441374942472
 20
130.9870816024746
 30
0.0
 10
560.6019995702269
 20
130.9898194261327
 30
0.0
 10
560.6224795477971
 20
130.9907884644218
 30
0.0
  0
LINE
  5
1F4
330
19E
100
AcDbEntity
  8
0
  6
Continuous
 62
     7
370
    25
100
AcDbLine
 10
539.9532642430999
 20
110.2384674989999
 30
0.0
 11
539.9532642430999
 21
130.9949999999999
 31
0.0
  0
LINE
  5
1F5
330
19E
100
AcDbEntity
  8
0
  6
Continuous
 62
     7
370
    25
100
AcDbLine
 10
566.7532642430999
 20
86.54499999999998
 30
0.0
 11
566.7532642430999
 21
130.9949999999999
 31
0.0
  0
LINE
  5
1F6
330
19E
100
AcDbEntity
  8
0
  6
Continuous
 62
     7
370
    25
100
AcDbLine
 10
566.9532642431
 20
130.795
 30
0.0
 11
566.9532642431
 21
86.74499999999998
 31
0.0
  0
ARC
  5
1F7
330
19E
100
AcDbEntity
  8
0
  6
Continuous
 62
     7
370
    25
100
AcDbCircle
 10
556.5532642431
 20
43.52188290109999
 30
0.0
 40
128.0815839437646
100
AcDbArc
 50
88.21035638540083
 51
91.78964361459918
  0
LINE
  5
1F8
330
19E
100
AcDbEntity
  8
0
  6
Continuous
 62
     7
370
    25
100
AcDbLine
 10
505.6717398566999
 20
297.703098826
 30
0.0
 11
480.2717398567
 21
297.703098826
 31
0.0
  0
LINE
  5
1F9
330
19E
100
AcDbEntity
  8
0
  6
Continuous
 62
     7
370
    25
100
AcDbLine
 10
480.7717398567
 20
281.003098826
 30
0.0
 11
505.1717398566999
 21
281.003098826
 31
0.0
  0
ARC
  5
1FA
330
19E
100
AcDbEntity
  8
0
  6
Continuous
 62
     7
370
    25
100
AcDbCircle
 10
492.9677807964999
 20
358.303098826
 30
0.0
 40
12.7
100
AcDbArc
 50
2.051174718099142
 51
89.98773558740007
  0
LINE
  5
1FB
330
19E
100
AcDbEntity
  8
0
  6
Continuous
 62
     7
370
    25
100
AcDbLine
 10
505.6717398075999
 20
297.9030988259999
 30
0.0
 11
480.2717398567
 21
297.9030988259999
 31
0.0
  0
ARC
  5
1FC
330
19E
100
AcDbEntity
  8
0
  6
Continuous
 62
     7
370
    25
100
AcDbCircle
 10
492.9572233027
 20
358.303098826
 30
0.0
 40
12.70000000000003
100
AcDbArc
 50
90.00000000009933
 51
179.1453549128006
  0
LINE
  5
1FD
330
19E
100
AcDbEntity
  8
0
  6
Continuous
 62
     7
370
    25
100
AcDbLine
 10
480.2532642425999
 20
144.843098826
 30
0.0
 11
505.6532641933999
 21
144.843098826
 31
0.0
  0
SPLINE
  5
1FE
330
19E
100
AcDbEntity
  8
0
  6
Continuous
 62
     7
370
    25
100
AcDbSpline
210
0.0
220
0.0
230
1.0
 70
     8
 71
     3
 72
    24
 73
    20
 74
     0
 42
0.00000001
 43
0.0000000001
 40
0.0
 40
0.0
 40
0.0
 40
0.0
 40
0.1250000000000002
 40
0.1250000000000002
 40
0.2500000000000005
 40
0.2500000000000005
 40
0.3125000000000006
 40
0.3125000000000006
 40
0.3750000000000006
 40
0.3750000000000006
 40
0.5000000000000006
 40
0.5000000000000006
 40
0.6250000000000005
 40
0.6250000000000005
 40
0.7500000000000004
 40
0.7500000000000004
 40
0.8750000000000003
 40
0.8750000000000003
 40
1.0
 40
1.0
 40
1.0
 40
1.0
 10
512.8282642430551
 20
89.17000000002008
 30
0.0
 10
512.4433968070966
 20
89.57220528118529
 30
0.0
 10
512.0219449240148
 20
90.0094269368469
 30
0.0
 10
511.1128388102801
 20
90.94131350348348
 30
0.0
 10
510.6251353292746
 20
91.43607161515786
 30
0.0
 10
509.8451849102663
 20
92.21445880365932
 30
0.0
 10
509.5770999780973
 20
92.47998001586186
 30
0.0
 10
509.0245254166252
 20
93.02209398606207
 30
0.0
 10
508.739210561274
 20
93.29947444864988
 30
0.0
 10
507.8666135147778
 20
94.13833550811629
 30
0.0
 10
507.2617025648007
 20
94.70774336925606
 30
0.0
 10
506.0027200748518
 20
95.85617146865535
 30
0.0
 10
505.348712018765
 20
96.43530409597216
 30
0.0
 10
503.9836274545587
 20
97.58975534632066
 30
0.0
 10
503.2692070361843
 20
98.1677274876451
 30
0.0
 10
501.7931725447715
 20
99.28008017246066
 30
0.0
 10
501.0303991919796
 20
99.81619651484866
 30
0.0
 10
499.4351269144082
 20
100.8138455641631
 30
0.0
 10
498.6031487424555
 20
101.2761393977261
 30
0.0
 10
497.7166663885675
 20
101.6700000000259
 30
0.0
  0
LINE
  5
1FF
330
19E
100
AcDbEntity
  8
0
  6
Continuous
 62
     7
370
    25
100
AcDbLine
 10
512.5532642430999
 20
89.16999999999999
 30
0.0
 11
473.3532642430999
 21
89.16999999999999
 31
0.0
  0
SPLINE
  5
200
330
19E
100
AcDbEntity
  8
0
  6
Continuous
 62
     7
370
    25
100
AcDbSpline
210
0.0
220
0.0
230
1.0
 70
     8
 71
     3
 72
    24
 73
    20
 74
     0
 42
0.00000001
 43
0.0000000001
 40
0.0
 40
0.0
 40
0.0
 40
0.0
 40
0.1250000000000001
 40
0.1250000000000001
 40
0.2500000000000001
 40
0.2500000000000001
 40
0.3125000000000002
 40
0.3125000000000002
 40
0.3750000000000004
 40
0.3750000000000004
 40
0.5000000000000002
 40
0.5000000000000002
 40
0.6250000000000002
 40
0.6250000000000002
 40
0.7500000000000001
 40
0.7500000000000001
 40
0.8750000000000001
 40
0.8750000000000001
 40
1.0
 40
1.0
 40
1.0
 40
1.0
 10
488.1898620975293
 20
101.6700000000199
 30
0.0
 10
487.3023287852691
 20
101.2756724610729
 30
0.0
 10
486.4709100893556
 20
100.8134937474475
 30
0.0
 10
484.8783857438005
 20
99.8176520550143
 30
0.0
 10
484.1178398037361
 20
99.28319713894726
 30
0.0
 10
483.0149916055083
 20
98.45247218901029
 30
0.0
 10
482.6538162300431
 20
98.17056476269238
 30
0.0
 10
481.9427756235619
 20
97.59962372769308
 30
0.0
 10
481.5922249415983
 20
97.30997885442079
 30
0.0
 10
480.5648542201868
 20
96.44149869918805
 30
0.0
 10
479.9097772375825
 20
95.86150354138331
 30
0.0
 10
478.6507063492384
 20
94.71321898347397
 30
0.0
 10
478.0467830807224
 20
94.14481432360629
 30
0.0
 10
476.8870077976573
 20
93.03012347271396
 30
0.0
 10
476.3290114994116
 20
92.48153360310277
 30
0.0
 10
475.2844472308987
 20
91.43917563431514
 30
0.0
 10
474.7952543439735
 20
90.94291173840407
 30
0.0
 10
473.8844737446746
 20
90.00931999941014
 30
0.0
 10
473.4628415721934
 20
89.57190210537907
 30
0.0
 10
473.0782642430551
 20
89.17000000002008
 30
0.0
  0
LINE
  5
201
330
19E
100
AcDbEntity
  8
0
  6
Continuous
 62
     7
370
    25
100
AcDbLine
 10
497.7166663885999
 20
101.67
 30
0.0
 11
488.1898620974999
 21
101.67
 31
0.0
  0
SPLINE
  5
202
330
19E
100
AcDbEntity
  8
0
  6
Continuous
 62
     7
370
    25
100
AcDbSpline
210
0.0
220
0.0
230
1.0
 70
     8
 71
     3
 72
    26
 73
    22
 74
     0
 42
0.00000001
 43
0.0000000001
 40
0.0
 40
0.0
 40
0.0
 40
0.0
 40
0.0475666006456492
 40
0.096631843548183
 40
0.1441711105581646
 40
0.1929240584067497
 40
0.2439123295877051
 40
0.2961134371677445
 40
0.3522226118156729
 40
0.4101584359658956
 40
0.4541664592854004
 40
0.4994173506242137
 40
0.5434464729457873
 40
0.5887710740592035
 40
0.6777601005391292
 40
0.7287888518385617
 40
0.781019528785656
 40
0.8373094536219237
 40
0.8954663755657939
 40
0.9476693306696283
 40
1.0
 40
1.0
 40
1.0
 40
1.0
 10
480.253264243055
 20
131.27000000002
 30
0.0
 10
480.2820250824322
 20
131.2537025497096
 30
0.0
 10
480.3404529055958
 20
131.2205941785573
 30
0.0
 10
480.806680269169
 20
130.960461599174
 30
0.0
 10
481.5325789506124
 20
130.5695839493895
 30
0.0
 10
482.5266910024748
 20
130.0621397075691
 30
0.0
 10
483.7904004857505
 20
129.4677440246065
 30
0.0
 10
485.3465585016932
 20
128.8201810837519
 30
0.0
 10
487.1963661472971
 20
128.1832119776491
 30
0.0
 10
489.1526637723542
 20
127.6946213444249
 30
0.0
 10
491.0938608806532
 20
127.4072311327385
 30
0.0
 10
492.9074387012001
 20
127.3129370351194
 30
0.0
 10
494.7397779568518
 20
127.3999355094836
 30
0.0
 10
497.0961677360157
 20
127.73898035326
 30
0.0
 10
499.3552893797056
 20
128.3750427193378
 30
0.0
 10
501.3630962383079
 20
129.1429147637711
 30
0.0
 10
502.8138666199473
 20
129.786901263487
 30
0.0
 10
504.0625040196416
 20
130.404996007268
 30
0.0
 10
504.9778320255383
 20
130.8929789585841
 30
0.0
 10
505.5504571570692
 20
131.2116804170019
 30
0.0
 10
505.6148334218296
 20
131.2482218364442
 30
0.0
 10
505.6470608801438
 20
131.2665148684521
 30
0.0
  0
LINE
  5
203
330
19E
100
AcDbEntity
  8
0
  6
Continuous
 62
     7
370
    25
100
AcDbLine
 10
505.6532642430999
 20
144.843098826
 30
0.0
 11
480.2532642431
 21
144.843098826
 31
0.0
  0
LINE
  5
204
330
19E
100
AcDbEntity
  8
0
  6
Continuous
 62
     7
370
    25
100
AcDbLine
 10
446.9532642431
 20
108.77
 30
0.0
 11
446.9532642431
 21
86.54499999999998
 31
0.0
  0
LINE
  5
205
330
19E
100
AcDbEntity
  8
0
  6
Continuous
 62
     7
370
    25
100
AcDbLine
 10
446.9532642431
 20
130.9949999999999
 30
0.0
 11
446.9532642431
 21
108.77
 31
0.0
  0
LINE
  5
206
330
19E
100
AcDbEntity
  8
0
  6
Continuous
 62
     7
370
    25
100
AcDbLine
 10
537.3532642430999
 20
108.77
 30
0.0
 11
537.3532642430999
 21
86.54499999999998
 31
0.0
  0
LINE
  5
207
330
19E
100
AcDbEntity
  8
0
  6
Continuous
 62
     7
370
    25
100
AcDbLine
 10
537.3532642430999
 20
130.9949999999999
 30
0.0
 11
537.3532642430999
 21
108.77
 31
0.0
  0
LINE
  5
208
330
19E
100
AcDbEntity
  8
0
  6
Continuous
 62
     7
370
    25
100
AcDbLine
 10
465.9532642430999
 20
40.99999999999996
 30
0.0
 11
519.9532642430999
 21
40.99999999999996
 31
0.0
  0
LINE
  5
209
330
19E
100
AcDbEntity
  8
0
  6
Continuous
 62
     7
370
    25
100
AcDbLine
 10
465.9532642430999
 20
44.99999999999997
 30
0.0
 11
519.9532642430999
 21
44.99999999999997
 31
0.0
  0
DIMENSION
  5
20A
330
19E
100
AcDbEntity
  8
0
  6
Continuous
 62
     7
370
    18
100
AcDbDimension
280
     0
  2
_D_3
 10
418.9532642430999
 20
40.99999999999996
 30
0.0
 11
418.9532642430999
 21
89.93070268739998
 31
0.0
 12
217.2856260521
 22
280.8390680449999
 32
0.0
 70
   128
  1
<>
 71
     2
 42
-1.0
 73
     0
 74
     0
 75
     0
  3
SLDDIMSTYLE0
100
AcDbAlignedDimension
 13
446.9532642431
 23
130.9949999999999
 33
0.0
 14
465.9532642430999
 24
40.99999999999996
 34
0.0
 50
90.0
100
AcDbRotatedDimension
  0
DIMENSION
  5
20B
330
19E
100
AcDbEntity
  8
0
  6
Continuous
 62
     7
370
    18
100
AcDbDimension
280
     0
  2
_D_4
 10
600.9532642431
 20
86.54499999999998
 30
0.0
 11
600.9532642431
 21
129.0386619454999
 31
0.0
 12
217.2856260521
 22
280.8390680449999
 32
0.0
 70
   128
  1
<>
 71
     2
 42
-1.0
 73
     0
 74
     0
 75
     0
  3
SLDDIMSTYLE0
100
AcDbAlignedDimension
 13
556.5532642431
 23
171.5409914183
 33
0.0
 14
566.7532642430999
 24
86.54499999999998
 34
0.0
 50
90.0
100
AcDbRotatedDimension
  0
DIMENSION
  5
20C
330
19E
100
AcDbEntity
  8
0
  6
Continuous
 62
     7
370
    18
100
AcDbDimension
280
     0
  2
_D_5
 10
519.9532642430999
 20
1.0
 30
0.0
 11
492.0386102978
 21
1.0
 31
0.0
 12
217.2856260521
 22
280.8390680449999
 32
0.0
 70
   128
  1
%%c<>
 71
     2
 42
-1.0
 73
     0
 74
     0
 75
     0
  3
SLDDIMSTYLE0
100
AcDbAlignedDimension
 13
465.9532642430999
 23
40.99999999999996
 33
0.0
 14
519.9532642430999
 24
40.99999999999996
 34
0.0
100
AcDbRotatedDimension
  0
DIMENSION
  5
20D
330
19E
100
AcDbEntity
  8
0
  6
Continuous
 62
     7
370
    18
100
AcDbDimension
280
     0
  2
_D_6
 10
480.2717398567
 20
399.003098826
 30
0.0
 11
492.0386102978
 21
399.003098826
 31
0.0
 12
217.2856260521
 22
280.8390680449999
 32
0.0
 70
   128
  1
%%c<>
 71
     2
 42
-1.0
 73
     0
 74
     0
 75
     0
  3
SLDDIMSTYLE0
100
AcDbAlignedDimension
 13
505.6717398566999
 23
313.303098826
 33
0.0
 14
480.2717398567
 24
313.303098826
 34
0.0
100
AcDbRotatedDimension
  0
LINE
  5
20E
330
19E
100
AcDbEntity
  8
0
  6
Continuous
 62
     7
370
    25
100
AcDbLine
 10
59.70771205929998
 20
574.3885152811999
 30
0.0
 11
59.70771205929998
 21
547.9618940678999
 31
0.0
  0
LINE
  5
20F
330
19E
100
AcDbEntity
  8
0
  6
Continuous
 62
     7
370
    25
100
AcDbLine
 10
104.1577120593
 20
548.1523801370999
 30
0.0
 11
104.1577120593
 21
574.3885152811999
 31
0.0
  0
LINE
  5
210
330
19E
100
AcDbEntity
  8
0
  6
Continuous
 62
     7
370
    25
100
AcDbLine
 10
104.1577120593
 20
574.3885152811999
 30
0.0
 11
103.9577120593
 21
574.5885152811999
 31
0.0
  0
LINE
  5
211
330
19E
100
AcDbEntity
  8
0
  6
Continuous
 62
     7
370
    25
100
AcDbLine
 10
59.90771205929997
 20
574.5885152811999
 30
0.0
 11
59.70771205929998
 21
574.3885152811999
 31
0.0
  0
LINE
  5
212
330
19E
100
AcDbEntity
  8
0
  6
Continuous
 62
     7
370
    25
100
AcDbLine
 10
81.69575932239999
 20
568.1885152811998
 30
0.0
 11
81.2319023927
 21
568.1885152811998
 31
0.0
  0
LINE
  5
213
330
19E
100
AcDbEntity
  8
0
  6
Continuous
 62
     7
370
    25
100
AcDbLine
 10
81.2319023927
 20
560.1885152811998
 30
0.0
 11
81.69575932239999
 21
560.1885152811998
 31
0.0
  0
LINE
  5
214
330
19E
100
AcDbEntity
  8
0
  6
Continuous
 62
     7
370
    25
100
AcDbLine
 10
246.8665940854
 20
513.3030317855
 30
0.0
 11
126.8665945498
 21
513.2924742916999
 31
0.0
  0
LINE
  5
215
330
19E
100
AcDbEntity
  8
0
  6
Continuous
 62
     7
370
    25
100
AcDbLine
 10
126.8688292194
 20
487.8924743899999
 30
0.0
 11
246.8688287549
 21
487.9030318837999
 31
0.0
  0
LINE
  5
216
330
19E
100
AcDbEntity
  8
0
  6
Continuous
 62
     7
370
    25
100
AcDbLine
 10
246.8688287549
 20
487.9030318837999
 30
0.0
 11
291.8688285808
 21
487.906990944
 31
0.0
  0
LINE
  5
217
330
19E
100
AcDbEntity
  8
0
  6
Continuous
 62
     7
370
    25
100
AcDbLine
 10
291.8665939113
 20
513.3069908456999
 30
0.0
 11
246.8665940854
 21
513.3030317855
 31
0.0
  0
LINE
  5
218
330
19E
100
AcDbEntity
  8
0
  6
Continuous
 62
     7
370
    25
100
AcDbLine
 10
81.86882939349999
 20
487.8885153297999
 30
0.0
 11
126.8688292194
 21
487.8924743899999
 31
0.0
  0
LINE
  5
219
330
19E
100
AcDbEntity
  8
0
  6
Continuous
 62
     7
370
    25
100
AcDbLine
 10
126.8665945498
 20
513.2924742916999
 30
0.0
 11
81.86659472399998
 21
513.2885152315
 31
0.0
  0
ARC
  5
21A
330
19E
100
AcDbEntity
  8
0
  6
Continuous
 62
     7
370
    25
100
AcDbCircle
 10
81.86771205929998
 20
500.5885152811999
 30
0.0
 40
22.27324197751898
100
AcDbArc
 50
176.2283022574016
 51
183.7716977425984
  0
LINE
  5
21B
330
19E
100
AcDbEntity
  8
0
  6
Continuous
 62
     7
370
    25
100
AcDbLine
 10
104.0927120593
 20
454.5885152811999
 30
0.0
 11
104.0927120593
 21
487.8904705674
 31
0.0
  0
LINE
  5
21C
330
19E
100
AcDbEntity
  8
0
  6
Continuous
 62
     7
370
    25
100
AcDbLine
 10
104.0927120593
 20
513.2904706657
 30
0.0
 11
104.0927120593
 21
544.9885152811999
 31
0.0
  0
LINE
  5
21D
330
19E
100
AcDbEntity
  8
0
  6
Continuous
 62
     7
370
    25
100
AcDbLine
 10
59.64271205929998
 20
544.9885152811999
 30
0.0
 11
59.64271205929998
 21
454.5885152811999
 31
0.0
  0
LWPOLYLINE
  5
21E
330
19E
100
AcDbEntity
  8
0
  6
Continuous
 62
     7
370
    25
100
AcDbPolyline
 90
        3
 70
   128
 43
0.0
 10
102.3677120592999
 20
544.9885152811999
 10
102.241067496
 20
546.5405588562999
 10
102.0860644554
 20
547.5885152812
  0
LWPOLYLINE
  5
21F
330
19E
100
AcDbEntity
  8
0
  6
Continuous
 62
     7
370
    25
100
AcDbPolyline
 90
        3
 70
   128
 43
0.0
 10
61.64935966319998
 20
547.5885152812
 10
61.49435662269997
 20
546.5405588562999
 10
61.36771205929997
 20
544.9885152811999
  0
SPLINE
  5
220
330
19E
100
AcDbEntity
  8
0
  6
Continuous
 62
     7
370
    25
100
AcDbSpline
210
0.0
220
0.0
230
1.0
 70
     8
 71
     3
 72
     9
 73
     5
 74
     0
 42
0.00000001
 43
0.0000000001
 40
0.0
 40
0.0
 40
0.0
 40
0.0
 40
0.902446273914521
 40
1.0
 40
1.0
 40
1.0
 40
1.0
 10
81.68459547139958
 20
568.2885152811811
 30
0.0
 10
81.21384730250378
 20
568.2770443318561
 30
0.0
 10
80.69221163010658
 20
568.2643333820116
 30
0.0
 10
80.25477528552476
 20
568.0156187199172
 30
0.0
 10
80.21210174018557
 20
567.9913556778979
 30
0.0
  0
ARC
  5
221
330
19E
100
AcDbEntity
  8
0
  6
Continuous
 62
     7
370
    25
100
AcDbCircle
 10
81.71341057249998
 20
564.2066370914999
 30
0.0
 40
4.081979895280309
100
AcDbArc
 50
258.250389046599
 51
90.40445995189948
  0
LINE
  5
222
330
19E
100
AcDbEntity
  8
0
  6
Continuous
 62
     7
370
    25
100
AcDbLine
 10
104.1091461326
 20
547.5885152812
 30
0.0
 11
59.72902029219998
 21
547.5885152812
 31
0.0
  0
ELLIPSE
  5
223
330
19E
100
AcDbEntity
  8
0
  6
Continuous
 62
     7
370
    25
100
AcDbEllipse
 10
81.93271205929997
 20
548.0571371024999
 30
0.0
 11
22.22495864637587
 21
0.111699560256568
 31
0.0
210
0.0
220
0.0
230
1.0
 40
0.3838318466
 41
6.215135276204129
 42
6.281256223936927
  0
ELLIPSE
  5
224
330
19E
100
AcDbEntity
  8
0
  6
Continuous
 62
     7
370
    25
100
AcDbEllipse
 10
81.93271205929997
 20
548.0571371024999
 30
0.0
 11
22.22495864637587
 21
0.111699560256568
 31
0.0
210
0.0
220
0.0
230
1.0
 40
0.3838318466
 41
3.139663570347098
 42
3.183456352312231
  0
LINE
  5
225
330
19E
100
AcDbEntity
  8
0
  6
Continuous
 62
     7
370
    25
100
AcDbLine
 10
81.68459547140001
 20
574.3885152811999
 30
0.0
 11
59.70771205929998
 21
574.3885152811999
 31
0.0
  0
LINE
  5
226
330
19E
100
AcDbEntity
  8
0
  6
Continuous
 62
     7
370
    25
100
AcDbLine
 10
104.1577120593
 20
574.3885152811999
 30
0.0
 11
81.68459547140001
 21
574.3885152811999
 31
0.0
  0
LINE
  5
227
330
19E
100
AcDbEntity
  8
0
  6
Continuous
 62
     7
370
    25
100
AcDbLine
 10
81.68682824159999
 20
574.5885152811999
 30
0.0
 11
103.9577120593
 21
574.5885152811999
 31
0.0
  0
LINE
  5
228
330
19E
100
AcDbEntity
  8
0
  6
Continuous
 62
     7
370
    25
100
AcDbLine
 10
59.90771205929997
 20
574.5885152811999
 30
0.0
 11
81.68682824159999
 21
574.5885152811999
 31
0.0
  0
LWPOLYLINE
  5
229
330
19E
100
AcDbEntity
  8
0
  6
Continuous
 62
     7
370
    25
100
AcDbPolyline
 90
        3
 70
   128
 43
0.0
 10
80.59082564179997
 20
560.2402283890999
 10
80.86164165239997
 20
560.1742705217
 10
81.69575932239999
 20
560.0885152812
  0
LWPOLYLINE
  5
22A
330
19E
100
AcDbEntity
  8
0
  6
Continuous
 62
     7
370
    25
100
AcDbPolyline
 90
        3
 70
   128
 43
0.0
 10
81.69575932239999
 20
568.2885152812
 10
80.86164165239997
 20
568.2027600407
 10
80.59082564489997
 20
568.1368021741999
  0
ARC
  5
22B
330
19E
100
AcDbEntity
  8
0
  6
Continuous
 62
     7
370
    25
100
AcDbCircle
 10
81.69558191289999
 20
564.1885152811998
 30
0.0
 40
4.000000003934319
100
AcDbArc
 50
270.0025412028998
 51
89.99745879710019
  0
CIRCLE
  5
22C
330
19E
100
AcDbEntity
  8
0
  6
Continuous
 62
     7
370
    25
100
AcDbCircle
 10
81.23207596570001
 20
564.1884718863999
 30
0.0
 40
3.999924302368076
  0
ARC
  5
22D
330
19E
100
AcDbEntity
  8
0
  6
Continuous
 62
     7
370
    25
100
AcDbCircle
 10
291.867711246
 20
500.6069908947999
 30
0.0
 40
12.70000000000002
100
AcDbArc
 50
270.0050408320005
 51
90.00504083200048
  0
ARC
  5
22E
330
19E
100
AcDbEntity
  8
0
  6
Continuous
 62
     7
370
    25
100
AcDbCircle
 10
81.86771205879997
 20
500.5885152807
 30
0.0
 40
12.7
100
AcDbArc
 50
90.00504083200048
 51
270.0050408320005
  0
LINE
  5
22F
330
19E
100
AcDbEntity
  8
0
  6
Continuous
 62
     7
370
    25
100
AcDbLine
 10
59.64271205929998
 20
454.5885152811999
 30
0.0
 11
104.0927120593
 21
454.5885152811999
 31
0.0
  0
LINE
  5
230
330
19E
100
AcDbEntity
  8
0
  6
Continuous
 62
     7
370
    25
100
AcDbLine
 10
59.64271205929998
 20
544.9885152811999
 30
0.0
 11
104.0927120593
 21
544.9885152811999
 31
0.0
  0
ARC
  5
231
330
19E
100
AcDbEntity
  8
0
  6
Continuous
 62
     7
370
    25
100
AcDbCircle
 10
81.86771205929998
 20
500.5885152811999
 30
0.0
 40
26.99999999999998
100
AcDbArc
 50
145.4011885881009
 51
214.5988114118991
  0
LWPOLYLINE
  5
232
330
19E
100
AcDbEntity
  8
0
  6
Continuous
 62
     7
370
    25
100
AcDbPolyline
 90
        3
 70
   128
 43
0.0
 10
104.0927120593
 20
485.2571952141
 10
105.56425994
 20
487.6473554204999
 10
105.6954950356
 20
487.8906115787999
  0
LWPOLYLINE
  5
233
330
19E
100
AcDbEntity
  8
0
  6
Continuous
 62
     7
370
    25
100
AcDbPolyline
 90
        3
 70
   128
 43
0.0
 10
105.6932603666
 20
513.2906114804999
 10
104.9233591934999
 20
514.6397477974999
 10
104.0927120593
 20
515.9198353483
  0
DIMENSION
  5
234
330
19E
100
AcDbEntity
  8
0
  6
Continuous
 62
     7
370
    18
100
AcDbDimension
280
     0
  2
_D_7
 10
8.867712059300004
 20
574.5885152811999
 30
0.0
 11
8.867712059300004
 21
508.9666872212999
 31
0.0
 12
217.2856260521
 22
280.8390680449999
 32
0.0
 70
   128
  1
<>
 71
     2
 42
-1.0
 73
     0
 74
     0
 75
     0
  3
SLDDIMSTYLE0
100
AcDbAlignedDimension
 13
59.64271205929998
 23
454.5885152811999
 33
0.0
 14
59.90771205929997
 24
574.5885152811999
 34
0.0
 50
90.0
100
AcDbRotatedDimension
  0
DIMENSION
  5
235
330
19E
100
AcDbEntity
  8
0
  6
Continuous
 62
     7
370
    18
100
AcDbDimension
280
     0
  2
_D_8
 10
104.1577120593
 20
596.5885152811999
 30
0.0
 11
79.94330623669998
 21
596.5885152811999
 31
0.0
 12
217.2856260521
 22
280.8390680449999
 32
0.0
 70
   128
  1
%%c<>
 71
     2
 42
-1.0
 73
     0
 74
     0
 75
     0
  3
SLDDIMSTYLE0
100
AcDbAlignedDimension
 13
59.70771205929998
 23
574.3885152811999
 33
0.0
 14
104.1577120593
 24
574.3885152811999
 34
0.0
100
AcDbRotatedDimension
  0
ENDBLK
  5
237
330
19E
100
AcDbEntity
  8
0
100
AcDbBlockEnd
  0
BLOCK
  5
239
330
238
100
AcDbEntity
  8
0
100
AcDbBlockBegin
  2
*D12
 70
     1
 10
0.0
 20
0.0
 30
0.0
  3
*D12
  1

  0
LINE
  5
23A
330
238
100
AcDbEntity
  8
DIMENSION
440
 16777216
370
     0
100
AcDbLine
 10
1092.625159377854
 20
969.7937323929265
 30
0.0
 11
1092.569709633547
 21
979.7935786580374
 31
0.0
  0
LINE
  5
23B
330
238
100
AcDbEntity
  8
DIMENSION
440
 16777216
370
     0
100
AcDbLine
 10
1454.657182624691
 20
971.8012215670347
 30
0.0
 11
1454.601732880384
 21
981.8010678321458
 31
0.0
  0
LINE
  5
23C
330
238
100
AcDbEntity
  8
DIMENSION
440
 16777216
370
     0
100
AcDbLine
 10
1092.597434505701
 20
974.793655525482
 30
0.0
 11
1454.629457752537
 21
976.8011446995902
 31
0.0
  0
MTEXT
  5
23D
330
238
100
AcDbEntity
  8
DIMENSION
 62
     7
440
 16777216
100
AcDbMText
 10
1273.568105608173
 20
983.9741418578535
 30
0.0
 40
8.0
 41
0.0
 46
0.0
 71
     5
 72
     1
  1
\A1;362
 73
     1
 44
1.0
  0
POINT
  5
23E
330
238
100
AcDbEntity
  8
Defpoints
 62
     0
440
 16777216
100
AcDbPoint
 10
1092.771920384362
 20
943.3267482592359
 30
0.0
  0
POINT
  5
23F
330
238
100
AcDbEntity
  8
Defpoints
 62
     0
440
 16777216
100
AcDbPoint
 10
1454.803943631198
 20
945.3342374333443
 30
0.0
  0
POINT
  5
240
330
238
100
AcDbEntity
  8
Defpoints
 62
     0
440
 16777216
100
AcDbPoint
 10
1454.629457752537
 20
976.8011446995902
 30
0.0
  0
ENDBLK
  5
241
330
238
100
AcDbEntity
  8
0
100
AcDbBlockEnd
  0
BLOCK
  5
25C
330
25B
100
AcDbEntity
  8
0
100
AcDbBlockBegin
  2
*D14
 70
     1
 10
0.0
 20
0.0
 30
0.0
  3
*D14
  1

  0
LINE
  5
25E
330
25B
100
AcDbEntity
  8
DIMENSION
440
 16777216
370
     0
100
AcDbLine
 10
346.3176120176052
 20
241.0289181993063
 30
0.0
 11
346.2621622732983
 21
251.0287644644174
 31
0.0
  0
LINE
  5
25F
330
25B
100
AcDbEntity
  8
DIMENSION
440
 16777216
370
     0
100
AcDbLine
 10
708.3496352644419
 20
243.0364073734146
 30
0.0
 11
708.2941855201349
 21
253.0362536385257
 31
0.0
  0
LINE
  5
260
330
25B
100
AcDbEntity
  8
DIMENSION
440
 16777216
370
     0
100
AcDbLine
 10
346.2898871454518
 20
246.0288413318619
 30
0.0
 11
708.3219103922885
 21
248.0363305059702
 31
0.0
  0
MTEXT
  5
261
330
25B
100
AcDbEntity
  8
DIMENSION
 62
     7
440
 16777216
100
AcDbMText
 10
527.2610887031816
 20
255.1136649863658
 30
0.0
 40
8.0
 41
0.0
 46
0.0
 71
     5
 72
     1
  1
\A1;362
 73
     1
 44
1.0
  0
POINT
  5
262
330
25B
100
AcDbEntity
  8
Defpoints
 62
     0
440
 16777216
100
AcDbPoint
 10
346.4643730241129
 20
214.5619340656158
 30
0.0
  0
POINT
  5
263
330
25B
100
AcDbEntity
  8
Defpoints
 62
     0
440
 16777216
100
AcDbPoint
 10
708.4963962709495
 20
216.5694232397241
 30
0.0
  0
POINT
  5
264
330
25B
100
AcDbEntity
  8
Defpoints
 62
     0
440
 16777216
100
AcDbPoint
 10
708.3219103922885
 20
248.0363305059702
 30
0.0
  0
ENDBLK
  5
25D
330
25B
100
AcDbEntity
  8
0
100
AcDbBlockEnd
  0
BLOCK
  5
266
330
265
100
AcDbEntity
  8
0
100
AcDbBlockBegin
  2
*D15
 70
     1
 10
0.0
 20
0.0
 30
0.0
  3
*D15
  1

  0
LINE
  5
268
330
265
100
AcDbEntity
  8
DIMENSION
440
 16777216
370
     0
100
AcDbLine
 10
288.3861138046
 20
113.164030781
 30
0.0
 11
288.3861138046
 21
123.164030781
 31
0.0
  0
LINE
  5
269
330
265
100
AcDbEntity
  8
DIMENSION
440
 16777216
370
     0
100
AcDbLine
 10
262.9861138046
 20
113.164030781
 30
0.0
 11
262.9861138046
 21
123.164030781
 31
0.0
  0
LINE
  5
26A
330
265
100
AcDbEntity
  8
DIMENSION
440
 16777216
370
     0
100
AcDbLine
 10
288.3861138046
 20
118.164030781
 30
0.0
 11
262.9861138046
 21
118.164030781
 31
0.0
  0
MTEXT
  5
26B
330
265
100
AcDbEntity
  8
DIMENSION
 62
     7
440
 16777216
100
AcDbMText
 10
275.6861138046
 20
130.164030781
 30
0.0
 40
8.0
 41
0.0
 46
0.0
 71
     2
 72
     1
  1
\A1;%%c25
 73
     1
 44
1.0
  0
POINT
  5
26C
330
265
100
AcDbEntity
  8
Defpoints
 62
     0
440
 16777216
100
AcDbPoint
 10
288.3861138046
 20
32.464030781
 30
0.0
  0
POINT
  5
26D
330
265
100
AcDbEntity
  8
Defpoints
 62
     0
440
 16777216
100
AcDbPoint
 10
262.9861138046
 20
32.464030781
 30
0.0
  0
POINT
  5
26E
330
265
100
AcDbEntity
  8
Defpoints
 62
     0
440
 16777216
100
AcDbPoint
 10
262.9861138046
 20
118.164030781
 30
0.0
  0
ENDBLK
  5
267
330
265
100
AcDbEntity
  8
0
100
AcDbBlockEnd
  0
BLOCK
  5
274
330
273
100
AcDbEntity
  8
0
100
AcDbBlockBegin
  2
*D16
 70
     1
 10
0.0
 20
0.0
 30
0.0
  3
*D16
  1

  0
LINE
  5
276
330
273
100
AcDbEntity
  8
DIMENSION
440
 16777216
370
     0
100
AcDbLine
 10
248.667638191
 20
-274.839068045
 30
0.0
 11
248.667638191
 21
-284.839068045
 31
0.0
  0
LINE
  5
277
330
273
100
AcDbEntity
  8
DIMENSION
440
 16777216
370
     0
100
AcDbLine
 10
302.667638191
 20
-274.839068045
 30
0.0
 11
302.667638191
 21
-284.839068045
 31
0.0
  0
LINE
  5
278
330
273
100
AcDbEntity
  8
DIMENSION
440
 16777216
370
     0
100
AcDbLine
 10
248.667638191
 20
-279.839068045
 30
0.0
 11
302.667638191
 21
-279.839068045
 31
0.0
  0
MTEXT
  5
279
330
273
100
AcDbEntity
  8
DIMENSION
 62
     7
440
 16777216
100
AcDbMText
 10
274.7529842457
 20
-283.839068045
 30
0.0
 40
8.0
 41
0.0
 46
0.0
 71
     2
 72
     1
  1
\A1;%%c54
 73
     1
 44
1.0
  0
POINT
  5
27A
330
273
100
AcDbEntity
  8
Defpoints
 62
     0
440
 16777216
100
AcDbPoint
 10
248.667638191
 20
-239.839068045
 30
0.0
  0
POINT
  5
27B
330
273
100
AcDbEntity
  8
Defpoints
 62
     0
440
 16777216
100
AcDbPoint
 10
302.667638191
 20
-239.839068045
 30
0.0
  0
POINT
  5
27C
330
273
100
AcDbEntity
  8
Defpoints
 62
     0
440
 16777216
100
AcDbPoint
 10
302.667638191
 20
-279.839068045
 30
0.0
  0
ENDBLK
  5
275
330
273
100
AcDbEntity
  8
0
100
AcDbBlockEnd
  0
BLOCK
  5
282
330
281
100
AcDbEntity
  8
0
100
AcDbBlockBegin
  2
*D17
 70
     1
 10
0.0
 20
0.0
 30
0.0
  3
*D17
  1

  0
LINE
  5
284
330
281
100
AcDbEntity
  8
DIMENSION
440
 16777216
370
     0
100
AcDbLine
 10
378.667638191
 20
-109.2980766267
 30
0.0
 11
388.6676381910001
 21
-109.2980766267
 31
0.0
  0
LINE
  5
285
330
281
100
AcDbEntity
  8
DIMENSION
440
 16777216
370
     0
100
AcDbLine
 10
378.6676381910001
 20
-194.2940680450001
 30
0.0
 11
388.6676381910001
 21
-194.2940680450001
 31
0.0
  0
LINE
  5
286
330
281
100
AcDbEntity
  8
DIMENSION
440
 16777216
370
     0
100
AcDbLine
 10
383.667638191
 20
-109.2980766267
 30
0.0
 11
383.6676381910001
 21
-194.2940680450001
 31
0.0
  0
MTEXT
  5
287
330
281
100
AcDbEntity
  8
DIMENSION
 62
     7
440
 16777216
100
AcDbMText
 10
394.3343048576667
 20
-147.8004060995
 30
0.0
 40
8.0
 41
0.0
 46
0.0
 71
     2
 72
     1
  1
\A1;85
 73
     1
 44
1.0
  0
POINT
  5
288
330
281
100
AcDbEntity
  8
Defpoints
 62
     0
440
 16777216
100
AcDbPoint
 10
339.2676381910001
 20
-109.2980766267
 30
0.0
  0
POINT
  5
289
330
281
100
AcDbEntity
  8
Defpoints
 62
     0
440
 16777216
100
AcDbPoint
 10
349.4676381910001
 20
-194.2940680450001
 30
0.0
  0
POINT
  5
28A
330
281
100
AcDbEntity
  8
Defpoints
 62
     0
440
 16777216
100
AcDbPoint
 10
383.6676381910001
 20
-194.2940680450001
 30
0.0
  0
ENDBLK
  5
283
330
281
100
AcDbEntity
  8
0
100
AcDbBlockEnd
  0
BLOCK
  5
290
330
28F
100
AcDbEntity
  8
0
100
AcDbBlockBegin
  2
*D18
 70
     1
 10
0.0
 20
0.0
 30
0.0
  3
*D18
  1

  0
LINE
  5
292
330
28F
100
AcDbEntity
  8
DIMENSION
440
 16777216
370
     0
100
AcDbLine
 10
206.6676381910001
 20
-149.844068045
 30
0.0
 11
196.667638191
 21
-149.844068045
 31
0.0
  0
LINE
  5
293
330
28F
100
AcDbEntity
  8
DIMENSION
440
 16777216
370
     0
100
AcDbLine
 10
206.6676381910001
 20
-239.8390680450001
 30
0.0
 11
196.6676381910001
 21
-239.8390680450001
 31
0.0
  0
LINE
  5
294
330
28F
100
AcDbEntity
  8
DIMENSION
440
 16777216
370
     0
100
AcDbLine
 10
201.6676381910001
 20
-149.844068045
 30
0.0
 11
201.6676381910001
 21
-239.8390680450001
 31
0.0
  0
MTEXT
  5
295
330
28F
100
AcDbEntity
  8
DIMENSION
 62
     7
440
 16777216
100
AcDbMText
 10
191.667638191
 20
-186.9083653576
 30
0.0
 40
8.0
 41
0.0
 46
0.0
 71
     2
 72
     1
  1
\A1;90
 73
     1
 44
1.0
  0
POINT
  5
296
330
28F
100
AcDbEntity
  8
Defpoints
 62
     0
440
 16777216
100
AcDbPoint
 10
229.6676381910001
 20
-149.844068045
 30
0.0
  0
POINT
  5
297
330
28F
100
AcDbEntity
  8
Defpoints
 62
     0
440
 16777216
100
AcDbPoint
 10
248.6676381910001
 20
-239.8390680450001
 30
0.0
  0
POINT
  5
298
330
28F
100
AcDbEntity
  8
Defpoints
 62
     0
440
 16777216
100
AcDbPoint
 10
201.6676381910001
 20
-239.8390680450001
 30
0.0
  0
ENDBLK
  5
291
330
28F
100
AcDbEntity
  8
0
100
AcDbBlockEnd
  0
BLOCK
  5
29E
330
29D
100
AcDbEntity
  8
0
100
AcDbBlockBegin
  2
*D19
 70
     1
 10
0.0
 20
0.0
 30
0.0
  3
*D19
  1

  0
LINE
  5
2A0
330
29D
100
AcDbEntity
  8
DIMENSION
440
 16777216
370
     0
100
AcDbLine
 10
-203.4179139928
 20
-239.8390680450002
 30
0.0
 11
-213.4179139928
 21
-239.8390680450002
 31
0.0
  0
LINE
  5
2A1
330
29D
100
AcDbEntity
  8
DIMENSION
440
 16777216
370
     0
100
AcDbLine
 10
-203.4179139928001
 20
90.16403078100003
 30
0.0
 11
-213.4179139928001
 21
90.16403078100003
 31
0.0
  0
LINE
  5
2A2
330
29D
100
AcDbEntity
  8
DIMENSION
440
 16777216
370
     0
100
AcDbLine
 10
-208.4179139928
 20
-239.8390680450002
 30
0.0
 11
-208.4179139928
 21
90.16403078100003
 31
0.0
  0
MTEXT
  5
2A3
330
29D
100
AcDbEntity
  8
DIMENSION
 62
     7
440
 16777216
100
AcDbMText
 10
-222.4179139928
 20
-71.2265960694
 30
0.0
 40
8.0
 41
0.0
 46
0.0
 71
     2
 72
     1
  1
\A1;330
 73
     1
 44
1.0
  0
POINT
  5
2A4
330
29D
100
AcDbEntity
  8
Defpoints
 62
     0
440
 16777216
100
AcDbPoint
 10
-162.4179139928001
 20
-239.8390680450001
 30
0.0
  0
POINT
  5
2A5
330
29D
100
AcDbEntity
  8
Defpoints
 62
     0
440
 16777216
100
AcDbPoint
 10
-90.41791416750003
 20
90.16403078100003
 30
0.0
  0
POINT
  5
2A6
330
29D
100
AcDbEntity
  8
Defpoints
 62
     0
440
 16777216
100
AcDbPoint
 10
-208.4179139928
 20
90.16403078100003
 30
0.0
  0
ENDBLK
  5
29F
330
29D
100
AcDbEntity
  8
0
100
AcDbBlockEnd
  0
BLOCK
  5
2AC
330
2AB
100
AcDbEntity
  8
0
100
AcDbBlockBegin
  2
*D20
 70
     1
 10
0.0
 20
0.0
 30
0.0
  3
*D20
  1

  0
LINE
  5
2AE
330
2AB
100
AcDbEntity
  8
DIMENSION
440
 16777216
370
     0
100
AcDbLine
 10
122.2820851939001
 20
-239.8390680450001
 30
0.0
 11
132.2820851939001
 21
-239.8390680450001
 31
0.0
  0
LINE
  5
2AF
330
2AB
100
AcDbEntity
  8
DIMENSION
440
 16777216
370
     0
100
AcDbLine
 10
122.2820851939
 20
0.1640307810000058
 30
0.0
 11
132.2820851939
 21
0.1640307810000074
 31
0.0
  0
LINE
  5
2B0
330
2AB
100
AcDbEntity
  8
DIMENSION
440
 16777216
370
     0
100
AcDbLine
 10
127.2820851939001
 20
-239.8390680450001
 30
0.0
 11
127.2820851939
 21
0.1640307810000066
 31
0.0
  0
MTEXT
  5
2B1
330
2AB
100
AcDbEntity
  8
DIMENSION
 62
     7
440
 16777216
100
AcDbMText
 10
141.2820851939
 20
-123.7002155936
 30
0.0
 40
8.0
 41
0.0
 46
0.0
 71
     2
 72
     1
  1
\A1;240
 73
     1
 44
1.0
  0
POINT
  5
2B2
330
2AB
100
AcDbEntity
  8
Defpoints
 62
     0
440
 16777216
100
AcDbPoint
 10
-108.4179139928
 20
-239.8390680450001
 30
0.0
  0
POINT
  5
2B3
330
2AB
100
AcDbEntity
  8
Defpoints
 62
     0
440
 16777216
100
AcDbPoint
 10
86.78208519380001
 20
0.164030781
 30
0.0
  0
POINT
  5
2B4
330
2AB
100
AcDbEntity
  8
Defpoints
 62
     0
440
 16777216
100
AcDbPoint
 10
127.2820851939
 20
0.1640307810000066
 30
0.0
  0
ENDBLK
  5
2AD
330
2AB
100
AcDbEntity
  8
0
100
AcDbBlockEnd
  0
BLOCK
  5
2BA
330
2B9
100
AcDbEntity
  8
0
100
AcDbBlockBegin
  2
*D21
 70
     1
 10
0.0
 20
0.0
 30
0.0
  3
*D21
  1

  0
LINE
  5
2BC
330
2B9
100
AcDbEntity
  8
DIMENSION
440
 16777216
370
     0
100
AcDbLine
 10
74.58208519379998
 20
-274.839068045
 30
0.0
 11
74.58208519379998
 21
-284.839068045
 31
0.0
  0
LINE
  5
2BD
330
2B9
100
AcDbEntity
  8
DIMENSION
440
 16777216
370
     0
100
AcDbLine
 10
-135.4179139928
 20
-274.839068045
 30
0.0
 11
-135.4179139928
 21
-284.839068045
 31
0.0
  0
LINE
  5
2BE
330
2B9
100
AcDbEntity
  8
DIMENSION
440
 16777216
370
     0
100
AcDbLine
 10
74.58208519379998
 20
-279.839068045
 30
0.0
 11
-135.4179139928
 21
-279.839068045
 31
0.0
  0
MTEXT
  5
2BF
330
2B9
100
AcDbEntity
  8
DIMENSION
 62
     7
440
 16777216
100
AcDbMText
 10
-31.2643576813
 20
-283.839068045
 30
0.0
 40
8.0
 41
0.0
 46
0.0
 71
     2
 72
     1
  1
\A1;210
 73
     1
 44
1.0
  0
POINT
  5
2C0
330
2B9
100
AcDbEntity
  8
Defpoints
 62
     0
440
 16777216
100
AcDbPoint
 10
74.5820851938
 20
0.164030781
 30
0.0
  0
POINT
  5
2C1
330
2B9
100
AcDbEntity
  8
Defpoints
 62
     0
440
 16777216
100
AcDbPoint
 10
-135.4179139928
 20
-239.839068045
 30
0.0
  0
POINT
  5
2C2
330
2B9
100
AcDbEntity
  8
Defpoints
 62
     0
440
 16777216
100
AcDbPoint
 10
-135.4179139928
 20
-279.839068045
 30
0.0
  0
ENDBLK
  5
2BB
330
2B9
100
AcDbEntity
  8
0
100
AcDbBlockEnd
  0
BLOCK
  5
2C8
330
2C7
100
AcDbEntity
  8
0
100
AcDbBlockBegin
  2
*D22
 70
     1
 10
0.0
 20
0.0
 30
0.0
  3
*D22
  1

  0
LINE
  5
2FF
330
2C7
100
AcDbEntity
  8
DIMENSION
440
 16777216
370
     0
100
AcDbLine
 10
-157.5779139928
 20
310.7494472362
 30
0.0
 11
-157.5779139928
 21
320.7494472362
 31
0.0
  0
LINE
  5
300
330
2C7
100
AcDbEntity
  8
DIMENSION
440
 16777216
370
     0
100
AcDbLine
 10
-113.1279139928
 20
310.7494472362
 30
0.0
 11
-113.1279139928
 21
320.7494472362
 31
0.0
  0
LINE
  5
301
330
2C7
100
AcDbEntity
  8
DIMENSION
440
 16777216
370
     0
100
AcDbLine
 10
-157.5779139928
 20
315.7494472362
 30
0.0
 11
-113.1279139928
 21
315.7494472362
 31
0.0
  0
MTEXT
  5
302
330
2C7
100
AcDbEntity
  8
DIMENSION
 62
     7
440
 16777216
100
AcDbMText
 10
-137.3423198154
 20
327.7494472362
 30
0.0
 40
8.0
 41
0.0
 46
0.0
 71
     2
 72
     1
  1
\A1;%%c45
 73
     1
 44
1.0
  0
POINT
  5
303
330
2C7
100
AcDbEntity
  8
Defpoints
 62
     0
440
 16777216
100
AcDbPoint
 10
-157.5779139928
 20
293.5494472362
 30
0.0
  0
POINT
  5
304
330
2C7
100
AcDbEntity
  8
Defpoints
 62
     0
440
 16777216
100
AcDbPoint
 10
-113.1279139928
 20
293.5494472362
 30
0.0
  0
POINT
  5
305
330
2C7
100
AcDbEntity
  8
Defpoints
 62
     0
440
 16777216
100
AcDbPoint
 10
-113.1279139928
 20
315.7494472362
 30
0.0
  0
ENDBLK
  5
2C9
330
2C7
100
AcDbEntity
  8
0
100
AcDbBlockEnd
  0
BLOCK
  5
2D6
330
2D5
100
AcDbEntity
  8
0
100
AcDbBlockBegin
  2
*D23
 70
     1
 10
0.0
 20
0.0
 30
0.0
  3
*D23
  1

  0
LINE
  5
2D8
330
2D5
100
AcDbEntity
  8
DIMENSION
440
 16777216
370
     0
100
AcDbLine
 10
-203.4179139928001
 20
173.7494472362
 30
0.0
 11
-213.4179139928001
 21
173.7494472362
 31
0.0
  0
LINE
  5
2D9
330
2D5
100
AcDbEntity
  8
DIMENSION
440
 16777216
370
     0
100
AcDbLine
 10
-203.4179139928001
 20
293.7494472362001
 30
0.0
 11
-213.4179139928001
 21
293.7494472362001
 31
0.0
  0
LINE
  5
2DA
330
2D5
100
AcDbEntity
  8
DIMENSION
440
 16777216
370
     0
100
AcDbLine
 10
-208.4179139928
 20
173.7494472362
 30
0.0
 11
-208.4179139928001
 21
293.7494472362001
 31
0.0
  0
MTEXT
  5
2DB
330
2D5
100
AcDbEntity
  8
DIMENSION
 62
     7
440
 16777216
100
AcDbMText
 10
-221.0845806594667
 20
232.1276191763
 30
0.0
 40
8.0
 41
0.0
 46
0.0
 71
     2
 72
     1
  1
\A1;120
 73
     1
 44
1.0
  0
POINT
  5
2DC
330
2D5
100
AcDbEntity
  8
Defpoints
 62
     0
440
 16777216
100
AcDbPoint
 10
-157.6429139928
 20
173.7494472362
 30
0.0
  0
POINT
  5
2DD
330
2D5
100
AcDbEntity
  8
Defpoints
 62
     0
440
 16777216
100
AcDbPoint
 10
-157.3779139928
 20
293.7494472362001
 30
0.0
  0
POINT
  5
2DE
330
2D5
100
AcDbEntity
  8
Defpoints
 62
     0
440
 16777216
100
AcDbPoint
 10
-208.4179139928001
 20
293.7494472362001
 30
0.0
  0
ENDBLK
  5
2D7
330
2D5
100
AcDbEntity
  8
0
100
AcDbBlockEnd
  0
BLOCK
  5
2E5
330
2E4
100
AcDbEntity
  8
0
100
AcDbBlockBegin
  2
*D24
 70
     1
 10
0.0
 20
0.0
 30
0.0
  3
*D24
  1

  0
LINE
  5
2E7
330
2E4
100
AcDbEntity
  8
0
 62
     0
440
 16777216
370
    -2
100
AcDbLine
 10
-136.5987948230266
 20
293.7470028675944
 30
0.0
 11
-184.7922081507214
 21
293.6292000491275
 31
0.0
  0
LINE
  5
2E8
330
2E4
100
AcDbEntity
  8
0
 62
     0
440
 16777216
370
    -2
100
AcDbLine
 10
-136.4179110058266
 20
219.7470028670944
 30
0.0
 11
-184.6113243335214
 21
219.6292000486275
 31
0.0
  0
LINE
  5
2E9
330
2E4
100
AcDbEntity
  8
0
 62
     0
440
 16777216
370
    -2
100
AcDbLine
 10
-183.7841398330592
 20
290.3296542823703
 30
0.0
 11
-183.7104850592911
 21
260.1973110841498
 31
0.0
  0
LINE
  5
2EA
330
2E4
100
AcDbEntity
  8
0
 62
     0
440
 16777216
370
    -2
100
AcDbLine
 10
-183.6193986261305
 20
222.9336345525959
 30
0.0
 11
-183.6930533998986
 21
253.0659777508164
 31
0.0
  0
SOLID
  5
2EB
330
2E4
100
AcDbEntity
  8
0
 62
     0
440
 16777216
100
AcDbTrace
 10
-183.2338081438321
 20
290.3309994998929
 30
0.0
 11
-184.3344715222864
 21
290.3283090648476
 31
0.0
 12
-183.7922111381949
 22
293.6316444177331
 32
0.0
 13
-183.7922111381949
 23
293.6316444177331
 33
0.0
  0
SOLID
  5
2EC
330
2E4
100
AcDbEntity
  8
0
 62
     0
440
 16777216
100
AcDbTrace
 10
-183.0690669369033
 20
222.9349797701185
 30
0.0
 11
-184.1697303153576
 21
222.9322893350733
 31
0.0
 12
-183.6113273209948
 22
219.6316444172331
 32
0.0
 13
-183.6113273209948
 23
219.6316444172331
 33
0.0
  0
MTEXT
  5
2ED
330
2E4
100
AcDbEntity
  8
0
 62
     0
440
 16777216
100
AcDbMText
 10
-183.7017692295948
 20
256.6316444174831
 30
0.0
 40
3.5
 41
0.0
 46
0.0
 71
     5
 72
     1
  1
370,00
 73
     1
 44
1.0
  0
POINT
  5
2EE
330
2E4
100
AcDbEntity
  8
Defpoints
 62
     0
440
 16777216
100
AcDbPoint
 10
-135.5987978105
 20
293.7494472362
 30
0.0
  0
POINT
  5
2EF
330
2E4
100
AcDbEntity
  8
Defpoints
 62
     0
440
 16777216
100
AcDbPoint
 10
-135.4179139933
 20
219.7494472357
 30
0.0
  0
POINT
  5
2F0
330
2E4
100
AcDbEntity
  8
Defpoints
 62
     0
440
 16777216
100
AcDbPoint
 10
-183.6113273209948
 20
219.6316444172331
 30
0.0
  0
ENDBLK
  5
2E6
330
2E4
100
AcDbEntity
  8
0
100
AcDbBlockEnd
  0
BLOCK
  5
2F2
330
2F1
100
AcDbEntity
  8
0
100
AcDbBlockBegin
  2
*D25
 70
     1
 10
0.0
 20
0.0
 30
0.0
  3
*D25
  1

  0
LINE
  5
2F4
330
2F1
100
AcDbEntity
  8
DIMENSION
440
 16777216
370
     0
100
AcDbLine
 10
-178.7922260755619
 20
293.643866260761
 30
0.0
 11
-188.7921962008279
 21
293.6194225747051
 31
0.0
  0
LINE
  5
2F5
330
2F1
100
AcDbEntity
  8
DIMENSION
440
 16777216
370
     0
100
AcDbLine
 10
-178.6113422583619
 20
219.643866260261
 30
0.0
 11
-188.6113123836278
 21
219.6194225742051
 31
0.0
  0
LINE
  5
2F6
330
2F1
100
AcDbEntity
  8
DIMENSION
440
 16777216
370
     0
100
AcDbLine
 10
-183.7922111381949
 20
293.6316444177331
 30
0.0
 11
-183.6113273209949
 21
219.6316444172331
 31
0.0
  0
MTEXT
  5
2F7
330
2F1
100
AcDbEntity
  8
DIMENSION
 62
     7
440
 16777216
100
AcDbMText
 10
-194.3879270540156
 20
256.605523430747
 30
0.0
 40
8.0
 41
0.0
 46
0.0
 71
     5
 72
     1
  1
\A1;74
 73
     1
 44
1.0
  0
POINT
  5
2F8
330
2F1
100
AcDbEntity
  8
Defpoints
 62
     0
440
 16777216
100
AcDbPoint
 10
-135.5987978105
 20
293.7494472362
 30
0.0
  0
POINT
  5
2F9
330
2F1
100
AcDbEntity
  8
Defpoints
 62
     0
440
 16777216
100
AcDbPoint
 10
-135.4179139933
 20
219.7494472357
 30
0.0
  0
POINT
  5
2FA
330
2F1
100
AcDbEntity
  8
Defpoints
 62
     0
440
 16777216
100
AcDbPoint
 10
-183.6113273209949
 20
219.6316444172331
 30
0.0
  0
ENDBLK
  5
2F3
330
2F1
100
AcDbEntity
  8
0
100
AcDbBlockEnd
  0
ENDSEC
  0
SECTION
  2
ENTITIES
  0
LINE
  5
74
330
1F
100
AcDbEntity
  8
DIMENSION
100
AcDbLine
 10
-131.597228288
 20
-150.1636931364
 30
0.0
 11
-131.600213602
 21
-149.89630082
 31
0.0
  0
LINE
  5
75
330
1F
100
AcDbEntity
  8
DIMENSION
100
AcDbLine
 10
-139.5999477404
 20
-149.9647706428
 30
0.0
 11
-139.5968694936
 21
-150.2404868744
 31
0.0
  0
LINE
  5
76
330
1F
100
AcDbEntity
  8
0
  6
Continuous
 62
     7
370
    25
100
AcDbLine
 10
87.28208519379998
 20
0.6640307810000001
 30
0.0
 11
87.28208519379998
 21
16.864030781
 31
0.0
  0
LINE
  5
77
330
1F
100
AcDbEntity
  8
0
  6
Continuous
 62
     7
370
    25
100
AcDbLine
 10
61.8820851938
 20
16.864030781
 30
0.0
 11
61.8820851938
 21
0.6640307810000001
 31
0.0
  0
ARC
  5
78
330
1F
100
AcDbEntity
  8
0
  6
Continuous
 62
     7
370
    25
100
AcDbCircle
 10
86.78208519379998
 20
0.6640307810000001
 30
0.0
 40
0.5000000000000005
100
AcDbArc
 50
270.0
 51
0.0
  0
ARC
  5
79
330
1F
100
AcDbEntity
  8
0
  6
Continuous
 62
     7
370
    25
100
AcDbCircle
 10
62.3820851938
 20
0.6640307810000001
 30
0.0
 40
0.5000000000000005
100
AcDbArc
 50
180.0
 51
270.0
  0
LINE
  5
7A
330
1F
100
AcDbEntity
  8
DIMENSION
100
AcDbLine
 10
-122.7179139933
 20
-135.995969219
 30
0.0
 11
-122.7179139933
 21
32.464030781
 31
0.0
  0
LINE
  5
7B
330
1F
100
AcDbEntity
  8
DIMENSION
100
AcDbLine
 10
-148.1179139933
 20
32.464030781
 30
0.0
 11
-148.1179139933
 21
-135.995969219
 31
0.0
  0
SPLINE
  5
7C
330
1F
100
AcDbEntity
  8
0
  6
Continuous
 62
     7
370
    25
100
AcDbSpline
210
0.0
220
0.0
230
1.0
 70
     8
 71
     3
 72
    25
 73
    21
 74
     0
 42
0.00000001
 43
0.0000000001
 40
0.0
 40
0.0
 40
0.0
 40
0.0
 40
0.0257175514060286
 40
0.0834278838952855
 40
0.1411540474951548
 40
0.1988802219453977
 40
0.2566063964089922
 40
0.3143325708812393
 40
0.3720587453645728
 40
0.4297849198610725
 40
0.4875110943723872
 40
0.5452372688996771
 40
0.6029634434435774
 40
0.6606896180041861
 40
0.7184157925810334
 40
0.7761419671731455
 40
0.8338681417790274
 40
0.8915943163967476
 40
0.9493204910239612
 40
1.0
 40
1.0
 40
1.0
 40
1.0
 10
-122.7179139933434
 20
32.46403078100403
 30
0.0
 10
-122.7125596962861
 20
32.8988374077155
 30
0.0
 10
-122.6951903259991
 20
34.30935259236402
 30
0.0
 10
-122.4828520775934
 20
36.69060688903512
 30
0.0
 10
-121.9710111266641
 20
39.57663406825203
 30
0.0
 10
-121.1966300141037
 20
42.40461474860122
 30
0.0
 10
-120.1702152188553
 20
45.15088157912138
 30
0.0
 10
-118.899102772289
 20
47.79291382750357
 30
0.0
 10
-117.3940311642552
 20
50.3089907786458
 30
0.0
 10
-115.6672882988614
 20
52.6784416364007
 30
0.0
 10
-113.7330834153718
 20
54.881797081858
 30
0.0
 10
-111.6073036454849
 20
56.90095078986447
 30
0.0
 10
-109.3074173455446
 20
58.71932031846076
 30
0.0
 10
-106.8523217661808
 20
60.32193335785003
 30
0.0
 10
-104.2621890999911
 20
61.69573865389668
 30
0.0
 10
-101.5583042481955
 20
62.82901164809357
 30
0.0
 10
-98.76287454652004
 20
63.7140693071651
 30
0.0
 10
-95.8989053088414
 20
64.33756088070937
 30
0.0
 10
-93.10816638718886
 20
64.70160716983686
 30
0.0
 10
-91.27494340639431
 20
64.74414459353964
 30
0.0
 10
-90.41791416750056
 20
64.76403078100428
 30
0.0
  0
SPLINE
  5
7D
330
1F
100
AcDbEntity
  8
0
  6
Continuous
 62
     7
370
    25
100
AcDbSpline
210
0.0
220
0.0
230
1.0
 70
     8
 71
     3
 72
    31
 73
    27
 74
     0
 42
0.00000001
 43
0.0000000001
 40
0.0
 40
0.0
 40
0.0
 40
0.0
 40
0.0257137917816326
 40
0.0688924265640615
 40
0.1120764018346581
 40
0.1552603791532648
 40
0.1984443564732227
 40
0.2416283337941354
 40
0.284812311116381
 40
0.3279962884403038
 40
0.3711802657662274
 40
0.4143642430944274
 40
0.4575482204251471
 40
0.5007321977585705
 40
0.5439161750948506
 40
0.5871001524340721
 40
0.6302841297762753
 40
0.6734681071214414
 40
0.7166520844694944
 40
0.7598360618203121
 40
0.8030200391737166
 40
0.8462040165294842
 40
0.8893879938873466
 40
0.9325719712469972
 40
0.9757559486081003
 40
1.0
 40
1.0
 40
1.0
 40
1.0
 10
-90.41791416750035
 20
90.16403078100426
 30
0.0
 10
-91.19465953077067
 20
90.15464010378014
 30
0.0
 10
-93.27571678411205
 20
90.12948058835172
 30
0.0
 10
-96.65453337468566
 20
89.86810457471348
 30
0.0
 10
-100.5310828908419
 20
89.31644964944402
 30
0.0
 10
-104.3613465847274
 20
88.499392307733
 30
0.0
 10
-108.1274564480855
 20
87.42563170268118
 30
0.0
 10
-111.8121138740309
 20
86.09878891912401
 30
0.0
 10
-115.3983642704652
 20
84.52532007361076
 30
0.0
 10
-118.8697139078053
 20
82.71236794262772
 30
0.0
 10
-122.2101953550357
 20
80.66829680935098
 30
0.0
 10
-125.4044437176928
 20
78.4025018759462
 30
0.0
 10
-128.4377665659771
 20
75.92540680801755
 30
0.0
 10
-131.29621170075
 20
73.24840486841306
 30
0.0
 10
-133.9666313292338
 20
70.38380943754309
 30
0.0
 10
-136.4367423517501
 20
67.34479659631894
 30
0.0
 10
-138.6951836126058
 20
64.14534471533318
 30
0.0
 10
-140.7315653336403
 20
60.80017016154852
 30
0.0
 10
-142.5365274452664
 20
57.32465940509293
 30
0.0
 10
-144.1017432960194
 20
53.73479905756614
 30
0.0
 10
-145.4201047840716
 20
50.04709930029936
 30
0.0
 10
-146.4852070677856
 20
46.27852928907862
 30
0.0
 10
-147.2934231304781
 20
42.44639675857446
 30
0.0
 10
-147.8362880284327
 20
38.5684264414284
 30
0.0
 10
-148.0862259676079
 20
35.23317825647764
 30
0.0
 10
-148.1095336214437
 20
33.19637320850218
 30
0.0
 10
-148.1179139933434
 20
32.46403078100386
 30
0.0
  0
LINE
  5
7E
330
1F
100
AcDbEntity
  8
0
  6
Continuous
 62
     7
370
    25
100
AcDbLine
 10
29.5820853681
 20
90.16403078100001
 30
0.0
 11
-90.41791416749999
 21
90.16403078100001
 31
0.0
  0
LINE
  5
7F
330
1F
100
AcDbEntity
  8
0
  6
Continuous
 62
     7
370
    25
100
AcDbLine
 10
-90.41791416749999
 20
64.764030781
 30
0.0
 11
29.5820853681
 21
64.764030781
 31
0.0
  0
SPLINE
  5
80
330
1F
100
AcDbEntity
  8
0
  6
Continuous
 62
     7
370
    25
100
AcDbSpline
210
0.0
220
0.0
230
1.0
 70
     8
 71
     3
 72
    25
 73
    21
 74
     0
 42
0.00000001
 43
0.0000000001
 40
0.0
 40
0.0
 40
0.0
 40
0.0
 40
0.0257175513823365
 40
0.0834278840557921
 40
0.1411540478387905
 40
0.1988802224652031
 40
0.2566063970922096
 40
0.3143325717097707
 40
0.3720587463155557
 40
0.4297849209076042
 40
0.4875110954844585
 40
0.5452372700451188
 40
0.6029634445891296
 40
0.6606896191165698
 40
0.7184157936280849
 40
0.7761419681248237
 40
0.8338681426084292
 40
0.8915943170809701
 40
0.9493204915448766
 40
1.0
 40
1.0
 40
1.0
 40
1.0
 10
29.58208536807955
 20
64.76403078100431
 30
0.0
 10
30.01689199112387
 20
64.7586764839493
 30
0.0
 10
31.42740716788934
 20
64.74130711362064
 30
0.0
 10
33.80866145253751
 20
64.52896886419138
 30
0.0
 10
36.69468861947468
 20
64.01712790984209
 30
0.0
 10
39.52266928783
 20
63.24274679181725
 30
0.0
 10
42.26893610657579
 20
62.21633198914879
 30
0.0
 10
44.9109683433411
 20
60.94521953333157
 30
0.0
 10
47.42704528298717
 20
59.44014791440281
 30
0.0
 10
49.79649612936143
 20
57.71340503669985
 30
0.0
 10
51.99985156358966
 20
55.7792001397505
 30
0.0
 10
54.01900526059964
 20
53.65342035553537
 30
0.0
 10
55.83737477855622
 20
51.353534040685
 30
0.0
 10
57.43998780782962
 20
48.89843844610457
 30
0.0
 10
58.81379309448334
 20
46.3083057646433
 30
0.0
 10
59.9470660802377
 20
43.60442089773687
 30
0.0
 10
60.83212373203681
 20
40.80899118128213
 30
0.0
 10
61.45561529977095
 20
37.94502192928132
 30
0.0
 10
61.81966158390835
 20
35.15428300051256
 30
0.0
 10
61.86219900687905
 20
33.32106001752384
 30
0.0
 10
61.88208519392247
 20
32.46403078100406
 30
0.0
  0
SPLINE
  5
81
330
1F
100
AcDbEntity
  8
0
  6
Continuous
 62
     7
370
    25
100
AcDbSpline
210
0.0
220
0.0
230
1.0
 70
     8
 71
     3
 72
    31
 73
    27
 74
     0
 42
0.00000001
 43
0.0000000001
 40
0.0
 40
0.0
 40
0.0
 40
0.0
 40
0.0257137917549489
 40
0.0688924265808306
 40
0.1120764018952608
 40
0.1552603792572373
 40
0.1984443566193091
 40
0.2416283339803057
 40
0.2848123113398605
 40
0.3279962886976427
 40
0.3711802660533535
 40
0.414364243406711
 40
0.4575482207574972
 40
0.5007321981055438
 40
0.543916175450721
 40
0.5871001527929521
 40
0.6302841301322212
 40
0.6734681074685616
 40
0.7166520848020724
 40
0.7598360621328828
 40
0.8030200394611897
 40
0.8462040167872356
 40
0.889387994111281
 40
0.9325719714336539
 40
0.9757559487547084
 40
1.0
 40
1.0
 40
1.0
 40
1.0
 10
87.28208519392245
 20
32.46403078100389
 30
0.0
 10
87.27269451675736
 20
33.24077614529627
 30
0.0
 10
87.24753500145498
 20
35.32183340404197
 30
0.0
 10
86.9861589888389
 20
38.70065000443034
 30
0.0
 10
86.43450406515597
 20
42.57719953373771
 30
0.0
 10
85.61744672562069
 20
46.40746324068479
 30
0.0
 10
84.54368612330133
 20
50.17357311690904
 30
0.0
 10
83.2168433430302
 20
53.85823055542206
 30
0.0
 10
81.6433745013535
 20
57.44448096402564
 30
0.0
 10
79.83042237476148
 20
60.91583061304185
 30
0.0
 10
77.78635124643919
 20
64.25631207136838
 30
0.0
 10
75.5205563185646
 20
67.45056044446325
 30
0.0
 10
73.0434612567559
 20
70.48388330245981
 30
0.0
 10
70.36645932387623
 20
73.34232844616416
 30
0.0
 10
67.50186390034844
 20
76.01274808275556
 30
0.0
 10
64.46285106709449
 20
78.48285911252505
 30
0.0
 10
61.26339919471153
 20
80.74130037976193
 30
0.0
 10
57.91822465015973
 20
82.7776821063002
 30
0.0
 10
54.44271390355645
 20
84.58264422255766
 30
0.0
 10
50.85285356648089
 20
86.14786007708545
 30
0.0
 10
47.16515382023331
 20
87.4662215680788
 30
0.0
 10
43.39658382055739
 20
88.53132385393063
 30
0.0
 10
39.56445130207002
 20
89.33953991799118
 30
0.0
 10
35.68648099734867
 20
89.88240481658355
 30
0.0
 10
32.35123282696584
 20
90.13234275542712
 30
0.0
 10
30.31442778942465
 20
90.1556504091666
 30
0.0
 10
29.58208536807942
 20
90.16403078100436
 30
0.0
  0
LINE
  5
82
330
1F
100
AcDbEntity
  8
0
  6
Continuous
 62
     7
370
    25
100
AcDbLine
 10
87.28208519389999
 20
17.064030781
 30
0.0
 11
87.28208519389999
 21
32.464030781
 31
0.0
  0
LINE
  5
83
330
1F
100
AcDbEntity
  8
0
  6
Continuous
 62
     7
370
    25
100
AcDbLine
 10
61.8820851939
 20
32.464030781
 30
0.0
 11
61.8820851939
 21
17.064030781
 31
0.0
  0
LINE
  5
84
330
1F
100
AcDbEntity
  8
DIMENSION
100
AcDbLine
 10
-113.1929139928
 20
-235.839068045
 30
0.0
 11
-113.1929139928
 21
-191.669068045
 31
0.0
  0
LINE
  5
85
330
1F
100
AcDbEntity
  8
DIMENSION
100
AcDbLine
 10
-157.6429139928
 20
-191.669068045
 30
0.0
 11
-157.6429139928
 21
-235.839068045
 31
0.0
  0
ARC
  5
86
330
1F
100
AcDbEntity
  8
DIMENSION
100
AcDbCircle
 10
-178.1446720152
 20
-189.1652450103
 30
0.0
 40
65.0
100
AcDbArc
 50
357.792400093
 51
8.846472607599999
  0
ARC
  5
87
330
1F
100
AcDbEntity
  8
DIMENSION
100
AcDbCircle
 10
-92.69115597029999
 20
-189.1652450103
 30
0.0
 40
65.0
100
AcDbArc
 50
171.1535273924
 51
182.207599907
  0
LINE
  5
88
330
1F
100
AcDbEntity
  8
DIMENSION
100
AcDbLine
 10
-122.7179139928
 20
-153.4945967373
 30
0.0
 11
-122.7179139928
 21
-135.995969219
 31
0.0
  0
LINE
  5
89
330
1F
100
AcDbEntity
  8
DIMENSION
100
AcDbLine
 10
-148.1179139928
 20
-135.995969219
 30
0.0
 11
-148.1179139928
 21
-153.4869933788
 31
0.0
  0
LINE
  5
8A
330
1F
100
AcDbEntity
  8
DIMENSION
100
AcDbLine
 10
-108.4179139928
 20
-239.839068045
 30
0.0
 11
-108.4179139928
 21
-235.839068045
 31
0.0
  0
LINE
  5
8B
330
1F
100
AcDbEntity
  8
DIMENSION
100
AcDbLine
 10
-162.4179139928
 20
-235.839068045
 30
0.0
 11
-162.4179139928
 21
-239.839068045
 31
0.0
  0
LINE
  5
8C
330
1F
100
AcDbEntity
  8
DIMENSION
100
AcDbLine
 10
-113.1764799195
 20
-170.600600546
 30
0.0
 11
-113.2414319132
 21
-170.6013257056
 31
0.0
  0
ARC
  5
8D
330
1F
100
AcDbEntity
  8
DIMENSION
100
AcDbCircle
 10
-135.3529139928
 20
-172.069068045
 30
0.0
 40
22.22500000000001
100
AcDbArc
 50
341.3697247942
 51
3.788451242499999
  0
ARC
  5
8E
330
1F
100
AcDbEntity
  8
DIMENSION
100
AcDbCircle
 10
-135.3529139928
 20
-172.069068045
 30
0.0
 40
22.22500000000002
100
AcDbArc
 50
3.788451242499999
 51
90.08378476569999
  0
LINE
  5
8F
330
1F
100
AcDbEntity
  8
0
  6
Continuous
 62
     7
370
    25
100
AcDbLine
 10
74.5820851938
 20
16.864030781
 30
0.0
 11
61.8820851938
 21
16.864030781
 31
0.0
  0
LINE
  5
90
330
1F
100
AcDbEntity
  8
0
  6
Continuous
 62
     7
370
    25
100
AcDbLine
 10
87.28208519379998
 20
16.864030781
 30
0.0
 11
74.5820851938
 21
16.864030781
 31
0.0
  0
LINE
  5
91
330
1F
100
AcDbEntity
  8
0
  6
Continuous
 62
     7
370
    25
100
AcDbLine
 10
74.5820851938
 20
0.164030781
 30
0.0
 11
62.3820851938
 21
0.164030781
 31
0.0
  0
LINE
  5
92
330
1F
100
AcDbEntity
  8
0
  6
Continuous
 62
     7
370
    25
100
AcDbLine
 10
86.78208519379998
 20
0.164030781
 30
0.0
 11
74.5820851938
 21
0.164030781
 31
0.0
  0
LINE
  5
93
330
1F
100
AcDbEntity
  8
DIMENSION
100
AcDbLine
 10
-148.1179139933
 20
-135.995969219
 30
0.0
 11
-122.7179139933
 21
-135.995969219
 31
0.0
  0
LINE
  5
94
330
1F
100
AcDbEntity
  8
0
  6
Continuous
 62
     7
370
    25
100
AcDbLine
 10
87.28208519389999
 20
17.064030781
 30
0.0
 11
61.8820851939
 21
17.064030781
 31
0.0
  0
LINE
  5
95
330
1F
100
AcDbEntity
  8
DIMENSION
100
AcDbLine
 10
-145.8960161587
 20
-191.669068045
 30
0.0
 11
-157.6429139928
 21
-191.669068045
 31
0.0
  0
LINE
  5
96
330
1F
100
AcDbEntity
  8
DIMENSION
100
AcDbLine
 10
-113.1929139928
 20
-191.669068045
 30
0.0
 11
-124.9398118268
 21
-191.669068045
 31
0.0
  0
LINE
  5
97
330
1F
100
AcDbEntity
  8
DIMENSION
100
AcDbLine
 10
-113.9179139927
 20
-179.169068045
 30
0.0
 11
-114.3575097944
 21
-179.169068045
 31
0.0
  0
LINE
  5
98
330
1F
100
AcDbEntity
  8
DIMENSION
100
AcDbLine
 10
-156.4783181912
 20
-179.169068045
 30
0.0
 11
-156.9179139928
 21
-179.169068045
 31
0.0
  0
LINE
  5
99
330
1F
100
AcDbEntity
  8
DIMENSION
100
AcDbLine
 10
-135.4179139928
 20
-135.995969219
 30
0.0
 11
-148.1179139928
 21
-135.995969219
 31
0.0
  0
LINE
  5
9A
330
1F
100
AcDbEntity
  8
DIMENSION
100
AcDbLine
 10
-122.7179139928
 20
-135.995969219
 30
0.0
 11
-135.4179139928
 21
-135.995969219
 31
0.0
  0
SPLINE
  5
9B
330
1F
100
AcDbEntity
  8
DIMENSION
100
AcDbSpline
210
0.0
220
0.0
230
1.0
 70
     8
 71
     3
 72
    24
 73
    20
 74
     0
 42
0.00000001
 43
0.0000000001
 40
0.0
 40
0.0
 40
0.0
 40
0.0
 40
0.0954324209452641
 40
0.1439388785296951
 40
0.1931994565299781
 40
0.2885060959694474
 40
0.3368038307354984
 40
0.3856993242918054
 40
0.4365337187175677
 40
0.4879725906917037
 40
0.5397112356974684
 40
0.5920617900536481
 40
0.6479740656005685
 40
0.7047487532403532
 40
0.7619819299205225
 40
0.8202045324343472
 40
0.9084595584224876
 40
0.9985779052102188
 40
1.0
 40
1.0
 40
1.0
 40
1.0
 10
-135.4179139927558
 20
-149.5690680449799
 30
0.0
 10
-134.767812288241
 20
-149.5847533765694
 30
0.0
 10
-133.7872764352129
 20
-149.6084112594565
 30
0.0
 10
-132.5032942094243
 20
-149.7522792441328
 30
0.0
 10
-131.2498418907017
 20
-149.9425080865291
 30
0.0
 10
-130.0522903105794
 20
-150.204543628203
 30
0.0
 10
-128.9342325027824
 20
-150.5177262161272
 30
0.0
 10
-128.1167141875168
 20
-150.780973292958
 30
0.0
 10
-127.329881996262
 20
-151.0675863593086
 30
0.0
 10
-126.5813965894083
 20
-151.3719020416401
 30
0.0
 10
-125.8825570595514
 20
-151.684995798179
 30
0.0
 10
-125.2256235660264
 20
-152.0057696081709
 30
0.0
 10
-124.6178329943181
 20
-152.3268215465469
 30
0.0
 10
-124.0706417003784
 20
-152.6370267205204
 30
0.0
 10
-123.6028344112849
 20
-152.9186376096777
 30
0.0
 10
-123.1537021685295
 20
-153.2031771193411
 30
0.0
 10
-122.8300719917548
 20
-153.4189009822589
 30
0.0
 10
-122.6759749712614
 20
-153.5244450546583
 30
0.0
 10
-122.7192628185697
 20
-153.4950533420259
 30
0.0
 10
-122.7199353019121
 20
-153.4945967372655
 30
0.0
  0
SPLINE
  5
9C
330
1F
100
AcDbEntity
  8
DIMENSION
100
AcDbSpline
210
0.0
220
0.0
230
1.0
 70
     8
 71
     3
 72
    23
 73
    19
 74
     0
 42
0.00000001
 43
0.0000000001
 40
0.0
 40
0.0
 40
0.0
 40
0.0
 40
0.078434198915316
 40
0.1691199189797497
 40
0.2571700396603467
 40
0.3466696536575767
 40
0.3971732464790744
 40
0.4482630023017095
 40
0.4996442411820416
 40
0.5516228344666016
 40
0.6076641119599869
 40
0.6641177568357695
 40
0.7219545644535089
 40
0.780313387195506
 40
0.8339279080349966
 40
0.8885548747677432
 40
0.9437165566892003
 40
1.0
 40
1.0
 40
1.0
 40
1.0
 10
-148.104719519379
 20
-153.4869933787641
 30
0.0
 10
-148.0904908551057
 20
-153.4771705641091
 30
0.0
 10
-148.0598109911897
 20
-153.4559905987167
 30
0.0
 10
-147.696147158442
 20
-153.2114943287136
 30
0.0
 10
-147.1023962803295
 20
-152.8351358878535
 30
0.0
 10
-146.4075073944429
 20
-152.4294599756625
 30
0.0
 10
-145.716340149422
 20
-152.0606955809035
 30
0.0
 10
-145.1014433065059
 20
-151.7552562590672
 30
0.0
 10
-144.4211116399585
 20
-151.4439980773976
 30
0.0
 10
-143.6597503159409
 20
-151.1269952665309
 30
0.0
 10
-142.8133849593429
 20
-150.8120871293411
 30
0.0
 10
-141.875390356268
 20
-150.5076436641887
 30
0.0
 10
-140.8662401041097
 20
-150.2297889445441
 30
0.0
 10
-139.8215596120743
 20
-149.9954931577329
 30
0.0
 10
-138.7550476974701
 20
-149.8092038066696
 30
0.0
 10
-137.6773844923983
 20
-149.6744009216793
 30
0.0
 10
-136.5593149429782
 20
-149.585920112314
 30
0.0
 10
-135.8009255228414
 20
-149.5747229693897
 30
0.0
 10
-135.4179139927558
 20
-149.5690680449799
 30
0.0
  0
CIRCLE
  5
9D
330
1F
100
AcDbEntity
  8
DIMENSION
100
AcDbCircle
 10
-135.4179139928
 20
-172.069068045
 30
0.0
 40
22.22500000000001
  0
LINE
  5
9E
330
1F
100
AcDbEntity
  8
DIMENSION
100
AcDbLine
 10
-162.4179139928
 20
-239.839068045
 30
0.0
 11
-108.4179139928
 21
-239.839068045
 31
0.0
  0
LINE
  5
9F
330
1F
100
AcDbEntity
  8
DIMENSION
100
AcDbLine
 10
-162.4179139928
 20
-235.839068045
 30
0.0
 11
-108.4179139928
 21
-235.839068045
 31
0.0
  0
POINT
  5
A0
330
1F
100
AcDbEntity
  8
DIMENSION
100
AcDbPoint
 10
-135.4179139928
 20
-239.839068045
 30
0.0
  0
POINT
  5
A1
330
1F
100
AcDbEntity
  8
0
  6
Continuous
 62
     7
370
     0
100
AcDbPoint
 10
74.5820851938
 20
0.164030781
 30
0.0
  0
DIMENSION
  5
A2
102
{ACAD_XDICTIONARY
360
2C3
102
}
330
1F
100
AcDbEntity
  8
DIMENSION
100
AcDbDimension
280
     0
  2
*D21
 10
-135.4179139928
 20
-279.839068045
 30
0.0
 11
-31.2643576813
 21
-279.839068045
 31
0.0
 70
   160
  1
<>
 71
     2
 42
209.9999991866
 73
     0
 74
     0
 75
     0
  3
RG Dimension Lines
100
AcDbAlignedDimension
 13
74.5820851938
 23
0.164030781
 33
0.0
 14
-135.4179139928
 24
-239.839068045
 34
0.0
100
AcDbRotatedDimension
1001
AcadAnnotative
1000
AnnotativeData
1002
{
1070
     1
1070
     1
1002
}
  0
DIMENSION
  5
AF
102
{ACAD_XDICTIONARY
360
2B5
102
}
330
1F
100
AcDbEntity
  8
DIMENSION
100
AcDbDimension
280
     0
  2
*D20
 10
127.2820851939
 20
0.1640307810000066
 30
0.0
 11
127.2820851939
 21
-127.7002155936
 31
0.0
 70
   160
  1
<>
 71
     2
 42
240.003098826
 73
     0
 74
     0
 75
     0
  3
RG Dimension Lines
100
AcDbAlignedDimension
 13
-108.4179139928
 23
-239.839068045
 33
0.0
 14
86.78208519379998
 24
0.164030781
 34
0.0
 50
90.0
100
AcDbRotatedDimension
1001
AcadAnnotative
1000
AnnotativeData
1002
{
1070
     1
1070
     1
1002
}
  0
DIMENSION
  5
B7
102
{ACAD_XDICTIONARY
360
2A7
102
}
330
1F
100
AcDbEntity
  8
DIMENSION
100
AcDbDimension
280
     0
  2
*D19
 10
-208.4179139928
 20
90.16403078100003
 30
0.0
 11
-208.4179139928
 21
-75.2265960694
 31
0.0
 70
   160
  1
<>
 71
     2
 42
330.003098826
 73
     0
 74
     0
 75
     0
  3
RG Dimension Lines
100
AcDbAlignedDimension
 13
-162.4179139928
 23
-239.839068045
 33
0.0
 14
-90.41791416749999
 24
90.16403078100001
 34
0.0
 50
90.0
100
AcDbRotatedDimension
1001
AcadAnnotative
1000
AnnotativeData
1002
{
1070
     1
1070
     1
1002
}
  0
LINE
  5
BF
330
1F
100
AcDbEntity
  8
DIMENSION
100
AcDbLine
 10
335.2319407472
 20
-149.844068045
 30
0.0
 11
322.667638191
 21
-149.844068045
 31
0.0
  0
LINE
  5
C0
330
1F
100
AcDbEntity
  8
DIMENSION
100
AcDbLine
 10
349.467638191
 20
-149.844068045
 30
0.0
 11
343.3368534957
 21
-149.844068045
 31
0.0
  0
LINE
  5
C1
330
1F
100
AcDbEntity
  8
DIMENSION
100
AcDbLine
 10
331.6671065349
 20
-194.294068045
 30
0.0
 11
349.467638191
 21
-194.294068045
 31
0.0
  0
LINE
  5
C2
330
1F
100
AcDbEntity
  8
DIMENSION
100
AcDbLine
 10
349.467638191
 20
-194.294068045
 30
0.0
 11
349.667638191
 21
-194.094068045
 31
0.0
  0
LINE
  5
C3
330
1F
100
AcDbEntity
  8
DIMENSION
100
AcDbLine
 10
349.667638191
 20
-150.044068045
 30
0.0
 11
349.467638191
 21
-149.844068045
 31
0.0
  0
LINE
  5
C4
330
1F
100
AcDbEntity
  8
DIMENSION
100
AcDbLine
 10
343.267638191
 20
-149.8546346453
 30
0.0
 11
343.267638191
 21
-109.2980766267
 31
0.0
  0
LINE
  5
C5
330
1F
100
AcDbEntity
  8
DIMENSION
100
AcDbLine
 10
335.267638191
 20
-109.2980766267
 30
0.0
 11
335.267638191
 21
-149.8537249516
 31
0.0
  0
LINE
  5
C6
330
1F
100
AcDbEntity
  8
DIMENSION
100
AcDbLine
 10
288.3861138046
 20
0.6640307810000001
 30
0.0
 11
288.3861138046
 21
16.864030781
 31
0.0
  0
LINE
  5
C7
330
1F
100
AcDbEntity
  8
DIMENSION
100
AcDbLine
 10
262.9861138046
 20
16.864030781
 30
0.0
 11
262.9861138046
 21
0.6640307810000001
 31
0.0
  0
ARC
  5
C8
330
1F
100
AcDbEntity
  8
DIMENSION
100
AcDbCircle
 10
287.8861138046
 20
0.6640307810000001
 30
0.0
 40
0.5000000000000005
100
AcDbArc
 50
270.0
 51
0.0
  0
ARC
  5
C9
330
1F
100
AcDbEntity
  8
DIMENSION
100
AcDbCircle
 10
263.4861138046
 20
0.6640307810000001
 30
0.0
 40
0.5000000000000005
100
AcDbArc
 50
180.0
 51
270.0
  0
SPLINE
  5
CA
330
1F
100
AcDbEntity
  8
DIMENSION
100
AcDbSpline
210
0.0
220
0.0
230
1.0
 70
     8
 71
     3
 72
    29
 73
    25
 74
     0
 42
0.00000001
 43
0.0000000001
 40
0.0
 40
0.0
 40
0.0
 40
0.0
 40
0.0013654291940286
 40
0.0204716805359523
 40
0.0572437538596022
 40
0.104437335231022
 40
0.1538004906958151
 40
0.2035017222655461
 40
0.2532803729493577
 40
0.3030849361166404
 40
0.3529005263766274
 40
0.4027215977650158
 40
0.4525457034809651
 40
0.5023716265605902
 40
0.5521987048707527
 40
0.602026551940419
 40
0.6518549289458772
 40
0.7016836810243933
 40
0.751512703416366
 40
0.8013419224336026
 40
0.8511712842288009
 40
0.901000747865569
 40
0.9508302808467615
 40
1.0
 40
1.0
 40
1.0
 40
1.0
 10
262.9823389469196
 20
77.40402174592957
 30
0.0
 10
262.9823353651852
 20
77.40484116701137
 30
0.0
 10
262.9822816647636
 20
77.41712662764448
 30
0.0
 10
262.9824863445601
 20
77.34371604361196
 30
0.0
 10
262.9826212916364
 20
77.15304470891543
 30
0.0
 10
262.9829160043724
 20
76.6768170773789
 30
0.0
 10
262.983197112124
 20
75.91436231139415
 30
0.0
 10
262.9834882663748
 20
74.88165155024133
 30
0.0
 10
262.9837696288773
 20
73.59682595700715
 30
0.0
 10
262.9840425330157
 20
72.06838640525937
 30
0.0
 10
262.984304204179
 20
70.30603120059227
 30
0.0
 10
262.984553308798
 20
68.3202639967086
 30
0.0
 10
262.984788281651
 20
66.12289241878412
 30
0.0
 10
262.9850077440959
 20
63.72691510871688
 30
0.0
 10
262.9852103902064
 20
61.14649031277745
 30
0.0
 10
262.9853950222064
 20
58.39685348722549
 30
0.0
 10
262.9855605492635
 20
55.49423319040052
 30
0.0
 10
262.9857059908254
 20
52.45575693757483
 30
0.0
 10
262.9858304989843
 20
49.29935137499568
 30
0.0
 10
262.9859332981209
 20
46.04363759274561
 30
0.0
 10
262.986013933147
 20
42.70782032730876
 30
0.0
 10
262.9860713621895
 20
39.31158029936103
 30
0.0
 10
262.9861071997726
 20
35.89010816213596
 30
0.0
 10
262.9861116128093
 20
33.60097099975233
 30
0.0
 10
262.9861138046217
 20
32.46403078100398
 30
0.0
  0
SPLINE
  5
CB
330
1F
100
AcDbEntity
  8
DIMENSION
100
AcDbSpline
210
0.0
220
0.0
230
1.0
 70
     8
 71
     3
 72
    33
 73
    29
 74
     0
 42
0.00000001
 43
0.0000000001
 40
0.0
 40
0.0
 40
0.0
 40
0.0
 40
0.0256876721411873
 40
0.0745288046016159
 40
0.1233786336634965
 40
0.1722285045454411
 40
0.2210784377330771
 40
0.2699284620572663
 40
0.3187786128281931
 40
0.3676289352187003
 40
0.4164794893208466
 40
0.4653303580535232
 40
0.5141816600733225
 40
0.5630335718166753
 40
0.6118863670473935
 40
0.66074049203419
 40
0.7095967187574371
 40
0.7584564853040736
 40
0.8073227409294808
 40
0.85620238149683
 40
0.9051149466988242
 40
0.9541366216549054
 40
0.9765645337039336
 40
0.9877932310680902
 40
0.9934801477604572
 40
0.9954294178887883
 40
0.9971272613942263
 40
1.0
 40
1.0
 40
1.0
 40
1.0
 10
288.3861138046216
 20
32.46403078100402
 30
0.0
 10
288.3861131550262
 20
33.06982139634533
 30
0.0
 10
288.3861112703257
 20
34.82742909828544
 30
0.0
 10
288.3860903189248
 20
37.73102159960061
 30
0.0
 10
288.3860434064522
 20
41.1483029649313
 30
0.0
 10
288.3859732397186
 20
44.51466931248542
 30
0.0
 10
288.3858806362769
 20
47.80994664458808
 30
0.0
 10
288.3857660345406
 20
51.0147354552385
 30
0.0
 10
288.3856301388255
 20
54.1101295554428
 30
0.0
 10
288.3854737423339
 20
57.07787951585792
 30
0.0
 10
288.3852977687753
 20
59.90048668201144
 30
0.0
 10
288.3851032541006
 20
62.56131051417939
 30
0.0
 10
288.3848913445549
 20
65.04466634969048
 30
0.0
 10
288.3846632846852
 20
67.33591927095313
 30
0.0
 10
288.3844204242365
 20
69.42157185647566
 30
0.0
 10
288.3841641536476
 20
71.28934790608912
 30
0.0
 10
288.3838960979036
 20
72.9282675739783
 30
0.0
 10
288.3836173330294
 20
74.32873814545827
 30
0.0
 10
288.3833312178962
 20
75.48259419663162
 30
0.0
 10
288.3830326267515
 20
76.38341426558513
 30
0.0
 10
288.3827475360912
 20
77.02621485857881
 30
0.0
 10
288.3824488470949
 20
77.34059827178369
 30
0.0
 10
288.3823440774677
 20
77.45347426792729
 30
0.0
 10
288.3820962828584
 20
77.50460261247926
 30
0.0
 10
288.3819897555853
 20
77.55099537273726
 30
0.0
 10
288.381028693437
 20
77.63766184189073
 30
0.0
 10
288.379288752324
 20
77.74921325747524
 30
0.0
 10
288.3760022707745
 20
77.85468208998918
 30
0.0
 10
288.3739366252627
 20
77.92097219910359
 30
0.0
  0
LINE
  5
CC
330
1F
100
AcDbEntity
  8
DIMENSION
100
AcDbLine
 10
288.3861138046
 20
17.064030781
 30
0.0
 11
288.3861138046
 21
32.464030781
 31
0.0
  0
LINE
  5
CD
330
1F
100
AcDbEntity
  8
DIMENSION
100
AcDbLine
 10
262.9861138046
 20
32.464030781
 30
0.0
 11
262.9861138046
 21
17.064030781
 31
0.0
  0
LINE
  5
CE
330
1F
100
AcDbEntity
  8
DIMENSION
100
AcDbLine
 10
275.6821547444
 20
90.16403078100001
 30
0.0
 11
275.6715972506
 21
90.16403078100001
 31
0.0
  0
SPLINE
  5
CF
330
1F
100
AcDbEntity
  8
DIMENSION
100
AcDbSpline
210
0.0
220
0.0
230
1.0
 70
     8
 71
     3
 72
    32
 73
    28
 74
     0
 42
0.00000001
 43
0.0000000001
 40
0.0
 40
0.0
 40
0.0
 40
0.0
 40
0.0012746404983041
 40
0.0033022995416016
 40
0.0073850964428446
 40
0.0175405997647331
 40
0.0416891032203702
 40
0.0888178764981071
 40
0.1387325019564521
 40
0.1879751603788676
 40
0.2371077320740427
 40
0.2862078564953925
 40
0.3352949442093523
 40
0.3843757713510381
 40
0.4334532125513765
 40
0.4825286596998686
 40
0.5316028552497732
 40
0.5806762259256903
 40
0.6297490321453719
 40
0.6788214409925627
 40
0.7278935644359408
 40
0.776965480544701
 40
0.8260372458708404
 40
0.8751089030117464
 40
0.9241804854386547
 40
0.9732520207316998
 40
1.0
 40
1.0
 40
1.0
 40
1.0
 10
262.9729644916368
 20
77.6507117082232
 30
0.0
 10
262.9727521857212
 20
77.63512396260701
 30
0.0
 10
262.9722021500609
 20
77.59473970895185
 30
0.0
 10
262.9718664740211
 20
77.55095298056525
 30
0.0
 10
262.9715668977629
 20
77.5026981303149
 30
0.0
 10
262.9714835682005
 20
77.45774483645807
 30
0.0
 10
262.9712549812347
 20
77.34503182398626
 30
0.0
 10
262.971029970415
 20
77.03593426762594
 30
0.0
 10
262.9707225914112
 20
76.4058645312302
 30
0.0
 10
262.9704285085437
 20
75.50515265874652
 30
0.0
 10
262.9701400715617
 20
74.35483370922712
 30
0.0
 10
262.969861450261
 20
72.95856430489294
 30
0.0
 10
262.969592989343
 20
71.32390586504545
 30
0.0
 10
262.9693364750055
 20
69.4603072526861
 30
0.0
 10
262.9690933138955
 20
67.37866331010471
 30
0.0
 10
262.9688649453525
 20
65.09120290364342
 30
0.0
 10
262.9686527030034
 20
62.61138748027352
 30
0.0
 10
262.968457835505
 20
59.95382369775981
 30
0.0
 10
262.9682814891745
 20
57.13417242409541
 30
0.0
 10
262.9681247018655
 20
54.16905389993854
 30
0.0
 10
262.9679883992198
 20
51.07594933735439
 30
0.0
 10
262.9678733764685
 20
47.87309347622735
 30
0.0
 10
262.967780340908
 20
44.57937988920514
 30
0.0
 10
262.9677097309877
 20
41.21419944974484
 30
0.0
 10
262.9676623730346
 20
37.79751153646065
 30
0.0
 10
262.9676408607739
 20
34.87195791275045
 30
0.0
 10
262.9676388868414
 20
33.09198007170723
 30
0.0
 10
262.9676381904679
 20
32.46403078100395
 30
0.0
  0
LINE
  5
D0
330
1F
100
AcDbEntity
  8
DIMENSION
100
AcDbLine
 10
288.3676381905
 20
-135.995969219
 30
0.0
 11
288.3676381905
 21
0.5293672528
 31
0.0
  0
LINE
  5
D1
330
1F
100
AcDbEntity
  8
DIMENSION
100
AcDbLine
 10
288.3676381905
 20
16.864030781
 30
0.0
 11
288.3676381905
 21
17.064030781
 31
0.0
  0
LINE
  5
D2
330
1F
100
AcDbEntity
  8
DIMENSION
100
AcDbLine
 10
262.9676381905
 20
32.464030781
 30
0.0
 11
262.9676381905
 21
-135.995969219
 31
0.0
  0
LINE
  5
D3
330
1F
100
AcDbEntity
  8
DIMENSION
100
AcDbLine
 10
297.892638191
 20
-235.839068045
 30
0.0
 11
297.892638191
 21
-194.294068045
 31
0.0
  0
LINE
  5
D4
330
1F
100
AcDbEntity
  8
DIMENSION
100
AcDbLine
 10
253.442638191
 20
-194.294068045
 30
0.0
 11
253.442638191
 21
-235.839068045
 31
0.0
  0
LINE
  5
D5
330
1F
100
AcDbEntity
  8
DIMENSION
100
AcDbLine
 10
288.3676381909999
 20
-149.572537513
 30
0.0
 11
288.3676381909999
 21
-135.995969219
 31
0.0
  0
LINE
  5
D6
330
1F
100
AcDbEntity
  8
DIMENSION
100
AcDbLine
 10
262.967638191
 20
-135.995969219
 30
0.0
 11
262.967638191
 21
-149.569068045
 31
0.0
  0
LINE
  5
D7
330
1F
100
AcDbEntity
  8
DIMENSION
100
AcDbLine
 10
229.667638191
 20
-194.294068045
 30
0.0
 11
253.442638191
 21
-194.294068045
 31
0.0
  0
LINE
  5
D8
330
1F
100
AcDbEntity
  8
DIMENSION
100
AcDbLine
 10
297.892638191
 20
-194.294068045
 30
0.0
 11
320.067638191
 21
-194.294068045
 31
0.0
  0
LINE
  5
D9
330
1F
100
AcDbEntity
  8
DIMENSION
100
AcDbLine
 10
320.067638191
 20
-149.844068045
 30
0.0
 11
287.8719343847
 21
-149.844068045
 31
0.0
  0
LINE
  5
DA
330
1F
100
AcDbEntity
  8
DIMENSION
100
AcDbLine
 10
263.4625259297
 20
-149.844068045
 30
0.0
 11
229.667638191
 21
-149.844068045
 31
0.0
  0
ARC
  5
DB
330
1F
100
AcDbEntity
  8
DIMENSION
100
AcDbCircle
 10
319.2183273886
 20
-172.5871094032
 30
0.0
 40
20.00000000000001
100
AcDbArc
 50
272.4338280937
 51
301.9181266378
  0
LWPOLYLINE
  5
DC
330
1F
100
AcDbEntity
  8
DIMENSION
100
AcDbPolyline
 90
        3
 70
   128
 43
0.0
 10
322.667638191
 20
-151.8507156489
 10
321.619681766
 20
-151.6957126083
 10
320.067638191
 20
-151.569068045
  0
LINE
  5
DD
330
1F
100
AcDbEntity
  8
DIMENSION
100
AcDbLine
 10
302.667638191
 20
-239.839068045
 30
0.0
 11
302.667638191
 21
-235.839068045
 31
0.0
  0
LINE
  5
DE
330
1F
100
AcDbEntity
  8
DIMENSION
100
AcDbLine
 10
248.667638191
 20
-235.839068045
 30
0.0
 11
248.667638191
 21
-239.839068045
 31
0.0
  0
SPLINE
  5
DF
330
1F
100
AcDbEntity
  8
DIMENSION
100
AcDbSpline
210
0.0
220
0.0
230
1.0
 70
     8
 71
     3
 72
    20
 73
    16
 74
     0
 42
0.00000001
 43
0.0000000001
 40
0.0
 40
0.0
 40
0.0
 40
0.0
 40
0.0780656689926662
 40
0.1561311897911999
 40
0.2342018316412223
 40
0.3122719044169936
 40
0.3902825904503759
 40
0.4682924713711331
 40
0.54615454689337
 40
0.6240159256520846
 40
0.7017112194088197
 40
0.7794062960098273
 40
0.8569960001120861
 40
0.9345860904466736
 40
1.0
 40
1.0
 40
1.0
 40
1.0
 10
322.6676381909551
 20
-170.6115025157513
 30
0.0
 10
323.0981860872814
 20
-171.7328078569888
 30
0.0
 10
323.9592810626134
 20
-173.97541641086
 30
0.0
 10
325.2334622662108
 20
-177.3023189609048
 30
0.0
 10
326.4472628744217
 20
-180.4781260211283
 30
0.0
 10
327.5703318076255
 20
-183.4237442279613
 30
0.0
 10
328.5658339247889
 20
-186.0427221466929
 30
0.0
 10
329.4107175091924
 20
-188.2740896022224
 30
0.0
 10
330.0744250347425
 20
-190.0375476920784
 30
0.0
 10
330.5457884494799
 20
-191.302850672117
 30
0.0
 10
330.8032544640035
 20
-192.0128959484493
 30
0.0
 10
330.8504496292973
 20
-192.1759636151617
 30
0.0
 10
330.6710880405384
 20
-191.7484105005817
 30
0.0
 10
330.3229409206093
 20
-190.8780484140968
 30
0.0
 10
329.9408483802348
 20
-189.9042220827882
 30
0.0
 10
329.7660688852791
 20
-189.458767496855
 30
0.0
  0
LINE
  5
E0
330
1F
100
AcDbEntity
  8
DIMENSION
100
AcDbLine
 10
322.667638191
 20
-170.600600546
 30
0.0
 11
322.667638191
 21
-170.6115025158
 31
0.0
  0
ELLIPSE
  5
E1
330
1F
100
AcDbEntity
  8
DIMENSION
100
AcDbEllipse
 10
323.1362600123
 20
-172.069068045
 30
0.0
 11
-8.530974304832227
 21
22.22497715834226
 31
0.0
210
0.0
220
0.0
230
1.0
 40
0.0037350893
 41
2.475516701757944
 42
4.777076229053119
  0
SPLINE
  5
E2
330
1F
100
AcDbEntity
  8
DIMENSION
100
AcDbSpline
210
0.0
220
0.0
230
1.0
 70
     8
 71
     3
 72
    17
 73
    13
 74
     0
 42
0.00000001
 43
0.0000000001
 40
0.0
 40
0.0
 40
0.0
 40
0.0
 40
0.0500351234661242
 40
0.1597518070623498
 40
0.2706434167774492
 40
0.3829462369049629
 40
0.4946948426881307
 40
0.6047319525173013
 40
0.7145929219440291
 40
0.8260583168320586
 40
0.9384342557803035
 40
1.0
 40
1.0
 40
1.0
 40
1.0
 10
335.2319407471792
 20
-149.8544350810753
 30
0.0
 10
335.2320124085678
 20
-149.8521638008121
 30
0.0
 10
335.2322412085694
 20
-149.8449120724009
 30
0.0
 10
335.7132388772715
 20
-149.9193435537306
 30
0.0
 10
336.5996614566713
 20
-150.0369349418118
 30
0.0
 10
337.8179675659298
 20
-150.1485405020984
 30
0.0
 10
339.1944848677575
 20
-150.1950714898871
 30
0.0
 10
340.5693063545742
 20
-150.1570850531443
 30
0.0
 10
341.7980983941009
 20
-150.0526605173631
 30
0.0
 10
342.7419846378979
 20
-149.9309962941276
 30
0.0
 10
343.2585114421473
 20
-149.8519864425253
 30
0.0
 10
343.316373518127
 20
-149.8492486188673
 30
0.0
 10
343.3368534956972
 20
-149.8482795805782
 30
0.0
  0
LINE
  5
E3
330
1F
100
AcDbEntity
  8
DIMENSION
100
AcDbLine
 10
322.667638191
 20
-170.600600546
 30
0.0
 11
322.667638191
 21
-149.844068045
 31
0.0
  0
LINE
  5
E4
330
1F
100
AcDbEntity
  8
DIMENSION
100
AcDbLine
 10
349.467638191
 20
-194.294068045
 30
0.0
 11
349.467638191
 21
-149.844068045
 31
0.0
  0
LINE
  5
E5
330
1F
100
AcDbEntity
  8
DIMENSION
100
AcDbLine
 10
349.667638191
 20
-150.044068045
 30
0.0
 11
349.667638191
 21
-194.094068045
 31
0.0
  0
ARC
  5
E6
330
1F
100
AcDbEntity
  8
DIMENSION
100
AcDbCircle
 10
339.267638191
 20
-237.3171851439
 30
0.0
 40
128.0815839437646
100
AcDbArc
 50
88.21035638540001
 51
91.7896436146
  0
LINE
  5
E7
330
1F
100
AcDbEntity
  8
DIMENSION
100
AcDbLine
 10
288.3861138046
 20
16.864030781
 30
0.0
 11
262.9861138046
 21
16.864030781
 31
0.0
  0
LINE
  5
E8
330
1F
100
AcDbEntity
  8
DIMENSION
100
AcDbLine
 10
263.4861138046
 20
0.164030781
 30
0.0
 11
287.8861138046
 21
0.164030781
 31
0.0
  0
ARC
  5
E9
330
1F
100
AcDbEntity
  8
DIMENSION
100
AcDbCircle
 10
275.6821547444
 20
77.46403078100001
 30
0.0
 40
12.7
100
AcDbArc
 50
2.051174718099999
 51
89.98773558739999
  0
LINE
  5
EA
330
1F
100
AcDbEntity
  8
DIMENSION
100
AcDbLine
 10
288.3861137555
 20
17.064030781
 30
0.0
 11
262.9861138046
 21
17.064030781
 31
0.0
  0
ARC
  5
EB
330
1F
100
AcDbEntity
  8
DIMENSION
100
AcDbCircle
 10
275.6715972506
 20
77.46403078100001
 30
0.0
 40
12.70000000000003
100
AcDbArc
 50
90.0000000001
 51
179.1453549127999
  0
LINE
  5
EC
330
1F
100
AcDbEntity
  8
DIMENSION
100
AcDbLine
 10
262.9676381905
 20
-135.995969219
 30
0.0
 11
288.3676381413
 21
-135.995969219
 31
0.0
  0
SPLINE
  5
ED
330
1F
100
AcDbEntity
  8
DIMENSION
100
AcDbSpline
210
0.0
220
0.0
230
1.0
 70
     8
 71
     3
 72
    24
 73
    20
 74
     0
 42
0.00000001
 43
0.0000000001
 40
0.0
 40
0.0
 40
0.0
 40
0.0
 40
0.1250000000000002
 40
0.1250000000000002
 40
0.2500000000000005
 40
0.2500000000000005
 40
0.3125000000000006
 40
0.3125000000000006
 40
0.3750000000000006
 40
0.3750000000000006
 40
0.5000000000000006
 40
0.5000000000000006
 40
0.6250000000000005
 40
0.6250000000000005
 40
0.7500000000000004
 40
0.7500000000000004
 40
0.8750000000000003
 40
0.8750000000000003
 40
1.0
 40
1.0
 40
1.0
 40
1.0
 10
295.5426381909551
 20
-191.6690680449799
 30
0.0
 10
295.1577707549967
 20
-191.2668627638147
 30
0.0
 10
294.7363188719148
 20
-190.8296411081531
 30
0.0
 10
293.8272127581801
 20
-189.8977545415165
 30
0.0
 10
293.3395092771746
 20
-189.4029964298421
 30
0.0
 10
292.5595588581664
 20
-188.6246092413406
 30
0.0
 10
292.2914739259973
 20
-188.3590880291381
 30
0.0
 10
291.7388993645253
 20
-187.8169740589379
 30
0.0
 10
291.453584509174
 20
-187.5395935963501
 30
0.0
 10
290.5809874626779
 20
-186.7007325368837
 30
0.0
 10
289.9760765127008
 20
-186.1313246757439
 30
0.0
 10
288.7170940227518
 20
-184.9828965763446
 30
0.0
 10
288.063085966665
 20
-184.4037639490278
 30
0.0
 10
286.6980014024587
 20
-183.2493126986793
 30
0.0
 10
285.9835809840843
 20
-182.6713405573548
 30
0.0
 10
284.5075464926715
 20
-181.5589878725393
 30
0.0
 10
283.7447731398796
 20
-181.0228715301513
 30
0.0
 10
282.1495008623082
 20
-180.0252224808368
 30
0.0
 10
281.3175226903556
 20
-179.5629286472738
 30
0.0
 10
280.4310403364676
 20
-179.1690680449741
 30
0.0
  0
LINE
  5
EE
330
1F
100
AcDbEntity
  8
DIMENSION
100
AcDbLine
 10
295.267638191
 20
-191.669068045
 30
0.0
 11
256.067638191
 21
-191.669068045
 31
0.0
  0
SPLINE
  5
EF
330
1F
100
AcDbEntity
  8
DIMENSION
100
AcDbSpline
210
0.0
220
0.0
230
1.0
 70
     8
 71
     3
 72
    24
 73
    20
 74
     0
 42
0.00000001
 43
0.0000000001
 40
0.0
 40
0.0
 40
0.0
 40
0.0
 40
0.1250000000000001
 40
0.1250000000000001
 40
0.2500000000000001
 40
0.2500000000000001
 40
0.3125000000000002
 40
0.3125000000000002
 40
0.3750000000000004
 40
0.3750000000000004
 40
0.5000000000000002
 40
0.5000000000000002
 40
0.6250000000000002
 40
0.6250000000000002
 40
0.7500000000000001
 40
0.7500000000000001
 40
0.8750000000000001
 40
0.8750000000000001
 40
1.0
 40
1.0
 40
1.0
 40
1.0
 10
270.9042360454293
 20
-179.16906804498
 30
0.0
 10
270.0167027331692
 20
-179.5633955839271
 30
0.0
 10
269.1852840372557
 20
-180.0255742975524
 30
0.0
 10
267.5927596917006
 20
-181.0214159899857
 30
0.0
 10
266.8322137516362
 20
-181.5558709060527
 30
0.0
 10
265.7293655534084
 20
-182.3865958559897
 30
0.0
 10
265.3681901779432
 20
-182.6685032823076
 30
0.0
 10
264.657149571462
 20
-183.2394443173069
 30
0.0
 10
264.3065988894983
 20
-183.5290891905792
 30
0.0
 10
263.2792281680869
 20
-184.3975693458119
 30
0.0
 10
262.6241511854825
 20
-184.9775645036166
 30
0.0
 10
261.3650802971385
 20
-186.125849061526
 30
0.0
 10
260.7611570286225
 20
-186.6942537213937
 30
0.0
 10
259.6013817455573
 20
-187.808944572286
 30
0.0
 10
259.0433854473116
 20
-188.3575344418972
 30
0.0
 10
257.9988211787988
 20
-189.3998924106848
 30
0.0
 10
257.5096282918736
 20
-189.8961563065959
 30
0.0
 10
256.5988476925747
 20
-190.8297480455898
 30
0.0
 10
256.1772155200935
 20
-191.2671659396209
 30
0.0
 10
255.7926381909551
 20
-191.6690680449799
 30
0.0
  0
LINE
  5
F0
330
1F
100
AcDbEntity
  8
DIMENSION
100
AcDbLine
 10
280.4310403365
 20
-179.169068045
 30
0.0
 11
270.9042360454
 21
-179.169068045
 31
0.0
  0
SPLINE
  5
F1
330
1F
100
AcDbEntity
  8
DIMENSION
100
AcDbSpline
210
0.0
220
0.0
230
1.0
 70
     8
 71
     3
 72
    26
 73
    22
 74
     0
 42
0.00000001
 43
0.0000000001
 40
0.0
 40
0.0
 40
0.0
 40
0.0
 40
0.0475666006456492
 40
0.096631843548183
 40
0.1441711105581646
 40
0.1929240584067497
 40
0.2439123295877051
 40
0.2961134371677445
 40
0.3522226118156729
 40
0.4101584359658956
 40
0.4541664592854004
 40
0.4994173506242137
 40
0.5434464729457873
 40
0.5887710740592035
 40
0.6777601005391292
 40
0.7287888518385617
 40
0.781019528785656
 40
0.8373094536219237
 40
0.8954663755657939
 40
0.9476693306696283
 40
1.0
 40
1.0
 40
1.0
 40
1.0
 10
262.9676381909551
 20
-149.5690680449799
 30
0.0
 10
262.9963990303323
 20
-149.5853654952903
 30
0.0
 10
263.0548268534958
 20
-149.6184738664427
 30
0.0
 10
263.521054217069
 20
-149.878606445826
 30
0.0
 10
264.2469528985125
 20
-150.2694840956105
 30
0.0
 10
265.2410649503749
 20
-150.7769283374309
 30
0.0
 10
266.5047744336506
 20
-151.3713240203935
 30
0.0
 10
268.0609324495932
 20
-152.018886961248
 30
0.0
 10
269.9107400951972
 20
-152.6558560673509
 30
0.0
 10
271.8670377202542
 20
-153.144446700575
 30
0.0
 10
273.8082348285534
 20
-153.4318369122615
 30
0.0
 10
275.6218126491002
 20
-153.5261310098806
 30
0.0
 10
277.4541519047519
 20
-153.4391325355163
 30
0.0
 10
279.8105416839157
 20
-153.10008769174
 30
0.0
 10
282.0696633276056
 20
-152.4640253256621
 30
0.0
 10
284.077470186208
 20
-151.6961532812288
 30
0.0
 10
285.5282405678473
 20
-151.0521667815129
 30
0.0
 10
286.7768779675416
 20
-150.434072037732
 30
0.0
 10
287.6922059734384
 20
-149.9460890864158
 30
0.0
 10
288.2648311049692
 20
-149.627387627998
 30
0.0
 10
288.3292073697296
 20
-149.5908462085558
 30
0.0
 10
288.3614348280438
 20
-149.5725531765478
 30
0.0
  0
LINE
  5
F2
330
1F
100
AcDbEntity
  8
DIMENSION
100
AcDbLine
 10
288.3676381909999
 20
-135.995969219
 30
0.0
 11
262.967638191
 21
-135.995969219
 31
0.0
  0
LINE
  5
F3
330
1F
100
AcDbEntity
  8
0
  6
Continuous
 62
     7
370
    25
100
AcDbLine
 10
229.667638191
 20
-172.069068045
 30
0.0
 11
229.667638191
 21
-194.294068045
 31
0.0
  0
LINE
  5
F4
330
1F
100
AcDbEntity
  8
0
  6
Continuous
 62
     7
370
    25
100
AcDbLine
 10
229.667638191
 20
-149.844068045
 30
0.0
 11
229.667638191
 21
-172.069068045
 31
0.0
  0
LINE
  5
F5
330
1F
100
AcDbEntity
  8
DIMENSION
100
AcDbLine
 10
320.067638191
 20
-172.069068045
 30
0.0
 11
320.067638191
 21
-194.294068045
 31
0.0
  0
LINE
  5
F6
330
1F
100
AcDbEntity
  8
DIMENSION
100
AcDbLine
 10
320.067638191
 20
-149.844068045
 30
0.0
 11
320.067638191
 21
-172.069068045
 31
0.0
  0
LINE
  5
F7
330
1F
100
AcDbEntity
  8
DIMENSION
100
AcDbLine
 10
248.667638191
 20
-239.839068045
 30
0.0
 11
302.667638191
 21
-239.839068045
 31
0.0
  0
LINE
  5
F8
330
1F
100
AcDbEntity
  8
DIMENSION
100
AcDbLine
 10
248.667638191
 20
-235.839068045
 30
0.0
 11
302.667638191
 21
-235.839068045
 31
0.0
  0
DIMENSION
  5
F9
102
{ACAD_XDICTIONARY
360
299
102
}
330
1F
100
AcDbEntity
  8
DIMENSION
100
AcDbDimension
280
     0
  2
*D18
 10
201.6676381910001
 20
-239.8390680450001
 30
0.0
 11
201.667638191
 21
-190.9083653576
 31
0.0
 70
   160
  1
<>
 71
     2
 42
89.99500000000002
 73
     0
 74
     0
 75
     0
  3
RG Dimension Lines
100
AcDbAlignedDimension
 13
229.667638191
 23
-149.844068045
 33
0.0
 14
248.667638191
 24
-239.839068045
 34
0.0
 50
90.0
100
AcDbRotatedDimension
1001
AcadAnnotative
1000
AnnotativeData
1002
{
1070
     1
1070
     1
1002
}
  0
DIMENSION
  5
101
102
{ACAD_XDICTIONARY
360
28B
102
}
330
1F
100
AcDbEntity
  8
DIMENSION
100
AcDbDimension
280
     0
  2
*D17
 10
383.6676381910001
 20
-194.2940680450001
 30
0.0
 11
383.667638191
 21
-151.8004060995
 31
0.0
 70
   160
  1
<>
 71
     2
 42
84.99599141830003
 73
     0
 74
     0
 75
     0
  3
RG Dimension Lines
100
AcDbAlignedDimension
 13
339.267638191
 23
-109.2980766267
 33
0.0
 14
349.467638191
 24
-194.294068045
 34
0.0
 50
90.0
100
AcDbRotatedDimension
1001
AcadAnnotative
1000
AnnotativeData
1002
{
1070
     1
1070
     1
1002
}
  0
DIMENSION
  5
109
102
{ACAD_XDICTIONARY
360
27D
102
}
330
1F
100
AcDbEntity
  8
DIMENSION
100
AcDbDimension
280
     0
  2
*D16
 10
302.667638191
 20
-279.839068045
 30
0.0
 11
274.7529842457
 21
-279.839068045
 31
0.0
 70
   160
  1
%%c<>
 71
     2
 42
54.0
 73
     0
 74
     0
 75
     0
  3
RG Dimension Lines
100
AcDbAlignedDimension
 13
248.667638191
 23
-239.839068045
 33
0.0
 14
302.667638191
 24
-239.839068045
 34
0.0
100
AcDbRotatedDimension
1001
AcadAnnotative
1000
AnnotativeData
1002
{
1070
     1
1070
     1
1002
}
  0
DIMENSION
  5
112
102
{ACAD_XDICTIONARY
360
26F
102
}
330
1F
100
AcDbEntity
  8
DIMENSION
100
AcDbDimension
280
     0
  2
*D15
 10
262.9861138046
 20
118.164030781
 30
0.0
 11
275.6861138046
 21
118.164030781
 31
0.0
 70
   160
  1
%%c<>
 71
     2
 42
25.39999999999998
 73
     0
 74
     0
 75
     0
  3
RG Dimension Lines
100
AcDbAlignedDimension
 13
288.3861138046
 23
32.464030781
 33
0.0
 14
262.9861138046
 24
32.464030781
 34
0.0
100
AcDbRotatedDimension
1001
AcadAnnotative
1000
AnnotativeData
1002
{
1070
     1
1070
     1
1002
}
  0
LINE
  5
11B
330
1F
100
AcDbEntity
  8
DIMENSION
100
AcDbLine
 10
-157.5779139928
 20
293.5494472362
 30
0.0
 11
-157.5779139928
 21
267.1228260229
 31
0.0
  0
LINE
  5
11C
330
1F
100
AcDbEntity
  8
0
  6
Continuous
 62
     7
370
    25
100
AcDbLine
 10
-113.1279139928
 20
267.3133120921
 30
0.0
 11
-113.1279139928
 21
293.5494472362
 31
0.0
  0
LINE
  5
11D
330
1F
100
AcDbEntity
  8
0
  6
Continuous
 62
     7
370
    25
100
AcDbLine
 10
-113.1279139928
 20
293.5494472362
 30
0.0
 11
-113.3279139928
 21
293.7494472362
 31
0.0
  0
LINE
  5
11E
330
1F
100
AcDbEntity
  8
DIMENSION
100
AcDbLine
 10
-157.3779139928
 20
293.7494472362
 30
0.0
 11
-157.5779139928
 21
293.5494472362
 31
0.0
  0
LINE
  5
11F
330
1F
100
AcDbEntity
  8
DIMENSION
100
AcDbLine
 10
-135.5898667297
 20
287.3494472362
 30
0.0
 11
-136.0537236594
 21
287.3494472362
 31
0.0
  0
LINE
  5
120
330
1F
100
AcDbEntity
  8
DIMENSION
100
AcDbLine
 10
-136.0537236594
 20
279.3494472362
 30
0.0
 11
-135.5898667297
 21
279.3494472362
 31
0.0
  0
LINE
  5
121
330
1F
100
AcDbEntity
  8
0
  6
Continuous
 62
     7
370
    25
100
AcDbLine
 10
29.5809680333
 20
232.4639637405
 30
0.0
 11
-90.4190315023
 21
232.4534062467
 31
0.0
  0
LINE
  5
122
330
1F
100
AcDbEntity
  8
0
  6
Continuous
 62
     7
370
    25
100
AcDbLine
 10
-90.4167968327
 20
207.053406345
 30
0.0
 11
29.5832027028
 21
207.0639638388
 31
0.0
  0
LINE
  5
123
330
1F
100
AcDbEntity
  8
0
  6
Continuous
 62
     7
370
    25
100
AcDbLine
 10
29.5832027028
 20
207.0639638388
 30
0.0
 11
74.5832025287
 21
207.067922899
 31
0.0
  0
LINE
  5
124
330
1F
100
AcDbEntity
  8
0
  6
Continuous
 62
     7
370
    25
100
AcDbLine
 10
74.5809678592
 20
232.4679228007
 30
0.0
 11
29.5809680333
 21
232.4639637405
 31
0.0
  0
LINE
  5
125
330
1F
100
AcDbEntity
  8
0
  6
Continuous
 62
     7
370
    25
100
AcDbLine
 10
-135.4167966586
 20
207.0494472848
 30
0.0
 11
-90.4167968327
 21
207.053406345
 31
0.0
  0
LINE
  5
126
330
1F
100
AcDbEntity
  8
DIMENSION
100
AcDbLine
 10
-90.4190315023
 20
232.4534062467
 30
0.0
 11
-135.4190313281
 21
232.4494471865
 31
0.0
  0
ARC
  5
127
330
1F
100
AcDbEntity
  8
DIMENSION
100
AcDbCircle
 10
-135.4179139928
 20
219.7494472362
 30
0.0
 40
22.27324197751898
100
AcDbArc
 50
176.2283022574
 51
183.7716977426
  0
LINE
  5
128
330
1F
100
AcDbEntity
  8
0
  6
Continuous
 62
     7
370
    25
100
AcDbLine
 10
-113.1929139928
 20
173.7494472362
 30
0.0
 11
-113.1929139928
 21
207.0514025224
 31
0.0
  0
LINE
  5
129
330
1F
100
AcDbEntity
  8
0
  6
Continuous
 62
     7
370
    25
100
AcDbLine
 10
-113.1929139928
 20
232.4514026207
 30
0.0
 11
-113.1929139928
 21
264.1494472362
 31
0.0
  0
LINE
  5
12A
330
1F
100
AcDbEntity
  8
DIMENSION
100
AcDbLine
 10
-157.6429139928
 20
264.1494472362
 30
0.0
 11
-157.6429139928
 21
173.7494472362
 31
0.0
  0
LWPOLYLINE
  5
12B
330
1F
100
AcDbEntity
  8
DIMENSION
100
AcDbPolyline
 90
        3
 70
   128
 43
0.0
 10
-114.9179139928
 20
264.1494472362
 10
-115.0445585561
 20
265.7014908113
 10
-115.1995615967
 20
266.7494472362
  0
LWPOLYLINE
  5
12C
330
1F
100
AcDbEntity
  8
DIMENSION
100
AcDbPolyline
 90
        3
 70
   128
 43
0.0
 10
-155.6362663889
 20
266.7494472362
 10
-155.7912694294
 20
265.7014908113
 10
-155.9179139928
 20
264.1494472362
  0
SPLINE
  5
12D
330
1F
100
AcDbEntity
  8
DIMENSION
100
AcDbSpline
210
0.0
220
0.0
230
1.0
 70
     8
 71
     3
 72
     9
 73
     5
 74
     0
 42
0.00000001
 43
0.0000000001
 40
0.0
 40
0.0
 40
0.0
 40
0.0
 40
0.902446273914521
 40
1.0
 40
1.0
 40
1.0
 40
1.0
 10
-135.6010305807004
 20
287.4494472361811
 30
0.0
 10
-136.0717787495962
 20
287.4379762868561
 30
0.0
 10
-136.5934144219934
 20
287.4252653370117
 30
0.0
 10
-137.0308507665752
 20
287.1765506749173
 30
0.0
 10
-137.0735243119144
 20
287.1522876328979
 30
0.0
  0
ARC
  5
12E
330
1F
100
AcDbEntity
  8
DIMENSION
100
AcDbCircle
 10
-135.5722154796
 20
283.3675690465
 30
0.0
 40
4.081979895280309
100
AcDbArc
 50
258.2503890466
 51
90.40445995190001
  0
LINE
  5
12F
330
1F
100
AcDbEntity
  8
DIMENSION
100
AcDbLine
 10
-113.1764799195
 20
266.7494472362
 30
0.0
 11
-157.5566057599
 21
266.7494472362
 31
0.0
  0
ELLIPSE
  5
130
330
1F
100
AcDbEntity
  8
0
  6
Continuous
 62
     7
370
    25
100
AcDbEllipse
 10
-135.3529139928
 20
267.2180690575
 30
0.0
 11
22.22495864637587
 21
0.111699560256568
 31
0.0
210
0.0
220
0.0
230
0.9999999999999998
 40
0.3838318466
 41
6.215135276204129
 42
6.281256223936927
  0
ELLIPSE
  5
131
330
1F
100
AcDbEntity
  8
DIMENSION
100
AcDbEllipse
 10
-135.3529139928
 20
267.2180690575
 30
0.0
 11
22.22495864637587
 21
0.111699560256568
 31
0.0
210
0.0
220
0.0
230
0.9999999999999998
 40
0.3838318466
 41
3.139663570347098
 42
3.183456352312231
  0
LINE
  5
132
330
1F
100
AcDbEntity
  8
DIMENSION
100
AcDbLine
 10
-135.6010305807
 20
293.5494472362
 30
0.0
 11
-157.5779139928
 21
293.5494472362
 31
0.0
  0
LINE
  5
133
330
1F
100
AcDbEntity
  8
DIMENSION
100
AcDbLine
 10
-113.1279139928
 20
293.5494472362
 30
0.0
 11
-135.6010305807
 21
293.5494472362
 31
0.0
  0
LINE
  5
134
330
1F
100
AcDbEntity
  8
DIMENSION
100
AcDbLine
 10
-135.5987978105
 20
293.7494472362
 30
0.0
 11
-113.3279139928
 21
293.7494472362
 31
0.0
  0
LINE
  5
135
330
1F
100
AcDbEntity
  8
DIMENSION
100
AcDbLine
 10
-157.3779139928
 20
293.7494472362
 30
0.0
 11
-135.5987978105
 21
293.7494472362
 31
0.0
  0
LWPOLYLINE
  5
136
330
1F
100
AcDbEntity
  8
DIMENSION
100
AcDbPolyline
 90
        3
 70
   128
 43
0.0
 10
-136.6948004103
 20
279.4011603441
 10
-136.4239843997
 20
279.3352024767
 10
-135.5898667297
 20
279.2494472362
  0
LWPOLYLINE
  5
137
330
1F
100
AcDbEntity
  8
DIMENSION
100
AcDbPolyline
 90
        3
 70
   128
 43
0.0
 10
-135.5898667297
 20
287.4494472362
 10
-136.4239843997
 20
287.3636919957
 10
-136.6948004072
 20
287.2977341292
  0
ARC
  5
138
330
1F
100
AcDbEntity
  8
DIMENSION
100
AcDbCircle
 10
-135.5900441392
 20
283.3494472362
 30
0.0
 40
4.000000003934319
100
AcDbArc
 50
270.0025412029
 51
89.99745879709999
  0
CIRCLE
  5
139
330
1F
100
AcDbEntity
  8
DIMENSION
100
AcDbCircle
 10
-136.0535500864
 20
283.3494038414
 30
0.0
 40
3.999924302368076
  0
ARC
  5
13A
330
1F
100
AcDbEntity
  8
0
  6
Continuous
 62
     7
370
    25
100
AcDbCircle
 10
74.5820851939
 20
219.7679228498
 30
0.0
 40
12.70000000000002
100
AcDbArc
 50
270.005040832
 51
90.005040832
  0
ARC
  5
13B
330
1F
100
AcDbEntity
  8
DIMENSION
100
AcDbCircle
 10
-135.4179139933
 20
219.7494472357
 30
0.0
 40
12.7
100
AcDbArc
 50
90.005040832
 51
270.005040832
  0
LINE
  5
13C
330
1F
100
AcDbEntity
  8
0
  6
Continuous
 62
     7
370
    25
100
AcDbLine
 10
-157.6429139928
 20
173.7494472362
 30
0.0
 11
-113.1929139928
 21
173.7494472362
 31
0.0
  0
LINE
  5
13D
330
1F
100
AcDbEntity
  8
DIMENSION
100
AcDbLine
 10
-157.6429139928
 20
264.1494472362
 30
0.0
 11
-113.1929139928
 21
264.1494472362
 31
0.0
  0
ARC
  5
13E
330
1F
100
AcDbEntity
  8
DIMENSION
100
AcDbCircle
 10
-135.4179139928
 20
219.7494472362
 30
0.0
 40
26.99999999999998
100
AcDbArc
 50
145.4011885881
 51
214.5988114119
  0
LWPOLYLINE
  5
13F
330
1F
100
AcDbEntity
  8
0
  6
Continuous
 62
     7
370
    25
100
AcDbPolyline
 90
        3
 70
   128
 43
0.0
 10
-113.1929139928
 20
204.4181271691
 10
-111.7213661121
 20
206.8082873755
 10
-111.5901310165
 20
207.0515435338
  0
LWPOLYLINE
  5
140
330
1F
100
AcDbEntity
  8
0
  6
Continuous
 62
     7
370
    25
100
AcDbPolyline
 90
        3
 70
   128
 43
0.0
 10
-111.5923656855
 20
232.4515434355
 10
-112.3622668586
 20
233.8006797525
 10
-113.1929139928
 20
235.0807673033
  0
DIMENSION
  5
141
102
{ACAD_XDICTIONARY
360
2DF
102
}
330
1F
100
AcDbEntity
  8
DIMENSION
100
AcDbDimension
280
     0
  2
*D23
 10
-208.4179139928001
 20
293.7494472362001
 30
0.0
 11
-208.4179139928
 21
228.1276191763
 31
0.0
 70
   160
  1
<>
 71
     2
 42
120.0000000000001
 73
     0
 74
     0
 75
     0
  3
RG Dimension Lines
100
AcDbAlignedDimension
 13
-157.6429139928
 23
173.7494472362
 33
0.0
 14
-157.3779139928
 24
293.7494472362
 34
0.0
 50
90.0
100
AcDbRotatedDimension
1001
AcadAnnotative
1000
AnnotativeData
1002
{
1070
     1
1070
     1
1002
}
  0
DIMENSION
  5
149
102
{ACAD_XDICTIONARY
360
2D1
102
}
330
1F
100
AcDbEntity
  8
DIMENSION
100
AcDbDimension
280
     0
  2
*D22
 10
-113.1279139928
 20
315.7494472362
 30
0.0
 11
-137.3423198154
 21
315.7494472362
 31
0.0
 70
   160
  1
%%c<>
 71
     2
 42
44.45
 73
     0
 74
     0
 75
     0
  3
RG Dimension Lines
100
AcDbAlignedDimension
 13
-157.5779139928
 23
293.5494472362
 33
0.0
 14
-113.1279139928
 24
293.5494472362
 34
0.0
100
AcDbRotatedDimension
1001
AcadAnnotative
1000
AnnotativeData
1002
{
1070
     1
1070
     1
1002
}
1001
ACAD
1000
DSTYLE
1002
{
1070
    45
1040
5.0
1002
}
  0
DIMENSION
  5
2E3
102
{ACAD_XDICTIONARY
360
2FB
102
}
330
1F
100
AcDbEntity
  8
DIMENSION
100
AcDbDimension
280
     0
  2
*D25
 10
-183.6113273209949
 20
219.6316444172331
 30
0.0
 11
-194.3879270540156
 21
256.605523430747
 31
0.0
 70
    33
 71
     5
 42
74.00022107419227
 73
     0
 74
     0
 75
     0
  3
RG Dimension Lines
100
AcDbAlignedDimension
 13
-135.5987978105
 23
293.7494472362
 33
0.0
 14
-135.4179139933
 24
219.7494472357
 34
0.0
1001
AcadAnnotative
1000
AnnotativeData
1002
{
1070
     1
1070
     1
1002
}
  0
ENDSEC
  0
SECTION
  2
OBJECTS
  0
DICTIONARY
  5
C
330
0
100
AcDbDictionary
281
     1
  3
ACAD_CIP_PREVIOUS_PRODUCT_INFO
350
192
  3
ACAD_COLOR
350
187
  3
ACAD_DETAILVIEWSTYLE
350
18E
  3
ACAD_GROUP
350
D
  3
ACAD_LAYOUT
350
1A
  3
ACAD_MATERIAL
350
155
  3
ACAD_MLEADERSTYLE
350
18A
  3
ACAD_MLINESTYLE
350
17
  3
ACAD_PLOTSETTINGS
350
19
  3
ACAD_PLOTSTYLENAME
350
E
  3
ACAD_SCALELIST
350
47
  3
ACAD_SECTIONVIEWSTYLE
350
18C
  3
ACAD_TABLESTYLE
350
188
  3
ACAD_VISUALSTYLE
350
16E
  3
ACDB_RECOMPOSE_DATA
350
30E
  3
AcDbVariableDictionary
350
194
  0
DICTIONARY
  5
24A
330
2
100
AcDbDictionary
280
     1
281
     1
  3
ACAD_LAYERSTATES
360
24B
  0
DICTIONARY
  5
306
330
10
100
AcDbDictionary
280
     1
281
     1
  3
ADSK_XREC_LAYER_RECONCILED
360
307
  0
DICTIONARY
  5
308
330
73
100
AcDbDictionary
280
     1
281
     1
  3
ADSK_XREC_LAYER_RECONCILED
360
309
  0
DICTIONARY
  5
30A
330
243
100
AcDbDictionary
280
     1
281
     1
  3
ADSK_XREC_LAYER_RECONCILED
360
30B
  0
DICTIONARY
  5
2C3
330
A2
100
AcDbDictionary
280
     1
281
     1
  3
AcDbContextDataManager
360
2C4
  0
DICTIONARY
  5
2B5
330
AF
100
AcDbDictionary
280
     1
281
     1
  3
AcDbContextDataManager
360
2B6
  0
DICTIONARY
  5
2A7
330
B7
100
AcDbDictionary
280
     1
281
     1
  3
AcDbContextDataManager
360
2A8
  0
DICTIONARY
  5
299
330
F9
100
AcDbDictionary
280
     1
281
     1
  3
AcDbContextDataManager
360
29A
  0
DICTIONARY
  5
28B
330
101
100
AcDbDictionary
280
     1
281
     1
  3
AcDbContextDataManager
360
28C
  0
DICTIONARY
  5
27D
330
109
100
AcDbDictionary
280
     1
281
     1
  3
AcDbContextDataManager
360
27E
  0
DICTIONARY
  5
26F
330
112
100
AcDbDictionary
280
     1
281
     1
  3
AcDbContextDataManager
360
270
  0
DICTIONARY
  5
2DF
330
141
100
AcDbDictionary
280
     1
281
     1
  3
AcDbContextDataManager
360
2E0
  0
DICTIONARY
  5
2D1
330
149
100
AcDbDictionary
280
     1
281
     1
  3
AcDbContextDataManager
360
2D2
  0
DICTIONARY
  5
2FB
330
2E3
100
AcDbDictionary
280
     1
281
     1
  3
AcDbContextDataManager
360
2FC
  0
XRECORD
  5
192
102
{ACAD_REACTORS
330
C
102
}
330
C
100
AcDbXrecord
280
     1
300
ACD
300
2021
300

  0
DICTIONARY
  5
187
102
{ACAD_REACTORS
330
C
102
}
330
C
100
AcDbDictionary
281
     1
  0
DICTIONARY
  5
18E
102
{ACAD_REACTORS
330
C
102
}
330
C
100
AcDbDictionary
281
     1
  3
Metric50
350
18F
  0
DICTIONARY
  5
D
102
{ACAD_REACTORS
330
C
102
}
330
C
100
AcDbDictionary
281
     1
  0
DICTIONARY
  5
1A
102
{ACAD_REACTORS
330
C
102
}
330
C
100
AcDbDictionary
281
     1
  3
Layout1
350
1E
  3
Layout2
350
26
  3
Model
350
22
  0
DICTIONARY
  5
155
102
{ACAD_REACTORS
330
C
102
}
330
C
100
AcDbDictionary
281
     1
  3
ByBlock
350
15E
  3
ByLayer
350
156
  3
Global
350
166
  0
DICTIONARY
  5
18A
102
{ACAD_REACTORS
330
C
102
}
330
C
100
AcDbDictionary
281
     1
  3
Standard
350
18B
  0
DICTIONARY
  5
17
102
{ACAD_REACTORS
330
C
102
}
330
C
100
AcDbDictionary
281
     1
  3
Standard
350
18
  0
DICTIONARY
  5
19
102
{ACAD_REACTORS
330
C
102
}
330
C
100
AcDbDictionary
281
     1
  0
ACDBDICTIONARYWDFLT
  5
E
102
{ACAD_REACTORS
330
C
102
}
330
C
100
AcDbDictionary
281
     1
  3
Normal
350
F
100
AcDbDictionaryWithDefault
340
F
  0
DICTIONARY
  5
47
102
{ACAD_REACTORS
330
C
102
}
330
C
100
AcDbDictionary
281
     1
  3
A0
350
48
  3
A1
350
49
  3
A2
350
4A
  3
A3
350
4B
  3
A4
350
4C
  3
A5
350
4D
  3
A6
350
4E
  3
A7
350
4F
  3
A8
350
50
  3
A9
350
51
  3
B0
350
52
  3
B1
350
53
  3
B2
350
54
  3
B3
350
55
  3
B4
350
56
  3
B5
350
57
  3
B6
350
58
  3
B7
350
59
  3
B8
350
5A
  3
B9
350
5B
  3
C0
350
5C
  3
C1
350
5D
  3
C2
350
5E
  3
C3
350
5F
  3
C4
350
60
  3
C5
350
61
  3
C6
350
62
  3
C7
350
63
  3
C8
350
64
  3
C9
350
65
  3
D0
350
66
  3
D1
350
67
  3
D2
350
68
  0
DICTIONARY
  5
18C
102
{ACAD_REACTORS
330
C
102
}
330
C
100
AcDbDictionary
281
     1
  3
Metric50
350
18D
  0
DICTIONARY
  5
188
102
{ACAD_REACTORS
330
C
102
}
330
C
100
AcDbDictionary
281
     1
  3
Standard
350
189
  0
DICTIONARY
  5
16E
102
{ACAD_REACTORS
330
C
102
}
330
C
100
AcDbDictionary
281
     1
  3
2dWireframe
350
174
  3
Basic
350
173
  3
Brighten
350
17A
  3
ColorChange
350
17E
  3
Conceptual
350
177
  3
Dim
350
179
  3
EdgeColorOff
350
186
  3
Facepattern
350
17D
  3
Flat
350
16F
  3
FlatWithEdges
350
170
  3
Gouraud
350
171
  3
GouraudWithEdges
350
172
  3
Hidden
350
176
  3
JitterOff
350
184
  3
Linepattern
350
17C
  3
OverhangOff
350
185
  3
Realistic
350
178
  3
Shaded
350
183
  3
Shaded with edges
350
182
  3
Shades of Gray
350
17F
  3
Sketchy
350
180
  3
Thicken
350
17B
  3
Wireframe
350
175
  3
X-Ray
350
181
  0
XRECORD
  5
30E
102
{ACAD_REACTORS
330
C
102
}
330
C
100
AcDbXrecord
280
     1
 90
        1
330
189
  0
DICTIONARY
  5
194
102
{ACAD_REACTORS
330
C
102
}
330
C
100
AcDbDictionary
281
     1
  3
CANNOSCALE
350
19A
  3
CMLEADERSTYLE
350
196
  3
CTABLESTYLE
350
195
  3
CVIEWDETAILSTYLE
350
197
  3
CVIEWSECTIONSTYLE
350
198
  3
LAYEREVAL
350
19C
  3
LAYERNOTIFY
350
19D
  3
LIGHTINGUNITS
350
19B
  3
MSLTSCALE
350
199
  0
DICTIONARY
  5
24B
102
{ACAD_REACTORS
330
24A
102
}
330
24A
100
AcDbDictionary
281
     1
  0
XRECORD
  5
307
102
{ACAD_REACTORS
330
306
102
}
330
306
100
AcDbXrecord
280
     1
290
     1
  0
XRECORD
  5
309
102
{ACAD_REACTORS
330
308
102
}
330
308
100
AcDbXrecord
280
     1
290
     1
  0
XRECORD
  5
30B
102
{ACAD_REACTORS
330
30A
102
}
330
30A
100
AcDbXrecord
280
     1
290
     1
  0
DICTIONARY
  5
2C4
102
{ACAD_REACTORS
330
2C3
102
}
330
2C3
100
AcDbDictionary
281
     1
  3
ACDB_ANNOTATIONSCALES
350
2C5
  0
DICTIONARY
  5
2B6
102
{ACAD_REACTORS
330
2B5
102
}
330
2B5
100
AcDbDictionary
281
     1
  3
ACDB_ANNOTATIONSCALES
350
2B7
  0
DICTIONARY
  5
2A8
102
{ACAD_REACTORS
330
2A7
102
}
330
2A7
100
AcDbDictionary
281
     1
  3
ACDB_ANNOTATIONSCALES
350
2A9
  0
DICTIONARY
  5
29A
102
{ACAD_REACTORS
330
299
102
}
330
299
100
AcDbDictionary
281
     1
  3
ACDB_ANNOTATIONSCALES
350
29B
  0
DICTIONARY
  5
28C
102
{ACAD_REACTORS
330
28B
102
}
330
28B
100
AcDbDictionary
281
     1
  3
ACDB_ANNOTATIONSCALES
350
28D
  0
DICTIONARY
  5
27E
102
{ACAD_REACTORS
330
27D
102
}
330
27D
100
AcDbDictionary
281
     1
  3
ACDB_ANNOTATIONSCALES
350
27F
  0
DICTIONARY
  5
270
102
{ACAD_REACTORS
330
26F
102
}
330
26F
100
AcDbDictionary
281
     1
  3
ACDB_ANNOTATIONSCALES
350
271
  0
DICTIONARY
  5
2E0
102
{ACAD_REACTORS
330
2DF
102
}
330
2DF
100
AcDbDictionary
281
     1
  3
ACDB_ANNOTATIONSCALES
350
2E1
  0
DICTIONARY
  5
2D2
102
{ACAD_REACTORS
330
2D1
102
}
330
2D1
100
AcDbDictionary
281
     1
  3
ACDB_ANNOTATIONSCALES
350
2D3
  0
DICTIONARY
  5
2FC
102
{ACAD_REACTORS
330
2FB
102
}
330
2FB
100
AcDbDictionary
281
     1
  3
ACDB_ANNOTATIONSCALES
350
2FD
  0
ACDBDETAILVIEWSTYLE
  5
18F
102
{ACAD_REACTORS
330
18E
102
}
330
18E
100
AcDbModelDocViewStyle
 70
     0
  3
Metric50
290
     0
300
Metric50
 90
        0
100
AcDbDetailViewStyle
 70
     0
 71
     0
 90
        3
 71
     1
340
11
 62
   256
 40
5.0
340
0
 62
   256
 40
5.0
300

 40
0.0
280
     1
 71
     2
340
16
 90
       25
 62
   256
 71
     3
340
11
 62
   256
 40
5.0
 90
        0
 40
15.0
 90
        1
300
%<\AcVar ViewDetailId>% (%<\AcVar ViewScale \f "%sn">%)
 71
     4
340
16
 90
       25
 62
   256
340
16
 90
       25
 62
   256
280
     0
  0
LAYOUT
  5
1E
102
{ACAD_REACTORS
330
1A
102
}
330
1A
100
AcDbPlotSettings
  1

  2
none_device
  4

  6

 40
0.0
 41
0.0
 42
0.0
 43
0.0
 44
0.0
 45
0.0
 46
0.0
 47
0.0
 48
0.0
 49
0.0
140
0.0
141
0.0
142
1.0
143
1.0
 70
   688
 72
     1
 73
     0
 74
     5
  7

 75
    16
147
1.0
 76
     0
 77
     2
 78
   300
148
0.0
149
0.0
100
AcDbLayout
  1
Layout1
 70
     1
 71
     1
 10
0.0
 20
0.0
 11
420.0
 21
297.0
 12
0.0
 22
0.0
 32
0.0
 14
1.000000000000000E+20
 24
1.000000000000000E+20
 34
1.000000000000000E+20
 15
-1.000000000000000E+20
 25
-1.000000000000000E+20
 35
-1.000000000000000E+20
146
0.0
 13
0.0
 23
0.0
 33
0.0
 16
1.0
 26
0.0
 36
0.0
 17
0.0
 27
1.0
 37
0.0
 76
     0
330
1B
  0
LAYOUT
  5
26
102
{ACAD_REACTORS
330
1A
102
}
330
1A
100
AcDbPlotSettings
  1

  2
none_device
  4

  6

 40
0.0
 41
0.0
 42
0.0
 43
0.0
 44
0.0
 45
0.0
 46
0.0
 47
0.0
 48
0.0
 49
0.0
140
0.0
141
0.0
142
1.0
143
1.0
 70
   688
 72
     1
 73
     0
 74
     5
  7

 75
    16
147
1.0
 76
     0
 77
     2
 78
   300
148
0.0
149
0.0
100
AcDbLayout
  1
Layout2
 70
     1
 71
     2
 10
0.0
 20
0.0
 11
0.0
 21
0.0
 12
0.0
 22
0.0
 32
0.0
 14
0.0
 24
0.0
 34
0.0
 15
0.0
 25
0.0
 35
0.0
146
0.0
 13
0.0
 23
0.0
 33
0.0
 16
1.0
 26
0.0
 36
0.0
 17
0.0
 27
1.0
 37
0.0
 76
     0
330
23
  0
LAYOUT
  5
22
102
{ACAD_REACTORS
330
1A
102
}
330
1A
100
AcDbPlotSettings
  1

  2
none_device
  4
Letter_(8.50_x_11.00_Inches)
  6

 40
6.349999999999999
 41
6.349999999999999
 42
6.350005079999999
 43
6.350005079999999
 44
215.9
 45
279.4
 46
0.0
 47
0.0
 48
0.0
 49
0.0
140
0.0
141
0.0
142
1.0
143
1.0
 70
  1712
 72
     1
 73
     0
 74
     0
  7

 75
     0
147
1.0
 76
     0
 77
     2
 78
   300
148
0.0
149
0.0
100
AcDbLayout
  1
Model
 70
     1
 71
     0
 10
0.0
 20
0.0
 11
420.0
 21
297.0
 12
0.0
 22
0.0
 32
0.0
 14
0.0
 24
0.0
 34
0.0
 15
420.0
 25
297.0
 35
0.0
146
0.0
 13
0.0
 23
0.0
 33
0.0
 16
1.0
 26
0.0
 36
0.0
 17
0.0
 27
1.0
 37
0.0
 76
     0
330
1F
331
29
  0
MATERIAL
  5
15E
102
{ACAD_XDICTIONARY
360
15F
102
}
102
{ACAD_REACTORS
330
155
102
}
330
155
100
AcDbMaterial
  1
ByBlock
 72
     0
 43
0.0008202099737533
 43
0.0
 43
0.0
 43
0.0
 43
0.0
 43
0.0008202099737533
 43
0.0
 43
0.0
 43
0.0
 43
0.0
 43
1.0
 43
0.0
 43
0.0
 43
0.0
 43
0.0
 43
1.0
 77
     0
 47
0.0008202099737533
 47
0.0
 47
0.0
 47
0.0
 47
0.0
 47
0.0008202099737533
 47
0.0
 47
0.0
 47
0.0
 47
0.0
 47
1.0
 47
0.0
 47
0.0
 47
0.0
 47
0.0
 47
1.0
171
     0
 49
0.0008202099737533
 49
0.0
 49
0.0
 49
0.0
 49
0.0
 49
0.0008202099737533
 49
0.0
 49
0.0
 49
0.0
 49
0.0
 49
1.0
 49
0.0
 49
0.0
 49
0.0
 49
0.0
 49
1.0
175
     0
142
0.0008202099737533
142
0.0
142
0.0
142
0.0
142
0.0
142
0.0008202099737533
142
0.0
142
0.0
142
0.0
142
0.0
142
1.0
142
0.0
142
0.0
142
0.0
142
0.0
142
1.0
179
     0
144
0.0008202099737533
144
0.0
144
0.0
144
0.0
144
0.0
144
0.0008202099737533
144
0.0
144
0.0
144
0.0
144
0.0
144
1.0
144
0.0
144
0.0
144
0.0
144
0.0
144
1.0
147
0.0008202099737533
147
0.0
147
0.0
147
0.0
147
0.0
147
0.0008202099737533
147
0.0
147
0.0
147
0.0
147
0.0
147
1.0
147
0.0
147
0.0
147
0.0
147
0.0
147
1.0
  0
MATERIAL
  5
156
102
{ACAD_XDICTIONARY
360
157
102
}
102
{ACAD_REACTORS
330
155
102
}
330
155
100
AcDbMaterial
  1
ByLayer
 72
     0
 43
0.0008202099737533
 43
0.0
 43
0.0
 43
0.0
 43
0.0
 43
0.0008202099737533
 43
0.0
 43
0.0
 43
0.0
 43
0.0
 43
1.0
 43
0.0
 43
0.0
 43
0.0
 43
0.0
 43
1.0
 77
     0
 47
0.0008202099737533
 47
0.0
 47
0.0
 47
0.0
 47
0.0
 47
0.0008202099737533
 47
0.0
 47
0.0
 47
0.0
 47
0.0
 47
1.0
 47
0.0
 47
0.0
 47
0.0
 47
0.0
 47
1.0
171
     0
 49
0.0008202099737533
 49
0.0
 49
0.0
 49
0.0
 49
0.0
 49
0.0008202099737533
 49
0.0
 49
0.0
 49
0.0
 49
0.0
 49
1.0
 49
0.0
 49
0.0
 49
0.0
 49
0.0
 49
1.0
175
     0
142
0.0008202099737533
142
0.0
142
0.0
142
0.0
142
0.0
142
0.0008202099737533
142
0.0
142
0.0
142
0.0
142
0.0
142
1.0
142
0.0
142
0.0
142
0.0
142
0.0
142
1.0
179
     0
144
0.0008202099737533
144
0.0
144
0.0
144
0.0
144
0.0
144
0.0008202099737533
144
0.0
144
0.0
144
0.0
144
0.0
144
1.0
144
0.0
144
0.0
144
0.0
144
0.0
144
1.0
147
0.0008202099737533
147
0.0
147
0.0
147
0.0
147
0.0
147
0.0008202099737533
147
0.0
147
0.0
147
0.0
147
0.0
147
1.0
147
0.0
147
0.0
147
0.0
147
0.0
147
1.0
  0
MATERIAL
  5
166
102
{ACAD_XDICTIONARY
360
167
102
}
102
{ACAD_REACTORS
330
155
102
}
330
155
100
AcDbMaterial
  1
Global
 72
     0
 43
0.0008202099737533
 43
0.0
 43
0.0
 43
0.0
 43
0.0
 43
0.0008202099737533
 43
0.0
 43
0.0
 43
0.0
 43
0.0
 43
1.0
 43
0.0
 43
0.0
 43
0.0
 43
0.0
 43
1.0
 77
     0
 47
0.0008202099737533
 47
0.0
 47
0.0
 47
0.0
 47
0.0
 47
0.0008202099737533
 47
0.0
 47
0.0
 47
0.0
 47
0.0
 47
1.0
 47
0.0
 47
0.0
 47
0.0
 47
0.0
 47
1.0
171
     0
 49
0.0008202099737533
 49
0.0
 49
0.0
 49
0.0
 49
0.0
 49
0.0008202099737533
 49
0.0
 49
0.0
 49
0.0
 49
0.0
 49
1.0
 49
0.0
 49
0.0
 49
0.0
 49
0.0
 49
1.0
175
     0
142
0.0008202099737533
142
0.0
142
0.0
142
0.0
142
0.0
142
0.0008202099737533
142
0.0
142
0.0
142
0.0
142
0.0
142
1.0
142
0.0
142
0.0
142
0.0
142
0.0
142
1.0
179
     0
144
0.0008202099737533
144
0.0
144
0.0
144
0.0
144
0.0
144
0.0008202099737533
144
0.0
144
0.0
144
0.0
144
0.0
144
1.0
144
0.0
144
0.0
144
0.0
144
0.0
144
1.0
147
0.0008202099737533
147
0.0
147
0.0
147
0.0
147
0.0
147
0.0008202099737533
147
0.0
147
0.0
147
0.0
147
0.0
147
1.0
147
0.0
147
0.0
147
0.0
147
0.0
147
1.0
  0
MLEADERSTYLE
  5
18B
102
{ACAD_REACTORS
330
18A
102
}
330
18A
100
AcDbMLeaderStyle
179
     2
170
     2
171
     1
172
     0
 90
        2
 40
0.0
 41
0.0
173
     1
 91
-1056964608
340
14
 92
       -2
290
     1
 42
2.0
291
     1
 43
0.36
  3
Standard
 44
4.0
300

342
11
174
     1
178
     6
175
     1
176
     0
 93
-1056964608
 45
4.0
292
     0
297
     0
 46
4.0
 94
-1056964608
 47
1.0
 49
1.0
140
1.0
293
     1
141
0.0
294
     1
177
     0
142
1.0
295
     0
296
     0
143
0.125
271
     0
272
     9
273
     9
298
     0
  0
MLINESTYLE
  5
18
102
{ACAD_REACTORS
330
17
102
}
330
17
100
AcDbMlineStyle
  2
STANDARD
 70
     0
  3

 62
   256
 51
90.0
 52
90.0
 71
     2
 49
0.5
 62
   256
  6
BYLAYER
 49
-0.5
 62
   256
  6
BYLAYER
  0
ACDBPLACEHOLDER
  5
F
102
{ACAD_REACTORS
330
E
102
}
330
E
  0
SCALE
  5
48
102
{ACAD_REACTORS
330
47
102
}
330
47
100
AcDbScale
 70
     0
300
1:1
140
1.0
141
1.0
290
     1
  0
SCALE
  5
49
102
{ACAD_REACTORS
330
47
102
}
330
47
100
AcDbScale
 70
     0
300
1:2
140
1.0
141
2.0
290
     0
  0
SCALE
  5
4A
102
{ACAD_REACTORS
330
47
102
}
330
47
100
AcDbScale
 70
     0
300
1:4
140
1.0
141
4.0
290
     0
  0
SCALE
  5
4B
102
{ACAD_REACTORS
330
47
102
}
330
47
100
AcDbScale
 70
     0
300
1:5
140
1.0
141
5.0
290
     0
  0
SCALE
  5
4C
102
{ACAD_REACTORS
330
47
102
}
330
47
100
AcDbScale
 70
     0
300
1:8
140
1.0
141
8.0
290
     0
  0
SCALE
  5
4D
102
{ACAD_REACTORS
330
47
102
}
330
47
100
AcDbScale
 70
     0
300
1:10
140
1.0
141
10.0
290
     0
  0
SCALE
  5
4E
102
{ACAD_REACTORS
330
47
102
}
330
47
100
AcDbScale
 70
     0
300
1:16
140
1.0
141
16.0
290
     0
  0
SCALE
  5
4F
102
{ACAD_REACTORS
330
47
102
}
330
47
100
AcDbScale
 70
     0
300
1:20
140
1.0
141
20.0
290
     0
  0
SCALE
  5
50
102
{ACAD_REACTORS
330
47
102
}
330
47
100
AcDbScale
 70
     0
300
1:30
140
1.0
141
30.0
290
     0
  0
SCALE
  5
51
102
{ACAD_REACTORS
330
47
102
}
330
47
100
AcDbScale
 70
     0
300
1:40
140
1.0
141
40.0
290
     0
  0
SCALE
  5
52
102
{ACAD_REACTORS
330
47
102
}
330
47
100
AcDbScale
 70
     0
300
1:50
140
1.0
141
50.0
290
     0
  0
SCALE
  5
53
102
{ACAD_REACTORS
330
47
102
}
330
47
100
AcDbScale
 70
     0
300
1:100
140
1.0
141
100.0
290
     0
  0
SCALE
  5
54
102
{ACAD_REACTORS
330
47
102
}
330
47
100
AcDbScale
 70
     0
300
2:1
140
2.0
141
1.0
290
     0
  0
SCALE
  5
55
102
{ACAD_REACTORS
330
47
102
}
330
47
100
AcDbScale
 70
     0
300
4:1
140
4.0
141
1.0
290
     0
  0
SCALE
  5
56
102
{ACAD_REACTORS
330
47
102
}
330
47
100
AcDbScale
 70
     0
300
8:1
140
8.0
141
1.0
290
     0
  0
SCALE
  5
57
102
{ACAD_REACTORS
330
47
102
}
330
47
100
AcDbScale
 70
     0
300
10:1
140
10.0
141
1.0
290
     0
  0
SCALE
  5
58
102
{ACAD_REACTORS
330
47
102
}
330
47
100
AcDbScale
 70
     0
300
100:1
140
100.0
141
1.0
290
     0
  0
SCALE
  5
59
102
{ACAD_REACTORS
330
47
102
}
330
47
100
AcDbScale
 70
     0
300
1/128" = 1'-0"
140
0.0078125
141
12.0
290
     0
  0
SCALE
  5
5A
102
{ACAD_REACTORS
330
47
102
}
330
47
100
AcDbScale
 70
     0
300
1/64" = 1'-0"
140
0.015625
141
12.0
290
     0
  0
SCALE
  5
5B
102
{ACAD_REACTORS
330
47
102
}
330
47
100
AcDbScale
 70
     0
300
1/32" = 1'-0"
140
0.03125
141
12.0
290
     0
  0
SCALE
  5
5C
102
{ACAD_REACTORS
330
47
102
}
330
47
100
AcDbScale
 70
     0
300
1/16" = 1'-0"
140
0.0625
141
12.0
290
     0
  0
SCALE
  5
5D
102
{ACAD_REACTORS
330
47
102
}
330
47
100
AcDbScale
 70
     0
300
3/32" = 1'-0"
140
0.09375
141
12.0
290
     0
  0
SCALE
  5
5E
102
{ACAD_REACTORS
330
47
102
}
330
47
100
AcDbScale
 70
     0
300
1/8" = 1'-0"
140
0.125
141
12.0
290
     0
  0
SCALE
  5
5F
102
{ACAD_REACTORS
330
47
102
}
330
47
100
AcDbScale
 70
     0
300
3/16" = 1'-0"
140
0.1875
141
12.0
290
     0
  0
SCALE
  5
60
102
{ACAD_REACTORS
330
47
102
}
330
47
100
AcDbScale
 70
     0
300
1/4" = 1'-0"
140
0.25
141
12.0
290
     0
  0
SCALE
  5
61
102
{ACAD_REACTORS
330
47
102
}
330
47
100
AcDbScale
 70
     0
300
3/8" = 1'-0"
140
0.375
141
12.0
290
     0
  0
SCALE
  5
62
102
{ACAD_REACTORS
330
47
102
}
330
47
100
AcDbScale
 70
     0
300
1/2" = 1'-0"
140
0.5
141
12.0
290
     0
  0
SCALE
  5
63
102
{ACAD_REACTORS
330
47
102
}
330
47
100
AcDbScale
 70
     0
300
3/4" = 1'-0"
140
0.75
141
12.0
290
     0
  0
SCALE
  5
64
102
{ACAD_REACTORS
330
47
102
}
330
47
100
AcDbScale
 70
     0
300
1" = 1'-0"
140
1.0
141
12.0
290
     0
  0
SCALE
  5
65
102
{ACAD_REACTORS
330
47
102
}
330
47
100
AcDbScale
 70
     0
300
1-1/2" = 1'-0"
140
1.5
141
12.0
290
     0
  0
SCALE
  5
66
102
{ACAD_REACTORS
330
47
102
}
330
47
100
AcDbScale
 70
     0
300
3" = 1'-0"
140
3.0
141
12.0
290
     0
  0
SCALE
  5
67
102
{ACAD_REACTORS
330
47
102
}
330
47
100
AcDbScale
 70
     0
300
6" = 1'-0"
140
6.0
141
12.0
290
     0
  0
SCALE
  5
68
102
{ACAD_REACTORS
330
47
102
}
330
47
100
AcDbScale
 70
     0
300
1'-0" = 1'-0"
140
12.0
141
12.0
290
     0
  0
ACDBSECTIONVIEWSTYLE
  5
18D
102
{ACAD_REACTORS
330
18C
102
}
330
18C
100
AcDbModelDocViewStyle
 70
     0
  3
Metric50
290
     0
300
Metric50
 90
        0
100
AcDbSectionViewStyle
 70
     0
 71
     0
 90
      102
 71
     1
340
11
 62
   256
 40
5.0
340
0
340
0
 62
   256
 40
5.0
300
I, O, Q, S, X, Z
 40
10.0
 90
        0
 40
2.5
 90
        0
 71
     2
340
16
 90
       25
 62
   256
340
16
 90
       50
 62
   256
 40
5.0
 40
2.5
 40
5.0
 71
     3
340
11
 62
   256
 40
5.0
 90
        0
 40
15.0
 90
        1
300
%<\AcVar ViewSectionStartId>%-%<\AcVar ViewSectionEndId>% (%<\AcVar ViewScale \f "%sn">%)
 71
     4
 62
   256
 62
   257
300
ANSI31
 40
1.0
 90
        0
290
     0
290
     0
 90
        6
 40
0.0
 40
1.570796326794896
 40
0.2617993877991494
 40
1.308996938995747
 40
-0.2617993877991494
 40
1.832595714594046
  0
TABLESTYLE
  5
189
102
{ACAD_XDICTIONARY
360
30C
102
}
102
{ACAD_REACTORS
330
188
102
}
330
188
100
AcDbTableStyle
280
     0
  3
Standard
 70
     0
 71
     0
 40
1.5
 41
1.5
280
     0
281
     0
  7
Standard
140
4.5
170
     2
 62
     0
 63
     7
283
     0
 90
      512
 91
        0
  1

274
    -2
284
     1
 64
     0
275
    -2
285
     1
 65
     0
276
    -2
286
     1
 66
     0
277
    -2
287
     1
 67
     0
278
    -2
288
     1
 68
     0
279
    -2
289
     1
 69
     0
  7
Standard
140
6.0
170
     5
 62
     0
 63
     7
283
     0
 90
      512
 91
        0
  1

274
    -2
284
     1
 64
     0
275
    -2
285
     1
 65
     0
276
    -2
286
     1
 66
     0
277
    -2
287
     1
 67
     0
278
    -2
288
     1
 68
     0
279
    -2
289
     1
 69
     0
  7
Standard
140
4.5
170
     5
 62
     0
 63
     7
283
     0
 90
      512
 91
        0
  1

274
    -2
284
     1
 64
     0
275
    -2
285
     1
 65
     0
276
    -2
286
     1
 66
     0
277
    -2
287
     1
 67
     0
278
    -2
288
     1
 68
     0
279
    -2
289
     1
 69
     0
  0
VISUALSTYLE
  5
174
102
{ACAD_REACTORS
330
16E
102
}
330
16E
100
AcDbVisualStyle
  2
2dWireframe
 70
     4
177
     3
291
     0
 70
    58
 90
        0
176
     1
 90
        2
176
     1
 90
        0
176
     1
 90
        0
176
     1
 40
0.6
176
     1
 40
30.0
176
     1
 62
     7
420
 16777215
176
     1
 90
        1
176
     1
 90
        4
176
     1
 62
     7
176
     1
 62
   257
176
     1
 90
        1
176
     1
 90
        1
176
     1
 40
1.0
176
     1
 90
        0
176
     1
 62
   257
176
     1
 40
1.0
176
     1
 90
        1
176
     1
 90
        6
176
     1
 90
        2
176
     1
 62
     7
176
     1
 90
        5
176
     1
 90
        0
176
     1
 90
        0
176
     1
290
     0
176
     1
 90
        1
176
     1
 40
0.0
176
     1
 90
        0
176
     1
290
     1
176
     1
290
     1
176
     1
290
     0
176
     1
290
     0
176
     1
290
     0
176
     1
290
     0
176
     1
290
     0
176
     1
290
     0
176
     1
290
     0
176
     1
 90
       50
176
     1
 40
0.0
176
     1
 40
1.0
176
     1
 90
        0
176
     1
 62
    18
420
        0
176
     1
 90
       50
176
     1
 90
        3
176
     1
 62
     5
420
      255
176
     1
290
     0
176
     1
 90
       50
176
     1
 90
       50
176
     1
 90
       50
176
     1
290
     0
176
     1
 90
       50
176
     1
 62
   256
176
     0
 40
1.0
176
     0
 90
        2
176
     1
  1
strokes_ogs.tif
176
     1
290
     0
176
     1
 40
1.0
176
     1
 40
1.0
176
     1
  0
VISUALSTYLE
  5
173
102
{ACAD_REACTORS
330
16E
102
}
330
16E
100
AcDbVisualStyle
  2
Basic
 70
     7
177
     3
291
     1
 70
    58
 90
        1
176
     1
 90
        0
176
     1
 90
        1
176
     1
 90
        0
176
     1
 40
0.6
176
     1
 40
30.0
176
     1
 62
     7
420
 16777215
176
     1
 90
        0
176
     1
 90
        4
176
     1
 62
     7
176
     1
 62
   257
176
     1
 90
        1
176
     1
 90
        1
176
     1
 40
1.0
176
     1
 90
        8
176
     1
 62
     7
176
     1
 40
1.0
176
     1
 90
        1
176
     1
 90
        6
176
     1
 90
        2
176
     1
 62
     7
176
     1
 90
        5
176
     1
 90
        0
176
     1
 90
        0
176
     1
290
     0
176
     1
 90
        1
176
     1
 40
0.0
176
     1
 90
        0
176
     1
290
     0
176
     1
290
     1
176
     1
290
     1
176
     1
290
     0
176
     1
290
     0
176
     1
290
     0
176
     1
290
     0
176
     1
290
     0
176
     1
290
     0
176
     1
 90
       50
176
     1
 40
0.0
176
     1
 40
1.0
176
     1
 90
        0
176
     1
 62
    18
420
        0
176
     1
 90
       50
176
     1
 90
        3
176
     1
 62
     5
420
      255
176
     1
290
     0
176
     1
 90
       50
176
     1
 90
       50
176
     1
 90
       50
176
     1
290
     0
176
     1
 90
       50
176
     1
 62
   256
176
     0
 40
1.0
176
     0
 90
        2
176
     1
  1
strokes_ogs.tif
176
     1
290
     0
176
     1
 40
1.0
176
     1
 40
1.0
176
     1
  0
VISUALSTYLE
  5
17A
102
{ACAD_REACTORS
330
16E
102
}
330
16E
100
AcDbVisualStyle
  2
Brighten
 70
    12
177
     3
291
     1
 70
    58
 90
        2
176
     1
 90
        2
176
     1
 90
        0
176
     1
 90
        0
176
     1
 40
0.6
176
     1
 40
30.0
176
     1
 62
     7
420
 16777215
176
     1
 90
        1
176
     1
 90
        4
176
     1
 62
     7
176
     1
 62
   257
176
     1
 90
        1
176
     1
 90
        1
176
     1
 40
1.0
176
     1
 90
        8
176
     1
 62
     7
176
     1
 40
1.0
176
     1
 90
        1
176
     1
 90
        6
176
     1
 90
        2
176
     1
 62
     7
176
     1
 90
        5
176
     1
 90
        0
176
     1
 90
        0
176
     1
290
     0
176
     1
 90
        1
176
     1
 40
50.0
176
     1
 90
        0
176
     1
290
     0
176
     1
290
     1
176
     1
290
     1
176
     1
290
     0
176
     1
290
     0
176
     1
290
     0
176
     1
290
     0
176
     1
290
     0
176
     1
290
     0
176
     1
 90
       50
176
     1
 40
0.0
176
     1
 40
1.0
176
     1
 90
        0
176
     1
 62
    18
420
        0
176
     1
 90
       50
176
     1
 90
        3
176
     1
 62
     5
420
      255
176
     1
290
     0
176
     1
 90
       50
176
     1
 90
       50
176
     1
 90
       50
176
     1
290
     0
176
     1
 90
       50
176
     1
 62
   256
176
     0
 40
1.0
176
     0
 90
        2
176
     1
  1
strokes_ogs.tif
176
     1
290
     0
176
     1
 40
1.0
176
     1
 40
1.0
176
     1
  0
VISUALSTYLE
  5
17E
102
{ACAD_REACTORS
330
16E
102
}
330
16E
100
AcDbVisualStyle
  2
ColorChange
 70
    16
177
     3
291
     1
 70
    58
 90
        2
176
     1
 90
        2
176
     1
 90
        3
176
     1
 90
        0
176
     1
 40
0.6
176
     1
 40
30.0
176
     1
 62
     8
420
  8421504
176
     1
 90
        1
176
     1
 90
        4
176
     1
 62
     7
176
     1
 62
   257
176
     1
 90
        1
176
     1
 90
        1
176
     1
 40
1.0
176
     1
 90
        8
176
     1
 62
     8
420
  8421504
176
     1
 40
1.0
176
     1
 90
        1
176
     1
 90
        6
176
     1
 90
        2
176
     1
 62
     7
176
     1
 90
        5
176
     1
 90
        0
176
     1
 90
        0
176
     1
290
     0
176
     1
 90
        1
176
     1
 40
0.0
176
     1
 90
        0
176
     1
290
     0
176
     1
290
     1
176
     1
290
     1
176
     1
290
     0
176
     1
290
     0
176
     1
290
     0
176
     1
290
     0
176
     1
290
     0
176
     1
290
     0
176
     1
 90
       50
176
     1
 40
0.0
176
     1
 40
1.0
176
     1
 90
        0
176
     1
 62
    18
420
        0
176
     1
 90
       50
176
     1
 90
        3
176
     1
 62
     5
420
      255
176
     1
290
     0
176
     1
 90
       50
176
     1
 90
       50
176
     1
 90
       50
176
     1
290
     0
176
     1
 90
       50
176
     1
 62
   256
176
     0
 40
1.0
176
     0
 90
        2
176
     1
  1
strokes_ogs.tif
176
     1
290
     0
176
     1
 40
1.0
176
     1
 40
1.0
176
     1
  0
VISUALSTYLE
  5
177
102
{ACAD_REACTORS
330
16E
102
}
330
16E
100
AcDbVisualStyle
  2
Conceptual
 70
     9
177
     3
291
     0
 70
    58
 90
        3
176
     1
 90
        2
176
     1
 90
        0
176
     1
 90
        0
176
     1
 40
0.6
176
     1
 40
30.0
176
     1
 62
     7
420
 16777215
176
     1
 90
        2
176
     1
 90
        2
176
     1
 62
     7
176
     1
 62
   257
176
     1
 90
        1
176
     1
 90
        1
176
     1
 40
179.0
176
     1
 90
        8
176
     1
 62
     7
176
     1
 40
1.0
176
     1
 90
        1
176
     1
 90
        6
176
     1
 90
        2
176
     1
 62
     7
176
     1
 90
        3
176
     1
 90
        0
176
     1
 90
        0
176
     1
290
     0
176
     1
 90
        1
176
     1
 40
0.0
176
     1
 90
        0
176
     1
290
     0
176
     1
290
     1
176
     1
290
     1
176
     1
290
     0
176
     1
290
     0
176
     1
290
     0
176
     1
290
     0
176
     1
290
     0
176
     1
290
     0
176
     1
 90
       50
176
     1
 40
0.0
176
     1
 40
1.0
176
     1
 90
        0
176
     1
 62
    18
420
        0
176
     1
 90
       50
176
     1
 90
        3
176
     1
 62
     5
420
      255
176
     1
290
     0
176
     1
 90
       50
176
     1
 90
       50
176
     1
 90
       50
176
     1
290
     0
176
     1
 90
       50
176
     1
 62
   256
176
     0
 40
1.0
176
     0
 90
        2
176
     1
  1
strokes_ogs.tif
176
     1
290
     0
176
     1
 40
1.0
176
     1
 40
1.0
176
     1
  0
VISUALSTYLE
  5
179
102
{ACAD_REACTORS
330
16E
102
}
330
16E
100
AcDbVisualStyle
  2
Dim
 70
    11
177
     3
291
     1
 70
    58
 90
        2
176
     1
 90
        2
176
     1
 90
        0
176
     1
 90
        0
176
     1
 40
0.6
176
     1
 40
30.0
176
     1
 62
     7
420
 16777215
176
     1
 90
        1
176
     1
 90
        4
176
     1
 62
     7
176
     1
 62
   257
176
     1
 90
        1
176
     1
 90
        1
176
     1
 40
1.0
176
     1
 90
        8
176
     1
 62
     7
176
     1
 40
1.0
176
     1
 90
        1
176
     1
 90
        6
176
     1
 90
        2
176
     1
 62
     7
176
     1
 90
        5
176
     1
 90
        0
176
     1
 90
        0
176
     1
290
     0
176
     1
 90
        1
176
     1
 40
-50.0
176
     1
 90
        0
176
     1
290
     0
176
     1
290
     1
176
     1
290
     1
176
     1
290
     0
176
     1
290
     0
176
     1
290
     0
176
     1
290
     0
176
     1
290
     0
176
     1
290
     0
176
     1
 90
       50
176
     1
 40
0.0
176
     1
 40
1.0
176
     1
 90
        0
176
     1
 62
    18
420
        0
176
     1
 90
       50
176
     1
 90
        3
176
     1
 62
     5
420
      255
176
     1
290
     0
176
     1
 90
       50
176
     1
 90
       50
176
     1
 90
       50
176
     1
290
     0
176
     1
 90
       50
176
     1
 62
   256
176
     0
 40
1.0
176
     0
 90
        2
176
     1
  1
strokes_ogs.tif
176
     1
290
     0
176
     1
 40
1.0
176
     1
 40
1.0
176
     1
  0
VISUALSTYLE
  5
186
102
{ACAD_REACTORS
330
16E
102
}
330
16E
100
AcDbVisualStyle
  2
EdgeColorOff
 70
    22
177
     3
291
     1
 70
    58
 90
        2
176
     0
 90
        2
176
     0
 90
        0
176
     0
 90
        0
176
     0
 40
0.6
176
     0
 40
30.0
176
     0
 62
     7
420
 16777215
176
     0
 90
        1
176
     0
 90
        4
176
     0
 62
     7
176
     0
 62
   257
176
     0
 90
        1
176
     0
 90
        1
176
     0
 40
1.0
176
     0
 90
        8
176
     2
 62
     7
176
     0
 40
1.0
176
     0
 90
        1
176
     0
 90
        6
176
     0
 90
        2
176
     0
 62
     7
176
     0
 90
        5
176
     0
 90
        0
176
     0
 90
        0
176
     0
290
     0
176
     0
 90
        1
176
     0
 40
0.0
176
     0
 90
        0
176
     0
290
     0
176
     1
290
     1
176
     1
290
     1
176
     1
290
     0
176
     1
290
     0
176
     1
290
     0
176
     1
290
     0
176
     1
290
     0
176
     1
290
     0
176
     1
 90
       50
176
     0
 40
0.0
176
     0
 40
1.0
176
     0
 90
        0
176
     0
 62
    18
420
        0
176
     0
 90
       50
176
     0
 90
        3
176
     0
 62
     5
420
      255
176
     0
290
     0
176
     1
 90
       50
176
     0
 90
       50
176
     0
 90
       50
176
     0
290
     0
176
     1
 90
       50
176
     0
 62
   256
176
     0
 40
1.0
176
     0
 90
        2
176
     0
  1
strokes_ogs.tif
176
     0
290
     0
176
     1
 40
1.0
176
     0
 40
1.0
176
     0
  0
VISUALSTYLE
  5
17D
102
{ACAD_REACTORS
330
16E
102
}
330
16E
100
AcDbVisualStyle
  2
Facepattern
 70
    15
177
     3
291
     1
 70
    58
 90
        2
176
     1
 90
        2
176
     1
 90
        0
176
     1
 90
        0
176
     1
 40
0.6
176
     1
 40
30.0
176
     1
 62
     7
420
 16777215
176
     1
 90
        1
176
     1
 90
        4
176
     1
 62
     7
176
     1
 62
   257
176
     1
 90
        1
176
     1
 90
        1
176
     1
 40
1.0
176
     1
 90
        8
176
     1
 62
     7
176
     1
 40
1.0
176
     1
 90
        1
176
     1
 90
        6
176
     1
 90
        2
176
     1
 62
     7
176
     1
 90
        5
176
     1
 90
        0
176
     1
 90
        0
176
     1
290
     0
176
     1
 90
        1
176
     1
 40
0.0
176
     1
 90
        0
176
     1
290
     0
176
     1
290
     1
176
     1
290
     1
176
     1
290
     0
176
     1
290
     0
176
     1
290
     0
176
     1
290
     0
176
     1
290
     0
176
     1
290
     0
176
     1
 90
       50
176
     1
 40
0.0
176
     1
 40
1.0
176
     1
 90
        0
176
     1
 62
    18
420
        0
176
     1
 90
       50
176
     1
 90
        3
176
     1
 62
     5
420
      255
176
     1
290
     0
176
     1
 90
       50
176
     1
 90
       50
176
     1
 90
       50
176
     1
290
     0
176
     1
 90
       50
176
     1
 62
   256
176
     0
 40
1.0
176
     0
 90
        2
176
     1
  1
strokes_ogs.tif
176
     1
290
     0
176
     1
 40
1.0
176
     1
 40
1.0
176
     1
  0
VISUALSTYLE
  5
16F
102
{ACAD_REACTORS
330
16E
102
}
330
16E
100
AcDbVisualStyle
  2
Flat
 70
     0
177
     3
291
     1
 70
    58
 90
        2
176
     1
 90
        1
176
     1
 90
        1
176
     1
 90
        2
176
     1
 40
0.6
176
     1
 40
30.0
176
     1
 62
     7
420
 16777215
176
     1
 90
        0
176
     1
 90
        0
176
     1
 62
     7
176
     1
 62
   257
176
     1
 90
        1
176
     1
 90
        1
176
     1
 40
1.0
176
     1
 90
        8
176
     1
 62
     7
176
     1
 40
1.0
176
     1
 90
        1
176
     1
 90
        6
176
     1
 90
        2
176
     1
 62
     7
176
     1
 90
        5
176
     1
 90
        0
176
     1
 90
        0
176
     1
290
     0
176
     1
 90
       13
176
     1
 40
0.0
176
     1
 90
        0
176
     1
290
     0
176
     1
290
     1
176
     1
290
     1
176
     1
290
     0
176
     1
290
     0
176
     1
290
     0
176
     1
290
     0
176
     1
290
     0
176
     1
290
     0
176
     1
 90
       50
176
     1
 40
0.0
176
     1
 40
1.0
176
     1
 90
        0
176
     1
 62
    18
420
        0
176
     1
 90
       50
176
     1
 90
        3
176
     1
 62
     5
420
      255
176
     1
290
     0
176
     1
 90
       50
176
     1
 90
       50
176
     1
 90
       50
176
     1
290
     0
176
     1
 90
       50
176
     1
 62
   256
176
     0
 40
1.0
176
     0
 90
        2
176
     1
  1
strokes_ogs.tif
176
     1
290
     0
176
     1
 40
1.0
176
     1
 40
1.0
176
     1
  0
VISUALSTYLE
  5
170
102
{ACAD_REACTORS
330
16E
102
}
330
16E
100
AcDbVisualStyle
  2
FlatWithEdges
 70
     1
177
     3
291
     1
 70
    58
 90
        2
176
     1
 90
        1
176
     1
 90
        1
176
     1
 90
        2
176
     1
 40
0.6
176
     1
 40
30.0
176
     1
 62
     7
420
 16777215
176
     1
 90
        1
176
     1
 90
        0
176
     1
 62
     7
176
     1
 62
   257
176
     1
 90
        1
176
     1
 90
        1
176
     1
 40
1.0
176
     1
 90
        0
176
     1
 62
   257
176
     1
 40
1.0
176
     1
 90
        1
176
     1
 90
        6
176
     1
 90
        2
176
     1
 62
     7
176
     1
 90
        5
176
     1
 90
        0
176
     1
 90
        0
176
     1
290
     0
176
     1
 90
       13
176
     1
 40
0.0
176
     1
 90
        0
176
     1
290
     0
176
     1
290
     1
176
     1
290
     1
176
     1
290
     0
176
     1
290
     0
176
     1
290
     0
176
     1
290
     0
176
     1
290
     0
176
     1
290
     0
176
     1
 90
       50
176
     1
 40
0.0
176
     1
 40
1.0
176
     1
 90
        0
176
     1
 62
    18
420
        0
176
     1
 90
       50
176
     1
 90
        3
176
     1
 62
     5
420
      255
176
     1
290
     0
176
     1
 90
       50
176
     1
 90
       50
176
     1
 90
       50
176
     1
290
     0
176
     1
 90
       50
176
     1
 62
   256
176
     0
 40
1.0
176
     0
 90
        2
176
     1
  1
strokes_ogs.tif
176
     1
290
     0
176
     1
 40
1.0
176
     1
 40
1.0
176
     1
  0
VISUALSTYLE
  5
171
102
{ACAD_REACTORS
330
16E
102
}
330
16E
100
AcDbVisualStyle
  2
Gouraud
 70
     2
177
     3
291
     1
 70
    58
 90
        2
176
     1
 90
        2
176
     1
 90
        1
176
     1
 90
        2
176
     1
 40
0.6
176
     1
 40
30.0
176
     1
 62
     7
420
 16777215
176
     1
 90
        0
176
     1
 90
        0
176
     1
 62
     7
176
     1
 62
   257
176
     1
 90
        1
176
     1
 90
        1
176
     1
 40
1.0
176
     1
 90
        0
176
     1
 62
     7
176
     1
 40
1.0
176
     1
 90
        1
176
     1
 90
        6
176
     1
 90
        2
176
     1
 62
     7
176
     1
 90
        5
176
     1
 90
        0
176
     1
 90
        0
176
     1
290
     0
176
     1
 90
       13
176
     1
 40
0.0
176
     1
 90
        0
176
     1
290
     0
176
     1
290
     1
176
     1
290
     1
176
     1
290
     0
176
     1
290
     0
176
     1
290
     0
176
     1
290
     0
176
     1
290
     0
176
     1
290
     0
176
     1
 90
       50
176
     1
 40
0.0
176
     1
 40
1.0
176
     1
 90
        0
176
     1
 62
    18
420
        0
176
     1
 90
       50
176
     1
 90
        3
176
     1
 62
     5
420
      255
176
     1
290
     0
176
     1
 90
       50
176
     1
 90
       50
176
     1
 90
       50
176
     1
290
     0
176
     1
 90
       50
176
     1
 62
   256
176
     0
 40
1.0
176
     0
 90
        2
176
     1
  1
strokes_ogs.tif
176
     1
290
     0
176
     1
 40
1.0
176
     1
 40
1.0
176
     1
  0
VISUALSTYLE
  5
172
102
{ACAD_REACTORS
330
16E
102
}
330
16E
100
AcDbVisualStyle
  2
GouraudWithEdges
 70
     3
177
     3
291
     1
 70
    58
 90
        2
176
     1
 90
        2
176
     1
 90
        1
176
     1
 90
        2
176
     1
 40
0.6
176
     1
 40
30.0
176
     1
 62
     7
420
 16777215
176
     1
 90
        1
176
     1
 90
        0
176
     1
 62
     7
176
     1
 62
   257
176
     1
 90
        1
176
     1
 90
        1
176
     1
 40
1.0
176
     1
 90
        0
176
     1
 62
   257
176
     1
 40
1.0
176
     1
 90
        1
176
     1
 90
        6
176
     1
 90
        2
176
     1
 62
     7
176
     1
 90
        5
176
     1
 90
        0
176
     1
 90
        0
176
     1
290
     0
176
     1
 90
       13
176
     1
 40
0.0
176
     1
 90
        0
176
     1
290
     0
176
     1
290
     1
176
     1
290
     1
176
     1
290
     0
176
     1
290
     0
176
     1
290
     0
176
     1
290
     0
176
     1
290
     0
176
     1
290
     0
176
     1
 90
       50
176
     1
 40
0.0
176
     1
 40
1.0
176
     1
 90
        0
176
     1
 62
    18
420
        0
176
     1
 90
       50
176
     1
 90
        3
176
     1
 62
     5
420
      255
176
     1
290
     0
176
     1
 90
       50
176
     1
 90
       50
176
     1
 90
       50
176
     1
290
     0
176
     1
 90
       50
176
     1
 62
   256
176
     0
 40
1.0
176
     0
 90
        2
176
     1
  1
strokes_ogs.tif
176
     1
290
     0
176
     1
 40
1.0
176
     1
 40
1.0
176
     1
  0
VISUALSTYLE
  5
176
102
{ACAD_REACTORS
330
16E
102
}
330
16E
100
AcDbVisualStyle
  2
Hidden
 70
     6
177
     3
291
     0
 70
    58
 90
        1
176
     1
 90
        2
176
     1
 90
        2
176
     1
 90
        0
176
     1
 40
0.6
176
     1
 40
30.0
176
     1
 62
     7
420
 16777215
176
     1
 90
        2
176
     1
 90
        2
176
     1
 62
     7
176
     1
 62
   257
176
     1
 90
        2
176
     1
 90
        1
176
     1
 40
40.0
176
     1
 90
        0
176
     1
 62
   257
176
     1
 40
1.0
176
     1
 90
        1
176
     1
 90
        6
176
     1
 90
        2
176
     1
 62
     7
176
     1
 90
        3
176
     1
 90
        0
176
     1
 90
        0
176
     1
290
     0
176
     1
 90
        1
176
     1
 40
0.0
176
     1
 90
        0
176
     1
290
     0
176
     1
290
     1
176
     1
290
     1
176
     1
290
     0
176
     1
290
     0
176
     1
290
     0
176
     1
290
     0
176
     1
290
     0
176
     1
290
     0
176
     1
 90
       50
176
     1
 40
0.0
176
     1
 40
1.0
176
     1
 90
        0
176
     1
 62
    18
420
        0
176
     1
 90
       50
176
     1
 90
        3
176
     1
 62
     5
420
      255
176
     1
290
     0
176
     1
 90
       50
176
     1
 90
       50
176
     1
 90
       50
176
     1
290
     0
176
     1
 90
       50
176
     1
 62
   256
176
     0
 40
1.0
176
     0
 90
        2
176
     1
  1
strokes_ogs.tif
176
     1
290
     0
176
     1
 40
1.0
176
     1
 40
1.0
176
     1
  0
VISUALSTYLE
  5
184
102
{ACAD_REACTORS
330
16E
102
}
330
16E
100
AcDbVisualStyle
  2
JitterOff
 70
    20
177
     3
291
     1
 70
    58
 90
        2
176
     0
 90
        2
176
     0
 90
        0
176
     0
 90
        0
176
     0
 40
0.6
176
     0
 40
30.0
176
     0
 62
     7
420
 16777215
176
     0
 90
        1
176
     0
 90
        4
176
     0
 62
     7
176
     0
 62
   257
176
     0
 90
        1
176
     0
 90
        1
176
     0
 40
1.0
176
     0
 90
       10
176
     2
 62
     7
176
     0
 40
1.0
176
     0
 90
        1
176
     0
 90
        6
176
     0
 90
        2
176
     0
 62
     7
176
     0
 90
        5
176
     0
 90
        0
176
     0
 90
        0
176
     0
290
     0
176
     0
 90
        1
176
     0
 40
0.0
176
     0
 90
        0
176
     0
290
     0
176
     1
290
     1
176
     1
290
     1
176
     1
290
     0
176
     1
290
     0
176
     1
290
     0
176
     1
290
     0
176
     1
290
     0
176
     1
290
     0
176
     1
 90
       50
176
     0
 40
0.0
176
     0
 40
1.0
176
     0
 90
        0
176
     0
 62
    18
420
        0
176
     0
 90
       50
176
     0
 90
        3
176
     0
 62
     5
420
      255
176
     0
290
     0
176
     1
 90
       50
176
     0
 90
       50
176
     0
 90
       50
176
     0
290
     0
176
     1
 90
       50
176
     0
 62
   256
176
     0
 40
1.0
176
     0
 90
        2
176
     0
  1
strokes_ogs.tif
176
     0
290
     0
176
     1
 40
1.0
176
     0
 40
1.0
176
     0
  0
VISUALSTYLE
  5
17C
102
{ACAD_REACTORS
330
16E
102
}
330
16E
100
AcDbVisualStyle
  2
Linepattern
 70
    14
177
     3
291
     1
 70
    58
 90
        2
176
     1
 90
        2
176
     1
 90
        0
176
     1
 90
        0
176
     1
 40
0.6
176
     1
 40
30.0
176
     1
 62
     7
420
 16777215
176
     1
 90
        1
176
     1
 90
        4
176
     1
 62
     7
176
     1
 62
   257
176
     1
 90
        7
176
     1
 90
        7
176
     1
 40
1.0
176
     1
 90
        8
176
     1
 62
     7
176
     1
 40
1.0
176
     1
 90
        1
176
     1
 90
        6
176
     1
 90
        2
176
     1
 62
     7
176
     1
 90
        5
176
     1
 90
        0
176
     1
 90
        0
176
     1
290
     0
176
     1
 90
        1
176
     1
 40
0.0
176
     1
 90
        0
176
     1
290
     0
176
     1
290
     1
176
     1
290
     1
176
     1
290
     0
176
     1
290
     0
176
     1
290
     0
176
     1
290
     0
176
     1
290
     0
176
     1
290
     0
176
     1
 90
       50
176
     1
 40
0.0
176
     1
 40
1.0
176
     1
 90
        0
176
     1
 62
    18
420
        0
176
     1
 90
       50
176
     1
 90
        3
176
     1
 62
     5
420
      255
176
     1
290
     0
176
     1
 90
       50
176
     1
 90
       50
176
     1
 90
       50
176
     1
290
     0
176
     1
 90
       50
176
     1
 62
   256
176
     0
 40
1.0
176
     0
 90
        2
176
     1
  1
strokes_ogs.tif
176
     1
290
     0
176
     1
 40
1.0
176
     1
 40
1.0
176
     1
  0
VISUALSTYLE
  5
185
102
{ACAD_REACTORS
330
16E
102
}
330
16E
100
AcDbVisualStyle
  2
OverhangOff
 70
    21
177
     3
291
     1
 70
    58
 90
        2
176
     0
 90
        2
176
     0
 90
        0
176
     0
 90
        0
176
     0
 40
0.6
176
     0
 40
30.0
176
     0
 62
     7
420
 16777215
176
     0
 90
        1
176
     0
 90
        4
176
     0
 62
     7
176
     0
 62
   257
176
     0
 90
        1
176
     0
 90
        1
176
     0
 40
1.0
176
     0
 90
        9
176
     2
 62
     7
176
     0
 40
1.0
176
     0
 90
        1
176
     0
 90
        6
176
     0
 90
        2
176
     0
 62
     7
176
     0
 90
        5
176
     0
 90
        0
176
     0
 90
        0
176
     0
290
     0
176
     0
 90
        1
176
     0
 40
0.0
176
     0
 90
        0
176
     0
290
     0
176
     1
290
     1
176
     1
290
     1
176
     1
290
     0
176
     1
290
     0
176
     1
290
     0
176
     1
290
     0
176
     1
290
     0
176
     1
290
     0
176
     1
 90
       50
176
     0
 40
0.0
176
     0
 40
1.0
176
     0
 90
        0
176
     0
 62
    18
420
        0
176
     0
 90
       50
176
     0
 90
        3
176
     0
 62
     5
420
      255
176
     0
290
     0
176
     1
 90
       50
176
     0
 90
       50
176
     0
 90
       50
176
     0
290
     0
176
     1
 90
       50
176
     0
 62
   256
176
     0
 40
1.0
176
     0
 90
        2
176
     0
  1
strokes_ogs.tif
176
     0
290
     0
176
     1
 40
1.0
176
     0
 40
1.0
176
     0
  0
VISUALSTYLE
  5
178
102
{ACAD_REACTORS
330
16E
102
}
330
16E
100
AcDbVisualStyle
  2
Realistic
 70
     8
177
     3
291
     0
 70
    58
 90
        2
176
     1
 90
        3
176
     1
 90
        0
176
     1
 90
        2
176
     1
 40
0.6
176
     1
 40
30.0
176
     1
 62
     7
420
 16777215
176
     1
 90
        0
176
     1
 90
        0
176
     1
 62
     7
176
     1
 62
   257
176
     1
 90
        1
176
     1
 90
        1
176
     1
 40
1.0
176
     1
 90
        8
176
     1
 62
   257
176
     1
 40
1.0
176
     1
 90
        1
176
     1
 90
        6
176
     1
 90
        2
176
     1
 62
     7
176
     1
 90
        3
176
     1
 90
        0
176
     1
 90
        0
176
     1
290
     0
176
     1
 90
       13
176
     1
 40
0.0
176
     1
 90
        0
176
     1
290
     0
176
     1
290
     1
176
     1
290
     1
176
     1
290
     0
176
     1
290
     0
176
     1
290
     0
176
     1
290
     0
176
     1
290
     0
176
     1
290
     0
176
     1
 90
       50
176
     1
 40
0.0
176
     1
 40
1.0
176
     1
 90
        0
176
     1
 62
    18
420
        0
176
     1
 90
       50
176
     1
 90
        3
176
     1
 62
     5
420
      255
176
     1
290
     0
176
     1
 90
       50
176
     1
 90
       50
176
     1
 90
       50
176
     1
290
     0
176
     1
 90
       50
176
     1
 62
   256
176
     0
 40
1.0
176
     0
 90
        2
176
     1
  1
strokes_ogs.tif
176
     1
290
     0
176
     1
 40
1.0
176
     1
 40
1.0
176
     1
  0
VISUALSTYLE
  5
183
102
{ACAD_REACTORS
330
16E
102
}
330
16E
100
AcDbVisualStyle
  2
Shaded
 70
    27
177
     3
291
     0
 70
    58
 90
        2
176
     1
 90
        2
176
     1
 90
        1
176
     1
 90
        2
176
     1
 40
0.6
176
     1
 40
30.0
176
     1
 62
     7
420
 16777215
176
     1
 90
        0
176
     1
 90
        4
176
     1
 62
     7
176
     1
 62
   257
176
     1
 90
        1
176
     1
 90
        1
176
     1
 40
1.0
176
     1
 90
        8
176
     1
 62
   257
176
     1
 40
1.0
176
     1
 90
        1
176
     1
 90
        6
176
     1
 90
        2
176
     1
 62
     8
420
  7895160
176
     1
 90
        3
176
     1
 90
        0
176
     1
 90
        0
176
     1
290
     0
176
     1
 90
        5
176
     1
 40
0.0
176
     1
 90
        0
176
     1
290
     0
176
     1
290
     1
176
     1
290
     1
176
     1
290
     0
176
     1
290
     0
176
     1
290
     0
176
     1
290
     0
176
     1
290
     0
176
     1
290
     0
176
     1
 90
       50
176
     1
 40
0.0
176
     1
 40
1.0
176
     1
 90
        0
176
     1
 62
    18
420
        0
176
     1
 90
       50
176
     1
 90
        3
176
     1
 62
     5
420
      255
176
     1
290
     0
176
     1
 90
       50
176
     1
 90
       50
176
     1
 90
       50
176
     1
290
     0
176
     1
 90
       50
176
     1
 62
   256
176
     0
 40
1.0
176
     0
 90
        2
176
     1
  1
strokes_ogs.tif
176
     1
290
     0
176
     1
 40
1.0
176
     1
 40
1.0
176
     1
  0
VISUALSTYLE
  5
182
102
{ACAD_REACTORS
330
16E
102
}
330
16E
100
AcDbVisualStyle
  2
Shaded with edges
 70
    26
177
     3
291
     0
 70
    58
 90
        2
176
     1
 90
        2
176
     1
 90
        1
176
     1
 90
        2
176
     1
 40
0.6
176
     1
 40
30.0
176
     1
 62
     7
420
 16777215
176
     1
 90
        1
176
     1
 90
        2
176
     1
 62
     7
176
     1
 62
   257
176
     1
 90
        2
176
     1
 90
        1
176
     1
 40
1.0
176
     1
 90
        8
176
     1
 62
   257
176
     1
 40
1.0
176
     1
 90
        1
176
     1
 90
        6
176
     1
 90
        2
176
     1
 62
     7
176
     1
 90
        3
176
     1
 90
        0
176
     1
 90
        0
176
     1
290
     0
176
     1
 90
        5
176
     1
 40
0.0
176
     1
 90
        0
176
     1
290
     0
176
     1
290
     1
176
     1
290
     1
176
     1
290
     0
176
     1
290
     0
176
     1
290
     0
176
     1
290
     0
176
     1
290
     0
176
     1
290
     0
176
     1
 90
       50
176
     1
 40
0.0
176
     1
 40
1.0
176
     1
 90
        0
176
     1
 62
    18
420
        0
176
     1
 90
       50
176
     1
 90
        3
176
     1
 62
     5
420
      255
176
     1
290
     0
176
     1
 90
       50
176
     1
 90
       50
176
     1
 90
       50
176
     1
290
     0
176
     1
 90
       50
176
     1
 62
   256
176
     0
 40
1.0
176
     0
 90
        2
176
     1
  1
strokes_ogs.tif
176
     1
290
     0
176
     1
 40
1.0
176
     1
 40
1.0
176
     1
  0
VISUALSTYLE
  5
17F
102
{ACAD_REACTORS
330
16E
102
}
330
16E
100
AcDbVisualStyle
  2
Shades of Gray
 70
    23
177
     3
291
     0
 70
    58
 90
        2
176
     1
 90
        2
176
     1
 90
        3
176
     1
 90
        0
176
     1
 40
0.6
176
     1
 40
30.0
176
     1
 62
     7
420
 16777215
176
     1
 90
        2
176
     1
 90
        2
176
     1
 62
     7
176
     1
 62
     7
176
     1
 90
        1
176
     1
 90
        1
176
     1
 40
40.0
176
     1
 90
        8
176
     1
 62
     7
176
     1
 40
1.0
176
     1
 90
        1
176
     1
 90
        6
176
     1
 90
        2
176
     1
 62
     7
176
     1
 90
        3
176
     1
 90
        0
176
     1
 90
        0
176
     1
290
     0
176
     1
 90
        1
176
     1
 40
0.0
176
     1
 90
        0
176
     1
290
     0
176
     1
290
     1
176
     1
290
     1
176
     1
290
     0
176
     1
290
     0
176
     1
290
     0
176
     1
290
     0
176
     1
290
     0
176
     1
290
     0
176
     1
 90
       50
176
     1
 40
0.0
176
     1
 40
1.0
176
     1
 90
        0
176
     1
 62
    18
420
        0
176
     1
 90
       50
176
     1
 90
        3
176
     1
 62
     5
420
      255
176
     1
290
     0
176
     1
 90
       50
176
     1
 90
       50
176
     1
 90
       50
176
     1
290
     0
176
     1
 90
       50
176
     1
 62
   256
176
     0
 40
1.0
176
     0
 90
        2
176
     1
  1
strokes_ogs.tif
176
     1
290
     0
176
     1
 40
1.0
176
     1
 40
1.0
176
     1
  0
VISUALSTYLE
  5
180
102
{ACAD_REACTORS
330
16E
102
}
330
16E
100
AcDbVisualStyle
  2
Sketchy
 70
    24
177
     3
291
     0
 70
    58
 90
        1
176
     1
 90
        2
176
     1
 90
        2
176
     1
 90
        0
176
     1
 40
0.6
176
     1
 40
30.0
176
     1
 62
     7
420
 16777215
176
     1
 90
        2
176
     1
 90
        2
176
     1
 62
     7
176
     1
 62
     7
176
     1
 90
        1
176
     1
 90
        1
176
     1
 40
40.0
176
     1
 90
       11
176
     1
 62
     7
176
     1
 40
1.0
176
     1
 90
        1
176
     1
 90
        6
176
     1
 90
        2
176
     1
 62
     7
176
     1
 90
        6
176
     1
 90
        0
176
     1
 90
        0
176
     1
290
     0
176
     1
 90
        1
176
     1
 40
0.0
176
     1
 90
        0
176
     1
290
     0
176
     1
290
     1
176
     1
290
     1
176
     1
290
     0
176
     1
290
     0
176
     1
290
     0
176
     1
290
     0
176
     1
290
     0
176
     1
290
     0
176
     1
 90
       50
176
     1
 40
0.0
176
     1
 40
1.0
176
     1
 90
        0
176
     1
 62
    18
420
        0
176
     1
 90
       50
176
     1
 90
        3
176
     1
 62
     5
420
      255
176
     1
290
     0
176
     1
 90
       50
176
     1
 90
       50
176
     1
 90
       50
176
     1
290
     0
176
     1
 90
       50
176
     1
 62
   256
176
     0
 40
1.0
176
     0
 90
        2
176
     1
  1
strokes_ogs.tif
176
     1
290
     0
176
     1
 40
1.0
176
     1
 40
1.0
176
     1
  0
VISUALSTYLE
  5
17B
102
{ACAD_REACTORS
330
16E
102
}
330
16E
100
AcDbVisualStyle
  2
Thicken
 70
    13
177
     3
291
     1
 70
    58
 90
        2
176
     1
 90
        2
176
     1
 90
        0
176
     1
 90
        0
176
     1
 40
0.6
176
     1
 40
30.0
176
     1
 62
     7
420
 16777215
176
     1
 90
        1
176
     1
 90
        4
176
     1
 62
     7
176
     1
 62
   257
176
     1
 90
        1
176
     1
 90
        1
176
     1
 40
1.0
176
     1
 90
       12
176
     1
 62
     7
176
     1
 40
1.0
176
     1
 90
        1
176
     1
 90
        6
176
     1
 90
        2
176
     1
 62
     7
176
     1
 90
        5
176
     1
 90
        0
176
     1
 90
        0
176
     1
290
     0
176
     1
 90
        1
176
     1
 40
0.0
176
     1
 90
        0
176
     1
290
     0
176
     1
290
     1
176
     1
290
     1
176
     1
290
     0
176
     1
290
     0
176
     1
290
     0
176
     1
290
     0
176
     1
290
     0
176
     1
290
     0
176
     1
 90
       50
176
     1
 40
0.0
176
     1
 40
1.0
176
     1
 90
        0
176
     1
 62
    18
420
        0
176
     1
 90
       50
176
     1
 90
        3
176
     1
 62
     5
420
      255
176
     1
290
     0
176
     1
 90
       50
176
     1
 90
       50
176
     1
 90
       50
176
     1
290
     0
176
     1
 90
       50
176
     1
 62
   256
176
     0
 40
1.0
176
     0
 90
        2
176
     1
  1
strokes_ogs.tif
176
     1
290
     0
176
     1
 40
1.0
176
     1
 40
1.0
176
     1
  0
VISUALSTYLE
  5
175
102
{ACAD_REACTORS
330
16E
102
}
330
16E
100
AcDbVisualStyle
  2
Wireframe
 70
     5
177
     3
291
     0
 70
    58
 90
        0
176
     1
 90
        2
176
     1
 90
        0
176
     1
 90
        0
176
     1
 40
0.6
176
     1
 40
30.0
176
     1
 62
     7
420
 16777215
176
     1
 90
        1
176
     1
 90
        4
176
     1
 62
     7
176
     1
 62
   257
176
     1
 90
        1
176
     1
 90
        1
176
     1
 40
1.0
176
     1
 90
        0
176
     1
 62
   257
176
     1
 40
1.0
176
     1
 90
        1
176
     1
 90
        6
176
     1
 90
        2
176
     1
 62
     7
176
     1
 90
        3
176
     1
 90
        0
176
     1
 90
        0
176
     1
290
     0
176
     1
 90
        1
176
     1
 40
0.0
176
     1
 90
        0
176
     1
290
     0
176
     1
290
     1
176
     1
290
     1
176
     1
290
     0
176
     1
290
     0
176
     1
290
     0
176
     1
290
     0
176
     1
290
     0
176
     1
290
     0
176
     1
 90
       50
176
     1
 40
0.0
176
     1
 40
1.0
176
     1
 90
        0
176
     1
 62
    18
420
        0
176
     1
 90
       50
176
     1
 90
        3
176
     1
 62
     5
420
      255
176
     1
290
     0
176
     1
 90
       50
176
     1
 90
       50
176
     1
 90
       50
176
     1
290
     0
176
     1
 90
       50
176
     1
 62
   256
176
     0
 40
1.0
176
     0
 90
        2
176
     1
  1
strokes_ogs.tif
176
     1
290
     0
176
     1
 40
1.0
176
     1
 40
1.0
176
     1
  0
VISUALSTYLE
  5
181
102
{ACAD_REACTORS
330
16E
102
}
330
16E
100
AcDbVisualStyle
  2
X-Ray
 70
    25
177
     3
291
     0
 70
    58
 90
        2
176
     1
 90
        2
176
     1
 90
        1
176
     1
 90
        1
176
     1
 40
0.5
176
     1
 40
30.0
176
     1
 62
     7
420
 16777215
176
     1
 90
        1
176
     1
 90
        0
176
     1
 62
     7
176
     1
 62
   257
176
     1
 90
        1
176
     1
 90
        1
176
     1
 40
1.0
176
     1
 90
        8
176
     1
 62
     7
176
     1
 40
1.0
176
     1
 90
        1
176
     1
 90
        6
176
     1
 90
        2
176
     1
 62
     7
176
     1
 90
        3
176
     1
 90
        0
176
     1
 90
        0
176
     1
290
     0
176
     1
 90
       13
176
     1
 40
0.0
176
     1
 90
        0
176
     1
290
     0
176
     1
290
     1
176
     1
290
     1
176
     1
290
     0
176
     1
290
     0
176
     1
290
     0
176
     1
290
     0
176
     1
290
     0
176
     1
290
     0
176
     1
 90
       50
176
     1
 40
0.0
176
     1
 40
1.0
176
     1
 90
        0
176
     1
 62
    18
420
        0
176
     1
 90
       50
176
     1
 90
        3
176
     1
 62
     5
420
      255
176
     1
290
     0
176
     1
 90
       50
176
     1
 90
       50
176
     1
 90
       50
176
     1
290
     0
176
     1
 90
       50
176
     1
 62
   256
176
     0
 40
1.0
176
     0
 90
        2
176
     1
  1
strokes_ogs.tif
176
     1
290
     0
176
     1
 40
1.0
176
     1
 40
1.0
176
     1
  0
DICTIONARYVAR
  5
19A
102
{ACAD_REACTORS
330
194
102
}
330
194
100
DictionaryVariables
280
     0
  1
1:1
  0
DICTIONARYVAR
  5
196
102
{ACAD_REACTORS
330
194
102
}
330
194
100
DictionaryVariables
280
     0
  1
STANDARD
  0
DICTIONARYVAR
  5
195
102
{ACAD_REACTORS
330
194
102
}
330
194
100
DictionaryVariables
280
     0
  1
STANDARD
  0
DICTIONARYVAR
  5
197
102
{ACAD_REACTORS
330
194
102
}
330
194
100
DictionaryVariables
280
     0
  1
Metric50
  0
DICTIONARYVAR
  5
198
102
{ACAD_REACTORS
330
194
102
}
330
194
100
DictionaryVariables
280
     0
  1
Metric50
  0
DICTIONARYVAR
  5
19C
102
{ACAD_REACTORS
330
194
102
}
330
194
100
DictionaryVariables
280
     0
  1
1
  0
DICTIONARYVAR
  5
19D
102
{ACAD_REACTORS
330
194
102
}
330
194
100
DictionaryVariables
280
     0
  1
15
  0
DICTIONARYVAR
  5
19B
102
{ACAD_REACTORS
330
194
102
}
330
194
100
DictionaryVariables
280
     0
  1
0
  0
DICTIONARYVAR
  5
199
102
{ACAD_REACTORS
330
194
102
}
330
194
100
DictionaryVariables
280
     0
  1
0
  0
DICTIONARY
  5
2C5
102
{ACAD_REACTORS
330
2C4
102
}
330
2C4
100
AcDbDictionary
281
     1
  3
*A1
350
2C6
  0
DICTIONARY
  5
2B7
102
{ACAD_REACTORS
330
2B6
102
}
330
2B6
100
AcDbDictionary
281
     1
  3
*A1
350
2B8
  0
DICTIONARY
  5
2A9
102
{ACAD_REACTORS
330
2A8
102
}
330
2A8
100
AcDbDictionary
281
     1
  3
*A1
350
2AA
  0
DICTIONARY
  5
29B
102
{ACAD_REACTORS
330
29A
102
}
330
29A
100
AcDbDictionary
281
     1
  3
*A1
350
29C
  0
DICTIONARY
  5
28D
102
{ACAD_REACTORS
330
28C
102
}
330
28C
100
AcDbDictionary
281
     1
  3
*A1
350
28E
  0
DICTIONARY
  5
27F
102
{ACAD_REACTORS
330
27E
102
}
330
27E
100
AcDbDictionary
281
     1
  3
*A1
350
280
  0
DICTIONARY
  5
271
102
{ACAD_REACTORS
330
270
102
}
330
270
100
AcDbDictionary
281
     1
  3
*A1
350
272
  0
DICTIONARY
  5
2E1
102
{ACAD_REACTORS
330
2E0
102
}
330
2E0
100
AcDbDictionary
281
     1
  3
*A1
350
2E2
  0
DICTIONARY
  5
2D3
102
{ACAD_REACTORS
330
2D2
102
}
330
2D2
100
AcDbDictionary
281
     1
  3
*A1
350
2D4
  0
DICTIONARY
  5
2FD
102
{ACAD_REACTORS
330
2FC
102
}
330
2FC
100
AcDbDictionary
281
     1
  3
*A1
350
2FE
  0
DICTIONARY
  5
15F
330
15E
100
AcDbDictionary
280
     1
281
     1
  3
BUMPTILE
360
161
  3
DIFFUSETILE
360
160
  3
OPACITYTILE
360
164
  3
REFLECTIONTILE
360
163
  3
REFRACTIONTILE
360
165
  3
SPECULARTILE
360
162
  0
DICTIONARY
  5
157
330
156
100
AcDbDictionary
280
     1
281
     1
  3
BUMPTILE
360
159
  3
DIFFUSETILE
360
158
  3
OPACITYTILE
360
15C
  3
REFLECTIONTILE
360
15B
  3
REFRACTIONTILE
360
15D
  3
SPECULARTILE
360
15A
  0
DICTIONARY
  5
167
330
166
100
AcDbDictionary
280
     1
281
     1
  3
BUMPTILE
360
169
  3
DIFFUSETILE
360
168
  3
OPACITYTILE
360
16C
  3
REFLECTIONTILE
360
16B
  3
REFRACTIONTILE
360
16D
  3
SPECULARTILE
360
16A
  0
DICTIONARY
  5
30C
330
189
100
AcDbDictionary
280
     1
281
     1
  3
ACAD_ROUNDTRIP_2008_TABLESTYLE_CELLSTYLEMAP
360
30D
  0
ACDB_ALDIMOBJECTCONTEXTDATA_CLASS
  5
2C6
102
{ACAD_REACTORS
330
2C5
102
}
330
2C5
100
AcDbObjectContextData
 70
     4
290
     1
100
AcDbAnnotScaleObjectContextData
340
48
100
AcDbDimensionObjectContextData
  2
*D21
293
     0
 10
-31.2643576813
 20
-279.839068045
294
     0
140
0.0
298
     0
291
     0
 70
     0
292
     0
 71
     0
280
     0
295
     0
296
     0
297
     0
100
AcDbAlignedDimensionObjectContextData
 11
-135.4179139928
 21
-279.839068045
 31
0.0
  0
ACDB_ALDIMOBJECTCONTEXTDATA_CLASS
  5
2B8
102
{ACAD_REACTORS
330
2B7
102
}
330
2B7
100
AcDbObjectContextData
 70
     4
290
     1
100
AcDbAnnotScaleObjectContextData
340
48
100
AcDbDimensionObjectContextData
  2
*D20
293
     0
 10
127.2820851939
 20
-127.7002155936
294
     0
140
0.0
298
     0
291
     0
 70
     0
292
     0
 71
     0
280
     0
295
     0
296
     0
297
     0
100
AcDbAlignedDimensionObjectContextData
 11
127.2820851939
 21
0.1640307810000066
 31
0.0
  0
ACDB_ALDIMOBJECTCONTEXTDATA_CLASS
  5
2AA
102
{ACAD_REACTORS
330
2A9
102
}
330
2A9
100
AcDbObjectContextData
 70
     4
290
     1
100
AcDbAnnotScaleObjectContextData
340
48
100
AcDbDimensionObjectContextData
  2
*D19
293
     0
 10
-208.4179139928
 20
-75.2265960694
294
     0
140
0.0
298
     0
291
     0
 70
     0
292
     0
 71
     0
280
     0
295
     0
296
     0
297
     0
100
AcDbAlignedDimensionObjectContextData
 11
-208.4179139928
 21
90.16403078100003
 31
0.0
  0
ACDB_ALDIMOBJECTCONTEXTDATA_CLASS
  5
29C
102
{ACAD_REACTORS
330
29B
102
}
330
29B
100
AcDbObjectContextData
 70
     4
290
     1
100
AcDbAnnotScaleObjectContextData
340
48
100
AcDbDimensionObjectContextData
  2
*D18
293
     0
 10
201.667638191
 20
-190.9083653576
294
     0
140
0.0
298
     0
291
     0
 70
     0
292
     0
 71
     0
280
     0
295
     0
296
     0
297
     0
100
AcDbAlignedDimensionObjectContextData
 11
201.6676381910001
 21
-239.8390680450001
 31
0.0
  0
ACDB_ALDIMOBJECTCONTEXTDATA_CLASS
  5
28E
102
{ACAD_REACTORS
330
28D
102
}
330
28D
100
AcDbObjectContextData
 70
     4
290
     1
100
AcDbAnnotScaleObjectContextData
340
48
100
AcDbDimensionObjectContextData
  2
*D17
293
     0
 10
383.667638191
 20
-151.8004060995
294
     0
140
0.0
298
     0
291
     0
 70
     0
292
     0
 71
     0
280
     0
295
     0
296
     0
297
     0
100
AcDbAlignedDimensionObjectContextData
 11
383.6676381910001
 21
-194.2940680450001
 31
0.0
  0
ACDB_ALDIMOBJECTCONTEXTDATA_CLASS
  5
280
102
{ACAD_REACTORS
330
27F
102
}
330
27F
100
AcDbObjectContextData
 70
     4
290
     1
100
AcDbAnnotScaleObjectContextData
340
48
100
AcDbDimensionObjectContextData
  2
*D16
293
     0
 10
274.7529842457
 20
-279.839068045
294
     0
140
0.0
298
     0
291
     0
 70
     0
292
     0
 71
     0
280
     0
295
     0
296
     0
297
     0
100
AcDbAlignedDimensionObjectContextData
 11
302.667638191
 21
-279.839068045
 31
0.0
  0
ACDB_ALDIMOBJECTCONTEXTDATA_CLASS
  5
272
102
{ACAD_REACTORS
330
271
102
}
330
271
100
AcDbObjectContextData
 70
     4
290
     1
100
AcDbAnnotScaleObjectContextData
340
48
100
AcDbDimensionObjectContextData
  2
*D15
293
     0
 10
275.6861138046
 20
118.164030781
294
     0
140
0.0
298
     0
291
     0
 70
     0
292
     0
 71
     0
280
     0
295
     0
296
     0
297
     0
100
AcDbAlignedDimensionObjectContextData
 11
262.9861138046
 21
118.164030781
 31
0.0
  0
ACDB_ALDIMOBJECTCONTEXTDATA_CLASS
  5
2E2
102
{ACAD_REACTORS
330
2E1
102
}
330
2E1
100
AcDbObjectContextData
 70
     4
290
     1
100
AcDbAnnotScaleObjectContextData
340
48
100
AcDbDimensionObjectContextData
  2
*D23
293
     0
 10
-208.4179139928
 20
228.1276191763
294
     0
140
0.0
298
     0
291
     0
 70
     0
292
     0
 71
     0
280
     0
295
     0
296
     0
297
     0
100
AcDbAlignedDimensionObjectContextData
 11
-208.4179139928001
 21
293.7494472362001
 31
0.0
  0
ACDB_ALDIMOBJECTCONTEXTDATA_CLASS
  5
2D4
102
{ACAD_REACTORS
330
2D3
102
}
330
2D3
100
AcDbObjectContextData
 70
     4
290
     1
100
AcDbAnnotScaleObjectContextData
340
48
100
AcDbDimensionObjectContextData
  2
*D22
293
     0
 10
-137.3423198154
 20
315.7494472362
294
     0
140
0.0
298
     0
291
     0
 70
     0
292
     0
 71
     0
280
     0
295
     0
296
     0
297
     0
100
AcDbAlignedDimensionObjectContextData
 11
-113.1279139928
 21
315.7494472362
 31
0.0
  0
ACDB_ALDIMOBJECTCONTEXTDATA_CLASS
  5
2FE
102
{ACAD_REACTORS
330
2FD
102
}
330
2FD
100
AcDbObjectContextData
 70
     4
290
     1
100
AcDbAnnotScaleObjectContextData
340
48
100
AcDbDimensionObjectContextData
  2
*D25
293
     0
 10
-194.3879270540156
 20
256.605523430747
294
     1
140
0.0
298
     0
291
     0
 70
     0
292
     0
 71
     0
280
     0
295
     0
296
     0
297
     0
100
AcDbAlignedDimensionObjectContextData
 11
-183.6113273209949
 21
219.6316444172331
 31
0.0
  0
XRECORD
  5
161
102
{ACAD_REACTORS
330
15F
102
}
330
15F
100
AcDbXrecord
280
     1
270
     1
271
     1
  0
XRECORD
  5
160
102
{ACAD_REACTORS
330
15F
102
}
330
15F
100
AcDbXrecord
280
     1
270
     1
271
     1
  0
XRECORD
  5
164
102
{ACAD_REACTORS
330
15F
102
}
330
15F
100
AcDbXrecord
280
     1
270
     1
271
     1
  0
XRECORD
  5
163
102
{ACAD_REACTORS
330
15F
102
}
330
15F
100
AcDbXrecord
280
     1
270
     1
271
     1
  0
XRECORD
  5
165
102
{ACAD_REACTORS
330
15F
102
}
330
15F
100
AcDbXrecord
280
     1
270
     1
271
     1
  0
XRECORD
  5
162
102
{ACAD_REACTORS
330
15F
102
}
330
15F
100
AcDbXrecord
280
     1
270
     1
271
     1
  0
XRECORD
  5
159
102
{ACAD_REACTORS
330
157
102
}
330
157
100
AcDbXrecord
280
     1
270
     1
271
     1
  0
XRECORD
  5
158
102
{ACAD_REACTORS
330
157
102
}
330
157
100
AcDbXrecord
280
     1
270
     1
271
     1
  0
XRECORD
  5
15C
102
{ACAD_REACTORS
330
157
102
}
330
157
100
AcDbXrecord
280
     1
270
     1
271
     1
  0
XRECORD
  5
15B
102
{ACAD_REACTORS
330
157
102
}
330
157
100
AcDbXrecord
280
     1
270
     1
271
     1
  0
XRECORD
  5
15D
102
{ACAD_REACTORS
330
157
102
}
330
157
100
AcDbXrecord
280
     1
270
     1
271
     1
  0
XRECORD
  5
15A
102
{ACAD_REACTORS
330
157
102
}
330
157
100
AcDbXrecord
280
     1
270
     1
271
     1
  0
XRECORD
  5
169
102
{ACAD_REACTORS
330
167
102
}
330
167
100
AcDbXrecord
280
     1
270
     1
271
     1
  0
XRECORD
  5
168
102
{ACAD_REACTORS
330
167
102
}
330
167
100
AcDbXrecord
280
     1
270
     1
271
     1
  0
XRECORD
  5
16C
102
{ACAD_REACTORS
330
167
102
}
330
167
100
AcDbXrecord
280
     1
270
     1
271
     1
  0
XRECORD
  5
16B
102
{ACAD_REACTORS
330
167
102
}
330
167
100
AcDbXrecord
280
     1
270
     1
271
     1
  0
XRECORD
  5
16D
102
{ACAD_REACTORS
330
167
102
}
330
167
100
AcDbXrecord
280
     1
270
     1
271
     1
  0
XRECORD
  5
16A
102
{ACAD_REACTORS
330
167
102
}
330
167
100
AcDbXrecord
280
     1
270
     1
271
     1
  0
CELLSTYLEMAP
  5
30D
102
{ACAD_REACTORS
330
30C
102
}
330
30C
100
AcDbCellStyleMap
 90
        3
300
CELLSTYLE
  1
TABLEFORMAT_BEGIN
 90
        5
170
     1
 91
        0
 92
    32768
 62
   257
 93
        1
300
CONTENTFORMAT
  1
CONTENTFORMAT_BEGIN
 90
        0
 91
        0
 92
      512
 93
        0
300

 40
0.0
140
1.0
 94
        5
 62
     0
340
11
144
6.0
309
CONTENTFORMAT_END
171
     1
301
MARGIN
  1
CELLMARGIN_BEGIN
 40
1.5
 40
1.5
 40
1.5
 40
1.5
 40
4.5
 40
4.5
309
CELLMARGIN_END
 94
        6
 95
        1
302
GRIDFORMAT
  1
GRIDFORMAT_BEGIN
 90
        0
 91
        1
 62
     0
 92
       -2
340
0
 93
        0
 40
1.125
309
GRIDFORMAT_END
 95
        2
302
GRIDFORMAT
  1
GRIDFORMAT_BEGIN
 90
        0
 91
        1
 62
     0
 92
       -2
340
0
 93
        0
 40
1.125
309
GRIDFORMAT_END
 95
        4
302
GRIDFORMAT
  1
GRIDFORMAT_BEGIN
 90
        0
 91
        1
 62
     0
 92
       -2
340
0
 93
        0
 40
1.125
309
GRIDFORMAT_END
 95
        8
302
GRIDFORMAT
  1
GRIDFORMAT_BEGIN
 90
        0
 91
        1
 62
     0
 92
       -2
340
0
 93
        0
 40
1.125
309
GRIDFORMAT_END
 95
       16
302
GRIDFORMAT
  1
GRIDFORMAT_BEGIN
 90
        0
 91
        1
 62
     0
 92
       -2
340
0
 93
        0
 40
1.125
309
GRIDFORMAT_END
 95
       32
302
GRIDFORMAT
  1
GRIDFORMAT_BEGIN
 90
        0
 91
        1
 62
     0
 92
       -2
340
0
 93
        0
 40
1.125
309
GRIDFORMAT_END
309
TABLEFORMAT_END
  1
CELLSTYLE_BEGIN
 90
        1
 91
        1
300
_TITLE
309
CELLSTYLE_END
300
CELLSTYLE
  1
TABLEFORMAT_BEGIN
 90
        5
170
     1
 91
        0
 92
        0
 62
   257
 93
        1
300
CONTENTFORMAT
  1
CONTENTFORMAT_BEGIN
 90
        0
 91
        0
 92
      512
 93
        0
300

 40
0.0
140
1.0
 94
        5
 62
     0
340
11
144
4.5
309
CONTENTFORMAT_END
171
     1
301
MARGIN
  1
CELLMARGIN_BEGIN
 40
1.5
 40
1.5
 40
1.5
 40
1.5
 40
4.5
 40
4.5
309
CELLMARGIN_END
 94
        6
 95
        1
302
GRIDFORMAT
  1
GRIDFORMAT_BEGIN
 90
        0
 91
        1
 62
     0
 92
       -2
340
0
 93
        0
 40
1.125
309
GRIDFORMAT_END
 95
        2
302
GRIDFORMAT
  1
GRIDFORMAT_BEGIN
 90
        0
 91
        1
 62
     0
 92
       -2
340
0
 93
        0
 40
1.125
309
GRIDFORMAT_END
 95
        4
302
GRIDFORMAT
  1
GRIDFORMAT_BEGIN
 90
        0
 91
        1
 62
     0
 92
       -2
340
0
 93
        0
 40
1.125
309
GRIDFORMAT_END
 95
        8
302
GRIDFORMAT
  1
GRIDFORMAT_BEGIN
 90
        0
 91
        1
 62
     0
 92
       -2
340
0
 93
        0
 40
1.125
309
GRIDFORMAT_END
 95
       16
302
GRIDFORMAT
  1
GRIDFORMAT_BEGIN
 90
        0
 91
        1
 62
     0
 92
       -2
340
0
 93
        0
 40
1.125
309
GRIDFORMAT_END
 95
       32
302
GRIDFORMAT
  1
GRIDFORMAT_BEGIN
 90
        0
 91
        1
 62
     0
 92
       -2
340
0
 93
        0
 40
1.125
309
GRIDFORMAT_END
309
TABLEFORMAT_END
  1
CELLSTYLE_BEGIN
 90
        2
 91
        1
300
_HEADER
309
CELLSTYLE_END
300
CELLSTYLE
  1
TABLEFORMAT_BEGIN
 90
        5
170
     1
 91
        0
 92
        0
 62
   257
 93
        1
300
CONTENTFORMAT
  1
CONTENTFORMAT_BEGIN
 90
        0
 91
        0
 92
      512
 93
        0
300

 40
0.0
140
1.0
 94
        2
 62
     0
340
11
144
4.5
309
CONTENTFORMAT_END
171
     1
301
MARGIN
  1
CELLMARGIN_BEGIN
 40
1.5
 40
1.5
 40
1.5
 40
1.5
 40
4.5
 40
4.5
309
CELLMARGIN_END
 94
        6
 95
        1
302
GRIDFORMAT
  1
GRIDFORMAT_BEGIN
 90
        0
 91
        1
 62
     0
 92
       -2
340
0
 93
        0
 40
1.125
309
GRIDFORMAT_END
 95
        2
302
GRIDFORMAT
  1
GRIDFORMAT_BEGIN
 90
        0
 91
        1
 62
     0
 92
       -2
340
0
 93
        0
 40
1.125
309
GRIDFORMAT_END
 95
        4
302
GRIDFORMAT
  1
GRIDFORMAT_BEGIN
 90
        0
 91
        1
 62
     0
 92
       -2
340
0
 93
        0
 40
1.125
309
GRIDFORMAT_END
 95
        8
302
GRIDFORMAT
  1
GRIDFORMAT_BEGIN
 90
        0
 91
        1
 62
     0
 92
       -2
340
0
 93
        0
 40
1.125
309
GRIDFORMAT_END
 95
       16
302
GRIDFORMAT
  1
GRIDFORMAT_BEGIN
 90
        0
 91
        1
 62
     0
 92
       -2
340
0
 93
        0
 40
1.125
309
GRIDFORMAT_END
 95
       32
302
GRIDFORMAT
  1
GRIDFORMAT_BEGIN
 90
        0
 91
        1
 62
     0
 92
       -2
340
0
 93
        0
 40
1.125
309
GRIDFORMAT_END
309
TABLEFORMAT_END
  1
CELLSTYLE_BEGIN
 90
        3
 91
        2
300
_DATA
309
CELLSTYLE_END
  0
ENDSEC
  0
EOF
