  0
SECTION
  2
HEADER
  9
$ACADVER
  1
AC1032
  9
$ACADMAINTVER
 90
      174
  9
$DWGCODEPAGE
  3
ANSI_1252
  9
$LASTSAVEDBY
  1
pengb
  9
$REQUIREDVERSIONS
160
                 0
  9
$INSBASE
 10
0.0
 20
0.0
 30
0.0
  9
$EXTMIN
 10
-3.47350976834241
 20
-7.599929126910751
 30
-0.0015258207003583
  9
$EXTMAX
 10
469.7122202740427
 20
408.1302803618952
 30
0.0000000349246037
  9
$LIMMIN
 10
0.0
 20
0.0
  9
$LIMMAX
 10
420.0
 20
297.0
  9
$ORTHOMODE
 70
     0
  9
$REGENMODE
 70
     1
  9
$FILLMODE
 70
     1
  9
$QTEXTMODE
 70
     0
  9
$MIRRTEXT
 70
     1
  9
$LTSCALE
 40
1.0
  9
$ATTMODE
 70
     1
  9
$TEXTSIZE
 40
3.5
  9
$TRACEWID
 40
1.0
  9
$TEXTSTYLE
  7
Standard
  9
$CLAYER
  8
0
  9
$CELTYPE
  6
ByLayer
  9
$CECOLOR
 62
   256
  9
$CELTSCALE
 40
1.0
  9
$DISPSILH
 70
     0
  9
$DIMSCALE
 40
1.0
  9
$DIMASZ
 40
3.302
  9
$DIMEXO
 40
1.0
  9
$DIMDLI
 40
3.75
  9
$DIMRND
 40
0.0
  9
$DIMDLE
 40
0.0
  9
$DIMEXE
 40
1.0
  9
$DIMTP
 40
0.0
  9
$DIMTM
 40
0.0
  9
$DIMTXT
 40
3.5
  9
$DIMCEN
 40
2.5
  9
$DIMTSZ
 40
0.0
  9
$DIMTOL
 70
     0
  9
$DIMLIM
 70
     0
  9
$DIMTIH
 70
     1
  9
$DIMTOH
 70
     1
  9
$DIMSE1
 70
     0
  9
$DIMSE2
 70
     0
  9
$DIMTAD
 70
     1
  9
$DIMZIN
 70
     1
  9
$DIMBLK
  1

  9
$DIMASO
 70
     1
  9
$DIMSHO
 70
     1
  9
$DIMPOST
  1

  9
$DIMAPOST
  1

  9
$DIMALT
 70
     0
  9
$DIMALTD
 70
     3
  9
$DIMALTF
 40
0.0393700787
  9
$DIMLFAC
 40
2.0
  9
$DIMTOFL
 70
     1
  9
$DIMTVP
 40
0.0
  9
$DIMTIX
 70
     0
  9
$DIMSOXD
 70
     0
  9
$DIMSAH
 70
     0
  9
$DIMBLK1
  1

  9
$DIMBLK2
  1

  9
$DIMSTYLE
  2
ISO-25
  9
$DIMCLRD
 70
     0
  9
$DIMCLRE
 70
     0
  9
$DIMCLRT
 70
     0
  9
$DIMTFAC
 40
1.0
  9
$DIMGAP
 40
1.524
  9
$DIMJUST
 70
     0
  9
$DIMSD1
 70
     0
  9
$DIMSD2
 70
     0
  9
$DIMTOLJ
 70
     0
  9
$DIMTZIN
 70
     1
  9
$DIMALTZ
 70
     0
  9
$DIMALTTZ
 70
     0
  9
$DIMUPT
 70
     0
  9
$DIMDEC
 70
     2
  9
$DIMTDEC
 70
     2
  9
$DIMALTU
 70
     2
  9
$DIMALTTD
 70
     3
  9
$DIMTXSTY
  7
Standard
  9
$DIMAUNIT
 70
     0
  9
$DIMADEC
 70
     2
  9
$DIMALTRND
 40
0.0
  9
$DIMAZIN
 70
     0
  9
$DIMDSEP
 70
    44
  9
$DIMATFIT
 70
     3
  9
$DIMFRAC
 70
     0
  9
$DIMLDRBLK
  1

  9
$DIMLUNIT
 70
     2
  9
$DIMLWD
 70
    -2
  9
$DIMLWE
 70
    -2
  9
$DIMTMOVE
 70
     0
  9
$DIMFXL
 40
1.0
  9
$DIMFXLON
 70
     0
  9
$DIMJOGANG
 40
0.7853981633974483
  9
$DIMTFILL
 70
     0
  9
$DIMTFILLCLR
 70
     0
  9
$DIMARCSYM
 70
     0
  9
$DIMLTYPE
  6

  9
$DIMLTEX1
  6

  9
$DIMLTEX2
  6

  9
$DIMTXTDIRECTION
 70
     0
  9
$LUNITS
 70
     2
  9
$LUPREC
 70
     2
  9
$SKETCHINC
 40
1.0
  9
$FILLETRAD
 40
10.0
  9
$AUNITS
 70
     0
  9
$AUPREC
 70
     2
  9
$MENU
  1
.
  9
$ELEVATION
 40
0.0
  9
$PELEVATION
 40
0.0
  9
$THICKNESS
 40
0.0
  9
$LIMCHECK
 70
     0
  9
$CHAMFERA
 40
0.0
  9
$CHAMFERB
 40
0.0
  9
$CHAMFERC
 40
0.0
  9
$CHAMFERD
 40
0.0
  9
$SKPOLY
 70
     0
  9
$TDCREATE
 40
2459979.494039352
  9
$TDUCREATE
 40
2459979.035708183
  9
$TDUPDATE
 40
2460007.459745370
  9
$TDUUPDATE
 40
2460007.001412037
  9
$TDINDWG
 40
0.0007870486
  9
$TDUSRTIMER
 40
0.0007870486
  9
$USRTIMER
 70
     1
  9
$ANGBASE
 50
0.0
  9
$ANGDIR
 70
     0
  9
$PDMODE
 70
     0
  9
$PDSIZE
 40
-1.0
  9
$PLINEWID
 40
0.0
  9
$SPLFRAME
 70
     0
  9
$SPLINETYPE
 70
     6
  9
$SPLINESEGS
 70
     8
  9
$HANDSEED
  5
4B8
  9
$SURFTAB1
 70
     6
  9
$SURFTAB2
 70
     6
  9
$SURFTYPE
 70
     6
  9
$SURFU
 70
     6
  9
$SURFV
 70
     6
  9
$UCSBASE
  2

  9
$UCSNAME
  2

  9
$UCSORG
 10
0.0
 20
0.0
 30
0.0
  9
$UCSXDIR
 10
1.0
 20
0.0
 30
0.0
  9
$UCSYDIR
 10
0.0
 20
1.0
 30
0.0
  9
$UCSORTHOREF
  2

  9
$UCSORTHOVIEW
 70
     0
  9
$UCSORGTOP
 10
0.0
 20
0.0
 30
0.0
  9
$UCSORGBOTTOM
 10
0.0
 20
0.0
 30
0.0
  9
$UCSORGLEFT
 10
0.0
 20
0.0
 30
0.0
  9
$UCSORGRIGHT
 10
0.0
 20
0.0
 30
0.0
  9
$UCSORGFRONT
 10
0.0
 20
0.0
 30
0.0
  9
$UCSORGBACK
 10
0.0
 20
0.0
 30
0.0
  9
$PUCSBASE
  2

  9
$PUCSNAME
  2

  9
$PUCSORG
 10
0.0
 20
0.0
 30
0.0
  9
$PUCSXDIR
 10
1.0
 20
0.0
 30
0.0
  9
$PUCSYDIR
 10
0.0
 20
1.0
 30
0.0
  9
$PUCSORTHOREF
  2

  9
$PUCSORTHOVIEW
 70
     0
  9
$PUCSORGTOP
 10
0.0
 20
0.0
 30
0.0
  9
$PUCSORGBOTTOM
 10
0.0
 20
0.0
 30
0.0
  9
$PUCSORGLEFT
 10
0.0
 20
0.0
 30
0.0
  9
$PUCSORGRIGHT
 10
0.0
 20
0.0
 30
0.0
  9
$PUCSORGFRONT
 10
0.0
 20
0.0
 30
0.0
  9
$PUCSORGBACK
 10
0.0
 20
0.0
 30
0.0
  9
$USERI1
 70
     0
  9
$USERI2
 70
     0
  9
$USERI3
 70
     0
  9
$USERI4
 70
     0
  9
$USERI5
 70
     0
  9
$USERR1
 40
0.0
  9
$USERR2
 40
0.0
  9
$USERR3
 40
0.0
  9
$USERR4
 40
0.0
  9
$USERR5
 40
0.0
  9
$WORLDVIEW
 70
     1
  9
$SHADEDGE
 70
     3
  9
$SHADEDIF
 70
    70
  9
$TILEMODE
 70
     1
  9
$MAXACTVP
 70
    64
  9
$PINSBASE
 10
0.0
 20
0.0
 30
0.0
  9
$PLIMCHECK
 70
     0
  9
$PEXTMIN
 10
1.000000000000000E+20
 20
1.000000000000000E+20
 30
1.000000000000000E+20
  9
$PEXTMAX
 10
-1.000000000000000E+20
 20
-1.000000000000000E+20
 30
-1.000000000000000E+20
  9
$PLIMMIN
 10
0.0
 20
0.0
  9
$PLIMMAX
 10
420.0
 20
297.0
  9
$UNITMODE
 70
     0
  9
$VISRETAIN
 70
     1
  9
$PLINEGEN
 70
     0
  9
$PSLTSCALE
 70
     1
  9
$TREEDEPTH
 70
  3020
  9
$CMLSTYLE
  2
Standard
  9
$CMLJUST
 70
     0
  9
$CMLSCALE
 40
20.0
  9
$PROXYGRAPHICS
 70
     1
  9
$MEASUREMENT
 70
     1
  9
$CELWEIGHT
370
    -1
  9
$ENDCAPS
280
     0
  9
$JOINSTYLE
280
     0
  9
$LWDISPLAY
290
     1
  9
$INSUNITS
 70
     4
  9
$HYPERLINKBASE
  1

  9
$STYLESHEET
  1

  9
$XEDIT
290
     1
  9
$CEPSNTYPE
380
     0
  9
$PSTYLEMODE
290
     1
  9
$FINGERPRINTGUID
  2
{13CAB85F-83FC-4E48-AC13-9D817477B09A}
  9
$VERSIONGUID
  2
{BA8C50FA-BBCD-194B-9FCC-436B32483063}
  9
$EXTNAMES
290
     1
  9
$PSVPSCALE
 40
0.0
  9
$OLESTARTUP
290
     0
  9
$SORTENTS
280
   127
  9
$INDEXCTL
280
     0
  9
$HIDETEXT
280
     0
  9
$XCLIPFRAME
280
     2
  9
$HALOGAP
280
     0
  9
$OBSCOLOR
 70
   257
  9
$OBSLTYPE
280
     0
  9
$INTERSECTIONDISPLAY
280
     0
  9
$INTERSECTIONCOLOR
 70
   257
  9
$DIMASSOC
280
     1
  9
$PROJECTNAME
  1

  9
$CAMERADISPLAY
290
     0
  9
$LENSLENGTH
 40
50.0
  9
$CAMERAHEIGHT
 40
0.0
  9
$STEPSPERSEC
 40
2.0
  9
$STEPSIZE
 40
6.0
  9
$3DDWFPREC
 40
2.0
  9
$PSOLWIDTH
 40
0.25
  9
$PSOLHEIGHT
 40
4.0
  9
$LOFTANG1
 40
1.570796326794896
  9
$LOFTANG2
 40
1.570796326794896
  9
$LOFTMAG1
 40
0.0
  9
$LOFTMAG2
 40
0.0
  9
$LOFTPARAM
 70
     7
  9
$LOFTNORMALS
280
     1
  9
$LATITUDE
 40
37.795
  9
$LONGITUDE
 40
-122.394
  9
$NORTHDIRECTION
 40
0.0
  9
$TIMEZONE
 70
 -8000
  9
$LIGHTGLYPHDISPLAY
280
     1
  9
$TILEMODELIGHTSYNCH
280
     1
  9
$CMATERIAL
347
3D9
  9
$SOLIDHIST
280
     0
  9
$SHOWHIST
280
     1
  9
$DWFFRAME
280
     2
  9
$DGNFRAME
280
     0
  9
$REALWORLDSCALE
290
     1
  9
$INTERFERECOLOR
 62
     1
  9
$INTERFEREOBJVS
345
3FB
  9
$INTERFEREVPVS
346
3F8
  9
$CSHADOW
280
     0
  9
$SHADOWPLANELOCATION
 40
0.0
  0
ENDSEC
  0
SECTION
  2
CLASSES
  0
CLASS
  1
ACDBDICTIONARYWDFLT
  2
AcDbDictionaryWithDefault
  3
ObjectDBX Classes
 90
        0
 91
        1
280
     0
281
     0
  0
CLASS
  1
VISUALSTYLE
  2
AcDbVisualStyle
  3
ObjectDBX Classes
 90
     4095
 91
       24
280
     0
281
     0
  0
CLASS
  1
MATERIAL
  2
AcDbMaterial
  3
ObjectDBX Classes
 90
     1153
 91
        3
280
     0
281
     0
  0
CLASS
  1
SCALE
  2
AcDbScale
  3
ObjectDBX Classes
 90
     1153
 91
       33
280
     0
281
     0
  0
CLASS
  1
TABLESTYLE
  2
AcDbTableStyle
  3
ObjectDBX Classes
 90
     4095
 91
        1
280
     0
281
     0
  0
CLASS
  1
MLEADERSTYLE
  2
AcDbMLeaderStyle
  3
ACDB_MLEADERSTYLE_CLASS
 90
     4095
 91
        1
280
     0
281
     0
  0
CLASS
  1
SUN
  2
AcDbSun
  3
SCENEOE
 90
     1153
 91
        0
280
     0
281
     0
  0
CLASS
  1
ACDBSECTIONVIEWSTYLE
  2
AcDbSectionViewStyle
  3
ObjectDBX Classes
 90
     1025
 91
        1
280
     0
281
     0
  0
CLASS
  1
ACDBDETAILVIEWSTYLE
  2
AcDbDetailViewStyle
  3
ObjectDBX Classes
 90
     1025
 91
        1
280
     0
281
     0
  0
CLASS
  1
DICTIONARYVAR
  2
AcDbDictionaryVar
  3
ObjectDBX Classes
 90
        0
 91
        9
280
     0
281
     0
  0
CLASS
  1
ACDB_ALDIMOBJECTCONTEXTDATA_CLASS
  2
AcDbAlignedDimensionObjectContextData
  3
ObjectDBX Classes
 90
     1153
 91
        7
280
     0
281
     0
  0
CLASS
  1
CELLSTYLEMAP
  2
AcDbCellStyleMap
  3
ObjectDBX Classes
 90
     1152
 91
        1
280
     0
281
     0
  0
ENDSEC
  0
SECTION
  2
TABLES
  0
TABLE
  2
VPORT
  5
8
330
0
100
AcDbSymbolTable
 70
     1
  0
VPORT
  5
29
330
8
100
AcDbSymbolTableRecord
100
AcDbViewportTableRecord
  2
*Active
 70
     0
 10
0.0
 20
0.0
 11
1.0
 21
1.0
 12
233.1193552528501
 22
200.2651756174923
 13
0.0
 23
0.0
 14
10.0
 24
10.0
 15
10.0
 25
10.0
 16
0.0
 26
0.0
 36
1.0
 17
0.0
 27
0.0
 37
0.0
 40
417.280477516732
 41
1.907960199004975
 42
50.0
 43
0.0
 44
0.0
 50
0.0
 51
0.0
 71
     0
 72
  2000
 73
     1
 74
     3
 75
     0
 76
     0
 77
     0
 78
     0
281
     0
 65
     1
110
0.0
120
0.0
130
0.0
111
1.0
121
0.0
131
0.0
112
0.0
122
1.0
132
0.0
 79
     0
146
0.0
348
3F7
 60
     3
 61
     5
292
     1
282
     1
141
0.0
142
0.0
 63
   250
421
  3355443
1001
ACAD_NAV_VCDISPLAY
1070
     3
  0
ENDTAB
  0
TABLE
  2
LTYPE
  5
5
330
0
100
AcDbSymbolTable
 70
     6
  0
LTYPE
  5
14
330
5
100
AcDbSymbolTableRecord
100
AcDbLinetypeTableRecord
  2
ByBlock
 70
     0
  3

 72
    65
 73
     0
 40
0.0
  0
LTYPE
  5
15
330
5
100
AcDbSymbolTableRecord
100
AcDbLinetypeTableRecord
  2
ByLayer
 70
     0
  3

 72
    65
 73
     0
 40
0.0
  0
LTYPE
  5
16
330
5
100
AcDbSymbolTableRecord
100
AcDbLinetypeTableRecord
  2
Continuous
 70
     0
  3
Solid line
 72
    65
 73
     0
 40
0.0
  0
LTYPE
  5
6E
330
5
100
AcDbSymbolTableRecord
100
AcDbLinetypeTableRecord
  2
HIDDEN
 70
     0
  3
Hidden __ __ __ __ __ __ __ __ __ __ __ __ __ __
 72
    65
 73
     2
 40
1.905
 49
1.27
 74
     0
 49
-0.635
 74
     0
  0
LTYPE
  5
6F
330
5
100
AcDbSymbolTableRecord
100
AcDbLinetypeTableRecord
  2
PHANTOM
 70
     0
  3
Phantom ______  __  __  ______  __  __  ______
 72
    65
 73
     6
 40
12.7
 49
6.349999999999999
 74
     0
 49
-1.27
 74
     0
 49
1.27
 74
     0
 49
-1.27
 74
     0
 49
1.27
 74
     0
 49
-1.27
 74
     0
  0
LTYPE
  5
70
330
5
100
AcDbSymbolTableRecord
100
AcDbLinetypeTableRecord
  2
CENTER
 70
     0
  3
Center ____ _ ____ _ ____ _ ____ _ ____ _ ____
 72
    65
 73
     4
 40
10.16
 49
6.349999999999999
 74
     0
 49
-1.27
 74
     0
 49
1.27
 74
     0
 49
-1.27
 74
     0
  0
LTYPE
  5
71
330
5
100
AcDbSymbolTableRecord
100
AcDbLinetypeTableRecord
  2
CENTERX2
 70
     0
  3
Center (2x) ________  __  ________  __  _____
 72
    65
 73
     4
 40
20.32
 49
12.7
 74
     0
 49
-2.54
 74
     0
 49
2.54
 74
     0
 49
-2.54
 74
     0
  0
LTYPE
  5
72
330
5
100
AcDbSymbolTableRecord
100
AcDbLinetypeTableRecord
  2
DOT2
 70
     0
  3
Dot (.5x) ........................................
 72
    65
 73
     2
 40
0.635
 49
0.0
 74
     0
 49
-0.635
 74
     0
  0
ENDTAB
  0
TABLE
  2
LAYER
  5
2
102
{ACAD_XDICTIONARY
360
433
102
}
330
0
100
AcDbSymbolTable
 70
     4
  0
LAYER
  5
10
102
{ACAD_XDICTIONARY
360
4AF
102
}
330
2
100
AcDbSymbolTableRecord
100
AcDbLayerTableRecord
  2
0
 70
     0
 62
     7
  6
Continuous
370
    -3
390
F
347
3E9
348
0
  0
LAYER
  5
73
102
{ACAD_XDICTIONARY
360
4B1
102
}
330
2
100
AcDbSymbolTableRecord
100
AcDbLayerTableRecord
  2
FORMAT
 70
     0
 62
     7
  6
Continuous
370
    -3
390
F
347
3E9
348
0
  0
LAYER
  5
42B
330
2
100
AcDbSymbolTableRecord
100
AcDbLayerTableRecord
  2
Defpoints
 70
     0
 62
     7
  6
Continuous
290
     0
370
    -3
390
F
347
3E9
348
0
  0
LAYER
  5
42C
102
{ACAD_XDICTIONARY
360
4B3
102
}
330
2
100
AcDbSymbolTableRecord
100
AcDbLayerTableRecord
  2
DIMENSION
 70
     0
 62
   255
  6
Continuous
370
    -3
390
F
347
3E9
348
0
  0
ENDTAB
  0
TABLE
  2
STYLE
  5
3
330
0
100
AcDbSymbolTable
 70
     2
  0
STYLE
  5
11
330
3
100
AcDbSymbolTableRecord
100
AcDbTextStyleTableRecord
  2
Standard
 70
     0
 40
0.0
 41
1.0
 50
0.0
 71
     0
 42
3.5
  3
txt
  4

  0
STYLE
  5
350
330
3
100
AcDbSymbolTableRecord
100
AcDbTextStyleTableRecord
  2
SLDTEXTSTYLE0
 70
     0
 40
0.0
 41
0.75
 50
0.0
 71
     0
 42
3.5
  3
TXT
  4

  0
ENDTAB
  0
TABLE
  2
VIEW
  5
6
330
0
100
AcDbSymbolTable
 70
     0
  0
ENDTAB
  0
TABLE
  2
UCS
  5
7
330
0
100
AcDbSymbolTable
 70
     0
  0
ENDTAB
  0
TABLE
  2
APPID
  5
9
330
0
100
AcDbSymbolTable
 70
     7
  0
APPID
  5
12
330
9
100
AcDbSymbolTableRecord
100
AcDbRegAppTableRecord
  2
ACAD
 70
     0
  0
APPID
  5
416
330
9
100
AcDbSymbolTableRecord
100
AcDbRegAppTableRecord
  2
ACAD_NAV_VCDISPLAY
 70
     0
  0
APPID
  5
42E
330
9
100
AcDbSymbolTableRecord
100
AcDbRegAppTableRecord
  2
ACAD_PSEXT
 70
     0
  0
APPID
  5
42F
330
9
100
AcDbSymbolTableRecord
100
AcDbRegAppTableRecord
  2
AcadAnnotative
 70
     0
  0
APPID
  5
430
330
9
100
AcDbSymbolTableRecord
100
AcDbRegAppTableRecord
  2
ACAD_DSTYLE_DIMJAG
 70
     0
  0
APPID
  5
431
330
9
100
AcDbSymbolTableRecord
100
AcDbRegAppTableRecord
  2
ACAD_DSTYLE_DIMTALN
 70
     0
  0
APPID
  5
432
330
9
100
AcDbSymbolTableRecord
100
AcDbRegAppTableRecord
  2
ACAD_DSTYLE_DIMBREAK
 70
     0
  0
ENDTAB
  0
TABLE
  2
DIMSTYLE
  5
A
330
0
100
AcDbSymbolTable
 70
     3
100
AcDbDimStyleTable
 71
     2
340
42D
340
27
  0
DIMSTYLE
105
27
330
A
100
AcDbSymbolTableRecord
100
AcDbDimStyleTableRecord
  2
ISO-25
 70
     0
 41
2.5
 42
0.625
 43
3.75
 44
1.25
 73
     0
 74
     0
 77
     1
 78
     8
140
2.5
141
2.5
143
0.0393700787
147
0.625
171
     3
172
     1
271
     2
272
     2
274
     3
278
    44
283
     0
284
     8
340
11
  0
DIMSTYLE
105
351
330
A
100
AcDbSymbolTableRecord
100
AcDbDimStyleTableRecord
  2
SLDDIMSTYLE0
 70
     0
 41
3.302
 44
0.0
 45
0.000000001
 73
     0
 74
     0
 77
     1
 78
     4
 79
     1
140
3.5
147
0.875
173
     1
271
     2
272
     2
276
     2
284
    12
340
350
341
352
343
352
344
352
  0
DIMSTYLE
105
42D
102
{ACAD_REACTORS
330
436
330
3CD
330
390
330
35C
330
34F
330
486
102
}
330
A
100
AcDbSymbolTableRecord
100
AcDbDimStyleTableRecord
  2
RG Dimension Lines
 70
     0
 40
12.0
 41
3.5
 42
1.0
 43
10.0
 44
5.0
 49
5.0
 77
     2
140
8.0
141
0.0
147
4.0
172
     1
176
   256
177
   256
178
     7
271
     0
272
     0
290
     1
340
11
341
352
342
352
371
     0
372
     0
1001
ACAD_DSTYLE_DIMBREAK
1070
   391
1040
0.125
1001
AcadAnnotative
1000
AnnotativeData
1002
{
1070
     1
1070
     1
1002
}
1001
ACAD_DSTYLE_DIMJAG
1070
   388
1040
1.5
1001
ACAD_DSTYLE_DIMTALN
1070
   392
1070
     0
  0
ENDTAB
  0
TABLE
  2
BLOCK_RECORD
  5
1
330
0
100
AcDbSymbolTable
 70
    15
  0
BLOCK_RECORD
  5
1F
330
1
100
AcDbSymbolTableRecord
100
AcDbBlockTableRecord
  2
*Model_Space
340
22
 70
     0
280
     1
281
     0
  0
BLOCK_RECORD
  5
1B
330
1
100
AcDbSymbolTableRecord
100
AcDbBlockTableRecord
  2
*Paper_Space
340
1E
 70
     0
280
     1
281
     0
  0
BLOCK_RECORD
  5
23
330
1
100
AcDbSymbolTableRecord
100
AcDbBlockTableRecord
  2
*Paper_Space0
340
26
 70
     0
280
     1
281
     0
  0
BLOCK_RECORD
  5
352
330
1
100
AcDbSymbolTableRecord
100
AcDbBlockTableRecord
  2
_None
340
0
 70
     0
280
     1
281
     0
  0
BLOCK_RECORD
  5
355
330
1
100
AcDbSymbolTableRecord
100
AcDbBlockTableRecord
  2
_D
340
0
 70
     0
280
     1
281
     0
  0
BLOCK_RECORD
  5
35D
330
1
100
AcDbSymbolTableRecord
100
AcDbBlockTableRecord
  2
_D_1
340
0
 70
     0
280
     1
281
     0
  0
BLOCK_RECORD
  5
391
330
1
100
AcDbSymbolTableRecord
100
AcDbBlockTableRecord
  2
_D_2
340
0
 70
     0
280
     1
281
     0
  0
BLOCK_RECORD
  5
3CE
330
1
100
AcDbSymbolTableRecord
100
AcDbBlockTableRecord
  2
_D_3
340
0
 70
     0
280
     1
281
     0
  0
BLOCK_RECORD
  5
421
330
1
100
AcDbSymbolTableRecord
100
AcDbBlockTableRecord
  2
*D6
340
0
 70
     0
280
     1
281
     0
  0
BLOCK_RECORD
  5
444
330
1
100
AcDbSymbolTableRecord
100
AcDbBlockTableRecord
  2
*D8
340
0
 70
     0
280
     1
281
     0
  0
BLOCK_RECORD
  5
44E
330
1
100
AcDbSymbolTableRecord
100
AcDbBlockTableRecord
  2
*D9
340
0
 70
     0
280
     1
281
     0
  0
BLOCK_RECORD
  5
45C
330
1
100
AcDbSymbolTableRecord
100
AcDbBlockTableRecord
  2
*D10
340
0
 70
     0
280
     1
281
     0
  0
BLOCK_RECORD
  5
46A
330
1
100
AcDbSymbolTableRecord
100
AcDbBlockTableRecord
  2
*D11
340
0
 70
     0
280
     1
281
     0
  0
BLOCK_RECORD
  5
478
330
1
100
AcDbSymbolTableRecord
100
AcDbBlockTableRecord
  2
*D12
340
0
 70
     0
280
     1
281
     0
  0
BLOCK_RECORD
  5
487
330
1
100
AcDbSymbolTableRecord
100
AcDbBlockTableRecord
  2
*D13
340
0
 70
     0
280
     1
281
     0
  0
BLOCK_RECORD
  5
493
330
1
100
AcDbSymbolTableRecord
100
AcDbBlockTableRecord
  2
*D14
340
0
 70
     0
280
     1
281
     0
  0
ENDTAB
  0
ENDSEC
  0
SECTION
  2
BLOCKS
  0
BLOCK
  5
20
330
1F
100
AcDbEntity
  8
0
100
AcDbBlockBegin
  2
*Model_Space
 70
     0
 10
0.0
 20
0.0
 30
0.0
  3
*Model_Space
  1

  0
ENDBLK
  5
21
330
1F
100
AcDbEntity
  8
0
100
AcDbBlockEnd
  0
BLOCK
  5
1C
330
1B
100
AcDbEntity
 67
     1
  8
0
100
AcDbBlockBegin
  2
*Paper_Space
 70
     0
 10
0.0
 20
0.0
 30
0.0
  3
*Paper_Space
  1

  0
ENDBLK
  5
1D
330
1B
100
AcDbEntity
 67
     1
  8
0
100
AcDbBlockEnd
  0
BLOCK
  5
24
330
23
100
AcDbEntity
 67
     1
  8
0
100
AcDbBlockBegin
  2
*Paper_Space0
 70
     0
 10
0.0
 20
0.0
 30
0.0
  3
*Paper_Space0
  1

  0
ENDBLK
  5
25
330
23
100
AcDbEntity
 67
     1
  8
0
100
AcDbBlockEnd
  0
BLOCK
  5
353
330
352
100
AcDbEntity
  8
0
100
AcDbBlockBegin
  2
_None
 70
     0
 10
0.0
 20
0.0
 30
0.0
  3
_None
  1

  0
ENDBLK
  5
354
330
352
100
AcDbEntity
  8
0
100
AcDbBlockEnd
  0
BLOCK
  5
356
330
355
100
AcDbEntity
  8
0
100
AcDbBlockBegin
  2
_D
 70
     0
 10
0.0
 20
0.0
 30
0.0
  3
_D
  1

  0
LINE
  5
358
330
355
100
AcDbEntity
  8
0
  6
Continuous
 62
     7
440
 16777216
370
     0
100
AcDbLine
 10
25.0567152279
 20
23.9689521012
 30
0.0
 11
11.5287594386
 21
23.9689521012
 31
0.0
  0
LINE
  5
359
330
355
100
AcDbEntity
  8
0
  6
Continuous
 62
     7
440
 16777216
370
     0
100
AcDbLine
 10
25.0567152279
 20
103.9689521012
 30
0.0
 11
11.5287594386
 21
103.9689521012
 31
0.0
  0
LINE
  5
35A
330
355
100
AcDbEntity
  8
0
  6
Continuous
 62
     7
440
 16777216
370
     0
100
AcDbLine
 10
12.5287594386
 20
23.9689521012
 30
0.0
 11
12.5287594386
 21
103.9689521012
 31
0.0
  0
MTEXT
  5
35B
330
355
100
AcDbEntity
  8
0
  6
Continuous
 62
     7
440
 16777216
370
    18
100
AcDbMText
 10
8.017022523999999
 20
58.1984849538
 30
0.0
 40
3.5
 41
0.0
 46
0.0
 71
     1
 72
     1
  1
80.00
  7
SLDTEXTSTYLE0
 11
-0.0000000000000002
 21
1.0
 31
0.0
 73
     1
 44
1.0
  0
ENDBLK
  5
357
330
355
100
AcDbEntity
  8
0
100
AcDbBlockEnd
  0
BLOCK
  5
35E
330
35D
100
AcDbEntity
  8
0
100
AcDbBlockBegin
  2
_D_1
 70
     0
 10
0.0
 20
0.0
 30
0.0
  3
_D_1
  1

  0
LINE
  5
360
330
35D
100
AcDbEntity
  8
0
  6
Continuous
 62
     7
440
 16777216
370
     0
100
AcDbLine
 10
146.1137652072
 20
88.71617561369999
 30
0.0
 11
146.1137652072
 21
136.4825455175
 31
0.0
  0
LINE
  5
361
330
35D
100
AcDbEntity
  8
0
  6
Continuous
 62
     7
440
 16777216
370
     0
100
AcDbLine
 10
190.9137652072
 20
87.2158782316
 30
0.0
 11
190.9137652072
 21
136.4825455175
 31
0.0
  0
LINE
  5
362
330
35D
100
AcDbEntity
  8
0
  6
Continuous
 62
     7
440
 16777216
370
     0
100
AcDbLine
 10
146.1137652072
 20
135.4825455175
 30
0.0
 11
190.9137652072
 21
135.4825455175
 31
0.0
  0
MTEXT
  5
363
330
35D
100
AcDbEntity
  8
0
  6
Continuous
 62
     7
440
 16777216
370
    18
100
AcDbMText
 10
161.5997338964
 20
139.9942826067
 30
0.0
 40
3.5
 41
0.0
 46
0.0
 71
     1
 72
     1
  1
%%c
  7
SLDTEXTSTYLE0
 73
     1
 44
1.0
  0
MTEXT
  5
364
330
35D
100
AcDbEntity
  8
0
  6
Continuous
 62
     7
440
 16777216
370
    18
100
AcDbMText
 10
166.8781712948
 20
140.0477547833
 30
0.0
 40
3.5
 41
0.0
 46
0.0
 71
     1
 72
     1
  1
45.00
  7
SLDTEXTSTYLE0
 73
     1
 44
1.0
  0
ENDBLK
  5
35F
330
35D
100
AcDbEntity
  8
0
100
AcDbBlockEnd
  0
BLOCK
  5
392
330
391
100
AcDbEntity
  8
0
100
AcDbBlockBegin
  2
_D_2
 70
     0
 10
0.0
 20
0.0
 30
0.0
  3
_D_2
  1

  0
LINE
  5
394
330
391
100
AcDbEntity
  8
0
  6
Continuous
 62
     7
440
 16777216
370
     0
100
AcDbLine
 10
270.2492247692
 20
37.3282301391
 30
0.0
 11
270.2492247692
 21
3.4174967969
 31
0.0
  0
LINE
  5
395
330
391
100
AcDbEntity
  8
0
  6
Continuous
 62
     7
440
 16777216
370
     0
100
AcDbLine
 10
469.7111548156
 20
17.8008104059
 30
0.0
 11
469.7111548156
 21
3.4174967969
 31
0.0
  0
LINE
  5
396
330
391
100
AcDbEntity
  8
0
  6
Continuous
 62
     7
440
 16777216
370
     0
100
AcDbLine
 10
270.2492247692
 20
4.4174967969
 30
0.0
 11
469.7111548156
 21
4.4174967969
 31
0.0
  0
MTEXT
  5
397
330
391
100
AcDbEntity
  8
0
  6
Continuous
 62
     7
440
 16777216
370
    18
100
AcDbMText
 10
366.0093292977
 20
8.9292337115
 30
0.0
 40
3.5
 41
0.0
 46
0.0
 71
     1
 72
     1
  1
200.00
  7
SLDTEXTSTYLE0
 73
     1
 44
1.0
  0
ENDBLK
  5
393
330
391
100
AcDbEntity
  8
0
100
AcDbBlockEnd
  0
BLOCK
  5
3CF
330
3CE
100
AcDbEntity
  8
0
100
AcDbBlockBegin
  2
_D_3
 70
     0
 10
0.0
 20
0.0
 30
0.0
  3
_D_3
  1

  0
LINE
  5
3D1
330
3CE
100
AcDbEntity
  8
0
  6
Continuous
 62
     7
440
 16777216
370
     0
100
AcDbLine
 10
28.5287594386
 20
378.1601331812
 30
0.0
 11
28.5287594386
 21
397.123937184
 31
0.0
  0
LINE
  5
3D2
330
3CE
100
AcDbEntity
  8
0
  6
Continuous
 62
     7
440
 16777216
370
     0
100
AcDbLine
 10
208.5287594386
 20
378.2773054568
 30
0.0
 11
208.5287594386
 21
397.123937184
 31
0.0
  0
LINE
  5
3D3
330
3CE
100
AcDbEntity
  8
0
  6
Continuous
 62
     7
440
 16777216
370
     0
100
AcDbLine
 10
28.5287594386
 20
396.123937184
 30
0.0
 11
208.5287594386
 21
396.123937184
 31
0.0
  0
MTEXT
  5
3D4
330
3CE
100
AcDbEntity
  8
0
  6
Continuous
 62
     7
440
 16777216
370
    18
100
AcDbMText
 10
110.3833765725
 20
400.6356740985999
 30
0.0
 40
3.5
 41
0.0
 46
0.0
 71
     1
 72
     1
  1
180.00
  7
SLDTEXTSTYLE0
 73
     1
 44
1.0
  0
ENDBLK
  5
3D0
330
3CE
100
AcDbEntity
  8
0
100
AcDbBlockEnd
  0
BLOCK
  5
422
330
421
100
AcDbEntity
  8
0
100
AcDbBlockBegin
  2
*D6
 70
     1
 10
0.0
 20
0.0
 30
0.0
  3
*D6
  1

  0
LINE
  5
423
330
421
100
AcDbEntity
  8
DIMENSION
440
 16777216
370
     0
100
AcDbLine
 10
1092.625159377854
 20
969.7937323929265
 30
0.0
 11
1092.569709633547
 21
979.7935786580374
 31
0.0
  0
LINE
  5
424
330
421
100
AcDbEntity
  8
DIMENSION
440
 16777216
370
     0
100
AcDbLine
 10
1454.657182624691
 20
971.8012215670347
 30
0.0
 11
1454.601732880384
 21
981.8010678321458
 31
0.0
  0
LINE
  5
425
330
421
100
AcDbEntity
  8
DIMENSION
440
 16777216
370
     0
100
AcDbLine
 10
1092.597434505701
 20
974.793655525482
 30
0.0
 11
1454.629457752537
 21
976.8011446995902
 31
0.0
  0
MTEXT
  5
426
330
421
100
AcDbEntity
  8
DIMENSION
 62
     7
440
 16777216
100
AcDbMText
 10
1273.568105608173
 20
983.9741418578535
 30
0.0
 40
8.0
 41
0.0
 46
0.0
 71
     5
 72
     1
  1
\A1;362
 73
     1
 44
1.0
  0
POINT
  5
427
330
421
100
AcDbEntity
  8
Defpoints
 62
     0
440
 16777216
100
AcDbPoint
 10
1092.771920384362
 20
943.3267482592359
 30
0.0
  0
POINT
  5
428
330
421
100
AcDbEntity
  8
Defpoints
 62
     0
440
 16777216
100
AcDbPoint
 10
1454.803943631198
 20
945.3342374333443
 30
0.0
  0
POINT
  5
429
330
421
100
AcDbEntity
  8
Defpoints
 62
     0
440
 16777216
100
AcDbPoint
 10
1454.629457752537
 20
976.8011446995902
 30
0.0
  0
ENDBLK
  5
42A
330
421
100
AcDbEntity
  8
0
100
AcDbBlockEnd
  0
BLOCK
  5
445
330
444
100
AcDbEntity
  8
0
100
AcDbBlockBegin
  2
*D8
 70
     1
 10
0.0
 20
0.0
 30
0.0
  3
*D8
  1

  0
LINE
  5
447
330
444
100
AcDbEntity
  8
DIMENSION
440
 16777216
370
     0
100
AcDbLine
 10
312.4494364946095
 20
230.9515975731194
 30
0.0
 11
312.3939867503026
 21
240.9514438382305
 31
0.0
  0
LINE
  5
448
330
444
100
AcDbEntity
  8
DIMENSION
440
 16777216
370
     0
100
AcDbLine
 10
674.4814597414461
 20
232.9590867472276
 30
0.0
 11
674.4260099971391
 21
242.9589330123387
 31
0.0
  0
LINE
  5
449
330
444
100
AcDbEntity
  8
DIMENSION
440
 16777216
370
     0
100
AcDbLine
 10
312.421711622456
 20
235.9515207056749
 30
0.0
 11
674.4537348692927
 21
237.9590098797832
 31
0.0
  0
MTEXT
  5
44A
330
444
100
AcDbEntity
  8
DIMENSION
 62
     7
440
 16777216
100
AcDbMText
 10
493.3929131801859
 20
245.0363443601788
 30
0.0
 40
8.0
 41
0.0
 46
0.0
 71
     5
 72
     1
  1
\A1;362
 73
     1
 44
1.0
  0
POINT
  5
44B
330
444
100
AcDbEntity
  8
Defpoints
 62
     0
440
 16777216
100
AcDbPoint
 10
312.5961975011171
 20
204.4846134394288
 30
0.0
  0
POINT
  5
44C
330
444
100
AcDbEntity
  8
Defpoints
 62
     0
440
 16777216
100
AcDbPoint
 10
674.6282207479537
 20
206.4921026135371
 30
0.0
  0
POINT
  5
44D
330
444
100
AcDbEntity
  8
Defpoints
 62
     0
440
 16777216
100
AcDbPoint
 10
674.4537348692927
 20
237.9590098797832
 30
0.0
  0
ENDBLK
  5
446
330
444
100
AcDbEntity
  8
0
100
AcDbBlockEnd
  0
BLOCK
  5
44F
330
44E
100
AcDbEntity
  8
0
100
AcDbBlockBegin
  2
*D9
 70
     1
 10
0.0
 20
0.0
 30
0.0
  3
*D9
  1

  0
LINE
  5
451
330
44E
100
AcDbEntity
  8
DIMENSION
440
 16777216
370
     0
100
AcDbLine
 10
28.5287594386
 20
391.123937184
 30
0.0
 11
28.5287594386
 21
401.123937184
 31
0.0
  0
LINE
  5
452
330
44E
100
AcDbEntity
  8
DIMENSION
440
 16777216
370
     0
100
AcDbLine
 10
208.5287594386
 20
391.123937184
 30
0.0
 11
208.5287594386
 21
401.123937184
 31
0.0
  0
LINE
  5
453
330
44E
100
AcDbEntity
  8
DIMENSION
440
 16777216
370
     0
100
AcDbLine
 10
28.5287594386
 20
396.123937184
 30
0.0
 11
208.5287594386
 21
396.123937184
 31
0.0
  0
MTEXT
  5
454
330
44E
100
AcDbEntity
  8
DIMENSION
 62
     7
440
 16777216
100
AcDbMText
 10
117.4951825293
 20
408.1239371839999
 30
0.0
 40
8.0
 41
0.0
 46
0.0
 71
     2
 72
     1
  1
\A1;180
 73
     1
 44
1.0
  0
POINT
  5
455
330
44E
100
AcDbEntity
  8
Defpoints
 62
     0
440
 16777216
100
AcDbPoint
 10
28.5287594386
 20
374.123937184
 30
0.0
  0
POINT
  5
456
330
44E
100
AcDbEntity
  8
Defpoints
 62
     0
440
 16777216
100
AcDbPoint
 10
208.5287594386
 20
374.123937184
 30
0.0
  0
POINT
  5
457
330
44E
100
AcDbEntity
  8
Defpoints
 62
     0
440
 16777216
100
AcDbPoint
 10
208.5287594386
 20
396.123937184
 30
0.0
  0
ENDBLK
  5
450
330
44E
100
AcDbEntity
  8
0
100
AcDbBlockEnd
  0
BLOCK
  5
45D
330
45C
100
AcDbEntity
  8
0
100
AcDbBlockBegin
  2
*D10
 70
     1
 10
0.0
 20
0.0
 30
0.0
  3
*D10
  1

  0
LINE
  5
4A8
330
45C
100
AcDbEntity
  8
DIMENSION
440
 16777216
370
     0
100
AcDbLine
 10
270.2492247692
 20
9.417496796899996
 30
0.0
 11
270.2492247692
 21
-0.5825032031000035
 31
0.0
  0
LINE
  5
4A9
330
45C
100
AcDbEntity
  8
DIMENSION
440
 16777216
370
     0
100
AcDbLine
 10
469.7111548156
 20
9.4174967969
 30
0.0
 11
469.7111548156
 21
-0.5825032031
 31
0.0
  0
LINE
  5
4AA
330
45C
100
AcDbEntity
  8
DIMENSION
440
 16777216
370
     0
100
AcDbLine
 10
270.2492247692
 20
4.4174967969
 30
0.0
 11
469.7111548156
 21
4.4174967969
 31
0.0
  0
MTEXT
  5
4AB
330
45C
100
AcDbEntity
  8
DIMENSION
 62
     7
440
 16777216
100
AcDbMText
 10
373.1211352544999
 20
0.4174967969000001
 30
0.0
 40
8.0
 41
0.0
 46
0.0
 71
     2
 72
     1
  1
\A1;200
 73
     1
 44
1.0
  0
POINT
  5
4AC
330
45C
100
AcDbEntity
  8
Defpoints
 62
     0
440
 16777216
100
AcDbPoint
 10
270.2492247692
 20
42.3098133367
 30
0.0
  0
POINT
  5
4AD
330
45C
100
AcDbEntity
  8
Defpoints
 62
     0
440
 16777216
100
AcDbPoint
 10
469.7111548156
 20
23.9689521012
 30
0.0
  0
POINT
  5
4AE
330
45C
100
AcDbEntity
  8
Defpoints
 62
     0
440
 16777216
100
AcDbPoint
 10
469.7111548156
 20
4.4174967969
 30
0.0
  0
ENDBLK
  5
45E
330
45C
100
AcDbEntity
  8
0
100
AcDbBlockEnd
  0
BLOCK
  5
46B
330
46A
100
AcDbEntity
  8
0
100
AcDbBlockBegin
  2
*D11
 70
     1
 10
0.0
 20
0.0
 30
0.0
  3
*D11
  1

  0
LINE
  5
46D
330
46A
100
AcDbEntity
  8
DIMENSION
440
 16777216
370
     0
100
AcDbLine
 10
146.1137652072
 20
130.4825455175
 30
0.0
 11
146.1137652072
 21
140.4825455175
 31
0.0
  0
LINE
  5
46E
330
46A
100
AcDbEntity
  8
DIMENSION
440
 16777216
370
     0
100
AcDbLine
 10
190.9137652072
 20
130.4825455175
 30
0.0
 11
190.9137652072
 21
140.4825455175
 31
0.0
  0
LINE
  5
46F
330
46A
100
AcDbEntity
  8
DIMENSION
440
 16777216
370
     0
100
AcDbLine
 10
146.1137652072
 20
135.4825455175
 30
0.0
 11
190.9137652072
 21
135.4825455175
 31
0.0
  0
MTEXT
  5
470
330
46A
100
AcDbEntity
  8
DIMENSION
 62
     7
440
 16777216
100
AcDbMText
 10
170.0577028393
 20
147.4825455175
 30
0.0
 40
8.0
 41
0.0
 46
0.0
 71
     2
 72
     1
  1
\A1;%%c45
 73
     1
 44
1.0
  0
POINT
  5
471
330
46A
100
AcDbEntity
  8
Defpoints
 62
     0
440
 16777216
100
AcDbPoint
 10
146.1137652072
 20
63.9685361367
 30
0.0
  0
POINT
  5
472
330
46A
100
AcDbEntity
  8
Defpoints
 62
     0
440
 16777216
100
AcDbPoint
 10
190.9137652072
 20
63.9685361367
 30
0.0
  0
POINT
  5
473
330
46A
100
AcDbEntity
  8
Defpoints
 62
     0
440
 16777216
100
AcDbPoint
 10
190.9137652072
 20
135.4825455175
 30
0.0
  0
ENDBLK
  5
46C
330
46A
100
AcDbEntity
  8
0
100
AcDbBlockEnd
  0
BLOCK
  5
479
330
478
100
AcDbEntity
  8
0
100
AcDbBlockBegin
  2
*D12
 70
     1
 10
0.0
 20
0.0
 30
0.0
  3
*D12
  1

  0
LINE
  5
47B
330
478
100
AcDbEntity
  8
DIMENSION
440
 16777216
370
     0
100
AcDbLine
 10
17.52875943859999
 20
23.9689521012
 30
0.0
 11
7.52875943859999
 21
23.9689521012
 31
0.0
  0
LINE
  5
47C
330
478
100
AcDbEntity
  8
DIMENSION
440
 16777216
370
     0
100
AcDbLine
 10
17.52875943859997
 20
103.9689521012
 30
0.0
 11
7.528759438599973
 21
103.9689521012
 31
0.0
  0
LINE
  5
47D
330
478
100
AcDbEntity
  8
DIMENSION
440
 16777216
370
     0
100
AcDbLine
 10
12.52875943859999
 20
23.9689521012
 30
0.0
 11
12.52875943859997
 21
103.9689521012
 31
0.0
  0
MTEXT
  5
47E
330
478
100
AcDbEntity
  8
DIMENSION
 62
     7
440
 16777216
100
AcDbMText
 10
2.528759438599998
 20
68.0172351975
 30
0.0
 40
8.0
 41
0.0
 46
0.0
 71
     2
 72
     1
  1
\A1;80
 73
     1
 44
1.0
  0
POINT
  5
47F
330
478
100
AcDbEntity
  8
Defpoints
 62
     0
440
 16777216
100
AcDbPoint
 10
28.52875943860002
 20
23.96895210120001
 30
0.0
  0
POINT
  5
480
330
478
100
AcDbEntity
  8
Defpoints
 62
     0
440
 16777216
100
AcDbPoint
 10
28.52875943860002
 20
103.9689521012
 30
0.0
  0
POINT
  5
481
330
478
100
AcDbEntity
  8
Defpoints
 62
     0
440
 16777216
100
AcDbPoint
 10
12.52875943859997
 20
103.9689521012
 30
0.0
  0
ENDBLK
  5
47A
330
478
100
AcDbEntity
  8
0
100
AcDbBlockEnd
  0
BLOCK
  5
488
330
487
100
AcDbEntity
  8
0
100
AcDbBlockBegin
  2
*D13
 70
     1
 10
0.0
 20
0.0
 30
0.0
  3
*D13
  1

  0
LINE
  5
48A
330
487
100
AcDbEntity
  8
0
 62
     0
440
 16777216
370
    -2
100
AcDbLine
 10
259.2111548156
 20
64.9689521012
 30
0.0
 11
259.2111548156
 21
138.3470066780849
 31
0.0
  0
LINE
  5
48B
330
487
100
AcDbEntity
  8
0
 62
     0
440
 16777216
370
    -2
100
AcDbLine
 10
469.7111548156
 20
64.9689521012
 30
0.0
 11
469.7111548156
 21
138.3470066780849
 31
0.0
  0
LINE
  5
48C
330
487
100
AcDbEntity
  8
0
 62
     0
440
 16777216
370
    -2
100
AcDbLine
 10
262.5131548156001
 20
137.3470066780849
 30
0.0
 11
466.4091548155999
 21
137.3470066780849
 31
0.0
  0
SOLID
  5
48D
330
487
100
AcDbEntity
  8
0
 62
     0
440
 16777216
100
AcDbTrace
 10
262.5131548156001
 20
137.8973400114182
 30
0.0
 11
262.5131548156001
 21
136.7966733447515
 31
0.0
 12
259.2111548156
 22
137.3470066780849
 32
0.0
 13
259.2111548156
 23
137.3470066780849
 33
0.0
  0
SOLID
  5
48E
330
487
100
AcDbEntity
  8
0
 62
     0
440
 16777216
100
AcDbTrace
 10
466.4091548155999
 20
137.8973400114182
 30
0.0
 11
466.4091548155999
 21
136.7966733447515
 31
0.0
 12
469.7111548156
 22
137.3470066780849
 32
0.0
 13
469.7111548156
 23
137.3470066780849
 33
0.0
  0
MTEXT
  5
48F
330
487
100
AcDbEntity
  8
0
 62
     0
440
 16777216
100
AcDbMText
 10
364.4611548156
 20
140.9126733447515
 30
0.0
 40
3.5
 41
0.0
 46
0.0
 71
     5
 72
     1
  1
421,00
 73
     1
 44
1.0
  0
POINT
  5
490
330
487
100
AcDbEntity
  8
Defpoints
 62
     0
440
 16777216
100
AcDbPoint
 10
259.2111548156
 20
63.9689521012
 30
0.0
  0
POINT
  5
491
330
487
100
AcDbEntity
  8
Defpoints
 62
     0
440
 16777216
100
AcDbPoint
 10
469.7111548156
 20
63.9689521012
 30
0.0
  0
POINT
  5
492
330
487
100
AcDbEntity
  8
Defpoints
 62
     0
440
 16777216
100
AcDbPoint
 10
469.7111548156
 20
137.3470066780849
 30
0.0
  0
ENDBLK
  5
489
330
487
100
AcDbEntity
  8
0
100
AcDbBlockEnd
  0
BLOCK
  5
494
330
493
100
AcDbEntity
  8
0
100
AcDbBlockBegin
  2
*D14
 70
     1
 10
0.0
 20
0.0
 30
0.0
  3
*D14
  1

  0
LINE
  5
4A1
330
493
100
AcDbEntity
  8
DIMENSION
440
 16777216
370
     0
100
AcDbLine
 10
259.2111548156
 20
132.3470066780848
 30
0.0
 11
259.2111548156
 21
142.3470066780849
 31
0.0
  0
LINE
  5
4A2
330
493
100
AcDbEntity
  8
DIMENSION
440
 16777216
370
     0
100
AcDbLine
 10
469.7111548156
 20
132.3470066780848
 30
0.0
 11
469.7111548156
 21
142.3470066780849
 31
0.0
  0
LINE
  5
4A3
330
493
100
AcDbEntity
  8
DIMENSION
440
 16777216
370
     0
100
AcDbLine
 10
259.2111548156
 20
137.3470066780849
 30
0.0
 11
469.7111548156
 21
137.3470066780849
 31
0.0
  0
MTEXT
  5
4A4
330
493
100
AcDbEntity
  8
DIMENSION
 62
     7
440
 16777216
100
AcDbMText
 10
364.4611548156
 20
145.3470066780849
 30
0.0
 40
8.0
 41
0.0
 46
0.0
 71
     5
 72
     1
  1
\A1;210
 73
     1
 44
1.0
  0
POINT
  5
4A5
330
493
100
AcDbEntity
  8
Defpoints
 62
     0
440
 16777216
100
AcDbPoint
 10
259.2111548156
 20
63.9689521012
 30
0.0
  0
POINT
  5
4A6
330
493
100
AcDbEntity
  8
Defpoints
 62
     0
440
 16777216
100
AcDbPoint
 10
469.7111548156
 20
63.9689521012
 30
0.0
  0
POINT
  5
4A7
330
493
100
AcDbEntity
  8
Defpoints
 62
     0
440
 16777216
100
AcDbPoint
 10
469.7111548156
 20
137.3470066780849
 30
0.0
  0
ENDBLK
  5
495
330
493
100
AcDbEntity
  8
0
100
AcDbBlockEnd
  0
ENDSEC
  0
SECTION
  2
ENTITIES
  0
LINE
  5
74
330
1F
100
AcDbEntity
  8
DIMENSION
100
AcDbLine
 10
164.9548519620999
 20
125.4825455175
 30
0.0
 11
164.6726674981
 21
86.13824448809999
 31
0.0
  0
LINE
  5
75
330
1F
100
AcDbEntity
  8
DIMENSION
100
AcDbLine
 10
172.6724617452999
 20
86.08086851260001
 30
0.0
 11
172.9546462093
 21
125.425169542
 31
0.0
  0
LINE
  5
76
330
1F
100
AcDbEntity
  8
DIMENSION
100
AcDbLine
 10
62.0332080596
 20
41.76496008099999
 30
0.0
 11
62.31206052180001
 21
41.519747308
 31
0.0
  0
LINE
  5
77
330
1F
100
AcDbEntity
  8
DIMENSION
100
AcDbLine
 10
74.6407552532
 20
41.4910151756
 30
0.0
 11
74.92074762129999
 21
41.7349255558
 31
0.0
  0
LINE
  5
78
330
1F
100
AcDbEntity
  8
DIMENSION
100
AcDbLine
 10
61.5622024938
 20
43.2747608271
 30
0.0
 11
61.5606935584
 21
42.62729050879999
 31
0.0
  0
LINE
  5
79
330
1F
100
AcDbEntity
  8
DIMENSION
100
AcDbLine
 10
75.39727630529999
 20
42.5950442301
 30
0.0
 11
75.39878524069999
 21
43.2425145483
 31
0.0
  0
LINE
  5
7A
330
1F
100
AcDbEntity
  8
DIMENSION
100
AcDbLine
 10
58.5603935666
 20
56.09991900669999
 30
0.0
 11
58.5294499436
 21
42.8222938835
 31
0.0
  0
LINE
  5
7B
330
1F
100
AcDbEntity
  8
DIMENSION
100
AcDbLine
 10
78.42939590260001
 20
42.775916883
 30
0.0
 11
78.4603395257
 21
56.05354200619999
 31
0.0
  0
LINE
  5
7C
330
1F
100
AcDbEntity
  8
DIMENSION
100
AcDbLine
 10
59.2090261951
 20
41.582079502
 30
0.0
 11
59.6737802989
 21
41.173391547
 31
0.0
  0
LINE
  5
7D
330
1F
100
AcDbEntity
  8
DIMENSION
100
AcDbLine
 10
77.27739245630001
 20
41.13236617280001
 30
0.0
 11
77.7440464031
 21
41.5388834731
 31
0.0
  0
SPLINE
  5
7E
330
1F
100
AcDbEntity
  8
DIMENSION
100
AcDbSpline
210
0.0
220
0.0
230
1.0
 70
     8
 71
     3
 72
    11
 73
     7
 74
     0
 42
0.00000001
 43
0.0000000001
 40
2.0
 40
2.0
 40
2.0
 40
2.0
 40
3.0
 40
3.0
 40
3.0
 40
4.0
 40
4.0
 40
4.0
 40
4.0
 10
154.7811649498404
 20
61.77826386743561
 30
0.0
 10
155.0057851754786
 20
61.85267792991702
 30
0.0
 10
155.720642488668
 20
62.15360702055358
 30
0.0
 10
155.720642488668
 20
62.96630504552403
 30
0.0
 10
155.720642488668
 20
63.77848630617165
 30
0.0
 10
155.0174985001285
 20
64.05306041634609
 30
0.0
 10
154.7911557267475
 20
64.12041203308271
 30
0.0
  0
SPLINE
  5
7F
330
1F
100
AcDbEntity
  8
DIMENSION
100
AcDbSpline
210
0.0
220
0.0
230
1.0
 70
     8
 71
     3
 72
    11
 73
     7
 74
     0
 42
0.00000001
 43
0.0000000001
 40
0.0
 40
0.0
 40
0.0
 40
0.0
 40
1.0
 40
1.0
 40
1.0
 40
2.0
 40
2.0
 40
2.0
 40
2.0
 10
154.7911557267475
 20
64.12041203308271
 30
0.0
 10
154.5648129533667
 20
64.04530895150428
 30
0.0
 10
153.8513336783715
 20
63.74420760609343
 30
0.0
 10
153.8513336783715
 20
62.93237085499431
 30
0.0
 10
153.8513336783715
 20
62.1200173395724
 30
0.0
 10
154.5548221764595
 20
61.84544322939797
 30
0.0
 10
154.7811649498404
 20
61.77826386743561
 30
0.0
  0
CIRCLE
  5
80
330
1F
100
AcDbEntity
  8
DIMENSION
100
AcDbCircle
 10
168.5137652072
 20
63.9685361367
 30
0.0
 40
22.39999999999998
  0
CIRCLE
  5
81
330
1F
100
AcDbEntity
  8
DIMENSION
100
AcDbCircle
 10
168.5137652072
 20
63.9685361367
 30
0.0
 40
22.49999999999998
  0
SPLINE
  5
82
330
1F
100
AcDbEntity
  8
DIMENSION
100
AcDbSpline
210
0.0
220
0.0
230
1.0
 70
     8
 71
     3
 72
     8
 73
     4
 74
     0
 42
0.00000001
 43
0.0000000001
 40
5.0
 40
5.0
 40
5.0
 40
5.0
 40
6.0
 40
6.0
 40
6.0
 40
6.0
 10
154.8486888213513
 20
64.72502629074404
 30
0.0
 10
155.3578739340713
 20
64.6159890186359
 30
0.0
 10
156.3207781221986
 20
64.10800968933582
 30
0.0
 10
156.3207781221986
 20
62.96630504552403
 30
0.0
  0
LINE
  5
83
330
1F
100
AcDbEntity
  8
DIMENSION
100
AcDbLine
 10
154.7818539689
 20
64.73932343699999
 30
0.0
 11
154.8486888214
 21
64.7250262907
 31
0.0
  0
LINE
  5
84
330
1F
100
AcDbEntity
  8
DIMENSION
100
AcDbLine
 10
154.7153636261
 20
64.723303743
 30
0.0
 11
154.7818539689
 21
64.73932343699999
 31
0.0
  0
SPLINE
  5
85
330
1F
100
AcDbEntity
  8
DIMENSION
100
AcDbSpline
210
0.0
220
0.0
230
1.0
 70
     8
 71
     3
 72
     8
 73
     4
 74
     0
 42
0.00000001
 43
0.0000000001
 40
2.0
 40
2.0
 40
2.0
 40
2.0
 40
3.0
 40
3.0
 40
3.0
 40
3.0
 10
153.2511980448409
 20
62.93237085499431
 30
0.0
 10
153.2511980448409
 20
64.06890785557822
 30
0.0
 10
154.2089345897404
 20
64.60083059850079
 30
0.0
 10
154.7153636260721
 20
64.72330374300144
 30
0.0
  0
SPLINE
  5
86
330
1F
100
AcDbEntity
  8
DIMENSION
100
AcDbSpline
210
0.0
220
0.0
230
1.0
 70
     8
 71
     3
 72
     8
 73
     4
 74
     0
 42
0.00000001
 43
0.0000000001
 40
1.0
 40
1.0
 40
1.0
 40
1.0
 40
2.0
 40
2.0
 40
2.0
 40
2.0
 10
154.7232873456882
 20
61.17364960977427
 30
0.0
 10
154.2141022329683
 20
61.28268688188242
 30
0.0
 10
153.2511980448409
 20
61.79066621118251
 30
0.0
 10
153.2511980448409
 20
62.93237085499431
 30
0.0
  0
LINE
  5
87
330
1F
100
AcDbEntity
  8
DIMENSION
100
AcDbLine
 10
154.7901221981
 20
61.15935246350001
 30
0.0
 11
154.7232873457
 21
61.17364960979999
 31
0.0
  0
LINE
  5
88
330
1F
100
AcDbEntity
  8
DIMENSION
100
AcDbLine
 10
154.856612541
 20
61.1753721575
 30
0.0
 11
154.7901221981
 21
61.15935246350001
 31
0.0
  0
SPLINE
  5
89
330
1F
100
AcDbEntity
  8
DIMENSION
100
AcDbSpline
210
0.0
220
0.0
230
1.0
 70
     8
 71
     3
 72
     8
 73
     4
 74
     0
 42
0.00000001
 43
0.0000000001
 40
6.0
 40
6.0
 40
6.0
 40
6.0
 40
7.0
 40
7.0
 40
7.0
 40
7.0
 10
156.3207781221986
 20
62.96630504552403
 30
0.0
 10
156.3207781221986
 20
61.8297680449401
 30
0.0
 10
155.3630415772991
 20
61.29784530201753
 30
0.0
 10
154.8566125409674
 20
61.17537215751689
 30
0.0
  0
LINE
  5
8A
330
1F
100
AcDbEntity
  8
DIMENSION
100
AcDbLine
 10
158.5578160708
 20
61.75587074680001
 30
0.0
 11
158.179200077
 21
61.81426511529999
 31
0.0
  0
SPLINE
  5
8B
330
1F
100
AcDbEntity
  8
DIMENSION
100
AcDbSpline
210
0.0
220
0.0
230
1.0
 70
     8
 71
     3
 72
     8
 73
     4
 74
     0
 42
0.00000001
 43
0.0000000001
 40
1.0
 40
1.0
 40
1.0
 40
1.0
 40
2.0
 40
2.0
 40
2.0
 40
2.0
 10
158.1792000770208
 20
61.81426511525646
 30
0.0
 10
157.9091045909772
 20
61.855950770628
 30
0.0
 10
157.7130786578665
 20
62.08470511084859
 30
0.0
 10
157.7130786578665
 20
62.35807343760316
 30
0.0
  0
LINE
  5
8C
330
1F
100
AcDbEntity
  8
DIMENSION
100
AcDbLine
 10
157.7130786579
 20
62.35807343760001
 30
0.0
 11
157.7130786579
 21
64.25063664239999
 31
0.0
  0
LINE
  5
8D
330
1F
100
AcDbEntity
  8
DIMENSION
100
AcDbLine
 10
157.7130786579
 20
64.25063664239999
 30
0.0
 11
158.037262143
 21
64.25063664239999
 31
0.0
  0
SPLINE
  5
8E
330
1F
100
AcDbEntity
  8
DIMENSION
100
AcDbSpline
210
0.0
220
0.0
230
1.0
 70
     8
 71
     3
 72
     8
 73
     4
 74
     0
 42
0.00000001
 43
0.0000000001
 40
4.0
 40
4.0
 40
4.0
 40
4.0
 40
5.0
 40
5.0
 40
5.0
 40
5.0
 10
158.0372621430285
 20
64.25063664242514
 30
0.0
 10
158.202971235869
 20
64.25063664242514
 30
0.0
 10
158.3373299597937
 20
64.38499536634989
 30
0.0
 10
158.3373299597937
 20
64.55070445919043
 30
0.0
  0
SPLINE
  5
8F
330
1F
100
AcDbEntity
  8
DIMENSION
100
AcDbSpline
210
0.0
220
0.0
230
1.0
 70
     8
 71
     3
 72
     8
 73
     4
 74
     0
 42
0.00000001
 43
0.0000000001
 40
5.0
 40
5.0
 40
5.0
 40
5.0
 40
6.0
 40
6.0
 40
6.0
 40
6.0
 10
158.3373299597937
 20
64.55070445919043
 30
0.0
 10
158.3373299597937
 20
64.71641355203093
 30
0.0
 10
158.202971235869
 20
64.85077227595567
 30
0.0
 10
158.0372621430285
 20
64.85077227595567
 30
0.0
  0
LINE
  5
90
330
1F
100
AcDbEntity
  8
DIMENSION
100
AcDbLine
 10
158.037262143
 20
64.850772276
 30
0.0
 11
157.7130786579
 21
64.850772276
 31
0.0
  0
LINE
  5
91
330
1F
100
AcDbEntity
  8
DIMENSION
100
AcDbLine
 10
157.7130786579
 20
64.850772276
 30
0.0
 11
157.7130786579
 21
65.8148822475
 31
0.0
  0
SPLINE
  5
92
330
1F
100
AcDbEntity
  8
DIMENSION
100
AcDbSpline
210
0.0
220
0.0
230
1.0
 70
     8
 71
     3
 72
     8
 73
     4
 74
     0
 42
0.00000001
 43
0.0000000001
 40
8.0
 40
8.0
 40
8.0
 40
8.0
 40
9.0
 40
9.0
 40
9.0
 40
9.0
 10
157.7130786578665
 20
65.81488224750285
 30
0.0
 10
157.7130786578665
 20
65.98059134034335
 30
0.0
 10
157.5787199339417
 20
66.11495006426811
 30
0.0
 10
157.4130108411012
 20
66.11495006426811
 30
0.0
  0
SPLINE
  5
93
330
1F
100
AcDbEntity
  8
DIMENSION
100
AcDbSpline
210
0.0
220
0.0
230
1.0
 70
     8
 71
     3
 72
     8
 73
     4
 74
     0
 42
0.00000001
 43
0.0000000001
 40
9.0
 40
9.0
 40
9.0
 40
9.0
 40
10.0
 40
10.0
 40
10.0
 40
10.0
 10
157.4130108411012
 20
66.11495006426811
 30
0.0
 10
157.2473017482607
 20
66.11495006426811
 30
0.0
 10
157.1129430243359
 20
65.98059134034335
 30
0.0
 10
157.1129430243359
 20
65.81488224750285
 30
0.0
  0
LINE
  5
94
330
1F
100
AcDbEntity
  8
DIMENSION
100
AcDbLine
 10
157.1129430243
 20
65.8148822475
 30
0.0
 11
157.1129430243
 21
64.850772276
 31
0.0
  0
LINE
  5
95
330
1F
100
AcDbEntity
  8
DIMENSION
100
AcDbLine
 10
157.1129430243
 20
64.850772276
 30
0.0
 11
156.798061297
 21
64.850772276
 31
0.0
  0
SPLINE
  5
96
330
1F
100
AcDbEntity
  8
DIMENSION
100
AcDbSpline
210
0.0
220
0.0
230
1.0
 70
     8
 71
     3
 72
     8
 73
     4
 74
     0
 42
0.00000001
 43
0.0000000001
 40
12.0
 40
12.0
 40
12.0
 40
12.0
 40
13.0
 40
13.0
 40
13.0
 40
13.0
 10
156.7980612969841
 20
64.85077227595567
 30
0.0
 10
156.6323522041436
 20
64.85077227595567
 30
0.0
 10
156.4979934802189
 20
64.71641355203093
 30
0.0
 10
156.4979934802189
 20
64.55070445919043
 30
0.0
  0
SPLINE
  5
97
330
1F
100
AcDbEntity
  8
DIMENSION
100
AcDbSpline
210
0.0
220
0.0
230
1.0
 70
     8
 71
     3
 72
     8
 73
     4
 74
     0
 42
0.00000001
 43
0.0000000001
 40
13.0
 40
13.0
 40
13.0
 40
13.0
 40
14.0
 40
14.0
 40
14.0
 40
14.0
 10
156.4979934802189
 20
64.55070445919043
 30
0.0
 10
156.4979934802189
 20
64.38499536634989
 30
0.0
 10
156.6323522041436
 20
64.25063664242514
 30
0.0
 10
156.7980612969841
 20
64.25063664242514
 30
0.0
  0
LINE
  5
98
330
1F
100
AcDbEntity
  8
DIMENSION
100
AcDbLine
 10
156.798061297
 20
64.25063664239999
 30
0.0
 11
157.1129430243
 21
64.25063664239999
 31
0.0
  0
LINE
  5
99
330
1F
100
AcDbEntity
  8
DIMENSION
100
AcDbLine
 10
157.1129430243
 20
64.25063664239999
 30
0.0
 11
157.1129430243
 21
62.35807343760001
 31
0.0
  0
SPLINE
  5
9A
330
1F
100
AcDbEntity
  8
DIMENSION
100
AcDbSpline
210
0.0
220
0.0
230
1.0
 70
     8
 71
     3
 72
     8
 73
     4
 74
     0
 42
0.00000001
 43
0.0000000001
 40
16.0
 40
16.0
 40
16.0
 40
16.0
 40
17.0
 40
17.0
 40
17.0
 40
17.0
 10
157.1129430243359
 20
62.35807343760316
 30
0.0
 10
157.1129430243359
 20
61.78653209660022
 30
0.0
 10
157.5229093870807
 20
61.30835284324754
 30
0.0
 10
158.0875605371131
 20
61.22136418224497
 30
0.0
  0
LINE
  5
9B
330
1F
100
AcDbEntity
  8
DIMENSION
100
AcDbLine
 10
158.0875605371
 20
61.22136418220001
 30
0.0
 11
158.4661765309
 21
61.1629698138
 31
0.0
  0
SPLINE
  5
9C
330
1F
100
AcDbEntity
  8
DIMENSION
100
AcDbSpline
210
0.0
220
0.0
230
1.0
 70
     8
 71
     3
 72
     8
 73
     4
 74
     0
 42
0.00000001
 43
0.0000000001
 40
18.0
 40
18.0
 40
18.0
 40
18.0
 40
19.0
 40
19.0
 40
19.0
 40
19.0
 10
158.4661765309421
 20
61.16296981376999
 30
0.0
 10
158.4816794606257
 20
61.16055824693034
 30
0.0
 10
158.4971823903093
 20
61.15935246351047
 30
0.0
 10
158.5123408104444
 20
61.15935246351047
 30
0.0
  0
SPLINE
  5
9D
330
1F
100
AcDbEntity
  8
DIMENSION
100
AcDbSpline
210
0.0
220
0.0
230
1.0
 70
     8
 71
     3
 72
     8
 73
     4
 74
     0
 42
0.00000001
 43
0.0000000001
 40
19.0
 40
19.0
 40
19.0
 40
19.0
 40
20.0
 40
20.0
 40
20.0
 40
20.0
 10
158.5123408104444
 20
61.15935246351047
 30
0.0
 10
158.657723839922
 20
61.15935246351047
 30
0.0
 10
158.7855368824247
 20
61.26546140445618
 30
0.0
 10
158.8086190221759
 20
61.41377276509618
 30
0.0
  0
SPLINE
  5
9E
330
1F
100
AcDbEntity
  8
DIMENSION
100
AcDbSpline
210
0.0
220
0.0
230
1.0
 70
     8
 71
     3
 72
     8
 73
     4
 74
     0
 42
0.00000001
 43
0.0000000001
 40
20.0
 40
20.0
 40
20.0
 40
20.0
 40
21.0
 40
21.0
 40
21.0
 40
21.0
 10
158.8086190221759
 20
61.41377276509618
 30
0.0
 10
158.8337682192182
 20
61.57741480064554
 30
0.0
 10
158.7214581063991
 20
61.73072154973917
 30
0.0
 10
158.5578160708497
 20
61.75587074678149
 30
0.0
  0
LINE
  5
9F
330
1F
100
AcDbEntity
  8
DIMENSION
100
AcDbLine
 10
181.9728796032
 20
64.73932343699999
 30
0.0
 11
182.0397144556
 21
64.7250262907
 31
0.0
  0
LINE
  5
A0
330
1F
100
AcDbEntity
  8
DIMENSION
100
AcDbLine
 10
181.9063892603
 20
64.723303743
 30
0.0
 11
181.9728796032
 21
64.73932343699999
 31
0.0
  0
SPLINE
  5
A1
330
1F
100
AcDbEntity
  8
DIMENSION
100
AcDbSpline
210
0.0
220
0.0
230
1.0
 70
     8
 71
     3
 72
     8
 73
     4
 74
     0
 42
0.00000001
 43
0.0000000001
 40
2.0
 40
2.0
 40
2.0
 40
2.0
 40
3.0
 40
3.0
 40
3.0
 40
3.0
 10
180.4422236790687
 20
62.93237085499431
 30
0.0
 10
180.4422236790687
 20
64.06890785557822
 30
0.0
 10
181.3999602239682
 20
64.60083059850079
 30
0.0
 10
181.9063892603
 20
64.72330374300144
 30
0.0
  0
SPLINE
  5
A2
330
1F
100
AcDbEntity
  8
DIMENSION
100
AcDbSpline
210
0.0
220
0.0
230
1.0
 70
     8
 71
     3
 72
     8
 73
     4
 74
     0
 42
0.00000001
 43
0.0000000001
 40
1.0
 40
1.0
 40
1.0
 40
1.0
 40
2.0
 40
2.0
 40
2.0
 40
2.0
 10
181.914312979916
 20
61.17364960977427
 30
0.0
 10
181.4051278671961
 20
61.28268688188242
 30
0.0
 10
180.4422236790687
 20
61.79066621118251
 30
0.0
 10
180.4422236790687
 20
62.93237085499431
 30
0.0
  0
LINE
  5
A3
330
1F
100
AcDbEntity
  8
DIMENSION
100
AcDbLine
 10
181.9811478323
 20
61.15935246350001
 30
0.0
 11
181.9143129799
 21
61.17364960979999
 31
0.0
  0
LINE
  5
A4
330
1F
100
AcDbEntity
  8
DIMENSION
100
AcDbLine
 10
182.0476381752
 20
61.1753721575
 30
0.0
 11
181.9811478323
 21
61.15935246350001
 31
0.0
  0
SPLINE
  5
A5
330
1F
100
AcDbEntity
  8
DIMENSION
100
AcDbSpline
210
0.0
220
0.0
230
1.0
 70
     8
 71
     3
 72
     8
 73
     4
 74
     0
 42
0.00000001
 43
0.0000000001
 40
6.0
 40
6.0
 40
6.0
 40
6.0
 40
7.0
 40
7.0
 40
7.0
 40
7.0
 10
183.5118037564264
 20
62.96630504552403
 30
0.0
 10
183.5118037564264
 20
61.8297680449401
 30
0.0
 10
182.5540672115269
 20
61.29784530201753
 30
0.0
 10
182.0476381751952
 20
61.17537215751689
 30
0.0
  0
SPLINE
  5
A6
330
1F
100
AcDbEntity
  8
DIMENSION
100
AcDbSpline
210
0.0
220
0.0
230
1.0
 70
     8
 71
     3
 72
     8
 73
     4
 74
     0
 42
0.00000001
 43
0.0000000001
 40
14.0
 40
14.0
 40
14.0
 40
14.0
 40
15.0
 40
15.0
 40
15.0
 40
15.0
 10
188.9030336812939
 20
66.39832020990261
 30
0.0
 10
188.9030336812939
 20
66.56402930274312
 30
0.0
 10
188.7686749573691
 20
66.69838802666785
 30
0.0
 10
188.6029658645286
 20
66.69838802666785
 30
0.0
  0
LINE
  5
A7
330
1F
100
AcDbEntity
  8
DIMENSION
100
AcDbLine
 10
184.9411738733
 20
66.3983091679
 30
0.0
 11
184.9411738733
 21
61.45942028029999
 31
0.0
  0
SPLINE
  5
A8
330
1F
100
AcDbEntity
  8
DIMENSION
100
AcDbSpline
210
0.0
220
0.0
230
1.0
 70
     8
 71
     3
 72
     8
 73
     4
 74
     0
 42
0.00000001
 43
0.0000000001
 40
3.0
 40
3.0
 40
3.0
 40
3.0
 40
4.0
 40
4.0
 40
4.0
 40
4.0
 10
184.6411060564913
 20
66.69837698469516
 30
0.0
 10
184.8068151493318
 20
66.69837698469516
 30
0.0
 10
184.9411738732565
 20
66.56401826077043
 30
0.0
 10
184.9411738732565
 20
66.39830916792991
 30
0.0
  0
SPLINE
  5
A9
330
1F
100
AcDbEntity
  8
DIMENSION
100
AcDbSpline
210
0.0
220
0.0
230
1.0
 70
     8
 71
     3
 72
     8
 73
     4
 74
     0
 42
0.00000001
 43
0.0000000001
 40
2.0
 40
2.0
 40
2.0
 40
2.0
 40
3.0
 40
3.0
 40
3.0
 40
3.0
 10
184.341038239726
 20
66.39830916792991
 30
0.0
 10
184.341038239726
 20
66.56401826077043
 30
0.0
 10
184.4753969636508
 20
66.69837698469516
 30
0.0
 10
184.6411060564913
 20
66.69837698469516
 30
0.0
  0
LINE
  5
AA
330
1F
100
AcDbEntity
  8
DIMENSION
100
AcDbLine
 10
184.3410382397
 20
61.45942028029999
 30
0.0
 11
184.3410382397
 21
66.3983091679
 31
0.0
  0
SPLINE
  5
AB
330
1F
100
AcDbEntity
  8
DIMENSION
100
AcDbSpline
210
0.0
220
0.0
230
1.0
 70
     8
 71
     3
 72
     8
 73
     4
 74
     0
 42
0.00000001
 43
0.0000000001
 40
0.0
 40
0.0
 40
0.0
 40
0.0
 40
1.0
 40
1.0
 40
1.0
 40
1.0
 10
184.6411060564913
 20
61.15935246351047
 30
0.0
 10
184.4753969636508
 20
61.15935246351047
 30
0.0
 10
184.341038239726
 20
61.29371118743521
 30
0.0
 10
184.341038239726
 20
61.45942028027574
 30
0.0
  0
SPLINE
  5
AC
330
1F
100
AcDbEntity
  8
DIMENSION
100
AcDbSpline
210
0.0
220
0.0
230
1.0
 70
     8
 71
     3
 72
     8
 73
     4
 74
     0
 42
0.00000001
 43
0.0000000001
 40
5.0
 40
5.0
 40
5.0
 40
5.0
 40
6.0
 40
6.0
 40
6.0
 40
6.0
 10
184.9411738732565
 20
61.45942028027574
 30
0.0
 10
184.9411738732565
 20
61.29371118743521
 30
0.0
 10
184.8068151493318
 20
61.15935246351047
 30
0.0
 10
184.6411060564913
 20
61.15935246351047
 30
0.0
  0
SPLINE
  5
AD
330
1F
100
AcDbEntity
  8
DIMENSION
100
AcDbSpline
210
0.0
220
0.0
230
1.0
 70
     8
 71
     3
 72
     8
 73
     4
 74
     0
 42
0.00000001
 43
0.0000000001
 40
13.0
 40
13.0
 40
13.0
 40
13.0
 40
14.0
 40
14.0
 40
14.0
 40
14.0
 10
179.383890346
 20
63.08412731111957
 30
0.0
 10
179.5309959232202
 20
63.00833521044408
 30
0.0
 10
179.5888735273724
 20
62.82729544269418
 30
0.0
 10
179.5130814266969
 20
62.68001761069975
 30
0.0
  0
SPLINE
  5
AE
330
1F
100
AcDbEntity
  8
DIMENSION
100
AcDbSpline
210
0.0
220
0.0
230
1.0
 70
     8
 71
     3
 72
     8
 73
     4
 74
     0
 42
0.00000001
 43
0.0000000001
 40
12.0
 40
12.0
 40
12.0
 40
12.0
 40
13.0
 40
13.0
 40
13.0
 40
13.0
 10
178.9797806455801
 20
62.9549362304227
 30
0.0
 10
179.0552282367072
 20
63.10221406241713
 30
0.0
 10
179.2360957496828
 20
63.16043617611786
 30
0.0
 10
179.383890346
 20
63.08412731111957
 30
0.0
  0
SPLINE
  5
AF
330
1F
100
AcDbEntity
  8
DIMENSION
100
AcDbSpline
210
0.0
220
0.0
230
1.0
 70
     8
 71
     3
 72
     8
 73
     4
 74
     0
 42
0.00000001
 43
0.0000000001
 40
11.0
 40
11.0
 40
11.0
 40
11.0
 40
12.0
 40
12.0
 40
12.0
 40
12.0
 10
177.5159595738975
 20
61.77895288653266
 30
0.0
 10
177.756427238768
 20
61.85750106359637
 30
0.0
 10
178.5780825120001
 20
62.17531112211066
 30
0.0
 10
178.9797806455801
 20
62.9549362304227
 30
0.0
  0
SPLINE
  5
B0
330
1F
100
AcDbEntity
  8
DIMENSION
100
AcDbSpline
210
0.0
220
0.0
230
1.0
 70
     8
 71
     3
 72
     8
 73
     4
 74
     0
 42
0.00000001
 43
0.0000000001
 40
10.0
 40
10.0
 40
10.0
 40
10.0
 40
11.0
 40
11.0
 40
11.0
 40
11.0
 10
175.8288963147707
 20
63.91732365422724
 30
0.0
 10
175.8288963147707
 20
62.3620352974112
 30
0.0
 10
177.1824743309254
 20
61.87524330534539
 30
0.0
 10
177.5159595738975
 20
61.77895288653266
 30
0.0
  0
SPLINE
  5
B1
330
1F
100
AcDbEntity
  8
DIMENSION
100
AcDbSpline
210
0.0
220
0.0
230
1.0
 70
     8
 71
     3
 72
     8
 73
     4
 74
     0
 42
0.00000001
 43
0.0000000001
 40
9.0
 40
9.0
 40
9.0
 40
9.0
 40
10.0
 40
10.0
 40
10.0
 40
10.0
 10
177.5245723126107
 20
66.11253849742843
 30
0.0
 10
177.1934986364781
 20
66.00780759467683
 30
0.0
 10
175.8288963147707
 20
65.48139700453067
 30
0.0
 10
175.8288963147707
 20
63.91732365422724
 30
0.0
  0
SPLINE
  5
B2
330
1F
100
AcDbEntity
  8
DIMENSION
100
AcDbSpline
210
0.0
220
0.0
230
1.0
 70
     8
 71
     3
 72
     8
 73
     4
 74
     0
 42
0.00000001
 43
0.0000000001
 40
8.0
 40
8.0
 40
8.0
 40
8.0
 40
9.0
 40
9.0
 40
9.0
 40
9.0
 10
179.0628074467747
 20
64.80495250600187
 30
0.0
 10
178.7021059494691
 20
65.70877330655715
 30
0.0
 10
177.7829544740044
 20
66.03657414197866
 30
0.0
 10
177.5245723126107
 20
66.11253849742843
 30
0.0
  0
SPLINE
  5
B3
330
1F
100
AcDbEntity
  8
DIMENSION
100
AcDbSpline
210
0.0
220
0.0
230
1.0
 70
     8
 71
     3
 72
     8
 73
     4
 74
     0
 42
0.00000001
 43
0.0000000001
 40
7.0
 40
7.0
 40
7.0
 40
7.0
 40
8.0
 40
8.0
 40
8.0
 40
8.0
 10
179.452792255705
 20
64.63769312019299
 30
0.0
 10
179.2994855066114
 20
64.57568140145847
 30
0.0
 10
179.1244746559607
 20
64.65095673781118
 30
0.0
 10
179.0628074467747
 20
64.80495250600187
 30
0.0
  0
SPLINE
  5
B4
330
1F
100
AcDbEntity
  8
DIMENSION
100
AcDbSpline
210
0.0
220
0.0
230
1.0
 70
     8
 71
     3
 72
     8
 73
     4
 74
     0
 42
0.00000001
 43
0.0000000001
 40
6.0
 40
6.0
 40
6.0
 40
6.0
 40
7.0
 40
7.0
 40
7.0
 40
7.0
 10
179.6202238962881
 20
65.027505674349
 30
0.0
 10
179.6815465959256
 20
64.87350990615833
 30
0.0
 10
179.6067880238957
 20
64.69901581983042
 30
0.0
 10
179.452792255705
 20
64.63769312019299
 30
0.0
  0
SPLINE
  5
B5
330
1F
100
AcDbEntity
  8
DIMENSION
100
AcDbSpline
210
0.0
220
0.0
230
1.0
 70
     8
 71
     3
 72
     8
 73
     4
 74
     0
 42
0.00000001
 43
0.0000000001
 40
5.0
 40
5.0
 40
5.0
 40
5.0
 40
6.0
 40
6.0
 40
6.0
 40
6.0
 10
177.5862395217966
 20
66.71663599076699
 30
0.0
 10
177.6472177118856
 20
66.70320011837453
 30
0.0
 10
179.0841670387833
 20
66.37005938495086
 30
0.0
 10
179.6202238962881
 20
65.027505674349
 30
0.0
  0
LINE
  5
B6
330
1F
100
AcDbEntity
  8
DIMENSION
100
AcDbLine
 10
177.5169931025
 20
66.73196666569999
 30
0.0
 11
177.5862395218
 21
66.7166359908
 31
0.0
  0
LINE
  5
B7
330
1F
100
AcDbEntity
  8
DIMENSION
100
AcDbLine
 10
177.4480911928
 20
66.71474118829999
 30
0.0
 11
177.5169931025
 21
66.73196666569999
 31
0.0
  0
SPLINE
  5
B8
330
1F
100
AcDbEntity
  8
DIMENSION
100
AcDbSpline
210
0.0
220
0.0
230
1.0
 70
     8
 71
     3
 72
     8
 73
     4
 74
     0
 42
0.00000001
 43
0.0000000001
 40
2.0
 40
2.0
 40
2.0
 40
2.0
 40
3.0
 40
3.0
 40
3.0
 40
3.0
 10
175.2287606812402
 20
63.91732365422724
 30
0.0
 10
175.2287606812402
 20
65.69034204571107
 30
0.0
 10
176.6805239187245
 20
66.52250486017317
 30
0.0
 10
177.4480911928381
 20
66.7147411882501
 30
0.0
  0
SPLINE
  5
B9
330
1F
100
AcDbEntity
  8
DIMENSION
100
AcDbSpline
210
0.0
220
0.0
230
1.0
 70
     8
 71
     3
 72
     8
 73
     4
 74
     0
 42
0.00000001
 43
0.0000000001
 40
1.0
 40
1.0
 40
1.0
 40
1.0
 40
2.0
 40
2.0
 40
2.0
 40
2.0
 10
177.4560149124542
 20
61.17468313841984
 30
0.0
 10
176.6856915619524
 20
61.34573212926249
 30
0.0
 10
175.2287606812402
 20
62.13896536474127
 30
0.0
 10
175.2287606812402
 20
63.91732365422724
 30
0.0
  0
LINE
  5
BA
330
1F
100
AcDbEntity
  8
DIMENSION
100
AcDbLine
 10
177.5941632414
 20
61.1765779409
 30
0.0
 11
177.5252613317
 21
61.15935246350001
 31
0.0
  0
SPLINE
  5
BB
330
1F
100
AcDbEntity
  8
DIMENSION
100
AcDbSpline
210
0.0
220
0.0
230
1.0
 70
     8
 71
     3
 72
     8
 73
     4
 74
     0
 42
0.00000001
 43
0.0000000001
 40
14.0
 40
14.0
 40
14.0
 40
14.0
 40
15.0
 40
15.0
 40
15.0
 40
15.0
 10
179.5130814266969
 20
62.68001761069975
 30
0.0
 10
178.9150128504575
 20
61.51884817739631
 30
0.0
 10
177.6475622214341
 20
61.19001381332919
 30
0.0
 10
177.5941632414127
 20
61.17657794093672
 30
0.0
  0
SPLINE
  5
BC
330
1F
100
AcDbEntity
  8
DIMENSION
100
AcDbSpline
210
0.0
220
0.0
230
1.0
 70
     8
 71
     3
 72
     8
 73
     4
 74
     0
 42
0.00000001
 43
0.0000000001
 40
0.0
 40
0.0
 40
0.0
 40
0.0
 40
1.0
 40
1.0
 40
1.0
 40
1.0
 10
152.1575176783525
 20
66.71646373599273
 30
0.0
 10
151.9918085855121
 20
66.71646373599273
 30
0.0
 10
151.8574498615873
 20
66.58210501206797
 30
0.0
 10
151.8574498615873
 20
66.41639591922746
 30
0.0
  0
LINE
  5
BD
330
1F
100
AcDbEntity
  8
DIMENSION
100
AcDbLine
 10
151.8574498616
 20
66.4163959192
 30
0.0
 11
151.8574498616
 21
64.2378897891
 31
0.0
  0
LINE
  5
BE
330
1F
100
AcDbEntity
  8
DIMENSION
100
AcDbLine
 10
151.8574498616
 20
64.2378897891
 30
0.0
 11
148.8664179613
 21
64.2378897891
 31
0.0
  0
LINE
  5
BF
330
1F
100
AcDbEntity
  8
DIMENSION
100
AcDbLine
 10
148.8664179613
 20
64.2378897891
 30
0.0
 11
148.8664179613
 21
66.4163959192
 31
0.0
  0
SPLINE
  5
C0
330
1F
100
AcDbEntity
  8
DIMENSION
100
AcDbSpline
210
0.0
220
0.0
230
1.0
 70
     8
 71
     3
 72
     8
 73
     4
 74
     0
 42
0.00000001
 43
0.0000000001
 40
4.0
 40
4.0
 40
4.0
 40
4.0
 40
5.0
 40
5.0
 40
5.0
 40
5.0
 10
148.8664179612934
 20
66.41639591922746
 30
0.0
 10
148.8664179612934
 20
66.58210501206797
 30
0.0
 10
148.7320592373686
 20
66.71646373599273
 30
0.0
 10
148.5663501445281
 20
66.71646373599273
 30
0.0
  0
SPLINE
  5
C1
330
1F
100
AcDbEntity
  8
DIMENSION
100
AcDbSpline
210
0.0
220
0.0
230
1.0
 70
     8
 71
     3
 72
     8
 73
     4
 74
     0
 42
0.00000001
 43
0.0000000001
 40
5.0
 40
5.0
 40
5.0
 40
5.0
 40
6.0
 40
6.0
 40
6.0
 40
6.0
 10
148.5663501445281
 20
66.71646373599273
 30
0.0
 10
148.4006410516876
 20
66.71646373599273
 30
0.0
 10
148.2662823277629
 20
66.58210501206797
 30
0.0
 10
148.2662823277629
 20
66.41639591922746
 30
0.0
  0
LINE
  5
C2
330
1F
100
AcDbEntity
  8
DIMENSION
100
AcDbLine
 10
148.2662823278
 20
66.4163959192
 30
0.0
 11
148.2662823278
 21
61.45942028029999
 31
0.0
  0
SPLINE
  5
C3
330
1F
100
AcDbEntity
  8
DIMENSION
100
AcDbSpline
210
0.0
220
0.0
230
1.0
 70
     8
 71
     3
 72
     8
 73
     4
 74
     0
 42
0.00000001
 43
0.0000000001
 40
7.0
 40
7.0
 40
7.0
 40
7.0
 40
8.0
 40
8.0
 40
8.0
 40
8.0
 10
148.2662823277629
 20
61.45942028027574
 30
0.0
 10
148.2662823277629
 20
61.29371118743521
 30
0.0
 10
148.4006410516876
 20
61.15935246351047
 30
0.0
 10
148.5663501445281
 20
61.15935246351047
 30
0.0
  0
SPLINE
  5
C4
330
1F
100
AcDbEntity
  8
DIMENSION
100
AcDbSpline
210
0.0
220
0.0
230
1.0
 70
     8
 71
     3
 72
     8
 73
     4
 74
     0
 42
0.00000001
 43
0.0000000001
 40
8.0
 40
8.0
 40
8.0
 40
8.0
 40
9.0
 40
9.0
 40
9.0
 40
9.0
 10
148.5663501445281
 20
61.15935246351047
 30
0.0
 10
148.7320592373686
 20
61.15935246351047
 30
0.0
 10
148.8664179612934
 20
61.29371118743521
 30
0.0
 10
148.8664179612934
 20
61.45942028027574
 30
0.0
  0
LINE
  5
C5
330
1F
100
AcDbEntity
  8
DIMENSION
100
AcDbLine
 10
148.8664179613
 20
61.45942028029999
 30
0.0
 11
148.8664179613
 21
63.63775415560001
 31
0.0
  0
SPLINE
  5
C6
330
1F
100
AcDbEntity
  8
DIMENSION
100
AcDbSpline
210
0.0
220
0.0
230
1.0
 70
     8
 71
     3
 72
     8
 73
     4
 74
     0
 42
0.00000001
 43
0.0000000001
 40
15.0
 40
15.0
 40
15.0
 40
15.0
 40
16.0
 40
16.0
 40
16.0
 40
16.0
 10
152.4575854951179
 20
66.41639591922746
 30
0.0
 10
152.4575854951179
 20
66.58210501206797
 30
0.0
 10
152.323226771193
 20
66.71646373599273
 30
0.0
 10
152.1575176783525
 20
66.71646373599273
 30
0.0
  0
LINE
  5
C7
330
1F
100
AcDbEntity
  8
DIMENSION
100
AcDbLine
 10
188.3028980478
 20
66.39832020989999
 30
0.0
 11
188.3028980478
 21
64.0667226492
 31
0.0
  0
SPLINE
  5
C8
330
1F
100
AcDbEntity
  8
DIMENSION
100
AcDbSpline
210
0.0
220
0.0
230
1.0
 70
     8
 71
     3
 72
     8
 73
     4
 74
     0
 42
0.00000001
 43
0.0000000001
 40
2.0
 40
2.0
 40
2.0
 40
2.0
 40
3.0
 40
3.0
 40
3.0
 40
3.0
 10
188.3028980477633
 20
64.06672264917907
 30
0.0
 10
188.0355155744144
 20
64.30678120896063
 30
0.0
 10
187.7237774966928
 20
64.44079542333686
 30
0.0
 10
187.5043249142824
 20
64.48939280152565
 30
0.0
  0
SPLINE
  5
C9
330
1F
100
AcDbEntity
  8
DIMENSION
100
AcDbSpline
210
0.0
220
0.0
230
1.0
 70
     8
 71
     3
 72
     8
 73
     4
 74
     0
 42
0.00000001
 43
0.0000000001
 40
5.0
 40
5.0
 40
5.0
 40
5.0
 40
6.0
 40
6.0
 40
6.0
 40
6.0
 10
182.0397144555791
 20
64.72502629074404
 30
0.0
 10
182.548899568299
 20
64.6159890186359
 30
0.0
 10
183.5118037564264
 20
64.10800968933582
 30
0.0
 10
183.5118037564264
 20
62.96630504552403
 30
0.0
  0
SPLINE
  5
CA
330
1F
100
AcDbEntity
  8
DIMENSION
100
AcDbSpline
210
0.0
220
0.0
230
1.0
 70
     8
 71
     3
 72
     8
 73
     4
 74
     0
 42
0.00000001
 43
0.0000000001
 40
6.0
 40
6.0
 40
6.0
 40
6.0
 40
7.0
 40
7.0
 40
7.0
 40
7.0
 10
185.9047670804809
 20
62.81593766956556
 30
0.0
 10
185.9047670804809
 20
61.74623552139547
 30
0.0
 10
186.870771854545
 20
61.27305165649642
 30
0.0
 10
187.381335005459
 20
61.17228261355286
 30
0.0
  0
LINE
  5
CB
330
1F
100
AcDbEntity
  8
DIMENSION
100
AcDbLine
 10
187.3813350055
 20
61.1722826136
 30
0.0
 11
187.4471363292
 21
61.15936350550001
 31
0.0
  0
LINE
  5
CC
330
1F
100
AcDbEntity
  8
DIMENSION
100
AcDbLine
 10
187.4471363292
 20
61.15936350550001
 30
0.0
 11
187.5122486339
 21
61.17555545430001
 31
0.0
  0
SPLINE
  5
CD
330
1F
100
AcDbEntity
  8
DIMENSION
100
AcDbSpline
210
0.0
220
0.0
230
1.0
 70
     8
 71
     3
 72
     8
 73
     4
 74
     0
 42
0.00000001
 43
0.0000000001
 40
9.0
 40
9.0
 40
9.0
 40
9.0
 40
10.0
 40
10.0
 40
10.0
 40
10.0
 10
187.5122486338985
 20
61.17555545426386
 30
0.0
 10
187.7295264997838
 20
61.22983724000331
 30
0.0
 10
188.0377979501733
 20
61.37106462305178
 30
0.0
 10
188.3028980477633
 20
61.61564487065773
 30
0.0
  0
LINE
  5
CE
330
1F
100
AcDbEntity
  8
DIMENSION
100
AcDbLine
 10
188.3028980478
 20
61.61564487069999
 30
0.0
 11
188.3028980478
 21
61.45943132220001
 31
0.0
  0
SPLINE
  5
CF
330
1F
100
AcDbEntity
  8
DIMENSION
100
AcDbSpline
210
0.0
220
0.0
230
1.0
 70
     8
 71
     3
 72
     8
 73
     4
 74
     0
 42
0.00000001
 43
0.0000000001
 40
11.0
 40
11.0
 40
11.0
 40
11.0
 40
12.0
 40
12.0
 40
12.0
 40
12.0
 10
188.3028980477633
 20
61.45943132224843
 30
0.0
 10
188.3028980477633
 20
61.29372222940792
 30
0.0
 10
188.437256771688
 20
61.15936350548317
 30
0.0
 10
188.6029658645286
 20
61.15936350548317
 30
0.0
  0
SPLINE
  5
D0
330
1F
100
AcDbEntity
  8
DIMENSION
100
AcDbSpline
210
0.0
220
0.0
230
1.0
 70
     8
 71
     3
 72
     8
 73
     4
 74
     0
 42
0.00000001
 43
0.0000000001
 40
12.0
 40
12.0
 40
12.0
 40
12.0
 40
13.0
 40
13.0
 40
13.0
 40
13.0
 10
188.6029658645286
 20
61.15936350548317
 30
0.0
 10
188.7686749573691
 20
61.15936350548317
 30
0.0
 10
188.9030336812939
 20
61.29372222940792
 30
0.0
 10
188.9030336812939
 20
61.45943132224843
 30
0.0
  0
LINE
  5
D1
330
1F
100
AcDbEntity
  8
DIMENSION
100
AcDbLine
 10
188.9030336813
 20
61.45943132220001
 30
0.0
 11
188.9030336813
 21
66.39832020989999
 31
0.0
  0
LINE
  5
D2
330
1F
100
AcDbEntity
  8
DIMENSION
100
AcDbLine
 10
148.8664179613
 20
63.63775415560001
 30
0.0
 11
151.8574498616
 21
63.63775415560001
 31
0.0
  0
LINE
  5
D3
330
1F
100
AcDbEntity
  8
DIMENSION
100
AcDbLine
 10
151.8574498616
 20
63.63775415560001
 30
0.0
 11
151.8574498616
 21
61.45942028029999
 31
0.0
  0
SPLINE
  5
D4
330
1F
100
AcDbEntity
  8
DIMENSION
100
AcDbSpline
210
0.0
220
0.0
230
1.0
 70
     8
 71
     3
 72
     8
 73
     4
 74
     0
 42
0.00000001
 43
0.0000000001
 40
12.0
 40
12.0
 40
12.0
 40
12.0
 40
13.0
 40
13.0
 40
13.0
 40
13.0
 10
151.8574498615873
 20
61.45942028027574
 30
0.0
 10
151.8574498615873
 20
61.29371118743521
 30
0.0
 10
151.9918085855121
 20
61.15935246351047
 30
0.0
 10
152.1575176783525
 20
61.15935246351047
 30
0.0
  0
SPLINE
  5
D5
330
1F
100
AcDbEntity
  8
DIMENSION
100
AcDbSpline
210
0.0
220
0.0
230
1.0
 70
     8
 71
     3
 72
     8
 73
     4
 74
     0
 42
0.00000001
 43
0.0000000001
 40
13.0
 40
13.0
 40
13.0
 40
13.0
 40
14.0
 40
14.0
 40
14.0
 40
14.0
 10
152.1575176783525
 20
61.15935246351047
 30
0.0
 10
152.323226771193
 20
61.15935246351047
 30
0.0
 10
152.4575854951179
 20
61.29371118743521
 30
0.0
 10
152.4575854951179
 20
61.45942028027574
 30
0.0
  0
LINE
  5
D6
330
1F
100
AcDbEntity
  8
DIMENSION
100
AcDbLine
 10
152.4575854951
 20
61.45942028029999
 30
0.0
 11
152.4575854951
 21
66.4163959192
 31
0.0
  0
LINE
  5
D7
330
1F
100
AcDbEntity
  8
DIMENSION
100
AcDbLine
 10
177.5252613317
 20
61.15935246350001
 30
0.0
 11
177.4560149125
 21
61.17468313839999
 31
0.0
  0
SPLINE
  5
D8
330
1F
100
AcDbEntity
  8
DIMENSION
100
AcDbSpline
210
0.0
220
0.0
230
1.0
 70
     8
 71
     3
 72
     8
 73
     4
 74
     0
 42
0.00000001
 43
0.0000000001
 40
0.0
 40
0.0
 40
0.0
 40
0.0
 40
1.0
 40
1.0
 40
1.0
 40
1.0
 10
188.6029658645286
 20
66.69838802666785
 30
0.0
 10
188.437256771688
 20
66.69838802666785
 30
0.0
 10
188.3028980477633
 20
66.56402930274312
 30
0.0
 10
188.3028980477633
 20
66.39832020990261
 30
0.0
  0
LINE
  5
D9
330
1F
100
AcDbEntity
  8
DIMENSION
100
AcDbLine
 10
187.5043249143
 20
64.4893928015
 30
0.0
 11
187.4395571191999
 21
64.5038622026
 31
0.0
  0
LINE
  5
DA
330
1F
100
AcDbEntity
  8
DIMENSION
100
AcDbLine
 10
187.4395571191999
 20
64.5038622026
 30
0.0
 11
187.3744448145
 21
64.4893928015
 31
0.0
  0
SPLINE
  5
DB
330
1F
100
AcDbEntity
  8
DIMENSION
100
AcDbSpline
210
0.0
220
0.0
230
1.0
 70
     8
 71
     3
 72
     8
 73
     4
 74
     0
 42
0.00000001
 43
0.0000000001
 40
5.0
 40
5.0
 40
5.0
 40
5.0
 40
6.0
 40
6.0
 40
6.0
 40
6.0
 10
187.3744448144885
 20
64.48939280152565
 30
0.0
 10
186.8659487208656
 20
64.3762214148352
 30
0.0
 10
185.9047670804809
 20
63.88081668405629
 30
0.0
 10
185.9047670804809
 20
62.81593766956556
 30
0.0
  0
SPLINE
  5
DC
330
1F
100
AcDbEntity
  8
DIMENSION
100
AcDbSpline
210
0.0
220
0.0
230
1.0
 70
     8
 71
     3
 72
    11
 73
     7
 74
     0
 42
0.00000001
 43
0.0000000001
 40
0.0
 40
0.0
 40
0.0
 40
0.0
 40
1.0
 40
1.0
 40
1.0
 40
2.0
 40
2.0
 40
2.0
 40
2.0
 10
187.430599870898
 20
61.77775814508553
 30
0.0
 10
187.2046016070657
 20
61.84114790201411
 30
0.0
 10
186.5049027140114
 20
62.09522369405128
 30
0.0
 10
186.5049027140114
 20
62.81593766956556
 30
0.0
 10
186.5049027140114
 20
63.54423085514739
 30
0.0
 10
187.2142478744244
 20
63.81742692712768
 30
0.0
 10
187.4395571191597
 20
63.88581207250989
 30
0.0
  0
SPLINE
  5
DD
330
1F
100
AcDbEntity
  8
DIMENSION
100
AcDbSpline
210
0.0
220
0.0
230
1.0
 70
     8
 71
     3
 72
    11
 73
     7
 74
     0
 42
0.00000001
 43
0.0000000001
 40
2.0
 40
2.0
 40
2.0
 40
2.0
 40
3.0
 40
3.0
 40
3.0
 40
4.0
 40
4.0
 40
4.0
 40
4.0
 10
187.4395571191597
 20
63.88581207250989
 30
0.0
 10
187.6414397145954
 20
63.82225006080703
 30
0.0
 10
188.2395082908347
 20
63.57316965722347
 30
0.0
 10
188.2395082908347
 20
62.84728803848133
 30
0.0
 10
188.2395082908347
 20
62.12278445793329
 30
0.0
 10
187.6328269758822
 20
61.84889936685593
 30
0.0
 10
187.430599870898
 20
61.77775814508553
 30
0.0
  0
SPLINE
  5
DE
330
1F
100
AcDbEntity
  8
DIMENSION
100
AcDbSpline
210
0.0
220
0.0
230
1.0
 70
     8
 71
     3
 72
    11
 73
     7
 74
     0
 42
0.00000001
 43
0.0000000001
 40
2.0
 40
2.0
 40
2.0
 40
2.0
 40
3.0
 40
3.0
 40
3.0
 40
4.0
 40
4.0
 40
4.0
 40
4.0
 10
181.9721905840682
 20
61.77826386743561
 30
0.0
 10
182.1968108097065
 20
61.85267792991702
 30
0.0
 10
182.9116681228958
 20
62.15360702055358
 30
0.0
 10
182.9116681228958
 20
62.96630504552403
 30
0.0
 10
182.9116681228958
 20
63.77848630617165
 30
0.0
 10
182.2085241343563
 20
64.05306041634609
 30
0.0
 10
181.9821813609754
 20
64.12041203308271
 30
0.0
  0
SPLINE
  5
DF
330
1F
100
AcDbEntity
  8
DIMENSION
100
AcDbSpline
210
0.0
220
0.0
230
1.0
 70
     8
 71
     3
 72
    11
 73
     7
 74
     0
 42
0.00000001
 43
0.0000000001
 40
0.0
 40
0.0
 40
0.0
 40
0.0
 40
1.0
 40
1.0
 40
1.0
 40
2.0
 40
2.0
 40
2.0
 40
2.0
 10
181.9821813609754
 20
64.12041203308271
 30
0.0
 10
181.7558385875945
 20
64.04530895150428
 30
0.0
 10
181.0423593125993
 20
63.74420760609343
 30
0.0
 10
181.0423593125993
 20
62.93237085499431
 30
0.0
 10
181.0423593125993
 20
62.1200173395724
 30
0.0
 10
181.7458478106873
 20
61.84544322939797
 30
0.0
 10
181.9721905840682
 20
61.77826386743561
 30
0.0
  0
LINE
  5
E0
330
1F
100
AcDbEntity
  8
DIMENSION
100
AcDbLine
 10
172.9546462093
 20
125.425169542
 30
0.0
 11
164.9548519620999
 21
125.4825455175
 31
0.0
  0
LINE
  5
E1
330
1F
100
AcDbEntity
  8
DIMENSION
100
AcDbLine
 10
68.8692592735
 20
43.9921780043
 30
0.0
 11
68.4944692663
 21
44.18850672649999
 31
0.0
  0
LINE
  5
E2
330
1F
100
AcDbEntity
  8
DIMENSION
100
AcDbLine
 10
68.56148781699999
 20
43.7840200085
 30
0.0
 11
68.8692592735
 21
43.9921780043
 31
0.0
  0
LINE
  5
E3
330
1F
100
AcDbEntity
  8
DIMENSION
100
AcDbLine
 10
67.8789263533
 20
43.7721907349
 30
0.0
 11
68.56148781699999
 21
43.7840200085
 31
0.0
  0
LINE
  5
E4
330
1F
100
AcDbEntity
  8
DIMENSION
100
AcDbLine
 10
67.5041363461
 20
43.96851945709999
 30
0.0
 11
67.8789263533
 21
43.7721907349
 31
0.0
  0
LINE
  5
E5
330
1F
100
AcDbEntity
  8
DIMENSION
100
AcDbLine
 10
67.81190780260001
 20
44.1766774529
 30
0.0
 11
67.5041363461
 21
43.96851945709999
 31
0.0
  0
LINE
  5
E6
330
1F
100
AcDbEntity
  8
DIMENSION
100
AcDbLine
 10
68.4944692663
 20
44.18850672649999
 30
0.0
 11
67.81190780260001
 21
44.1766774529
 31
0.0
  0
LWPOLYLINE
  5
E7
330
1F
100
AcDbEntity
  8
DIMENSION
100
AcDbPolyline
 90
       36
 70
   128
 43
0.0
 10
72.1065646925
 20
40.4286571553
 10
73.03659392020001
 20
40.67874442239999
 10
73.8201167289
 20
40.9818806294
 10
74.43195005079999
 20
41.32832272929999
 10
74.85242905959999
 20
41.70693578779999
 10
75.06803921399999
 20
42.1055508698
 10
75.0718506261
 20
42.51135615849999
 10
74.86374079409999
 20
42.911308738
 10
74.4503985392
 20
43.2925538034
 10
73.84510902159999
 20
43.6428378246
 10
73.0673267443
 20
43.95090238479999
 10
72.1420502699
 20
44.20684603579999
 10
71.0990187453
 20
44.4024425379
 10
69.9717560622
 20
44.53140525859999
 10
68.7964933706
 20
44.58958922989999
 10
67.61100458040001
 20
44.5751243713
 10
66.4533922767
 20
44.48847559499999
 10
65.36086307159999
 20
44.3324278641
 10
64.36853175260001
 20
44.1119966811
 10
63.50829266479999
 20
43.8342668855
 10
62.8077946002
 20
43.5081649415
 10
62.289552143
 20
43.1441720339
 10
61.97022203229999
 20
42.7539871942
 10
61.8600678005
 20
42.3501512842
 10
61.9626298953
 20
41.94564392239999
 10
62.2746118865
 20
41.5534663081
 10
62.7859864163
 20
41.18622335269999
 10
63.4803174865
 20
40.8557185468
 10
64.3352887252
 20
40.57257458679999
 10
65.3234206533
 20
40.3458919527
 10
66.4129538977
 20
40.18295641069999
 10
67.5688699633
 20
40.08900484329999
 10
68.7540167568
 20
40.06705693109999
 10
69.930302685
 20
40.1178180981
 10
71.0599209504
 20
40.2396568386
 10
72.1065646925
 20
40.4286571553
  0
LWPOLYLINE
  5
E8
330
1F
100
AcDbEntity
  8
DIMENSION
100
AcDbPolyline
 90
        8
 70
   128
 43
0.0
 10
62.0332080596
 20
41.76496008099999
 10
61.7447098886
 20
42.08291038679999
 10
61.57178078720001
 20
42.4914606298
 10
61.6087235887
 20
42.9036481014
 10
61.8544158045
 20
43.306948694
 10
62.301392201
 20
43.6891083231
 10
62.93607162669999
 20
44.03851526189999
 10
63.00178873170001
 20
44.0679860333
  0
LWPOLYLINE
  5
E9
330
1F
100
AcDbEntity
  8
DIMENSION
100
AcDbPolyline
 90
        8
 70
   128
 43
0.0
 10
73.9629118566
 20
44.04244103879999
 10
74.26502071779999
 20
43.89644647829999
 10
74.8357133344
 20
43.5319237739
 10
75.2132599752
 20
43.1394243521
 10
75.3861890765
 20
42.7308741092
 10
75.3492462751
 20
42.3186866375
 10
75.10355405930001
 20
41.91538604489999
 10
74.92074762129999
 20
41.7349255558
  0
LWPOLYLINE
  5
EA
330
1F
100
AcDbEntity
  8
DIMENSION
100
AcDbPolyline
 90
       35
 70
   128
 43
0.0
 10
71.9046526594
 20
40.5344260677
 10
72.8067907285
 20
40.7783419352
 10
73.5615281889
 20
41.0750724692
 10
74.1431633617
 20
41.4145128671
 10
74.5318893585
 20
41.7851038934
 10
74.71446858189999
 20
42.1742255152
 10
74.68468351529999
 20
42.56862666229999
 10
74.4435484535
 20
42.95487647659999
 10
73.9992749618
 20
43.31982168409999
 10
73.36699224100001
 20
43.65103451329999
 10
72.568231921
 20
43.93723590869999
 10
71.6301948263
 20
44.1686796249
 10
70.58482468529999
 20
44.3374841238
 10
69.4677203242
 20
44.43790097069999
 10
68.31692339239999
 20
44.4665105902
 10
67.1716228989
 20
44.42233871609999
 10
66.0708206786
 20
44.3068895685
 10
65.0520032308
 20
44.1240946298
 10
64.1498651617
 20
43.8801787623
 10
63.39512770129999
 20
43.5834482284
 10
62.81349252850001
 20
43.2440078305
 10
62.4247665316
 20
42.87341680409999
 10
62.24218730819999
 20
42.4842951824
 10
62.27197237479999
 20
42.0898940353
 10
62.51310743659999
 20
41.7036442209
 10
62.9573809284
 20
41.33869901349999
 10
63.58966364909999
 20
41.00748618419999
 10
64.38842396920001
 20
40.72128478889999
 10
65.32646106379999
 20
40.4898410727
 10
66.3718312049
 20
40.3210365737
 10
67.48893556590001
 20
40.22061972689999
 10
68.63973249779999
 20
40.19201010739999
 10
69.78503299119999
 20
40.2361819815
 10
70.88583521149999
 20
40.351631129
 10
71.9046526594
 20
40.5344260677
  0
ARC
  5
EB
330
1F
100
AcDbEntity
  8
DIMENSION
100
AcDbCircle
 10
62.98550858449999
 20
42.5327214132
 30
0.0
 40
0.7568809717975804
100
AcDbArc
 50
187.2059635745
 51
190.9596008296
  0
LINE
  5
EC
330
1F
100
AcDbEntity
  8
DIMENSION
100
AcDbLine
 10
62.4338385788
 20
42.39214283329999
 30
0.0
 11
62.43289625479999
 21
41.98780024699999
 31
0.0
  0
ARC
  5
ED
330
1F
100
AcDbEntity
  8
DIMENSION
100
AcDbCircle
 10
63.57047686520001
 20
42.85976074469999
 30
0.0
 40
1.433319488038586
100
AcDbArc
 50
217.4703221841
 51
221.8257299895
  0
LINE
  5
EE
330
1F
100
AcDbEntity
  8
DIMENSION
100
AcDbLine
 10
62.9446343739
 20
41.8550957767
 30
0.0
 11
62.94389001039999
 21
41.53569621769999
 31
0.0
  0
ARC
  5
EF
330
1F
100
AcDbEntity
  8
DIMENSION
100
AcDbCircle
 10
65.2731326949
 20
45.1734492218
 30
0.0
 40
4.319562292885616
100
AcDbArc
 50
237.3686825452
 51
247.3369322755
  0
LINE
  5
F0
330
1F
100
AcDbEntity
  8
DIMENSION
100
AcDbLine
 10
64.4178773626
 20
41.0833571819
 30
0.0
 11
64.41745180239999
 21
40.9007531809
 31
0.0
  0
ARC
  5
F1
330
1F
100
AcDbEntity
  8
DIMENSION
100
AcDbCircle
 10
67.09285113289999
 20
49.9917005526
 30
0.0
 40
9.476449002254842
100
AcDbArc
 50
253.6012295384
 51
254.8374781700999
  0
LINE
  5
F2
330
1F
100
AcDbEntity
  8
DIMENSION
100
AcDbLine
 10
65.6129863133
 20
40.89403350669999
 30
0.0
 11
65.6123559168
 21
40.6235361439
 31
0.0
  0
ARC
  5
F3
330
1F
100
AcDbEntity
  8
DIMENSION
100
AcDbCircle
 10
68.03524466679999
 20
54.19666669649999
 30
0.0
 40
13.78768518981418
100
AcDbArc
 50
259.8789469714
 51
260.8135936003
  0
LINE
  5
F4
330
1F
100
AcDbEntity
  8
DIMENSION
100
AcDbLine
 10
66.95668171939999
 20
40.6268748083
 30
0.0
 11
66.9562627422
 21
40.4470955273
 31
0.0
  0
ARC
  5
F5
330
1F
100
AcDbEntity
  8
DIMENSION
100
AcDbCircle
 10
68.4526718279
 20
57.4650351375
 30
0.0
 40
17.0836035053818
100
AcDbArc
 50
264.9748339759
 51
265.8188583424
  0
ARC
  5
F6
330
1F
100
AcDbEntity
  8
DIMENSION
100
AcDbCircle
 10
68.5163493645
 20
58.6468441511
 30
0.0
 40
18.26731550740645
100
AcDbArc
 50
269.1930965482
 51
270.0103547651
  0
LINE
  5
F7
330
1F
100
AcDbEntity
  8
DIMENSION
100
AcDbLine
 10
68.52054470689999
 20
40.7631303626
 30
0.0
 11
68.51965072039999
 21
40.379528942
 31
0.0
  0
LINE
  5
F8
330
1F
100
AcDbEntity
  8
DIMENSION
100
AcDbLine
 10
69.28156838390001
 20
40.71916848229999
 30
0.0
 11
69.28081428430001
 21
40.3955912283
 31
0.0
  0
ARC
  5
F9
330
1F
100
AcDbEntity
  8
DIMENSION
100
AcDbCircle
 10
68.53511952560001
 20
58.0788711095
 30
0.0
 40
17.6989956785759
100
AcDbArc
 50
272.4147027132
 51
273.4255883105
  0
ARC
  5
FA
330
1F
100
AcDbEntity
  8
DIMENSION
100
AcDbCircle
 10
68.7415295504
 20
55.8162538535
 30
0.0
 40
15.42652501214541
100
AcDbArc
 50
276.7051488338
 51
277.4826845024
  0
LINE
  5
FB
330
1F
100
AcDbEntity
  8
DIMENSION
100
AcDbLine
 10
70.7507947625
 20
40.6592377021
 30
0.0
 11
70.75047282449999
 21
40.5210970753
 31
0.0
  0
ARC
  5
FC
330
1F
100
AcDbEntity
  8
DIMENSION
100
AcDbCircle
 10
69.41311999140001
 20
51.938619675
 30
0.0
 40
11.48974792393722
100
AcDbArc
 50
282.0629057984
 51
282.9851480509
  0
LINE
  5
FD
330
1F
100
AcDbEntity
  8
DIMENSION
100
AcDbLine
 10
71.99537668560001
 20
40.969182257
 30
0.0
 11
71.9948488286
 21
40.74268364599999
 31
0.0
  0
ARC
  5
FE
330
1F
100
AcDbEntity
  8
DIMENSION
100
AcDbCircle
 10
70.5697341953
 20
47.8512762363
 30
0.0
 40
7.239376836133593
100
AcDbArc
 50
288.8747589883
 51
290.1623344913
  0
LINE
  5
FF
330
1F
100
AcDbEntity
  8
DIMENSION
100
AcDbLine
 10
73.0652674525
 20
41.1655360787
 30
0.0
 11
73.0650110818
 21
41.0555297552
 31
0.0
  0
ARC
  5
100
330
1F
100
AcDbEntity
  8
DIMENSION
100
AcDbCircle
 10
71.818267421
 20
44.96705961239999
 30
0.0
 40
4.093673448175212
100
AcDbArc
 50
296.9532381238
 51
299.6362869977
  0
LINE
  5
101
330
1F
100
AcDbEntity
  8
DIMENSION
100
AcDbLine
 10
73.8435034085
 20
41.8145772131
 30
0.0
 11
73.84255800359999
 21
41.40891263159999
 31
0.0
  0
ARC
  5
102
330
1F
100
AcDbEntity
  8
DIMENSION
100
AcDbCircle
 10
72.81859923369999
 20
43.4275407699
 30
0.0
 40
2.255214945811665
100
AcDbArc
 50
307.5634757553
 51
310.8600402928
  0
LINE
  5
103
330
1F
100
AcDbEntity
  8
DIMENSION
100
AcDbLine
 10
74.2947054509
 20
42.0283356268
 30
0.0
 11
74.2939912984
 21
41.7218993342
 31
0.0
  0
ARC
  5
104
330
1F
100
AcDbEntity
  8
DIMENSION
100
AcDbCircle
 10
73.7222409705
 20
42.6036405365
 30
0.0
 40
1.025721733518323
100
AcDbArc
 50
328.5535470871
 51
334.0591399959
  0
LINE
  5
105
330
1F
100
AcDbEntity
  8
DIMENSION
100
AcDbLine
 10
74.6455597481
 20
42.55939010409999
 30
0.0
 11
74.64461718649999
 21
42.15494555
 31
0.0
  0
LINE
  5
106
330
1F
100
AcDbEntity
  8
DIMENSION
100
AcDbLine
 10
68.1709944798
 20
42.3090403668
 30
0.0
 11
68.85355594349999
 21
42.3208696403
 31
0.0
  0
LINE
  5
107
330
1F
100
AcDbEntity
  8
DIMENSION
100
AcDbLine
 10
69.16132740000001
 20
42.5290276361
 30
0.0
 11
68.85355594349999
 21
42.3208696403
 31
0.0
  0
LINE
  5
108
330
1F
100
AcDbEntity
  8
DIMENSION
100
AcDbLine
 10
69.16132740000001
 20
42.5290276361
 30
0.0
 11
68.7865373928
 21
42.72535635839999
 31
0.0
  0
LINE
  5
109
330
1F
100
AcDbEntity
  8
DIMENSION
100
AcDbLine
 10
68.7865373928
 20
42.72535635839999
 30
0.0
 11
68.1039759291
 21
42.7135270848
 31
0.0
  0
LINE
  5
10A
330
1F
100
AcDbEntity
  8
DIMENSION
100
AcDbLine
 10
67.7962044726
 20
42.505369089
 30
0.0
 11
68.1039759291
 21
42.7135270848
 31
0.0
  0
LINE
  5
10B
330
1F
100
AcDbEntity
  8
DIMENSION
100
AcDbLine
 10
67.7962044726
 20
42.505369089
 30
0.0
 11
68.1709944798
 21
42.3090403668
 31
0.0
  0
LINE
  5
10C
330
1F
100
AcDbEntity
  8
DIMENSION
100
AcDbLine
 10
66.4193339647
 20
43.96538414819999
 30
0.0
 11
66.0445439576
 21
44.1617128705
 31
0.0
  0
LINE
  5
10D
330
1F
100
AcDbEntity
  8
DIMENSION
100
AcDbLine
 10
66.0445439576
 20
44.1617128705
 30
0.0
 11
65.3619824939
 21
44.14988359689999
 31
0.0
  0
LINE
  5
10E
330
1F
100
AcDbEntity
  8
DIMENSION
100
AcDbLine
 10
65.05421103739999
 20
43.94172560109999
 30
0.0
 11
65.3619824939
 21
44.14988359689999
 31
0.0
  0
LINE
  5
10F
330
1F
100
AcDbEntity
  8
DIMENSION
100
AcDbLine
 10
65.4290010446
 20
43.7453968789
 30
0.0
 11
65.05421103739999
 21
43.94172560109999
 31
0.0
  0
LINE
  5
110
330
1F
100
AcDbEntity
  8
DIMENSION
100
AcDbLine
 10
66.11156250829999
 20
43.75722615239999
 30
0.0
 11
65.4290010446
 21
43.7453968789
 31
0.0
  0
LINE
  5
111
330
1F
100
AcDbEntity
  8
DIMENSION
100
AcDbLine
 10
66.11156250829999
 20
43.75722615239999
 30
0.0
 11
66.4193339647
 21
43.96538414819999
 31
0.0
  0
LINE
  5
112
330
1F
100
AcDbEntity
  8
DIMENSION
100
AcDbLine
 10
65.2538762038
 20
43.70245731359999
 30
0.0
 11
64.94069131109999
 21
43.4971350738
 31
0.0
  0
LINE
  5
113
330
1F
100
AcDbEntity
  8
DIMENSION
100
AcDbLine
 10
64.8790861966
 20
43.8987860358
 30
0.0
 11
65.2538762038
 21
43.70245731359999
 31
0.0
  0
LINE
  5
114
330
1F
100
AcDbEntity
  8
DIMENSION
100
AcDbLine
 10
64.1965247329
 20
43.8869567622
 30
0.0
 11
64.8790861966
 21
43.8987860358
 31
0.0
  0
LINE
  5
115
330
1F
100
AcDbEntity
  8
DIMENSION
100
AcDbLine
 10
63.8887532764
 20
43.67879876639999
 30
0.0
 11
64.1965247329
 21
43.8869567622
 31
0.0
  0
LINE
  5
116
330
1F
100
AcDbEntity
  8
DIMENSION
100
AcDbLine
 10
64.2635432836
 20
43.4824700442
 30
0.0
 11
63.8887532764
 21
43.67879876639999
 31
0.0
  0
LINE
  5
117
330
1F
100
AcDbEntity
  8
DIMENSION
100
AcDbLine
 10
64.94069131109999
 20
43.4971350738
 30
0.0
 11
64.2635432836
 21
43.4824700442
 31
0.0
  0
LINE
  5
118
330
1F
100
AcDbEntity
  8
DIMENSION
100
AcDbLine
 10
62.8260649938
 20
42.92531938639999
 30
0.0
 11
63.1338364503
 21
43.13347738229999
 31
0.0
  0
LINE
  5
119
330
1F
100
AcDbEntity
  8
DIMENSION
100
AcDbLine
 10
63.200855001
 20
42.72899066419999
 30
0.0
 11
62.8260649938
 21
42.92531938639999
 31
0.0
  0
LINE
  5
11A
330
1F
100
AcDbEntity
  8
DIMENSION
100
AcDbLine
 10
63.8780030285
 20
42.7436556938
 30
0.0
 11
63.200855001
 21
42.72899066419999
 31
0.0
  0
LINE
  5
11B
330
1F
100
AcDbEntity
  8
DIMENSION
100
AcDbLine
 10
64.19118792109999
 20
42.94897793359999
 30
0.0
 11
63.8780030285
 21
42.7436556938
 31
0.0
  0
LINE
  5
11C
330
1F
100
AcDbEntity
  8
DIMENSION
100
AcDbLine
 10
63.8163979139
 20
43.1453066558
 30
0.0
 11
64.19118792109999
 21
42.94897793359999
 31
0.0
  0
LINE
  5
11D
330
1F
100
AcDbEntity
  8
DIMENSION
100
AcDbLine
 10
63.1338364503
 20
43.13347738229999
 30
0.0
 11
63.8163979139
 21
43.1453066558
 31
0.0
  0
LINE
  5
11E
330
1F
100
AcDbEntity
  8
DIMENSION
100
AcDbLine
 10
65.35664568209999
 20
43.2119047682
 30
0.0
 11
65.0488742256
 21
43.00374677239999
 31
0.0
  0
LINE
  5
11F
330
1F
100
AcDbEntity
  8
DIMENSION
100
AcDbLine
 10
64.98185567490001
 20
43.4082334905
 30
0.0
 11
65.35664568209999
 21
43.2119047682
 31
0.0
  0
LINE
  5
120
330
1F
100
AcDbEntity
  8
DIMENSION
100
AcDbLine
 10
64.29929421119999
 20
43.39640421689999
 30
0.0
 11
64.98185567490001
 21
43.4082334905
 31
0.0
  0
LINE
  5
121
330
1F
100
AcDbEntity
  8
DIMENSION
100
AcDbLine
 10
63.9915227547
 20
43.18824622109999
 30
0.0
 11
64.29929421119999
 21
43.39640421689999
 31
0.0
  0
LINE
  5
122
330
1F
100
AcDbEntity
  8
DIMENSION
100
AcDbLine
 10
64.36631276189999
 20
42.9919174989
 30
0.0
 11
63.9915227547
 21
43.18824622109999
 31
0.0
  0
LINE
  5
123
330
1F
100
AcDbEntity
  8
DIMENSION
100
AcDbLine
 10
65.0488742256
 20
43.00374677239999
 30
0.0
 11
64.36631276189999
 21
42.9919174989
 31
0.0
  0
LINE
  5
124
330
1F
100
AcDbEntity
  8
DIMENSION
100
AcDbLine
 10
66.52210344310001
 20
43.47483160289999
 30
0.0
 11
66.20891855039999
 21
43.26950936310001
 31
0.0
  0
LINE
  5
125
330
1F
100
AcDbEntity
  8
DIMENSION
100
AcDbLine
 10
66.1473134359
 20
43.6711603251
 30
0.0
 11
66.52210344310001
 21
43.47483160289999
 31
0.0
  0
LINE
  5
126
330
1F
100
AcDbEntity
  8
DIMENSION
100
AcDbLine
 10
65.46475197220001
 20
43.65933105149999
 30
0.0
 11
66.1473134359
 21
43.6711603251
 31
0.0
  0
LINE
  5
127
330
1F
100
AcDbEntity
  8
DIMENSION
100
AcDbLine
 10
65.1569805157
 20
43.45117305569999
 30
0.0
 11
65.46475197220001
 21
43.65933105149999
 31
0.0
  0
LINE
  5
128
330
1F
100
AcDbEntity
  8
DIMENSION
100
AcDbLine
 10
65.5317705229
 20
43.2548443335
 30
0.0
 11
65.1569805157
 21
43.45117305569999
 31
0.0
  0
LINE
  5
129
330
1F
100
AcDbEntity
  8
DIMENSION
100
AcDbLine
 10
66.20891855039999
 20
43.26950936310001
 30
0.0
 11
65.5317705229
 21
43.2548443335
 31
0.0
  0
LINE
  5
12A
330
1F
100
AcDbEntity
  8
DIMENSION
100
AcDbLine
 10
67.79033068229999
 20
43.2472058922
 30
0.0
 11
67.4155406752
 21
43.44353461439999
 31
0.0
  0
LINE
  5
12B
330
1F
100
AcDbEntity
  8
DIMENSION
100
AcDbLine
 10
67.4155406752
 20
43.44353461439999
 30
0.0
 11
66.73297921149999
 21
43.4317053408
 31
0.0
  0
LINE
  5
12C
330
1F
100
AcDbEntity
  8
DIMENSION
100
AcDbLine
 10
66.425207755
 20
43.223547345
 30
0.0
 11
66.73297921149999
 21
43.4317053408
 31
0.0
  0
LINE
  5
12D
330
1F
100
AcDbEntity
  8
DIMENSION
100
AcDbLine
 10
66.7999977622
 20
43.0272186228
 30
0.0
 11
66.425207755
 21
43.223547345
 31
0.0
  0
LINE
  5
12E
330
1F
100
AcDbEntity
  8
DIMENSION
100
AcDbLine
 10
67.48255922590001
 20
43.0390478964
 30
0.0
 11
66.7999977622
 21
43.0272186228
 31
0.0
  0
LINE
  5
12F
330
1F
100
AcDbEntity
  8
DIMENSION
100
AcDbLine
 10
67.48255922590001
 20
43.0390478964
 30
0.0
 11
67.79033068229999
 21
43.2472058922
 31
0.0
  0
LINE
  5
130
330
1F
100
AcDbEntity
  8
DIMENSION
100
AcDbLine
 10
65.25974999399998
 20
42.96062051039999
 30
0.0
 11
65.56752145049999
 21
43.1687785062
 31
0.0
  0
LINE
  5
131
330
1F
100
AcDbEntity
  8
DIMENSION
100
AcDbLine
 10
65.6345400012
 20
42.7642917882
 30
0.0
 11
65.25974999399998
 21
42.96062051039999
 31
0.0
  0
LINE
  5
132
330
1F
100
AcDbEntity
  8
DIMENSION
100
AcDbLine
 10
66.3116880287
 20
42.7789568177
 30
0.0
 11
65.6345400012
 21
42.7642917882
 31
0.0
  0
LINE
  5
133
330
1F
100
AcDbEntity
  8
DIMENSION
100
AcDbLine
 10
66.62487292139999
 20
42.98427905749999
 30
0.0
 11
66.3116880287
 21
42.7789568177
 31
0.0
  0
LINE
  5
134
330
1F
100
AcDbEntity
  8
DIMENSION
100
AcDbLine
 10
66.25008291420001
 20
43.18060777979999
 30
0.0
 11
66.62487292139999
 21
42.98427905749999
 31
0.0
  0
LINE
  5
135
330
1F
100
AcDbEntity
  8
DIMENSION
100
AcDbLine
 10
65.56752145049999
 20
43.1687785062
 30
0.0
 11
66.25008291420001
 21
43.18060777979999
 31
0.0
  0
LINE
  5
136
330
1F
100
AcDbEntity
  8
DIMENSION
100
AcDbLine
 10
64.0942922331
 20
42.6976936757
 30
0.0
 11
64.4020636895
 21
42.90585167159999
 31
0.0
  0
LINE
  5
137
330
1F
100
AcDbEntity
  8
DIMENSION
100
AcDbLine
 10
64.46908224020001
 20
42.5013649535
 30
0.0
 11
64.0942922331
 21
42.6976936757
 31
0.0
  0
LINE
  5
138
330
1F
100
AcDbEntity
  8
DIMENSION
100
AcDbLine
 10
65.14623026779999
 20
42.5160299831
 30
0.0
 11
64.46908224020001
 21
42.5013649535
 31
0.0
  0
LINE
  5
139
330
1F
100
AcDbEntity
  8
DIMENSION
100
AcDbLine
 10
65.4594151604
 20
42.7213522229
 30
0.0
 11
65.14623026779999
 21
42.5160299831
 31
0.0
  0
LINE
  5
13A
330
1F
100
AcDbEntity
  8
DIMENSION
100
AcDbLine
 10
65.08462515319999
 20
42.9176809451
 30
0.0
 11
65.4594151604
 21
42.7213522229
 31
0.0
  0
LINE
  5
13B
330
1F
100
AcDbEntity
  8
DIMENSION
100
AcDbLine
 10
64.4020636895
 20
42.90585167159999
 30
0.0
 11
65.08462515319999
 21
42.9176809451
 31
0.0
  0
LINE
  5
13C
330
1F
100
AcDbEntity
  8
DIMENSION
100
AcDbLine
 10
63.2982110431
 20
42.2412738748
 30
0.0
 11
62.9234210359
 21
42.4376025971
 31
0.0
  0
LINE
  5
13D
330
1F
100
AcDbEntity
  8
DIMENSION
100
AcDbLine
 10
63.9753590706
 20
42.25593890439999
 30
0.0
 11
63.2982110431
 21
42.2412738748
 31
0.0
  0
LINE
  5
13E
330
1F
100
AcDbEntity
  8
DIMENSION
100
AcDbLine
 10
64.2885439633
 20
42.46126114419999
 30
0.0
 11
63.9753590706
 21
42.25593890439999
 31
0.0
  0
LINE
  5
13F
330
1F
100
AcDbEntity
  8
DIMENSION
100
AcDbLine
 10
63.91375395609999
 20
42.6575898665
 30
0.0
 11
64.2885439633
 21
42.46126114419999
 31
0.0
  0
LINE
  5
140
330
1F
100
AcDbEntity
  8
DIMENSION
100
AcDbLine
 10
63.2311924924
 20
42.64576059289999
 30
0.0
 11
63.91375395609999
 21
42.6575898665
 31
0.0
  0
LINE
  5
141
330
1F
100
AcDbEntity
  8
DIMENSION
100
AcDbLine
 10
62.9234210359
 20
42.4376025971
 30
0.0
 11
63.2311924924
 21
42.64576059289999
 31
0.0
  0
LINE
  5
142
330
1F
100
AcDbEntity
  8
DIMENSION
100
AcDbLine
 10
64.0727151128
 20
41.768222115
 30
0.0
 11
63.39556708529999
 21
41.75355708549999
 31
0.0
  0
LINE
  5
143
330
1F
100
AcDbEntity
  8
DIMENSION
100
AcDbLine
 10
64.3859000054
 20
41.9735443549
 30
0.0
 11
64.0727151128
 21
41.768222115
 31
0.0
  0
LINE
  5
144
330
1F
100
AcDbEntity
  8
DIMENSION
100
AcDbLine
 10
64.0111099983
 20
42.1698730771
 30
0.0
 11
64.3859000054
 21
41.9735443549
 31
0.0
  0
LINE
  5
145
330
1F
100
AcDbEntity
  8
DIMENSION
100
AcDbLine
 10
63.3285485346
 20
42.15804380349999
 30
0.0
 11
64.0111099983
 21
42.1698730771
 31
0.0
  0
LINE
  5
146
330
1F
100
AcDbEntity
  8
DIMENSION
100
AcDbLine
 10
63.0207770781
 20
41.9498858077
 30
0.0
 11
63.3285485346
 21
42.15804380349999
 31
0.0
  0
LINE
  5
147
330
1F
100
AcDbEntity
  8
DIMENSION
100
AcDbLine
 10
63.39556708529999
 20
41.75355708549999
 30
0.0
 11
63.0207770781
 21
41.9498858077
 31
0.0
  0
LINE
  5
148
330
1F
100
AcDbEntity
  8
DIMENSION
100
AcDbLine
 10
65.2435863099
 20
42.0283131937
 30
0.0
 11
64.5664382824
 21
42.01364816409999
 31
0.0
  0
LINE
  5
149
330
1F
100
AcDbEntity
  8
DIMENSION
100
AcDbLine
 10
65.5567712026
 20
42.23363543349999
 30
0.0
 11
65.2435863099
 21
42.0283131937
 31
0.0
  0
LINE
  5
14A
330
1F
100
AcDbEntity
  8
DIMENSION
100
AcDbLine
 10
65.1819811954
 20
42.4299641558
 30
0.0
 11
65.5567712026
 21
42.23363543349999
 31
0.0
  0
LINE
  5
14B
330
1F
100
AcDbEntity
  8
DIMENSION
100
AcDbLine
 10
64.4994197317
 20
42.4181348822
 30
0.0
 11
65.1819811954
 21
42.4299641558
 31
0.0
  0
LINE
  5
14C
330
1F
100
AcDbEntity
  8
DIMENSION
100
AcDbLine
 10
64.19164827520001
 20
42.20997688639999
 30
0.0
 11
64.4994197317
 21
42.4181348822
 31
0.0
  0
LINE
  5
14D
330
1F
100
AcDbEntity
  8
DIMENSION
100
AcDbLine
 10
64.5664382824
 20
42.01364816409999
 30
0.0
 11
64.19164827520001
 21
42.20997688639999
 31
0.0
  0
LINE
  5
14E
330
1F
100
AcDbEntity
  8
DIMENSION
100
AcDbLine
 10
66.41445750709999
 20
42.2884042724
 30
0.0
 11
65.7373094795
 21
42.27373924280001
 31
0.0
  0
LINE
  5
14F
330
1F
100
AcDbEntity
  8
DIMENSION
100
AcDbLine
 10
66.7276423997
 20
42.49372651219999
 30
0.0
 11
66.41445750709999
 21
42.2884042724
 31
0.0
  0
LINE
  5
150
330
1F
100
AcDbEntity
  8
DIMENSION
100
AcDbLine
 10
66.35285239249999
 20
42.69005523439999
 30
0.0
 11
66.7276423997
 21
42.49372651219999
 31
0.0
  0
LINE
  5
151
330
1F
100
AcDbEntity
  8
DIMENSION
100
AcDbLine
 10
65.6702909288
 20
42.6782259609
 30
0.0
 11
66.35285239249999
 21
42.69005523439999
 31
0.0
  0
LINE
  5
152
330
1F
100
AcDbEntity
  8
DIMENSION
100
AcDbLine
 10
65.36251947229999
 20
42.470067965
 30
0.0
 11
65.6702909288
 21
42.6782259609
 31
0.0
  0
LINE
  5
153
330
1F
100
AcDbEntity
  8
DIMENSION
100
AcDbLine
 10
65.7373094795
 20
42.27373924280001
 30
0.0
 11
65.36251947229999
 21
42.470067965
 31
0.0
  0
LINE
  5
154
330
1F
100
AcDbEntity
  8
DIMENSION
100
AcDbLine
 10
67.58532870419999
 20
42.54849535099999
 30
0.0
 11
66.9027672405
 21
42.5366660775
 31
0.0
  0
LINE
  5
155
330
1F
100
AcDbEntity
  8
DIMENSION
100
AcDbLine
 10
67.8931001607
 20
42.7566533468
 30
0.0
 11
67.58532870419999
 21
42.54849535099999
 31
0.0
  0
LINE
  5
156
330
1F
100
AcDbEntity
  8
DIMENSION
100
AcDbLine
 10
67.51831015350001
 20
42.9529820691
 30
0.0
 11
67.8931001607
 21
42.7566533468
 31
0.0
  0
LINE
  5
157
330
1F
100
AcDbEntity
  8
DIMENSION
100
AcDbLine
 10
66.8357486898
 20
42.9411527955
 30
0.0
 11
67.51831015350001
 21
42.9529820691
 31
0.0
  0
LINE
  5
158
330
1F
100
AcDbEntity
  8
DIMENSION
100
AcDbLine
 10
66.52797723329999
 20
42.73299479969999
 30
0.0
 11
66.8357486898
 21
42.9411527955
 31
0.0
  0
LINE
  5
159
330
1F
100
AcDbEntity
  8
DIMENSION
100
AcDbLine
 10
66.9027672405
 20
42.5366660775
 30
0.0
 11
66.52797723329999
 21
42.73299479969999
 31
0.0
  0
LINE
  5
15A
330
1F
100
AcDbEntity
  8
DIMENSION
100
AcDbLine
 10
66.6253332755
 20
42.2452780103
 30
0.0
 11
66.933104732
 21
42.4534360061
 31
0.0
  0
LINE
  5
15B
330
1F
100
AcDbEntity
  8
DIMENSION
100
AcDbLine
 10
66.6253332755
 20
42.2452780103
 30
0.0
 11
67.0001232827
 21
42.04894928809999
 31
0.0
  0
LINE
  5
15C
330
1F
100
AcDbEntity
  8
DIMENSION
100
AcDbLine
 10
67.0001232827
 20
42.04894928809999
 30
0.0
 11
67.6826847463
 21
42.0607785617
 31
0.0
  0
LINE
  5
15D
330
1F
100
AcDbEntity
  8
DIMENSION
100
AcDbLine
 10
67.6826847463
 20
42.0607785617
 30
0.0
 11
67.99045620280001
 21
42.26893655749999
 31
0.0
  0
LINE
  5
15E
330
1F
100
AcDbEntity
  8
DIMENSION
100
AcDbLine
 10
67.99045620280001
 20
42.26893655749999
 30
0.0
 11
67.61566619559999
 21
42.4652652797
 31
0.0
  0
LINE
  5
15F
330
1F
100
AcDbEntity
  8
DIMENSION
100
AcDbLine
 10
66.933104732
 20
42.4534360061
 30
0.0
 11
67.61566619559999
 21
42.4652652797
 31
0.0
  0
LINE
  5
160
330
1F
100
AcDbEntity
  8
DIMENSION
100
AcDbLine
 10
65.4544620784
 20
41.9851869317
 30
0.0
 11
65.76223353479999
 21
42.19334492749999
 31
0.0
  0
LINE
  5
161
330
1F
100
AcDbEntity
  8
DIMENSION
100
AcDbLine
 10
65.4544620784
 20
41.9851869317
 30
0.0
 11
65.8292520856
 21
41.78885820939999
 31
0.0
  0
LINE
  5
162
330
1F
100
AcDbEntity
  8
DIMENSION
100
AcDbLine
 10
65.8292520856
 20
41.78885820939999
 30
0.0
 11
66.5118135492
 21
41.800687483
 31
0.0
  0
LINE
  5
163
330
1F
100
AcDbEntity
  8
DIMENSION
100
AcDbLine
 10
66.5118135492
 20
41.800687483
 30
0.0
 11
66.81958500569999
 21
42.0088454788
 31
0.0
  0
LINE
  5
164
330
1F
100
AcDbEntity
  8
DIMENSION
100
AcDbLine
 10
66.81958500569999
 20
42.0088454788
 30
0.0
 11
66.4447949985
 21
42.205174201
 31
0.0
  0
LINE
  5
165
330
1F
100
AcDbEntity
  8
DIMENSION
100
AcDbLine
 10
65.76223353479999
 20
42.19334492749999
 30
0.0
 11
66.4447949985
 21
42.205174201
 31
0.0
  0
LINE
  5
166
330
1F
100
AcDbEntity
  8
DIMENSION
100
AcDbLine
 10
64.2835908812
 20
41.725095853
 30
0.0
 11
64.5913623377
 21
41.9332538488
 31
0.0
  0
LINE
  5
167
330
1F
100
AcDbEntity
  8
DIMENSION
100
AcDbLine
 10
64.2835908812
 20
41.725095853
 30
0.0
 11
64.6583808884
 21
41.5287671307
 31
0.0
  0
LINE
  5
168
330
1F
100
AcDbEntity
  8
DIMENSION
100
AcDbLine
 10
64.6583808884
 20
41.5287671307
 30
0.0
 11
65.3409423521
 21
41.54059640429999
 31
0.0
  0
LINE
  5
169
330
1F
100
AcDbEntity
  8
DIMENSION
100
AcDbLine
 10
65.3409423521
 20
41.54059640429999
 30
0.0
 11
65.64871380859999
 21
41.7487544001
 31
0.0
  0
LINE
  5
16A
330
1F
100
AcDbEntity
  8
DIMENSION
100
AcDbLine
 10
65.64871380859999
 20
41.7487544001
 30
0.0
 11
65.2739238014
 21
41.94508312239999
 31
0.0
  0
LINE
  5
16B
330
1F
100
AcDbEntity
  8
DIMENSION
100
AcDbLine
 10
64.5913623377
 20
41.9332538488
 30
0.0
 11
65.2739238014
 21
41.94508312239999
 31
0.0
  0
LINE
  5
16C
330
1F
100
AcDbEntity
  8
DIMENSION
100
AcDbLine
 10
63.1127196841
 20
41.4650047743
 30
0.0
 11
63.4204911406
 21
41.6731627701
 31
0.0
  0
LINE
  5
16D
330
1F
100
AcDbEntity
  8
DIMENSION
100
AcDbLine
 10
63.1127196841
 20
41.4650047743
 30
0.0
 11
63.4875096913
 21
41.2686760521
 31
0.0
  0
LINE
  5
16E
330
1F
100
AcDbEntity
  8
DIMENSION
100
AcDbLine
 10
63.4875096913
 20
41.2686760521
 30
0.0
 11
64.170071155
 21
41.28050532569999
 31
0.0
  0
LINE
  5
16F
330
1F
100
AcDbEntity
  8
DIMENSION
100
AcDbLine
 10
64.170071155
 20
41.28050532569999
 30
0.0
 11
64.47784261149999
 21
41.48866332149999
 31
0.0
  0
LINE
  5
170
330
1F
100
AcDbEntity
  8
DIMENSION
100
AcDbLine
 10
64.47784261149999
 20
41.48866332149999
 30
0.0
 11
64.1030526043
 21
41.68499204369999
 31
0.0
  0
LINE
  5
171
330
1F
100
AcDbEntity
  8
DIMENSION
100
AcDbLine
 10
63.4204911406
 20
41.6731627701
 30
0.0
 11
64.1030526043
 21
41.68499204369999
 31
0.0
  0
LINE
  5
172
330
1F
100
AcDbEntity
  8
DIMENSION
100
AcDbLine
 10
62.8044878735
 20
41.9958478257
 30
0.0
 11
62.43289625479999
 21
41.98780024699999
 31
0.0
  0
LINE
  5
173
330
1F
100
AcDbEntity
  8
DIMENSION
100
AcDbLine
 10
63.1176727662
 20
42.20117006559999
 30
0.0
 11
62.8044878735
 21
41.9958478257
 31
0.0
  0
LINE
  5
174
330
1F
100
AcDbEntity
  8
DIMENSION
100
AcDbLine
 10
62.742882759
 20
42.3974987878
 30
0.0
 11
63.1176727662
 21
42.20117006559999
 31
0.0
  0
LINE
  5
175
330
1F
100
AcDbEntity
  8
DIMENSION
100
AcDbLine
 10
62.2424320025
 20
42.3888256217
 30
0.0
 11
62.742882759
 21
42.3974987878
 31
0.0
  0
LINE
  5
176
330
1F
100
AcDbEntity
  8
DIMENSION
100
AcDbLine
 10
62.7071318314
 20
42.4835646151
 30
0.0
 11
62.2401536642
 21
42.47345124499999
 31
0.0
  0
LINE
  5
177
330
1F
100
AcDbEntity
  8
DIMENSION
100
AcDbLine
 10
63.020316724
 20
42.6888868549
 30
0.0
 11
62.7071318314
 21
42.4835646151
 31
0.0
  0
LINE
  5
178
330
1F
100
AcDbEntity
  8
DIMENSION
100
AcDbLine
 10
62.6455267168
 20
42.8852155772
 30
0.0
 11
63.020316724
 21
42.6888868549
 31
0.0
  0
LINE
  5
179
330
1F
100
AcDbEntity
  8
DIMENSION
100
AcDbLine
 10
62.4308913505
 20
42.88149579419999
 30
0.0
 11
62.6455267168
 21
42.8852155772
 31
0.0
  0
LINE
  5
17A
330
1F
100
AcDbEntity
  8
DIMENSION
100
AcDbLine
 10
62.6097757892
 20
42.97128140449999
 30
0.0
 11
62.503626973
 21
42.9689825341
 31
0.0
  0
LINE
  5
17B
330
1F
100
AcDbEntity
  8
DIMENSION
100
AcDbLine
 10
62.9229606818
 20
43.1766036443
 30
0.0
 11
62.6097757892
 21
42.97128140449999
 31
0.0
  0
LINE
  5
17C
330
1F
100
AcDbEntity
  8
DIMENSION
100
AcDbLine
 10
62.8054981232
 20
43.2381348314
 30
0.0
 11
62.9229606818
 21
43.1766036443
 31
0.0
  0
LINE
  5
17D
330
1F
100
AcDbEntity
  8
DIMENSION
100
AcDbLine
 10
63.0980855226
 20
43.21954320959999
 30
0.0
 11
62.91552745989999
 21
43.315173804
 31
0.0
  0
LINE
  5
17E
330
1F
100
AcDbEntity
  8
DIMENSION
100
AcDbLine
 10
63.7806469863
 20
43.2313724831
 30
0.0
 11
63.0980855226
 21
43.21954320959999
 31
0.0
  0
LINE
  5
17F
330
1F
100
AcDbEntity
  8
DIMENSION
100
AcDbLine
 10
64.08841844279999
 20
43.4395304789
 30
0.0
 11
63.7806469863
 21
43.2313724831
 31
0.0
  0
LINE
  5
180
330
1F
100
AcDbEntity
  8
DIMENSION
100
AcDbLine
 10
63.7136284356
 20
43.6358592012
 30
0.0
 11
64.08841844279999
 21
43.4395304789
 31
0.0
  0
LINE
  5
181
330
1F
100
AcDbEntity
  8
DIMENSION
100
AcDbLine
 10
63.50059009729999
 20
43.6321670959
 30
0.0
 11
63.7136284356
 21
43.6358592012
 31
0.0
  0
LINE
  5
182
330
1F
100
AcDbEntity
  8
DIMENSION
100
AcDbLine
 10
64.84333526899999
 20
43.9848518631
 30
0.0
 11
64.4728160792
 21
43.97843050319999
 31
0.0
  0
LINE
  5
183
330
1F
100
AcDbEntity
  8
DIMENSION
100
AcDbLine
 10
65.0478455712
 20
44.12317026060001
 30
0.0
 11
64.84333526899999
 21
43.9848518631
 31
0.0
  0
LINE
  5
184
330
1F
100
AcDbEntity
  8
DIMENSION
100
AcDbLine
 10
65.63271427530001
 20
44.238331412
 30
0.0
 11
66.01420646609999
 21
44.2449429418
 31
0.0
  0
LINE
  5
185
330
1F
100
AcDbEntity
  8
DIMENSION
100
AcDbLine
 10
66.01420646609999
 20
44.2449429418
 30
0.0
 11
66.1148599434
 21
44.3130188653
 31
0.0
  0
LINE
  5
186
330
1F
100
AcDbEntity
  8
DIMENSION
100
AcDbLine
 10
67.4391582543
 20
44.43927549109999
 30
0.0
 11
67.7815703111
 21
44.2599075243
 31
0.0
  0
LINE
  5
187
330
1F
100
AcDbEntity
  8
DIMENSION
100
AcDbLine
 10
67.7815703111
 20
44.2599075243
 30
0.0
 11
68.46413177479999
 21
44.2717367978
 31
0.0
  0
LINE
  5
188
330
1F
100
AcDbEntity
  8
DIMENSION
100
AcDbLine
 10
68.46413177479999
 20
44.2717367978
 30
0.0
 11
68.74889089319999
 21
44.4643306402
 31
0.0
  0
LINE
  5
189
330
1F
100
AcDbEntity
  8
DIMENSION
100
AcDbLine
 10
70.0195963382
 20
44.39770197899999
 30
0.0
 11
70.2260821837
 21
44.2895371363
 31
0.0
  0
LINE
  5
18A
330
1F
100
AcDbEntity
  8
DIMENSION
100
AcDbLine
 10
70.2260821837
 20
44.2895371363
 30
0.0
 11
70.8443624949
 21
44.3029272647
 31
0.0
  0
LINE
  5
18B
330
1F
100
AcDbEntity
  8
DIMENSION
100
AcDbLine
 10
71.12305530899999
 20
44.2606316121
 30
0.0
 11
71.1195194158
 21
44.25824014779999
 31
0.0
  0
LINE
  5
18C
330
1F
100
AcDbEntity
  8
DIMENSION
100
AcDbLine
 10
71.1195194158
 20
44.25824014779999
 30
0.0
 11
71.494309423
 21
44.06191142559999
 31
0.0
  0
LINE
  5
18D
330
1F
100
AcDbEntity
  8
DIMENSION
100
AcDbLine
 10
71.494309423
 20
44.06191142559999
 30
0.0
 11
72.0582154895
 21
44.0741239681
 31
0.0
  0
LINE
  5
18E
330
1F
100
AcDbEntity
  8
DIMENSION
100
AcDbLine
 10
72.56307415070001
 20
43.93877147829999
 30
0.0
 11
72.76253666229999
 21
43.83428571489999
 31
0.0
  0
LINE
  5
18F
330
1F
100
AcDbEntity
  8
DIMENSION
100
AcDbLine
 10
72.76253666229999
 20
43.83428571489999
 30
0.0
 11
72.88260836860001
 21
43.83688611399999
 31
0.0
  0
LINE
  5
190
330
1F
100
AcDbEntity
  8
DIMENSION
100
AcDbLine
 10
73.74250306419999
 20
43.32094344899999
 30
0.0
 11
73.86579104189999
 21
43.40177034809999
 31
0.0
  0
LINE
  5
191
330
1F
100
AcDbEntity
  8
DIMENSION
100
AcDbLine
 10
74.11729307139999
 20
43.1246147267
 30
0.0
 11
73.74250306419999
 21
43.32094344899999
 31
0.0
  0
LINE
  5
192
330
1F
100
AcDbEntity
  8
DIMENSION
100
AcDbLine
 10
74.2625076395
 20
43.127131398
 30
0.0
 11
74.11729307139999
 21
43.1246147267
 31
0.0
  0
LINE
  5
193
330
1F
100
AcDbEntity
  8
DIMENSION
100
AcDbLine
 10
74.15304399899999
 20
43.0385488994
 30
0.0
 11
74.35701934689999
 21
43.04296640399999
 31
0.0
  0
LINE
  5
194
330
1F
100
AcDbEntity
  8
DIMENSION
100
AcDbLine
 10
73.83985910639999
 20
42.8332266596
 30
0.0
 11
74.15304399899999
 21
43.0385488994
 31
0.0
  0
LINE
  5
195
330
1F
100
AcDbEntity
  8
DIMENSION
100
AcDbLine
 10
74.21464911359999
 20
42.6368979374
 30
0.0
 11
73.83985910639999
 21
42.8332266596
 31
0.0
  0
LINE
  5
196
330
1F
100
AcDbEntity
  8
DIMENSION
100
AcDbLine
 10
74.65431463459999
 20
42.6445176522
 30
0.0
 11
74.21464911359999
 21
42.6368979374
 31
0.0
  0
LINE
  5
197
330
1F
100
AcDbEntity
  8
DIMENSION
100
AcDbLine
 10
74.25040004119999
 20
42.55083211
 30
0.0
 11
74.68752528510001
 21
42.5602989539
 31
0.0
  0
LINE
  5
198
330
1F
100
AcDbEntity
  8
DIMENSION
100
AcDbLine
 10
73.93721514860001
 20
42.34550987019999
 30
0.0
 11
74.25040004119999
 21
42.55083211
 31
0.0
  0
LINE
  5
199
330
1F
100
AcDbEntity
  8
DIMENSION
100
AcDbLine
 10
74.31200515579999
 20
42.149181148
 30
0.0
 11
73.93721514860001
 21
42.34550987019999
 31
0.0
  0
LINE
  5
19A
330
1F
100
AcDbEntity
  8
DIMENSION
100
AcDbLine
 10
74.64461718649999
 20
42.15494555
 30
0.0
 11
74.31200515579999
 21
42.149181148
 31
0.0
  0
LINE
  5
19B
330
1F
100
AcDbEntity
  8
DIMENSION
100
AcDbLine
 10
74.3477560834
 20
42.06311532069999
 30
0.0
 11
74.59731300930001
 21
42.0685199878
 31
0.0
  0
LINE
  5
19C
330
1F
100
AcDbEntity
  8
DIMENSION
100
AcDbLine
 10
74.03457119069999
 20
41.85779308079999
 30
0.0
 11
74.3477560834
 21
42.06311532069999
 31
0.0
  0
LINE
  5
19D
330
1F
100
AcDbEntity
  8
DIMENSION
100
AcDbLine
 10
74.2939912984
 20
41.7218993342
 30
0.0
 11
74.03457119069999
 21
41.85779308079999
 31
0.0
  0
LINE
  5
19E
330
1F
100
AcDbEntity
  8
DIMENSION
100
AcDbLine
 10
73.8594463499
 20
41.8148535156
 30
0.0
 11
74.19346842909999
 21
41.6398805261
 31
0.0
  0
LINE
  5
19F
330
1F
100
AcDbEntity
  8
DIMENSION
100
AcDbLine
 10
73.1768848863
 20
41.80302424199999
 30
0.0
 11
73.8594463499
 21
41.8148535156
 31
0.0
  0
LINE
  5
1A0
330
1F
100
AcDbEntity
  8
DIMENSION
100
AcDbLine
 10
72.86911342979999
 20
41.5948662462
 30
0.0
 11
73.1768848863
 21
41.80302424199999
 31
0.0
  0
LINE
  5
1A1
330
1F
100
AcDbEntity
  8
DIMENSION
100
AcDbLine
 10
73.243903437
 20
41.39853752399999
 30
0.0
 11
72.86911342979999
 21
41.5948662462
 31
0.0
  0
LINE
  5
1A2
330
1F
100
AcDbEntity
  8
DIMENSION
100
AcDbLine
 10
73.84255800359999
 20
41.40891263159999
 30
0.0
 11
73.243903437
 21
41.39853752399999
 31
0.0
  0
LINE
  5
1A3
330
1F
100
AcDbEntity
  8
DIMENSION
100
AcDbLine
 10
73.28506780069999
 20
41.3096359407
 30
0.0
 11
73.67377876279999
 21
41.31805427389999
 31
0.0
  0
LINE
  5
1A4
330
1F
100
AcDbEntity
  8
DIMENSION
100
AcDbLine
 10
72.9718829081
 20
41.1043137009
 30
0.0
 11
73.28506780069999
 21
41.3096359407
 31
0.0
  0
LINE
  5
1A5
330
1F
100
AcDbEntity
  8
DIMENSION
100
AcDbLine
 10
73.0650110818
 20
41.0555297552
 30
0.0
 11
72.9718829081
 21
41.1043137009
 31
0.0
  0
LINE
  5
1A6
330
1F
100
AcDbEntity
  8
DIMENSION
100
AcDbLine
 10
72.79675806729999
 20
41.06137413559999
 30
0.0
 11
72.9116769418
 21
41.00117542329999
 31
0.0
  0
LINE
  5
1A7
330
1F
100
AcDbEntity
  8
DIMENSION
100
AcDbLine
 10
72.11419660359999
 20
41.04954486199999
 30
0.0
 11
72.79675806729999
 21
41.06137413559999
 31
0.0
  0
LINE
  5
1A8
330
1F
100
AcDbEntity
  8
DIMENSION
100
AcDbLine
 10
71.8064251471
 20
40.8413868662
 30
0.0
 11
72.11419660359999
 21
41.04954486199999
 31
0.0
  0
LINE
  5
1A9
330
1F
100
AcDbEntity
  8
DIMENSION
100
AcDbLine
 10
71.9948488286
 20
40.74268364599999
 30
0.0
 11
71.8064251471
 21
40.8413868662
 31
0.0
  0
LINE
  5
1AA
330
1F
100
AcDbEntity
  8
DIMENSION
100
AcDbLine
 10
71.8143105516
 20
40.7025798367
 30
0.0
 11
71.6258868701
 21
40.80128305689999
 31
0.0
  0
LINE
  5
1AB
330
1F
100
AcDbEntity
  8
DIMENSION
100
AcDbLine
 10
71.6258868701
 20
40.80128305689999
 30
0.0
 11
70.94332540649999
 21
40.7894537833
 31
0.0
  0
LINE
  5
1AC
330
1F
100
AcDbEntity
  8
DIMENSION
100
AcDbLine
 10
70.94332540649999
 20
40.7894537833
 30
0.0
 11
70.63555395
 21
40.5812957875
 31
0.0
  0
LINE
  5
1AD
330
1F
100
AcDbEntity
  8
DIMENSION
100
AcDbLine
 10
70.63555395
 20
40.5812957875
 30
0.0
 11
70.75047282449999
 21
40.5210970753
 31
0.0
  0
LINE
  5
1AE
330
1F
100
AcDbEntity
  8
DIMENSION
100
AcDbLine
 10
70.5427304106
 20
40.4952437885
 30
0.0
 11
70.44960223689999
 21
40.5440277342
 31
0.0
  0
LINE
  5
1AF
330
1F
100
AcDbEntity
  8
DIMENSION
100
AcDbLine
 10
70.44960223689999
 20
40.5440277342
 30
0.0
 11
69.7724542093
 21
40.5293627047
 31
0.0
  0
LINE
  5
1B0
330
1F
100
AcDbEntity
  8
DIMENSION
100
AcDbLine
 10
69.7724542093
 20
40.5293627047
 30
0.0
 11
69.5926731335
 21
40.4114992507
 31
0.0
  0
LINE
  5
1B1
330
1F
100
AcDbEntity
  8
DIMENSION
100
AcDbLine
 10
69.28081428430001
 20
40.3955912283
 30
0.0
 11
69.55075156859999
 21
40.5781604787
 31
0.0
  0
LINE
  5
1B2
330
1F
100
AcDbEntity
  8
DIMENSION
100
AcDbLine
 10
69.55075156859999
 20
40.5781604787
 30
0.0
 11
69.1759615614
 21
40.7744892009
 31
0.0
  0
LINE
  5
1B3
330
1F
100
AcDbEntity
  8
DIMENSION
100
AcDbLine
 10
69.1759615614
 20
40.7744892009
 30
0.0
 11
68.49340009779999
 21
40.76265992729999
 31
0.0
  0
LINE
  5
1B4
330
1F
100
AcDbEntity
  8
DIMENSION
100
AcDbLine
 10
68.49340009779999
 20
40.76265992729999
 30
0.0
 11
68.1856286413
 21
40.5545019315
 31
0.0
  0
LINE
  5
1B5
330
1F
100
AcDbEntity
  8
DIMENSION
100
AcDbLine
 10
68.1856286413
 20
40.5545019315
 30
0.0
 11
68.51965072039999
 21
40.379528942
 31
0.0
  0
LINE
  5
1B6
330
1F
100
AcDbEntity
  8
DIMENSION
100
AcDbLine
 10
68.25909703579999
 20
40.38134013159999
 30
0.0
 11
67.99967692820001
 21
40.5172338782
 31
0.0
  0
LINE
  5
1B7
330
1F
100
AcDbEntity
  8
DIMENSION
100
AcDbLine
 10
67.99967692820001
 20
40.5172338782
 30
0.0
 11
67.3225289006
 21
40.5025688486
 31
0.0
  0
LINE
  5
1B8
330
1F
100
AcDbEntity
  8
DIMENSION
100
AcDbLine
 10
67.3225289006
 20
40.5025688486
 30
0.0
 11
67.20710737410001
 21
40.4268991503
 31
0.0
  0
LINE
  5
1B9
330
1F
100
AcDbEntity
  8
DIMENSION
100
AcDbLine
 10
66.9562627422
 20
40.4470955273
 30
0.0
 11
67.10623969609999
 21
40.54853086669999
 31
0.0
  0
LINE
  5
1BA
330
1F
100
AcDbEntity
  8
DIMENSION
100
AcDbLine
 10
67.10623969609999
 20
40.54853086669999
 30
0.0
 11
66.73144968889999
 21
40.7448595889
 31
0.0
  0
LINE
  5
1BB
330
1F
100
AcDbEntity
  8
DIMENSION
100
AcDbLine
 10
66.73144968889999
 20
40.7448595889
 30
0.0
 11
66.0543016613
 21
40.73019455929999
 31
0.0
  0
LINE
  5
1BC
330
1F
100
AcDbEntity
  8
DIMENSION
100
AcDbLine
 10
66.0543016613
 20
40.73019455929999
 30
0.0
 11
65.83408233649999
 21
40.5858200186
 31
0.0
  0
LINE
  5
1BD
330
1F
100
AcDbEntity
  8
DIMENSION
100
AcDbLine
 10
65.6123559168
 20
40.6235361439
 30
0.0
 11
65.8380124568
 21
40.7761565774
 31
0.0
  0
LINE
  5
1BE
330
1F
100
AcDbEntity
  8
DIMENSION
100
AcDbLine
 10
65.8380124568
 20
40.7761565774
 30
0.0
 11
65.46322244959999
 21
40.9724852996
 31
0.0
  0
LINE
  5
1BF
330
1F
100
AcDbEntity
  8
DIMENSION
100
AcDbLine
 10
65.46322244959999
 20
40.9724852996
 30
0.0
 11
64.7860744221
 21
40.95782027
 31
0.0
  0
LINE
  5
1C0
330
1F
100
AcDbEntity
  8
DIMENSION
100
AcDbLine
 10
64.7860744221
 20
40.95782027
 30
0.0
 11
64.6142111418
 21
40.845147678
 31
0.0
  0
LINE
  5
1C1
330
1F
100
AcDbEntity
  8
DIMENSION
100
AcDbLine
 10
64.41745180239999
 20
40.9007531809
 30
0.0
 11
64.56978521749999
 21
41.0037822881
 31
0.0
  0
LINE
  5
1C2
330
1F
100
AcDbEntity
  8
DIMENSION
100
AcDbLine
 10
64.56978521749999
 20
41.0037822881
 30
0.0
 11
64.19499521029999
 21
41.2001110103
 31
0.0
  0
LINE
  5
1C3
330
1F
100
AcDbEntity
  8
DIMENSION
100
AcDbLine
 10
64.19499521029999
 20
41.2001110103
 30
0.0
 11
63.60875651709999
 21
41.1874148089
 31
0.0
  0
LINE
  5
1C4
330
1F
100
AcDbEntity
  8
DIMENSION
100
AcDbLine
 10
63.21502880829999
 20
41.7134532762
 30
0.0
 11
62.94389001039999
 21
41.53569621769999
 31
0.0
  0
LINE
  5
1C5
330
1F
100
AcDbEntity
  8
DIMENSION
100
AcDbLine
 10
62.8402388011
 20
41.90978199839999
 30
0.0
 11
63.21502880829999
 21
41.7134532762
 31
0.0
  0
LINE
  5
1C6
330
1F
100
AcDbEntity
  8
DIMENSION
100
AcDbLine
 10
62.5024007184
 20
41.90392702519999
 30
0.0
 11
62.8402388011
 21
41.90978199839999
 31
0.0
  0
LINE
  5
1C7
330
1F
100
AcDbEntity
  8
DIMENSION
100
AcDbLine
 10
71.7036556688
 20
41.3319394116
 30
0.0
 11
72.0168405614
 21
41.5372616514
 31
0.0
  0
LINE
  5
1C8
330
1F
100
AcDbEntity
  8
DIMENSION
100
AcDbLine
 10
72.078445676
 20
41.1356106893
 30
0.0
 11
71.7036556688
 21
41.3319394116
 31
0.0
  0
LINE
  5
1C9
330
1F
100
AcDbEntity
  8
DIMENSION
100
AcDbLine
 10
72.7610071397
 20
41.1474399629
 30
0.0
 11
72.078445676
 21
41.1356106893
 31
0.0
  0
LINE
  5
1CA
330
1F
100
AcDbEntity
  8
DIMENSION
100
AcDbLine
 10
73.06877859610001
 20
41.35559795869999
 30
0.0
 11
72.7610071397
 21
41.1474399629
 31
0.0
  0
LINE
  5
1CB
330
1F
100
AcDbEntity
  8
DIMENSION
100
AcDbLine
 10
72.69398858889999
 20
41.5519266809
 30
0.0
 11
73.06877859610001
 21
41.35559795869999
 31
0.0
  0
LINE
  5
1CC
330
1F
100
AcDbEntity
  8
DIMENSION
100
AcDbLine
 10
72.0168405614
 20
41.5372616514
 30
0.0
 11
72.69398858889999
 21
41.5519266809
 31
0.0
  0
LINE
  5
1CD
330
1F
100
AcDbEntity
  8
DIMENSION
100
AcDbLine
 10
74.1314668788
 20
42.1090773387
 30
0.0
 11
73.82369542229999
 21
41.90091934289999
 31
0.0
  0
LINE
  5
1CE
330
1F
100
AcDbEntity
  8
DIMENSION
100
AcDbLine
 10
73.75667687159999
 20
42.3054060609
 30
0.0
 11
74.1314668788
 21
42.1090773387
 31
0.0
  0
LINE
  5
1CF
330
1F
100
AcDbEntity
  8
DIMENSION
100
AcDbLine
 10
73.07952884409999
 20
42.29074103139999
 30
0.0
 11
73.75667687159999
 21
42.3054060609
 31
0.0
  0
LINE
  5
1D0
330
1F
100
AcDbEntity
  8
DIMENSION
100
AcDbLine
 10
72.76634395149999
 20
42.0854187915
 30
0.0
 11
73.07952884409999
 21
42.29074103139999
 31
0.0
  0
LINE
  5
1D1
330
1F
100
AcDbEntity
  8
DIMENSION
100
AcDbLine
 10
73.14113395859999
 20
41.88909006929999
 30
0.0
 11
72.76634395149999
 21
42.0854187915
 31
0.0
  0
LINE
  5
1D2
330
1F
100
AcDbEntity
  8
DIMENSION
100
AcDbLine
 10
73.82369542229999
 20
41.90091934289999
 30
0.0
 11
73.14113395859999
 21
41.88909006929999
 31
0.0
  0
LINE
  5
1D3
330
1F
100
AcDbEntity
  8
DIMENSION
100
AcDbLine
 10
71.6008861905
 20
41.8224919569
 30
0.0
 11
71.90865764699999
 21
42.0306499527
 31
0.0
  0
LINE
  5
1D4
330
1F
100
AcDbEntity
  8
DIMENSION
100
AcDbLine
 10
71.97567619770001
 20
41.62616323469999
 30
0.0
 11
71.6008861905
 21
41.8224919569
 31
0.0
  0
LINE
  5
1D5
330
1F
100
AcDbEntity
  8
DIMENSION
100
AcDbLine
 10
72.65823766130001
 20
41.6379925082
 30
0.0
 11
71.97567619770001
 21
41.62616323469999
 31
0.0
  0
LINE
  5
1D6
330
1F
100
AcDbEntity
  8
DIMENSION
100
AcDbLine
 10
72.9660091178
 20
41.846150504
 30
0.0
 11
72.65823766130001
 21
41.6379925082
 31
0.0
  0
LINE
  5
1D7
330
1F
100
AcDbEntity
  8
DIMENSION
100
AcDbLine
 10
72.59121911060001
 20
42.0424792263
 30
0.0
 11
72.9660091178
 21
41.846150504
 31
0.0
  0
LINE
  5
1D8
330
1F
100
AcDbEntity
  8
DIMENSION
100
AcDbLine
 10
71.90865764699999
 20
42.0306499527
 30
0.0
 11
72.59121911060001
 21
42.0424792263
 31
0.0
  0
LINE
  5
1D9
330
1F
100
AcDbEntity
  8
DIMENSION
100
AcDbLine
 10
70.43542842949999
 20
41.5595651223
 30
0.0
 11
70.7486133221
 21
41.76488736209999
 31
0.0
  0
LINE
  5
1DA
330
1F
100
AcDbEntity
  8
DIMENSION
100
AcDbLine
 10
70.8102184367
 20
41.36323639999999
 30
0.0
 11
70.43542842949999
 21
41.5595651223
 31
0.0
  0
LINE
  5
1DB
330
1F
100
AcDbEntity
  8
DIMENSION
100
AcDbLine
 10
71.49277990039999
 20
41.37506567359999
 30
0.0
 11
70.8102184367
 21
41.36323639999999
 31
0.0
  0
LINE
  5
1DC
330
1F
100
AcDbEntity
  8
DIMENSION
100
AcDbLine
 10
71.80055135679999
 20
41.5832236694
 30
0.0
 11
71.49277990039999
 21
41.37506567359999
 31
0.0
  0
LINE
  5
1DD
330
1F
100
AcDbEntity
  8
DIMENSION
100
AcDbLine
 10
71.42576134969999
 20
41.7795523916
 30
0.0
 11
71.80055135679999
 21
41.5832236694
 31
0.0
  0
LINE
  5
1DE
330
1F
100
AcDbEntity
  8
DIMENSION
100
AcDbLine
 10
70.7486133221
 20
41.76488736209999
 30
0.0
 11
71.42576134969999
 21
41.7795523916
 31
0.0
  0
LINE
  5
1DF
330
1F
100
AcDbEntity
  8
DIMENSION
100
AcDbLine
 10
71.69778187850001
 20
42.0737762147
 30
0.0
 11
71.39001042210001
 21
41.86561821889999
 31
0.0
  0
LINE
  5
1E0
330
1F
100
AcDbEntity
  8
DIMENSION
100
AcDbLine
 10
71.3229918713
 20
42.27010493699999
 30
0.0
 11
71.69778187850001
 21
42.0737762147
 31
0.0
  0
LINE
  5
1E1
330
1F
100
AcDbEntity
  8
DIMENSION
100
AcDbLine
 10
70.64584384379999
 20
42.25543990739999
 30
0.0
 11
71.3229918713
 21
42.27010493699999
 31
0.0
  0
LINE
  5
1E2
330
1F
100
AcDbEntity
  8
DIMENSION
100
AcDbLine
 10
70.3326589512
 20
42.05011766760001
 30
0.0
 11
70.64584384379999
 21
42.25543990739999
 31
0.0
  0
LINE
  5
1E3
330
1F
100
AcDbEntity
  8
DIMENSION
100
AcDbLine
 10
70.7074489584
 20
41.8537889454
 30
0.0
 11
70.3326589512
 21
42.05011766760001
 31
0.0
  0
LINE
  5
1E4
330
1F
100
AcDbEntity
  8
DIMENSION
100
AcDbLine
 10
71.39001042210001
 20
41.86561821889999
 30
0.0
 11
70.7074489584
 21
41.8537889454
 31
0.0
  0
LINE
  5
1E5
330
1F
100
AcDbEntity
  8
DIMENSION
100
AcDbLine
 10
72.8632396395
 20
42.3367030494
 30
0.0
 11
72.555468183
 21
42.1285450536
 31
0.0
  0
LINE
  5
1E6
330
1F
100
AcDbEntity
  8
DIMENSION
100
AcDbLine
 10
72.48844963229998
 20
42.5330317716
 30
0.0
 11
72.8632396395
 21
42.3367030494
 31
0.0
  0
LINE
  5
1E7
330
1F
100
AcDbEntity
  8
DIMENSION
100
AcDbLine
 10
71.81130160479999
 20
42.51836674209999
 30
0.0
 11
72.48844963229998
 21
42.5330317716
 31
0.0
  0
LINE
  5
1E8
330
1F
100
AcDbEntity
  8
DIMENSION
100
AcDbLine
 10
71.4981167122
 20
42.3130445022
 30
0.0
 11
71.81130160479999
 21
42.51836674209999
 31
0.0
  0
LINE
  5
1E9
330
1F
100
AcDbEntity
  8
DIMENSION
100
AcDbLine
 10
71.87290671939999
 20
42.11671577999999
 30
0.0
 11
71.4981167122
 21
42.3130445022
 31
0.0
  0
LINE
  5
1EA
330
1F
100
AcDbEntity
  8
DIMENSION
100
AcDbLine
 10
72.555468183
 20
42.1285450536
 30
0.0
 11
71.87290671939999
 21
42.11671577999999
 31
0.0
  0
LINE
  5
1EB
330
1F
100
AcDbEntity
  8
DIMENSION
100
AcDbLine
 10
73.6593208294
 20
42.7931228503
 30
0.0
 11
74.0341108366
 21
42.5967941281
 31
0.0
  0
LINE
  5
1EC
330
1F
100
AcDbEntity
  8
DIMENSION
100
AcDbLine
 10
72.98217280189999
 20
42.7784578207
 30
0.0
 11
73.6593208294
 21
42.7931228503
 31
0.0
  0
LINE
  5
1ED
330
1F
100
AcDbEntity
  8
DIMENSION
100
AcDbLine
 10
72.6689879093
 20
42.57313558089999
 30
0.0
 11
72.98217280189999
 21
42.7784578207
 31
0.0
  0
LINE
  5
1EE
330
1F
100
AcDbEntity
  8
DIMENSION
100
AcDbLine
 10
73.04377791649999
 20
42.3768068587
 30
0.0
 11
72.6689879093
 21
42.57313558089999
 31
0.0
  0
LINE
  5
1EF
330
1F
100
AcDbEntity
  8
DIMENSION
100
AcDbLine
 10
73.7263393801
 20
42.3886361323
 30
0.0
 11
73.04377791649999
 21
42.3768068587
 31
0.0
  0
LINE
  5
1F0
330
1F
100
AcDbEntity
  8
DIMENSION
100
AcDbLine
 10
74.0341108366
 20
42.5967941281
 30
0.0
 11
73.7263393801
 21
42.3886361323
 31
0.0
  0
LINE
  5
1F1
330
1F
100
AcDbEntity
  8
DIMENSION
100
AcDbLine
 10
72.88481675979999
 20
43.2661746101
 30
0.0
 11
73.5619647873
 21
43.28083963970001
 31
0.0
  0
LINE
  5
1F2
330
1F
100
AcDbEntity
  8
DIMENSION
100
AcDbLine
 10
72.57163186709999
 20
43.06085237029999
 30
0.0
 11
72.88481675979999
 21
43.2661746101
 31
0.0
  0
LINE
  5
1F3
330
1F
100
AcDbEntity
  8
DIMENSION
100
AcDbLine
 10
72.9464218743
 20
42.86452364809999
 30
0.0
 11
72.57163186709999
 21
43.06085237029999
 31
0.0
  0
LINE
  5
1F4
330
1F
100
AcDbEntity
  8
DIMENSION
100
AcDbLine
 10
73.628983338
 20
42.8763529216
 30
0.0
 11
72.9464218743
 21
42.86452364809999
 31
0.0
  0
LINE
  5
1F5
330
1F
100
AcDbEntity
  8
DIMENSION
100
AcDbLine
 10
73.9367547945
 20
43.08451091739999
 30
0.0
 11
73.628983338
 21
42.8763529216
 31
0.0
  0
LINE
  5
1F6
330
1F
100
AcDbEntity
  8
DIMENSION
100
AcDbLine
 10
73.5619647873
 20
43.28083963970001
 30
0.0
 11
73.9367547945
 21
43.08451091739999
 31
0.0
  0
LINE
  5
1F7
330
1F
100
AcDbEntity
  8
DIMENSION
100
AcDbLine
 10
71.7139455626
 20
43.0060835314
 30
0.0
 11
72.3910935902
 21
43.020748561
 31
0.0
  0
LINE
  5
1F8
330
1F
100
AcDbEntity
  8
DIMENSION
100
AcDbLine
 10
71.40076066999999
 20
42.8007612916
 30
0.0
 11
71.7139455626
 21
43.0060835314
 31
0.0
  0
LINE
  5
1F9
330
1F
100
AcDbEntity
  8
DIMENSION
100
AcDbLine
 10
71.7755506772
 20
42.6044325694
 30
0.0
 11
71.40076066999999
 21
42.8007612916
 31
0.0
  0
LINE
  5
1FA
330
1F
100
AcDbEntity
  8
DIMENSION
100
AcDbLine
 10
72.4581121409
 20
42.616261843
 30
0.0
 11
71.7755506772
 21
42.6044325694
 31
0.0
  0
LINE
  5
1FB
330
1F
100
AcDbEntity
  8
DIMENSION
100
AcDbLine
 10
72.76588359729998
 20
42.8244198388
 30
0.0
 11
72.4581121409
 21
42.616261843
 31
0.0
  0
LINE
  5
1FC
330
1F
100
AcDbEntity
  8
DIMENSION
100
AcDbLine
 10
72.3910935902
 20
43.020748561
 30
0.0
 11
72.76588359729998
 21
42.8244198388
 31
0.0
  0
LINE
  5
1FD
330
1F
100
AcDbEntity
  8
DIMENSION
100
AcDbLine
 10
70.54307436550001
 20
42.7459924528
 30
0.0
 11
71.220222393
 21
42.76065748229999
 31
0.0
  0
LINE
  5
1FE
330
1F
100
AcDbEntity
  8
DIMENSION
100
AcDbLine
 10
70.2298894729
 20
42.5406702129
 30
0.0
 11
70.54307436550001
 21
42.7459924528
 31
0.0
  0
LINE
  5
1FF
330
1F
100
AcDbEntity
  8
DIMENSION
100
AcDbLine
 10
70.6046794801
 20
42.3443414907
 30
0.0
 11
70.2298894729
 21
42.5406702129
 31
0.0
  0
LINE
  5
200
330
1F
100
AcDbEntity
  8
DIMENSION
100
AcDbLine
 10
71.28724094369999
 20
42.35617076429999
 30
0.0
 11
70.6046794801
 21
42.3443414907
 31
0.0
  0
LINE
  5
201
330
1F
100
AcDbEntity
  8
DIMENSION
100
AcDbLine
 10
71.5950124002
 20
42.5643287601
 30
0.0
 11
71.28724094369999
 21
42.35617076429999
 31
0.0
  0
LINE
  5
202
330
1F
100
AcDbEntity
  8
DIMENSION
100
AcDbLine
 10
71.220222393
 20
42.76065748229999
 30
0.0
 11
71.5950124002
 21
42.5643287601
 31
0.0
  0
LINE
  5
203
330
1F
100
AcDbEntity
  8
DIMENSION
100
AcDbLine
 10
69.37220316840001
 20
42.48590137409999
 30
0.0
 11
70.0547646321
 21
42.4977306477
 31
0.0
  0
LINE
  5
204
330
1F
100
AcDbEntity
  8
DIMENSION
100
AcDbLine
 10
69.0644317119
 20
42.2777433783
 30
0.0
 11
69.37220316840001
 21
42.48590137409999
 31
0.0
  0
LINE
  5
205
330
1F
100
AcDbEntity
  8
DIMENSION
100
AcDbLine
 10
69.4392217191
 20
42.0814146561
 30
0.0
 11
69.0644317119
 21
42.2777433783
 31
0.0
  0
LINE
  5
206
330
1F
100
AcDbEntity
  8
DIMENSION
100
AcDbLine
 10
70.1217831828
 20
42.0932439296
 30
0.0
 11
69.4392217191
 21
42.0814146561
 31
0.0
  0
LINE
  5
207
330
1F
100
AcDbEntity
  8
DIMENSION
100
AcDbLine
 10
70.42955463920001
 20
42.3014019254
 30
0.0
 11
70.1217831828
 21
42.0932439296
 31
0.0
  0
LINE
  5
208
330
1F
100
AcDbEntity
  8
DIMENSION
100
AcDbLine
 10
70.0547646321
 20
42.4977306477
 30
0.0
 11
70.42955463920001
 21
42.3014019254
 31
0.0
  0
LINE
  5
209
330
1F
100
AcDbEntity
  8
DIMENSION
100
AcDbLine
 10
70.3321985971
 20
42.7891187148
 30
0.0
 11
70.02442714060001
 21
42.580960719
 31
0.0
  0
LINE
  5
20A
330
1F
100
AcDbEntity
  8
DIMENSION
100
AcDbLine
 10
70.3321985971
 20
42.7891187148
 30
0.0
 11
69.9574085899
 21
42.98544743699999
 31
0.0
  0
LINE
  5
20B
330
1F
100
AcDbEntity
  8
DIMENSION
100
AcDbLine
 10
69.9574085899
 20
42.98544743699999
 30
0.0
 11
69.2748471262
 21
42.9736181635
 31
0.0
  0
LINE
  5
20C
330
1F
100
AcDbEntity
  8
DIMENSION
100
AcDbLine
 10
69.2748471262
 20
42.9736181635
 30
0.0
 11
68.9670756697
 21
42.7654601677
 31
0.0
  0
LINE
  5
20D
330
1F
100
AcDbEntity
  8
DIMENSION
100
AcDbLine
 10
68.9670756697
 20
42.7654601677
 30
0.0
 11
69.3418656769
 21
42.56913144539999
 31
0.0
  0
LINE
  5
20E
330
1F
100
AcDbEntity
  8
DIMENSION
100
AcDbLine
 10
70.02442714060001
 20
42.580960719
 30
0.0
 11
69.3418656769
 21
42.56913144539999
 31
0.0
  0
LINE
  5
20F
330
1F
100
AcDbEntity
  8
DIMENSION
100
AcDbLine
 10
71.5030697942
 20
43.0492097935
 30
0.0
 11
71.19529833770001
 21
42.8410517977
 31
0.0
  0
LINE
  5
210
330
1F
100
AcDbEntity
  8
DIMENSION
100
AcDbLine
 10
71.5030697942
 20
43.0492097935
 30
0.0
 11
71.128279787
 21
43.2455385157
 31
0.0
  0
LINE
  5
211
330
1F
100
AcDbEntity
  8
DIMENSION
100
AcDbLine
 10
71.128279787
 20
43.2455385157
 30
0.0
 11
70.44571832329999
 21
43.23370924209999
 31
0.0
  0
LINE
  5
212
330
1F
100
AcDbEntity
  8
DIMENSION
100
AcDbLine
 10
70.44571832329999
 20
43.23370924209999
 30
0.0
 11
70.13794686689999
 21
43.0255512463
 31
0.0
  0
LINE
  5
213
330
1F
100
AcDbEntity
  8
DIMENSION
100
AcDbLine
 10
70.13794686689999
 20
43.0255512463
 30
0.0
 11
70.512736874
 21
42.82922252409999
 31
0.0
  0
LINE
  5
214
330
1F
100
AcDbEntity
  8
DIMENSION
100
AcDbLine
 10
71.19529833770001
 20
42.8410517977
 30
0.0
 11
70.512736874
 21
42.82922252409999
 31
0.0
  0
LINE
  5
215
330
1F
100
AcDbEntity
  8
DIMENSION
100
AcDbLine
 10
72.6739409913
 20
43.3093008722
 30
0.0
 11
72.36616953479999
 21
43.1011428764
 31
0.0
  0
LINE
  5
216
330
1F
100
AcDbEntity
  8
DIMENSION
100
AcDbLine
 10
72.6739409913
 20
43.3093008722
 30
0.0
 11
72.2991509841
 21
43.5056295944
 31
0.0
  0
LINE
  5
217
330
1F
100
AcDbEntity
  8
DIMENSION
100
AcDbLine
 10
72.2991509841
 20
43.5056295944
 30
0.0
 11
71.6165895205
 21
43.4938003208
 31
0.0
  0
LINE
  5
218
330
1F
100
AcDbEntity
  8
DIMENSION
100
AcDbLine
 10
71.6165895205
 20
43.4938003208
 30
0.0
 11
71.30881806399999
 21
43.28564232499999
 31
0.0
  0
LINE
  5
219
330
1F
100
AcDbEntity
  8
DIMENSION
100
AcDbLine
 10
71.30881806399999
 20
43.28564232499999
 30
0.0
 11
71.6836080712
 21
43.08931360279999
 31
0.0
  0
LINE
  5
21A
330
1F
100
AcDbEntity
  8
DIMENSION
100
AcDbLine
 10
72.36616953479999
 20
43.1011428764
 30
0.0
 11
71.6836080712
 21
43.08931360279999
 31
0.0
  0
LINE
  5
21B
330
1F
100
AcDbEntity
  8
DIMENSION
100
AcDbLine
 10
73.718122183
 20
43.4837064947
 30
0.0
 11
73.53704073199999
 21
43.361233955
 31
0.0
  0
LINE
  5
21C
330
1F
100
AcDbEntity
  8
DIMENSION
100
AcDbLine
 10
73.0986681185
 20
43.7592848442
 30
0.0
 11
72.7874607176
 21
43.7538913995
 31
0.0
  0
LINE
  5
21D
330
1F
100
AcDbEntity
  8
DIMENSION
100
AcDbLine
 10
72.7874607176
 20
43.7538913995
 30
0.0
 11
72.47968926109999
 21
43.54573340369999
 31
0.0
  0
LINE
  5
21E
330
1F
100
AcDbEntity
  8
DIMENSION
100
AcDbLine
 10
72.47968926109999
 20
43.54573340369999
 30
0.0
 11
72.85447926829999
 21
43.3494046815
 31
0.0
  0
LINE
  5
21F
330
1F
100
AcDbEntity
  8
DIMENSION
100
AcDbLine
 10
73.53704073199999
 20
43.361233955
 30
0.0
 11
72.85447926829999
 21
43.3494046815
 31
0.0
  0
LINE
  5
220
330
1F
100
AcDbEntity
  8
DIMENSION
100
AcDbLine
 10
68.00661988689999
 20
43.2012438742
 30
0.0
 11
67.6988484304
 21
42.9930858784
 31
0.0
  0
LINE
  5
221
330
1F
100
AcDbEntity
  8
DIMENSION
100
AcDbLine
 10
67.6988484304
 20
42.9930858784
 30
0.0
 11
68.0736384376
 21
42.79675715609999
 31
0.0
  0
LINE
  5
222
330
1F
100
AcDbEntity
  8
DIMENSION
100
AcDbLine
 10
68.0736384376
 20
42.79675715609999
 30
0.0
 11
68.75619990130001
 21
42.8085864297
 31
0.0
  0
LINE
  5
223
330
1F
100
AcDbEntity
  8
DIMENSION
100
AcDbLine
 10
68.75619990130001
 20
42.8085864297
 30
0.0
 11
69.0639713578
 21
43.0167444255
 31
0.0
  0
LINE
  5
224
330
1F
100
AcDbEntity
  8
DIMENSION
100
AcDbLine
 10
69.0639713578
 20
43.0167444255
 30
0.0
 11
68.68918135060001
 21
43.2130731477
 31
0.0
  0
LINE
  5
225
330
1F
100
AcDbEntity
  8
DIMENSION
100
AcDbLine
 10
68.68918135060001
 20
43.2130731477
 30
0.0
 11
68.00661988689999
 21
43.2012438742
 31
0.0
  0
LINE
  5
226
330
1F
100
AcDbEntity
  8
DIMENSION
100
AcDbLine
 10
69.18290452019999
 20
43.45849919689999
 30
0.0
 11
68.8751330637
 21
43.25034120109999
 31
0.0
  0
LINE
  5
227
330
1F
100
AcDbEntity
  8
DIMENSION
100
AcDbLine
 10
68.8751330637
 20
43.25034120109999
 30
0.0
 11
69.2499230709
 21
43.0540124788
 31
0.0
  0
LINE
  5
228
330
1F
100
AcDbEntity
  8
DIMENSION
100
AcDbLine
 10
69.2499230709
 20
43.0540124788
 30
0.0
 11
69.92707109840001
 21
43.0686775084
 31
0.0
  0
LINE
  5
229
330
1F
100
AcDbEntity
  8
DIMENSION
100
AcDbLine
 10
69.92707109840001
 20
43.0686775084
 30
0.0
 11
70.2402559911
 21
43.27399974819999
 31
0.0
  0
LINE
  5
22A
330
1F
100
AcDbEntity
  8
DIMENSION
100
AcDbLine
 10
70.2402559911
 20
43.27399974819999
 30
0.0
 11
69.86546598390001
 21
43.4703284704
 31
0.0
  0
LINE
  5
22B
330
1F
100
AcDbEntity
  8
DIMENSION
100
AcDbLine
 10
69.86546598390001
 20
43.4703284704
 30
0.0
 11
69.18290452019999
 21
43.45849919689999
 31
0.0
  0
LINE
  5
22C
330
1F
100
AcDbEntity
  8
DIMENSION
100
AcDbLine
 10
70.35377571729999
 20
43.7185902755
 30
0.0
 11
70.0460042608
 21
43.5104322797
 31
0.0
  0
LINE
  5
22D
330
1F
100
AcDbEntity
  8
DIMENSION
100
AcDbLine
 10
70.0460042608
 20
43.5104322797
 30
0.0
 11
70.420794268
 21
43.3141035575
 31
0.0
  0
LINE
  5
22E
330
1F
100
AcDbEntity
  8
DIMENSION
100
AcDbLine
 10
70.420794268
 20
43.3141035575
 30
0.0
 11
71.09794229560001
 21
43.3287685871
 31
0.0
  0
LINE
  5
22F
330
1F
100
AcDbEntity
  8
DIMENSION
100
AcDbLine
 10
71.09794229560001
 20
43.3287685871
 30
0.0
 11
71.4111271882
 21
43.53409082689999
 31
0.0
  0
LINE
  5
230
330
1F
100
AcDbEntity
  8
DIMENSION
100
AcDbLine
 10
71.4111271882
 20
43.53409082689999
 30
0.0
 11
71.03633718100001
 21
43.73041954909999
 31
0.0
  0
LINE
  5
231
330
1F
100
AcDbEntity
  8
DIMENSION
100
AcDbLine
 10
71.03633718100001
 20
43.73041954909999
 30
0.0
 11
70.35377571729999
 21
43.7185902755
 31
0.0
  0
LINE
  5
232
330
1F
100
AcDbEntity
  8
DIMENSION
100
AcDbLine
 10
71.52464691439999
 20
43.9786813542
 30
0.0
 11
71.216875458
 21
43.7705233584
 31
0.0
  0
LINE
  5
233
330
1F
100
AcDbEntity
  8
DIMENSION
100
AcDbLine
 10
71.216875458
 20
43.7705233584
 30
0.0
 11
71.59166546520001
 21
43.5741946362
 31
0.0
  0
LINE
  5
234
330
1F
100
AcDbEntity
  8
DIMENSION
100
AcDbLine
 10
71.59166546520001
 20
43.5741946362
 30
0.0
 11
72.26881349270001
 21
43.58885966569999
 31
0.0
  0
LINE
  5
235
330
1F
100
AcDbEntity
  8
DIMENSION
100
AcDbLine
 10
72.26881349270001
 20
43.58885966569999
 30
0.0
 11
72.5819983853
 21
43.7941819056
 31
0.0
  0
LINE
  5
236
330
1F
100
AcDbEntity
  8
DIMENSION
100
AcDbLine
 10
72.5819983853
 20
43.7941819056
 30
0.0
 11
72.2072083781
 21
43.99051062779999
 31
0.0
  0
LINE
  5
237
330
1F
100
AcDbEntity
  8
DIMENSION
100
AcDbLine
 10
72.2072083781
 20
43.99051062779999
 30
0.0
 11
71.52464691439999
 21
43.9786813542
 31
0.0
  0
LINE
  5
238
330
1F
100
AcDbEntity
  8
DIMENSION
100
AcDbLine
 10
69.9486482187
 20
43.9981490691
 30
0.0
 11
70.3234382259
 21
43.80182034689999
 31
0.0
  0
LINE
  5
239
330
1F
100
AcDbEntity
  8
DIMENSION
100
AcDbLine
 10
70.3234382259
 20
43.80182034689999
 30
0.0
 11
71.0005862534
 21
43.8164853764
 31
0.0
  0
LINE
  5
23A
330
1F
100
AcDbEntity
  8
DIMENSION
100
AcDbLine
 10
71.0005862534
 20
43.8164853764
 30
0.0
 11
71.31377114600001
 21
44.0218076163
 31
0.0
  0
LINE
  5
23B
330
1F
100
AcDbEntity
  8
DIMENSION
100
AcDbLine
 10
71.31377114600001
 20
44.0218076163
 30
0.0
 11
70.9389811388
 21
44.2181363385
 31
0.0
  0
LINE
  5
23C
330
1F
100
AcDbEntity
  8
DIMENSION
100
AcDbLine
 10
70.9389811388
 20
44.2181363385
 30
0.0
 11
70.25641967520001
 21
44.20630706489999
 31
0.0
  0
LINE
  5
23D
330
1F
100
AcDbEntity
  8
DIMENSION
100
AcDbLine
 10
70.25641967520001
 20
44.20630706489999
 30
0.0
 11
69.9486482187
 21
43.9981490691
 31
0.0
  0
LINE
  5
23E
330
1F
100
AcDbEntity
  8
DIMENSION
100
AcDbLine
 10
69.1525670287
 20
43.54172926819999
 30
0.0
 11
69.82971505630001
 21
43.5563942978
 31
0.0
  0
LINE
  5
23F
330
1F
100
AcDbEntity
  8
DIMENSION
100
AcDbLine
 10
69.82971505630001
 20
43.5563942978
 30
0.0
 11
70.14289994890001
 21
43.7617165376
 31
0.0
  0
LINE
  5
240
330
1F
100
AcDbEntity
  8
DIMENSION
100
AcDbLine
 10
70.14289994890001
 20
43.7617165376
 30
0.0
 11
69.7681099417
 21
43.9580452598
 31
0.0
  0
LINE
  5
241
330
1F
100
AcDbEntity
  8
DIMENSION
100
AcDbLine
 10
69.7681099417
 20
43.9580452598
 30
0.0
 11
69.08554847800001
 21
43.9462159862
 31
0.0
  0
LINE
  5
242
330
1F
100
AcDbEntity
  8
DIMENSION
100
AcDbLine
 10
69.08554847800001
 20
43.9462159862
 30
0.0
 11
68.7777770216
 21
43.7380579904
 31
0.0
  0
LINE
  5
243
330
1F
100
AcDbEntity
  8
DIMENSION
100
AcDbLine
 10
68.7777770216
 20
43.7380579904
 30
0.0
 11
69.1525670287
 21
43.54172926819999
 31
0.0
  0
LINE
  5
244
330
1F
100
AcDbEntity
  8
DIMENSION
100
AcDbLine
 10
67.9762823955
 20
43.2844739455
 30
0.0
 11
68.65343042300001
 21
43.29913897509999
 31
0.0
  0
LINE
  5
245
330
1F
100
AcDbEntity
  8
DIMENSION
100
AcDbLine
 10
68.65343042300001
 20
43.29913897509999
 30
0.0
 11
68.96661531560001
 21
43.5044612149
 31
0.0
  0
LINE
  5
246
330
1F
100
AcDbEntity
  8
DIMENSION
100
AcDbLine
 10
68.96661531560001
 20
43.5044612149
 30
0.0
 11
68.5918253084
 21
43.70078993709999
 31
0.0
  0
LINE
  5
247
330
1F
100
AcDbEntity
  8
DIMENSION
100
AcDbLine
 10
68.5918253084
 20
43.70078993709999
 30
0.0
 11
67.90926384479999
 21
43.6889606635
 31
0.0
  0
LINE
  5
248
330
1F
100
AcDbEntity
  8
DIMENSION
100
AcDbLine
 10
67.90926384479999
 20
43.6889606635
 30
0.0
 11
67.6014923883
 21
43.4808026677
 31
0.0
  0
LINE
  5
249
330
1F
100
AcDbEntity
  8
DIMENSION
100
AcDbLine
 10
67.6014923883
 20
43.4808026677
 30
0.0
 11
67.9762823955
 21
43.2844739455
 31
0.0
  0
LINE
  5
24A
330
1F
100
AcDbEntity
  8
DIMENSION
100
AcDbLine
 10
67.318184633
 20
43.9312514038
 30
0.0
 11
66.63562316930001
 21
43.9194221302
 31
0.0
  0
LINE
  5
24B
330
1F
100
AcDbEntity
  8
DIMENSION
100
AcDbLine
 10
66.63562316930001
 20
43.9194221302
 30
0.0
 11
66.3278517128
 21
43.71126413439999
 31
0.0
  0
LINE
  5
24C
330
1F
100
AcDbEntity
  8
DIMENSION
100
AcDbLine
 10
66.3278517128
 20
43.71126413439999
 30
0.0
 11
66.70264172
 21
43.5149354122
 31
0.0
  0
LINE
  5
24D
330
1F
100
AcDbEntity
  8
DIMENSION
100
AcDbLine
 10
66.70264172
 20
43.5149354122
 30
0.0
 11
67.3797897476
 21
43.52960044169999
 31
0.0
  0
LINE
  5
24E
330
1F
100
AcDbEntity
  8
DIMENSION
100
AcDbLine
 10
67.3797897476
 20
43.52960044169999
 30
0.0
 11
67.6929746402
 21
43.73492268159999
 31
0.0
  0
LINE
  5
24F
330
1F
100
AcDbEntity
  8
DIMENSION
100
AcDbLine
 10
67.6929746402
 20
43.73492268159999
 30
0.0
 11
67.318184633
 21
43.9312514038
 31
0.0
  0
LINE
  5
250
330
1F
100
AcDbEntity
  8
DIMENSION
100
AcDbLine
 10
69.0552109866
 20
44.02944605760001
 30
0.0
 11
69.73235901409999
 21
44.04411108709999
 31
0.0
  0
LINE
  5
251
330
1F
100
AcDbEntity
  8
DIMENSION
100
AcDbLine
 10
69.73235901409999
 20
44.04411108709999
 30
0.0
 11
70.0455439067
 21
44.24943332699999
 31
0.0
  0
LINE
  5
252
330
1F
100
AcDbEntity
  8
DIMENSION
100
AcDbLine
 10
70.0455439067
 20
44.24943332699999
 30
0.0
 11
69.71610819439999
 21
44.4220038097
 31
0.0
  0
LINE
  5
253
330
1F
100
AcDbEntity
  8
DIMENSION
100
AcDbLine
 10
69.4078454079
 20
44.4412056588
 30
0.0
 11
68.98819243590001
 21
44.43393277560001
 31
0.0
  0
LINE
  5
254
330
1F
100
AcDbEntity
  8
DIMENSION
100
AcDbLine
 10
68.98819243590001
 20
44.43393277560001
 30
0.0
 11
68.6804209794
 21
44.2257747798
 31
0.0
  0
LINE
  5
255
330
1F
100
AcDbEntity
  8
DIMENSION
100
AcDbLine
 10
68.6804209794
 20
44.2257747798
 30
0.0
 11
69.0552109866
 21
44.02944605760001
 31
0.0
  0
LINE
  5
256
330
1F
100
AcDbEntity
  8
DIMENSION
100
AcDbLine
 10
67.2208285908
 20
44.41896819319999
 30
0.0
 11
67.0961390172
 21
44.4168072345
 31
0.0
  0
LINE
  5
257
330
1F
100
AcDbEntity
  8
DIMENSION
100
AcDbLine
 10
66.4641125766
 20
44.35698526729999
 30
0.0
 11
66.23049567069999
 21
44.1989809238
 31
0.0
  0
LINE
  5
258
330
1F
100
AcDbEntity
  8
DIMENSION
100
AcDbLine
 10
66.23049567069999
 20
44.1989809238
 30
0.0
 11
66.6052856779
 21
44.0026522016
 31
0.0
  0
LINE
  5
259
330
1F
100
AcDbEntity
  8
DIMENSION
100
AcDbLine
 10
66.6052856779
 20
44.0026522016
 30
0.0
 11
67.28243370539999
 21
44.01731723109999
 31
0.0
  0
LINE
  5
25A
330
1F
100
AcDbEntity
  8
DIMENSION
100
AcDbLine
 10
67.28243370539999
 20
44.01731723109999
 30
0.0
 11
67.595618598
 21
44.2226394709
 31
0.0
  0
LINE
  5
25B
330
1F
100
AcDbEntity
  8
DIMENSION
100
AcDbLine
 10
67.595618598
 20
44.2226394709
 30
0.0
 11
67.2208285908
 21
44.41896819319999
 31
0.0
  0
LINE
  5
25C
330
1F
100
AcDbEntity
  8
DIMENSION
100
AcDbLine
 10
68.9509119856
 20
41.83315285099999
 30
0.0
 11
69.25868344209999
 21
42.04131084679999
 31
0.0
  0
LINE
  5
25D
330
1F
100
AcDbEntity
  8
DIMENSION
100
AcDbLine
 10
69.25868344209999
 20
42.04131084679999
 30
0.0
 11
68.8838934349
 21
42.237639569
 31
0.0
  0
LINE
  5
25E
330
1F
100
AcDbEntity
  8
DIMENSION
100
AcDbLine
 10
68.8838934349
 20
42.237639569
 30
0.0
 11
68.20133197130001
 21
42.2258102954
 31
0.0
  0
LINE
  5
25F
330
1F
100
AcDbEntity
  8
DIMENSION
100
AcDbLine
 10
68.20133197130001
 20
42.2258102954
 30
0.0
 11
67.8935605148
 21
42.0176522996
 31
0.0
  0
LINE
  5
260
330
1F
100
AcDbEntity
  8
DIMENSION
100
AcDbLine
 10
67.8935605148
 20
42.0176522996
 30
0.0
 11
68.26835052199999
 21
41.8213235774
 31
0.0
  0
LINE
  5
261
330
1F
100
AcDbEntity
  8
DIMENSION
100
AcDbLine
 10
68.26835052199999
 20
41.8213235774
 30
0.0
 11
68.9509119856
 21
41.83315285099999
 31
0.0
  0
LINE
  5
262
330
1F
100
AcDbEntity
  8
DIMENSION
100
AcDbLine
 10
67.7746273524
 20
41.57589752829999
 30
0.0
 11
68.08239880880001
 21
41.7840555241
 31
0.0
  0
LINE
  5
263
330
1F
100
AcDbEntity
  8
DIMENSION
100
AcDbLine
 10
68.08239880880001
 20
41.7840555241
 30
0.0
 11
67.7076088017
 21
41.98038424629999
 31
0.0
  0
LINE
  5
264
330
1F
100
AcDbEntity
  8
DIMENSION
100
AcDbLine
 10
67.7076088017
 20
41.98038424629999
 30
0.0
 11
67.03046077409999
 21
41.96571921679999
 31
0.0
  0
LINE
  5
265
330
1F
100
AcDbEntity
  8
DIMENSION
100
AcDbLine
 10
67.03046077409999
 20
41.96571921679999
 30
0.0
 11
66.7172758815
 21
41.7603969769
 31
0.0
  0
LINE
  5
266
330
1F
100
AcDbEntity
  8
DIMENSION
100
AcDbLine
 10
66.7172758815
 20
41.7603969769
 30
0.0
 11
67.0920658887
 21
41.56406825469999
 31
0.0
  0
LINE
  5
267
330
1F
100
AcDbEntity
  8
DIMENSION
100
AcDbLine
 10
67.0920658887
 20
41.56406825469999
 30
0.0
 11
67.7746273524
 21
41.57589752829999
 31
0.0
  0
LINE
  5
268
330
1F
100
AcDbEntity
  8
DIMENSION
100
AcDbLine
 10
66.6037561552
 20
41.3158064496
 30
0.0
 11
66.91152761169999
 21
41.52396444539999
 31
0.0
  0
LINE
  5
269
330
1F
100
AcDbEntity
  8
DIMENSION
100
AcDbLine
 10
66.91152761169999
 20
41.52396444539999
 30
0.0
 11
66.53673760450001
 21
41.7202931676
 31
0.0
  0
LINE
  5
26A
330
1F
100
AcDbEntity
  8
DIMENSION
100
AcDbLine
 10
66.53673760450001
 20
41.7202931676
 30
0.0
 11
65.85958957699999
 21
41.7056281381
 31
0.0
  0
LINE
  5
26B
330
1F
100
AcDbEntity
  8
DIMENSION
100
AcDbLine
 10
65.85958957699999
 20
41.7056281381
 30
0.0
 11
65.5464046844
 21
41.5003058983
 31
0.0
  0
LINE
  5
26C
330
1F
100
AcDbEntity
  8
DIMENSION
100
AcDbLine
 10
65.5464046844
 20
41.5003058983
 30
0.0
 11
65.9211946916
 21
41.303977176
 31
0.0
  0
LINE
  5
26D
330
1F
100
AcDbEntity
  8
DIMENSION
100
AcDbLine
 10
65.9211946916
 20
41.303977176
 30
0.0
 11
66.6037561552
 21
41.3158064496
 31
0.0
  0
LINE
  5
26E
330
1F
100
AcDbEntity
  8
DIMENSION
100
AcDbLine
 10
65.4328849581
 20
41.0557153709
 30
0.0
 11
65.74065641459999
 21
41.2638733667
 31
0.0
  0
LINE
  5
26F
330
1F
100
AcDbEntity
  8
DIMENSION
100
AcDbLine
 10
65.74065641459999
 20
41.2638733667
 30
0.0
 11
65.36586640739999
 21
41.460202089
 31
0.0
  0
LINE
  5
270
330
1F
100
AcDbEntity
  8
DIMENSION
100
AcDbLine
 10
65.36586640739999
 20
41.460202089
 30
0.0
 11
64.6887183799
 21
41.4455370594
 31
0.0
  0
LINE
  5
271
330
1F
100
AcDbEntity
  8
DIMENSION
100
AcDbLine
 10
64.6887183799
 20
41.4455370594
 30
0.0
 11
64.37553348729998
 21
41.24021481959999
 31
0.0
  0
LINE
  5
272
330
1F
100
AcDbEntity
  8
DIMENSION
100
AcDbLine
 10
64.37553348729998
 20
41.24021481959999
 30
0.0
 11
64.75032349439999
 21
41.04388609739999
 31
0.0
  0
LINE
  5
273
330
1F
100
AcDbEntity
  8
DIMENSION
100
AcDbLine
 10
64.75032349439999
 20
41.04388609739999
 30
0.0
 11
65.4328849581
 21
41.0557153709
 31
0.0
  0
LINE
  5
274
330
1F
100
AcDbEntity
  8
DIMENSION
100
AcDbLine
 10
67.00888365389999
 20
41.036247656
 30
0.0
 11
66.63409364669999
 21
41.2325763783
 31
0.0
  0
LINE
  5
275
330
1F
100
AcDbEntity
  8
DIMENSION
100
AcDbLine
 10
66.63409364669999
 20
41.2325763783
 30
0.0
 11
65.9569456192
 21
41.2179113487
 31
0.0
  0
LINE
  5
276
330
1F
100
AcDbEntity
  8
DIMENSION
100
AcDbLine
 10
65.9569456192
 20
41.2179113487
 30
0.0
 11
65.64376072649999
 21
41.0125891089
 31
0.0
  0
LINE
  5
277
330
1F
100
AcDbEntity
  8
DIMENSION
100
AcDbLine
 10
65.64376072649999
 20
41.0125891089
 30
0.0
 11
66.0185507337
 21
40.8162603867
 31
0.0
  0
LINE
  5
278
330
1F
100
AcDbEntity
  8
DIMENSION
100
AcDbLine
 10
66.0185507337
 20
40.8162603867
 30
0.0
 11
66.70111219739999
 21
40.82808966019999
 31
0.0
  0
LINE
  5
279
330
1F
100
AcDbEntity
  8
DIMENSION
100
AcDbLine
 10
66.70111219739999
 20
40.82808966019999
 30
0.0
 11
67.00888365389999
 21
41.036247656
 31
0.0
  0
LINE
  5
27A
330
1F
100
AcDbEntity
  8
DIMENSION
100
AcDbLine
 10
67.80496484380001
 20
41.4926674569
 30
0.0
 11
67.1278168163
 21
41.47800242739999
 31
0.0
  0
LINE
  5
27B
330
1F
100
AcDbEntity
  8
DIMENSION
100
AcDbLine
 10
67.1278168163
 20
41.47800242739999
 30
0.0
 11
66.8146319237
 21
41.2726801876
 31
0.0
  0
LINE
  5
27C
330
1F
100
AcDbEntity
  8
DIMENSION
100
AcDbLine
 10
66.8146319237
 20
41.2726801876
 30
0.0
 11
67.1894219309
 21
41.07635146529999
 31
0.0
  0
LINE
  5
27D
330
1F
100
AcDbEntity
  8
DIMENSION
100
AcDbLine
 10
67.1894219309
 20
41.07635146529999
 30
0.0
 11
67.87198339449999
 21
41.0881807389
 31
0.0
  0
LINE
  5
27E
330
1F
100
AcDbEntity
  8
DIMENSION
100
AcDbLine
 10
67.87198339449999
 20
41.0881807389
 30
0.0
 11
68.17975485099999
 21
41.2963387347
 31
0.0
  0
LINE
  5
27F
330
1F
100
AcDbEntity
  8
DIMENSION
100
AcDbLine
 10
68.17975485099999
 20
41.2963387347
 30
0.0
 11
67.80496484380001
 21
41.4926674569
 31
0.0
  0
LINE
  5
280
330
1F
100
AcDbEntity
  8
DIMENSION
100
AcDbLine
 10
68.98124947709999
 20
41.7499227796
 30
0.0
 11
68.3041014496
 21
41.7352577501
 31
0.0
  0
LINE
  5
281
330
1F
100
AcDbEntity
  8
DIMENSION
100
AcDbLine
 10
68.3041014496
 20
41.7352577501
 30
0.0
 11
67.99091655689998
 21
41.52993551029999
 31
0.0
  0
LINE
  5
282
330
1F
100
AcDbEntity
  8
DIMENSION
100
AcDbLine
 10
67.99091655689998
 20
41.52993551029999
 30
0.0
 11
68.3657065641
 21
41.333606788
 31
0.0
  0
LINE
  5
283
330
1F
100
AcDbEntity
  8
DIMENSION
100
AcDbLine
 10
68.3657065641
 20
41.333606788
 30
0.0
 11
69.04826802779999
 21
41.3454360616
 31
0.0
  0
LINE
  5
284
330
1F
100
AcDbEntity
  8
DIMENSION
100
AcDbLine
 10
69.04826802779999
 20
41.3454360616
 30
0.0
 11
69.35603948429999
 21
41.55359405739999
 31
0.0
  0
LINE
  5
285
330
1F
100
AcDbEntity
  8
DIMENSION
100
AcDbLine
 10
69.35603948429999
 20
41.55359405739999
 30
0.0
 11
68.98124947709999
 21
41.7499227796
 31
0.0
  0
LINE
  5
286
330
1F
100
AcDbEntity
  8
DIMENSION
100
AcDbLine
 10
70.53232411759999
 20
41.8108493801
 30
0.0
 11
70.22455266109999
 21
41.6026913843
 31
0.0
  0
LINE
  5
287
330
1F
100
AcDbEntity
  8
DIMENSION
100
AcDbLine
 10
70.15753411039999
 20
42.0071781023
 30
0.0
 11
70.53232411759999
 21
41.8108493801
 31
0.0
  0
LINE
  5
288
330
1F
100
AcDbEntity
  8
DIMENSION
100
AcDbLine
 10
69.47497264669999
 20
41.9953488288
 30
0.0
 11
70.15753411039999
 21
42.0071781023
 31
0.0
  0
LINE
  5
289
330
1F
100
AcDbEntity
  8
DIMENSION
100
AcDbLine
 10
69.47497264669999
 20
41.9953488288
 30
0.0
 11
69.1672011902
 21
41.787190833
 31
0.0
  0
LINE
  5
28A
330
1F
100
AcDbEntity
  8
DIMENSION
100
AcDbLine
 10
69.1672011902
 20
41.787190833
 30
0.0
 11
69.5419911974
 21
41.59086211069999
 31
0.0
  0
LINE
  5
28B
330
1F
100
AcDbEntity
  8
DIMENSION
100
AcDbLine
 10
69.5419911974
 20
41.59086211069999
 30
0.0
 11
70.22455266109999
 21
41.6026913843
 31
0.0
  0
LINE
  5
28C
330
1F
100
AcDbEntity
  8
DIMENSION
100
AcDbLine
 10
69.6393472396
 20
41.1031453213
 30
0.0
 11
70.3219087032
 21
41.11497459489999
 31
0.0
  0
LINE
  5
28D
330
1F
100
AcDbEntity
  8
DIMENSION
100
AcDbLine
 10
70.3219087032
 20
41.11497459489999
 30
0.0
 11
70.6296801597
 21
41.3231325907
 31
0.0
  0
LINE
  5
28E
330
1F
100
AcDbEntity
  8
DIMENSION
100
AcDbLine
 10
70.6296801597
 20
41.3231325907
 30
0.0
 11
70.25489015249999
 21
41.51946131299999
 31
0.0
  0
LINE
  5
28F
330
1F
100
AcDbEntity
  8
DIMENSION
100
AcDbLine
 10
70.25489015249999
 20
41.51946131299999
 30
0.0
 11
69.577742125
 21
41.5047962834
 31
0.0
  0
LINE
  5
290
330
1F
100
AcDbEntity
  8
DIMENSION
100
AcDbLine
 10
69.577742125
 20
41.5047962834
 30
0.0
 11
69.2645572324
 21
41.2994740436
 31
0.0
  0
LINE
  5
291
330
1F
100
AcDbEntity
  8
DIMENSION
100
AcDbLine
 10
69.2645572324
 20
41.2994740436
 30
0.0
 11
69.6393472396
 21
41.1031453213
 31
0.0
  0
LINE
  5
292
330
1F
100
AcDbEntity
  8
DIMENSION
100
AcDbLine
 10
68.4630626063
 20
40.8458899987
 30
0.0
 11
69.14562407
 21
40.8577192722
 31
0.0
  0
LINE
  5
293
330
1F
100
AcDbEntity
  8
DIMENSION
100
AcDbLine
 10
69.14562407
 20
40.8577192722
 30
0.0
 11
69.45339552650001
 21
41.06587726799999
 31
0.0
  0
LINE
  5
294
330
1F
100
AcDbEntity
  8
DIMENSION
100
AcDbLine
 10
69.45339552650001
 20
41.06587726799999
 30
0.0
 11
69.07860551929999
 21
41.2622059903
 31
0.0
  0
LINE
  5
295
330
1F
100
AcDbEntity
  8
DIMENSION
100
AcDbLine
 10
69.07860551929999
 20
41.2622059903
 30
0.0
 11
68.3960440556
 21
41.2503767167
 31
0.0
  0
LINE
  5
296
330
1F
100
AcDbEntity
  8
DIMENSION
100
AcDbLine
 10
68.3960440556
 20
41.2503767167
 30
0.0
 11
68.0882725991
 21
41.0422187209
 31
0.0
  0
LINE
  5
297
330
1F
100
AcDbEntity
  8
DIMENSION
100
AcDbLine
 10
68.0882725991
 20
41.0422187209
 30
0.0
 11
68.4630626063
 21
40.8458899987
 31
0.0
  0
LINE
  5
298
330
1F
100
AcDbEntity
  8
DIMENSION
100
AcDbLine
 10
67.90232088599999
 20
41.00495066759999
 30
0.0
 11
67.2251728585
 21
40.990285638
 31
0.0
  0
LINE
  5
299
330
1F
100
AcDbEntity
  8
DIMENSION
100
AcDbLine
 10
67.2251728585
 20
40.990285638
 30
0.0
 11
66.9119879658
 21
40.7849633982
 31
0.0
  0
LINE
  5
29A
330
1F
100
AcDbEntity
  8
DIMENSION
100
AcDbLine
 10
66.9119879658
 20
40.7849633982
 30
0.0
 11
67.286777973
 21
40.588634676
 31
0.0
  0
LINE
  5
29B
330
1F
100
AcDbEntity
  8
DIMENSION
100
AcDbLine
 10
67.286777973
 20
40.588634676
 30
0.0
 11
67.9693394367
 21
40.60046394949999
 31
0.0
  0
LINE
  5
29C
330
1F
100
AcDbEntity
  8
DIMENSION
100
AcDbLine
 10
67.9693394367
 20
40.60046394949999
 30
0.0
 11
68.27711089320001
 21
40.8086219453
 31
0.0
  0
LINE
  5
29D
330
1F
100
AcDbEntity
  8
DIMENSION
100
AcDbLine
 10
68.27711089320001
 20
40.8086219453
 30
0.0
 11
67.90232088599999
 21
41.00495066759999
 31
0.0
  0
LINE
  5
29E
330
1F
100
AcDbEntity
  8
DIMENSION
100
AcDbLine
 10
69.7367032817
 20
40.61542853199999
 30
0.0
 11
70.4192647454
 21
40.6272578055
 31
0.0
  0
LINE
  5
29F
330
1F
100
AcDbEntity
  8
DIMENSION
100
AcDbLine
 10
70.4192647454
 20
40.6272578055
 30
0.0
 11
70.72703620189999
 21
40.83541580139999
 31
0.0
  0
LINE
  5
2A0
330
1F
100
AcDbEntity
  8
DIMENSION
100
AcDbLine
 10
70.72703620189999
 20
40.83541580139999
 30
0.0
 11
70.3522461947
 21
41.0317445236
 31
0.0
  0
LINE
  5
2A1
330
1F
100
AcDbEntity
  8
DIMENSION
100
AcDbLine
 10
70.3522461947
 20
41.0317445236
 30
0.0
 11
69.6750981672
 21
41.017079494
 31
0.0
  0
LINE
  5
2A2
330
1F
100
AcDbEntity
  8
DIMENSION
100
AcDbLine
 10
69.6750981672
 20
41.017079494
 30
0.0
 11
69.3619132745
 21
40.8117572542
 31
0.0
  0
LINE
  5
2A3
330
1F
100
AcDbEntity
  8
DIMENSION
100
AcDbLine
 10
69.3619132745
 20
40.8117572542
 30
0.0
 11
69.7367032817
 21
40.61542853199999
 31
0.0
  0
LINE
  5
2A4
330
1F
100
AcDbEntity
  8
DIMENSION
100
AcDbLine
 10
71.90332083520001
 20
41.0926711241
 30
0.0
 11
71.5955493787
 21
40.8845131282
 31
0.0
  0
LINE
  5
2A5
330
1F
100
AcDbEntity
  8
DIMENSION
100
AcDbLine
 10
71.528530828
 20
41.2889998463
 30
0.0
 11
71.90332083520001
 21
41.0926711241
 31
0.0
  0
LINE
  5
2A6
330
1F
100
AcDbEntity
  8
DIMENSION
100
AcDbLine
 10
70.8459693643
 20
41.27717057269999
 30
0.0
 11
71.528530828
 21
41.2889998463
 31
0.0
  0
LINE
  5
2A7
330
1F
100
AcDbEntity
  8
DIMENSION
100
AcDbLine
 10
70.8459693643
 20
41.27717057269999
 30
0.0
 11
70.5381979078
 21
41.0690125769
 31
0.0
  0
LINE
  5
2A8
330
1F
100
AcDbEntity
  8
DIMENSION
100
AcDbLine
 10
70.5381979078
 20
41.0690125769
 30
0.0
 11
70.912987915
 21
40.87268385469999
 31
0.0
  0
LINE
  5
2A9
330
1F
100
AcDbEntity
  8
DIMENSION
100
AcDbLine
 10
70.912987915
 20
40.87268385469999
 30
0.0
 11
71.5955493787
 21
40.8845131282
 31
0.0
  0
LINE
  5
2AA
330
1F
100
AcDbEntity
  8
DIMENSION
100
AcDbLine
 10
70.2262883284
 20
44.3779919378
 30
0.0
 11
70.2260821837
 21
44.2895371363
 31
0.0
  0
LINE
  5
2AB
330
1F
100
AcDbEntity
  8
DIMENSION
100
AcDbLine
 10
68.4645866381
 20
44.4669144821
 30
0.0
 11
68.46413177479999
 21
44.2717367978
 31
0.0
  0
LINE
  5
2AC
330
1F
100
AcDbEntity
  8
DIMENSION
100
AcDbLine
 10
67.7820250151
 20
44.4550168254
 30
0.0
 11
67.7815703111
 21
44.2599075243
 31
0.0
  0
LINE
  5
2AD
330
1F
100
AcDbEntity
  8
DIMENSION
100
AcDbLine
 10
66.0143320497
 20
44.2988297008
 30
0.0
 11
66.01420646609999
 21
44.2449429418
 31
0.0
  0
LINE
  5
2AE
330
1F
100
AcDbEntity
  8
DIMENSION
100
AcDbLine
 10
71.4946202127
 20
44.1952684493
 30
0.0
 11
71.494309423
 21
44.06191142559999
 31
0.0
  0
LINE
  5
2AF
330
1F
100
AcDbEntity
  8
DIMENSION
100
AcDbLine
 10
69.7332188077
 20
44.4130406442
 30
0.0
 11
69.73235901409999
 21
44.04411108709999
 31
0.0
  0
LINE
  5
2B0
330
1F
100
AcDbEntity
  8
DIMENSION
100
AcDbLine
 10
69.05615639149999
 20
44.43511063909999
 30
0.0
 11
69.0552109866
 21
44.02944605760001
 31
0.0
  0
LINE
  5
2B1
330
1F
100
AcDbEntity
  8
DIMENSION
100
AcDbLine
 10
67.283293499
 20
44.3862467882
 30
0.0
 11
67.28243370539999
 21
44.01731723109999
 31
0.0
  0
LINE
  5
2B2
330
1F
100
AcDbEntity
  8
DIMENSION
100
AcDbLine
 10
66.6061478111
 20
44.37258569279999
 30
0.0
 11
66.6052856779
 21
44.0026522016
 31
0.0
  0
LINE
  5
2B3
330
1F
100
AcDbEntity
  8
DIMENSION
100
AcDbLine
 10
64.8435469936
 20
44.0757009751
 30
0.0
 11
64.84333526899999
 21
43.9848518631
 31
0.0
  0
LINE
  5
2B4
330
1F
100
AcDbEntity
  8
DIMENSION
100
AcDbLine
 10
72.7626357717
 20
43.8768126714
 30
0.0
 11
72.76253666229999
 21
43.83428571489999
 31
0.0
  0
LINE
  5
2B5
330
1F
100
AcDbEntity
  8
DIMENSION
100
AcDbLine
 10
71.001446047
 20
44.18541493350001
 30
0.0
 11
71.0005862534
 21
43.8164853764
 31
0.0
  0
LINE
  5
2B6
330
1F
100
AcDbEntity
  8
DIMENSION
100
AcDbLine
 10
70.3243836308
 20
44.2074849284
 30
0.0
 11
70.3234382259
 21
43.80182034689999
 31
0.0
  0
LINE
  5
2B7
330
1F
100
AcDbEntity
  8
DIMENSION
100
AcDbLine
 10
66.1124223019
 20
44.12615570949999
 30
0.0
 11
66.11156250829999
 21
43.75722615239999
 31
0.0
  0
LINE
  5
2B8
330
1F
100
AcDbEntity
  8
DIMENSION
100
AcDbLine
 10
65.42994644949999
 20
44.1510614604
 30
0.0
 11
65.4290010446
 21
43.7453968789
 31
0.0
  0
LINE
  5
2B9
330
1F
100
AcDbEntity
  8
DIMENSION
100
AcDbLine
 10
72.2696732863
 20
43.95778922279999
 30
0.0
 11
72.26881349270001
 21
43.58885966569999
 31
0.0
  0
LINE
  5
2BA
330
1F
100
AcDbEntity
  8
DIMENSION
100
AcDbLine
 10
71.5926108701
 20
43.9798592177
 30
0.0
 11
71.59166546520001
 21
43.5741946362
 31
0.0
  0
LINE
  5
2BB
330
1F
100
AcDbEntity
  8
DIMENSION
100
AcDbLine
 10
69.8305748499
 20
43.9253238548
 30
0.0
 11
69.82971505630001
 21
43.5563942978
 31
0.0
  0
LINE
  5
2BC
330
1F
100
AcDbEntity
  8
DIMENSION
100
AcDbLine
 10
69.15351243359999
 20
43.9473938497
 30
0.0
 11
69.1525670287
 21
43.54172926819999
 31
0.0
  0
LINE
  5
2BD
330
1F
100
AcDbEntity
  8
DIMENSION
100
AcDbLine
 10
67.3806495412
 20
43.8985299988
 30
0.0
 11
67.3797897476
 21
43.52960044169999
 31
0.0
  0
LINE
  5
2BE
330
1F
100
AcDbEntity
  8
DIMENSION
100
AcDbLine
 10
66.70358712489999
 20
43.9205999937
 30
0.0
 11
66.70264172
 21
43.5149354122
 31
0.0
  0
LINE
  5
2BF
330
1F
100
AcDbEntity
  8
DIMENSION
100
AcDbLine
 10
64.9415511047
 20
43.86606463089999
 30
0.0
 11
64.94069131109999
 21
43.4971350738
 31
0.0
  0
LINE
  5
2C0
330
1F
100
AcDbEntity
  8
DIMENSION
100
AcDbLine
 10
64.26448868850001
 20
43.88813462569999
 30
0.0
 11
64.2635432836
 21
43.4824700442
 31
0.0
  0
LINE
  5
2C1
330
1F
100
AcDbEntity
  8
DIMENSION
100
AcDbLine
 10
73.53753650929999
 20
43.573967479
 30
0.0
 11
73.53704073199999
 21
43.361233955
 31
0.0
  0
LINE
  5
2C2
330
1F
100
AcDbEntity
  8
DIMENSION
100
AcDbLine
 10
72.85542467319999
 20
43.755069263
 30
0.0
 11
72.85447926829999
 21
43.3494046815
 31
0.0
  0
LINE
  5
2C3
330
1F
100
AcDbEntity
  8
DIMENSION
100
AcDbLine
 10
71.0988020892
 20
43.69769814409999
 30
0.0
 11
71.09794229560001
 21
43.3287685871
 31
0.0
  0
LINE
  5
2C4
330
1F
100
AcDbEntity
  8
DIMENSION
100
AcDbLine
 10
70.42173967290001
 20
43.71976813899999
 30
0.0
 11
70.420794268
 21
43.3141035575
 31
0.0
  0
LINE
  5
2C5
330
1F
100
AcDbEntity
  8
DIMENSION
100
AcDbLine
 10
68.6542902166
 20
43.66806853209999
 30
0.0
 11
68.65343042300001
 21
43.29913897509999
 31
0.0
  0
LINE
  5
2C6
330
1F
100
AcDbEntity
  8
DIMENSION
100
AcDbLine
 10
67.9772278004
 20
43.69013852699999
 30
0.0
 11
67.9762823955
 21
43.2844739455
 31
0.0
  0
LINE
  5
2C7
330
1F
100
AcDbEntity
  8
DIMENSION
100
AcDbLine
 10
66.209778344
 20
43.6384389202
 30
0.0
 11
66.20891855039999
 21
43.26950936310001
 31
0.0
  0
LINE
  5
2C8
330
1F
100
AcDbEntity
  8
DIMENSION
100
AcDbLine
 10
65.53271592779999
 20
43.660508915
 30
0.0
 11
65.5317705229
 21
43.2548443335
 31
0.0
  0
LINE
  5
2C9
330
1F
100
AcDbEntity
  8
DIMENSION
100
AcDbLine
 10
63.78150677989999
 20
43.6003020402
 30
0.0
 11
63.7806469863
 21
43.2313724831
 31
0.0
  0
LINE
  5
2CA
330
1F
100
AcDbEntity
  8
DIMENSION
100
AcDbLine
 10
63.0985722613
 20
43.42839829949999
 30
0.0
 11
63.0980855226
 21
43.21954320959999
 31
0.0
  0
LINE
  5
2CB
330
1F
100
AcDbEntity
  8
DIMENSION
100
AcDbLine
 10
74.11756034449999
 20
43.2392991514
 30
0.0
 11
74.11729307139999
 21
43.1246147267
 31
0.0
  0
LINE
  5
2CC
330
1F
100
AcDbEntity
  8
DIMENSION
100
AcDbLine
 10
72.3670293284
 20
43.4700724334
 30
0.0
 11
72.36616953479999
 21
43.1011428764
 31
0.0
  0
LINE
  5
2CD
330
1F
100
AcDbEntity
  8
DIMENSION
100
AcDbLine
 10
71.68455347609999
 20
43.4949781843
 30
0.0
 11
71.6836080712
 21
43.08931360279999
 31
0.0
  0
LINE
  5
2CE
330
1F
100
AcDbEntity
  8
DIMENSION
100
AcDbLine
 10
69.92793089199999
 20
43.4376070655
 30
0.0
 11
69.92707109840001
 21
43.0686775084
 31
0.0
  0
LINE
  5
2CF
330
1F
100
AcDbEntity
  8
DIMENSION
100
AcDbLine
 10
69.25086847580001
 20
43.45967706039999
 30
0.0
 11
69.2499230709
 21
43.0540124788
 31
0.0
  0
LINE
  5
2D0
330
1F
100
AcDbEntity
  8
DIMENSION
100
AcDbLine
 10
67.4834190195
 20
43.4079774535
 30
0.0
 11
67.48255922590001
 21
43.0390478964
 31
0.0
  0
LINE
  5
2D1
330
1F
100
AcDbEntity
  8
DIMENSION
100
AcDbLine
 10
66.8009431671
 20
43.43288320430001
 30
0.0
 11
66.7999977622
 21
43.0272186228
 31
0.0
  0
LINE
  5
2D2
330
1F
100
AcDbEntity
  8
DIMENSION
100
AcDbLine
 10
65.0497340192
 20
43.37267632949999
 30
0.0
 11
65.0488742256
 21
43.00374677239999
 31
0.0
  0
LINE
  5
2D3
330
1F
100
AcDbEntity
  8
DIMENSION
100
AcDbLine
 10
64.3672581668
 20
43.3975820804
 30
0.0
 11
64.36631276189999
 21
42.9919174989
 31
0.0
  0
LINE
  5
2D4
330
1F
100
AcDbEntity
  8
DIMENSION
100
AcDbLine
 10
62.6100219482
 20
43.07690598109999
 30
0.0
 11
62.6097757892
 21
42.97128140449999
 31
0.0
  0
LINE
  5
2D5
330
1F
100
AcDbEntity
  8
DIMENSION
100
AcDbLine
 10
73.6298431316
 20
43.2452824787
 30
0.0
 11
73.628983338
 21
42.8763529216
 31
0.0
  0
LINE
  5
2D6
330
1F
100
AcDbEntity
  8
DIMENSION
100
AcDbLine
 10
72.9473610822
 20
43.2675291357
 30
0.0
 11
72.9464218743
 21
42.86452364809999
 31
0.0
  0
LINE
  5
2D7
330
1F
100
AcDbEntity
  8
DIMENSION
100
AcDbLine
 10
71.1961581313
 20
43.20998135479999
 30
0.0
 11
71.19529833770001
 21
42.8410517977
 31
0.0
  0
LINE
  5
2D8
330
1F
100
AcDbEntity
  8
DIMENSION
100
AcDbLine
 10
70.51368227899999
 20
43.2348871056
 30
0.0
 11
70.512736874
 21
42.82922252409999
 31
0.0
  0
LINE
  5
2D9
330
1F
100
AcDbEntity
  8
DIMENSION
100
AcDbLine
 10
68.75705969489999
 20
43.1775159868
 30
0.0
 11
68.75619990130001
 21
42.8085864297
 31
0.0
  0
LINE
  5
2DA
330
1F
100
AcDbEntity
  8
DIMENSION
100
AcDbLine
 10
68.07458384250001
 20
43.2024217377
 30
0.0
 11
68.0736384376
 21
42.79675715609999
 31
0.0
  0
LINE
  5
2DB
330
1F
100
AcDbEntity
  8
DIMENSION
100
AcDbLine
 10
66.31254782229999
 20
43.14788637479999
 30
0.0
 11
66.3116880287
 21
42.7789568177
 31
0.0
  0
LINE
  5
2DC
330
1F
100
AcDbEntity
  8
DIMENSION
100
AcDbLine
 10
65.6354854061
 20
43.1699563697
 30
0.0
 11
65.6345400012
 21
42.7642917882
 31
0.0
  0
LINE
  5
2DD
330
1F
100
AcDbEntity
  8
DIMENSION
100
AcDbLine
 10
63.87886282210001
 20
43.1125852509
 30
0.0
 11
63.8780030285
 21
42.7436556938
 31
0.0
  0
LINE
  5
2DE
330
1F
100
AcDbEntity
  8
DIMENSION
100
AcDbLine
 10
63.2018004059
 20
43.13465524569999
 30
0.0
 11
63.200855001
 21
42.72899066419999
 31
0.0
  0
LINE
  5
2DF
330
1F
100
AcDbEntity
  8
DIMENSION
100
AcDbLine
 10
74.21558832149999
 20
43.03990342499999
 30
0.0
 11
74.21464911359999
 21
42.6368979374
 31
0.0
  0
LINE
  5
2E0
330
1F
100
AcDbEntity
  8
DIMENSION
100
AcDbLine
 10
72.4589719345
 20
42.98519140009999
 30
0.0
 11
72.4581121409
 21
42.616261843
 31
0.0
  0
LINE
  5
2E1
330
1F
100
AcDbEntity
  8
DIMENSION
100
AcDbLine
 10
71.7764898851
 20
43.00743805699999
 30
0.0
 11
71.7755506772
 21
42.6044325694
 31
0.0
  0
LINE
  5
2E2
330
1F
100
AcDbEntity
  8
DIMENSION
100
AcDbLine
 10
70.0252869342
 20
42.94989027609999
 30
0.0
 11
70.02442714060001
 21
42.580960719
 31
0.0
  0
LINE
  5
2E3
330
1F
100
AcDbEntity
  8
DIMENSION
100
AcDbLine
 10
69.34281108180001
 20
42.974796027
 30
0.0
 11
69.3418656769
 21
42.56913144539999
 31
0.0
  0
LINE
  5
2E4
330
1F
100
AcDbEntity
  8
DIMENSION
100
AcDbLine
 10
67.58618849779999
 20
42.9174249081
 30
0.0
 11
67.58532870419999
 21
42.54849535099999
 31
0.0
  0
LINE
  5
2E5
330
1F
100
AcDbEntity
  8
DIMENSION
100
AcDbLine
 10
66.90371264540001
 20
42.942330659
 30
0.0
 11
66.9027672405
 21
42.5366660775
 31
0.0
  0
LINE
  5
2E6
330
1F
100
AcDbEntity
  8
DIMENSION
100
AcDbLine
 10
65.14709006140001
 20
42.8849595402
 30
0.0
 11
65.14623026779999
 21
42.5160299831
 31
0.0
  0
LINE
  5
2E7
330
1F
100
AcDbEntity
  8
DIMENSION
100
AcDbLine
 10
64.4700276452
 20
42.907029535
 30
0.0
 11
64.46908224020001
 21
42.5013649535
 31
0.0
  0
LINE
  5
2E8
330
1F
100
AcDbEntity
  8
DIMENSION
100
AcDbLine
 10
62.707991625
 20
42.8524941722
 30
0.0
 11
62.7071318314
 21
42.4835646151
 31
0.0
  0
LINE
  5
2E9
330
1F
100
AcDbEntity
  8
DIMENSION
100
AcDbLine
 10
73.7271991738
 20
42.7575656894
 30
0.0
 11
73.7263393801
 21
42.3886361323
 31
0.0
  0
LINE
  5
2EA
330
1F
100
AcDbEntity
  8
DIMENSION
100
AcDbLine
 10
73.0447171243
 20
42.7798123463
 30
0.0
 11
73.04377791649999
 21
42.3768068587
 31
0.0
  0
LINE
  5
2EB
330
1F
100
AcDbEntity
  8
DIMENSION
100
AcDbLine
 10
71.2881007373
 20
42.7251003214
 30
0.0
 11
71.28724094369999
 21
42.35617076429999
 31
0.0
  0
LINE
  5
2EC
330
1F
100
AcDbEntity
  8
DIMENSION
100
AcDbLine
 10
70.6056186879
 20
42.7473469784
 30
0.0
 11
70.6046794801
 21
42.3443414907
 31
0.0
  0
LINE
  5
2ED
330
1F
100
AcDbEntity
  8
DIMENSION
100
AcDbLine
 10
66.41531730069999
 20
42.65733382949999
 30
0.0
 11
66.41445750709999
 21
42.2884042724
 31
0.0
  0
LINE
  5
2EE
330
1F
100
AcDbEntity
  8
DIMENSION
100
AcDbLine
 10
65.73825488439999
 20
42.67940382429999
 30
0.0
 11
65.7373094795
 21
42.27373924280001
 31
0.0
  0
LINE
  5
2EF
330
1F
100
AcDbEntity
  8
DIMENSION
100
AcDbLine
 10
63.9762188643
 20
42.62486846149999
 30
0.0
 11
63.9753590706
 21
42.25593890439999
 31
0.0
  0
LINE
  5
2F0
330
1F
100
AcDbEntity
  8
DIMENSION
100
AcDbLine
 10
63.299156448
 20
42.6469384564
 30
0.0
 11
63.2982110431
 21
42.2412738748
 31
0.0
  0
LINE
  5
2F1
330
1F
100
AcDbEntity
  8
DIMENSION
100
AcDbLine
 10
74.31294436359999
 20
42.5521866356
 30
0.0
 11
74.31200515579999
 21
42.149181148
 31
0.0
  0
LINE
  5
2F2
330
1F
100
AcDbEntity
  8
DIMENSION
100
AcDbLine
 10
71.8729129287
 20
42.1193801742
 30
0.0
 11
71.87290671939999
 21
42.11671577999999
 31
0.0
  0
LINE
  5
2F3
330
1F
100
AcDbEntity
  8
DIMENSION
100
AcDbLine
 10
70.1226429764
 20
42.4621734867
 30
0.0
 11
70.1217831828
 21
42.0932439296
 31
0.0
  0
LINE
  5
2F4
330
1F
100
AcDbEntity
  8
DIMENSION
100
AcDbLine
 10
69.44016712399999
 20
42.4870792376
 30
0.0
 11
69.4392217191
 21
42.0814146561
 31
0.0
  0
LINE
  5
2F5
330
1F
100
AcDbEntity
  8
DIMENSION
100
AcDbLine
 10
67.68354454
 20
42.4297081188
 30
0.0
 11
67.6826847463
 21
42.0607785617
 31
0.0
  0
LINE
  5
2F6
330
1F
100
AcDbEntity
  8
DIMENSION
100
AcDbLine
 10
67.00106868759999
 20
42.4546138696
 30
0.0
 11
67.0001232827
 21
42.04894928809999
 31
0.0
  0
LINE
  5
2F7
330
1F
100
AcDbEntity
  8
DIMENSION
100
AcDbLine
 10
65.24444610350001
 20
42.39724275079999
 30
0.0
 11
65.2435863099
 21
42.0283131937
 31
0.0
  0
LINE
  5
2F8
330
1F
100
AcDbEntity
  8
DIMENSION
100
AcDbLine
 10
64.56738368729999
 20
42.4193127457
 30
0.0
 11
64.5664382824
 21
42.01364816409999
 31
0.0
  0
LINE
  5
2F9
330
1F
100
AcDbEntity
  8
DIMENSION
100
AcDbLine
 10
62.8053476671
 20
42.3647773828
 30
0.0
 11
62.8044878735
 21
41.9958478257
 31
0.0
  0
LINE
  5
2FA
330
1F
100
AcDbEntity
  8
DIMENSION
100
AcDbLine
 10
73.8245552159
 20
42.26984889999999
 30
0.0
 11
73.82369542229999
 21
41.90091934289999
 31
0.0
  0
LINE
  5
2FB
330
1F
100
AcDbEntity
  8
DIMENSION
100
AcDbLine
 10
73.1420731665
 20
42.29209555699999
 30
0.0
 11
73.14113395859999
 21
41.88909006929999
 31
0.0
  0
LINE
  5
2FC
330
1F
100
AcDbEntity
  8
DIMENSION
100
AcDbLine
 10
71.39087021569999
 20
42.23454777599999
 30
0.0
 11
71.39001042210001
 21
41.86561821889999
 31
0.0
  0
LINE
  5
2FD
330
1F
100
AcDbEntity
  8
DIMENSION
100
AcDbLine
 10
70.7083881662
 20
42.256794433
 30
0.0
 11
70.7074489584
 21
41.8537889454
 31
0.0
  0
LINE
  5
2FE
330
1F
100
AcDbEntity
  8
DIMENSION
100
AcDbLine
 10
68.9517717792
 20
42.20208240809999
 30
0.0
 11
68.9509119856
 21
41.83315285099999
 31
0.0
  0
LINE
  5
2FF
330
1F
100
AcDbEntity
  8
DIMENSION
100
AcDbLine
 10
68.26929592689999
 20
42.2269881589
 30
0.0
 11
68.26835052199999
 21
41.8213235774
 31
0.0
  0
LINE
  5
300
330
1F
100
AcDbEntity
  8
DIMENSION
100
AcDbLine
 10
66.51267334279999
 20
42.1696170401
 30
0.0
 11
66.5118135492
 21
41.800687483
 31
0.0
  0
LINE
  5
301
330
1F
100
AcDbEntity
  8
DIMENSION
100
AcDbLine
 10
65.83019749049999
 20
42.1945227909
 30
0.0
 11
65.8292520856
 21
41.78885820939999
 31
0.0
  0
LINE
  5
302
330
1F
100
AcDbEntity
  8
DIMENSION
100
AcDbLine
 10
64.07357490639999
 20
42.1371516721
 30
0.0
 11
64.0727151128
 21
41.768222115
 31
0.0
  0
LINE
  5
303
330
1F
100
AcDbEntity
  8
DIMENSION
100
AcDbLine
 10
63.3965124902
 20
42.15922166699999
 30
0.0
 11
63.39556708529999
 21
41.75355708549999
 31
0.0
  0
LINE
  5
304
330
1F
100
AcDbEntity
  8
DIMENSION
100
AcDbLine
 10
72.65909745489999
 20
42.0069220653
 30
0.0
 11
72.65823766130001
 21
41.6379925082
 31
0.0
  0
LINE
  5
305
330
1F
100
AcDbEntity
  8
DIMENSION
100
AcDbLine
 10
71.97662160260001
 20
42.03182781619999
 30
0.0
 11
71.97567619770001
 21
41.62616323469999
 31
0.0
  0
LINE
  5
306
330
1F
100
AcDbEntity
  8
DIMENSION
100
AcDbLine
 10
70.22541245470001
 20
41.9716209414
 30
0.0
 11
70.22455266109999
 21
41.6026913843
 31
0.0
  0
LINE
  5
307
330
1F
100
AcDbEntity
  8
DIMENSION
100
AcDbLine
 10
69.54293660229999
 20
41.99652669219999
 30
0.0
 11
69.5419911974
 21
41.59086211069999
 31
0.0
  0
LINE
  5
308
330
1F
100
AcDbEntity
  8
DIMENSION
100
AcDbLine
 10
67.775487146
 20
41.94482708539999
 30
0.0
 11
67.7746273524
 21
41.57589752829999
 31
0.0
  0
LINE
  5
309
330
1F
100
AcDbEntity
  8
DIMENSION
100
AcDbLine
 10
67.0930050966
 20
41.96707374239999
 30
0.0
 11
67.0920658887
 21
41.56406825469999
 31
0.0
  0
LINE
  5
30A
330
1F
100
AcDbEntity
  8
DIMENSION
100
AcDbLine
 10
65.3418021457
 20
41.90952596139999
 30
0.0
 11
65.3409423521
 21
41.54059640429999
 31
0.0
  0
LINE
  5
30B
330
1F
100
AcDbEntity
  8
DIMENSION
100
AcDbLine
 10
64.6593262933
 20
41.9344317123
 30
0.0
 11
64.6583808884
 21
41.5287671307
 31
0.0
  0
LINE
  5
30C
330
1F
100
AcDbEntity
  8
DIMENSION
100
AcDbLine
 10
73.24484884189999
 20
41.8042021055
 30
0.0
 11
73.243903437
 21
41.39853752399999
 31
0.0
  0
LINE
  5
30D
330
1F
100
AcDbEntity
  8
DIMENSION
100
AcDbLine
 10
71.49363969399999
 20
41.74399523069999
 30
0.0
 11
71.49277990039999
 21
41.37506567359999
 31
0.0
  0
LINE
  5
30E
330
1F
100
AcDbEntity
  8
DIMENSION
100
AcDbLine
 10
70.8111576446
 20
41.76624188769999
 30
0.0
 11
70.8102184367
 21
41.36323639999999
 31
0.0
  0
LINE
  5
30F
330
1F
100
AcDbEntity
  8
DIMENSION
100
AcDbLine
 10
69.04912782140001
 20
41.7143656187
 30
0.0
 11
69.04826802779999
 21
41.3454360616
 31
0.0
  0
LINE
  5
310
330
1F
100
AcDbEntity
  8
DIMENSION
100
AcDbLine
 10
68.366645772
 20
41.7366122757
 30
0.0
 11
68.3657065641
 21
41.333606788
 31
0.0
  0
LINE
  5
311
330
1F
100
AcDbEntity
  8
DIMENSION
100
AcDbLine
 10
65.921200901
 20
41.3066415702
 30
0.0
 11
65.9211946916
 21
41.303977176
 31
0.0
  0
LINE
  5
312
330
1F
100
AcDbEntity
  8
DIMENSION
100
AcDbLine
 10
64.1709309486
 20
41.6494348827
 30
0.0
 11
64.170071155
 21
41.28050532569999
 31
0.0
  0
LINE
  5
313
330
1F
100
AcDbEntity
  8
DIMENSION
100
AcDbLine
 10
63.4884550962
 20
41.6743406336
 30
0.0
 11
63.4875096913
 21
41.2686760521
 31
0.0
  0
LINE
  5
314
330
1F
100
AcDbEntity
  8
DIMENSION
100
AcDbLine
 10
72.7618669333
 20
41.51636951999999
 30
0.0
 11
72.7610071397
 21
41.1474399629
 31
0.0
  0
LINE
  5
315
330
1F
100
AcDbEntity
  8
DIMENSION
100
AcDbLine
 10
72.0793848838
 20
41.538616177
 30
0.0
 11
72.078445676
 21
41.1356106893
 31
0.0
  0
LINE
  5
316
330
1F
100
AcDbEntity
  8
DIMENSION
100
AcDbLine
 10
70.32276849680001
 20
41.483904152
 30
0.0
 11
70.3219087032
 21
41.11497459489999
 31
0.0
  0
LINE
  5
317
330
1F
100
AcDbEntity
  8
DIMENSION
100
AcDbLine
 10
69.6402864474
 20
41.50615080899999
 30
0.0
 11
69.6393472396
 21
41.1031453213
 31
0.0
  0
LINE
  5
318
330
1F
100
AcDbEntity
  8
DIMENSION
100
AcDbLine
 10
67.87284318810001
 20
41.457110296
 30
0.0
 11
67.87198339449999
 21
41.0881807389
 31
0.0
  0
LINE
  5
319
330
1F
100
AcDbEntity
  8
DIMENSION
100
AcDbLine
 10
67.1903611387
 20
41.479356953
 30
0.0
 11
67.1894219309
 21
41.07635146529999
 31
0.0
  0
LINE
  5
31A
330
1F
100
AcDbEntity
  8
DIMENSION
100
AcDbLine
 10
65.43374475170001
 20
41.424644928
 30
0.0
 11
65.4328849581
 21
41.0557153709
 31
0.0
  0
LINE
  5
31B
330
1F
100
AcDbEntity
  8
DIMENSION
100
AcDbLine
 10
64.75126270229999
 20
41.446891585
 30
0.0
 11
64.75032349439999
 21
41.04388609739999
 31
0.0
  0
LINE
  5
31C
330
1F
100
AcDbEntity
  8
DIMENSION
100
AcDbLine
 10
71.59640917229999
 20
41.2534426853
 30
0.0
 11
71.5955493787
 21
40.8845131282
 31
0.0
  0
LINE
  5
31D
330
1F
100
AcDbEntity
  8
DIMENSION
100
AcDbLine
 10
70.91393331989999
 20
41.27834843619999
 30
0.0
 11
70.912987915
 21
40.87268385469999
 31
0.0
  0
LINE
  5
31E
330
1F
100
AcDbEntity
  8
DIMENSION
100
AcDbLine
 10
69.14648386359999
 20
41.22664882929999
 30
0.0
 11
69.14562407
 21
40.8577192722
 31
0.0
  0
LINE
  5
31F
330
1F
100
AcDbEntity
  8
DIMENSION
100
AcDbLine
 10
68.46400801119999
 20
41.2515545802
 30
0.0
 11
68.4630626063
 21
40.8458899987
 31
0.0
  0
LINE
  5
320
330
1F
100
AcDbEntity
  8
DIMENSION
100
AcDbLine
 10
66.70197199100001
 20
41.1970192173
 30
0.0
 11
66.70111219739999
 21
40.82808966019999
 31
0.0
  0
LINE
  5
321
330
1F
100
AcDbEntity
  8
DIMENSION
100
AcDbLine
 10
66.0194899416
 20
41.21926587429999
 30
0.0
 11
66.0185507337
 21
40.8162603867
 31
0.0
  0
LINE
  5
322
330
1F
100
AcDbEntity
  8
DIMENSION
100
AcDbLine
 10
70.42012453899999
 20
40.9961873626
 30
0.0
 11
70.4192647454
 21
40.6272578055
 31
0.0
  0
LINE
  5
323
330
1F
100
AcDbEntity
  8
DIMENSION
100
AcDbLine
 10
69.73764248960001
 20
41.0184340196
 30
0.0
 11
69.7367032817
 21
40.61542853199999
 31
0.0
  0
LINE
  5
324
330
1F
100
AcDbEntity
  8
DIMENSION
100
AcDbLine
 10
67.97019923029999
 20
40.9693935066
 30
0.0
 11
67.9693394367
 21
40.60046394949999
 31
0.0
  0
LINE
  5
325
330
1F
100
AcDbEntity
  8
DIMENSION
100
AcDbLine
 10
67.2877171809
 20
40.9916401636
 30
0.0
 11
67.286777973
 21
40.588634676
 31
0.0
  0
LINE
  5
326
330
1F
100
AcDbEntity
  8
DIMENSION
100
AcDbLine
 10
66.53722781919999
 20
41.7200363753
 30
0.0
 11
66.5372216098
 21
41.7173719811
 31
0.0
  0
LINE
  5
327
330
1F
100
AcDbEntity
  8
DIMENSION
100
AcDbLine
 10
66.5372216098
 20
41.7173719811
 30
0.0
 11
65.85958957699999
 21
41.7056281381
 31
0.0
  0
LINE
  5
328
330
1F
100
AcDbEntity
  8
DIMENSION
100
AcDbLine
 10
66.9093111083
 20
41.525125531
 30
0.0
 11
66.9093048989
 21
41.5224611369
 31
0.0
  0
LINE
  5
329
330
1F
100
AcDbEntity
  8
DIMENSION
100
AcDbLine
 10
66.9093048989
 20
41.5224611369
 30
0.0
 11
66.5372216098
 21
41.7173719811
 31
0.0
  0
LINE
  5
32A
330
1F
100
AcDbEntity
  8
DIMENSION
100
AcDbLine
 10
66.6037561552
 20
41.3158064496
 30
0.0
 11
66.9093048989
 21
41.5224611369
 31
0.0
  0
LINE
  5
32B
330
1F
100
AcDbEntity
  8
DIMENSION
100
AcDbLine
 10
65.9261241225
 20
41.3040626066
 30
0.0
 11
66.6037561552
 21
41.3158064496
 31
0.0
  0
LINE
  5
32C
330
1F
100
AcDbEntity
  8
DIMENSION
100
AcDbLine
 10
65.5540408334
 20
41.4989734508
 30
0.0
 11
65.9261241225
 21
41.3040626066
 31
0.0
  0
LINE
  5
32D
330
1F
100
AcDbEntity
  8
DIMENSION
100
AcDbLine
 10
65.85958957699999
 20
41.7056281381
 30
0.0
 11
65.5540408334
 21
41.4989734508
 31
0.0
  0
LINE
  5
32E
330
1F
100
AcDbEntity
  8
DIMENSION
100
AcDbLine
 10
65.5540556283
 20
41.5053218137
 30
0.0
 11
65.5540408334
 21
41.4989734508
 31
0.0
  0
LWPOLYLINE
  5
32F
330
1F
100
AcDbEntity
  8
DIMENSION
100
AcDbPolyline
 90
       16
 70
   128
 43
0.0
 10
67.87820358240001
 20
46.1972330146
 10
69.297764989
 20
46.1890004835
 10
70.70066731109999
 20
46.11175946369999
 10
72.05835150289999
 20
45.96708235979999
 10
73.34317902969999
 20
45.7579143803
 10
74.5289945081
 20
45.4885135821
 10
75.5916581545
 20
45.16436418869999
 10
76.50953720149999
 20
44.7920649468
 10
77.26394627890001
 20
44.37919479539999
 10
77.8395277931
 20
43.9341585801
 10
78.2245645645
 20
43.466015955
 10
78.4112183548
 20
42.98429695390001
 10
78.39568943100001
 20
42.49880798649999
 10
78.1782939173
 20
42.019432208
 10
77.7634573593
 20
41.555928327
 10
77.7440464031
 20
41.5388834731
  0
LWPOLYLINE
  5
330
330
1F
100
AcDbEntity
  8
DIMENSION
100
AcDbPolyline
 90
       15
 70
   128
 43
0.0
 10
59.2090261951
 20
41.582079502
 10
59.1193180531
 20
41.6640521864
 10
58.7342812816
 20
42.1321948115
 10
58.5476274914
 20
42.6139138126
 10
58.56315641520001
 20
43.09940278
 10
58.7805519289
 20
43.5787785585
 10
59.19538848680001
 20
44.0422824395
 10
59.799221213
 20
44.4804788206
 10
60.5797578143
 20
44.8844472873
 10
61.5211088164
 20
45.2459642064
 10
62.6041110277
 20
45.557670136
 10
63.80671764609999
 20
45.81321964229999
 10
65.1044470691
 20
46.0074104743
 10
66.4708812677
 20
46.13628946659999
 10
67.87820358240001
 20
46.1972330146
  0
LWPOLYLINE
  5
331
330
1F
100
AcDbEntity
  8
DIMENSION
100
AcDbPolyline
 90
       44
 70
   128
 43
0.0
 10
67.9073206315
 20
45.5566277977
 10
69.2868192713
 20
45.5478440593
 10
70.6490863221
 20
45.47046179699999
 10
71.96508742689999
 20
45.3261302795
 10
73.20677430679999
 20
45.1179256825
 10
74.3476825619
 20
44.85028552529999
 10
75.36349571329999
 20
44.52891409350001
 10
76.2325634675
 20
44.160660861
 10
76.93636315399999
 20
43.7533745061
 10
77.4598945045
 20
43.3157356305
 10
77.7919993571
 20
42.85707174689999
 10
77.9255994735
 20
42.3871584797
 10
77.85784739909999
 20
41.9160112144
 10
77.59018715189999
 20
41.45367163689999
 10
77.12832344520001
 20
41.0099937127
 10
76.4821001021
 20
40.5944336663
 10
75.66529025120001
 20
40.2158484388
 10
74.6953027764
 20
39.8823069169
 10
73.5928112767
 20
39.6009179592
 10
72.38131344430001
 20
39.37767888270001
 10
71.08663025220001
 20
39.21734764070001
 10
69.7363556247
 20
39.1233414154
 10
68.35926832140001
 20
39.0976637862
 10
66.98471856729999
 20
39.1408620271
 10
65.64200250399998
 20
39.2520154428
 10
64.35973779310001
 20
39.4287549911
 10
63.1652536808
 20
39.6673137753
 10
62.0840085222
 20
39.9626073292
 10
61.1390471806
 20
40.3083419834
 10
60.3505098663
 20
40.6971490039
 10
59.7352028833
 20
41.1207416442
 10
59.30624043169999
 20
41.57009176239999
 10
59.07276510119999
 20
42.0356222411
 10
59.0397530133
 20
42.50741110619999
 10
59.2079077633
 20
42.9754029972
 10
59.5736454246
 20
43.42962347949999
 10
60.12917093399999
 20
43.86039163199999
 10
60.8626442297
 20
44.2585263795
 10
61.7584326017
 20
44.61554217109999
 10
62.7974438763
 20
44.92382983489999
 10
63.957533332
 20
45.1768187547
 10
65.21397567600001
 20
45.3691169109
 10
66.53999202129999
 20
45.49662580209999
 10
67.9073206315
 20
45.5566277977
  0
LWPOLYLINE
  5
332
330
1F
100
AcDbEntity
  8
DIMENSION
100
AcDbPolyline
 90
       39
 70
   128
 43
0.0
 10
68.0281687402
 20
44.87358706770001
 10
69.2582945068
 20
44.8617086222
 10
70.46714481879999
 20
44.7807515894
 10
71.621745391
 20
44.63292426609999
 10
72.6906017295
 20
44.4222589963
 10
73.64455821979999
 20
44.1545021795
 10
74.4575934155
 20
43.8369575236
 10
75.10752983589999
 20
43.478286819
 10
75.57663890989999
 20
43.0882736676
 10
75.8521245646
 20
42.6775566115
 10
75.9264722696
 20
42.2573389412
 10
75.7976540133
 20
41.8390830995
 10
75.4691836219
 20
41.4341980153
 10
74.9500209114
 20
41.05372789839999
 10
74.2543272873
 20
40.7080509816
 10
73.40107945799999
 20
40.40659643019999
 10
72.41355180010001
 20
40.1575871385
 10
71.3186814938
 20
39.9678154308
 10
70.14633374689999
 20
39.8424577846
 10
68.92848714989999
 20
39.7849336298
 10
67.69836138329999
 20
39.79681207530001
 10
66.4895110713
 20
39.8777691082
 10
65.33491049920001
 20
40.02559643149999
 10
64.26605416060001
 20
40.2362617012
 10
63.3120976704
 20
40.5040185181
 10
62.49906247470001
 20
40.82156317399999
 10
61.8491260542
 20
41.1802338786
 10
61.3800169803
 20
41.57024703
 10
61.1045313256
 20
41.9809640861
 10
61.03018362060001
 20
42.4011817563
 10
61.15900187689999
 20
42.8194375981
 10
61.4874722683
 20
43.2243226822
 10
62.00663497869999
 20
43.60479279919999
 10
62.7023286029
 20
43.950469716
 10
63.5555764322
 20
44.25192426739999
 10
64.5431040901
 20
44.50093355909999
 10
65.6379743964
 20
44.6907052668
 10
66.8103221432
 20
44.8160629129
 10
68.0281687402
 20
44.87358706770001
  0
LWPOLYLINE
  5
333
330
1F
100
AcDbEntity
  8
DIMENSION
100
AcDbPolyline
 90
       25
 70
   128
 43
0.0
 10
75.3217438744
 20
43.3222495753
 10
75.4607813115
 20
43.1707549235
 10
75.6903883536
 20
42.7571007402
 10
75.7125301489
 20
42.3365450023
 10
75.5265697183
 20
41.9211863326
 10
75.13785680479999
 20
41.52297384389999
 10
74.5575739712
 20
41.1533633844
 10
73.80241489810001
 20
40.8229879741
 10
72.894104137
 20
40.54135191199999
 10
71.85877213499999
 20
40.3165573549
 10
70.72620350850001
 20
40.15507123289999
 10
69.528980195
 20
40.0615392077
 10
68.3015441295
 20
40.0386520254
 10
67.0792064126
 20
40.08706810849999
 10
65.89713147499999
 20
40.2053946145
 10
64.7893254605
 20
40.3902275052
 10
63.7876579312
 20
40.636249475
 10
62.9209450381
 20
40.9363829196
 10
62.2141205331
 20
41.2819935463
 10
61.6875184704
 20
41.6631387666
 10
61.3562882325
 20
42.06885372659999
 10
61.2299587102
 20
42.4874667454
 10
61.312164174
 20
42.90693508869999
 10
61.6005397223
 20
43.315191416
 10
61.6396146684
 20
43.3541358996
  0
LINE
  5
334
330
1F
100
AcDbEntity
  8
DIMENSION
100
AcDbLine
 10
72.555468183
 20
42.1285450536
 30
0.0
 11
72.8610169267
 21
42.3351997409
 31
0.0
  0
LINE
  5
335
330
1F
100
AcDbEntity
  8
DIMENSION
100
AcDbLine
 10
71.87783615029999
 20
42.1168012105
 30
0.0
 11
72.555468183
 21
42.1285450536
 31
0.0
  0
LINE
  5
336
330
1F
100
AcDbEntity
  8
DIMENSION
100
AcDbLine
 10
71.50575286119999
 20
42.31171205479999
 30
0.0
 11
71.87783615029999
 21
42.1168012105
 31
0.0
  0
LINE
  5
337
330
1F
100
AcDbEntity
  8
DIMENSION
100
AcDbLine
 10
71.81130160479999
 20
42.51836674209999
 30
0.0
 11
71.50575286119999
 21
42.31171205479999
 31
0.0
  0
LINE
  5
338
330
1F
100
AcDbEntity
  8
DIMENSION
100
AcDbLine
 10
72.48893363749999
 20
42.5301105851
 30
0.0
 11
71.81130160479999
 21
42.51836674209999
 31
0.0
  0
LINE
  5
339
330
1F
100
AcDbEntity
  8
DIMENSION
100
AcDbLine
 10
72.8610169267
 20
42.3351997409
 30
0.0
 11
72.48893363749999
 21
42.5301105851
 31
0.0
  0
LINE
  5
33A
330
1F
100
AcDbEntity
  8
DIMENSION
100
AcDbLine
 10
72.48893984689999
 20
42.5327749793
 30
0.0
 11
72.48893363749999
 21
42.5301105851
 31
0.0
  0
LINE
  5
33B
330
1F
100
AcDbEntity
  8
DIMENSION
100
AcDbLine
 10
72.8610231361
 20
42.33786413499999
 30
0.0
 11
72.8610169267
 21
42.3351997409
 31
0.0
  0
LINE
  5
33C
330
1F
100
AcDbEntity
  8
DIMENSION
100
AcDbLine
 10
71.50576765609999
 20
42.31806041769999
 30
0.0
 11
71.50575286119999
 21
42.31171205479999
 31
0.0
  0
CIRCLE
  5
33D
330
1F
100
AcDbEntity
  8
DIMENSION
100
AcDbCircle
 10
68.52875943859999
 20
63.9689521012
 30
0.0
 40
12.70000000000001
  0
LINE
  5
33E
330
1F
100
AcDbEntity
  8
DIMENSION
100
AcDbLine
 10
28.5287594386
 20
23.9689521012
 30
0.0
 11
28.5287594386
 21
103.9689521012
 31
0.0
  0
LINE
  5
33F
330
1F
100
AcDbEntity
  8
DIMENSION
100
AcDbLine
 10
28.5287594386
 20
103.9689521012
 30
0.0
 11
164.8005525676
 21
103.9689521012
 31
0.0
  0
LINE
  5
340
330
1F
100
AcDbEntity
  8
DIMENSION
100
AcDbLine
 10
172.8007583257
 20
103.9689521012
 30
0.0
 11
208.5287594386
 21
103.9689521012
 31
0.0
  0
LINE
  5
341
330
1F
100
AcDbEntity
  8
DIMENSION
100
AcDbLine
 10
208.5287594386
 20
23.9689521012
 30
0.0
 11
28.5287594386
 21
23.9689521012
 31
0.0
  0
LINE
  5
342
330
1F
100
AcDbEntity
  8
DIMENSION
100
AcDbLine
 10
208.5287594386
 20
103.9689521012
 30
0.0
 11
208.5287594386
 21
23.9689521012
 31
0.0
  0
ARC
  5
343
330
1F
100
AcDbEntity
  8
DIMENSION
100
AcDbCircle
 10
168.5287594386
 20
63.9689521012
 30
0.0
 40
22.50000000000001
100
AcDbArc
 50
271.5700476492
 51
79.38751247769999
  0
ARC
  5
344
330
1F
100
AcDbEntity
  8
DIMENSION
100
AcDbCircle
 10
68.52875943859999
 20
63.9689521012
 30
0.0
 40
12.90000000000001
100
AcDbArc
 50
320.3388486375
 51
140.120922456
  0
ARC
  5
345
330
1F
100
AcDbEntity
  8
DIMENSION
100
AcDbCircle
 10
68.52875943859999
 20
63.9689521012
 30
0.0
 40
12.90000000000001
100
AcDbArc
 50
140.120922456
 51
219.3940952017
  0
ARC
  5
346
330
1F
100
AcDbEntity
  8
DIMENSION
100
AcDbCircle
 10
68.52875943859999
 20
63.9689521012
 30
0.0
 40
20.0
100
AcDbArc
 50
299.7012106251
 51
140.120922456
  0
ARC
  5
347
330
1F
100
AcDbEntity
  8
DIMENSION
100
AcDbCircle
 10
68.52875943859999
 20
63.9689521012
 30
0.0
 40
19.99999999999999
100
AcDbArc
 50
140.120922456
 51
240.0317332141
  0
ARC
  5
348
330
1F
100
AcDbEntity
  8
DIMENSION
100
AcDbCircle
 10
168.5287594386
 20
63.9689521012
 30
0.0
 40
23.15000000000001
100
AcDbArc
 50
270.0
 51
79.67688482869999
  0
ARC
  5
349
330
1F
100
AcDbEntity
  8
DIMENSION
100
AcDbCircle
 10
168.5287594386
 20
63.9689521012
 30
0.0
 40
23.15000000000002
100
AcDbArc
 50
99.5765951015
 51
270.0
  0
ARC
  5
34A
330
1F
100
AcDbEntity
  8
DIMENSION
100
AcDbCircle
 10
168.5287594386
 20
63.9689521012
 30
0.0
 40
22.65
100
AcDbArc
 50
270.0
 51
79.4557882674
  0
ARC
  5
34B
330
1F
100
AcDbEntity
  8
DIMENSION
100
AcDbCircle
 10
168.5287594386
 20
63.9689521012
 30
0.0
 40
22.65000000000002
100
AcDbArc
 50
99.7994076788
 51
270.0
  0
ARC
  5
34C
330
1F
100
AcDbEntity
  8
DIMENSION
100
AcDbCircle
 10
168.5287594386
 20
63.9689521012
 30
0.0
 40
28.00000000000001
100
AcDbArc
 50
270.0
 51
81.4068527703
  0
ARC
  5
34D
330
1F
100
AcDbEntity
  8
DIMENSION
100
AcDbCircle
 10
168.5287594386
 20
63.9689521012
 30
0.0
 40
28.00000000000002
100
AcDbArc
 50
97.83327659370002
 51
270.0
  0
CIRCLE
  5
34E
330
1F
100
AcDbEntity
  8
DIMENSION
100
AcDbCircle
 10
68.52875943859999
 20
63.9689521012
 30
0.0
 40
27.0
  0
DIMENSION
  5
34F
102
{ACAD_XDICTIONARY
360
482
102
}
330
1F
100
AcDbEntity
  8
DIMENSION
100
AcDbDimension
280
     0
  2
*D12
 10
12.52875943859997
 20
103.9689521012
 30
0.0
 11
12.5287594386
 21
64.01723519749999
 31
0.0
 70
   160
  1
<>
 71
     2
 42
80.00000000000003
 73
     0
 74
     0
 75
     0
  3
RG Dimension Lines
100
AcDbAlignedDimension
 13
28.5287594386
 23
23.9689521012
 33
0.0
 14
28.5287594386
 24
103.9689521012
 34
0.0
 50
90.0
100
AcDbRotatedDimension
1001
AcadAnnotative
1000
AnnotativeData
1002
{
1070
     1
1070
     1
1002
}
  0
DIMENSION
  5
35C
102
{ACAD_XDICTIONARY
360
474
102
}
330
1F
100
AcDbEntity
  8
DIMENSION
100
AcDbDimension
280
     0
  2
*D11
 10
190.9137652072
 20
135.4825455175
 30
0.0
 11
170.0577028393
 21
135.4825455175
 31
0.0
 70
   160
  1
%%c<>
 71
     2
 42
44.80000000000001
 73
     0
 74
     0
 75
     0
  3
RG Dimension Lines
100
AcDbAlignedDimension
 13
146.1137652072
 23
63.9685361367
 33
0.0
 14
190.9137652072
 24
63.9685361367
 34
0.0
100
AcDbRotatedDimension
1001
AcadAnnotative
1000
AnnotativeData
1002
{
1070
     1
1070
     1
1002
}
  0
LINE
  5
365
330
1F
100
AcDbEntity
  8
DIMENSION
100
AcDbLine
 10
426.1111548156
 20
41.4685361367
 30
0.0
 11
444.0113769499999
 21
41.4685361367
 31
0.0
  0
LINE
  5
366
330
1F
100
AcDbEntity
  8
DIMENSION
100
AcDbLine
 10
432.3300322661
 20
86.4685361367
 30
0.0
 11
426.1111548156
 21
86.4685361367
 31
0.0
  0
LINE
  5
367
330
1F
100
AcDbEntity
  8
DIMENSION
100
AcDbLine
 10
453.0111548155999
 20
86.4685361367
 30
0.0
 11
440.4703604203
 21
86.4685361367
 31
0.0
  0
ARC
  5
368
330
1F
100
AcDbEntity
  8
DIMENSION
100
AcDbCircle
 10
426.1111548156
 20
86.3685361367
 30
0.0
 40
0.1000000000000227
100
AcDbArc
 50
90.0
 51
180.0
  0
ARC
  5
369
330
1F
100
AcDbEntity
  8
DIMENSION
100
AcDbCircle
 10
426.1111548156
 20
41.5685361367
 30
0.0
 40
0.1000000000000227
100
AcDbArc
 50
180.0
 51
270.0
  0
LINE
  5
36A
330
1F
100
AcDbEntity
  8
DIMENSION
100
AcDbLine
 10
432.4111548155999
 20
125.4538575297
 30
0.0
 11
432.4111548155999
 21
86.44594263129999
 31
0.0
  0
LINE
  5
36B
330
1F
100
AcDbEntity
  8
DIMENSION
100
AcDbLine
 10
440.4111548156
 20
86.44405271670001
 30
0.0
 11
440.4111548156
 21
125.4538575297
 31
0.0
  0
LINE
  5
36C
330
1F
100
AcDbEntity
  8
DIMENSION
100
AcDbLine
 10
262.9773837383
 20
51.4224325831
 30
0.0
 11
261.077374387
 21
46.20221396979999
 31
0.0
  0
LINE
  5
36D
330
1F
100
AcDbEntity
  8
DIMENSION
100
AcDbLine
 10
279.7772516003
 20
39.39599679670001
 30
0.0
 11
284.1553402404
 21
51.4246638103
 31
0.0
  0
LINE
  5
36E
330
1F
100
AcDbEntity
  8
DIMENSION
100
AcDbLine
 10
261.0773804868
 20
46.2021609678
 30
0.0
 11
261.3762162698
 21
45.561308115
 31
0.0
  0
LINE
  5
36F
330
1F
100
AcDbEntity
  8
DIMENSION
100
AcDbLine
 10
279.1363585724
 20
39.0971274062
 30
0.0
 11
279.7772128584
 21
39.3959601157
 31
0.0
  0
LINE
  5
370
330
1F
100
AcDbEntity
  8
DIMENSION
100
AcDbLine
 10
426.0111548155999
 20
76.6689521012
 30
0.0
 11
259.2111548156
 21
76.6689521012
 31
0.0
  0
LINE
  5
371
330
1F
100
AcDbEntity
  8
DIMENSION
100
AcDbLine
 10
284.2943061107
 20
51.2689521012
 30
0.0
 11
426.0111548155999
 21
51.2689521012
 31
0.0
  0
LINE
  5
372
330
1F
100
AcDbEntity
  8
DIMENSION
100
AcDbLine
 10
259.2111548156
 20
51.2689521012
 30
0.0
 11
262.7112043898
 21
51.2689521012
 31
0.0
  0
LINE
  5
373
330
1F
100
AcDbEntity
  8
DIMENSION
100
AcDbLine
 10
462.9111548155999
 20
86.4689521012
 30
0.0
 11
454.7111548155999
 21
86.4689521012
 31
0.0
  0
LINE
  5
374
330
1F
100
AcDbEntity
  8
DIMENSION
100
AcDbLine
 10
454.7111548155999
 20
41.46895210119999
 30
0.0
 11
462.9111548155999
 21
41.46895210119999
 31
0.0
  0
LINE
  5
375
330
1F
100
AcDbEntity
  8
DIMENSION
100
AcDbLine
 10
454.6971071464
 20
43.46895210119999
 30
0.0
 11
454.7111548155999
 21
43.4821879705
 31
0.0
  0
LINE
  5
376
330
1F
100
AcDbEntity
  8
DIMENSION
100
AcDbLine
 10
454.7111548155999
 20
84.45571623200001
 30
0.0
 11
454.6971071464
 21
84.4689521012
 31
0.0
  0
LWPOLYLINE
  5
377
330
1F
100
AcDbEntity
  8
DIMENSION
100
AcDbPolyline
 90
        3
 70
   128
 43
0.0
 10
454.6971071464
 20
84.4689521012
 10
453.1445476297
 20
84.34257690379999
 10
453.0111548155999
 20
84.32601434770001
  0
ARC
  5
378
330
1F
100
AcDbEntity
  8
DIMENSION
100
AcDbCircle
 10
455.5421895651
 20
63.4510900175
 30
0.0
 40
20.0
100
AcDbArc
 50
240.8006332161999
 51
267.578296216
  0
LINE
  5
379
330
1F
100
AcDbEntity
  8
DIMENSION
100
AcDbLine
 10
462.9111548155999
 20
35.9689521012
 30
0.0
 11
467.7111548155999
 21
35.9689521012
 31
0.0
  0
LINE
  5
37A
330
1F
100
AcDbEntity
  8
DIMENSION
100
AcDbLine
 10
467.7111548155999
 20
91.9689521012
 30
0.0
 11
462.9111548155999
 21
91.9689521012
 31
0.0
  0
SPLINE
  5
37B
330
1F
100
AcDbEntity
  8
DIMENSION
100
AcDbSpline
210
0.0
220
0.0
230
1.0
 70
     8
 71
     3
 72
    12
 73
     8
 74
     0
 42
0.00000001
 43
0.0000000001
 40
0.0
 40
0.0
 40
0.0
 40
0.0
 40
0.2123062295494723
 40
0.4245263515826627
 40
0.6389741926682612
 40
0.8549312691972284
 40
1.0
 40
1.0
 40
1.0
 40
1.0
 10
436.4111548156279
 20
86.061852852499
 30
0.0
 10
436.8676665792959
 20
86.07062663216916
 30
0.0
 10
437.780504953826
 20
86.08817063302522
 30
0.0
 10
439.0025875460158
 20
86.21151716334733
 30
0.0
 10
439.9252642265486
 20
86.34798694815856
 30
0.0
 10
440.4582782430325
 20
86.45040187546673
 30
0.0
 10
440.4601060085502
 20
86.4564620231023
 30
0.0
 10
440.4608404480792
 20
86.45889713413344
 30
0.0
  0
SPLINE
  5
37C
330
1F
100
AcDbEntity
  8
DIMENSION
100
AcDbSpline
210
0.0
220
0.0
230
1.0
 70
     8
 71
     3
 72
    12
 73
     8
 74
     0
 42
0.00000001
 43
0.0000000001
 40
0.0
 40
0.0
 40
0.0
 40
0.0
 40
0.2019867344578591
 40
0.4132786638604077
 40
0.6274605530936102
 40
0.8433891455807451
 40
1.0
 40
1.0
 40
1.0
 40
1.0
 10
432.3209353673308
 20
86.46622716958727
 30
0.0
 10
432.3572028186577
 20
86.45631941937772
 30
0.0
 10
432.4314085028389
 20
86.43604748528531
 30
0.0
 10
433.0953676421906
 20
86.31475505957897
 30
0.0
 10
434.1033431113954
 20
86.17719313829113
 30
0.0
 10
435.2755751412681
 20
86.07792153648523
 30
0.0
 10
436.0750610770113
 20
86.06660864744455
 30
0.0
 10
436.4111548156279
 20
86.061852852499
 30
0.0
  0
ELLIPSE
  5
37D
330
1F
100
AcDbEntity
  8
DIMENSION
100
AcDbEllipse
 10
452.6480956039
 20
63.9685361367
 30
0.0
 11
8.636772045212696
 21
22.49999045582548
 31
0.0
210
0.0
220
0.0
230
1.0
 40
0.0023995151
 41
3.142513723296913
 42
4.748186006840644
  0
LINE
  5
37E
330
1F
100
AcDbEntity
  8
DIMENSION
100
AcDbLine
 10
453.0111548155999
 20
64.75308609549999
 30
0.0
 11
453.0111548155999
 21
86.4685361367
 31
0.0
  0
LINE
  5
37F
330
1F
100
AcDbEntity
  8
DIMENSION
100
AcDbLine
 10
426.0111548155999
 20
63.8078834052
 30
0.0
 11
426.0111548155999
 21
86.3685361367
 31
0.0
  0
LINE
  5
380
330
1F
100
AcDbEntity
  8
DIMENSION
100
AcDbLine
 10
426.0111548155999
 20
41.5685361367
 30
0.0
 11
426.0111548155999
 21
63.8078834052
 31
0.0
  0
LWPOLYLINE
  5
381
330
1F
100
AcDbEntity
  8
DIMENSION
100
AcDbPolyline
 90
       28
 70
   128
 43
0.0
 10
440.3134131719999
 20
125.460160649
 10
440.4109043655999
 20
125.4535365047
 10
440.2927680256
 20
125.4469296669
 10
439.9653729127
 20
125.440696312
 10
439.4463689822
 20
125.4351724818
 10
438.7637358704
 20
125.4306559673
 10
437.954274505
 20
125.4273902551
 10
437.0616231576999
 20
125.4255514005
 10
436.1339048937
 20
125.4252385366
 10
435.2211332448
 20
125.4264685301
 10
434.3725159667999
 20
125.4291750716
 10
433.6338022368
 20
125.4332122509
 10
433.0448163031999
 20
125.4383624224
 10
432.6373105501999
 20
125.4443479392
 10
432.4332537183
 20
125.4508461205
 10
432.4436465643
 20
125.4575066476
 10
432.6679288069999
 20
125.4639704499
 10
433.0940093326999
 20
125.469889062
 10
433.6989180300999
 20
125.47494341
 10
434.4500441144999
 20
125.4788610128
 10
435.3068941844999
 20
125.4814306714
 10
436.2232752309999
 20
125.4825138547
 10
437.1497849144999
 20
125.4820521681
 10
438.0364748581
 20
125.4800705013
 10
438.8355433775999
 20
125.4766756864
 10
439.5039124822
 20
125.4720507388
 10
440.0055502204
 20
125.4664449905
 10
440.3134131719999
 20
125.460160649
  0
LWPOLYLINE
  5
382
330
1F
100
AcDbEntity
  8
DIMENSION
100
AcDbPolyline
 90
       24
 70
   128
 43
0.0
 10
261.077374387
 20
46.20221396979999
 10
261.1084381972
 20
46.1890004835
 10
261.3116727906
 20
46.11175946369999
 10
261.7004755312
 20
45.96708235979999
 10
262.2669315164
 20
45.7579143803
 10
262.9995093359
 20
45.4885135821
 10
263.8832958179
 20
45.16436418869999
 10
264.9002996181
 20
44.7920649468
 10
266.0298174721
 20
44.37919479539999
 10
267.2488556536
 20
43.9341585801
 10
268.5325980607
 20
43.466015955
 10
269.8549113998
 20
42.98429695390001
 10
271.1888771847
 20
42.49880798649999
 10
272.5073397188999
 20
42.019432208
 10
273.7834589073
 20
41.555928327
 10
274.9912566431
 20
41.1177319459
 10
276.1061456476
 20
40.7137634792
 10
277.1054299957
 20
40.3522465601
 10
277.9687671397
 20
40.0405406305
 10
278.678582025
 20
39.7849911242
 10
279.2204248676
 20
39.5908002922
 10
279.5832653096
 20
39.4619212999
 10
279.7597169661
 20
39.4009777519
 10
279.7772516003
 20
39.39599679670001
  0
LWPOLYLINE
  5
383
330
1F
100
AcDbEntity
  8
DIMENSION
100
AcDbPolyline
 90
       23
 70
   128
 43
0.0
 10
261.3762162698
 20
45.561308115
 10
261.4081640966
 20
45.5478440593
 10
261.6120469372
 20
45.47046179699999
 10
262.0001670865
 20
45.3261302795
 10
262.5642524372
 20
45.1179256825
 10
263.2922804894
 20
44.85028552529999
 10
264.1687345892
 20
44.52891409350001
 10
265.174934639
 20
44.160660861
 10
266.2894352318
 20
43.7533745061
 10
267.4884827224
 20
43.3157356305
 10
268.7465214951
 20
42.85707174689999
 10
270.0367386378
 20
42.3871584797
 10
271.3316354119
 20
41.9160112144
 10
272.603613341
 20
41.45367163689999
 10
273.8255624238
 20
41.0099937127
 10
274.9714389371
 20
40.5944336663
 10
276.0168205124001
 20
40.2158484388
 10
276.9394266563
 20
39.8823069169
 10
277.7195936208
 20
39.6009179592
 10
278.3406935015
 20
39.37767888270001
 10
278.7894886326
 20
39.21734764070001
 10
279.0564137253
 20
39.1233414154
 10
279.1363585724
 20
39.0971274062
  0
LINE
  5
384
330
1F
100
AcDbEntity
  8
DIMENSION
100
AcDbLine
 10
259.2111548156
 20
76.6689521012
 30
0.0
 11
259.2111548156
 21
51.2689521012
 31
0.0
  0
SPLINE
  5
385
330
1F
100
AcDbEntity
  8
DIMENSION
100
AcDbSpline
210
0.0
220
0.0
230
1.0
 70
     8
 71
     3
 72
    29
 73
    25
 74
     0
 42
0.00000001
 43
0.0000000001
 40
0.0
 40
0.0
 40
0.0
 40
0.0
 40
0.0365255852250907
 40
0.0744675529227362
 40
0.1109387999395722
 40
0.1482810967560089
 40
0.2052222407070731
 40
0.2637296170127716
 40
0.3434086278557078
 40
0.4253944325627247
 40
0.4648910496455792
 40
0.5050196945156634
 40
0.5374915883990501
 40
0.5708347955061857
 40
0.6033484149317081
 40
0.6368922310065194
 40
0.6780659812476051
 40
0.7204000272639083
 40
0.7630294261304368
 40
0.8064993440298312
 40
0.8577530057365301
 40
0.9106543364231219
 40
0.9590196675051258
 40
1.0
 40
1.0
 40
1.0
 40
1.0
 10
262.7087016216326
 20
51.26898658965552
 30
0.0
 10
262.7297827372988
 20
51.28044463573442
 30
0.0
 10
262.772762448284
 20
51.30380504591027
 30
0.0
 10
263.1093280212144
 20
51.49877220355584
 30
0.0
 10
263.6141834096672
 20
51.78996351779188
 30
0.0
 10
264.3798964087809
 20
52.22664556332209
 30
0.0
 10
265.4726144160075
 20
52.83614191383843
 30
0.0
 10
267.08414121106
 20
53.69512133980693
 30
0.0
 10
269.1211431096099
 20
54.69396203857876
 30
0.0
 10
271.1734996682105
 20
55.52732769078838
 30
0.0
 10
272.9340250527094
 20
56.03294561730553
 30
0.0
 10
274.2062892862119
 20
56.26584953580014
 30
0.0
 10
275.4369662897549
 20
56.33746519069644
 30
0.0
 10
276.5789574568057
 20
56.24940240066328
 30
0.0
 10
277.6933684588361
 20
55.99612871744693
 30
0.0
 10
278.8151255444417
 20
55.57197450577253
 30
0.0
 10
279.918588877478
 20
54.98158124745366
 30
0.0
 10
280.9601008355345
 20
54.27625633483358
 30
0.0
 10
281.8784371031578
 20
53.55205135750153
 30
0.0
 10
282.7119498285232
 20
52.82404188892171
 30
0.0
 10
283.4335526775543
 20
52.14390214799479
 30
0.0
 10
283.9595608083972
 20
51.62320004530107
 30
0.0
 10
284.2652452578672
 20
51.31332666896962
 30
0.0
 10
284.2851680764931
 20
51.29504610045675
 30
0.0
 10
284.2943061107174
 20
51.28666131997764
 30
0.0
  0
LINE
  5
386
330
1F
100
AcDbEntity
  8
DIMENSION
100
AcDbLine
 10
469.7111548156
 20
103.9689521012
 30
0.0
 11
467.7111548155999
 21
103.9689521012
 31
0.0
  0
LINE
  5
387
330
1F
100
AcDbEntity
  8
DIMENSION
100
AcDbLine
 10
469.7111548156
 20
103.9689521012
 30
0.0
 11
469.7111548156
 21
23.9689521012
 31
0.0
  0
LINE
  5
388
330
1F
100
AcDbEntity
  8
DIMENSION
100
AcDbLine
 10
467.7111548155999
 20
103.9689521012
 30
0.0
 11
467.7111548155999
 21
23.9689521012
 31
0.0
  0
LINE
  5
389
330
1F
100
AcDbEntity
  8
DIMENSION
100
AcDbLine
 10
469.7111548156
 20
23.9689521012
 30
0.0
 11
467.7111548155999
 21
23.9689521012
 31
0.0
  0
LINE
  5
38A
330
1F
100
AcDbEntity
  8
DIMENSION
100
AcDbLine
 10
454.7111548155999
 20
86.4689521012
 30
0.0
 11
454.7111548155999
 21
41.46895210119999
 31
0.0
  0
LINE
  5
38B
330
1F
100
AcDbEntity
  8
DIMENSION
100
AcDbLine
 10
454.6971071464
 20
84.4689521012
 30
0.0
 11
454.6971071464
 21
43.46895210119999
 31
0.0
  0
LINE
  5
38C
330
1F
100
AcDbEntity
  8
DIMENSION
100
AcDbLine
 10
462.9111548155999
 20
35.9689521012
 30
0.0
 11
462.9111548155999
 21
91.9689521012
 31
0.0
  0
LINE
  5
38D
330
1F
100
AcDbEntity
  8
DIMENSION
100
AcDbLine
 10
426.1111548156
 20
63.8071662055
 30
0.0
 11
426.1111548156
 21
41.4685361367
 31
0.0
  0
LINE
  5
38E
330
1F
100
AcDbEntity
  8
DIMENSION
100
AcDbLine
 10
426.1111548156
 20
86.4685361367
 30
0.0
 11
426.1111548156
 21
63.8071662055
 31
0.0
  0
POINT
  5
38F
330
1F
100
AcDbEntity
  8
DIMENSION
100
AcDbPoint
 10
270.2492247692
 20
42.3098133367
 30
0.0
  0
DIMENSION
  5
390
102
{ACAD_XDICTIONARY
360
466
102
}
330
1F
100
AcDbEntity
  8
DIMENSION
100
AcDbDimension
280
     0
  2
*D10
 10
469.7111548156
 20
4.4174967969
 30
0.0
 11
373.1211352544999
 21
4.4174967969
 31
0.0
 70
   160
  1
<>
 71
     2
 42
199.4619300464
 73
     0
 74
     0
 75
     0
  3
RG Dimension Lines
100
AcDbAlignedDimension
 13
270.2492247692
 23
42.3098133367
 33
0.0
 14
469.7111548156
 24
23.9689521012
 34
0.0
100
AcDbRotatedDimension
1001
AcadAnnotative
1000
AnnotativeData
1002
{
1070
     1
1070
     1
1002
}
1001
ACAD
1000
DSTYLE
1002
{
1070
    45
1040
5.0
1002
}
  0
LINE
  5
398
330
1F
100
AcDbEntity
  8
DIMENSION
100
AcDbLine
 10
191.0137652072
 20
330.523937184
 30
0.0
 11
191.0137652072
 21
357.1228220852
 31
0.0
  0
LINE
  5
399
330
1F
100
AcDbEntity
  8
DIMENSION
100
AcDbLine
 10
146.0137652071999
 20
356.9989338594
 30
0.0
 11
146.0137652071999
 21
330.523937184
 31
0.0
  0
ARC
  5
39A
330
1F
100
AcDbEntity
  8
DIMENSION
100
AcDbCircle
 10
146.1137652072
 20
330.523937184
 30
0.0
 40
0.1000000000000227
100
AcDbArc
 50
180.0
 51
270.0
  0
ARC
  5
39B
330
1F
100
AcDbEntity
  8
DIMENSION
100
AcDbCircle
 10
190.9137652072
 20
330.523937184
 30
0.0
 40
0.1000000000000227
100
AcDbArc
 50
270.0
 51
0.0
  0
LINE
  5
39C
330
1F
100
AcDbEntity
  8
DIMENSION
100
AcDbLine
 10
153.8513336784
 20
330.423937184
 30
0.0
 11
153.8513336784
 21
330.386437184
 31
0.0
  0
LINE
  5
39D
330
1F
100
AcDbEntity
  8
DIMENSION
100
AcDbLine
 10
155.7206424887
 20
330.386437184
 30
0.0
 11
155.7206424887
 21
330.423937184
 31
0.0
  0
LINE
  5
39E
330
1F
100
AcDbEntity
  8
DIMENSION
100
AcDbLine
 10
182.9116681229
 20
330.386437184
 30
0.0
 11
182.9116681229
 21
330.423937184
 31
0.0
  0
LINE
  5
39F
330
1F
100
AcDbEntity
  8
DIMENSION
100
AcDbLine
 10
181.0423593126
 20
330.423937184
 30
0.0
 11
181.0423593126
 21
330.386437184
 31
0.0
  0
LINE
  5
3A0
330
1F
100
AcDbEntity
  8
DIMENSION
100
AcDbLine
 10
188.2395082908
 20
330.386437184
 30
0.0
 11
188.2395082908
 21
330.423937184
 31
0.0
  0
LINE
  5
3A1
330
1F
100
AcDbEntity
  8
DIMENSION
100
AcDbLine
 10
186.504902714
 20
330.423937184
 30
0.0
 11
186.504902714
 21
330.386437184
 31
0.0
  0
LINE
  5
3A2
330
1F
100
AcDbEntity
  8
DIMENSION
100
AcDbLine
 10
168.9547490857
 20
344.823937184
 30
0.0
 11
168.6679631414
 21
344.823937184
 31
0.0
  0
LINE
  5
3A3
330
1F
100
AcDbEntity
  8
DIMENSION
100
AcDbLine
 10
168.6679631414
 20
336.823937184
 30
0.0
 11
168.9547490857
 21
336.823937184
 31
0.0
  0
LINE
  5
3A4
330
1F
100
AcDbEntity
  8
DIMENSION
100
AcDbLine
 10
55.82875943859999
 20
363.623937184
 30
0.0
 11
55.82875943859999
 21
163.623937184
 31
0.0
  0
LINE
  5
3A5
330
1F
100
AcDbEntity
  8
DIMENSION
100
AcDbLine
 10
81.2287594386
 20
163.623937184
 30
0.0
 11
81.2287594386
 21
363.623937184
 31
0.0
  0
LINE
  5
3A6
330
1F
100
AcDbEntity
  8
DIMENSION
100
AcDbLine
 10
146.0287594386
 20
367.323937184
 30
0.0
 11
146.0287594386
 21
359.123937184
 31
0.0
  0
LINE
  5
3A7
330
1F
100
AcDbEntity
  8
DIMENSION
100
AcDbLine
 10
191.0287594386
 20
359.123937184
 30
0.0
 11
191.0287594386
 21
367.323937184
 31
0.0
  0
LINE
  5
3A8
330
1F
100
AcDbEntity
  8
DIMENSION
100
AcDbLine
 10
189.0287594386
 20
359.1098895148001
 30
0.0
 11
189.0155235693
 21
359.123937184
 31
0.0
  0
LINE
  5
3A9
330
1F
100
AcDbEntity
  8
DIMENSION
100
AcDbLine
 10
148.0419953078
 20
359.123937184
 30
0.0
 11
148.0287594386
 21
359.1098895148001
 31
0.0
  0
LWPOLYLINE
  5
3AA
330
1F
100
AcDbEntity
  8
DIMENSION
100
AcDbPolyline
 90
        3
 70
   128
 43
0.0
 10
148.0287594386
 20
359.1098895148001
 10
148.1551346359
 20
357.5573299980001
 10
148.1716971921
 20
357.423937184
  0
LWPOLYLINE
  5
3AB
330
1F
100
AcDbEntity
  8
DIMENSION
100
AcDbPolyline
 90
        3
 70
   128
 43
0.0
 10
188.885821685
 20
357.423937184
 10
188.9023842412
 20
357.5573299980001
 10
189.0287594386
 20
359.1098895148001
  0
LINE
  5
3AC
330
1F
100
AcDbEntity
  8
DIMENSION
100
AcDbLine
 10
48.52875943859999
 20
369.623937184
 30
0.0
 11
48.52875943859999
 21
363.623937184
 31
0.0
  0
LINE
  5
3AD
330
1F
100
AcDbEntity
  8
DIMENSION
100
AcDbLine
 10
88.5287594386
 20
363.623937184
 30
0.0
 11
88.5287594386
 21
369.623937184
 31
0.0
  0
LINE
  5
3AE
330
1F
100
AcDbEntity
  8
DIMENSION
100
AcDbLine
 10
196.5287594386
 20
367.323937184
 30
0.0
 11
196.5287594386
 21
372.123937184
 31
0.0
  0
LINE
  5
3AF
330
1F
100
AcDbEntity
  8
DIMENSION
100
AcDbLine
 10
140.5287594386
 20
372.123937184
 30
0.0
 11
140.5287594386
 21
367.323937184
 31
0.0
  0
LINE
  5
3B0
330
1F
100
AcDbEntity
  8
DIMENSION
100
AcDbLine
 10
41.52875943859999
 20
372.123937184
 30
0.0
 11
41.52875943859999
 21
369.623937184
 31
0.0
  0
LINE
  5
3B1
330
1F
100
AcDbEntity
  8
DIMENSION
100
AcDbLine
 10
95.5287594386
 20
369.623937184
 30
0.0
 11
95.5287594386
 21
372.123937184
 31
0.0
  0
SPLINE
  5
3B2
330
1F
100
AcDbEntity
  8
DIMENSION
100
AcDbSpline
210
0.0
220
0.0
230
1.0
 70
     8
 71
     3
 72
    21
 73
    17
 74
     0
 42
0.00000001
 43
0.0000000001
 40
0.0
 40
0.0
 40
0.0
 40
0.0
 40
0.0006628579006304
 40
0.0817854934465997
 40
0.1620098219552241
 40
0.2412933963074661
 40
0.3210126437041137
 40
0.401883653040458
 40
0.4828653285554399
 40
0.5626913445397991
 40
0.6419114392733239
 40
0.7220047934887726
 40
0.8030964238586701
 40
0.8837677230195518
 40
0.9632760875816007
 40
1.0
 40
1.0
 40
1.0
 40
1.0
 10
170.8862377366748
 20
344.2738569488526
 30
0.0
 10
170.8834525854063
 20
344.2763859224536
 30
0.0
 10
170.5398118584912
 20
344.588418642707
 30
0.0
 10
169.6035140355673
 20
344.8660012157857
 30
0.0
 10
168.2354788798098
 20
344.9843870972745
 30
0.0
 10
166.8917024854741
 20
344.5991077585617
 30
0.0
 10
165.7532248106288
 20
343.8106428807757
 30
0.0
 10
164.9290190339175
 20
342.6803786793461
 30
0.0
 10
164.5256689810695
 20
341.3366054615102
 30
0.0
 10
164.5899176530756
 20
339.9431170424675
 30
0.0
 10
165.1039212201018
 20
338.655656317733
 30
0.0
 10
166.0118111684015
 20
337.6046646266496
 30
0.0
 10
167.2285054505782
 20
336.9001102876247
 30
0.0
 10
168.597422972549
 20
336.6608011280428
 30
0.0
 10
169.7562544707635
 20
336.7793847114918
 30
0.0
 10
170.3291476223524
 20
337.1146116859146
 30
0.0
 10
170.5101548130452
 20
337.2205275843966
 30
0.0
  0
ELLIPSE
  5
3B3
330
1F
100
AcDbEntity
  8
DIMENSION
100
AcDbEllipse
 10
168.5137652072
 20
357.0608779723
 30
0.0
 11
22.49998271924039
 21
0.072648256119578
 31
0.0
210
0.0
220
0.0
230
0.9999999999999998
 40
0.3838507503
 41
3.091133197995873
 42
3.140353271600559
  0
ELLIPSE
  5
3B4
330
1F
100
AcDbEntity
  8
DIMENSION
100
AcDbEllipse
 10
168.5137652072
 20
357.0608779723
 30
0.0
 11
22.49998271924039
 21
0.072648256119578
 31
0.0
210
0.0
220
0.0
230
0.9999999999999998
 40
0.3838507503
 41
6.281945925190389
 42
6.316821881945765
  0
LINE
  5
3B5
330
1F
100
AcDbEntity
  8
DIMENSION
100
AcDbLine
 10
191.0000828551
 20
357.423937184
 30
0.0
 11
146.0410141314
 21
357.423937184
 31
0.0
  0
LWPOLYLINE
  5
3B6
330
1F
100
AcDbEntity
  8
DIMENSION
100
AcDbPolyline
 90
        3
 70
   128
 43
0.0
 10
170.2234868737
 20
344.6173817204
 10
169.5802755062
 20
344.8211416239
 10
168.6679631414
 20
344.923937184
  0
LWPOLYLINE
  5
3B7
330
1F
100
AcDbEntity
  8
DIMENSION
100
AcDbPolyline
 90
        3
 70
   128
 43
0.0
 10
168.6679631414
 20
336.723937184
 10
169.5802755062
 20
336.826732744
 10
170.2234869295
 20
337.0304926705
  0
LINE
  5
3B8
330
1F
100
AcDbEntity
  8
DIMENSION
100
AcDbLine
 10
190.9137652072
 20
330.423937184
 30
0.0
 11
146.1137652072
 21
330.423937184
 31
0.0
  0
SPLINE
  5
3B9
330
1F
100
AcDbEntity
  8
DIMENSION
100
AcDbSpline
210
0.0
220
0.0
230
1.0
 70
    24
 71
     3
 72
     8
 73
     4
 74
     0
 42
0.00000001
 43
0.0000000001
 40
0.0
 40
0.0
 40
0.0
 40
0.0
 40
1.0
 40
1.0
 40
1.0
 40
1.0
 10
154.7911557267475
 20
330.4239371839923
 30
0.0
 10
154.5648129533667
 20
330.4239371839923
 30
0.0
 10
153.8513336783715
 20
330.4239371839923
 30
0.0
 10
153.8513336783715
 20
330.4239371839923
 30
0.0
  0
SPLINE
  5
3BA
330
1F
100
AcDbEntity
  8
DIMENSION
100
AcDbSpline
210
0.0
220
0.0
230
1.0
 70
    24
 71
     3
 72
     8
 73
     4
 74
     0
 42
0.00000001
 43
0.0000000001
 40
0.0
 40
0.0
 40
0.0
 40
0.0
 40
1.0
 40
1.0
 40
1.0
 40
1.0
 10
181.9821813609754
 20
330.4239371839923
 30
0.0
 10
181.7558385875945
 20
330.4239371839923
 30
0.0
 10
181.0423593125993
 20
330.4239371839923
 30
0.0
 10
181.0423593125993
 20
330.4239371839923
 30
0.0
  0
SPLINE
  5
3BB
330
1F
100
AcDbEntity
  8
DIMENSION
100
AcDbSpline
210
0.0
220
0.0
230
1.0
 70
    24
 71
     3
 72
     8
 73
     4
 74
     0
 42
0.00000001
 43
0.0000000001
 40
2.0
 40
2.0
 40
2.0
 40
2.0
 40
3.0
 40
3.0
 40
3.0
 40
3.0
 10
187.4395571191597
 20
330.4239371839923
 30
0.0
 10
187.6414397145954
 20
330.4239371839923
 30
0.0
 10
188.2395082908347
 20
330.4239371839923
 30
0.0
 10
188.2395082908347
 20
330.4239371839923
 30
0.0
  0
CIRCLE
  5
3BC
330
1F
100
AcDbEntity
  8
DIMENSION
100
AcDbCircle
 10
168.954792033
 20
340.8240077561
 30
0.0
 40
3.999935622329593
  0
LINE
  5
3BD
330
1F
100
AcDbEntity
  8
DIMENSION
100
AcDbLine
 10
167.7890404474
 20
344.7261955404
 30
0.0
 11
168.6678692082
 21
344.823937184
 31
0.0
  0
ARC
  5
3BE
330
1F
100
AcDbEntity
  8
DIMENSION
100
AcDbCircle
 10
168.6679592004999
 20
340.8239446785
 30
0.0
 40
4.000007495478768
100
AcDbArc
 50
102.6931326057
 51
269.9987109569
  0
LINE
  5
3BF
330
1F
100
AcDbEntity
  8
DIMENSION
100
AcDbLine
 10
55.828793927
 20
163.623937184
 30
0.0
 11
81.2287594386
 21
163.623937184
 31
0.0
  0
LINE
  5
3C0
330
1F
100
AcDbEntity
  8
DIMENSION
100
AcDbLine
 10
28.5287594386
 20
374.123937184
 30
0.0
 11
28.5287594386
 21
372.123937184
 31
0.0
  0
LINE
  5
3C1
330
1F
100
AcDbEntity
  8
DIMENSION
100
AcDbLine
 10
208.5287594386
 20
374.123937184
 30
0.0
 11
208.5287594386
 21
372.123937184
 31
0.0
  0
LINE
  5
3C2
330
1F
100
AcDbEntity
  8
DIMENSION
100
AcDbLine
 10
28.5287594386
 20
372.123937184
 30
0.0
 11
208.5287594386
 21
372.123937184
 31
0.0
  0
LINE
  5
3C3
330
1F
100
AcDbEntity
  8
DIMENSION
100
AcDbLine
 10
28.5287594386
 20
374.123937184
 30
0.0
 11
208.5287594386
 21
374.123937184
 31
0.0
  0
LINE
  5
3C4
330
1F
100
AcDbEntity
  8
DIMENSION
100
AcDbLine
 10
146.0287594386
 20
359.123937184
 30
0.0
 11
191.0287594386
 21
359.123937184
 31
0.0
  0
LINE
  5
3C5
330
1F
100
AcDbEntity
  8
DIMENSION
100
AcDbLine
 10
163.6106059188
 20
359.1098895148001
 30
0.0
 11
189.0287594386
 21
359.1098895148001
 31
0.0
  0
LINE
  5
3C6
330
1F
100
AcDbEntity
  8
DIMENSION
100
AcDbLine
 10
148.0287594386
 20
359.1098895148001
 30
0.0
 11
163.6106059188
 21
359.1098895148001
 31
0.0
  0
LINE
  5
3C7
330
1F
100
AcDbEntity
  8
DIMENSION
100
AcDbLine
 10
53.18077271669999
 20
363.623937184
 30
0.0
 11
88.5287594386
 21
363.623937184
 31
0.0
  0
LINE
  5
3C8
330
1F
100
AcDbEntity
  8
DIMENSION
100
AcDbLine
 10
48.52875943859999
 20
363.623937184
 30
0.0
 11
53.18077271669999
 21
363.623937184
 31
0.0
  0
LINE
  5
3C9
330
1F
100
AcDbEntity
  8
DIMENSION
100
AcDbLine
 10
196.5287594386
 20
367.323937184
 30
0.0
 11
140.5287594386
 21
367.323937184
 31
0.0
  0
LINE
  5
3CA
330
1F
100
AcDbEntity
  8
DIMENSION
100
AcDbLine
 10
54.8958173858
 20
369.623937184
 30
0.0
 11
95.5287594386
 21
369.623937184
 31
0.0
  0
LINE
  5
3CB
330
1F
100
AcDbEntity
  8
DIMENSION
100
AcDbLine
 10
41.52875943859999
 20
369.623937184
 30
0.0
 11
54.8958173858
 21
369.623937184
 31
0.0
  0
LINE
  5
3CC
330
1F
100
AcDbEntity
  8
DIMENSION
100
AcDbLine
 10
146.0137652071999
 20
330.523937184
 30
0.0
 11
191.0137652072
 21
330.523937184
 31
0.0
  0
DIMENSION
  5
3CD
102
{ACAD_XDICTIONARY
360
458
102
}
330
1F
100
AcDbEntity
  8
DIMENSION
100
AcDbDimension
280
     0
  2
*D9
 10
208.5287594386
 20
396.123937184
 30
0.0
 11
117.4951825293
 21
396.123937184
 31
0.0
 70
   160
  1
<>
 71
     2
 42
180.0
 73
     0
 74
     0
 75
     0
  3
RG Dimension Lines
100
AcDbAlignedDimension
 13
28.5287594386
 23
374.123937184
 33
0.0
 14
208.5287594386
 24
374.123937184
 34
0.0
100
AcDbRotatedDimension
1001
AcadAnnotative
1000
AnnotativeData
1002
{
1070
     1
1070
     1
1002
}
  0
DIMENSION
  5
486
102
{ACAD_XDICTIONARY
360
49D
102
}
330
1F
100
AcDbEntity
  8
DIMENSION
100
AcDbDimension
280
     0
  2
*D14
 10
469.7111548156
 20
137.3470066780849
 30
0.0
 11
364.4611548156
 21
145.3470066780849
 31
0.0
 70
    32
 71
     5
 42
210.4999999999999
 73
     0
 74
     0
 75
     0
  3
RG Dimension Lines
100
AcDbAlignedDimension
 13
259.2111548156
 23
63.9689521012
 33
0.0
 14
469.7111548156
 24
63.9689521012
 34
0.0
100
AcDbRotatedDimension
1001
AcadAnnotative
1000
AnnotativeData
1002
{
1070
     1
1070
     1
1002
}
1001
ACAD
1000
DSTYLE
1002
{
1070
    45
1040
5.0
1002
}
  0
ENDSEC
  0
SECTION
  2
OBJECTS
  0
DICTIONARY
  5
C
330
0
100
AcDbDictionary
281
     1
  3
ACAD_CIP_PREVIOUS_PRODUCT_INFO
350
415
  3
ACAD_COLOR
350
40A
  3
ACAD_DETAILVIEWSTYLE
350
411
  3
ACAD_GROUP
350
D
  3
ACAD_LAYOUT
350
1A
  3
ACAD_MATERIAL
350
3D8
  3
ACAD_MLEADERSTYLE
350
40D
  3
ACAD_MLINESTYLE
350
17
  3
ACAD_PLOTSETTINGS
350
19
  3
ACAD_PLOTSTYLENAME
350
E
  3
ACAD_SCALELIST
350
47
  3
ACAD_SECTIONVIEWSTYLE
350
40F
  3
ACAD_TABLESTYLE
350
40B
  3
ACAD_VISUALSTYLE
350
3F1
  3
ACDB_RECOMPOSE_DATA
350
4B7
  3
AcDbVariableDictionary
350
417
  0
DICTIONARY
  5
433
330
2
100
AcDbDictionary
280
     1
281
     1
  3
ACAD_LAYERSTATES
360
434
  0
DICTIONARY
  5
4AF
330
10
100
AcDbDictionary
280
     1
281
     1
  3
ADSK_XREC_LAYER_RECONCILED
360
4B0
  0
DICTIONARY
  5
4B1
330
73
100
AcDbDictionary
280
     1
281
     1
  3
ADSK_XREC_LAYER_RECONCILED
360
4B2
  0
DICTIONARY
  5
4B3
330
42C
100
AcDbDictionary
280
     1
281
     1
  3
ADSK_XREC_LAYER_RECONCILED
360
4B4
  0
DICTIONARY
  5
482
330
34F
100
AcDbDictionary
280
     1
281
     1
  3
AcDbContextDataManager
360
483
  0
DICTIONARY
  5
474
330
35C
100
AcDbDictionary
280
     1
281
     1
  3
AcDbContextDataManager
360
475
  0
DICTIONARY
  5
466
330
390
100
AcDbDictionary
280
     1
281
     1
  3
AcDbContextDataManager
360
467
  0
DICTIONARY
  5
458
330
3CD
100
AcDbDictionary
280
     1
281
     1
  3
AcDbContextDataManager
360
459
  0
DICTIONARY
  5
49D
330
486
100
AcDbDictionary
280
     1
281
     1
  3
AcDbContextDataManager
360
49E
  0
XRECORD
  5
415
102
{ACAD_REACTORS
330
C
102
}
330
C
100
AcDbXrecord
280
     1
300
ACD
300
2021
300

  0
DICTIONARY
  5
40A
102
{ACAD_REACTORS
330
C
102
}
330
C
100
AcDbDictionary
281
     1
  0
DICTIONARY
  5
411
102
{ACAD_REACTORS
330
C
102
}
330
C
100
AcDbDictionary
281
     1
  3
Metric50
350
412
  0
DICTIONARY
  5
D
102
{ACAD_REACTORS
330
C
102
}
330
C
100
AcDbDictionary
281
     1
  0
DICTIONARY
  5
1A
102
{ACAD_REACTORS
330
C
102
}
330
C
100
AcDbDictionary
281
     1
  3
Layout1
350
1E
  3
Layout2
350
26
  3
Model
350
22
  0
DICTIONARY
  5
3D8
102
{ACAD_REACTORS
330
C
102
}
330
C
100
AcDbDictionary
281
     1
  3
ByBlock
350
3E1
  3
ByLayer
350
3D9
  3
Global
350
3E9
  0
DICTIONARY
  5
40D
102
{ACAD_REACTORS
330
C
102
}
330
C
100
AcDbDictionary
281
     1
  3
Standard
350
40E
  0
DICTIONARY
  5
17
102
{ACAD_REACTORS
330
C
102
}
330
C
100
AcDbDictionary
281
     1
  3
Standard
350
18
  0
DICTIONARY
  5
19
102
{ACAD_REACTORS
330
C
102
}
330
C
100
AcDbDictionary
281
     1
  0
ACDBDICTIONARYWDFLT
  5
E
102
{ACAD_REACTORS
330
C
102
}
330
C
100
AcDbDictionary
281
     1
  3
Normal
350
F
100
AcDbDictionaryWithDefault
340
F
  0
DICTIONARY
  5
47
102
{ACAD_REACTORS
330
C
102
}
330
C
100
AcDbDictionary
281
     1
  3
A0
350
48
  3
A1
350
49
  3
A2
350
4A
  3
A3
350
4B
  3
A4
350
4C
  3
A5
350
4D
  3
A6
350
4E
  3
A7
350
4F
  3
A8
350
50
  3
A9
350
51
  3
B0
350
52
  3
B1
350
53
  3
B2
350
54
  3
B3
350
55
  3
B4
350
56
  3
B5
350
57
  3
B6
350
58
  3
B7
350
59
  3
B8
350
5A
  3
B9
350
5B
  3
C0
350
5C
  3
C1
350
5D
  3
C2
350
5E
  3
C3
350
5F
  3
C4
350
60
  3
C5
350
61
  3
C6
350
62
  3
C7
350
63
  3
C8
350
64
  3
C9
350
65
  3
D0
350
66
  3
D1
350
67
  3
D2
350
68
  0
DICTIONARY
  5
40F
102
{ACAD_REACTORS
330
C
102
}
330
C
100
AcDbDictionary
281
     1
  3
Metric50
350
410
  0
DICTIONARY
  5
40B
102
{ACAD_REACTORS
330
C
102
}
330
C
100
AcDbDictionary
281
     1
  3
Standard
350
40C
  0
DICTIONARY
  5
3F1
102
{ACAD_REACTORS
330
C
102
}
330
C
100
AcDbDictionary
281
     1
  3
2dWireframe
350
3F7
  3
Basic
350
3F6
  3
Brighten
350
3FD
  3
ColorChange
350
401
  3
Conceptual
350
3FA
  3
Dim
350
3FC
  3
EdgeColorOff
350
409
  3
Facepattern
350
400
  3
Flat
350
3F2
  3
FlatWithEdges
350
3F3
  3
Gouraud
350
3F4
  3
GouraudWithEdges
350
3F5
  3
Hidden
350
3F9
  3
JitterOff
350
407
  3
Linepattern
350
3FF
  3
OverhangOff
350
408
  3
Realistic
350
3FB
  3
Shaded
350
406
  3
Shaded with edges
350
405
  3
Shades of Gray
350
402
  3
Sketchy
350
403
  3
Thicken
350
3FE
  3
Wireframe
350
3F8
  3
X-Ray
350
404
  0
XRECORD
  5
4B7
102
{ACAD_REACTORS
330
C
102
}
330
C
100
AcDbXrecord
280
     1
 90
        1
330
40C
  0
DICTIONARY
  5
417
102
{ACAD_REACTORS
330
C
102
}
330
C
100
AcDbDictionary
281
     1
  3
CANNOSCALE
350
41D
  3
CMLEADERSTYLE
350
419
  3
CTABLESTYLE
350
418
  3
CVIEWDETAILSTYLE
350
41A
  3
CVIEWSECTIONSTYLE
350
41B
  3
LAYEREVAL
350
41F
  3
LAYERNOTIFY
350
420
  3
LIGHTINGUNITS
350
41E
  3
MSLTSCALE
350
41C
  0
DICTIONARY
  5
434
102
{ACAD_REACTORS
330
433
102
}
330
433
100
AcDbDictionary
281
     1
  0
XRECORD
  5
4B0
102
{ACAD_REACTORS
330
4AF
102
}
330
4AF
100
AcDbXrecord
280
     1
290
     1
  0
XRECORD
  5
4B2
102
{ACAD_REACTORS
330
4B1
102
}
330
4B1
100
AcDbXrecord
280
     1
290
     1
  0
XRECORD
  5
4B4
102
{ACAD_REACTORS
330
4B3
102
}
330
4B3
100
AcDbXrecord
280
     1
290
     1
  0
DICTIONARY
  5
483
102
{ACAD_REACTORS
330
482
102
}
330
482
100
AcDbDictionary
281
     1
  3
ACDB_ANNOTATIONSCALES
350
484
  0
DICTIONARY
  5
475
102
{ACAD_REACTORS
330
474
102
}
330
474
100
AcDbDictionary
281
     1
  3
ACDB_ANNOTATIONSCALES
350
476
  0
DICTIONARY
  5
467
102
{ACAD_REACTORS
330
466
102
}
330
466
100
AcDbDictionary
281
     1
  3
ACDB_ANNOTATIONSCALES
350
468
  0
DICTIONARY
  5
459
102
{ACAD_REACTORS
330
458
102
}
330
458
100
AcDbDictionary
281
     1
  3
ACDB_ANNOTATIONSCALES
350
45A
  0
DICTIONARY
  5
49E
102
{ACAD_REACTORS
330
49D
102
}
330
49D
100
AcDbDictionary
281
     1
  3
ACDB_ANNOTATIONSCALES
350
49F
  0
ACDBDETAILVIEWSTYLE
  5
412
102
{ACAD_REACTORS
330
411
102
}
330
411
100
AcDbModelDocViewStyle
 70
     0
  3
Metric50
290
     0
300
Metric50
 90
        0
100
AcDbDetailViewStyle
 70
     0
 71
     0
 90
        3
 71
     1
340
11
 62
   256
 40
5.0
340
0
 62
   256
 40
5.0
300

 40
0.0
280
     1
 71
     2
340
16
 90
       25
 62
   256
 71
     3
340
11
 62
   256
 40
5.0
 90
        0
 40
15.0
 90
        1
300
%<\AcVar ViewDetailId>% (%<\AcVar ViewScale \f "%sn">%)
 71
     4
340
16
 90
       25
 62
   256
340
16
 90
       25
 62
   256
280
     0
  0
LAYOUT
  5
1E
102
{ACAD_REACTORS
330
1A
102
}
330
1A
100
AcDbPlotSettings
  1

  2
none_device
  4

  6

 40
0.0
 41
0.0
 42
0.0
 43
0.0
 44
0.0
 45
0.0
 46
0.0
 47
0.0
 48
0.0
 49
0.0
140
0.0
141
0.0
142
1.0
143
1.0
 70
   688
 72
     1
 73
     0
 74
     5
  7

 75
    16
147
1.0
 76
     0
 77
     2
 78
   300
148
0.0
149
0.0
100
AcDbLayout
  1
Layout1
 70
     1
 71
     1
 10
0.0
 20
0.0
 11
420.0
 21
297.0
 12
0.0
 22
0.0
 32
0.0
 14
1.000000000000000E+20
 24
1.000000000000000E+20
 34
1.000000000000000E+20
 15
-1.000000000000000E+20
 25
-1.000000000000000E+20
 35
-1.000000000000000E+20
146
0.0
 13
0.0
 23
0.0
 33
0.0
 16
1.0
 26
0.0
 36
0.0
 17
0.0
 27
1.0
 37
0.0
 76
     0
330
1B
  0
LAYOUT
  5
26
102
{ACAD_REACTORS
330
1A
102
}
330
1A
100
AcDbPlotSettings
  1

  2
none_device
  4

  6

 40
0.0
 41
0.0
 42
0.0
 43
0.0
 44
0.0
 45
0.0
 46
0.0
 47
0.0
 48
0.0
 49
0.0
140
0.0
141
0.0
142
1.0
143
1.0
 70
   688
 72
     1
 73
     0
 74
     5
  7

 75
    16
147
1.0
 76
     0
 77
     2
 78
   300
148
0.0
149
0.0
100
AcDbLayout
  1
Layout2
 70
     1
 71
     2
 10
0.0
 20
0.0
 11
0.0
 21
0.0
 12
0.0
 22
0.0
 32
0.0
 14
0.0
 24
0.0
 34
0.0
 15
0.0
 25
0.0
 35
0.0
146
0.0
 13
0.0
 23
0.0
 33
0.0
 16
1.0
 26
0.0
 36
0.0
 17
0.0
 27
1.0
 37
0.0
 76
     0
330
23
  0
LAYOUT
  5
22
102
{ACAD_REACTORS
330
1A
102
}
330
1A
100
AcDbPlotSettings
  1

  2
none_device
  4
Letter_(8.50_x_11.00_Inches)
  6

 40
6.349999999999999
 41
6.349999999999999
 42
6.350005079999999
 43
6.350005079999999
 44
215.9
 45
279.4
 46
0.0
 47
0.0
 48
0.0
 49
0.0
140
0.0
141
0.0
142
1.0
143
1.0
 70
  1712
 72
     1
 73
     0
 74
     0
  7

 75
     0
147
1.0
 76
     0
 77
     2
 78
   300
148
0.0
149
0.0
100
AcDbLayout
  1
Model
 70
     1
 71
     0
 10
0.0
 20
0.0
 11
420.0
 21
297.0
 12
0.0
 22
0.0
 32
0.0
 14
0.0
 24
0.0
 34
0.0
 15
420.0
 25
297.0
 35
0.0
146
0.0
 13
0.0
 23
0.0
 33
0.0
 16
1.0
 26
0.0
 36
0.0
 17
0.0
 27
1.0
 37
0.0
 76
     0
330
1F
331
29
  0
MATERIAL
  5
3E1
102
{ACAD_XDICTIONARY
360
3E2
102
}
102
{ACAD_REACTORS
330
3D8
102
}
330
3D8
100
AcDbMaterial
  1
ByBlock
 72
     0
 43
0.0008202099737533
 43
0.0
 43
0.0
 43
0.0
 43
0.0
 43
0.0008202099737533
 43
0.0
 43
0.0
 43
0.0
 43
0.0
 43
1.0
 43
0.0
 43
0.0
 43
0.0
 43
0.0
 43
1.0
 77
     0
 47
0.0008202099737533
 47
0.0
 47
0.0
 47
0.0
 47
0.0
 47
0.0008202099737533
 47
0.0
 47
0.0
 47
0.0
 47
0.0
 47
1.0
 47
0.0
 47
0.0
 47
0.0
 47
0.0
 47
1.0
171
     0
 49
0.0008202099737533
 49
0.0
 49
0.0
 49
0.0
 49
0.0
 49
0.0008202099737533
 49
0.0
 49
0.0
 49
0.0
 49
0.0
 49
1.0
 49
0.0
 49
0.0
 49
0.0
 49
0.0
 49
1.0
175
     0
142
0.0008202099737533
142
0.0
142
0.0
142
0.0
142
0.0
142
0.0008202099737533
142
0.0
142
0.0
142
0.0
142
0.0
142
1.0
142
0.0
142
0.0
142
0.0
142
0.0
142
1.0
179
     0
144
0.0008202099737533
144
0.0
144
0.0
144
0.0
144
0.0
144
0.0008202099737533
144
0.0
144
0.0
144
0.0
144
0.0
144
1.0
144
0.0
144
0.0
144
0.0
144
0.0
144
1.0
147
0.0008202099737533
147
0.0
147
0.0
147
0.0
147
0.0
147
0.0008202099737533
147
0.0
147
0.0
147
0.0
147
0.0
147
1.0
147
0.0
147
0.0
147
0.0
147
0.0
147
1.0
  0
MATERIAL
  5
3D9
102
{ACAD_XDICTIONARY
360
3DA
102
}
102
{ACAD_REACTORS
330
3D8
102
}
330
3D8
100
AcDbMaterial
  1
ByLayer
 72
     0
 43
0.0008202099737533
 43
0.0
 43
0.0
 43
0.0
 43
0.0
 43
0.0008202099737533
 43
0.0
 43
0.0
 43
0.0
 43
0.0
 43
1.0
 43
0.0
 43
0.0
 43
0.0
 43
0.0
 43
1.0
 77
     0
 47
0.0008202099737533
 47
0.0
 47
0.0
 47
0.0
 47
0.0
 47
0.0008202099737533
 47
0.0
 47
0.0
 47
0.0
 47
0.0
 47
1.0
 47
0.0
 47
0.0
 47
0.0
 47
0.0
 47
1.0
171
     0
 49
0.0008202099737533
 49
0.0
 49
0.0
 49
0.0
 49
0.0
 49
0.0008202099737533
 49
0.0
 49
0.0
 49
0.0
 49
0.0
 49
1.0
 49
0.0
 49
0.0
 49
0.0
 49
0.0
 49
1.0
175
     0
142
0.0008202099737533
142
0.0
142
0.0
142
0.0
142
0.0
142
0.0008202099737533
142
0.0
142
0.0
142
0.0
142
0.0
142
1.0
142
0.0
142
0.0
142
0.0
142
0.0
142
1.0
179
     0
144
0.0008202099737533
144
0.0
144
0.0
144
0.0
144
0.0
144
0.0008202099737533
144
0.0
144
0.0
144
0.0
144
0.0
144
1.0
144
0.0
144
0.0
144
0.0
144
0.0
144
1.0
147
0.0008202099737533
147
0.0
147
0.0
147
0.0
147
0.0
147
0.0008202099737533
147
0.0
147
0.0
147
0.0
147
0.0
147
1.0
147
0.0
147
0.0
147
0.0
147
0.0
147
1.0
  0
MATERIAL
  5
3E9
102
{ACAD_XDICTIONARY
360
3EA
102
}
102
{ACAD_REACTORS
330
3D8
102
}
330
3D8
100
AcDbMaterial
  1
Global
 72
     0
 43
0.0008202099737533
 43
0.0
 43
0.0
 43
0.0
 43
0.0
 43
0.0008202099737533
 43
0.0
 43
0.0
 43
0.0
 43
0.0
 43
1.0
 43
0.0
 43
0.0
 43
0.0
 43
0.0
 43
1.0
 77
     0
 47
0.0008202099737533
 47
0.0
 47
0.0
 47
0.0
 47
0.0
 47
0.0008202099737533
 47
0.0
 47
0.0
 47
0.0
 47
0.0
 47
1.0
 47
0.0
 47
0.0
 47
0.0
 47
0.0
 47
1.0
171
     0
 49
0.0008202099737533
 49
0.0
 49
0.0
 49
0.0
 49
0.0
 49
0.0008202099737533
 49
0.0
 49
0.0
 49
0.0
 49
0.0
 49
1.0
 49
0.0
 49
0.0
 49
0.0
 49
0.0
 49
1.0
175
     0
142
0.0008202099737533
142
0.0
142
0.0
142
0.0
142
0.0
142
0.0008202099737533
142
0.0
142
0.0
142
0.0
142
0.0
142
1.0
142
0.0
142
0.0
142
0.0
142
0.0
142
1.0
179
     0
144
0.0008202099737533
144
0.0
144
0.0
144
0.0
144
0.0
144
0.0008202099737533
144
0.0
144
0.0
144
0.0
144
0.0
144
1.0
144
0.0
144
0.0
144
0.0
144
0.0
144
1.0
147
0.0008202099737533
147
0.0
147
0.0
147
0.0
147
0.0
147
0.0008202099737533
147
0.0
147
0.0
147
0.0
147
0.0
147
1.0
147
0.0
147
0.0
147
0.0
147
0.0
147
1.0
  0
MLEADERSTYLE
  5
40E
102
{ACAD_REACTORS
330
40D
102
}
330
40D
100
AcDbMLeaderStyle
179
     2
170
     2
171
     1
172
     0
 90
        2
 40
0.0
 41
0.0
173
     1
 91
-1056964608
340
14
 92
       -2
290
     1
 42
2.0
291
     1
 43
0.36
  3
Standard
 44
4.0
300

342
11
174
     1
178
     6
175
     1
176
     0
 93
-1056964608
 45
4.0
292
     0
297
     0
 46
4.0
 94
-1056964608
 47
1.0
 49
1.0
140
1.0
293
     1
141
0.0
294
     1
177
     0
142
1.0
295
     0
296
     0
143
0.125
271
     0
272
     9
273
     9
298
     0
  0
MLINESTYLE
  5
18
102
{ACAD_REACTORS
330
17
102
}
330
17
100
AcDbMlineStyle
  2
STANDARD
 70
     0
  3

 62
   256
 51
90.0
 52
90.0
 71
     2
 49
0.5
 62
   256
  6
BYLAYER
 49
-0.5
 62
   256
  6
BYLAYER
  0
ACDBPLACEHOLDER
  5
F
102
{ACAD_REACTORS
330
E
102
}
330
E
  0
SCALE
  5
48
102
{ACAD_REACTORS
330
47
102
}
330
47
100
AcDbScale
 70
     0
300
1:1
140
1.0
141
1.0
290
     1
  0
SCALE
  5
49
102
{ACAD_REACTORS
330
47
102
}
330
47
100
AcDbScale
 70
     0
300
1:2
140
1.0
141
2.0
290
     0
  0
SCALE
  5
4A
102
{ACAD_REACTORS
330
47
102
}
330
47
100
AcDbScale
 70
     0
300
1:4
140
1.0
141
4.0
290
     0
  0
SCALE
  5
4B
102
{ACAD_REACTORS
330
47
102
}
330
47
100
AcDbScale
 70
     0
300
1:5
140
1.0
141
5.0
290
     0
  0
SCALE
  5
4C
102
{ACAD_REACTORS
330
47
102
}
330
47
100
AcDbScale
 70
     0
300
1:8
140
1.0
141
8.0
290
     0
  0
SCALE
  5
4D
102
{ACAD_REACTORS
330
47
102
}
330
47
100
AcDbScale
 70
     0
300
1:10
140
1.0
141
10.0
290
     0
  0
SCALE
  5
4E
102
{ACAD_REACTORS
330
47
102
}
330
47
100
AcDbScale
 70
     0
300
1:16
140
1.0
141
16.0
290
     0
  0
SCALE
  5
4F
102
{ACAD_REACTORS
330
47
102
}
330
47
100
AcDbScale
 70
     0
300
1:20
140
1.0
141
20.0
290
     0
  0
SCALE
  5
50
102
{ACAD_REACTORS
330
47
102
}
330
47
100
AcDbScale
 70
     0
300
1:30
140
1.0
141
30.0
290
     0
  0
SCALE
  5
51
102
{ACAD_REACTORS
330
47
102
}
330
47
100
AcDbScale
 70
     0
300
1:40
140
1.0
141
40.0
290
     0
  0
SCALE
  5
52
102
{ACAD_REACTORS
330
47
102
}
330
47
100
AcDbScale
 70
     0
300
1:50
140
1.0
141
50.0
290
     0
  0
SCALE
  5
53
102
{ACAD_REACTORS
330
47
102
}
330
47
100
AcDbScale
 70
     0
300
1:100
140
1.0
141
100.0
290
     0
  0
SCALE
  5
54
102
{ACAD_REACTORS
330
47
102
}
330
47
100
AcDbScale
 70
     0
300
2:1
140
2.0
141
1.0
290
     0
  0
SCALE
  5
55
102
{ACAD_REACTORS
330
47
102
}
330
47
100
AcDbScale
 70
     0
300
4:1
140
4.0
141
1.0
290
     0
  0
SCALE
  5
56
102
{ACAD_REACTORS
330
47
102
}
330
47
100
AcDbScale
 70
     0
300
8:1
140
8.0
141
1.0
290
     0
  0
SCALE
  5
57
102
{ACAD_REACTORS
330
47
102
}
330
47
100
AcDbScale
 70
     0
300
10:1
140
10.0
141
1.0
290
     0
  0
SCALE
  5
58
102
{ACAD_REACTORS
330
47
102
}
330
47
100
AcDbScale
 70
     0
300
100:1
140
100.0
141
1.0
290
     0
  0
SCALE
  5
59
102
{ACAD_REACTORS
330
47
102
}
330
47
100
AcDbScale
 70
     0
300
1/128" = 1'-0"
140
0.0078125
141
12.0
290
     0
  0
SCALE
  5
5A
102
{ACAD_REACTORS
330
47
102
}
330
47
100
AcDbScale
 70
     0
300
1/64" = 1'-0"
140
0.015625
141
12.0
290
     0
  0
SCALE
  5
5B
102
{ACAD_REACTORS
330
47
102
}
330
47
100
AcDbScale
 70
     0
300
1/32" = 1'-0"
140
0.03125
141
12.0
290
     0
  0
SCALE
  5
5C
102
{ACAD_REACTORS
330
47
102
}
330
47
100
AcDbScale
 70
     0
300
1/16" = 1'-0"
140
0.0625
141
12.0
290
     0
  0
SCALE
  5
5D
102
{ACAD_REACTORS
330
47
102
}
330
47
100
AcDbScale
 70
     0
300
3/32" = 1'-0"
140
0.09375
141
12.0
290
     0
  0
SCALE
  5
5E
102
{ACAD_REACTORS
330
47
102
}
330
47
100
AcDbScale
 70
     0
300
1/8" = 1'-0"
140
0.125
141
12.0
290
     0
  0
SCALE
  5
5F
102
{ACAD_REACTORS
330
47
102
}
330
47
100
AcDbScale
 70
     0
300
3/16" = 1'-0"
140
0.1875
141
12.0
290
     0
  0
SCALE
  5
60
102
{ACAD_REACTORS
330
47
102
}
330
47
100
AcDbScale
 70
     0
300
1/4" = 1'-0"
140
0.25
141
12.0
290
     0
  0
SCALE
  5
61
102
{ACAD_REACTORS
330
47
102
}
330
47
100
AcDbScale
 70
     0
300
3/8" = 1'-0"
140
0.375
141
12.0
290
     0
  0
SCALE
  5
62
102
{ACAD_REACTORS
330
47
102
}
330
47
100
AcDbScale
 70
     0
300
1/2" = 1'-0"
140
0.5
141
12.0
290
     0
  0
SCALE
  5
63
102
{ACAD_REACTORS
330
47
102
}
330
47
100
AcDbScale
 70
     0
300
3/4" = 1'-0"
140
0.75
141
12.0
290
     0
  0
SCALE
  5
64
102
{ACAD_REACTORS
330
47
102
}
330
47
100
AcDbScale
 70
     0
300
1" = 1'-0"
140
1.0
141
12.0
290
     0
  0
SCALE
  5
65
102
{ACAD_REACTORS
330
47
102
}
330
47
100
AcDbScale
 70
     0
300
1-1/2" = 1'-0"
140
1.5
141
12.0
290
     0
  0
SCALE
  5
66
102
{ACAD_REACTORS
330
47
102
}
330
47
100
AcDbScale
 70
     0
300
3" = 1'-0"
140
3.0
141
12.0
290
     0
  0
SCALE
  5
67
102
{ACAD_REACTORS
330
47
102
}
330
47
100
AcDbScale
 70
     0
300
6" = 1'-0"
140
6.0
141
12.0
290
     0
  0
SCALE
  5
68
102
{ACAD_REACTORS
330
47
102
}
330
47
100
AcDbScale
 70
     0
300
1'-0" = 1'-0"
140
12.0
141
12.0
290
     0
  0
ACDBSECTIONVIEWSTYLE
  5
410
102
{ACAD_REACTORS
330
40F
102
}
330
40F
100
AcDbModelDocViewStyle
 70
     0
  3
Metric50
290
     0
300
Metric50
 90
        0
100
AcDbSectionViewStyle
 70
     0
 71
     0
 90
      102
 71
     1
340
11
 62
   256
 40
5.0
340
0
340
0
 62
   256
 40
5.0
300
I, O, Q, S, X, Z
 40
10.0
 90
        0
 40
2.5
 90
        0
 71
     2
340
16
 90
       25
 62
   256
340
16
 90
       50
 62
   256
 40
5.0
 40
2.5
 40
5.0
 71
     3
340
11
 62
   256
 40
5.0
 90
        0
 40
15.0
 90
        1
300
%<\AcVar ViewSectionStartId>%-%<\AcVar ViewSectionEndId>% (%<\AcVar ViewScale \f "%sn">%)
 71
     4
 62
   256
 62
   257
300
ANSI31
 40
1.0
 90
        0
290
     0
290
     0
 90
        6
 40
0.0
 40
1.570796326794896
 40
0.2617993877991494
 40
1.308996938995747
 40
-0.2617993877991494
 40
1.832595714594046
  0
TABLESTYLE
  5
40C
102
{ACAD_XDICTIONARY
360
4B5
102
}
102
{ACAD_REACTORS
330
40B
102
}
330
40B
100
AcDbTableStyle
280
     0
  3
Standard
 70
     0
 71
     0
 40
1.5
 41
1.5
280
     0
281
     0
  7
Standard
140
4.5
170
     2
 62
     0
 63
     7
283
     0
 90
      512
 91
        0
  1

274
    -2
284
     1
 64
     0
275
    -2
285
     1
 65
     0
276
    -2
286
     1
 66
     0
277
    -2
287
     1
 67
     0
278
    -2
288
     1
 68
     0
279
    -2
289
     1
 69
     0
  7
Standard
140
6.0
170
     5
 62
     0
 63
     7
283
     0
 90
      512
 91
        0
  1

274
    -2
284
     1
 64
     0
275
    -2
285
     1
 65
     0
276
    -2
286
     1
 66
     0
277
    -2
287
     1
 67
     0
278
    -2
288
     1
 68
     0
279
    -2
289
     1
 69
     0
  7
Standard
140
4.5
170
     5
 62
     0
 63
     7
283
     0
 90
      512
 91
        0
  1

274
    -2
284
     1
 64
     0
275
    -2
285
     1
 65
     0
276
    -2
286
     1
 66
     0
277
    -2
287
     1
 67
     0
278
    -2
288
     1
 68
     0
279
    -2
289
     1
 69
     0
  0
VISUALSTYLE
  5
3F7
102
{ACAD_REACTORS
330
3F1
102
}
330
3F1
100
AcDbVisualStyle
  2
2dWireframe
 70
     4
177
     3
291
     0
 70
    58
 90
        0
176
     1
 90
        2
176
     1
 90
        0
176
     1
 90
        0
176
     1
 40
0.6
176
     1
 40
30.0
176
     1
 62
     7
420
 16777215
176
     1
 90
        1
176
     1
 90
        4
176
     1
 62
     7
176
     1
 62
   257
176
     1
 90
        1
176
     1
 90
        1
176
     1
 40
1.0
176
     1
 90
        0
176
     1
 62
   257
176
     1
 40
1.0
176
     1
 90
        1
176
     1
 90
        6
176
     1
 90
        2
176
     1
 62
     7
176
     1
 90
        5
176
     1
 90
        0
176
     1
 90
        0
176
     1
290
     0
176
     1
 90
        1
176
     1
 40
0.0
176
     1
 90
        0
176
     1
290
     1
176
     1
290
     1
176
     1
290
     0
176
     1
290
     0
176
     1
290
     0
176
     1
290
     0
176
     1
290
     0
176
     1
290
     0
176
     1
290
     0
176
     1
 90
       50
176
     1
 40
0.0
176
     1
 40
1.0
176
     1
 90
        0
176
     1
 62
    18
420
        0
176
     1
 90
       50
176
     1
 90
        3
176
     1
 62
     5
420
      255
176
     1
290
     0
176
     1
 90
       50
176
     1
 90
       50
176
     1
 90
       50
176
     1
290
     0
176
     1
 90
       50
176
     1
 62
   256
176
     0
 40
1.0
176
     0
 90
        2
176
     1
  1
strokes_ogs.tif
176
     1
290
     0
176
     1
 40
1.0
176
     1
 40
1.0
176
     1
  0
VISUALSTYLE
  5
3F6
102
{ACAD_REACTORS
330
3F1
102
}
330
3F1
100
AcDbVisualStyle
  2
Basic
 70
     7
177
     3
291
     1
 70
    58
 90
        1
176
     1
 90
        0
176
     1
 90
        1
176
     1
 90
        0
176
     1
 40
0.6
176
     1
 40
30.0
176
     1
 62
     7
420
 16777215
176
     1
 90
        0
176
     1
 90
        4
176
     1
 62
     7
176
     1
 62
   257
176
     1
 90
        1
176
     1
 90
        1
176
     1
 40
1.0
176
     1
 90
        8
176
     1
 62
     7
176
     1
 40
1.0
176
     1
 90
        1
176
     1
 90
        6
176
     1
 90
        2
176
     1
 62
     7
176
     1
 90
        5
176
     1
 90
        0
176
     1
 90
        0
176
     1
290
     0
176
     1
 90
        1
176
     1
 40
0.0
176
     1
 90
        0
176
     1
290
     0
176
     1
290
     1
176
     1
290
     1
176
     1
290
     0
176
     1
290
     0
176
     1
290
     0
176
     1
290
     0
176
     1
290
     0
176
     1
290
     0
176
     1
 90
       50
176
     1
 40
0.0
176
     1
 40
1.0
176
     1
 90
        0
176
     1
 62
    18
420
        0
176
     1
 90
       50
176
     1
 90
        3
176
     1
 62
     5
420
      255
176
     1
290
     0
176
     1
 90
       50
176
     1
 90
       50
176
     1
 90
       50
176
     1
290
     0
176
     1
 90
       50
176
     1
 62
   256
176
     0
 40
1.0
176
     0
 90
        2
176
     1
  1
strokes_ogs.tif
176
     1
290
     0
176
     1
 40
1.0
176
     1
 40
1.0
176
     1
  0
VISUALSTYLE
  5
3FD
102
{ACAD_REACTORS
330
3F1
102
}
330
3F1
100
AcDbVisualStyle
  2
Brighten
 70
    12
177
     3
291
     1
 70
    58
 90
        2
176
     1
 90
        2
176
     1
 90
        0
176
     1
 90
        0
176
     1
 40
0.6
176
     1
 40
30.0
176
     1
 62
     7
420
 16777215
176
     1
 90
        1
176
     1
 90
        4
176
     1
 62
     7
176
     1
 62
   257
176
     1
 90
        1
176
     1
 90
        1
176
     1
 40
1.0
176
     1
 90
        8
176
     1
 62
     7
176
     1
 40
1.0
176
     1
 90
        1
176
     1
 90
        6
176
     1
 90
        2
176
     1
 62
     7
176
     1
 90
        5
176
     1
 90
        0
176
     1
 90
        0
176
     1
290
     0
176
     1
 90
        1
176
     1
 40
50.0
176
     1
 90
        0
176
     1
290
     0
176
     1
290
     1
176
     1
290
     1
176
     1
290
     0
176
     1
290
     0
176
     1
290
     0
176
     1
290
     0
176
     1
290
     0
176
     1
290
     0
176
     1
 90
       50
176
     1
 40
0.0
176
     1
 40
1.0
176
     1
 90
        0
176
     1
 62
    18
420
        0
176
     1
 90
       50
176
     1
 90
        3
176
     1
 62
     5
420
      255
176
     1
290
     0
176
     1
 90
       50
176
     1
 90
       50
176
     1
 90
       50
176
     1
290
     0
176
     1
 90
       50
176
     1
 62
   256
176
     0
 40
1.0
176
     0
 90
        2
176
     1
  1
strokes_ogs.tif
176
     1
290
     0
176
     1
 40
1.0
176
     1
 40
1.0
176
     1
  0
VISUALSTYLE
  5
401
102
{ACAD_REACTORS
330
3F1
102
}
330
3F1
100
AcDbVisualStyle
  2
ColorChange
 70
    16
177
     3
291
     1
 70
    58
 90
        2
176
     1
 90
        2
176
     1
 90
        3
176
     1
 90
        0
176
     1
 40
0.6
176
     1
 40
30.0
176
     1
 62
     8
420
  8421504
176
     1
 90
        1
176
     1
 90
        4
176
     1
 62
     7
176
     1
 62
   257
176
     1
 90
        1
176
     1
 90
        1
176
     1
 40
1.0
176
     1
 90
        8
176
     1
 62
     8
420
  8421504
176
     1
 40
1.0
176
     1
 90
        1
176
     1
 90
        6
176
     1
 90
        2
176
     1
 62
     7
176
     1
 90
        5
176
     1
 90
        0
176
     1
 90
        0
176
     1
290
     0
176
     1
 90
        1
176
     1
 40
0.0
176
     1
 90
        0
176
     1
290
     0
176
     1
290
     1
176
     1
290
     1
176
     1
290
     0
176
     1
290
     0
176
     1
290
     0
176
     1
290
     0
176
     1
290
     0
176
     1
290
     0
176
     1
 90
       50
176
     1
 40
0.0
176
     1
 40
1.0
176
     1
 90
        0
176
     1
 62
    18
420
        0
176
     1
 90
       50
176
     1
 90
        3
176
     1
 62
     5
420
      255
176
     1
290
     0
176
     1
 90
       50
176
     1
 90
       50
176
     1
 90
       50
176
     1
290
     0
176
     1
 90
       50
176
     1
 62
   256
176
     0
 40
1.0
176
     0
 90
        2
176
     1
  1
strokes_ogs.tif
176
     1
290
     0
176
     1
 40
1.0
176
     1
 40
1.0
176
     1
  0
VISUALSTYLE
  5
3FA
102
{ACAD_REACTORS
330
3F1
102
}
330
3F1
100
AcDbVisualStyle
  2
Conceptual
 70
     9
177
     3
291
     0
 70
    58
 90
        3
176
     1
 90
        2
176
     1
 90
        0
176
     1
 90
        0
176
     1
 40
0.6
176
     1
 40
30.0
176
     1
 62
     7
420
 16777215
176
     1
 90
        2
176
     1
 90
        2
176
     1
 62
     7
176
     1
 62
   257
176
     1
 90
        1
176
     1
 90
        1
176
     1
 40
179.0
176
     1
 90
        8
176
     1
 62
     7
176
     1
 40
1.0
176
     1
 90
        1
176
     1
 90
        6
176
     1
 90
        2
176
     1
 62
     7
176
     1
 90
        3
176
     1
 90
        0
176
     1
 90
        0
176
     1
290
     0
176
     1
 90
        1
176
     1
 40
0.0
176
     1
 90
        0
176
     1
290
     0
176
     1
290
     1
176
     1
290
     1
176
     1
290
     0
176
     1
290
     0
176
     1
290
     0
176
     1
290
     0
176
     1
290
     0
176
     1
290
     0
176
     1
 90
       50
176
     1
 40
0.0
176
     1
 40
1.0
176
     1
 90
        0
176
     1
 62
    18
420
        0
176
     1
 90
       50
176
     1
 90
        3
176
     1
 62
     5
420
      255
176
     1
290
     0
176
     1
 90
       50
176
     1
 90
       50
176
     1
 90
       50
176
     1
290
     0
176
     1
 90
       50
176
     1
 62
   256
176
     0
 40
1.0
176
     0
 90
        2
176
     1
  1
strokes_ogs.tif
176
     1
290
     0
176
     1
 40
1.0
176
     1
 40
1.0
176
     1
  0
VISUALSTYLE
  5
3FC
102
{ACAD_REACTORS
330
3F1
102
}
330
3F1
100
AcDbVisualStyle
  2
Dim
 70
    11
177
     3
291
     1
 70
    58
 90
        2
176
     1
 90
        2
176
     1
 90
        0
176
     1
 90
        0
176
     1
 40
0.6
176
     1
 40
30.0
176
     1
 62
     7
420
 16777215
176
     1
 90
        1
176
     1
 90
        4
176
     1
 62
     7
176
     1
 62
   257
176
     1
 90
        1
176
     1
 90
        1
176
     1
 40
1.0
176
     1
 90
        8
176
     1
 62
     7
176
     1
 40
1.0
176
     1
 90
        1
176
     1
 90
        6
176
     1
 90
        2
176
     1
 62
     7
176
     1
 90
        5
176
     1
 90
        0
176
     1
 90
        0
176
     1
290
     0
176
     1
 90
        1
176
     1
 40
-50.0
176
     1
 90
        0
176
     1
290
     0
176
     1
290
     1
176
     1
290
     1
176
     1
290
     0
176
     1
290
     0
176
     1
290
     0
176
     1
290
     0
176
     1
290
     0
176
     1
290
     0
176
     1
 90
       50
176
     1
 40
0.0
176
     1
 40
1.0
176
     1
 90
        0
176
     1
 62
    18
420
        0
176
     1
 90
       50
176
     1
 90
        3
176
     1
 62
     5
420
      255
176
     1
290
     0
176
     1
 90
       50
176
     1
 90
       50
176
     1
 90
       50
176
     1
290
     0
176
     1
 90
       50
176
     1
 62
   256
176
     0
 40
1.0
176
     0
 90
        2
176
     1
  1
strokes_ogs.tif
176
     1
290
     0
176
     1
 40
1.0
176
     1
 40
1.0
176
     1
  0
VISUALSTYLE
  5
409
102
{ACAD_REACTORS
330
3F1
102
}
330
3F1
100
AcDbVisualStyle
  2
EdgeColorOff
 70
    22
177
     3
291
     1
 70
    58
 90
        2
176
     0
 90
        2
176
     0
 90
        0
176
     0
 90
        0
176
     0
 40
0.6
176
     0
 40
30.0
176
     0
 62
     7
420
 16777215
176
     0
 90
        1
176
     0
 90
        4
176
     0
 62
     7
176
     0
 62
   257
176
     0
 90
        1
176
     0
 90
        1
176
     0
 40
1.0
176
     0
 90
        8
176
     2
 62
     7
176
     0
 40
1.0
176
     0
 90
        1
176
     0
 90
        6
176
     0
 90
        2
176
     0
 62
     7
176
     0
 90
        5
176
     0
 90
        0
176
     0
 90
        0
176
     0
290
     0
176
     0
 90
        1
176
     0
 40
0.0
176
     0
 90
        0
176
     0
290
     0
176
     1
290
     1
176
     1
290
     1
176
     1
290
     0
176
     1
290
     0
176
     1
290
     0
176
     1
290
     0
176
     1
290
     0
176
     1
290
     0
176
     1
 90
       50
176
     0
 40
0.0
176
     0
 40
1.0
176
     0
 90
        0
176
     0
 62
    18
420
        0
176
     0
 90
       50
176
     0
 90
        3
176
     0
 62
     5
420
      255
176
     0
290
     0
176
     1
 90
       50
176
     0
 90
       50
176
     0
 90
       50
176
     0
290
     0
176
     1
 90
       50
176
     0
 62
   256
176
     0
 40
1.0
176
     0
 90
        2
176
     0
  1
strokes_ogs.tif
176
     0
290
     0
176
     1
 40
1.0
176
     0
 40
1.0
176
     0
  0
VISUALSTYLE
  5
400
102
{ACAD_REACTORS
330
3F1
102
}
330
3F1
100
AcDbVisualStyle
  2
Facepattern
 70
    15
177
     3
291
     1
 70
    58
 90
        2
176
     1
 90
        2
176
     1
 90
        0
176
     1
 90
        0
176
     1
 40
0.6
176
     1
 40
30.0
176
     1
 62
     7
420
 16777215
176
     1
 90
        1
176
     1
 90
        4
176
     1
 62
     7
176
     1
 62
   257
176
     1
 90
        1
176
     1
 90
        1
176
     1
 40
1.0
176
     1
 90
        8
176
     1
 62
     7
176
     1
 40
1.0
176
     1
 90
        1
176
     1
 90
        6
176
     1
 90
        2
176
     1
 62
     7
176
     1
 90
        5
176
     1
 90
        0
176
     1
 90
        0
176
     1
290
     0
176
     1
 90
        1
176
     1
 40
0.0
176
     1
 90
        0
176
     1
290
     0
176
     1
290
     1
176
     1
290
     1
176
     1
290
     0
176
     1
290
     0
176
     1
290
     0
176
     1
290
     0
176
     1
290
     0
176
     1
290
     0
176
     1
 90
       50
176
     1
 40
0.0
176
     1
 40
1.0
176
     1
 90
        0
176
     1
 62
    18
420
        0
176
     1
 90
       50
176
     1
 90
        3
176
     1
 62
     5
420
      255
176
     1
290
     0
176
     1
 90
       50
176
     1
 90
       50
176
     1
 90
       50
176
     1
290
     0
176
     1
 90
       50
176
     1
 62
   256
176
     0
 40
1.0
176
     0
 90
        2
176
     1
  1
strokes_ogs.tif
176
     1
290
     0
176
     1
 40
1.0
176
     1
 40
1.0
176
     1
  0
VISUALSTYLE
  5
3F2
102
{ACAD_REACTORS
330
3F1
102
}
330
3F1
100
AcDbVisualStyle
  2
Flat
 70
     0
177
     3
291
     1
 70
    58
 90
        2
176
     1
 90
        1
176
     1
 90
        1
176
     1
 90
        2
176
     1
 40
0.6
176
     1
 40
30.0
176
     1
 62
     7
420
 16777215
176
     1
 90
        0
176
     1
 90
        0
176
     1
 62
     7
176
     1
 62
   257
176
     1
 90
        1
176
     1
 90
        1
176
     1
 40
1.0
176
     1
 90
        8
176
     1
 62
     7
176
     1
 40
1.0
176
     1
 90
        1
176
     1
 90
        6
176
     1
 90
        2
176
     1
 62
     7
176
     1
 90
        5
176
     1
 90
        0
176
     1
 90
        0
176
     1
290
     0
176
     1
 90
       13
176
     1
 40
0.0
176
     1
 90
        0
176
     1
290
     0
176
     1
290
     1
176
     1
290
     1
176
     1
290
     0
176
     1
290
     0
176
     1
290
     0
176
     1
290
     0
176
     1
290
     0
176
     1
290
     0
176
     1
 90
       50
176
     1
 40
0.0
176
     1
 40
1.0
176
     1
 90
        0
176
     1
 62
    18
420
        0
176
     1
 90
       50
176
     1
 90
        3
176
     1
 62
     5
420
      255
176
     1
290
     0
176
     1
 90
       50
176
     1
 90
       50
176
     1
 90
       50
176
     1
290
     0
176
     1
 90
       50
176
     1
 62
   256
176
     0
 40
1.0
176
     0
 90
        2
176
     1
  1
strokes_ogs.tif
176
     1
290
     0
176
     1
 40
1.0
176
     1
 40
1.0
176
     1
  0
VISUALSTYLE
  5
3F3
102
{ACAD_REACTORS
330
3F1
102
}
330
3F1
100
AcDbVisualStyle
  2
FlatWithEdges
 70
     1
177
     3
291
     1
 70
    58
 90
        2
176
     1
 90
        1
176
     1
 90
        1
176
     1
 90
        2
176
     1
 40
0.6
176
     1
 40
30.0
176
     1
 62
     7
420
 16777215
176
     1
 90
        1
176
     1
 90
        0
176
     1
 62
     7
176
     1
 62
   257
176
     1
 90
        1
176
     1
 90
        1
176
     1
 40
1.0
176
     1
 90
        0
176
     1
 62
   257
176
     1
 40
1.0
176
     1
 90
        1
176
     1
 90
        6
176
     1
 90
        2
176
     1
 62
     7
176
     1
 90
        5
176
     1
 90
        0
176
     1
 90
        0
176
     1
290
     0
176
     1
 90
       13
176
     1
 40
0.0
176
     1
 90
        0
176
     1
290
     0
176
     1
290
     1
176
     1
290
     1
176
     1
290
     0
176
     1
290
     0
176
     1
290
     0
176
     1
290
     0
176
     1
290
     0
176
     1
290
     0
176
     1
 90
       50
176
     1
 40
0.0
176
     1
 40
1.0
176
     1
 90
        0
176
     1
 62
    18
420
        0
176
     1
 90
       50
176
     1
 90
        3
176
     1
 62
     5
420
      255
176
     1
290
     0
176
     1
 90
       50
176
     1
 90
       50
176
     1
 90
       50
176
     1
290
     0
176
     1
 90
       50
176
     1
 62
   256
176
     0
 40
1.0
176
     0
 90
        2
176
     1
  1
strokes_ogs.tif
176
     1
290
     0
176
     1
 40
1.0
176
     1
 40
1.0
176
     1
  0
VISUALSTYLE
  5
3F4
102
{ACAD_REACTORS
330
3F1
102
}
330
3F1
100
AcDbVisualStyle
  2
Gouraud
 70
     2
177
     3
291
     1
 70
    58
 90
        2
176
     1
 90
        2
176
     1
 90
        1
176
     1
 90
        2
176
     1
 40
0.6
176
     1
 40
30.0
176
     1
 62
     7
420
 16777215
176
     1
 90
        0
176
     1
 90
        0
176
     1
 62
     7
176
     1
 62
   257
176
     1
 90
        1
176
     1
 90
        1
176
     1
 40
1.0
176
     1
 90
        0
176
     1
 62
     7
176
     1
 40
1.0
176
     1
 90
        1
176
     1
 90
        6
176
     1
 90
        2
176
     1
 62
     7
176
     1
 90
        5
176
     1
 90
        0
176
     1
 90
        0
176
     1
290
     0
176
     1
 90
       13
176
     1
 40
0.0
176
     1
 90
        0
176
     1
290
     0
176
     1
290
     1
176
     1
290
     1
176
     1
290
     0
176
     1
290
     0
176
     1
290
     0
176
     1
290
     0
176
     1
290
     0
176
     1
290
     0
176
     1
 90
       50
176
     1
 40
0.0
176
     1
 40
1.0
176
     1
 90
        0
176
     1
 62
    18
420
        0
176
     1
 90
       50
176
     1
 90
        3
176
     1
 62
     5
420
      255
176
     1
290
     0
176
     1
 90
       50
176
     1
 90
       50
176
     1
 90
       50
176
     1
290
     0
176
     1
 90
       50
176
     1
 62
   256
176
     0
 40
1.0
176
     0
 90
        2
176
     1
  1
strokes_ogs.tif
176
     1
290
     0
176
     1
 40
1.0
176
     1
 40
1.0
176
     1
  0
VISUALSTYLE
  5
3F5
102
{ACAD_REACTORS
330
3F1
102
}
330
3F1
100
AcDbVisualStyle
  2
GouraudWithEdges
 70
     3
177
     3
291
     1
 70
    58
 90
        2
176
     1
 90
        2
176
     1
 90
        1
176
     1
 90
        2
176
     1
 40
0.6
176
     1
 40
30.0
176
     1
 62
     7
420
 16777215
176
     1
 90
        1
176
     1
 90
        0
176
     1
 62
     7
176
     1
 62
   257
176
     1
 90
        1
176
     1
 90
        1
176
     1
 40
1.0
176
     1
 90
        0
176
     1
 62
   257
176
     1
 40
1.0
176
     1
 90
        1
176
     1
 90
        6
176
     1
 90
        2
176
     1
 62
     7
176
     1
 90
        5
176
     1
 90
        0
176
     1
 90
        0
176
     1
290
     0
176
     1
 90
       13
176
     1
 40
0.0
176
     1
 90
        0
176
     1
290
     0
176
     1
290
     1
176
     1
290
     1
176
     1
290
     0
176
     1
290
     0
176
     1
290
     0
176
     1
290
     0
176
     1
290
     0
176
     1
290
     0
176
     1
 90
       50
176
     1
 40
0.0
176
     1
 40
1.0
176
     1
 90
        0
176
     1
 62
    18
420
        0
176
     1
 90
       50
176
     1
 90
        3
176
     1
 62
     5
420
      255
176
     1
290
     0
176
     1
 90
       50
176
     1
 90
       50
176
     1
 90
       50
176
     1
290
     0
176
     1
 90
       50
176
     1
 62
   256
176
     0
 40
1.0
176
     0
 90
        2
176
     1
  1
strokes_ogs.tif
176
     1
290
     0
176
     1
 40
1.0
176
     1
 40
1.0
176
     1
  0
VISUALSTYLE
  5
3F9
102
{ACAD_REACTORS
330
3F1
102
}
330
3F1
100
AcDbVisualStyle
  2
Hidden
 70
     6
177
     3
291
     0
 70
    58
 90
        1
176
     1
 90
        2
176
     1
 90
        2
176
     1
 90
        0
176
     1
 40
0.6
176
     1
 40
30.0
176
     1
 62
     7
420
 16777215
176
     1
 90
        2
176
     1
 90
        2
176
     1
 62
     7
176
     1
 62
   257
176
     1
 90
        2
176
     1
 90
        1
176
     1
 40
40.0
176
     1
 90
        0
176
     1
 62
   257
176
     1
 40
1.0
176
     1
 90
        1
176
     1
 90
        6
176
     1
 90
        2
176
     1
 62
     7
176
     1
 90
        3
176
     1
 90
        0
176
     1
 90
        0
176
     1
290
     0
176
     1
 90
        1
176
     1
 40
0.0
176
     1
 90
        0
176
     1
290
     0
176
     1
290
     1
176
     1
290
     1
176
     1
290
     0
176
     1
290
     0
176
     1
290
     0
176
     1
290
     0
176
     1
290
     0
176
     1
290
     0
176
     1
 90
       50
176
     1
 40
0.0
176
     1
 40
1.0
176
     1
 90
        0
176
     1
 62
    18
420
        0
176
     1
 90
       50
176
     1
 90
        3
176
     1
 62
     5
420
      255
176
     1
290
     0
176
     1
 90
       50
176
     1
 90
       50
176
     1
 90
       50
176
     1
290
     0
176
     1
 90
       50
176
     1
 62
   256
176
     0
 40
1.0
176
     0
 90
        2
176
     1
  1
strokes_ogs.tif
176
     1
290
     0
176
     1
 40
1.0
176
     1
 40
1.0
176
     1
  0
VISUALSTYLE
  5
407
102
{ACAD_REACTORS
330
3F1
102
}
330
3F1
100
AcDbVisualStyle
  2
JitterOff
 70
    20
177
     3
291
     1
 70
    58
 90
        2
176
     0
 90
        2
176
     0
 90
        0
176
     0
 90
        0
176
     0
 40
0.6
176
     0
 40
30.0
176
     0
 62
     7
420
 16777215
176
     0
 90
        1
176
     0
 90
        4
176
     0
 62
     7
176
     0
 62
   257
176
     0
 90
        1
176
     0
 90
        1
176
     0
 40
1.0
176
     0
 90
       10
176
     2
 62
     7
176
     0
 40
1.0
176
     0
 90
        1
176
     0
 90
        6
176
     0
 90
        2
176
     0
 62
     7
176
     0
 90
        5
176
     0
 90
        0
176
     0
 90
        0
176
     0
290
     0
176
     0
 90
        1
176
     0
 40
0.0
176
     0
 90
        0
176
     0
290
     0
176
     1
290
     1
176
     1
290
     1
176
     1
290
     0
176
     1
290
     0
176
     1
290
     0
176
     1
290
     0
176
     1
290
     0
176
     1
290
     0
176
     1
 90
       50
176
     0
 40
0.0
176
     0
 40
1.0
176
     0
 90
        0
176
     0
 62
    18
420
        0
176
     0
 90
       50
176
     0
 90
        3
176
     0
 62
     5
420
      255
176
     0
290
     0
176
     1
 90
       50
176
     0
 90
       50
176
     0
 90
       50
176
     0
290
     0
176
     1
 90
       50
176
     0
 62
   256
176
     0
 40
1.0
176
     0
 90
        2
176
     0
  1
strokes_ogs.tif
176
     0
290
     0
176
     1
 40
1.0
176
     0
 40
1.0
176
     0
  0
VISUALSTYLE
  5
3FF
102
{ACAD_REACTORS
330
3F1
102
}
330
3F1
100
AcDbVisualStyle
  2
Linepattern
 70
    14
177
     3
291
     1
 70
    58
 90
        2
176
     1
 90
        2
176
     1
 90
        0
176
     1
 90
        0
176
     1
 40
0.6
176
     1
 40
30.0
176
     1
 62
     7
420
 16777215
176
     1
 90
        1
176
     1
 90
        4
176
     1
 62
     7
176
     1
 62
   257
176
     1
 90
        7
176
     1
 90
        7
176
     1
 40
1.0
176
     1
 90
        8
176
     1
 62
     7
176
     1
 40
1.0
176
     1
 90
        1
176
     1
 90
        6
176
     1
 90
        2
176
     1
 62
     7
176
     1
 90
        5
176
     1
 90
        0
176
     1
 90
        0
176
     1
290
     0
176
     1
 90
        1
176
     1
 40
0.0
176
     1
 90
        0
176
     1
290
     0
176
     1
290
     1
176
     1
290
     1
176
     1
290
     0
176
     1
290
     0
176
     1
290
     0
176
     1
290
     0
176
     1
290
     0
176
     1
290
     0
176
     1
 90
       50
176
     1
 40
0.0
176
     1
 40
1.0
176
     1
 90
        0
176
     1
 62
    18
420
        0
176
     1
 90
       50
176
     1
 90
        3
176
     1
 62
     5
420
      255
176
     1
290
     0
176
     1
 90
       50
176
     1
 90
       50
176
     1
 90
       50
176
     1
290
     0
176
     1
 90
       50
176
     1
 62
   256
176
     0
 40
1.0
176
     0
 90
        2
176
     1
  1
strokes_ogs.tif
176
     1
290
     0
176
     1
 40
1.0
176
     1
 40
1.0
176
     1
  0
VISUALSTYLE
  5
408
102
{ACAD_REACTORS
330
3F1
102
}
330
3F1
100
AcDbVisualStyle
  2
OverhangOff
 70
    21
177
     3
291
     1
 70
    58
 90
        2
176
     0
 90
        2
176
     0
 90
        0
176
     0
 90
        0
176
     0
 40
0.6
176
     0
 40
30.0
176
     0
 62
     7
420
 16777215
176
     0
 90
        1
176
     0
 90
        4
176
     0
 62
     7
176
     0
 62
   257
176
     0
 90
        1
176
     0
 90
        1
176
     0
 40
1.0
176
     0
 90
        9
176
     2
 62
     7
176
     0
 40
1.0
176
     0
 90
        1
176
     0
 90
        6
176
     0
 90
        2
176
     0
 62
     7
176
     0
 90
        5
176
     0
 90
        0
176
     0
 90
        0
176
     0
290
     0
176
     0
 90
        1
176
     0
 40
0.0
176
     0
 90
        0
176
     0
290
     0
176
     1
290
     1
176
     1
290
     1
176
     1
290
     0
176
     1
290
     0
176
     1
290
     0
176
     1
290
     0
176
     1
290
     0
176
     1
290
     0
176
     1
 90
       50
176
     0
 40
0.0
176
     0
 40
1.0
176
     0
 90
        0
176
     0
 62
    18
420
        0
176
     0
 90
       50
176
     0
 90
        3
176
     0
 62
     5
420
      255
176
     0
290
     0
176
     1
 90
       50
176
     0
 90
       50
176
     0
 90
       50
176
     0
290
     0
176
     1
 90
       50
176
     0
 62
   256
176
     0
 40
1.0
176
     0
 90
        2
176
     0
  1
strokes_ogs.tif
176
     0
290
     0
176
     1
 40
1.0
176
     0
 40
1.0
176
     0
  0
VISUALSTYLE
  5
3FB
102
{ACAD_REACTORS
330
3F1
102
}
330
3F1
100
AcDbVisualStyle
  2
Realistic
 70
     8
177
     3
291
     0
 70
    58
 90
        2
176
     1
 90
        3
176
     1
 90
        0
176
     1
 90
        2
176
     1
 40
0.6
176
     1
 40
30.0
176
     1
 62
     7
420
 16777215
176
     1
 90
        0
176
     1
 90
        0
176
     1
 62
     7
176
     1
 62
   257
176
     1
 90
        1
176
     1
 90
        1
176
     1
 40
1.0
176
     1
 90
        8
176
     1
 62
   257
176
     1
 40
1.0
176
     1
 90
        1
176
     1
 90
        6
176
     1
 90
        2
176
     1
 62
     7
176
     1
 90
        3
176
     1
 90
        0
176
     1
 90
        0
176
     1
290
     0
176
     1
 90
       13
176
     1
 40
0.0
176
     1
 90
        0
176
     1
290
     0
176
     1
290
     1
176
     1
290
     1
176
     1
290
     0
176
     1
290
     0
176
     1
290
     0
176
     1
290
     0
176
     1
290
     0
176
     1
290
     0
176
     1
 90
       50
176
     1
 40
0.0
176
     1
 40
1.0
176
     1
 90
        0
176
     1
 62
    18
420
        0
176
     1
 90
       50
176
     1
 90
        3
176
     1
 62
     5
420
      255
176
     1
290
     0
176
     1
 90
       50
176
     1
 90
       50
176
     1
 90
       50
176
     1
290
     0
176
     1
 90
       50
176
     1
 62
   256
176
     0
 40
1.0
176
     0
 90
        2
176
     1
  1
strokes_ogs.tif
176
     1
290
     0
176
     1
 40
1.0
176
     1
 40
1.0
176
     1
  0
VISUALSTYLE
  5
406
102
{ACAD_REACTORS
330
3F1
102
}
330
3F1
100
AcDbVisualStyle
  2
Shaded
 70
    27
177
     3
291
     0
 70
    58
 90
        2
176
     1
 90
        2
176
     1
 90
        1
176
     1
 90
        2
176
     1
 40
0.6
176
     1
 40
30.0
176
     1
 62
     7
420
 16777215
176
     1
 90
        0
176
     1
 90
        4
176
     1
 62
     7
176
     1
 62
   257
176
     1
 90
        1
176
     1
 90
        1
176
     1
 40
1.0
176
     1
 90
        8
176
     1
 62
   257
176
     1
 40
1.0
176
     1
 90
        1
176
     1
 90
        6
176
     1
 90
        2
176
     1
 62
     8
420
  7895160
176
     1
 90
        3
176
     1
 90
        0
176
     1
 90
        0
176
     1
290
     0
176
     1
 90
        5
176
     1
 40
0.0
176
     1
 90
        0
176
     1
290
     0
176
     1
290
     1
176
     1
290
     1
176
     1
290
     0
176
     1
290
     0
176
     1
290
     0
176
     1
290
     0
176
     1
290
     0
176
     1
290
     0
176
     1
 90
       50
176
     1
 40
0.0
176
     1
 40
1.0
176
     1
 90
        0
176
     1
 62
    18
420
        0
176
     1
 90
       50
176
     1
 90
        3
176
     1
 62
     5
420
      255
176
     1
290
     0
176
     1
 90
       50
176
     1
 90
       50
176
     1
 90
       50
176
     1
290
     0
176
     1
 90
       50
176
     1
 62
   256
176
     0
 40
1.0
176
     0
 90
        2
176
     1
  1
strokes_ogs.tif
176
     1
290
     0
176
     1
 40
1.0
176
     1
 40
1.0
176
     1
  0
VISUALSTYLE
  5
405
102
{ACAD_REACTORS
330
3F1
102
}
330
3F1
100
AcDbVisualStyle
  2
Shaded with edges
 70
    26
177
     3
291
     0
 70
    58
 90
        2
176
     1
 90
        2
176
     1
 90
        1
176
     1
 90
        2
176
     1
 40
0.6
176
     1
 40
30.0
176
     1
 62
     7
420
 16777215
176
     1
 90
        1
176
     1
 90
        2
176
     1
 62
     7
176
     1
 62
   257
176
     1
 90
        2
176
     1
 90
        1
176
     1
 40
1.0
176
     1
 90
        8
176
     1
 62
   257
176
     1
 40
1.0
176
     1
 90
        1
176
     1
 90
        6
176
     1
 90
        2
176
     1
 62
     7
176
     1
 90
        3
176
     1
 90
        0
176
     1
 90
        0
176
     1
290
     0
176
     1
 90
        5
176
     1
 40
0.0
176
     1
 90
        0
176
     1
290
     0
176
     1
290
     1
176
     1
290
     1
176
     1
290
     0
176
     1
290
     0
176
     1
290
     0
176
     1
290
     0
176
     1
290
     0
176
     1
290
     0
176
     1
 90
       50
176
     1
 40
0.0
176
     1
 40
1.0
176
     1
 90
        0
176
     1
 62
    18
420
        0
176
     1
 90
       50
176
     1
 90
        3
176
     1
 62
     5
420
      255
176
     1
290
     0
176
     1
 90
       50
176
     1
 90
       50
176
     1
 90
       50
176
     1
290
     0
176
     1
 90
       50
176
     1
 62
   256
176
     0
 40
1.0
176
     0
 90
        2
176
     1
  1
strokes_ogs.tif
176
     1
290
     0
176
     1
 40
1.0
176
     1
 40
1.0
176
     1
  0
VISUALSTYLE
  5
402
102
{ACAD_REACTORS
330
3F1
102
}
330
3F1
100
AcDbVisualStyle
  2
Shades of Gray
 70
    23
177
     3
291
     0
 70
    58
 90
        2
176
     1
 90
        2
176
     1
 90
        3
176
     1
 90
        0
176
     1
 40
0.6
176
     1
 40
30.0
176
     1
 62
     7
420
 16777215
176
     1
 90
        2
176
     1
 90
        2
176
     1
 62
     7
176
     1
 62
     7
176
     1
 90
        1
176
     1
 90
        1
176
     1
 40
40.0
176
     1
 90
        8
176
     1
 62
     7
176
     1
 40
1.0
176
     1
 90
        1
176
     1
 90
        6
176
     1
 90
        2
176
     1
 62
     7
176
     1
 90
        3
176
     1
 90
        0
176
     1
 90
        0
176
     1
290
     0
176
     1
 90
        1
176
     1
 40
0.0
176
     1
 90
        0
176
     1
290
     0
176
     1
290
     1
176
     1
290
     1
176
     1
290
     0
176
     1
290
     0
176
     1
290
     0
176
     1
290
     0
176
     1
290
     0
176
     1
290
     0
176
     1
 90
       50
176
     1
 40
0.0
176
     1
 40
1.0
176
     1
 90
        0
176
     1
 62
    18
420
        0
176
     1
 90
       50
176
     1
 90
        3
176
     1
 62
     5
420
      255
176
     1
290
     0
176
     1
 90
       50
176
     1
 90
       50
176
     1
 90
       50
176
     1
290
     0
176
     1
 90
       50
176
     1
 62
   256
176
     0
 40
1.0
176
     0
 90
        2
176
     1
  1
strokes_ogs.tif
176
     1
290
     0
176
     1
 40
1.0
176
     1
 40
1.0
176
     1
  0
VISUALSTYLE
  5
403
102
{ACAD_REACTORS
330
3F1
102
}
330
3F1
100
AcDbVisualStyle
  2
Sketchy
 70
    24
177
     3
291
     0
 70
    58
 90
        1
176
     1
 90
        2
176
     1
 90
        2
176
     1
 90
        0
176
     1
 40
0.6
176
     1
 40
30.0
176
     1
 62
     7
420
 16777215
176
     1
 90
        2
176
     1
 90
        2
176
     1
 62
     7
176
     1
 62
     7
176
     1
 90
        1
176
     1
 90
        1
176
     1
 40
40.0
176
     1
 90
       11
176
     1
 62
     7
176
     1
 40
1.0
176
     1
 90
        1
176
     1
 90
        6
176
     1
 90
        2
176
     1
 62
     7
176
     1
 90
        6
176
     1
 90
        0
176
     1
 90
        0
176
     1
290
     0
176
     1
 90
        1
176
     1
 40
0.0
176
     1
 90
        0
176
     1
290
     0
176
     1
290
     1
176
     1
290
     1
176
     1
290
     0
176
     1
290
     0
176
     1
290
     0
176
     1
290
     0
176
     1
290
     0
176
     1
290
     0
176
     1
 90
       50
176
     1
 40
0.0
176
     1
 40
1.0
176
     1
 90
        0
176
     1
 62
    18
420
        0
176
     1
 90
       50
176
     1
 90
        3
176
     1
 62
     5
420
      255
176
     1
290
     0
176
     1
 90
       50
176
     1
 90
       50
176
     1
 90
       50
176
     1
290
     0
176
     1
 90
       50
176
     1
 62
   256
176
     0
 40
1.0
176
     0
 90
        2
176
     1
  1
strokes_ogs.tif
176
     1
290
     0
176
     1
 40
1.0
176
     1
 40
1.0
176
     1
  0
VISUALSTYLE
  5
3FE
102
{ACAD_REACTORS
330
3F1
102
}
330
3F1
100
AcDbVisualStyle
  2
Thicken
 70
    13
177
     3
291
     1
 70
    58
 90
        2
176
     1
 90
        2
176
     1
 90
        0
176
     1
 90
        0
176
     1
 40
0.6
176
     1
 40
30.0
176
     1
 62
     7
420
 16777215
176
     1
 90
        1
176
     1
 90
        4
176
     1
 62
     7
176
     1
 62
   257
176
     1
 90
        1
176
     1
 90
        1
176
     1
 40
1.0
176
     1
 90
       12
176
     1
 62
     7
176
     1
 40
1.0
176
     1
 90
        1
176
     1
 90
        6
176
     1
 90
        2
176
     1
 62
     7
176
     1
 90
        5
176
     1
 90
        0
176
     1
 90
        0
176
     1
290
     0
176
     1
 90
        1
176
     1
 40
0.0
176
     1
 90
        0
176
     1
290
     0
176
     1
290
     1
176
     1
290
     1
176
     1
290
     0
176
     1
290
     0
176
     1
290
     0
176
     1
290
     0
176
     1
290
     0
176
     1
290
     0
176
     1
 90
       50
176
     1
 40
0.0
176
     1
 40
1.0
176
     1
 90
        0
176
     1
 62
    18
420
        0
176
     1
 90
       50
176
     1
 90
        3
176
     1
 62
     5
420
      255
176
     1
290
     0
176
     1
 90
       50
176
     1
 90
       50
176
     1
 90
       50
176
     1
290
     0
176
     1
 90
       50
176
     1
 62
   256
176
     0
 40
1.0
176
     0
 90
        2
176
     1
  1
strokes_ogs.tif
176
     1
290
     0
176
     1
 40
1.0
176
     1
 40
1.0
176
     1
  0
VISUALSTYLE
  5
3F8
102
{ACAD_REACTORS
330
3F1
102
}
330
3F1
100
AcDbVisualStyle
  2
Wireframe
 70
     5
177
     3
291
     0
 70
    58
 90
        0
176
     1
 90
        2
176
     1
 90
        0
176
     1
 90
        0
176
     1
 40
0.6
176
     1
 40
30.0
176
     1
 62
     7
420
 16777215
176
     1
 90
        1
176
     1
 90
        4
176
     1
 62
     7
176
     1
 62
   257
176
     1
 90
        1
176
     1
 90
        1
176
     1
 40
1.0
176
     1
 90
        0
176
     1
 62
   257
176
     1
 40
1.0
176
     1
 90
        1
176
     1
 90
        6
176
     1
 90
        2
176
     1
 62
     7
176
     1
 90
        3
176
     1
 90
        0
176
     1
 90
        0
176
     1
290
     0
176
     1
 90
        1
176
     1
 40
0.0
176
     1
 90
        0
176
     1
290
     0
176
     1
290
     1
176
     1
290
     1
176
     1
290
     0
176
     1
290
     0
176
     1
290
     0
176
     1
290
     0
176
     1
290
     0
176
     1
290
     0
176
     1
 90
       50
176
     1
 40
0.0
176
     1
 40
1.0
176
     1
 90
        0
176
     1
 62
    18
420
        0
176
     1
 90
       50
176
     1
 90
        3
176
     1
 62
     5
420
      255
176
     1
290
     0
176
     1
 90
       50
176
     1
 90
       50
176
     1
 90
       50
176
     1
290
     0
176
     1
 90
       50
176
     1
 62
   256
176
     0
 40
1.0
176
     0
 90
        2
176
     1
  1
strokes_ogs.tif
176
     1
290
     0
176
     1
 40
1.0
176
     1
 40
1.0
176
     1
  0
VISUALSTYLE
  5
404
102
{ACAD_REACTORS
330
3F1
102
}
330
3F1
100
AcDbVisualStyle
  2
X-Ray
 70
    25
177
     3
291
     0
 70
    58
 90
        2
176
     1
 90
        2
176
     1
 90
        1
176
     1
 90
        1
176
     1
 40
0.5
176
     1
 40
30.0
176
     1
 62
     7
420
 16777215
176
     1
 90
        1
176
     1
 90
        0
176
     1
 62
     7
176
     1
 62
   257
176
     1
 90
        1
176
     1
 90
        1
176
     1
 40
1.0
176
     1
 90
        8
176
     1
 62
     7
176
     1
 40
1.0
176
     1
 90
        1
176
     1
 90
        6
176
     1
 90
        2
176
     1
 62
     7
176
     1
 90
        3
176
     1
 90
        0
176
     1
 90
        0
176
     1
290
     0
176
     1
 90
       13
176
     1
 40
0.0
176
     1
 90
        0
176
     1
290
     0
176
     1
290
     1
176
     1
290
     1
176
     1
290
     0
176
     1
290
     0
176
     1
290
     0
176
     1
290
     0
176
     1
290
     0
176
     1
290
     0
176
     1
 90
       50
176
     1
 40
0.0
176
     1
 40
1.0
176
     1
 90
        0
176
     1
 62
    18
420
        0
176
     1
 90
       50
176
     1
 90
        3
176
     1
 62
     5
420
      255
176
     1
290
     0
176
     1
 90
       50
176
     1
 90
       50
176
     1
 90
       50
176
     1
290
     0
176
     1
 90
       50
176
     1
 62
   256
176
     0
 40
1.0
176
     0
 90
        2
176
     1
  1
strokes_ogs.tif
176
     1
290
     0
176
     1
 40
1.0
176
     1
 40
1.0
176
     1
  0
DICTIONARYVAR
  5
41D
102
{ACAD_REACTORS
330
417
102
}
330
417
100
DictionaryVariables
280
     0
  1
1:1
  0
DICTIONARYVAR
  5
419
102
{ACAD_REACTORS
330
417
102
}
330
417
100
DictionaryVariables
280
     0
  1
STANDARD
  0
DICTIONARYVAR
  5
418
102
{ACAD_REACTORS
330
417
102
}
330
417
100
DictionaryVariables
280
     0
  1
STANDARD
  0
DICTIONARYVAR
  5
41A
102
{ACAD_REACTORS
330
417
102
}
330
417
100
DictionaryVariables
280
     0
  1
Metric50
  0
DICTIONARYVAR
  5
41B
102
{ACAD_REACTORS
330
417
102
}
330
417
100
DictionaryVariables
280
     0
  1
Metric50
  0
DICTIONARYVAR
  5
41F
102
{ACAD_REACTORS
330
417
102
}
330
417
100
DictionaryVariables
280
     0
  1
1
  0
DICTIONARYVAR
  5
420
102
{ACAD_REACTORS
330
417
102
}
330
417
100
DictionaryVariables
280
     0
  1
15
  0
DICTIONARYVAR
  5
41E
102
{ACAD_REACTORS
330
417
102
}
330
417
100
DictionaryVariables
280
     0
  1
0
  0
DICTIONARYVAR
  5
41C
102
{ACAD_REACTORS
330
417
102
}
330
417
100
DictionaryVariables
280
     0
  1
0
  0
DICTIONARY
  5
484
102
{ACAD_REACTORS
330
483
102
}
330
483
100
AcDbDictionary
281
     1
  3
*A1
350
485
  0
DICTIONARY
  5
476
102
{ACAD_REACTORS
330
475
102
}
330
475
100
AcDbDictionary
281
     1
  3
*A1
350
477
  0
DICTIONARY
  5
468
102
{ACAD_REACTORS
330
467
102
}
330
467
100
AcDbDictionary
281
     1
  3
*A1
350
469
  0
DICTIONARY
  5
45A
102
{ACAD_REACTORS
330
459
102
}
330
459
100
AcDbDictionary
281
     1
  3
*A1
350
45B
  0
DICTIONARY
  5
49F
102
{ACAD_REACTORS
330
49E
102
}
330
49E
100
AcDbDictionary
281
     1
  3
*A1
350
4A0
  0
DICTIONARY
  5
3E2
330
3E1
100
AcDbDictionary
280
     1
281
     1
  3
BUMPTILE
360
3E4
  3
DIFFUSETILE
360
3E3
  3
OPACITYTILE
360
3E7
  3
REFLECTIONTILE
360
3E6
  3
REFRACTIONTILE
360
3E8
  3
SPECULARTILE
360
3E5
  0
DICTIONARY
  5
3DA
330
3D9
100
AcDbDictionary
280
     1
281
     1
  3
BUMPTILE
360
3DC
  3
DIFFUSETILE
360
3DB
  3
OPACITYTILE
360
3DF
  3
REFLECTIONTILE
360
3DE
  3
REFRACTIONTILE
360
3E0
  3
SPECULARTILE
360
3DD
  0
DICTIONARY
  5
3EA
330
3E9
100
AcDbDictionary
280
     1
281
     1
  3
BUMPTILE
360
3EC
  3
DIFFUSETILE
360
3EB
  3
OPACITYTILE
360
3EF
  3
REFLECTIONTILE
360
3EE
  3
REFRACTIONTILE
360
3F0
  3
SPECULARTILE
360
3ED
  0
DICTIONARY
  5
4B5
330
40C
100
AcDbDictionary
280
     1
281
     1
  3
ACAD_ROUNDTRIP_2008_TABLESTYLE_CELLSTYLEMAP
360
4B6
  0
ACDB_ALDIMOBJECTCONTEXTDATA_CLASS
  5
485
102
{ACAD_REACTORS
330
484
102
}
330
484
100
AcDbObjectContextData
 70
     4
290
     1
100
AcDbAnnotScaleObjectContextData
340
48
100
AcDbDimensionObjectContextData
  2
*D12
293
     0
 10
12.5287594386
 20
64.01723519749999
294
     0
140
0.0
298
     0
291
     0
 70
     0
292
     0
 71
     0
280
     0
295
     0
296
     0
297
     0
100
AcDbAlignedDimensionObjectContextData
 11
12.52875943859997
 21
103.9689521012
 31
0.0
  0
ACDB_ALDIMOBJECTCONTEXTDATA_CLASS
  5
477
102
{ACAD_REACTORS
330
476
102
}
330
476
100
AcDbObjectContextData
 70
     4
290
     1
100
AcDbAnnotScaleObjectContextData
340
48
100
AcDbDimensionObjectContextData
  2
*D11
293
     0
 10
170.0577028393
 20
135.4825455175
294
     0
140
0.0
298
     0
291
     0
 70
     0
292
     0
 71
     0
280
     0
295
     0
296
     0
297
     0
100
AcDbAlignedDimensionObjectContextData
 11
190.9137652072
 21
135.4825455175
 31
0.0
  0
ACDB_ALDIMOBJECTCONTEXTDATA_CLASS
  5
469
102
{ACAD_REACTORS
330
468
102
}
330
468
100
AcDbObjectContextData
 70
     4
290
     1
100
AcDbAnnotScaleObjectContextData
340
48
100
AcDbDimensionObjectContextData
  2
*D10
293
     0
 10
373.1211352544999
 20
4.4174967969
294
     0
140
0.0
298
     0
291
     0
 70
     0
292
     0
 71
     0
280
     0
295
     0
296
     0
297
     0
100
AcDbAlignedDimensionObjectContextData
 11
469.7111548156
 21
4.4174967969
 31
0.0
  0
ACDB_ALDIMOBJECTCONTEXTDATA_CLASS
  5
45B
102
{ACAD_REACTORS
330
45A
102
}
330
45A
100
AcDbObjectContextData
 70
     4
290
     1
100
AcDbAnnotScaleObjectContextData
340
48
100
AcDbDimensionObjectContextData
  2
*D9
293
     0
 10
117.4951825293
 20
396.123937184
294
     0
140
0.0
298
     0
291
     0
 70
     0
292
     0
 71
     0
280
     0
295
     0
296
     0
297
     0
100
AcDbAlignedDimensionObjectContextData
 11
208.5287594386
 21
396.123937184
 31
0.0
  0
ACDB_ALDIMOBJECTCONTEXTDATA_CLASS
  5
4A0
102
{ACAD_REACTORS
330
49F
102
}
330
49F
100
AcDbObjectContextData
 70
     4
290
     1
100
AcDbAnnotScaleObjectContextData
340
48
100
AcDbDimensionObjectContextData
  2
*D14
293
     0
 10
364.4611548156
 20
145.3470066780849
294
     1
140
0.0
298
     0
291
     0
 70
     0
292
     0
 71
     0
280
     0
295
     0
296
     0
297
     0
100
AcDbAlignedDimensionObjectContextData
 11
469.7111548156
 21
137.3470066780849
 31
0.0
  0
XRECORD
  5
3E4
102
{ACAD_REACTORS
330
3E2
102
}
330
3E2
100
AcDbXrecord
280
     1
270
     1
271
     1
  0
XRECORD
  5
3E3
102
{ACAD_REACTORS
330
3E2
102
}
330
3E2
100
AcDbXrecord
280
     1
270
     1
271
     1
  0
XRECORD
  5
3E7
102
{ACAD_REACTORS
330
3E2
102
}
330
3E2
100
AcDbXrecord
280
     1
270
     1
271
     1
  0
XRECORD
  5
3E6
102
{ACAD_REACTORS
330
3E2
102
}
330
3E2
100
AcDbXrecord
280
     1
270
     1
271
     1
  0
XRECORD
  5
3E8
102
{ACAD_REACTORS
330
3E2
102
}
330
3E2
100
AcDbXrecord
280
     1
270
     1
271
     1
  0
XRECORD
  5
3E5
102
{ACAD_REACTORS
330
3E2
102
}
330
3E2
100
AcDbXrecord
280
     1
270
     1
271
     1
  0
XRECORD
  5
3DC
102
{ACAD_REACTORS
330
3DA
102
}
330
3DA
100
AcDbXrecord
280
     1
270
     1
271
     1
  0
XRECORD
  5
3DB
102
{ACAD_REACTORS
330
3DA
102
}
330
3DA
100
AcDbXrecord
280
     1
270
     1
271
     1
  0
XRECORD
  5
3DF
102
{ACAD_REACTORS
330
3DA
102
}
330
3DA
100
AcDbXrecord
280
     1
270
     1
271
     1
  0
XRECORD
  5
3DE
102
{ACAD_REACTORS
330
3DA
102
}
330
3DA
100
AcDbXrecord
280
     1
270
     1
271
     1
  0
XRECORD
  5
3E0
102
{ACAD_REACTORS
330
3DA
102
}
330
3DA
100
AcDbXrecord
280
     1
270
     1
271
     1
  0
XRECORD
  5
3DD
102
{ACAD_REACTORS
330
3DA
102
}
330
3DA
100
AcDbXrecord
280
     1
270
     1
271
     1
  0
XRECORD
  5
3EC
102
{ACAD_REACTORS
330
3EA
102
}
330
3EA
100
AcDbXrecord
280
     1
270
     1
271
     1
  0
XRECORD
  5
3EB
102
{ACAD_REACTORS
330
3EA
102
}
330
3EA
100
AcDbXrecord
280
     1
270
     1
271
     1
  0
XRECORD
  5
3EF
102
{ACAD_REACTORS
330
3EA
102
}
330
3EA
100
AcDbXrecord
280
     1
270
     1
271
     1
  0
XRECORD
  5
3EE
102
{ACAD_REACTORS
330
3EA
102
}
330
3EA
100
AcDbXrecord
280
     1
270
     1
271
     1
  0
XRECORD
  5
3F0
102
{ACAD_REACTORS
330
3EA
102
}
330
3EA
100
AcDbXrecord
280
     1
270
     1
271
     1
  0
XRECORD
  5
3ED
102
{ACAD_REACTORS
330
3EA
102
}
330
3EA
100
AcDbXrecord
280
     1
270
     1
271
     1
  0
CELLSTYLEMAP
  5
4B6
102
{ACAD_REACTORS
330
4B5
102
}
330
4B5
100
AcDbCellStyleMap
 90
        3
300
CELLSTYLE
  1
TABLEFORMAT_BEGIN
 90
        5
170
     1
 91
        0
 92
    32768
 62
   257
 93
        1
300
CONTENTFORMAT
  1
CONTENTFORMAT_BEGIN
 90
        0
 91
        0
 92
      512
 93
        0
300

 40
0.0
140
1.0
 94
        5
 62
     0
340
11
144
6.0
309
CONTENTFORMAT_END
171
     1
301
MARGIN
  1
CELLMARGIN_BEGIN
 40
1.5
 40
1.5
 40
1.5
 40
1.5
 40
4.5
 40
4.5
309
CELLMARGIN_END
 94
        6
 95
        1
302
GRIDFORMAT
  1
GRIDFORMAT_BEGIN
 90
        0
 91
        1
 62
     0
 92
       -2
340
0
 93
        0
 40
1.125
309
GRIDFORMAT_END
 95
        2
302
GRIDFORMAT
  1
GRIDFORMAT_BEGIN
 90
        0
 91
        1
 62
     0
 92
       -2
340
0
 93
        0
 40
1.125
309
GRIDFORMAT_END
 95
        4
302
GRIDFORMAT
  1
GRIDFORMAT_BEGIN
 90
        0
 91
        1
 62
     0
 92
       -2
340
0
 93
        0
 40
1.125
309
GRIDFORMAT_END
 95
        8
302
GRIDFORMAT
  1
GRIDFORMAT_BEGIN
 90
        0
 91
        1
 62
     0
 92
       -2
340
0
 93
        0
 40
1.125
309
GRIDFORMAT_END
 95
       16
302
GRIDFORMAT
  1
GRIDFORMAT_BEGIN
 90
        0
 91
        1
 62
     0
 92
       -2
340
0
 93
        0
 40
1.125
309
GRIDFORMAT_END
 95
       32
302
GRIDFORMAT
  1
GRIDFORMAT_BEGIN
 90
        0
 91
        1
 62
     0
 92
       -2
340
0
 93
        0
 40
1.125
309
GRIDFORMAT_END
309
TABLEFORMAT_END
  1
CELLSTYLE_BEGIN
 90
        1
 91
        1
300
_TITLE
309
CELLSTYLE_END
300
CELLSTYLE
  1
TABLEFORMAT_BEGIN
 90
        5
170
     1
 91
        0
 92
        0
 62
   257
 93
        1
300
CONTENTFORMAT
  1
CONTENTFORMAT_BEGIN
 90
        0
 91
        0
 92
      512
 93
        0
300

 40
0.0
140
1.0
 94
        5
 62
     0
340
11
144
4.5
309
CONTENTFORMAT_END
171
     1
301
MARGIN
  1
CELLMARGIN_BEGIN
 40
1.5
 40
1.5
 40
1.5
 40
1.5
 40
4.5
 40
4.5
309
CELLMARGIN_END
 94
        6
 95
        1
302
GRIDFORMAT
  1
GRIDFORMAT_BEGIN
 90
        0
 91
        1
 62
     0
 92
       -2
340
0
 93
        0
 40
1.125
309
GRIDFORMAT_END
 95
        2
302
GRIDFORMAT
  1
GRIDFORMAT_BEGIN
 90
        0
 91
        1
 62
     0
 92
       -2
340
0
 93
        0
 40
1.125
309
GRIDFORMAT_END
 95
        4
302
GRIDFORMAT
  1
GRIDFORMAT_BEGIN
 90
        0
 91
        1
 62
     0
 92
       -2
340
0
 93
        0
 40
1.125
309
GRIDFORMAT_END
 95
        8
302
GRIDFORMAT
  1
GRIDFORMAT_BEGIN
 90
        0
 91
        1
 62
     0
 92
       -2
340
0
 93
        0
 40
1.125
309
GRIDFORMAT_END
 95
       16
302
GRIDFORMAT
  1
GRIDFORMAT_BEGIN
 90
        0
 91
        1
 62
     0
 92
       -2
340
0
 93
        0
 40
1.125
309
GRIDFORMAT_END
 95
       32
302
GRIDFORMAT
  1
GRIDFORMAT_BEGIN
 90
        0
 91
        1
 62
     0
 92
       -2
340
0
 93
        0
 40
1.125
309
GRIDFORMAT_END
309
TABLEFORMAT_END
  1
CELLSTYLE_BEGIN
 90
        2
 91
        1
300
_HEADER
309
CELLSTYLE_END
300
CELLSTYLE
  1
TABLEFORMAT_BEGIN
 90
        5
170
     1
 91
        0
 92
        0
 62
   257
 93
        1
300
CONTENTFORMAT
  1
CONTENTFORMAT_BEGIN
 90
        0
 91
        0
 92
      512
 93
        0
300

 40
0.0
140
1.0
 94
        2
 62
     0
340
11
144
4.5
309
CONTENTFORMAT_END
171
     1
301
MARGIN
  1
CELLMARGIN_BEGIN
 40
1.5
 40
1.5
 40
1.5
 40
1.5
 40
4.5
 40
4.5
309
CELLMARGIN_END
 94
        6
 95
        1
302
GRIDFORMAT
  1
GRIDFORMAT_BEGIN
 90
        0
 91
        1
 62
     0
 92
       -2
340
0
 93
        0
 40
1.125
309
GRIDFORMAT_END
 95
        2
302
GRIDFORMAT
  1
GRIDFORMAT_BEGIN
 90
        0
 91
        1
 62
     0
 92
       -2
340
0
 93
        0
 40
1.125
309
GRIDFORMAT_END
 95
        4
302
GRIDFORMAT
  1
GRIDFORMAT_BEGIN
 90
        0
 91
        1
 62
     0
 92
       -2
340
0
 93
        0
 40
1.125
309
GRIDFORMAT_END
 95
        8
302
GRIDFORMAT
  1
GRIDFORMAT_BEGIN
 90
        0
 91
        1
 62
     0
 92
       -2
340
0
 93
        0
 40
1.125
309
GRIDFORMAT_END
 95
       16
302
GRIDFORMAT
  1
GRIDFORMAT_BEGIN
 90
        0
 91
        1
 62
     0
 92
       -2
340
0
 93
        0
 40
1.125
309
GRIDFORMAT_END
 95
       32
302
GRIDFORMAT
  1
GRIDFORMAT_BEGIN
 90
        0
 91
        1
 62
     0
 92
       -2
340
0
 93
        0
 40
1.125
309
GRIDFORMAT_END
309
TABLEFORMAT_END
  1
CELLSTYLE_BEGIN
 90
        3
 91
        2
300
_DATA
309
CELLSTYLE_END
  0
ENDSEC
  0
EOF
