  0
SECTION
  2
HEADER
  9
$ACADVER
  1
AC1027
  9
$ACADMAINTVER
 70
   125
  9
$DWGCODEPAGE
  3
ANSI_1252
  9
$LASTSAVEDBY
  1
fleminab
  9
$REQUIREDVERSIONS
160
                 0
  9
$INSBASE
 10
0.0
 20
0.0
 30
0.0
  9
$EXTMIN
 10
5261.619466498425
 20
-3460.710559920541
 30
-0.0000000000000058
  9
$EXTMAX
 10
6650.205835378172
 20
-2542.155025982959
 30
0.0000000000000104
  9
$LIMMIN
 10
0.0
 20
0.0
  9
$LIMMAX
 10
297.0
 20
210.0
  9
$ORTHOMODE
 70
     1
  9
$REGENMODE
 70
     1
  9
$FILLMODE
 70
     1
  9
$QTEXTMODE
 70
     0
  9
$MIRRTEXT
 70
     1
  9
$LTSCALE
 40
1.0
  9
$ATTMODE
 70
     1
  9
$TEXTSIZE
 40
2.5
  9
$TRACEWID
 40
1.0
  9
$TEXTSTYLE
  7
Standard
  9
$CLAYER
  8
尺寸线
  9
$CELTYPE
  6
ByLayer
  9
$CECOLOR
 62
   256
  9
$CELTSCALE
 40
1.0
  9
$DISPSILH
 70
     0
  9
$DIMSCALE
 40
1.0
  9
$DIMASZ
 40
20.0
  9
$DIMEXO
 40
0.0
  9
$DIMDLI
 40
5.0
  9
$DIMRND
 40
0.0
  9
$DIMDLE
 40
0.0
  9
$DIMEXE
 40
15.0
  9
$DIMTP
 40
0.02
  9
$DIMTM
 40
0.0
  9
$DIMTXT
 40
15.0
  9
$DIMCEN
 40
-1.0
  9
$DIMTSZ
 40
0.0
  9
$DIMTOL
 70
     0
  9
$DIMLIM
 70
     0
  9
$DIMTIH
 70
     0
  9
$DIMTOH
 70
     1
  9
$DIMSE1
 70
     0
  9
$DIMSE2
 70
     0
  9
$DIMTAD
 70
     1
  9
$DIMZIN
 70
     8
  9
$DIMBLK
  1

  9
$DIMASO
 70
     1
  9
$DIMSHO
 70
     1
  9
$DIMPOST
  1

  9
$DIMAPOST
  1

  9
$DIMALT
 70
     0
  9
$DIMALTD
 70
     3
  9
$DIMALTF
 40
0.03937007874016
  9
$DIMLFAC
 40
1.0
  9
$DIMTOFL
 70
     1
  9
$DIMTVP
 40
0.0
  9
$DIMTIX
 70
     0
  9
$DIMSOXD
 70
     0
  9
$DIMSAH
 70
     0
  9
$DIMBLK1
  1

  9
$DIMBLK2
  1

  9
$DIMSTYLE
  2
直线
  9
$DIMCLRD
 70
   256
  9
$DIMCLRE
 70
   256
  9
$DIMCLRT
 70
   256
  9
$DIMTFAC
 40
0.5
  9
$DIMGAP
 40
5.0
  9
$DIMJUST
 70
     0
  9
$DIMSD1
 70
     0
  9
$DIMSD2
 70
     0
  9
$DIMTOLJ
 70
     1
  9
$DIMTZIN
 70
     8
  9
$DIMALTZ
 70
     0
  9
$DIMALTTZ
 70
     0
  9
$DIMUPT
 70
     0
  9
$DIMDEC
 70
     2
  9
$DIMTDEC
 70
     2
  9
$DIMALTU
 70
     2
  9
$DIMALTTD
 70
     3
  9
$DIMTXSTY
  7
Standard
  9
$DIMAUNIT
 70
     0
  9
$DIMADEC
 70
     4
  9
$DIMALTRND
 40
0.0
  9
$DIMAZIN
 70
     2
  9
$DIMDSEP
 70
    46
  9
$DIMATFIT
 70
     3
  9
$DIMFRAC
 70
     0
  9
$DIMLDRBLK
  1

  9
$DIMLUNIT
 70
     2
  9
$DIMLWD
 70
    -1
  9
$DIMLWE
 70
    -1
  9
$DIMTMOVE
 70
     0
  9
$DIMFXL
 40
1.0
  9
$DIMFXLON
 70
     0
  9
$DIMJOGANG
 40
0.7853981633974483
  9
$DIMTFILL
 70
     0
  9
$DIMTFILLCLR
 70
     0
  9
$DIMARCSYM
 70
     0
  9
$DIMLTYPE
  6

  9
$DIMLTEX1
  6

  9
$DIMLTEX2
  6

  9
$DIMTXTDIRECTION
 70
     0
  9
$LUNITS
 70
     2
  9
$LUPREC
 70
     4
  9
$SKETCHINC
 40
1.0
  9
$FILLETRAD
 40
105.0
  9
$AUNITS
 70
     0
  9
$AUPREC
 70
     0
  9
$MENU
  1
.
  9
$ELEVATION
 40
0.0
  9
$PELEVATION
 40
0.0
  9
$THICKNESS
 40
0.0
  9
$LIMCHECK
 70
     0
  9
$CHAMFERA
 40
7.0
  9
$CHAMFERB
 40
7.0
  9
$CHAMFERC
 40
20.0
  9
$CHAMFERD
 40
0.0
  9
$SKPOLY
 70
     0
  9
$TDCREATE
 40
2452648.770821760
  9
$TDUCREATE
 40
2452648.312494039
  9
$TDUPDATE
 40
2458157.378275463
  9
$TDUUPDATE
 40
2458156.919942130
  9
$TDINDWG
 40
9.0040392708
  9
$TDUSRTIMER
 40
9.0040391551
  9
$USRTIMER
 70
     1
  9
$ANGBASE
 50
0.0
  9
$ANGDIR
 70
     0
  9
$PDMODE
 70
     0
  9
$PDSIZE
 40
0.0
  9
$PLINEWID
 40
0.0
  9
$SPLFRAME
 70
     0
  9
$SPLINETYPE
 70
     6
  9
$SPLINESEGS
 70
     8
  9
$HANDSEED
  5
101B645
  9
$SURFTAB1
 70
     6
  9
$SURFTAB2
 70
     6
  9
$SURFTYPE
 70
     6
  9
$SURFU
 70
     6
  9
$SURFV
 70
     6
  9
$UCSBASE
  2

  9
$UCSNAME
  2

  9
$UCSORG
 10
0.0
 20
0.0
 30
0.0
  9
$UCSXDIR
 10
1.0
 20
0.0
 30
0.0
  9
$UCSYDIR
 10
0.0
 20
1.0
 30
0.0
  9
$UCSORTHOREF
  2

  9
$UCSORTHOVIEW
 70
     0
  9
$UCSORGTOP
 10
0.0
 20
0.0
 30
0.0
  9
$UCSORGBOTTOM
 10
0.0
 20
0.0
 30
0.0
  9
$UCSORGLEFT
 10
0.0
 20
0.0
 30
0.0
  9
$UCSORGRIGHT
 10
0.0
 20
0.0
 30
0.0
  9
$UCSORGFRONT
 10
0.0
 20
0.0
 30
0.0
  9
$UCSORGBACK
 10
0.0
 20
0.0
 30
0.0
  9
$PUCSBASE
  2

  9
$PUCSNAME
  2

  9
$PUCSORG
 10
0.0
 20
0.0
 30
0.0
  9
$PUCSXDIR
 10
1.0
 20
0.0
 30
0.0
  9
$PUCSYDIR
 10
0.0
 20
1.0
 30
0.0
  9
$PUCSORTHOREF
  2

  9
$PUCSORTHOVIEW
 70
     0
  9
$PUCSORGTOP
 10
0.0
 20
0.0
 30
0.0
  9
$PUCSORGBOTTOM
 10
0.0
 20
0.0
 30
0.0
  9
$PUCSORGLEFT
 10
0.0
 20
0.0
 30
0.0
  9
$PUCSORGRIGHT
 10
0.0
 20
0.0
 30
0.0
  9
$PUCSORGFRONT
 10
0.0
 20
0.0
 30
0.0
  9
$PUCSORGBACK
 10
0.0
 20
0.0
 30
0.0
  9
$USERI1
 70
     0
  9
$USERI2
 70
     0
  9
$USERI3
 70
     0
  9
$USERI4
 70
     0
  9
$USERI5
 70
     0
  9
$USERR1
 40
0.0
  9
$USERR2
 40
0.0
  9
$USERR3
 40
0.0
  9
$USERR4
 40
0.0
  9
$USERR5
 40
0.0
  9
$WORLDVIEW
 70
     1
  9
$SHADEDGE
 70
     3
  9
$SHADEDIF
 70
    70
  9
$TILEMODE
 70
     1
  9
$MAXACTVP
 70
    64
  9
$PINSBASE
 10
0.0
 20
0.0
 30
0.0
  9
$PLIMCHECK
 70
     0
  9
$PEXTMIN
 10
29.06588899291467
 20
20.36100953846704
 30
-0.0015258207003583
  9
$PEXTMAX
 10
261.637145837612
 20
183.3469901922857
 30
0.0000000349246037
  9
$PLIMMIN
 10
-3.17498779296875
 20
-3.174999952316284
  9
$PLIMMAX
 10
293.8780212402344
 20
206.8829987049103
  9
$UNITMODE
 70
     0
  9
$VISRETAIN
 70
     1
  9
$PLINEGEN
 70
     0
  9
$PSLTSCALE
 70
     1
  9
$TREEDEPTH
 70
  3020
  9
$CMLSTYLE
  2
Standard
  9
$CMLJUST
 70
     0
  9
$CMLSCALE
 40
20.0
  9
$PROXYGRAPHICS
 70
     1
  9
$MEASUREMENT
 70
     1
  9
$CELWEIGHT
370
    -1
  9
$ENDCAPS
280
     0
  9
$JOINSTYLE
280
     0
  9
$LWDISPLAY
290
     0
  9
$INSUNITS
 70
     4
  9
$HYPERLINKBASE
  1

  9
$STYLESHEET
  1
acad.ctb
  9
$XEDIT
290
     1
  9
$CEPSNTYPE
380
     0
  9
$PSTYLEMODE
290
     1
  9
$FINGERPRINTGUID
  2
{FDEAD578-A652-11D2-9A35-0060089B3A3F}
  9
$VERSIONGUID
  2
{C28082F0-C9EC-F743-A5EF-B9A7D00066E0}
  9
$EXTNAMES
290
     1
  9
$PSVPSCALE
 40
0.0
  9
$OLESTARTUP
290
     0
  9
$SORTENTS
280
   127
  9
$INDEXCTL
280
     0
  9
$HIDETEXT
280
     1
  9
$XCLIPFRAME
280
     2
  9
$HALOGAP
280
     0
  9
$OBSCOLOR
 70
   257
  9
$OBSLTYPE
280
     0
  9
$INTERSECTIONDISPLAY
280
     0
  9
$INTERSECTIONCOLOR
 70
   257
  9
$DIMASSOC
280
     2
  9
$PROJECTNAME
  1

  9
$CAMERADISPLAY
290
     0
  9
$LENSLENGTH
 40
50.0
  9
$CAMERAHEIGHT
 40
0.0
  9
$STEPSPERSEC
 40
2.0
  9
$STEPSIZE
 40
6.0
  9
$3DDWFPREC
 40
2.0
  9
$PSOLWIDTH
 40
0.25
  9
$PSOLHEIGHT
 40
4.0
  9
$LOFTANG1
 40
1.570796326794896
  9
$LOFTANG2
 40
1.570796326794896
  9
$LOFTMAG1
 40
0.0
  9
$LOFTMAG2
 40
0.0
  9
$LOFTPARAM
 70
     7
  9
$LOFTNORMALS
280
     1
  9
$LATITUDE
 40
37.795
  9
$LONGITUDE
 40
-122.394
  9
$NORTHDIRECTION
 40
0.0
  9
$TIMEZONE
 70
 -8000
  9
$LIGHTGLYPHDISPLAY
280
     1
  9
$TILEMODELIGHTSYNCH
280
     1
  9
$CMATERIAL
347
198F4
  9
$SOLIDHIST
280
     0
  9
$SHOWHIST
280
     1
  9
$DWFFRAME
280
     2
  9
$DGNFRAME
280
     0
  9
$REALWORLDSCALE
290
     1
  9
$INTERFERECOLOR
 62
     1
  9
$INTERFEREOBJVS
345
19916
  9
$INTERFEREVPVS
346
19913
  9
$CSHADOW
280
     0
  9
$SHADOWPLANELOCATION
 40
0.0
  0
ENDSEC
  0
SECTION
  2
CLASSES
  0
CLASS
  1
ACDBDICTIONARYWDFLT
  2
AcDbDictionaryWithDefault
  3
ObjectDBX Classes
 90
        0
 91
        1
280
     0
281
     0
  0
CLASS
  1
DICTIONARYVAR
  2
AcDbDictionaryVar
  3
ObjectDBX Classes
 90
        0
 91
       21
280
     0
281
     0
  0
CLASS
  1
DIMASSOC
  2
AcDbDimAssoc
  3
"AcDbDimAssoc|Product Desc:     AcDim ARX App For Dimension|Company:          Autodesk, Inc.|WEB Address:      www.autodesk.com"
 90
        0
 91
       10
280
     0
281
     0
  0
CLASS
  1
TABLESTYLE
  2
AcDbTableStyle
  3
ObjectDBX Classes
 90
     4095
 91
        1
280
     0
281
     0
  0
CLASS
  1
SORTENTSTABLE
  2
AcDbSortentsTable
  3
ObjectDBX Classes
 90
        0
 91
        2
280
     0
281
     0
  0
CLASS
  1
MATERIAL
  2
AcDbMaterial
  3
ObjectDBX Classes
 90
     1153
 91
        3
280
     0
281
     0
  0
CLASS
  1
VISUALSTYLE
  2
AcDbVisualStyle
  3
ObjectDBX Classes
 90
     4095
 91
       26
280
     0
281
     0
  0
CLASS
  1
SCALE
  2
AcDbScale
  3
ObjectDBX Classes
 90
     1153
 91
       17
280
     0
281
     0
  0
CLASS
  1
MLEADERSTYLE
  2
AcDbMLeaderStyle
  3
ACDB_MLEADERSTYLE_CLASS
 90
     4095
 91
        1
280
     0
281
     0
  0
CLASS
  1
CELLSTYLEMAP
  2
AcDbCellStyleMap
  3
ObjectDBX Classes
 90
     1152
 91
        2
280
     0
281
     0
  0
CLASS
  1
ACAD_EVALUATION_GRAPH
  2
AcDbEvalGraph
  3
ObjectDBX Classes
 90
     1153
 91
        0
280
     0
281
     0
  0
CLASS
  1
ACAECUSTOBJ
  2
AcAeEditorObj
  3
AcAeEditorObj
 90
     1024
 91
        0
280
     0
281
     0
  0
CLASS
  1
ACDB_DYNAMICBLOCKPURGEPREVENTER_VERSION
  2
AcDbDynamicBlockPurgePreventer
  3
ObjectDBX Classes
 90
     1153
 91
        0
280
     0
281
     0
  0
CLASS
  1
ACDBSECTIONVIEWSTYLE
  2
AcDbSectionViewStyle
  3
ObjectDBX Classes
 90
     1025
 91
        1
280
     0
281
     0
  0
CLASS
  1
ACDBDETAILVIEWSTYLE
  2
AcDbDetailViewStyle
  3
ObjectDBX Classes
 90
     1025
 91
        1
280
     0
281
     0
  0
ENDSEC
  0
SECTION
  2
TABLES
  0
TABLE
  2
VPORT
  5
8
102
{ACAD_XDICTIONARY
360
19B92
102
}
330
0
100
AcDbSymbolTable
 70
     1
1001
ACAD
1000
DbSaveVer
1071
        5
  0
VPORT
  5
1AF58
330
8
100
AcDbSymbolTableRecord
100
AcDbViewportTableRecord
  2
*Active
 70
     0
 10
0.0
 20
0.0
 11
1.0
 21
1.0
 12
5955.912650938298
 22
-3001.43279295175
 13
0.0
 23
0.0
 14
10.0
 24
10.0
 15
10.0
 25
10.0
 16
0.0
 26
0.0
 36
1.0
 17
0.0
 27
0.0
 37
0.0
 40
925.8264220690143
 41
2.521796565389696
 42
50.0
 43
0.0
 44
0.0
 50
0.0
 51
0.0
 71
     0
 72
 20000
 73
     1
 74
     3
 75
     0
 76
     0
 77
     0
 78
     0
281
     0
 65
     1
110
0.0
120
0.0
130
0.0
111
1.0
121
0.0
131
0.0
112
0.0
122
1.0
132
0.0
 79
     0
146
0.0
348
19912
 60
     3
 61
     5
292
     1
282
     1
141
0.0
142
0.0
 63
   250
421
  3355443
1001
ACAD_NAV_VCDISPLAY
1070
     3
  0
ENDTAB
  0
TABLE
  2
LTYPE
  5
5
330
0
100
AcDbSymbolTable
 70
     1
  0
LTYPE
  5
14
330
5
100
AcDbSymbolTableRecord
100
AcDbLinetypeTableRecord
  2
ByBlock
 70
     0
  3

 72
    65
 73
     0
 40
0.0
  0
LTYPE
  5
15
330
5
100
AcDbSymbolTableRecord
100
AcDbLinetypeTableRecord
  2
ByLayer
 70
     0
  3

 72
    65
 73
     0
 40
0.0
  0
LTYPE
  5
16
330
5
100
AcDbSymbolTableRecord
100
AcDbLinetypeTableRecord
  2
Continuous
 70
     0
  3
Solid line
 72
    65
 73
     0
 40
0.0
  0
ENDTAB
  0
TABLE
  2
LAYER
  5
2
102
{ACAD_XDICTIONARY
360
B4B
102
}
330
0
100
AcDbSymbolTable
 70
     7
  0
LAYER
  5
10
102
{ACAD_XDICTIONARY
360
19944
102
}
330
2
100
AcDbSymbolTableRecord
100
AcDbLayerTableRecord
  2
0
 70
     0
 62
     7
  6
Continuous
370
    53
390
F
347
19904
348
0
  0
LAYER
  5
90
102
{ACAD_XDICTIONARY
360
19946
102
}
330
2
100
AcDbSymbolTableRecord
100
AcDbLayerTableRecord
  2
粗实线
 70
     0
 62
     7
  6
Continuous
370
    53
390
F
347
19904
348
0
1001
AcadStringInfo
1000
MIFCodePage
1070
     5
  0
LAYER
  5
91
102
{ACAD_XDICTIONARY
360
19948
102
}
330
2
100
AcDbSymbolTableRecord
100
AcDbLayerTableRecord
  2
细实线
 70
     0
 62
    10
  6
Continuous
370
    -3
390
F
347
19904
348
0
1001
AcadStringInfo
1000
MIFCodePage
1070
     5
  0
LAYER
  5
95
102
{ACAD_XDICTIONARY
360
1994A
102
}
330
2
100
AcDbSymbolTableRecord
100
AcDbLayerTableRecord
  2
图框线
 70
     0
 62
   170
  6
Continuous
370
    70
390
F
347
19904
348
0
1001
AcadStringInfo
1000
MIFCodePage
1070
     5
  0
LAYER
  5
97
102
{ACAD_XDICTIONARY
360
1994C
102
}
330
2
100
AcDbSymbolTableRecord
100
AcDbLayerTableRecord
  2
尺寸线
 70
     0
 62
   240
  6
Continuous
370
    -3
390
F
347
19904
348
0
1001
AcadStringInfo
1000
MIFCodePage
1070
     5
  0
LAYER
  5
12A
330
2
100
AcDbSymbolTableRecord
100
AcDbLayerTableRecord
  2
Defpoints
 70
     0
 62
     7
  6
Continuous
290
     0
370
    -3
390
F
347
19904
348
0
  0
LAYER
  5
19A18
102
{ACAD_XDICTIONARY
360
19A19
102
}
330
2
100
AcDbSymbolTableRecord
100
AcDbLayerTableRecord
  2
图层1
 70
     0
 62
     3
  6
Continuous
370
    -3
390
F
347
19904
348
0
1001
AcadStringInfo
1000
MIFCodePage
1070
     5
  0
ENDTAB
  0
TABLE
  2
STYLE
  5
3
330
0
100
AcDbSymbolTable
 70
     2
  0
STYLE
  5
11
330
3
100
AcDbSymbolTableRecord
100
AcDbTextStyleTableRecord
  2
Standard
 70
     0
 40
0.0
 41
1.0
 50
0.0
 71
     0
 42
2.5
  3
SimSun.ttf
  4

1001
ACAD
1000
SimSun
1071
    34306
  0
STYLE
  5
19577
330
3
100
AcDbSymbolTableRecord
100
AcDbTextStyleTableRecord
  2
gb
 70
     0
 40
0.0
 41
1.0
 50
0.0
 71
     0
 42
7.0
  3
gbeitc.shx
  4
gbcbig.shx
  0
ENDTAB
  0
TABLE
  2
VIEW
  5
6
330
0
100
AcDbSymbolTable
 70
     0
  0
ENDTAB
  0
TABLE
  2
UCS
  5
7
330
0
100
AcDbSymbolTable
 70
     0
  0
ENDTAB
  0
TABLE
  2
APPID
  5
9
330
0
100
AcDbSymbolTable
 70
    17
  0
APPID
  5
12
330
9
100
AcDbSymbolTableRecord
100
AcDbRegAppTableRecord
  2
ACAD
 70
     0
  0
APPID
  5
E07
330
9
100
AcDbSymbolTableRecord
100
AcDbRegAppTableRecord
  2
DCO15
 70
     0
  0
APPID
  5
ACD6
330
9
100
AcDbSymbolTableRecord
100
AcDbRegAppTableRecord
  2
ACAD_EXEMPT_FROM_CAD_STANDARDS
 70
     0
  0
APPID
  5
C4D4
330
9
100
AcDbSymbolTableRecord
100
AcDbRegAppTableRecord
  2
ACAD_DSTYLE_DIMTEXT_FILL
 70
     0
  0
APPID
  5
C4D5
330
9
100
AcDbSymbolTableRecord
100
AcDbRegAppTableRecord
  2
ACAD_DSTYLE_DIMEXT_LENGTH
 70
     0
  0
APPID
  5
C4D6
330
9
100
AcDbSymbolTableRecord
100
AcDbRegAppTableRecord
  2
ACAD_DSTYLE_DIMEXT_ENABLED
 70
     0
  0
APPID
  5
C4D7
330
9
100
AcDbSymbolTableRecord
100
AcDbRegAppTableRecord
  2
ACAD_DSTYLE_DIM_LINETYPE
 70
     0
  0
APPID
  5
C4D8
330
9
100
AcDbSymbolTableRecord
100
AcDbRegAppTableRecord
  2
ACAD_DSTYLE_DIM_EXT1_LINETYPE
 70
     0
  0
APPID
  5
C4D9
330
9
100
AcDbSymbolTableRecord
100
AcDbRegAppTableRecord
  2
ACAD_DSTYLE_DIM_EXT2_LINETYPE
 70
     0
  0
APPID
  5
19A1A
330
9
100
AcDbSymbolTableRecord
100
AcDbRegAppTableRecord
  2
AcDbDynamicBlockGUID
 70
     0
  0
APPID
  5
19AE8
330
9
100
AcDbSymbolTableRecord
100
AcDbRegAppTableRecord
  2
ACAUTHENVIRON
 70
     0
  0
APPID
  5
19AEC
330
9
100
AcDbSymbolTableRecord
100
AcDbRegAppTableRecord
  2
AcDbDynamicBlockTrueName
 70
     0
  0
APPID
  5
19BD4
330
9
100
AcDbSymbolTableRecord
100
AcDbRegAppTableRecord
  2
ACAD_MLEADERVER
 70
     0
  0
APPID
  5
19CF8
330
9
100
AcDbSymbolTableRecord
100
AcDbRegAppTableRecord
  2
AcadAnnoPO
 70
     0
  0
APPID
  5
1AFF6
330
9
100
AcDbSymbolTableRecord
100
AcDbRegAppTableRecord
  2
ACAD_DSTYLE_DIMRADIAL_EXTENSION
 70
     0
  0
APPID
  5
101B5DE
330
9
100
AcDbSymbolTableRecord
100
AcDbRegAppTableRecord
  2
AcadStringInfo
 70
     0
  0
APPID
  5
101B5EB
330
9
100
AcDbSymbolTableRecord
100
AcDbRegAppTableRecord
  2
ACAD_NAV_VCDISPLAY
 70
     0
  0
ENDTAB
  0
TABLE
  2
DIMSTYLE
  5
A
330
0
100
AcDbSymbolTable
 70
     3
100
AcDbDimStyleTable
 71
     1
340
170
  0
DIMSTYLE
105
170
102
{ACAD_REACTORS
330
1B348
330
1B34B
330
1B34E
330
1B327
330
1B328
330
1B32B
330
1B32C
330
1B32F
330
1B332
330
1B351
330
1B354
330
1B544
330
1B55C
102
}
330
A
100
AcDbSymbolTableRecord
100
AcDbDimStyleTableRecord
  2
直线
 70
     0
 41
20.0
 42
0.0
 43
5.0
 44
15.0
 47
0.02
 73
     0
 77
     1
 78
     8
 79
     2
140
15.0
141
-1.0
143
0.03937007874016
146
0.5
147
5.0
171
     3
172
     1
176
   256
177
   256
178
   256
179
     4
271
     2
272
     2
274
     3
284
     8
340
11
371
    -1
372
    -1
1001
AcadStringInfo
1000
MIFCodePage
1070
     5
  0
DIMSTYLE
105
19578
330
A
100
AcDbSymbolTableRecord
100
AcDbDimStyleTableRecord
  2
ISO-25
 70
     0
 41
13.0
 42
0.0
 43
40.0
 44
20.0
 73
     0
 74
     0
 77
     1
 78
     8
140
25.0
141
2.5
143
0.03937007874016
147
4.0
171
     3
172
     1
271
     0
272
     0
274
     3
283
     0
284
     8
340
19577
  0
DIMSTYLE
105
19615
330
A
100
AcDbSymbolTableRecord
100
AcDbDimStyleTableRecord
  2
STANDARD
 70
     0
 40
10.0
 41
2.5
 42
0.625
 43
3.75
 44
1.25
 73
     0
 74
     0
 77
     1
 78
     8
140
2.5
141
2.5
143
0.0394
147
0.625
171
     4
172
     1
273
     8
274
     4
277
     6
340
11
  0
ENDTAB
  0
TABLE
  2
BLOCK_RECORD
  5
1
330
0
100
AcDbSymbolTable
 70
    18
  0
BLOCK_RECORD
  5
1F
102
{ACAD_XDICTIONARY
360
AD58
102
}
330
1
100
AcDbSymbolTableRecord
100
AcDbBlockTableRecord
  2
*Model_Space
340
22
 70
     0
280
     1
281
     0
  0
BLOCK_RECORD
  5
1AE3C
330
1
100
AcDbSymbolTableRecord
100
AcDbBlockTableRecord
  2
*Paper_Space
340
1AE3D
 70
     0
280
     1
281
     0
  0
BLOCK_RECORD
  5
1999A
102
{ACAD_XDICTIONARY
360
19AE7
102
}
330
1
100
AcDbSymbolTableRecord
100
AcDbBlockTableRecord
  2
B
340
0
310
2800000020000000200000000100080000000000000400000000000000000000000000000000000000000000000080000080000000808000800000008000800080800000C0C0C000C0DCC000F0CAA6000020400000206000002080000020A0000020C0000020E00000400000004020000040400000406000004080000040A0
310
000040C0000040E00000600000006020000060400000606000006080000060A0000060C0000060E00000800000008020000080400000806000008080000080A0000080C0000080E00000A0000000A0200000A0400000A0600000A0800000A0A00000A0C00000A0E00000C0000000C0200000C0400000C0600000C0800000C0
310
A00000C0C00000C0E00000E0000000E0200000E0400000E0600000E0800000E0A00000E0C00000E0E00040000000400020004000400040006000400080004000A0004000C0004000E00040200000402020004020400040206000402080004020A0004020C0004020E000404000004040200040404000404060004040800040
310
40A0004040C0004040E00040600000406020004060400040606000406080004060A0004060C0004060E00040800000408020004080400040806000408080004080A0004080C0004080E00040A0000040A0200040A0400040A0600040A0800040A0A00040A0C00040A0E00040C0000040C0200040C0400040C0600040C08000
310
40C0A00040C0C00040C0E00040E0000040E0200040E0400040E0600040E0800040E0A00040E0C00040E0E00080000000800020008000400080006000800080008000A0008000C0008000E00080200000802020008020400080206000802080008020A0008020C0008020E00080400000804020008040400080406000804080
310
008040A0008040C0008040E00080600000806020008060400080606000806080008060A0008060C0008060E00080800000808020008080400080806000808080008080A0008080C0008080E00080A0000080A0200080A0400080A0600080A0800080A0A00080A0C00080A0E00080C0000080C0200080C0400080C0600080C0
310
800080C0A00080C0C00080C0E00080E0000080E0200080E0400080E0600080E0800080E0A00080E0C00080E0E000C0000000C0002000C0004000C0006000C0008000C000A000C000C000C000E000C0200000C0202000C0204000C0206000C0208000C020A000C020C000C020E000C0400000C0402000C0404000C0406000C0
310
408000C040A000C040C000C040E000C0600000C0602000C0604000C0606000C0608000C060A000C060C000C060E000C0800000C0802000C0804000C0806000C0808000C080A000C080C000C080E000C0A00000C0A02000C0A04000C0A06000C0A08000C0A0A000C0A0C000C0A0E000C0C00000C0C02000C0C04000C0C06000
310
C0C08000C0C0A000F0FBFF00A4A0A000808080000000FF0000FF000000FFFF00FF000000FF00FF00FFFF0000FFFFFF0049494949494949494949494949494949494949494949494949494949494949494949494949494949494949494949494949494949494949494949494949494949494949494949494949494949494949
310
494949494949494949494949494949494949494949494949494949494949494949494949494949494949494949494949494949494949494949494949494949494949494949494949494949494949494949494949494949494949494949494949494949494949494949494949494949494949FFFFFFFFFFFFFFFFFFFFFFFFFF
310
FFFFFFFFFFFFFFFFFFFFFFFFFFFFFFFFFF4949FF4949FF49494949494949FFFFFFFFFFFFFFFFFFFFFFFFFFFFFFFFFFFFFF4949FF4949FF49494949494949FFFFFFFFFFFFFFFFFFFFFFFFFFFFFFFFFFFFFF4949FF4949FF49494949494949FFFFFFFFFFFFFFFFFFFFFFFFFFFFFFFFFFFFFF4949FF4949FF4949494949494949
310
4949494949494949FFFFFFFFFFFFFFFFFFFF4949FF4949FF49494949494949494949494949494949FFFFFFFFFFFFFFFFFFFF4949FF4949FF49494949494949494949494949494949FFFFFFFFFFFFFFFFFFFF4949FF4949FF49494949494949494949494949494949FFFFFFFFFFFFFFFFFFFF4949FF4949FF49494949494949
310
494949494949494949FFFFFFFFFFFFFFFFFFFF4949FF4949FF49494949494949494949494949494949FFFFFFFFFFFFFFFFFFFF4949FF4949FF49494949494949494949494949494949FFFFFFFFFFFFFFFFFFFF4949FF4949FF494949494949494949494949494949494949494949494949FFFF4949FF4949FF494949494949
310
494949494949494949494949494949494949FFFF4949FF4949FF494949494949494949494949494949494949494949494949FFFF4949FF4949FF494949494949494949494949494949494949494949494949FFFF4949FF4949FF494949494949494949494949494949494949494949494949FFFF4949FF4949FF4949494949
310
49494949494949494949494949494949494949FFFF4949FF4949FF494949494949494949494949494949494949494949494949FFFF4949FF4949FF494949494949494949494949494949494949494949494949FFFF4949FFFFFFFFFFFFFFFFFFFFFFFFFFFFFFFFFFFFFFFFFFFFFFFFFFFFFFFFFFFF49494949494949494949
310
49494949494949494949494949494949494949494949494949494949494949494949494949494949494949494949494949494949494949494949494949494949494949494949494949494949494949494949494949494949494949494949494949494949494949494949494949494949494949494949494949494949494949
310
4949494949494949494949494949494949494949494949494949494949494949494949494949494949494949494949494949494949494949
 70
     4
280
     1
281
     0
1001
AcDbDynamicBlockGUID
1000
{59ACF3BE-55AF-499C-84ED-2CF195079EC8}
  0
BLOCK_RECORD
  5
19BE3
102
{ACAD_XDICTIONARY
360
19D6B
102
}
330
1
100
AcDbSymbolTableRecord
100
AcDbBlockTableRecord
  2
A
340
0
 70
     4
280
     1
281
     0
1001
AcDbDynamicBlockGUID
1000
{31BEFB7E-FD57-46FC-8093-294DDA29866F}
  0
BLOCK_RECORD
  5
1A1BA
330
1
100
AcDbSymbolTableRecord
100
AcDbBlockTableRecord
  2
_DotSmall
340
0
 70
     0
280
     1
281
     0
  0
BLOCK_RECORD
  5
1A1BE
102
{ACAD_XDICTIONARY
360
1A2F3
102
}
330
1
100
AcDbSymbolTableRecord
100
AcDbBlockTableRecord
  2
C
340
0
310
2800000020000000200000000100080000000000000400000000000000000000000000000000000000000000000080000080000000808000800000008000800080800000C0C0C000C0DCC000F0CAA6000020400000206000002080000020A0000020C0000020E00000400000004020000040400000406000004080000040A0
310
000040C0000040E00000600000006020000060400000606000006080000060A0000060C0000060E00000800000008020000080400000806000008080000080A0000080C0000080E00000A0000000A0200000A0400000A0600000A0800000A0A00000A0C00000A0E00000C0000000C0200000C0400000C0600000C0800000C0
310
A00000C0C00000C0E00000E0000000E0200000E0400000E0600000E0800000E0A00000E0C00000E0E00040000000400020004000400040006000400080004000A0004000C0004000E00040200000402020004020400040206000402080004020A0004020C0004020E000404000004040200040404000404060004040800040
310
40A0004040C0004040E00040600000406020004060400040606000406080004060A0004060C0004060E00040800000408020004080400040806000408080004080A0004080C0004080E00040A0000040A0200040A0400040A0600040A0800040A0A00040A0C00040A0E00040C0000040C0200040C0400040C0600040C08000
310
40C0A00040C0C00040C0E00040E0000040E0200040E0400040E0600040E0800040E0A00040E0C00040E0E00080000000800020008000400080006000800080008000A0008000C0008000E00080200000802020008020400080206000802080008020A0008020C0008020E00080400000804020008040400080406000804080
310
008040A0008040C0008040E00080600000806020008060400080606000806080008060A0008060C0008060E00080800000808020008080400080806000808080008080A0008080C0008080E00080A0000080A0200080A0400080A0600080A0800080A0A00080A0C00080A0E00080C0000080C0200080C0400080C0600080C0
310
800080C0A00080C0C00080C0E00080E0000080E0200080E0400080E0600080E0800080E0A00080E0C00080E0E000C0000000C0002000C0004000C0006000C0008000C000A000C000C000C000E000C0200000C0202000C0204000C0206000C0208000C020A000C020C000C020E000C0400000C0402000C0404000C0406000C0
310
408000C040A000C040C000C040E000C0600000C0602000C0604000C0606000C0608000C060A000C060C000C060E000C0800000C0802000C0804000C0806000C0808000C080A000C080C000C080E000C0A00000C0A02000C0A04000C0A06000C0A08000C0A0A000C0A0C000C0A0E000C0C00000C0C02000C0C04000C0C06000
310
C0C08000C0C0A000F0FBFF00A4A0A000808080000000FF0000FF000000FFFF00FF000000FF00FF00FFFF0000FFFFFF0049494949494949494949494949494949494949494949494949494949494949494949494949494949494949494949494949494949494949494949494949494949494949494949494949494949494949
310
494949494949494949494949494949494949494949494949494949494949494949494949494949494949494949494949494949494949494949494949494949494949494949494949494949494949494949494949494949494949494949494949494949494949494949494949494949494949FFFFFFFFFFFFFFFFFFFFFFFFFF
310
FFFFFFFFFFFFFFFFFFFFFFFFF9F9F9F9FF4949FF4949FF49494949494949FFFFFFFFFFFFFFFFFFFFFFFFFFFFFFFFF9F9FF4949FF4949FF49494949494949FFFFFFFFFFFFFFFFFFFFFFFFFFFFFFFFFFFFFF4949FF4949FF49494949494949494949494949494949FFFFFFFFFFFFFFFFFFFF4949FF4949FF4949494949494949
310
4949494949494949FFFFFFFFFFFFFFFFFFFF4949FF4949FF49494949494949494949494949494949FFFFFFFFFFFFFFFFFFFF4949FF4949FF49494949494949494949494949494949FFFFFFFFFFFFFFFFFFFF4949FF4949FF49494949494949494949494949494949FFFFFFFFFFFFFFFFFFFF4949FF4949FF49494949494949
310
494949494949494949FFFFFFFFFFFFFFFFFFFF4949FF4949FF49494949494949494949494949494949FFFFFFFFFFFFFFFFFFFF4949FF4949FF494949494949494949494949494949494949494949494949FFFF4949FF4949FF494949494949494949494949494949494949494949494949FFFF4949FF4949FF494949494949
310
494949494949494949494949494949494949FFFF4949FF4949FF494949494949494949494949494949494949494949494949FFFF4949FF4949FF494949494949494949494949494949494949494949494949FFFF4949FF4949FF494949494949494949494949494949494949494949494949FFFF4949FF4949FF4949494949
310
49494949494949494949494949494949494949FFFF4949FF4949FF494949494949494949494949494949494949494949494949FFFF4949FF4949FF494949494949494949494949494949494949494949494949FFFF4949FFFFFFFFFFFFFFFFFFFFFFFFFFFFFFFFFFFFFFFFFFFFFFFFFFFFFFFFFFFF49494949494949494949
310
49494949494949494949494949494949494949494949494949494949494949494949494949494949494949494949494949494949494949494949494949494949494949494949494949494949494949494949494949494949494949494949494949494949494949494949494949494949494949494949494949494949494949
310
4949494949494949494949494949494949494949494949494949494949494949494949494949494949494949494949494949494949494949
 70
     4
280
     1
281
     0
1001
AcDbDynamicBlockGUID
1000
{A501EDD5-55AA-413D-B4D4-DC8AA8B4C8D3}
  0
BLOCK_RECORD
  5
19591
330
1
100
AcDbSymbolTableRecord
100
AcDbBlockTableRecord
  2
*Paper_Space4
340
19592
 70
     0
280
     1
281
     0
  0
BLOCK_RECORD
  5
1B357
330
1
100
AcDbSymbolTableRecord
100
AcDbBlockTableRecord
  2
*D5
340
0
 70
     0
280
     1
281
     0
  0
BLOCK_RECORD
  5
1B363
330
1
100
AcDbSymbolTableRecord
100
AcDbBlockTableRecord
  2
*D6
340
0
 70
     0
280
     1
281
     0
  0
BLOCK_RECORD
  5
1B36F
330
1
100
AcDbSymbolTableRecord
100
AcDbBlockTableRecord
  2
*D7
340
0
 70
     0
280
     1
281
     0
  0
BLOCK_RECORD
  5
1B37B
330
1
100
AcDbSymbolTableRecord
100
AcDbBlockTableRecord
  2
*D8
340
0
 70
     0
280
     1
281
     0
  0
BLOCK_RECORD
  5
1B387
330
1
100
AcDbSymbolTableRecord
100
AcDbBlockTableRecord
  2
*D9
340
0
 70
     0
280
     1
281
     0
  0
BLOCK_RECORD
  5
1B393
330
1
100
AcDbSymbolTableRecord
100
AcDbBlockTableRecord
  2
*D10
340
0
 70
     0
280
     1
281
     0
  0
BLOCK_RECORD
  5
1B3AB
330
1
100
AcDbSymbolTableRecord
100
AcDbBlockTableRecord
  2
*D11
340
0
 70
     0
280
     1
281
     0
  0
BLOCK_RECORD
  5
1B3C0
330
1
100
AcDbSymbolTableRecord
100
AcDbBlockTableRecord
  2
*D12
340
0
 70
     0
280
     1
281
     0
  0
BLOCK_RECORD
  5
1B3CC
330
1
100
AcDbSymbolTableRecord
100
AcDbBlockTableRecord
  2
*D13
340
0
 70
     0
280
     1
281
     0
  0
BLOCK_RECORD
  5
1B3E1
330
1
100
AcDbSymbolTableRecord
100
AcDbBlockTableRecord
  2
*D14
340
0
 70
     0
280
     1
281
     0
  0
BLOCK_RECORD
  5
1B3ED
330
1
100
AcDbSymbolTableRecord
100
AcDbBlockTableRecord
  2
*D15
340
0
 70
     0
280
     1
281
     0
  0
BLOCK_RECORD
  5
1B545
330
1
100
AcDbSymbolTableRecord
100
AcDbBlockTableRecord
  2
*D16
340
0
 70
     0
280
     1
281
     0
  0
BLOCK_RECORD
  5
1B55D
330
1
100
AcDbSymbolTableRecord
100
AcDbBlockTableRecord
  2
*D17
340
0
 70
     0
280
     1
281
     0
  0
ENDTAB
  0
ENDSEC
  0
SECTION
  2
BLOCKS
  0
BLOCK
  5
20
330
1F
100
AcDbEntity
  8
0
100
AcDbBlockBegin
  2
*Model_Space
 70
     0
 10
0.0
 20
0.0
 30
0.0
  3
*Model_Space
  1

  0
ENDBLK
  5
21
330
1F
100
AcDbEntity
  8
0
100
AcDbBlockEnd
  0
BLOCK
  5
1AE3E
330
1AE3C
100
AcDbEntity
 67
     1
  8
0
100
AcDbBlockBegin
  2
*Paper_Space
 70
     0
 10
0.0
 20
0.0
 30
0.0
  3
*Paper_Space
  1

  0
ENDBLK
  5
1AE3F
330
1AE3C
100
AcDbEntity
 67
     1
  8
0
100
AcDbBlockEnd
  0
BLOCK
  5
1999C
330
1999A
100
AcDbEntity
  8
0
100
AcDbBlockBegin
  2
B
 70
     0
 10
0.0
 20
0.0
 30
0.0
  3
B
  1

  0
LWPOLYLINE
  5
19A6D
330
1999A
100
AcDbEntity
  8
0
 62
     0
100
AcDbPolyline
 90
        4
 70
     1
 43
0.0
 10
-2335.997663999995
 20
1639.998360000001
 10
-2335.997663999995
 20
-39.9999600000001
 10
39.99996000000101
 20
-39.9999600000001
 10
39.99996000000101
 20
1639.998360000001
  0
LINE
  5
19A6E
330
1999A
100
AcDbEntity
  8
图层1
 62
     0
100
AcDbLine
 10
-2135.997864000005
 20
1603.432300189704
 30
0.0
 11
-2135.997864000005
 21
0.000000000001819
 31
0.0
  0
LINE
  5
19A6F
330
1999A
100
AcDbEntity
  8
图层1
 62
     0
100
AcDbLine
 10
0.0
 20
1603.432300189704
 30
0.0
 11
-2135.997864000005
 21
1603.432300189704
 31
0.0
  0
TEXT
  5
19A70
330
1999A
100
AcDbEntity
  8
0
 62
     0
100
AcDbText
 10
-688.3836519032047
 20
184.6758825359384
 30
0.0
 40
27.999972
  1
1
 41
2.066202121465592
  7
gb
 72
     5
 11
-664.2779845917975
 21
184.6758825359384
 31
0.0
100
AcDbText
  0
LINE
  5
19A71
330
1999A
100
AcDbEntity
  8
0
100
AcDbLine
 10
-719.9992800000036
 20
286.1601299894155
 30
0.0
 11
0.0
 21
286.1601299894164
 31
0.0
  0
LINE
  5
19A72
330
1999A
100
AcDbEntity
  8
0
100
AcDbLine
 10
-719.9992800000036
 20
250.0851299894157
 30
0.0
 11
0.0
 21
250.0851299894166
 31
0.0
  0
LINE
  5
19A73
330
1999A
100
AcDbEntity
  8
0
100
AcDbLine
 10
-719.9992800000036
 20
214.0101299894159
 30
0.0
 11
0.0
 21
214.0101299894168
 31
0.0
  0
LINE
  5
19A74
330
1999A
100
AcDbEntity
  8
0
100
AcDbLine
 10
-719.9992800000036
 20
177.935129989416
 30
0.0
 11
0.0
 21
177.935129989416
 31
0.0
  0
LINE
  5
19A75
330
1999A
100
AcDbEntity
  8
0
100
AcDbLine
 10
-719.9992800000036
 20
108.2250000000003
 30
0.0
 11
0.0
 21
108.2250000000003
 31
0.0
  0
LINE
  5
19A76
330
1999A
100
AcDbEntity
  8
0
100
AcDbLine
 10
-719.9992800000036
 20
144.3000000000011
 30
0.0
 11
0.0
 21
144.3000000000011
 31
0.0
  0
LINE
  5
19A77
330
1999A
100
AcDbEntity
  8
0
100
AcDbLine
 10
-719.9992800000036
 20
108.2250000000003
 30
0.0
 11
0.0
 21
108.2250000000013
 31
0.0
  0
LINE
  5
19A78
330
1999A
100
AcDbEntity
  8
0
100
AcDbLine
 10
-618.5004666916793
 20
502.6101299894162
 30
0.0
 11
-618.5004666916784
 21
144.3000000000011
 31
0.0
  0
LINE
  5
19A79
330
1999A
100
AcDbEntity
  8
0
100
AcDbLine
 10
-719.9992800000036
 20
286.1601299894155
 30
0.0
 11
0.0
 21
286.1601299894164
 31
0.0
  0
LINE
  5
19A7A
330
1999A
100
AcDbEntity
  8
0
100
AcDbLine
 10
-443.63684372649
 20
502.6101299894162
 30
0.0
 11
-443.63684372649
 21
144.3000000000011
 31
0.0
  0
TEXT
  5
19A7B
330
1999A
100
AcDbEntity
  8
0
 62
     0
100
AcDbText
 10
-688.3836519032047
 20
221.9626131127589
 30
0.0
 40
27.999972
  1
2
 41
1.589386247281225
  7
gb
 72
     5
 11
-664.2779845917975
 21
221.9626131127589
 31
0.0
100
AcDbText
  0
LINE
  5
19A7C
330
1999A
100
AcDbEntity
  8
0
100
AcDbLine
 10
-1439.998560000007
 20
72.14999999999964
 30
0.0
 11
-719.9992800000036
 21
72.15000000000054
 31
0.0
  0
LINE
  5
19A7D
330
1999A
100
AcDbEntity
  8
0
100
AcDbLine
 10
-1439.998560000007
 20
36.07499999999982
 30
0.0
 11
-719.9992800000036
 21
36.07499999999982
 31
0.0
  0
LINE
  5
19A7E
330
1999A
100
AcDbEntity
  8
0
100
AcDbLine
 10
-1439.998560000007
 20
72.14999999999964
 30
0.0
 11
-719.9992800000036
 21
72.15000000000054
 31
0.0
  0
LINE
  5
19A7F
330
1999A
100
AcDbEntity
  8
0
100
AcDbLine
 10
-1439.998560000007
 20
36.07499999999982
 30
0.0
 11
-719.9992800000036
 21
36.07499999999982
 31
0.0
  0
LINE
  5
19A80
330
1999A
100
AcDbEntity
  8
0
100
AcDbLine
 10
-719.9992800000036
 20
0.0
 30
0.0
 11
-1439.998560000007
 21
0.0
 31
0.0
  0
TEXT
  5
19A81
330
1999A
100
AcDbEntity
  8
0
 62
     0
100
AcDbText
 10
-790.7455396627483
 20
76.10110550012996
 30
0.0
 40
27.999972
  1
1
 41
2.066202121464344
  7
gb
 72
     5
 11
-766.6398723513557
 21
76.10110550012996
 31
0.0
100
AcDbText
  0
TEXT
  5
19A82
330
1999A
100
AcDbEntity
  8
0
 62
     0
100
AcDbText
 10
-790.7455396627483
 20
114.8223039369631
 30
0.0
 40
27.999972
  1
1
 41
2.066202121464344
  7
gb
 72
     5
 11
-766.6398723513557
 21
114.8223039369631
 31
0.0
100
AcDbText
  0
TEXT
  5
19A83
330
1999A
100
AcDbEntity
  8
0
 62
     0
100
AcDbText
 10
-790.7455396627483
 20
148.5372432617869
 30
0.0
 40
27.999972
  1
1
 41
2.066202121464344
  7
gb
 72
     5
 11
-766.6398723513557
 21
148.5372432617869
 31
0.0
100
AcDbText
  0
TEXT
  5
19A84
330
1999A
100
AcDbEntity
  8
0
 62
     0
100
AcDbText
 10
-1190.002963073332
 20
8.078414917095415
 30
0.0
 40
27.999972
  1
组成表
 41
3.231547114484651
  7
gb
 72
     5
 11
-997.393443109423
 21
8.078414917095415
 31
0.0
100
AcDbText
  0
TEXT
  5
19A85
330
1999A
100
AcDbEntity
  8
0
 62
     0
100
AcDbText
 10
-569.8815845143253
 20
114.4475600683054
 30
0.0
 40
27.999972
  1
配置明细表
 41
4.475272734460792
  7
gb
 72
     5
 11
-120.7094393825828
 21
114.4475600683054
 31
0.0
100
AcDbText
  0
TEXT
  5
19A86
330
1999A
100
AcDbEntity
  8
0
 62
     0
100
AcDbText
 10
-529.0174279001803
 20
5.972793247598019
 30
0.0
 40
27.999972
  1
版本
 41
1.606705722547632
  7
gb
 72
     5
 11
-465.5053593210177
 21
5.972793247598019
 31
0.0
100
AcDbText
  0
LINE
  5
19A87
330
1999A
100
AcDbEntity
  8
0
100
AcDbLine
 10
-719.9992800000036
 20
72.07496399999945
 30
0.0
 11
-319.9996799999935
 21
72.07496399999945
 31
0.0
  0
TEXT
  5
19A88
330
1999A
100
AcDbEntity
  8
0
 62
     0
100
AcDbText
 10
-688.3836519032047
 20
255.9399390990147
 30
0.0
 40
27.999972
  1
3
 41
1.589386247281224
  7
gb
 72
     5
 11
-664.2779845917975
 21
255.9399390990147
 31
0.0
100
AcDbText
  0
TEXT
  5
19A89
330
1999A
100
AcDbEntity
  8
0
 62
     0
100
AcDbText
 10
-688.3836519032047
 20
291.0303149285437
 30
0.0
 40
27.999972
  1
4
 41
1.721835101221327
  7
gb
 72
     5
 11
-664.2779845917975
 21
291.0303149285437
 31
0.0
100
AcDbText
  0
TEXT
  5
19A8A
330
1999A
100
AcDbEntity
  8
0
 62
     0
100
AcDbText
 10
-688.3836519032047
 20
362.5963071871301
 30
0.0
 40
27.999972
  1
6
 41
1.796697496926601
  7
gb
 72
     5
 11
-664.2779845917975
 21
362.5963071871301
 31
0.0
100
AcDbText
  0
TEXT
  5
19A8B
330
1999A
100
AcDbEntity
  8
0
 62
     0
100
AcDbText
 10
-688.3836519032047
 20
326.4134807196497
 30
0.0
 40
27.999972
  1
5
 41
1.589386247281224
  7
gb
 72
     5
 11
-664.2779845917975
 21
326.4134807196497
 31
0.0
100
AcDbText
  0
TEXT
  5
19A8C
330
1999A
100
AcDbEntity
  8
0
 62
     0
100
AcDbText
 10
-688.3836519032047
 20
400.0634009633886
 30
0.0
 40
27.999972
  1
7
 41
1.475858658189708
  7
gb
 72
     5
 11
-664.2779845917975
 21
400.0634009633886
 31
0.0
100
AcDbText
  0
TEXT
  5
19A8D
330
1999A
100
AcDbEntity
  8
0
 62
     0
100
AcDbText
 10
-688.3836519032047
 20
471.629393221975
 30
0.0
 40
27.999972
  1
9
 41
1.589386247281224
  7
gb
 72
     5
 11
-664.2779845917975
 21
471.629393221975
 31
0.0
100
AcDbText
  0
TEXT
  5
19A8E
330
1999A
100
AcDbEntity
  8
0
 62
     0
100
AcDbText
 10
-688.3836519032047
 20
435.4465667544945
 30
0.0
 40
27.999972
  1
8
 41
1.652961697172473
  7
gb
 72
     5
 11
-664.2779845917975
 21
435.4465667544945
 31
0.0
100
AcDbText
  0
TEXT
  5
19A8F
330
1999A
100
AcDbEntity
  8
0
 62
     0
100
AcDbText
 10
-688.3836519032047
 20
544.1977431021741
 30
0.0
 40
27.999972
  1
11
 41
1.033101060732796
  7
gb
 72
     5
 11
-664.2779845917975
 21
544.1977431021741
 31
0.0
100
AcDbText
  0
TEXT
  5
19A90
330
1999A
100
AcDbEntity
  8
0
 62
     0
100
AcDbText
 10
-688.3836519032047
 20
580.3805695696546
 30
0.0
 40
27.999972
  1
12
 41
0.8983487484633009
  7
gb
 72
     5
 11
-664.2779845917975
 21
580.3805695696546
 31
0.0
100
AcDbText
  0
TEXT
  5
19A91
330
1999A
100
AcDbEntity
  8
0
 62
     0
100
AcDbText
 10
-688.3836519032047
 20
508.8145773110682
 30
0.0
 40
27.999972
  1
10
 41
0.9391827824843602
  7
gb
 72
     5
 11
-664.2779845917975
 21
508.8145773110682
 31
0.0
100
AcDbText
  0
LINE
  5
19A92
330
1999A
100
AcDbEntity
  8
0
100
AcDbLine
 10
-719.9992800000036
 20
72.14999999999964
 30
0.0
 11
-1439.998560000007
 21
72.14999999999964
 31
0.0
  0
LINE
  5
19A93
330
1999A
100
AcDbEntity
  8
0
100
AcDbLine
 10
-719.9992800000036
 20
252.525000000001
 30
0.0
 11
-719.9992800000036
 21
72.14999999999964
 31
0.0
  0
LINE
  5
19A94
330
1999A
100
AcDbEntity
  8
0
100
AcDbLine
 10
-719.9992800000036
 20
322.2351299894163
 30
0.0
 11
0.0
 21
322.2351299894163
 31
0.0
  0
LINE
  5
19A95
330
1999A
100
AcDbEntity
  8
0
100
AcDbLine
 10
-719.9992800000036
 20
286.1601299894155
 30
0.0
 11
0.0
 21
286.1601299894155
 31
0.0
  0
TEXT
  5
19A96
330
1999A
100
AcDbEntity
  8
0
 62
     0
100
AcDbText
 10
-571.2439524221553
 20
254.3232101320405
 30
0.0
 40
27.999972
  1
盆体厚度
 41
0.7879629597166664
  7
gb
 72
     5
 11
-507.7318838430073
 21
254.3232101320405
 31
0.0
100
AcDbText
  0
TEXT
  5
19A97
330
1999A
100
AcDbEntity
  8
0
 62
     0
100
AcDbText
 10
-571.2439524221553
 20
217.7196195321398
 30
0.0
 40
27.999972
  1
表面处理
 41
0.7971253197133717
  7
gb
 72
     5
 11
-507.7318838430073
 21
217.7196195321398
 31
0.0
100
AcDbText
  0
TEXT
  5
19A98
330
1999A
100
AcDbEntity
  8
0
 62
     0
100
AcDbText
 10
-569.8815845143253
 20
149.1418402233485
 30
0.0
 40
27.999972
  1
项目
 41
1.757763525521794
  7
gb
 72
     5
 11
-506.3695159351773
 21
149.1418402233485
 31
0.0
100
AcDbText
  0
LINE
  5
19A99
330
1999A
100
AcDbEntity
  8
0
100
AcDbLine
 10
-443.63684372649
 20
824.8452599788315
 30
0.0
 11
-443.63684372649
 21
286.1601299894155
 31
0.0
  0
TEXT
  5
19A9A
330
1999A
100
AcDbEntity
  8
0
 62
     0
100
AcDbText
 10
-571.2439524221527
 20
181.8269590948825
 30
0.0
 40
27.999972
  1
材质
 41
1.632208987984523
  7
gb
 72
     5
 11
-507.7318838430046
 21
181.8269590948825
 31
0.0
100
AcDbText
  0
LINE
  5
19A9B
330
1999A
100
AcDbEntity
  8
0
100
AcDbLine
 10
-719.9992800000036
 20
355.8702599788312
 30
0.0
 11
0.0
 21
355.8702599788321
 31
0.0
  0
LINE
  5
19A9C
330
1999A
100
AcDbEntity
  8
0
100
AcDbLine
 10
-719.9992800000036
 20
391.945259978831
 30
0.0
 11
0.0
 21
391.9452599788319
 31
0.0
  0
LINE
  5
19A9D
330
1999A
100
AcDbEntity
  8
0
100
AcDbLine
 10
-719.9992800000036
 20
428.0202599788308
 30
0.0
 11
0.0
 21
428.0202599788317
 31
0.0
  0
LINE
  5
19A9E
330
1999A
100
AcDbEntity
  8
0
100
AcDbLine
 10
-719.9992800000036
 20
464.0952599788315
 30
0.0
 11
0.0
 21
464.0952599788315
 31
0.0
  0
LINE
  5
19A9F
330
1999A
100
AcDbEntity
  8
0
100
AcDbLine
 10
-719.9992800000036
 20
500.1702599788313
 30
0.0
 11
0.0
 21
500.1702599788313
 31
0.0
  0
LINE
  5
19AA0
330
1999A
100
AcDbEntity
  8
0
100
AcDbLine
 10
-719.9992800000036
 20
536.2452599788311
 30
0.0
 11
0.0
 21
536.2452599788321
 31
0.0
  0
LINE
  5
19AA1
330
1999A
100
AcDbEntity
  8
0
100
AcDbLine
 10
-719.9992800000036
 20
572.320259978831
 30
0.0
 11
0.0
 21
572.3202599788319
 31
0.0
  0
LINE
  5
19AA2
330
1999A
100
AcDbEntity
  8
0
100
AcDbLine
 10
-719.9992800000036
 20
608.3952599788317
 30
0.0
 11
0.0
 21
608.3952599788317
 31
0.0
  0
LINE
  5
19AA3
330
1999A
100
AcDbEntity
  8
0
100
AcDbLine
 10
-719.9992800000036
 20
644.4702599788306
 30
0.0
 11
0.0
 21
644.4702599788315
 31
0.0
  0
LINE
  5
19AA4
330
1999A
100
AcDbEntity
  8
0
100
AcDbLine
 10
-719.9992800000036
 20
680.5452599788313
 30
0.0
 11
0.0
 21
680.5452599788313
 31
0.0
  0
LINE
  5
19AA5
330
1999A
100
AcDbEntity
  8
0
100
AcDbLine
 10
-719.9992800000036
 20
108.2250000000003
 30
0.0
 11
-719.9992800000027
 21
824.8452599788315
 31
0.0
  0
LINE
  5
19AA6
330
1999A
100
AcDbEntity
  8
0
100
AcDbLine
 10
-618.5004666916793
 20
824.8452599788315
 30
0.0
 11
-618.5004666916793
 21
286.1601299894155
 31
0.0
  0
TEXT
  5
19AA7
330
1999A
100
AcDbEntity
  8
0
 62
     0
100
AcDbText
 10
-688.3836519032047
 20
614.1191552258897
 30
0.0
 40
27.999972
  1
13
 41
0.8983487484633009
  7
gb
 72
     5
 11
-664.2779845917975
 21
614.1191552258897
 31
0.0
100
AcDbText
  0
LINE
  5
19AA8
330
1999A
100
AcDbEntity
  8
0
100
AcDbLine
 10
-719.9992800000036
 20
824.8452599788315
 30
0.0
 11
0.0
 21
824.8452599788315
 31
0.0
  0
LINE
  5
19AA9
330
1999A
100
AcDbEntity
  8
0
100
AcDbLine
 10
-719.9992800000036
 20
788.7702599788317
 30
0.0
 11
0.0
 21
788.7702599788317
 31
0.0
  0
LINE
  5
19AAA
330
1999A
100
AcDbEntity
  8
0
100
AcDbLine
 10
-719.9992800000036
 20
752.695259978831
 30
0.0
 11
0.0
 21
752.6952599788319
 31
0.0
  0
LINE
  5
19AAB
330
1999A
100
AcDbEntity
  8
0
100
AcDbLine
 10
-719.9992800000036
 20
716.6202599788312
 30
0.0
 11
0.0
 21
716.6202599788321
 31
0.0
  0
LINE
  5
19AAC
330
1999A
100
AcDbEntity
  8
0
100
AcDbLine
 10
-719.9992800000036
 20
824.8452599788315
 30
0.0
 11
0.0
 21
824.8452599788315
 31
0.0
  0
LINE
  5
19AAD
330
1999A
100
AcDbEntity
  8
0
100
AcDbLine
 10
-719.9992800000036
 20
788.7702599788317
 30
0.0
 11
0.0
 21
788.7702599788317
 31
0.0
  0
LINE
  5
19AAE
330
1999A
100
AcDbEntity
  8
0
100
AcDbLine
 10
-719.9992800000036
 20
752.695259978831
 30
0.0
 11
0.0
 21
752.6952599788319
 31
0.0
  0
LINE
  5
19AAF
330
1999A
100
AcDbEntity
  8
0
100
AcDbLine
 10
-719.9992800000036
 20
788.7702599788317
 30
0.0
 11
0.0
 21
788.7702599788317
 31
0.0
  0
LINE
  5
19AB0
330
1999A
100
AcDbEntity
  8
0
100
AcDbLine
 10
-719.9992800000036
 20
716.6202599788312
 30
0.0
 11
0.0
 21
716.6202599788321
 31
0.0
  0
TEXT
  5
19AB1
330
1999A
100
AcDbEntity
  8
0
 62
     0
100
AcDbText
 10
-713.5408238968957
 20
146.9188961064183
 30
0.0
 40
27.999972
  1
序号
 41
1.658534939404007
  7
gb
 72
     5
 11
-650.0287553177331
 21
146.9188961064183
 31
0.0
100
AcDbText
  0
TEXT
  5
19AB2
330
1999A
100
AcDbEntity
  8
0
 62
     0
100
AcDbText
 10
-309.8659658305114
 20
149.1418402233485
 30
0.0
 40
27.999972
  1
备注
 41
2.105940037321474
  7
gb
 72
     5
 11
-227.269841374713
 21
149.1418402233485
 31
0.0
100
AcDbText
  0
TEXT
  5
19AB3
330
1999A
100
AcDbEntity
  8
0
 62
     0
100
AcDbText
 10
-688.3836519032047
 20
685.6851474844761
 30
0.0
 40
27.999972
  1
15
 41
0.8983487484633007
  7
gb
 72
     5
 11
-664.2779845917975
 21
685.6851474844761
 31
0.0
100
AcDbText
  0
TEXT
  5
19AB4
330
1999A
100
AcDbEntity
  8
0
 62
     0
100
AcDbText
 10
-688.3836519032047
 20
649.5023210169956
 30
0.0
 40
27.999972
  1
14
 41
0.9391827824843602
  7
gb
 72
     5
 11
-664.2779845917975
 21
649.5023210169956
 31
0.0
100
AcDbText
  0
TEXT
  5
19AB5
330
1999A
100
AcDbEntity
  8
0
 62
     0
100
AcDbText
 10
-1408.382931903209
 20
149.121251003201
 30
0.0
 40
27.999972
  1
3
 41
1.589386247281224
  7
gb
 72
     5
 11
-1384.277264591802
 21
149.121251003201
 31
0.0
100
AcDbText
  0
TEXT
  5
19AB6
330
1999A
100
AcDbEntity
  8
0
 62
     0
100
AcDbText
 10
-1408.382931903208
 20
112.3544167943064
 30
0.0
 40
27.999972
  1
2
 41
1.589386247281224
  7
gb
 72
     5
 11
-1384.277264591801
 21
112.3544167943064
 31
0.0
100
AcDbText
  0
TEXT
  5
19AB7
330
1999A
100
AcDbEntity
  8
0
 62
     0
100
AcDbText
 10
-1408.382931903208
 20
76.38724326178635
 30
0.0
 40
27.999972
  1
1
 41
2.066202121465592
  7
gb
 72
     5
 11
-1384.277264591801
 21
76.38724326178635
 31
0.0
100
AcDbText
  0
LINE
  5
19AB8
330
1999A
100
AcDbEntity
  8
0
100
AcDbLine
 10
-835.6304690563847
 20
214.0101299894163
 30
0.0
 11
-835.6304690563838
 21
36.07499999999982
 31
0.0
  0
TEXT
  5
19AB9
330
1999A
100
AcDbEntity
  8
0
 62
     0
100
AcDbText
 10
-814.3248837830615
 20
41.54000228893756
 30
0.0
 40
27.999972
  1
数量
 41
1.632208987984897
  7
gb
 72
     5
 11
-750.8128152038989
 21
41.54000228893756
 31
0.0
100
AcDbText
  0
TEXT
  5
19ABA
330
1999A
100
AcDbEntity
  8
0
 62
     0
100
AcDbText
 10
-1202.400712799324
 20
41.54000228893756
 30
0.0
 40
27.999972
  1
图号
 41
1.658534939404007
  7
gb
 72
     5
 11
-1138.888644220162
 21
41.54000228893756
 31
0.0
100
AcDbText
  0
TEXT
  5
19ABB
330
1999A
100
AcDbEntity
  8
0
 62
     0
100
AcDbText
 10
-1433.540103896899
 20
41.54000228893756
 30
0.0
 40
27.999972
  1
序号
 41
1.658534939404007
  7
gb
 72
     5
 11
-1370.028035317736
 21
41.54000228893756
 31
0.0
100
AcDbText
  0
LINE
  5
19ABC
330
1999A
100
AcDbEntity
  8
0
100
AcDbLine
 10
-1349.8522852561
 20
214.0101299894163
 30
0.0
 11
-1349.852285256087
 21
36.07499999999982
 31
0.0
  0
LINE
  5
19ABD
330
1999A
100
AcDbEntity
  8
0
100
AcDbLine
 10
-1439.998560000007
 20
108.2249999999994
 30
0.0
 11
-719.9992800000036
 21
108.2250000000003
 31
0.0
  0
LINE
  5
19ABE
330
1999A
100
AcDbEntity
  8
0
100
AcDbLine
 10
-1439.998560000007
 20
144.3000000000002
 30
0.0
 11
-719.9992800000036
 21
144.3000000000002
 31
0.0
  0
LINE
  5
19ABF
330
1999A
100
AcDbEntity
  8
0
100
AcDbLine
 10
-1439.998560000008
 20
214.0101299894159
 30
0.0
 11
-719.9992800000045
 21
214.0101299894159
 31
0.0
  0
LINE
  5
19AC0
330
1999A
100
AcDbEntity
  8
0
100
AcDbLine
 10
-1439.998560000007
 20
108.2249999999994
 30
0.0
 11
-719.9992800000036
 21
108.2250000000003
 31
0.0
  0
LINE
  5
19AC1
330
1999A
100
AcDbEntity
  8
0
100
AcDbLine
 10
-1439.998560000007
 20
144.3000000000002
 30
0.0
 11
-719.9992800000036
 21
144.3000000000002
 31
0.0
  0
LINE
  5
19AC2
330
1999A
100
AcDbEntity
  8
0
100
AcDbLine
 10
-1439.998560000008
 20
177.9351299894156
 30
0.0
 11
-719.9992800000045
 21
177.9351299894156
 31
0.0
  0
LINE
  5
19AC3
330
1999A
100
AcDbEntity
  8
0
100
AcDbLine
 10
-1439.998560000007
 20
0.0
 30
0.0
 11
-1439.998560000008
 21
214.0101299894159
 31
0.0
  0
LINE
  5
19AC4
330
1999A
100
AcDbEntity
  8
0
 62
     0
100
AcDbLine
 10
-459.9995400000043
 20
71.99992800000018
 30
0.0
 11
-459.9995400000043
 21
0.0
 31
0.0
  0
LINE
  5
19AC5
330
1999A
100
AcDbEntity
  8
图层1
 62
     0
100
AcDbLine
 10
0.0000000000009095
 20
108.2250000000003
 30
0.0
 11
-719.9992800000027
 21
108.2250000000003
 31
0.0
  0
LINE
  5
19AC6
330
1999A
100
AcDbEntity
  8
图层1
 62
     0
100
AcDbLine
 10
-719.9992800000036
 20
107.9998919999998
 30
0.0
 11
-719.9992800000036
 21
0.0
 31
0.0
  0
LINE
  5
19AC7
330
1999A
100
AcDbEntity
  8
0
 62
     0
100
AcDbLine
 10
-639.9993600000016
 20
107.9998919999998
 30
0.0
 11
-639.9993600000016
 21
0.0
 31
0.0
  0
LINE
  5
19AC8
330
1999A
100
AcDbEntity
  8
0
 62
     0
100
AcDbLine
 10
-539.9994599999918
 20
107.9998919999998
 30
0.0
 11
-539.9994599999918
 21
0.0
 31
0.0
  0
LINE
  5
19AC9
330
1999A
100
AcDbEntity
  8
0
 62
     0
100
AcDbLine
 10
-459.9995400000043
 20
107.9998919999998
 30
0.0
 11
-459.9995400000043
 21
0.0
 31
0.0
  0
LINE
  5
19ACA
330
1999A
100
AcDbEntity
  8
0
 62
     0
100
AcDbLine
 10
-184.2408297806541
 20
0.0
 30
0.0
 11
-184.2408297806541
 21
72.07496399999945
 31
0.0
  0
LINE
  5
19ACB
330
1999A
100
AcDbEntity
  8
0
 62
     0
100
AcDbLine
 10
-719.9992800000036
 20
35.99996399999964
 30
0.0
 11
-184.2408297806541
 21
36.03748199999973
 31
0.0
  0
LINE
  5
19ACC
330
1999A
100
AcDbEntity
  8
0
 62
     0
100
AcDbLine
 10
-319.9996799999935
 20
71.99992800000018
 30
0.0
 11
0.0
 21
71.99992800000018
 31
0.0
  0
TEXT
  5
19ACD
330
1999A
100
AcDbEntity
  8
0
 62
     0
100
AcDbText
 10
-713.5408238968957
 20
76.13548681056363
 30
0.0
 40
27.999972
  1
制 图
 41
1.369027361224018
  7
gb
 72
     5
 11
-650.0287553177331
 21
76.13548681056363
 31
0.0
100
AcDbText
  0
TEXT
  5
19ACE
330
1999A
100
AcDbEntity
  8
0
 62
     0
100
AcDbText
 10
-713.5408238968957
 20
41.03389433006486
 30
0.0
 40
27.999972
  1
审 核
 41
1.308074199558214
  7
gb
 72
     5
 11
-650.0287553177331
 21
41.03389433006486
 31
0.0
100
AcDbText
  0
TEXT
  5
19ACF
330
1999A
100
AcDbEntity
  8
0
 62
     0
100
AcDbText
 10
-713.5408238968957
 20
4.91975819646359
 30
0.0
 40
27.999972
  1
校 核
 41
1.308074199558214
  7
gb
 72
     5
 11
-650.0287553177331
 21
4.91975819646359
 31
0.0
100
AcDbText
  0
TEXT
  5
19AD0
330
1999A
100
AcDbEntity
  8
0
 62
     0
100
AcDbText
 10
-531.6924624674138
 20
42.0564729676771
 30
0.0
 40
27.999972
  1
图 号
 41
1.33351944695596
  7
gb
 72
     5
 11
-468.1803938882512
 21
42.0564729676771
 31
0.0
100
AcDbText
  0
TEXT
  5
19AD1
330
1999A
100
AcDbEntity
  8
0
 62
     0
100
AcDbText
 10
-534.5789932400512
 20
75.91086630040718
 30
0.0
 40
27.999972
  1
名 称
 41
1.316447362997775
  7
gb
 72
     5
 11
-471.0669246608886
 21
75.91086630040718
 31
0.0
100
AcDbText
  0
TEXT
  5
19AD2
330
1999A
100
AcDbEntity
  8
0
 62
     0
100
AcDbText
 10
-160.9229787581862
 20
19.63542605013026
 30
0.0
 40
35.99996400000001
  1
珠海广金公司
 41
0.9184835974031276
  7
gb
 72
     5
 11
-20.5166927674727
 21
19.63542605013026
 31
0.0
100
AcDbText
  0
LINE
  5
19AD3
330
1999A
100
AcDbEntity
  8
图层1
 62
     0
100
AcDbLine
 10
-2135.997864000005
 20
0.000000000001819
 30
0.0
 11
0.0
 21
0.0
 31
0.0
  0
LINE
  5
19AD4
330
1999A
100
AcDbEntity
  8
图层1
 62
     0
100
AcDbLine
 10
0.0
 20
0.0
 30
0.0
 11
0.0
 21
1603.432300189704
 31
0.0
  0
TEXT
  5
19AD5
330
1999A
100
AcDbEntity
  8
0
 62
     0
100
AcDbText
 10
-571.2439524221563
 20
686.9399069567188
 30
0.0
 40
27.999972
  1
边部形态
 41
0.7940476157762545
  7
gb
 72
     5
 11
-507.7318838430082
 21
686.9399069567188
 31
0.0
100
AcDbText
  0
TEXT
  5
19AD6
330
1999A
100
AcDbEntity
  8
0
 62
     0
100
AcDbText
 10
-385.2328467712068
 20
396.7222735093828
 30
0.0
 40
27.999972
  1
图纸中表示
 41
0.6386904735593076
  7
gb
 72
     5
 11
-321.7207781920442
 21
396.7222735093828
 31
0.0
100
AcDbText
  0
TEXT
  5
19AD7
330
1999A
100
AcDbEntity
  8
0
 62
     0
100
AcDbText
 10
-385.2328467712068
 20
580.0616941657335
 30
0.0
 40
27.999972
  1
图纸中表示
 41
0.6386904735593076
  7
gb
 72
     5
 11
-321.7207781920442
 21
580.0616941657335
 31
0.0
100
AcDbText
  0
TEXT
  5
19AD8
330
1999A
100
AcDbEntity
  8
0
 62
     0
100
AcDbText
 10
-584.6654902139416
 20
540.9119065036575
 30
0.0
 40
27.999972
  1
防震胶位置
 41
0.9916146980622078
  7
gb
 72
     5
 11
-485.1395557065261
 21
540.9119065036575
 31
0.0
100
AcDbText
  0
TEXT
  5
19AD9
330
1999A
100
AcDbEntity
  8
0
 62
     0
100
AcDbText
 10
-571.2439524221553
 20
580.665356143465
 30
0.0
 40
27.999972
  1
加强根类型
 41
0.6347479397717591
  7
gb
 72
     5
 11
-507.7318838430073
 21
580.665356143465
 31
0.0
100
AcDbText
  0
TEXT
  5
19ADA
330
1999A
100
AcDbEntity
  8
0
 62
     0
100
AcDbText
 10
-571.2439524221553
 20
324.194184730743
 30
0.0
 40
27.999972
  1
底部处理
 41
0.7971253197133717
  7
gb
 72
     5
 11
-507.7318838430073
 21
324.194184730743
 31
0.0
100
AcDbText
  0
TEXT
  5
19ADB
330
1999A
100
AcDbEntity
  8
0
 62
     0
100
AcDbText
 10
-385.2328467712086
 20
433.7756017283768
 30
0.0
 40
27.999972
  1
图纸中表示
 41
0.6386904735593076
  7
gb
 72
     5
 11
-321.720778192046
 21
433.7756017283768
 31
0.0
100
AcDbText
  0
TEXT
  5
19ADC
330
1999A
100
AcDbEntity
  8
0
 62
     0
100
AcDbText
 10
-571.2439524221572
 20
433.7756017283768
 30
0.0
 40
27.999972
  1
商标位置
 41
0.7940476157762545
  7
gb
 72
     5
 11
-507.7318838430092
 21
433.7756017283768
 31
0.0
100
AcDbText
  0
TEXT
  5
19ADD
330
1999A
100
AcDbEntity
  8
0
 62
     0
100
AcDbText
 10
-567.0431202342306
 20
472.0293862778489
 30
0.0
 40
27.999972
  1
加强根工艺
 41
0.6446969670410567
  7
gb
 72
     5
 11
-503.531051655068
 21
472.0293862778489
 31
0.0
100
AcDbText
  0
TEXT
  5
19ADE
330
1999A
100
AcDbEntity
  8
0
 62
     0
100
AcDbText
 10
-584.8325857502932
 20
507.9999442963949
 30
0.0
 40
27.999972
  1
翼板防震类型
 41
0.7827672308784085
  7
gb
 72
     5
 11
-490.5552738380793
 21
507.9999442963949
 31
0.0
100
AcDbText
  0
TEXT
  5
19ADF
330
1999A
100
AcDbEntity
  8
0
 62
     0
100
AcDbText
 10
-571.2439524221553
 20
399.4288716026549
 30
0.0
 40
27.999972
  1
商标代码
 41
0.7940476157762544
  7
gb
 72
     5
 11
-507.7318838430073
 21
399.4288716026549
 31
0.0
100
AcDbText
  0
TEXT
  5
19AE0
330
1999A
100
AcDbEntity
  8
0
 62
     0
100
AcDbText
 10
-571.2439524221572
 20
360.0437220651493
 30
0.0
 40
27.999972
  1
商标工艺
 41
0.8128787845298415
  7
gb
 72
     5
 11
-507.7318838430092
 21
360.0437220651493
 31
0.0
100
AcDbText
  0
TEXT
  5
19AE1
330
1999A
100
AcDbEntity
  8
0
 62
     0
100
AcDbText
 10
-571.2439524221581
 20
650.2864077151139
 30
0.0
 40
27.999972
  1
底部处理
 41
0.7971253197133717
  7
gb
 72
     5
 11
-507.7318838430101
 21
650.2864077151139
 31
0.0
100
AcDbText
  0
TEXT
  5
19AE2
330
1999A
100
AcDbEntity
  8
0
 62
     0
100
AcDbText
 10
-571.2439524221563
 20
291.8954610971464
 30
0.0
 40
27.999972
  1
面板厚度
 41
0.7879629597166664
  7
gb
 72
     5
 11
-507.7318838430082
 21
291.8954610971464
 31
0.0
100
AcDbText
  0
TEXT
  5
19AE3
330
1999A
100
AcDbEntity
  8
0
 62
     0
100
AcDbText
 10
-580.3199369030689
 20
616.7403561434653
 30
0.0
 40
27.999972
  1
加强根孔数、位置
 41
0.5487501052059134
  7
gb
 72
     5
 11
-491.6888136890374
 21
616.7403561434653
 31
0.0
100
AcDbText
  0
TEXT
  5
19AE4
330
1999A
100
AcDbEntity
  8
0
 62
     0
100
AcDbText
 10
-385.2328467712077
 20
616.1366941657338
 30
0.0
 40
27.999972
  1
图纸中表示（螺丝孔位置无需标注）
 41
0.4915589586800494
  7
gb
 72
     5
 11
-231.3469851537502
 21
616.1366941657338
 31
0.0
100
AcDbText
  0
MTEXT
  5
19AE5
330
1999A
100
AcDbEntity
  8
粗实线
100
AcDbMText
 10
-444.7464391002322
 20
28.58407065413849
 30
0.0
 40
15.0
 41
459.9995400000043
 46
0.0
 71
     1
 72
     5
  1
A
 73
     1
 44
1.0
  0
MTEXT
  5
19AE6
102
{ACAD_XDICTIONARY
360
1B57C
102
}
330
1999A
100
AcDbEntity
  8
0
100
AcDbMText
 10
-459.9995400000043
 20
68.77999212981467
 30
0.0
 40
30.0
 41
275.7587102193502
 46
0.0
 71
     1
 72
     5
  1
\pi74.28526;{\Fgeniso|c134;NH377S}
  7
gb
 73
     1
 44
1.0
1001
ACAD
1000
ACAD_MTEXT_COLUMN_INFO_BEGIN
1070
    75
1070
     2
1070
    79
1070
     0
1070
    76
1070
     1
1070
    78
1070
     0
1070
    48
1040
275.7587102193502
1070
    49
1040
12.5
1070
    50
1070
     1
1040
0.0
1000
ACAD_MTEXT_COLUMN_INFO_END
  0
ENDBLK
  5
19A17
330
1999A
100
AcDbEntity
  8
0
100
AcDbBlockEnd
  0
BLOCK
  5
19BE6
330
19BE3
100
AcDbEntity
  8
0
100
AcDbBlockBegin
  2
A
 70
     0
 10
0.0
 20
0.0
 30
0.0
  3
A
  1

  0
LWPOLYLINE
  5
19CFD
330
19BE3
100
AcDbEntity
  8
0
370
    -3
100
AcDbPolyline
 90
        4
 70
     1
 43
0.0
 10
-2335.997663999995
 20
1639.998360000001
 10
-2335.997663999995
 20
-39.9999600000001
 10
39.99996000000101
 20
-39.9999600000001
 10
39.99996000000101
 20
1639.998360000001
  0
LINE
  5
19CFE
330
19BE3
100
AcDbEntity
  8
0
 62
     0
370
    -3
100
AcDbLine
 10
-2135.997864000005
 20
1603.432300189704
 30
0.0
 11
-2135.997864000005
 21
0.000000000001819
 31
0.0
  0
LINE
  5
19CFF
330
19BE3
100
AcDbEntity
  8
0
 62
     0
370
    -3
100
AcDbLine
 10
0.0
 20
1603.432300189704
 30
0.0
 11
-2135.997864000005
 21
1603.432300189704
 31
0.0
  0
LINE
  5
19D00
330
19BE3
100
AcDbEntity
  8
0
370
    -3
100
AcDbLine
 10
-719.9992800000036
 20
286.1601299894155
 30
0.0
 11
0.0
 21
286.1601299894164
 31
0.0
  0
LINE
  5
19D01
330
19BE3
100
AcDbEntity
  8
0
370
    -3
100
AcDbLine
 10
-719.9992800000036
 20
250.0851299894157
 30
0.0
 11
0.0
 21
250.0851299894166
 31
0.0
  0
LINE
  5
19D02
330
19BE3
100
AcDbEntity
  8
0
370
    -3
100
AcDbLine
 10
-719.9992800000036
 20
214.0101299894159
 30
0.0
 11
0.0
 21
214.0101299894168
 31
0.0
  0
LINE
  5
19D03
330
19BE3
100
AcDbEntity
  8
0
370
    -3
100
AcDbLine
 10
-719.9992800000036
 20
108.2250000000003
 30
0.0
 11
0.0
 21
108.2250000000003
 31
0.0
  0
LINE
  5
19D04
330
19BE3
100
AcDbEntity
  8
0
370
    -3
100
AcDbLine
 10
-719.9992800000036
 20
144.3000000000011
 30
0.0
 11
0.0
 21
144.3000000000011
 31
0.0
  0
LINE
  5
19D05
330
19BE3
100
AcDbEntity
  8
0
370
    -3
100
AcDbLine
 10
-719.9992800000036
 20
108.2250000000003
 30
0.0
 11
0.0
 21
108.2250000000013
 31
0.0
  0
LINE
  5
19D06
330
19BE3
100
AcDbEntity
  8
0
370
    -3
100
AcDbLine
 10
-618.5004666916793
 20
500.7715492956686
 30
0.0
 11
-618.5004666916784
 21
144.3000000000011
 31
0.0
  0
LINE
  5
19D07
330
19BE3
100
AcDbEntity
  8
0
370
    -3
100
AcDbLine
 10
-719.9992800000036
 20
286.1601299894155
 30
0.0
 11
0.0
 21
286.1601299894164
 31
0.0
  0
LINE
  5
19D08
330
19BE3
100
AcDbEntity
  8
0
370
    -3
100
AcDbLine
 10
-443.63684372649
 20
500.7715492956686
 30
0.0
 11
-443.63684372649
 21
144.3000000000011
 31
0.0
  0
LINE
  5
19D09
330
19BE3
100
AcDbEntity
  8
0
370
    -3
100
AcDbLine
 10
-1439.998560000007
 20
72.14999999999964
 30
0.0
 11
-719.9992800000036
 21
72.15000000000054
 31
0.0
  0
LINE
  5
19D0A
330
19BE3
100
AcDbEntity
  8
0
370
    -3
100
AcDbLine
 10
-1439.998560000007
 20
36.07499999999982
 30
0.0
 11
-719.9992800000036
 21
36.07499999999982
 31
0.0
  0
LINE
  5
19D0B
330
19BE3
100
AcDbEntity
  8
0
370
    -3
100
AcDbLine
 10
-1439.998560000007
 20
72.14999999999964
 30
0.0
 11
-719.9992800000036
 21
72.15000000000054
 31
0.0
  0
LINE
  5
19D0C
330
19BE3
100
AcDbEntity
  8
0
370
    -3
100
AcDbLine
 10
-1439.998560000007
 20
36.07499999999982
 30
0.0
 11
-189.2408297806541
 21
36.07499999999982
 31
0.0
  0
LINE
  5
19D0D
330
19BE3
100
AcDbEntity
  8
0
370
    -3
100
AcDbLine
 10
-719.9992800000036
 20
0.0
 30
0.0
 11
-1439.998560000007
 21
0.0
 31
0.0
  0
LINE
  5
19D0E
330
19BE3
100
AcDbEntity
  8
0
370
    -3
100
AcDbLine
 10
0.0
 20
72.14999999999964
 30
0.0
 11
-1439.998560000007
 21
72.14999999999964
 31
0.0
  0
LINE
  5
19D0F
330
19BE3
100
AcDbEntity
  8
0
370
    -3
100
AcDbLine
 10
-719.9992800000036
 20
252.525000000001
 30
0.0
 11
-719.9992800000036
 21
72.14999999999964
 31
0.0
  0
LINE
  5
19D10
330
19BE3
100
AcDbEntity
  8
0
370
    -3
100
AcDbLine
 10
-719.9992800000036
 20
322.2351299894163
 30
0.0
 11
0.0
 21
322.2351299894163
 31
0.0
  0
LINE
  5
19D11
330
19BE3
100
AcDbEntity
  8
0
370
    -3
100
AcDbLine
 10
-719.9992800000036
 20
286.1601299894155
 30
0.0
 11
0.0
 21
286.1601299894155
 31
0.0
  0
LINE
  5
19D12
330
19BE3
100
AcDbEntity
  8
0
370
    -3
100
AcDbLine
 10
-719.9992800000036
 20
355.8702599788312
 30
0.0
 11
0.0
 21
355.8702599788321
 31
0.0
  0
LINE
  5
19D13
330
19BE3
100
AcDbEntity
  8
0
370
    -3
100
AcDbLine
 10
-719.9992800000036
 20
391.945259978831
 30
0.0
 11
0.0
 21
391.9452599788319
 31
0.0
  0
LINE
  5
19D14
330
19BE3
100
AcDbEntity
  8
0
370
    -3
100
AcDbLine
 10
-719.9992800000036
 20
428.0202599788308
 30
0.0
 11
0.0
 21
428.0202599788317
 31
0.0
  0
LINE
  5
19D15
330
19BE3
100
AcDbEntity
  8
0
370
    -3
100
AcDbLine
 10
-719.9992800000036
 20
464.0952599788315
 30
0.0
 11
0.0
 21
464.0952599788315
 31
0.0
  0
LINE
  5
19D16
330
19BE3
100
AcDbEntity
  8
0
370
    -3
100
AcDbLine
 10
-719.9992800000036
 20
500.1702599788313
 30
0.0
 11
0.0
 21
500.1702599788313
 31
0.0
  0
LINE
  5
19D17
330
19BE3
100
AcDbEntity
  8
0
370
    -3
100
AcDbLine
 10
-719.9992800000036
 20
536.2452599788311
 30
0.0
 11
0.0
 21
536.2452599788321
 31
0.0
  0
LINE
  5
19D18
330
19BE3
100
AcDbEntity
  8
0
370
    -3
100
AcDbLine
 10
-719.9992800000036
 20
572.320259978831
 30
0.0
 11
0.0
 21
572.3202599788319
 31
0.0
  0
LINE
  5
19D19
330
19BE3
100
AcDbEntity
  8
0
370
    -3
100
AcDbLine
 10
-719.9992800000036
 20
608.3952599788317
 30
0.0
 11
0.0
 21
608.3952599788317
 31
0.0
  0
LINE
  5
19D1A
330
19BE3
100
AcDbEntity
  8
0
370
    -3
100
AcDbLine
 10
-719.9992800000036
 20
644.4702599788306
 30
0.0
 11
0.0
 21
644.4702599788315
 31
0.0
  0
LINE
  5
19D1B
330
19BE3
100
AcDbEntity
  8
0
370
    -3
100
AcDbLine
 10
-719.9992800000036
 20
680.5452599788313
 30
0.0
 11
0.0
 21
680.5452599788313
 31
0.0
  0
LINE
  5
19D1C
330
19BE3
100
AcDbEntity
  8
0
370
    -3
100
AcDbLine
 10
-719.9992800000036
 20
108.2250000000003
 30
0.0
 11
-719.9992800000029
 21
680.5452599788313
 31
0.0
  0
LINE
  5
19D1D
330
19BE3
100
AcDbEntity
  8
0
370
    -3
100
AcDbLine
 10
-1439.998560000007
 20
108.2249999999994
 30
0.0
 11
-719.9992800000036
 21
108.2250000000003
 31
0.0
  0
LINE
  5
19D1E
330
19BE3
100
AcDbEntity
  8
0
370
    -3
100
AcDbLine
 10
-1439.998560000007
 20
144.3000000000002
 30
0.0
 11
-719.9992800000036
 21
144.3000000000002
 31
0.0
  0
LINE
  5
19D1F
330
19BE3
100
AcDbEntity
  8
0
370
    -3
100
AcDbLine
 10
-1439.998560000007
 20
108.2249999999994
 30
0.0
 11
-719.9992800000036
 21
108.2250000000003
 31
0.0
  0
LINE
  5
19D20
330
19BE3
100
AcDbEntity
  8
0
370
    -3
100
AcDbLine
 10
-1439.998560000007
 20
144.3000000000002
 30
0.0
 11
-719.9992800000036
 21
144.3000000000002
 31
0.0
  0
LINE
  5
19D21
330
19BE3
100
AcDbEntity
  8
0
370
    -3
100
AcDbLine
 10
-1439.998560000007
 20
0.0
 30
0.0
 11
-1439.998560000007
 21
177.935129989416
 31
0.0
  0
LINE
  5
19D22
330
19BE3
100
AcDbEntity
  8
0
370
    -3
100
AcDbLine
 10
-459.9995400000043
 20
71.99992800000018
 30
0.0
 11
-459.9995400000043
 21
0.0
 31
0.0
  0
LINE
  5
19D23
330
19BE3
100
AcDbEntity
  8
0
370
    -3
100
AcDbLine
 10
0.0000000000009095
 20
108.2250000000003
 30
0.0
 11
-719.9992800000027
 21
108.2250000000003
 31
0.0
  0
LINE
  5
19D24
330
19BE3
100
AcDbEntity
  8
0
370
    -3
100
AcDbLine
 10
-719.9992800000036
 20
107.9998919999998
 30
0.0
 11
-719.9992800000036
 21
0.0
 31
0.0
  0
LINE
  5
19D25
330
19BE3
100
AcDbEntity
  8
0
370
    -3
100
AcDbLine
 10
-639.9993600000016
 20
107.9998919999998
 30
0.0
 11
-639.9993600000016
 21
0.0
 31
0.0
  0
LINE
  5
19D26
330
19BE3
100
AcDbEntity
  8
0
370
    -3
100
AcDbLine
 10
-539.9994599999918
 20
107.9998919999998
 30
0.0
 11
-539.9994599999918
 21
0.0
 31
0.0
  0
LINE
  5
19D27
330
19BE3
100
AcDbEntity
  8
0
370
    -3
100
AcDbLine
 10
-459.9995400000043
 20
107.9998919999998
 30
0.0
 11
-459.9995400000043
 21
0.0
 31
0.0
  0
LINE
  5
19D28
330
19BE3
100
AcDbEntity
  8
0
370
    -3
100
AcDbLine
 10
-189.2408297806541
 20
0.0
 30
0.0
 11
-189.2408297806541
 21
72.14999999999964
 31
0.0
  0
LINE
  5
19D29
330
19BE3
100
AcDbEntity
  8
0
370
    -3
100
AcDbLine
 10
-2135.997864000005
 20
0.000000000001819
 30
0.0
 11
0.0
 21
0.0
 31
0.0
  0
LINE
  5
19D2A
330
19BE3
100
AcDbEntity
  8
0
370
    -3
100
AcDbLine
 10
0.0
 20
0.0
 30
0.0
 11
0.0
 21
1603.432300189704
 31
0.0
  0
MTEXT
  5
19D2B
330
19BE3
100
AcDbEntity
  8
0
370
    -3
100
AcDbMText
 10
-444.7464391002322
 20
28.58407065413849
 30
0.0
 40
15.0
 41
174.8636229651886
 46
0.0
 71
     1
 72
     5
  1
{\fSimSun|b0|i0|c0|p2;A}
 73
     1
 44
1.0
  0
MTEXT
  5
19D2C
102
{ACAD_XDICTIONARY
360
1B57E
102
}
330
19BE3
100
AcDbEntity
  8
0
370
    -3
100
AcDbMText
 10
-459.9995400000044
 20
98.73683232885321
 30
0.0
 40
15.0
 41
459.9995400000053
 46
0.0
 71
     1
 72
     5
  1
\pi198.53329;{\fSimSun|b0|i0|c134|p2;NH377S}
 73
     1
 44
1.0
1001
ACAD
1000
ACAD_MTEXT_COLUMN_INFO_BEGIN
1070
    75
1070
     2
1070
    79
1070
     0
1070
    76
1070
     1
1070
    78
1070
     0
1070
    48
1040
459.9995400000053
1070
    49
1040
12.5
1070
    50
1070
     1
1040
0.0
1000
ACAD_MTEXT_COLUMN_INFO_END
  0
MTEXT
  5
19D2D
330
19BE3
100
AcDbEntity
  8
0
370
    -3
100
AcDbMText
 10
-1349.852285256089
 20
63.45690120669053
 30
0.0
 40
15.0
 41
514.2218161997058
 46
0.0
 71
     1
 72
     5
  1
\pi236.86;名称
 73
     1
 44
1.0
1001
ACAD
1000
ACAD_MTEXT_COLUMN_INFO_BEGIN
1070
    75
1070
     2
1070
    79
1070
     0
1070
    76
1070
     1
1070
    78
1070
     0
1070
    48
1040
514.2218161997058
1070
    49
1040
35.0
1070
    50
1070
     1
1040
0.0
1000
ACAD_MTEXT_COLUMN_INFO_END
  0
MTEXT
  5
19D2E
330
19BE3
100
AcDbEntity
  8
0
370
    -3
100
AcDbMText
 10
-1349.852285256092
 20
102.9941338242726
 30
0.0
 40
15.0
 41
514.2218161997084
 46
0.0
 71
     1
 72
     5
  1
\pi146.4;BH 02 377C 面板半成品
 73
     1
 44
1.0
1001
ACAD
1000
ACAD_MTEXT_COLUMN_INFO_BEGIN
1070
    75
1070
     2
1070
    79
1070
     0
1070
    76
1070
     1
1070
    78
1070
     0
1070
    48
1040
514.2218161997084
1070
    49
1040
35.0
1070
    50
1070
     1
1040
0.0
1000
ACAD_MTEXT_COLUMN_INFO_END
  0
MTEXT
  5
19D2F
330
19BE3
100
AcDbEntity
  8
0
370
    -3
100
AcDbMText
 10
-1439.998560000007
 20
28.04258484162074
 30
0.0
 40
15.0
 41
719.9992800000036
 46
0.0
 71
     1
 72
     5
  1
\pi329.08;组成表
 73
     1
 44
1.0
1001
ACAD
1000
ACAD_MTEXT_COLUMN_INFO_BEGIN
1070
    75
1070
     2
1070
    79
1070
     0
1070
    76
1070
     1
1070
    78
1070
     0
1070
    48
1040
719.9992800000036
1070
    49
1040
35.0
1070
    50
1070
     1
1040
0.0
1000
ACAD_MTEXT_COLUMN_INFO_END
  0
MTEXT
  5
19D30
330
19BE3
100
AcDbEntity
  8
0
370
    -3
100
AcDbMText
 10
-187.3161757300913
 20
57.93677518585264
 30
0.0
 40
13.0
 41
184.2408297806541
 46
0.0
 71
     1
 72
     5
  1
\pi1.2649;{\fSimSun|b0|i0|c134|p54;珠海广金贸易有限公司}
  7
gb
 73
     1
 44
1.0
1001
ACAD
1000
ACAD_MTEXT_COLUMN_INFO_BEGIN
1070
    75
1070
     2
1070
    79
1070
     0
1070
    76
1070
     1
1070
    78
1070
     0
1070
    48
1040
184.2408297806541
1070
    49
1040
35.0
1070
    50
1070
     1
1040
26.27896689384034
1000
ACAD_MTEXT_COLUMN_INFO_END
  0
MTEXT
  5
19D31
102
{ACAD_XDICTIONARY
360
1B580
102
}
330
19BE3
100
AcDbEntity
  8
0
370
    -3
100
AcDbMText
 10
-187.3161757300913
 20
26.42711356701421
 30
0.0
 40
8.0
 41
184.2408297806541
 46
0.0
 71
     1
 72
     5
  1
\pi2.60086;{\fSimSun|b0|i0|c134|p2;ZHUHAI GOLCONDA TRADING CD.,LTD.}
 73
     1
 44
1.0
1001
ACAD
1000
ACAD_MTEXT_COLUMN_INFO_BEGIN
1070
    75
1070
     2
1070
    79
1070
     0
1070
    76
1070
     1
1070
    78
1070
     0
1070
    48
1040
184.2408297806541
1070
    49
1040
35.0
1070
    50
1070
     1
1040
0.0
1000
ACAD_MTEXT_COLUMN_INFO_END
  0
MTEXT
  5
19D32
330
19BE3
100
AcDbEntity
  8
0
370
    -3
100
AcDbMText
 10
-539.9994599999918
 20
28.96890394108612
 30
0.0
 40
15.0
 41
79.99991999998724
 46
0.0
 71
     1
 72
     5
  1
\pi19.625;版本
 73
     1
 44
1.0
1001
ACAD
1000
ACAD_MTEXT_COLUMN_INFO_BEGIN
1070
    75
1070
     2
1070
    79
1070
     0
1070
    76
1070
     1
1070
    78
1070
     0
1070
    48
1040
79.99991999998724
1070
    49
1040
35.0
1070
    50
1070
     1
1040
0.0
1000
ACAD_MTEXT_COLUMN_INFO_END
  0
MTEXT
  5
19D33
330
19BE3
100
AcDbEntity
  8
0
370
    -3
100
AcDbMText
 10
-539.9994599999918
 20
64.98147293731868
 30
0.0
 40
15.0
 41
79.99991999998724
 46
0.0
 71
     1
 72
     5
  1
\pi20.75;图号
 73
     1
 44
1.0
1001
ACAD
1000
ACAD_MTEXT_COLUMN_INFO_BEGIN
1070
    75
1070
     2
1070
    79
1070
     0
1070
    76
1070
     1
1070
    78
1070
     0
1070
    48
1040
79.99991999998724
1070
    49
1040
35.0
1070
    50
1070
     1
1040
0.0
1000
ACAD_MTEXT_COLUMN_INFO_END
  0
MTEXT
  5
19D34
330
19BE3
100
AcDbEntity
  8
0
370
    -3
100
AcDbMText
 10
-539.9994599999918
 20
101.0438679410855
 30
0.0
 40
15.0
 41
79.99991999998724
 46
0.0
 71
     1
 72
     5
  1
\pi19.75;名称
 73
     1
 44
1.0
1001
ACAD
1000
ACAD_MTEXT_COLUMN_INFO_BEGIN
1070
    75
1070
     2
1070
    79
1070
     0
1070
    76
1070
     1
1070
    78
1070
     0
1070
    48
1040
79.99991999998724
1070
    49
1040
35.0
1070
    50
1070
     1
1040
0.0
1000
ACAD_MTEXT_COLUMN_INFO_END
  0
MTEXT
  5
19D35
330
19BE3
100
AcDbEntity
  8
0
370
    -3
100
AcDbMText
 10
-719.9992800000036
 20
28.96890394108627
 30
0.0
 40
15.0
 41
79.99991999998724
 46
0.0
 71
     1
 72
     5
  1
\pi19.708;校核
 73
     1
 44
1.0
1001
ACAD
1000
ACAD_MTEXT_COLUMN_INFO_BEGIN
1070
    75
1070
     2
1070
    79
1070
     0
1070
    76
1070
     1
1070
    78
1070
     0
1070
    48
1040
79.99991999998724
1070
    49
1040
35.0
1070
    50
1070
     1
1040
0.0
1000
ACAD_MTEXT_COLUMN_INFO_END
  0
MTEXT
  5
19D36
330
19BE3
100
AcDbEntity
  8
0
370
    -3
100
AcDbMText
 10
-719.9992800000036
 20
65.04390394108547
 30
0.0
 40
15.0
 41
79.99991999998724
 46
0.0
 71
     1
 72
     5
  1
\pi19.958;审核
 73
     1
 44
1.0
1001
ACAD
1000
ACAD_MTEXT_COLUMN_INFO_BEGIN
1070
    75
1070
     2
1070
    79
1070
     0
1070
    76
1070
     1
1070
    78
1070
     0
1070
    48
1040
79.99991999998724
1070
    49
1040
35.0
1070
    50
1070
     1
1040
0.0
1000
ACAD_MTEXT_COLUMN_INFO_END
  0
MTEXT
  5
19D37
330
19BE3
100
AcDbEntity
  8
0
370
    -3
100
AcDbMText
 10
-719.9992800000036
 20
101.1189039410862
 30
0.0
 40
15.0
 41
79.99991999998724
 46
0.0
 71
     1
 72
     5
  1
\pi20.208;制图
 73
     1
 44
1.0
1001
ACAD
1000
ACAD_MTEXT_COLUMN_INFO_BEGIN
1070
    75
1070
     2
1070
    79
1070
     0
1070
    76
1070
     1
1070
    78
1070
     0
1070
    48
1040
79.99991999998724
1070
    49
1040
35.0
1070
    50
1070
     1
1040
0.0
1000
ACAD_MTEXT_COLUMN_INFO_END
  0
MTEXT
  5
19D38
330
19BE3
100
AcDbEntity
  8
0
370
    -3
100
AcDbMText
 10
-835.630469056384
 20
63.85964622257143
 30
0.0
 40
15.0
 41
115.6311890563804
 46
0.0
 71
     1
 72
     5
  1
\pi37.399;数量
 73
     1
 44
1.0
1001
ACAD
1000
ACAD_MTEXT_COLUMN_INFO_BEGIN
1070
    75
1070
     2
1070
    79
1070
     0
1070
    76
1070
     1
1070
    78
1070
     0
1070
    48
1040
115.6311890563804
1070
    49
1040
35.0
1070
    50
1070
     1
1040
0.0
1000
ACAD_MTEXT_COLUMN_INFO_END
  0
MTEXT
  5
19D39
102
{ACAD_XDICTIONARY
360
1B582
102
}
330
19BE3
100
AcDbEntity
  8
0
370
    -3
100
AcDbMText
 10
-835.6304690563842
 20
99.80797690497807
 30
0.0
 40
15.0
 41
115.6311890563805
 46
0.0
 71
     1
 72
     5
  1
\pi54.75694;1
 73
     1
 44
1.0
1001
ACAD
1000
ACAD_MTEXT_COLUMN_INFO_BEGIN
1070
    75
1070
     2
1070
    79
1070
     0
1070
    76
1070
     1
1070
    78
1070
     0
1070
    48
1040
115.6311890563805
1070
    49
1040
35.0
1070
    50
1070
     1
1040
0.0
1000
ACAD_MTEXT_COLUMN_INFO_END
  0
MTEXT
  5
19D3A
102
{ACAD_XDICTIONARY
360
1B584
102
}
330
19BE3
100
AcDbEntity
  8
0
370
    -3
100
AcDbMText
 10
-835.6304690563842
 20
135.8829769049786
 30
0.0
 40
15.0
 41
115.6311890563805
 46
0.0
 71
     1
 72
     5
  1
\pi54.75694;1
 73
     1
 44
1.0
1001
ACAD
1000
ACAD_MTEXT_COLUMN_INFO_BEGIN
1070
    75
1070
     2
1070
    79
1070
     0
1070
    76
1070
     1
1070
    78
1070
     0
1070
    48
1040
115.6311890563805
1070
    49
1040
35.0
1070
    50
1070
     1
1040
0.0
1000
ACAD_MTEXT_COLUMN_INFO_END
  0
MTEXT
  5
19D3B
330
19BE3
100
AcDbEntity
  8
0
370
    -3
100
AcDbMText
 10
-1439.998560000007
 20
64.40867620152146
 30
0.0
 40
15.0
 41
90.14627474392023
 46
0.0
 71
     1
 72
     5
  1
\pi24.781;序号
 73
     1
 44
1.0
1001
ACAD
1000
ACAD_MTEXT_COLUMN_INFO_BEGIN
1070
    75
1070
     2
1070
    79
1070
     0
1070
    76
1070
     1
1070
    78
1070
     0
1070
    48
1040
90.14627474392023
1070
    49
1040
35.0
1070
    50
1070
     1
1040
0.0
1000
ACAD_MTEXT_COLUMN_INFO_END
  0
MTEXT
  5
19D3C
102
{ACAD_XDICTIONARY
360
1B586
102
}
330
19BE3
100
AcDbEntity
  8
0
370
    -3
100
AcDbMText
 10
-1439.998560000007
 20
99.80797690497807
 30
0.0
 40
15.0
 41
90.14627474391557
 46
0.0
 71
     1
 72
     5
  1
\pi42.01448;1
 73
     1
 44
1.0
1001
ACAD
1000
ACAD_MTEXT_COLUMN_INFO_BEGIN
1070
    75
1070
     2
1070
    79
1070
     0
1070
    76
1070
     1
1070
    78
1070
     0
1070
    48
1040
90.14627474391557
1070
    49
1040
35.0
1070
    50
1070
     1
1040
0.0
1000
ACAD_MTEXT_COLUMN_INFO_END
  0
MTEXT
  5
19D3D
102
{ACAD_XDICTIONARY
360
1B588
102
}
330
19BE3
100
AcDbEntity
  8
0
370
    -3
100
AcDbMText
 10
-1439.998560000007
 20
135.8829769049779
 30
0.0
 40
15.0
 41
90.14627474391557
 46
0.0
 71
     1
 72
     5
  1
\pi40.92509;{\fSimSun|b0|i0|c134|p2;2}
 73
     1
 44
1.0
1001
ACAD
1000
ACAD_MTEXT_COLUMN_INFO_BEGIN
1070
    75
1070
     2
1070
    79
1070
     0
1070
    76
1070
     1
1070
    78
1070
     0
1070
    48
1040
90.14627474391557
1070
    49
1040
35.0
1070
    50
1070
     1
1040
0.0
1000
ACAD_MTEXT_COLUMN_INFO_END
  0
MTEXT
  5
19D3E
330
19BE3
100
AcDbEntity
  8
0
370
    -3
100
AcDbMText
 10
-1349.852285256095
 20
137.020290058531
 30
0.0
 40
15.0
 41
514.2218161997084
 46
0.0
 71
     1
 72
     5
  1
\pi146.4;BH 01 239A 盆体半成品
 73
     1
 44
1.0
1001
ACAD
1000
ACAD_MTEXT_COLUMN_INFO_BEGIN
1070
    75
1070
     2
1070
    79
1070
     0
1070
    76
1070
     1
1070
    78
1070
     0
1070
    48
1040
514.2218161997084
1070
    49
1040
35.0
1070
    50
1070
     1
1040
0.0
1000
ACAD_MTEXT_COLUMN_INFO_END
  0
MTEXT
  5
19D3F
330
19BE3
100
AcDbEntity
  8
0
370
    -3
100
AcDbMText
 10
-443.63684372649
 20
174.0973524986402
 30
0.0
 40
20.0
 41
443.63684372649
 46
0.0
 71
     1
 72
     5
  1
\pi194.93;备注
 73
     1
 44
1.0
1001
ACAD
1000
ACAD_MTEXT_COLUMN_INFO_BEGIN
1070
    75
1070
     2
1070
    79
1070
     0
1070
    76
1070
     1
1070
    78
1070
     0
1070
    48
1040
443.63684372649
1070
    49
1040
35.0
1070
    50
1070
     1
1040
0.0
1000
ACAD_MTEXT_COLUMN_INFO_END
  0
MTEXT
  5
19D40
330
19BE3
100
AcDbEntity
  8
0
370
    -3
100
AcDbMText
 10
-443.6368437264903
 20
421.7426124774704
 30
0.0
 40
15.0
 41
443.63684372649
 46
0.0
 71
     1
 72
     5
  1
\pi170.32;图纸中表示
 73
     1
 44
1.0
1001
ACAD
1000
ACAD_MTEXT_COLUMN_INFO_BEGIN
1070
    75
1070
     2
1070
    79
1070
     0
1070
    76
1070
     1
1070
    78
1070
     0
1070
    48
1040
443.63684372649
1070
    49
1040
35.0
1070
    50
1070
     1
1040
0.0
1000
ACAD_MTEXT_COLUMN_INFO_END
  0
MTEXT
  5
19D41
330
19BE3
100
AcDbEntity
  8
0
370
    -3
100
AcDbMText
 10
-443.6368437264903
 20
457.8176124774703
 30
0.0
 40
15.0
 41
443.63684372649
 46
0.0
 71
     1
 72
     5
  1
\pi170.32;图纸中表示
 73
     1
 44
1.0
1001
ACAD
1000
ACAD_MTEXT_COLUMN_INFO_BEGIN
1070
    75
1070
     2
1070
    79
1070
     0
1070
    76
1070
     1
1070
    78
1070
     0
1070
    48
1040
443.63684372649
1070
    49
1040
35.0
1070
    50
1070
     1
1040
0.0
1000
ACAD_MTEXT_COLUMN_INFO_END
  0
MTEXT
  5
19D42
330
19BE3
100
AcDbEntity
  8
0
370
    -3
100
AcDbMText
 10
-443.6368437264903
 20
602.1176124774704
 30
0.0
 40
15.0
 41
443.63684372649
 46
0.0
 71
     1
 72
     5
  1
\pi170.32;图纸中表示
 73
     1
 44
1.0
1001
ACAD
1000
ACAD_MTEXT_COLUMN_INFO_BEGIN
1070
    75
1070
     2
1070
    79
1070
     0
1070
    76
1070
     1
1070
    78
1070
     0
1070
    48
1040
443.63684372649
1070
    49
1040
35.0
1070
    50
1070
     1
1040
0.0
1000
ACAD_MTEXT_COLUMN_INFO_END
  0
MTEXT
  5
19D43
330
19BE3
100
AcDbEntity
  8
0
370
    -3
100
AcDbMText
 10
-443.6368437264903
 20
638.1926124774707
 30
0.0
 40
15.0
 41
443.63684372649
 46
0.0
 71
     1
 72
     5
  1
\pi65.568;图纸中表示(螺丝孔位置无需标注)
 73
     1
 44
1.0
1001
ACAD
1000
ACAD_MTEXT_COLUMN_INFO_BEGIN
1070
    75
1070
     2
1070
    79
1070
     0
1070
    76
1070
     1
1070
    78
1070
     0
1070
    48
1040
443.63684372649
1070
    49
1040
35.0
1070
    50
1070
     1
1040
0.0
1000
ACAD_MTEXT_COLUMN_INFO_END
  0
MTEXT
  5
19D44
330
19BE3
100
AcDbEntity
  8
0
370
    -3
100
AcDbMText
 10
-712.3462304717234
 20
170.6572219437677
 30
0.0
 40
15.0
 41
90.14627474392023
 46
0.0
 71
     1
 72
     5
  1
\pi24.781;序号
 73
     1
 44
1.0
1001
ACAD
1000
ACAD_MTEXT_COLUMN_INFO_BEGIN
1070
    75
1070
     2
1070
    79
1070
     0
1070
    76
1070
     1
1070
    78
1070
     0
1070
    48
1040
90.14627474392023
1070
    49
1040
35.0
1070
    50
1070
     1
1040
0.0
1000
ACAD_MTEXT_COLUMN_INFO_END
  0
MTEXT
  5
19D45
330
19BE3
100
AcDbEntity
  8
0
370
    -3
100
AcDbMText
 10
-618.5004666916785
 20
172.3646426240111
 30
0.0
 40
15.0
 41
174.8636229651885
 46
0.0
 71
     1
 72
     5
  1
\pi68.557;项目
 73
     1
 44
1.0
1001
ACAD
1000
ACAD_MTEXT_COLUMN_INFO_BEGIN
1070
    75
1070
     2
1070
    79
1070
     0
1070
    76
1070
     1
1070
    78
1070
     0
1070
    48
1040
174.8636229651885
1070
    49
1040
35.0
1070
    50
1070
     1
1040
0.0
1000
ACAD_MTEXT_COLUMN_INFO_END
  0
MTEXT
  5
19D46
102
{ACAD_XDICTIONARY
360
1B58A
102
}
330
19BE3
100
AcDbEntity
  8
0
370
    -3
100
AcDbMText
 10
-719.9992800000035
 20
203.441139068418
 30
0.0
 40
15.0
 41
101.498813308325
 46
0.0
 71
     1
 72
     5
  1
\pi47.69075;{\fSimSun|b0|i0|c134|p2;1}
 73
     1
 44
1.0
1001
ACAD
1000
ACAD_MTEXT_COLUMN_INFO_BEGIN
1070
    75
1070
     2
1070
    79
1070
     0
1070
    76
1070
     1
1070
    78
1070
     0
1070
    48
1040
101.498813308325
1070
    49
1040
35.0
1070
    50
1070
     1
1040
0.0
1000
ACAD_MTEXT_COLUMN_INFO_END
  0
MTEXT
  5
19D47
102
{ACAD_XDICTIONARY
360
1B58C
102
}
330
19BE3
100
AcDbEntity
  8
0
370
    -3
100
AcDbMText
 10
-719.9992800000035
 20
239.5161390684183
 30
0.0
 40
15.0
 41
101.498813308325
 46
0.0
 71
     1
 72
     5
  1
\pi46.60136;{\fSimSun|b0|i0|c134|p2;2}
 73
     1
 44
1.0
1001
ACAD
1000
ACAD_MTEXT_COLUMN_INFO_BEGIN
1070
    75
1070
     2
1070
    79
1070
     0
1070
    76
1070
     1
1070
    78
1070
     0
1070
    48
1040
101.498813308325
1070
    49
1040
35.0
1070
    50
1070
     1
1040
0.0
1000
ACAD_MTEXT_COLUMN_INFO_END
  0
MTEXT
  5
19D48
102
{ACAD_XDICTIONARY
360
1B58E
102
}
330
19BE3
100
AcDbEntity
  8
0
370
    -3
100
AcDbMText
 10
-719.9992800000024
 20
275.5911390684181
 30
0.0
 40
15.0
 41
101.498813308325
 46
0.0
 71
     1
 72
     5
  1
\pi46.68516;{\fSimSun|b0|i0|c134|p2;3}
 73
     1
 44
1.0
1001
ACAD
1000
ACAD_MTEXT_COLUMN_INFO_BEGIN
1070
    75
1070
     2
1070
    79
1070
     0
1070
    76
1070
     1
1070
    78
1070
     0
1070
    48
1040
101.498813308325
1070
    49
1040
35.0
1070
    50
1070
     1
1040
0.0
1000
ACAD_MTEXT_COLUMN_INFO_END
  0
MTEXT
  5
19D49
102
{ACAD_XDICTIONARY
360
1B590
102
}
330
19BE3
100
AcDbEntity
  8
0
370
    -3
100
AcDbMText
 10
-719.9992800000036
 20
311.6661390684179
 30
0.0
 40
15.0
 41
101.498813308325
 46
0.0
 71
     1
 72
     5
  1
\pi46.14047;{\fSimSun|b0|i0|c134|p2;4}
 73
     1
 44
1.0
1001
ACAD
1000
ACAD_MTEXT_COLUMN_INFO_BEGIN
1070
    75
1070
     2
1070
    79
1070
     0
1070
    76
1070
     1
1070
    78
1070
     0
1070
    48
1040
101.498813308325
1070
    49
1040
35.0
1070
    50
1070
     1
1040
0.0
1000
ACAD_MTEXT_COLUMN_INFO_END
  0
MTEXT
  5
19D4A
102
{ACAD_XDICTIONARY
360
1B592
102
}
330
19BE3
100
AcDbEntity
  8
0
370
    -3
100
AcDbMText
 10
-719.9992800000024
 20
347.7411390684186
 30
0.0
 40
15.0
 41
101.498813308325
 46
0.0
 71
     1
 72
     5
  1
\pi46.68516;{\fSimSun|b0|i0|c134|p2;5}
 73
     1
 44
1.0
1001
ACAD
1000
ACAD_MTEXT_COLUMN_INFO_BEGIN
1070
    75
1070
     2
1070
    79
1070
     0
1070
    76
1070
     1
1070
    78
1070
     0
1070
    48
1040
101.498813308325
1070
    49
1040
35.0
1070
    50
1070
     1
1040
0.0
1000
ACAD_MTEXT_COLUMN_INFO_END
  0
MTEXT
  5
19D4B
102
{ACAD_XDICTIONARY
360
1B594
102
}
330
19BE3
100
AcDbEntity
  8
0
370
    -3
100
AcDbMText
 10
-719.9992800000022
 20
381.3762690578336
 30
0.0
 40
15.0
 41
101.498813308325
 46
0.0
 71
     1
 72
     5
  1
\pi46.43376;{\fSimSun|b0|i0|c134|p2;6}
 73
     1
 44
1.0
1001
ACAD
1000
ACAD_MTEXT_COLUMN_INFO_BEGIN
1070
    75
1070
     2
1070
    79
1070
     0
1070
    76
1070
     1
1070
    78
1070
     0
1070
    48
1040
101.498813308325
1070
    49
1040
35.0
1070
    50
1070
     1
1040
0.0
1000
ACAD_MTEXT_COLUMN_INFO_END
  0
MTEXT
  5
19D4C
102
{ACAD_XDICTIONARY
360
1B596
102
}
330
19BE3
100
AcDbEntity
  8
0
370
    -3
100
AcDbMText
 10
-719.9992800000022
 20
417.4512690578334
 30
0.0
 40
15.0
 41
101.498813308325
 46
0.0
 71
     1
 72
     5
  1
\pi46.68516;{\fSimSun|b0|i0|c134|p2;7}
 73
     1
 44
1.0
1001
ACAD
1000
ACAD_MTEXT_COLUMN_INFO_BEGIN
1070
    75
1070
     2
1070
    79
1070
     0
1070
    76
1070
     1
1070
    78
1070
     0
1070
    48
1040
101.498813308325
1070
    49
1040
35.0
1070
    50
1070
     1
1040
0.0
1000
ACAD_MTEXT_COLUMN_INFO_END
  0
MTEXT
  5
19D4D
102
{ACAD_XDICTIONARY
360
1B598
102
}
330
19BE3
100
AcDbEntity
  8
0
370
    -3
100
AcDbMText
 10
-719.9992800000021
 20
453.5262690578332
 30
0.0
 40
15.0
 41
101.498813308325
 46
0.0
 71
     1
 72
     5
  1
\pi46.47566;{\fSimSun|b0|i0|c134|p2;8}
 73
     1
 44
1.0
1001
ACAD
1000
ACAD_MTEXT_COLUMN_INFO_BEGIN
1070
    75
1070
     2
1070
    79
1070
     0
1070
    76
1070
     1
1070
    78
1070
     0
1070
    48
1040
101.498813308325
1070
    49
1040
35.0
1070
    50
1070
     1
1040
0.0
1000
ACAD_MTEXT_COLUMN_INFO_END
  0
MTEXT
  5
19D4E
102
{ACAD_XDICTIONARY
360
1B59A
102
}
330
19BE3
100
AcDbEntity
  8
0
370
    -3
100
AcDbMText
 10
-719.9992800000021
 20
489.601269057834
 30
0.0
 40
15.0
 41
101.498813308325
 46
0.0
 71
     1
 72
     5
  1
\pi46.43376;{\fSimSun|b0|i0|c134|p2;9}
 73
     1
 44
1.0
1001
ACAD
1000
ACAD_MTEXT_COLUMN_INFO_BEGIN
1070
    75
1070
     2
1070
    79
1070
     0
1070
    76
1070
     1
1070
    78
1070
     0
1070
    48
1040
101.498813308325
1070
    49
1040
35.0
1070
    50
1070
     1
1040
0.0
1000
ACAD_MTEXT_COLUMN_INFO_END
  0
MTEXT
  5
19D4F
102
{ACAD_XDICTIONARY
360
1B59C
102
}
330
19BE3
100
AcDbEntity
  8
0
370
    -3
100
AcDbMText
 10
-719.9992800000035
 20
525.6762690578337
 30
0.0
 40
15.0
 41
101.498813308325
 46
0.0
 71
     1
 72
     5
  1
\pi41.78293;{\fSimSun|b0|i0|c134|p2;10}
 73
     1
 44
1.0
1001
ACAD
1000
ACAD_MTEXT_COLUMN_INFO_BEGIN
1070
    75
1070
     2
1070
    79
1070
     0
1070
    76
1070
     1
1070
    78
1070
     0
1070
    48
1040
101.498813308325
1070
    49
1040
35.0
1070
    50
1070
     1
1040
0.0
1000
ACAD_MTEXT_COLUMN_INFO_END
  0
MTEXT
  5
19D50
102
{ACAD_XDICTIONARY
360
1B59E
102
}
330
19BE3
100
AcDbEntity
  8
0
370
    -3
100
AcDbMText
 10
-719.999280000002
 20
561.7512690578336
 30
0.0
 40
15.0
 41
101.498813308325
 46
0.0
 71
     1
 72
     5
  1
\pi42.32762;{\fSimSun|b0|i0|c134|p2;11}
 73
     1
 44
1.0
1001
ACAD
1000
ACAD_MTEXT_COLUMN_INFO_BEGIN
1070
    75
1070
     2
1070
    79
1070
     0
1070
    76
1070
     1
1070
    78
1070
     0
1070
    48
1040
101.498813308325
1070
    49
1040
35.0
1070
    50
1070
     1
1040
0.0
1000
ACAD_MTEXT_COLUMN_INFO_END
  0
MTEXT
  5
19D51
102
{ACAD_XDICTIONARY
360
1B5A0
102
}
330
19BE3
100
AcDbEntity
  8
0
370
    -3
100
AcDbMText
 10
-719.999280000002
 20
597.8262690578334
 30
0.0
 40
15.0
 41
101.498813308325
 46
0.0
 71
     1
 72
     5
  1
\pi41.90862;{\fSimSun|b0|i0|c134|p2;12}
 73
     1
 44
1.0
1001
ACAD
1000
ACAD_MTEXT_COLUMN_INFO_BEGIN
1070
    75
1070
     2
1070
    79
1070
     0
1070
    76
1070
     1
1070
    78
1070
     0
1070
    48
1040
101.498813308325
1070
    49
1040
35.0
1070
    50
1070
     1
1040
0.0
1000
ACAD_MTEXT_COLUMN_INFO_END
  0
MTEXT
  5
19D52
102
{ACAD_XDICTIONARY
360
1B5A2
102
}
330
19BE3
100
AcDbEntity
  8
0
370
    -3
100
AcDbMText
 10
-719.9992800000019
 20
633.9012690578341
 30
0.0
 40
15.0
 41
101.498813308325
 46
0.0
 71
     1
 72
     5
  1
\pi41.90862;{\fSimSun|b0|i0|c134|p2;13}
 73
     1
 44
1.0
1001
ACAD
1000
ACAD_MTEXT_COLUMN_INFO_BEGIN
1070
    75
1070
     2
1070
    79
1070
     0
1070
    76
1070
     1
1070
    78
1070
     0
1070
    48
1040
101.498813308325
1070
    49
1040
35.0
1070
    50
1070
     1
1040
0.0
1000
ACAD_MTEXT_COLUMN_INFO_END
  0
MTEXT
  5
19D53
102
{ACAD_XDICTIONARY
360
1B5A4
102
}
330
19BE3
100
AcDbEntity
  8
0
370
    -3
100
AcDbMText
 10
-719.9992800000019
 20
669.9762690578331
 30
0.0
 40
15.0
 41
101.498813308325
 46
0.0
 71
     1
 72
     5
  1
\pi41.61533;{\fSimSun|b0|i0|c134|p2;14}
 73
     1
 44
1.0
1001
ACAD
1000
ACAD_MTEXT_COLUMN_INFO_BEGIN
1070
    75
1070
     2
1070
    79
1070
     0
1070
    76
1070
     1
1070
    78
1070
     0
1070
    48
1040
101.498813308325
1070
    49
1040
35.0
1070
    50
1070
     1
1040
0.0
1000
ACAD_MTEXT_COLUMN_INFO_END
  0
MTEXT
  5
19D54
330
19BE3
100
AcDbEntity
  8
0
370
    -3
100
AcDbMText
 10
-618.5004666916786
 20
206.6985542073418
 30
0.0
 40
15.0
 41
174.8636229651886
 46
0.0
 71
     1
 72
     5
  1
\pi66.973;材质
 73
     1
 44
1.0
1001
ACAD
1000
ACAD_MTEXT_COLUMN_INFO_BEGIN
1070
    75
1070
     2
1070
    79
1070
     0
1070
    76
1070
     1
1070
    78
1070
     0
1070
    48
1040
174.8636229651886
1070
    49
1040
35.0
1070
    50
1070
     1
1040
0.0
1000
ACAD_MTEXT_COLUMN_INFO_END
  0
MTEXT
  5
19D55
330
19BE3
100
AcDbEntity
  8
0
370
    -3
100
AcDbMText
 10
-618.5004666916786
 20
242.7735542073417
 30
0.0
 40
15.0
 41
174.8636229651886
 46
0.0
 71
     1
 72
     5
  1
\pi45.515;表面处理
 73
     1
 44
1.0
1001
ACAD
1000
ACAD_MTEXT_COLUMN_INFO_BEGIN
1070
    75
1070
     2
1070
    79
1070
     0
1070
    76
1070
     1
1070
    78
1070
     0
1070
    48
1040
174.8636229651886
1070
    49
1040
35.0
1070
    50
1070
     1
1040
0.0
1000
ACAD_MTEXT_COLUMN_INFO_END
  0
MTEXT
  5
19D56
330
19BE3
100
AcDbEntity
  8
0
370
    -3
100
AcDbMText
 10
-618.5004666916787
 20
278.8485542073415
 30
0.0
 40
15.0
 41
174.8636229651886
 46
0.0
 71
     1
 72
     5
  1
\pi45.807;盆体厚度
 73
     1
 44
1.0
1001
ACAD
1000
ACAD_MTEXT_COLUMN_INFO_BEGIN
1070
    75
1070
     2
1070
    79
1070
     0
1070
    76
1070
     1
1070
    78
1070
     0
1070
    48
1040
174.8636229651886
1070
    49
1040
35.0
1070
    50
1070
     1
1040
0.0
1000
ACAD_MTEXT_COLUMN_INFO_END
  0
MTEXT
  5
19D57
330
19BE3
100
AcDbEntity
  8
0
370
    -3
100
AcDbMText
 10
-618.5004666916794
 20
314.9235542073412
 30
0.0
 40
15.0
 41
174.8636229651886
 46
0.0
 71
     1
 72
     5
  1
\pi45.848;面板厚度
 73
     1
 44
1.0
1001
ACAD
1000
ACAD_MTEXT_COLUMN_INFO_BEGIN
1070
    75
1070
     2
1070
    79
1070
     0
1070
    76
1070
     1
1070
    78
1070
     0
1070
    48
1040
174.8636229651886
1070
    49
1040
35.0
1070
    50
1070
     1
1040
0.0
1000
ACAD_MTEXT_COLUMN_INFO_END
  0
MTEXT
  5
19D58
330
19BE3
100
AcDbEntity
  8
0
370
    -3
100
AcDbMText
 10
-618.5004666916794
 20
350.9985542073419
 30
0.0
 40
15.0
 41
174.8636229651886
 46
0.0
 71
     1
 72
     5
  1
\pi45.515;底部处理
 73
     1
 44
1.0
1001
ACAD
1000
ACAD_MTEXT_COLUMN_INFO_BEGIN
1070
    75
1070
     2
1070
    79
1070
     0
1070
    76
1070
     1
1070
    78
1070
     0
1070
    48
1040
174.8636229651886
1070
    49
1040
35.0
1070
    50
1070
     1
1040
0.0
1000
ACAD_MTEXT_COLUMN_INFO_END
  0
MTEXT
  5
19D59
330
19BE3
100
AcDbEntity
  8
0
370
    -3
100
AcDbMText
 10
-618.5004666916794
 20
384.633684196757
 30
0.0
 40
15.0
 41
174.8636229651886
 46
0.0
 71
     1
 72
     5
  1
\pi45.932;商标工艺
 73
     1
 44
1.0
1001
ACAD
1000
ACAD_MTEXT_COLUMN_INFO_BEGIN
1070
    75
1070
     2
1070
    79
1070
     0
1070
    76
1070
     1
1070
    78
1070
     0
1070
    48
1040
174.8636229651886
1070
    49
1040
35.0
1070
    50
1070
     1
1040
0.0
1000
ACAD_MTEXT_COLUMN_INFO_END
  0
MTEXT
  5
19D5A
330
19BE3
100
AcDbEntity
  8
0
370
    -3
100
AcDbMText
 10
-618.5004666916794
 20
420.7086841967568
 30
0.0
 40
15.0
 41
174.8636229651886
 46
0.0
 71
     1
 72
     5
  1
\pi45.89;商标代码
 73
     1
 44
1.0
1001
ACAD
1000
ACAD_MTEXT_COLUMN_INFO_BEGIN
1070
    75
1070
     2
1070
    79
1070
     0
1070
    76
1070
     1
1070
    78
1070
     0
1070
    48
1040
174.8636229651886
1070
    49
1040
35.0
1070
    50
1070
     1
1040
0.0
1000
ACAD_MTEXT_COLUMN_INFO_END
  0
MTEXT
  5
19D5B
330
19BE3
100
AcDbEntity
  8
0
370
    -3
100
AcDbMText
 10
-618.5004666916794
 20
456.7836841967566
 30
0.0
 40
15.0
 41
174.8636229651886
 46
0.0
 71
     1
 72
     5
  1
\pi45.89;商标位置
 73
     1
 44
1.0
1001
ACAD
1000
ACAD_MTEXT_COLUMN_INFO_BEGIN
1070
    75
1070
     2
1070
    79
1070
     0
1070
    76
1070
     1
1070
    78
1070
     0
1070
    48
1040
174.8636229651886
1070
    49
1040
35.0
1070
    50
1070
     1
1040
0.0
1000
ACAD_MTEXT_COLUMN_INFO_END
  0
MTEXT
  5
19D5C
330
19BE3
100
AcDbEntity
  8
0
370
    -3
100
AcDbMText
 10
-618.5004666916794
 20
492.8586841967573
 30
0.0
 40
15.0
 41
174.8636229651886
 46
0.0
 71
     1
 72
     5
  1
\pi35.14;加强根工艺
 73
     1
 44
1.0
1001
ACAD
1000
ACAD_MTEXT_COLUMN_INFO_BEGIN
1070
    75
1070
     2
1070
    79
1070
     0
1070
    76
1070
     1
1070
    78
1070
     0
1070
    48
1040
174.8636229651886
1070
    49
1040
35.0
1070
    50
1070
     1
1040
0.0
1000
ACAD_MTEXT_COLUMN_INFO_END
  0
MTEXT
  5
19D5D
330
19BE3
100
AcDbEntity
  8
0
370
    -3
100
AcDbMText
 10
-618.5004666916794
 20
528.933684196757
 30
0.0
 40
15.0
 41
174.8636229651886
 46
0.0
 71
     1
 72
     5
  1
\pi24.598;翼板防震类型
 73
     1
 44
1.0
1001
ACAD
1000
ACAD_MTEXT_COLUMN_INFO_BEGIN
1070
    75
1070
     2
1070
    79
1070
     0
1070
    76
1070
     1
1070
    78
1070
     0
1070
    48
1040
174.8636229651886
1070
    49
1040
35.0
1070
    50
1070
     1
1040
0.0
1000
ACAD_MTEXT_COLUMN_INFO_END
  0
MTEXT
  5
19D5E
330
19BE3
100
AcDbEntity
  8
0
370
    -3
100
AcDbMText
 10
-618.5004666916794
 20
565.008684196757
 30
0.0
 40
15.0
 41
174.8636229651886
 46
0.0
 71
     1
 72
     5
  1
\pi35.723;防震胶位置
 73
     1
 44
1.0
1001
ACAD
1000
ACAD_MTEXT_COLUMN_INFO_BEGIN
1070
    75
1070
     2
1070
    79
1070
     0
1070
    76
1070
     1
1070
    78
1070
     0
1070
    48
1040
174.8636229651886
1070
    49
1040
35.0
1070
    50
1070
     1
1040
0.0
1000
ACAD_MTEXT_COLUMN_INFO_END
  0
MTEXT
  5
19D5F
330
19BE3
100
AcDbEntity
  8
0
370
    -3
100
AcDbMText
 10
-618.5004666916794
 20
601.0836841967568
 30
0.0
 40
15.0
 41
174.8636229651886
 46
0.0
 71
     1
 72
     5
  1
\pi35.098;加强根类型
 73
     1
 44
1.0
1001
ACAD
1000
ACAD_MTEXT_COLUMN_INFO_BEGIN
1070
    75
1070
     2
1070
    79
1070
     0
1070
    76
1070
     1
1070
    78
1070
     0
1070
    48
1040
174.8636229651886
1070
    49
1040
35.0
1070
    50
1070
     1
1040
0.0
1000
ACAD_MTEXT_COLUMN_INFO_END
  0
MTEXT
  5
19D60
330
19BE3
100
AcDbEntity
  8
0
370
    -3
100
AcDbMText
 10
-618.5004666916794
 20
635.5007623931296
 30
0.0
 40
15.0
 41
174.8636229651886
 46
0.0
 71
     1
 72
     5
  1
\pi3.0985;加强根孔数、位置
 73
     1
 44
1.0
1001
ACAD
1000
ACAD_MTEXT_COLUMN_INFO_BEGIN
1070
    75
1070
     2
1070
    79
1070
     0
1070
    76
1070
     1
1070
    78
1070
     0
1070
    48
1040
174.8636229651886
1070
    49
1040
35.0
1070
    50
1070
     1
1040
0.0
1000
ACAD_MTEXT_COLUMN_INFO_END
  0
MTEXT
  5
19D61
330
19BE3
100
AcDbEntity
  8
0
370
    -3
100
AcDbMText
 10
-618.5004666916794
 20
671.5757623931287
 30
0.0
 40
15.0
 41
174.8636229651886
 46
0.0
 71
     1
 72
     5
  1
\pi45.64;边部形态
 73
     1
 44
1.0
1001
ACAD
1000
ACAD_MTEXT_COLUMN_INFO_BEGIN
1070
    75
1070
     2
1070
    79
1070
     0
1070
    76
1070
     1
1070
    78
1070
     0
1070
    48
1040
174.8636229651886
1070
    49
1040
35.0
1070
    50
1070
     1
1040
0.0
1000
ACAD_MTEXT_COLUMN_INFO_END
  0
LINE
  5
19D62
330
19BE3
100
AcDbEntity
  8
0
370
    -3
100
AcDbLine
 10
-618.5004666916794
 20
680.5452599788314
 30
0.0
 11
-618.5004666916793
 21
286.1601299894155
 31
0.0
  0
LINE
  5
19D63
330
19BE3
100
AcDbEntity
  8
0
370
    -3
100
AcDbLine
 10
-443.63684372649
 20
680.5452599788314
 30
0.0
 11
-443.63684372649
 21
286.1601299894155
 31
0.0
  0
MTEXT
  5
19D64
330
19BE3
100
AcDbEntity
  8
0
370
    -3
100
AcDbMText
 10
-719.9992800000036
 20
136.4761941098914
 30
0.0
 40
15.0
 41
719.9992800000036
 46
0.0
 71
     1
 72
     5
  1
\pi307.58;配置明细表
 73
     1
 44
1.0
1001
ACAD
1000
ACAD_MTEXT_COLUMN_INFO_BEGIN
1070
    75
1070
     2
1070
    79
1070
     0
1070
    76
1070
     1
1070
    78
1070
     0
1070
    48
1040
719.9992800000036
1070
    49
1040
35.0
1070
    50
1070
     1
1040
0.0
1000
ACAD_MTEXT_COLUMN_INFO_END
  0
LINE
  5
19D65
330
19BE3
100
AcDbEntity
  8
0
370
    -3
100
AcDbLine
 10
-835.6304690563844
 20
177.935129989416
 30
0.0
 11
-835.6304690563838
 21
36.07499999999982
 31
0.0
  0
LINE
  5
19D66
330
19BE3
100
AcDbEntity
  8
0
370
    -3
100
AcDbLine
 10
-1439.998560000007
 20
177.935129989416
 30
0.0
 11
0.0
 21
177.935129989416
 31
0.0
  0
LINE
  5
19D67
330
19BE3
100
AcDbEntity
  8
0
370
    -3
100
AcDbLine
 10
-1349.852285256097
 20
177.935129989416
 30
0.0
 11
-1349.852285256087
 21
36.07499999999982
 31
0.0
  0
MTEXT
  5
19D68
102
{ACAD_XDICTIONARY
360
1B5A6
102
}
330
19BE3
100
AcDbEntity
  8
0
370
    -3
100
AcDbMText
 10
-1439.998560000007
 20
171.9579769049786
 30
0.0
 40
15.0
 41
90.14627474391557
 46
0.0
 71
     1
 72
     5
  1
\pi41.00889;{\fSimSun|b0|i0|c134|p2;3}
 73
     1
 44
1.0
1001
ACAD
1000
ACAD_MTEXT_COLUMN_INFO_BEGIN
1070
    75
1070
     2
1070
    79
1070
     0
1070
    76
1070
     1
1070
    78
1070
     0
1070
    48
1040
90.14627474391557
1070
    49
1040
35.0
1070
    50
1070
     1
1040
0.0
1000
ACAD_MTEXT_COLUMN_INFO_END
  0
MTEXT
  5
19D69
330
19BE3
100
AcDbEntity
  8
0
370
    -3
100
AcDbMText
 10
-1349.852285256095
 20
173.0952900585317
 30
0.0
 40
15.0
 41
514.2218161997084
 46
0.0
 71
     1
 72
     5
  1
\pi146.4;BH 01 243A 盆体半成品
 73
     1
 44
1.0
1001
ACAD
1000
ACAD_MTEXT_COLUMN_INFO_BEGIN
1070
    75
1070
     2
1070
    79
1070
     0
1070
    76
1070
     1
1070
    78
1070
     0
1070
    48
1040
514.2218161997084
1070
    49
1040
35.0
1070
    50
1070
     1
1040
0.0
1000
ACAD_MTEXT_COLUMN_INFO_END
  0
MTEXT
  5
19D6A
102
{ACAD_XDICTIONARY
360
1B5A8
102
}
330
19BE3
100
AcDbEntity
  8
0
370
    -3
100
AcDbMText
 10
-835.6304690563844
 20
171.9579769049786
 30
0.0
 40
15.0
 41
115.6311890563805
 46
0.0
 71
     1
 72
     5
  1
\pi54.75694;1
 73
     1
 44
1.0
1001
ACAD
1000
ACAD_MTEXT_COLUMN_INFO_BEGIN
1070
    75
1070
     2
1070
    79
1070
     0
1070
    76
1070
     1
1070
    78
1070
     0
1070
    48
1040
115.6311890563805
1070
    49
1040
35.0
1070
    50
1070
     1
1040
0.0
1000
ACAD_MTEXT_COLUMN_INFO_END
  0
ENDBLK
  5
19C55
330
19BE3
100
AcDbEntity
  8
0
100
AcDbBlockEnd
  0
BLOCK
  5
1A1BB
330
1A1BA
100
AcDbEntity
  8
0
100
AcDbBlockBegin
  2
_DotSmall
 70
     0
 10
0.0
 20
0.0
 30
0.0
  3
_DotSmall
  1

  0
LWPOLYLINE
  5
1A1BC
330
1A1BA
100
AcDbEntity
  8
0
  6
ByBlock
 62
     0
100
AcDbPolyline
 90
        2
 70
     1
 43
0.5
 10
-0.0625
 20
0.0
 42
1.0
 10
0.0625
 20
0.0
 42
1.0
  0
ENDBLK
  5
1A1BD
330
1A1BA
100
AcDbEntity
  8
0
100
AcDbBlockEnd
  0
BLOCK
  5
1A1C0
330
1A1BE
100
AcDbEntity
  8
0
100
AcDbBlockBegin
  2
C
 70
     0
 10
0.0
 20
0.0
 30
0.0
  3
C
  1

  0
LINE
  5
1A282
330
1A1BE
100
AcDbEntity
  8
0
370
    -3
100
AcDbLine
 10
-712.7992872000032
 20
249.3169925295231
 30
0.0
 11
0.0
 21
249.3169925295231
 31
0.0
  0
LINE
  5
1A283
330
1A1BE
100
AcDbEntity
  8
0
370
    -3
100
AcDbLine
 10
-712.7992872000032
 20
214.0382138400023
 30
0.0
 11
0.0
 21
214.0382138400023
 31
0.0
  0
LINE
  5
1A284
330
1A1BE
100
AcDbEntity
  8
0
370
    -3
100
AcDbLine
 10
-712.7992872000032
 20
178.3982138400022
 30
0.0
 11
0.0
 21
178.3982138400022
 31
0.0
  0
LINE
  5
1A285
330
1A1BE
100
AcDbEntity
  8
0
370
    -3
100
AcDbLine
 10
-712.7992872000032
 20
356.4597425295226
 30
0.0
 11
0.0
 21
356.4597425295235
 31
0.0
  0
LINE
  5
1A286
330
1A1BE
100
AcDbEntity
  8
0
370
    -3
100
AcDbLine
 10
-439.2004752892244
 20
568.9250476427132
 30
0.0
 11
-439.2004752892244
 21
214.0382138400023
 31
0.0
  0
LINE
  5
1A287
330
1A1BE
100
AcDbEntity
  8
0
370
    -3
100
AcDbLine
 10
-712.7992872000032
 20
0.0
 30
0.0
 11
-1425.598574400007
 21
0.0
 31
0.0
  0
LINE
  5
1A288
330
1A1BE
100
AcDbEntity
  8
0
370
    -3
100
AcDbLine
 10
-712.7992872000032
 20
392.1739925295233
 30
0.0
 11
0.0
 21
392.1739925295233
 31
0.0
  0
LINE
  5
1A289
330
1A1BE
100
AcDbEntity
  8
0
370
    -3
100
AcDbLine
 10
-712.7992872000032
 20
356.4597425295226
 30
0.0
 11
0.0
 21
356.4597425295226
 31
0.0
  0
LINE
  5
1A28A
330
1A1BE
100
AcDbEntity
  8
0
370
    -3
100
AcDbLine
 10
-712.7992872000032
 20
427.452771219044
 30
0.0
 11
0.0
 21
427.4527712190449
 31
0.0
  0
LINE
  5
1A28B
330
1A1BE
100
AcDbEntity
  8
0
370
    -3
100
AcDbLine
 10
-712.7992872000032
 20
463.1670212190438
 30
0.0
 11
0.0
 21
463.1670212190447
 31
0.0
  0
LINE
  5
1A28C
330
1A1BE
100
AcDbEntity
  8
0
370
    -3
100
AcDbLine
 10
-712.7992872000032
 20
498.8812712190438
 30
0.0
 11
0.0
 21
498.8812712190447
 31
0.0
  0
LINE
  5
1A28D
330
1A1BE
100
AcDbEntity
  8
0
370
    -3
100
AcDbLine
 10
-712.7992872000032
 20
534.5955212190444
 30
0.0
 11
0.0
 21
534.5955212190444
 31
0.0
  0
LINE
  5
1A28E
330
1A1BE
100
AcDbEntity
  8
0
370
    -3
100
AcDbLine
 10
-712.7992872000032
 20
572.2897712190443
 30
0.0
 11
0.0
 21
572.2897712190443
 31
0.0
  0
LINE
  5
1A28F
330
1A1BE
100
AcDbEntity
  8
0
370
    -3
100
AcDbLine
 10
-712.7992872000032
 20
607.014021219044
 30
0.0
 11
0.0
 21
607.0140212190449
 31
0.0
  0
LINE
  5
1A290
330
1A1BE
100
AcDbEntity
  8
0
370
    -3
100
AcDbLine
 10
-712.7992872000032
 20
642.7282712190439
 30
0.0
 11
0.0
 21
642.7282712190449
 31
0.0
  0
LINE
  5
1A291
330
1A1BE
100
AcDbEntity
  8
0
370
    -3
100
AcDbLine
 10
-712.7992872000032
 20
678.4425212190444
 30
0.0
 11
0.0
 21
678.4425212190444
 31
0.0
  0
LINE
  5
1A292
330
1A1BE
100
AcDbEntity
  8
0
370
    -3
100
AcDbLine
 10
-712.7992872000032
 20
714.1567712190435
 30
0.0
 11
0.0
 21
714.1567712190444
 31
0.0
  0
LINE
  5
1A293
330
1A1BE
100
AcDbEntity
  8
0
370
    -3
100
AcDbLine
 10
-712.7992872000032
 20
749.8710212190442
 30
0.0
 11
0.0
 21
749.8710212190442
 31
0.0
  0
LINE
  5
1A294
330
1A1BE
100
AcDbEntity
  8
0
370
    -3
100
AcDbLine
 10
-712.7992872000032
 20
0.0000000000005684
 30
0.0
 11
-712.7992872000032
 21
749.8710212190442
 31
0.0
  0
LINE
  5
1A295
330
1A1BE
100
AcDbEntity
  8
0
370
    -3
100
AcDbLine
 10
-1425.598574400007
 20
0.0
 30
0.0
 11
-1425.598574400007
 21
178.4970000000003
 31
0.0
  0
LINE
  5
1A296
330
1A1BE
100
AcDbEntity
  8
0
370
    -3
100
AcDbLine
 10
-455.3995446000044
 20
71.27992872000016
 30
0.0
 11
-455.3995446000044
 21
0.0
 31
0.0
  0
LINE
  5
1A297
330
1A1BE
100
AcDbEntity
  8
0
370
    -3
100
AcDbLine
 10
-633.5993664000016
 20
749.871021219044
 30
0.0
 11
-633.5993664000016
 21
214.0382138400023
 31
0.0
  0
LINE
  5
1A298
330
1A1BE
100
AcDbEntity
  8
0
370
    -3
100
AcDbLine
 10
-633.5993664000016
 20
178.3982138400022
 30
0.0
 11
-633.5993664000016
 21
0.0000000000005684
 31
0.0
  0
LINE
  5
1A299
330
1A1BE
100
AcDbEntity
  8
0
370
    -3
100
AcDbLine
 10
-534.5994653999914
 20
106.9198930799998
 30
0.0
 11
-534.5994653999914
 21
0.0
 31
0.0
  0
LINE
  5
1A29A
330
1A1BE
100
AcDbEntity
  8
0
370
    -3
100
AcDbLine
 10
-455.3995446000044
 20
106.9198930799998
 30
0.0
 11
-455.3995446000044
 21
0.0
 31
0.0
  0
LINE
  5
1A29B
330
1A1BE
100
AcDbEntity
  8
0
370
    -3
100
AcDbLine
 10
-376.1995446000037
 20
106.9198930799998
 30
0.0
 11
-376.1995446000037
 21
0.0
 31
0.0
  0
LINE
  5
1A29C
330
1A1BE
100
AcDbEntity
  8
0
370
    -3
100
AcDbLine
 10
-266.5484214828484
 20
0.0
 30
0.0
 11
-266.5484214828484
 21
71.42849999999964
 31
0.0
  0
LINE
  5
1A29D
330
1A1BE
100
AcDbEntity
  8
0
370
    -3
100
AcDbLine
 10
-2114.637885360004
 20
0.000000000001819
 30
0.0
 11
0.0
 21
0.0
 31
0.0
  0
LINE
  5
1A29E
330
1A1BE
100
AcDbEntity
  8
0
370
    -3
100
AcDbLine
 10
-1425.598574400007
 20
35.64000000000124
 30
0.0
 11
-266.5484214828484
 21
35.64000000000021
 31
0.0
  0
LINE
  5
1A29F
330
1A1BE
100
AcDbEntity
  8
0
370
    -3
100
AcDbLine
 10
-1425.598574400007
 20
71.28000000000122
 30
0.0
 11
0.0
 21
71.27999999999997
 31
0.0
  0
LINE
  5
1A2A0
330
1A1BE
100
AcDbEntity
  8
0
370
    -3
100
AcDbLine
 10
-1425.598574400007
 20
106.9200000000012
 30
0.0
 11
0.0
 21
106.9200000000001
 31
0.0
  0
LINE
  5
1A2A1
330
1A1BE
100
AcDbEntity
  8
0
370
    -3
100
AcDbLine
 10
-1425.598574400007
 20
142.5600000000013
 30
0.0
 11
-712.7992872000032
 21
142.5600000000006
 31
0.0
  0
LINE
  5
1A2A2
330
1A1BE
100
AcDbEntity
  8
0
370
    -3
100
AcDbLine
 10
0.0
 20
0.0
 30
0.0
 11
0.0
 21
1587.397977187807
 31
0.0
  0
MTEXT
  5
1A2A3
330
1A1BE
100
AcDbEntity
  8
0
370
    -3
100
AcDbMText
 10
-361.0990539092418
 20
63.93819430759709
 30
0.0
 40
14.85
 41
173.1149867355367
 46
0.0
 71
     1
 72
     5
  1
{\fSimSun|b0|i0|c0|p2;A}
 73
     1
 44
1.0
  0
MTEXT
  5
1A2A4
102
{ACAD_XDICTIONARY
360
1B5AA
102
}
330
1A1BE
100
AcDbEntity
  8
0
370
    -3
100
AcDbMText
 10
-455.3995446000044
 20
97.74946400556473
 30
0.0
 40
14.85
 41
459.9995400000053
 46
0.0
 71
     1
 72
     5
  1
\pi156.41346;{\fSimSun|b0|i0|c134|p2;NH377S-0001-32}
 73
     1
 44
1.0
1001
ACAD
1000
ACAD_MTEXT_COLUMN_INFO_BEGIN
1070
    75
1070
     2
1070
    79
1070
     0
1070
    76
1070
     1
1070
    78
1070
     0
1070
    48
1040
459.9995400000053
1070
    49
1040
12.5
1070
    50
1070
     1
1040
0.0
1000
ACAD_MTEXT_COLUMN_INFO_END
  0
MTEXT
  5
1A2A5
330
1A1BE
100
AcDbEntity
  8
0
370
    -3
100
AcDbMText
 10
-1336.353762403529
 20
62.82233219462364
 30
0.0
 40
14.85
 41
514.2218161997058
 46
0.0
 71
     1
 72
     5
  1
\pi237.06;名称
 73
     1
 44
1.0
1001
ACAD
1000
ACAD_MTEXT_COLUMN_INFO_BEGIN
1070
    75
1070
     2
1070
    79
1070
     0
1070
    76
1070
     1
1070
    78
1070
     0
1070
    48
1040
514.2218161997058
1070
    49
1040
35.0
1070
    50
1070
     1
1040
0.0
1000
ACAD_MTEXT_COLUMN_INFO_END
  0
MTEXT
  5
1A2A6
330
1A1BE
100
AcDbEntity
  8
0
370
    -3
100
AcDbMText
 10
-1425.598574400007
 20
27.76215899320448
 30
0.0
 40
14.85
 41
719.9992800000036
 46
0.0
 71
     1
 72
     5
  1
\pi329.39;组成表
 73
     1
 44
1.0
1001
ACAD
1000
ACAD_MTEXT_COLUMN_INFO_BEGIN
1070
    75
1070
     2
1070
    79
1070
     0
1070
    76
1070
     1
1070
    78
1070
     0
1070
    48
1040
719.9992800000036
1070
    49
1040
35.0
1070
    50
1070
     1
1040
0.0
1000
ACAD_MTEXT_COLUMN_INFO_END
  0
MTEXT
  5
1A2A7
330
1A1BE
100
AcDbEntity
  8
0
370
    -3
100
AcDbMText
 10
-455.3995446000044
 20
64.31917926167534
 30
0.0
 40
14.85
 41
79.99991999998724
 46
0.0
 71
     1
 72
     5
  1
\pi19.829;版本
 73
     1
 44
1.0
1001
ACAD
1000
ACAD_MTEXT_COLUMN_INFO_BEGIN
1070
    75
1070
     2
1070
    79
1070
     0
1070
    76
1070
     1
1070
    78
1070
     0
1070
    48
1040
79.99991999998724
1070
    49
1040
35.0
1070
    50
1070
     1
1040
0.0
1000
ACAD_MTEXT_COLUMN_INFO_END
  0
MTEXT
  5
1A2A8
330
1A1BE
100
AcDbEntity
  8
0
370
    -3
100
AcDbMText
 10
-415.7995842000109
 20
89.10000000000037
 30
0.0
 40
14.85
 41
79.99991999998724
 46
0.0
 71
     5
 72
     5
  1
编码
 73
     1
 44
1.0
1001
ACAD
1000
ACAD_MTEXT_COLUMN_INFO_BEGIN
1070
    75
1070
     2
1070
    79
1070
     0
1070
    76
1070
     1
1070
    78
1070
     0
1070
    48
1040
79.99991999998724
1070
    49
1040
35.0
1070
    50
1070
     1
1040
28.98147293731837
1000
ACAD_MTEXT_COLUMN_INFO_END
  0
MTEXT
  5
1A2A9
330
1A1BE
100
AcDbEntity
  8
0
370
    -3
100
AcDbMText
 10
-712.7992872000032
 20
28.67921490167544
 30
0.0
 40
14.85
 41
79.99991999998724
 46
0.0
 71
     1
 72
     5
  1
\pi19.911;校核
 73
     1
 44
1.0
1001
ACAD
1000
ACAD_MTEXT_COLUMN_INFO_BEGIN
1070
    75
1070
     2
1070
    79
1070
     0
1070
    76
1070
     1
1070
    78
1070
     0
1070
    48
1040
79.99991999998724
1070
    49
1040
35.0
1070
    50
1070
     1
1040
0.0
1000
ACAD_MTEXT_COLUMN_INFO_END
  0
MTEXT
  5
1A2AA
330
1A1BE
100
AcDbEntity
  8
0
370
    -3
100
AcDbMText
 10
-712.7992872000032
 20
64.39346490167463
 30
0.0
 40
14.85
 41
79.99991999998724
 46
0.0
 71
     1
 72
     5
  1
\pi20.159;审核
 73
     1
 44
1.0
1001
ACAD
1000
ACAD_MTEXT_COLUMN_INFO_BEGIN
1070
    75
1070
     2
1070
    79
1070
     0
1070
    76
1070
     1
1070
    78
1070
     0
1070
    48
1040
79.99991999998724
1070
    49
1040
35.0
1070
    50
1070
     1
1040
0.0
1000
ACAD_MTEXT_COLUMN_INFO_END
  0
MTEXT
  5
1A2AB
330
1A1BE
100
AcDbEntity
  8
0
370
    -3
100
AcDbMText
 10
-712.7992872000032
 20
98.16509916570385
 30
0.0
 40
14.85
 41
79.99991999998724
 46
0.0
 71
     1
 72
     5
  1
\pi20.406;制图
 73
     1
 44
1.0
1001
ACAD
1000
ACAD_MTEXT_COLUMN_INFO_BEGIN
1070
    75
1070
     2
1070
    79
1070
     0
1070
    76
1070
     1
1070
    78
1070
     0
1070
    48
1040
79.99991999998724
1070
    49
1040
35.0
1070
    50
1070
     1
1040
29.11890394108564
1000
ACAD_MTEXT_COLUMN_INFO_END
  0
MTEXT
  5
1A2AC
330
1A1BE
100
AcDbEntity
  8
0
370
    -3
100
AcDbMText
 10
-827.27416436582
 20
63.22104976034575
 30
0.0
 40
14.85
 41
115.6311890563804
 46
0.0
 71
     1
 72
     5
  1
\pi37.603;数量
 73
     1
 44
1.0
1001
ACAD
1000
ACAD_MTEXT_COLUMN_INFO_BEGIN
1070
    75
1070
     2
1070
    79
1070
     0
1070
    76
1070
     1
1070
    78
1070
     0
1070
    48
1040
115.6311890563804
1070
    49
1040
35.0
1070
    50
1070
     1
1040
0.0
1000
ACAD_MTEXT_COLUMN_INFO_END
  0
MTEXT
  5
1A2AD
102
{ACAD_XDICTIONARY
360
1B5AC
102
}
330
1A1BE
100
AcDbEntity
  8
0
370
    -3
100
AcDbMText
 10
-827.27416436582
 20
98.80989713592839
 30
0.0
 40
14.85
 41
115.6311890563805
 46
0.0
 71
     1
 72
     5
  1
\pi54.78752;1
 73
     1
 44
1.0
1001
ACAD
1000
ACAD_MTEXT_COLUMN_INFO_BEGIN
1070
    75
1070
     2
1070
    79
1070
     0
1070
    76
1070
     1
1070
    78
1070
     0
1070
    48
1040
115.6311890563805
1070
    49
1040
35.0
1070
    50
1070
     1
1040
0.0
1000
ACAD_MTEXT_COLUMN_INFO_END
  0
MTEXT
  5
1A2AE
102
{ACAD_XDICTIONARY
360
1B5AE
102
}
330
1A1BE
100
AcDbEntity
  8
0
370
    -3
100
AcDbMText
 10
-827.2741643658209
 20
134.5241471359288
 30
0.0
 40
14.85
 41
115.6311890563805
 46
0.0
 71
     1
 72
     5
  1
\pi54.78752;1
 73
     1
 44
1.0
1001
ACAD
1000
ACAD_MTEXT_COLUMN_INFO_BEGIN
1070
    75
1070
     2
1070
    79
1070
     0
1070
    76
1070
     1
1070
    78
1070
     0
1070
    48
1040
115.6311890563805
1070
    49
1040
35.0
1070
    50
1070
     1
1040
0.0
1000
ACAD_MTEXT_COLUMN_INFO_END
  0
MTEXT
  5
1A2AF
330
1A1BE
100
AcDbEntity
  8
0
370
    -3
100
AcDbMText
 10
-1425.598574400007
 20
63.76458943950627
 30
0.0
 40
14.85
 41
90.14627474392023
 46
0.0
 71
     1
 72
     5
  1
\pi24.984;序号
 73
     1
 44
1.0
1001
ACAD
1000
ACAD_MTEXT_COLUMN_INFO_BEGIN
1070
    75
1070
     2
1070
    79
1070
     0
1070
    76
1070
     1
1070
    78
1070
     0
1070
    48
1040
90.14627474392023
1070
    49
1040
35.0
1070
    50
1070
     1
1040
0.0
1000
ACAD_MTEXT_COLUMN_INFO_END
  0
MTEXT
  5
1A2B0
102
{ACAD_XDICTIONARY
360
1B5B0
102
}
330
1A1BE
100
AcDbEntity
  8
0
370
    -3
100
AcDbMText
 10
-1425.598574400007
 20
98.80989713592839
 30
0.0
 40
14.85
 41
90.14627474391557
 46
0.0
 71
     1
 72
     5
  1
\pi42.04506;1
 73
     1
 44
1.0
1001
ACAD
1000
ACAD_MTEXT_COLUMN_INFO_BEGIN
1070
    75
1070
     2
1070
    79
1070
     0
1070
    76
1070
     1
1070
    78
1070
     0
1070
    48
1040
90.14627474391557
1070
    49
1040
35.0
1070
    50
1070
     1
1040
0.0
1000
ACAD_MTEXT_COLUMN_INFO_END
  0
MTEXT
  5
1A2B1
102
{ACAD_XDICTIONARY
360
1B5B2
102
}
330
1A1BE
100
AcDbEntity
  8
0
370
    -3
100
AcDbMText
 10
-1425.598574400007
 20
134.5241471359281
 30
0.0
 40
14.85
 41
90.14627474391557
 46
0.0
 71
     1
 72
     5
  1
\pi40.96657;{\fSimSun|b0|i0|c134|p2;2}
 73
     1
 44
1.0
1001
ACAD
1000
ACAD_MTEXT_COLUMN_INFO_BEGIN
1070
    75
1070
     2
1070
    79
1070
     0
1070
    76
1070
     1
1070
    78
1070
     0
1070
    48
1040
90.14627474391557
1070
    49
1040
35.0
1070
    50
1070
     1
1040
0.0
1000
ACAD_MTEXT_COLUMN_INFO_END
  0
MTEXT
  5
1A2B2
330
1A1BE
100
AcDbEntity
  8
0
370
    -3
100
AcDbMText
 10
-1336.353762403534
 20
135.6500871579458
 30
0.0
 40
14.85
 41
514.2218161997084
 46
0.0
 71
     1
 72
     5
  1
\pi147.51;BH 01 239A 盆体半成品
 73
     1
 44
1.0
1001
ACAD
1000
ACAD_MTEXT_COLUMN_INFO_BEGIN
1070
    75
1070
     2
1070
    79
1070
     0
1070
    76
1070
     1
1070
    78
1070
     0
1070
    48
1040
514.2218161997084
1070
    49
1040
35.0
1070
    50
1070
     1
1040
0.0
1000
ACAD_MTEXT_COLUMN_INFO_END
  0
MTEXT
  5
1A2B3
330
1A1BE
100
AcDbEntity
  8
0
370
    -3
100
AcDbMText
 10
-439.2004752892244
 20
245.517592813655
 30
0.0
 40
19.8
 41
443.63684372649
 46
0.0
 71
     1
 72
     5
  1
\pi195.2;备注
 73
     1
 44
1.0
1001
ACAD
1000
ACAD_MTEXT_COLUMN_INFO_BEGIN
1070
    75
1070
     2
1070
    79
1070
     0
1070
    76
1070
     1
1070
    78
1070
     0
1070
    48
1040
443.63684372649
1070
    49
1040
35.0
1070
    50
1070
     1
1040
0.0
1000
ACAD_MTEXT_COLUMN_INFO_END
  0
MTEXT
  5
1A2B4
330
1A1BE
100
AcDbEntity
  8
0
370
    -3
100
AcDbMText
 10
-439.2004752892262
 20
492.666400192697
 30
0.0
 40
14.85
 41
443.63684372649
 46
0.0
 71
     1
 72
     5
  1
\pi180.61;32号商标
 73
     1
 44
1.0
1001
ACAD
1000
ACAD_MTEXT_COLUMN_INFO_BEGIN
1070
    75
1070
     2
1070
    79
1070
     0
1070
    76
1070
     1
1070
    78
1070
     0
1070
    48
1040
443.63684372649
1070
    49
1040
35.0
1070
    50
1070
     1
1040
0.0
1000
ACAD_MTEXT_COLUMN_INFO_END
  0
MTEXT
  5
1A2B5
330
1A1BE
100
AcDbEntity
  8
0
370
    -3
100
AcDbMText
 10
-439.2004752892262
 20
528.3806501926969
 30
0.0
 40
14.85
 41
443.63684372649
 46
0.0
 71
     1
 72
     5
  1
\pi170.83;图纸中表示
 73
     1
 44
1.0
1001
ACAD
1000
ACAD_MTEXT_COLUMN_INFO_BEGIN
1070
    75
1070
     2
1070
    79
1070
     0
1070
    76
1070
     1
1070
    78
1070
     0
1070
    48
1040
443.63684372649
1070
    49
1040
35.0
1070
    50
1070
     1
1040
0.0
1000
ACAD_MTEXT_COLUMN_INFO_END
  0
MTEXT
  5
1A2B6
330
1A1BE
100
AcDbEntity
  8
0
370
    -3
100
AcDbMText
 10
-439.2004752892262
 20
672.2276501926971
 30
0.0
 40
14.85
 41
443.63684372649
 46
0.0
 71
     1
 72
     5
  1
\pi170.83;图纸中表示
 73
     1
 44
1.0
1001
ACAD
1000
ACAD_MTEXT_COLUMN_INFO_BEGIN
1070
    75
1070
     2
1070
    79
1070
     0
1070
    76
1070
     1
1070
    78
1070
     0
1070
    48
1040
443.63684372649
1070
    49
1040
35.0
1070
    50
1070
     1
1040
0.0
1000
ACAD_MTEXT_COLUMN_INFO_END
  0
MTEXT
  5
1A2B7
330
1A1BE
100
AcDbEntity
  8
0
370
    -3
100
AcDbMText
 10
-439.2004752892262
 20
707.9419001926973
 30
0.0
 40
14.85
 41
443.63684372649
 46
0.0
 71
     1
 72
     5
  1
\pi67.131;图纸中表示(螺丝孔位置无需标注)
 73
     1
 44
1.0
1001
ACAD
1000
ACAD_MTEXT_COLUMN_INFO_BEGIN
1070
    75
1070
     2
1070
    79
1070
     0
1070
    76
1070
     1
1070
    78
1070
     0
1070
    48
1040
443.63684372649
1070
    49
1040
35.0
1070
    50
1070
     1
1040
0.0
1000
ACAD_MTEXT_COLUMN_INFO_END
  0
LINE
  5
1A2B8
330
1A1BE
100
AcDbEntity
  8
0
370
    -3
100
AcDbLine
 10
-439.2004752892244
 20
748.6061501926967
 30
0.0
 11
-439.2004752892244
 21
356.4597425295226
 31
0.0
  0
LINE
  5
1A2B9
330
1A1BE
100
AcDbEntity
  8
0
370
    -3
100
AcDbLine
 10
-827.27416436582
 20
178.4969999999997
 30
0.0
 11
-827.27416436582
 21
35.71424999999976
 31
0.0
  0
LWPOLYLINE
  5
1A2BA
330
1A1BE
100
AcDbEntity
  8
0
370
    -3
100
AcDbPolyline
 90
        4
 70
     1
 43
0.0
 10
-2312.637687359995
 20
1623.598376400001
 10
-2312.637687359995
 20
-39.5999604000001
 10
39.59996040000078
 20
-39.5999604000001
 10
39.59996040000078
 20
1623.598376400001
  0
LINE
  5
1A2BB
330
1A1BE
100
AcDbEntity
  8
0
 62
     0
370
    -3
100
AcDbLine
 10
-2114.637885360004
 20
1587.397977187807
 30
0.0
 11
-2114.637885360004
 21
0.000000000001819
 31
0.0
  0
LINE
  5
1A2BC
330
1A1BE
100
AcDbEntity
  8
0
 62
     0
370
    -3
100
AcDbLine
 10
0.0
 20
1587.397977187807
 30
0.0
 11
-2114.637885360004
 21
1587.397977187807
 31
0.0
  0
LINE
  5
1A2BD
330
1A1BE
100
AcDbEntity
  8
0
370
    -3
100
AcDbLine
 10
-712.7992872000032
 20
356.4597425295226
 30
0.0
 11
0.0
 21
356.4597425295235
 31
0.0
  0
LINE
  5
1A2BE
330
1A1BE
100
AcDbEntity
  8
0
370
    -3
100
AcDbLine
 10
-712.7992872000032
 20
320.7454925295228
 30
0.0
 11
0.0
 21
320.7454925295238
 31
0.0
  0
LINE
  5
1A2BF
330
1A1BE
100
AcDbEntity
  8
0
370
    -3
100
AcDbLine
 10
-712.7992872000032
 20
285.0312425295228
 30
0.0
 11
0.0
 21
285.0312425295237
 31
0.0
  0
LINE
  5
1A2C0
330
1A1BE
100
AcDbEntity
  8
0
370
    -3
100
AcDbLine
 10
-1336.353762403537
 20
178.4970000000002
 30
0.0
 11
-1336.353762403527
 21
35.71424999999976
 31
0.0
  0
MTEXT
  5
1A2C1
330
1A1BE
100
AcDbEntity
  8
0
370
    -3
100
AcDbMText
 10
-439.2004752892262
 20
743.6561501926966
 30
0.0
 40
14.85
 41
443.63684372649
 46
0.0
 71
     1
 72
     5
  1
\pi177.06;S边(卷边)
 73
     1
 44
1.0
1001
ACAD
1000
ACAD_MTEXT_COLUMN_INFO_BEGIN
1070
    75
1070
     2
1070
    79
1070
     0
1070
    76
1070
     1
1070
    78
1070
     0
1070
    48
1040
443.63684372649
1070
    49
1040
35.0
1070
    50
1070
     1
1040
0.0
1000
ACAD_MTEXT_COLUMN_INFO_END
  0
MTEXT
  5
1A2C2
102
{ACAD_XDICTIONARY
360
1B5B4
102
}
330
1A1BE
100
AcDbEntity
  8
0
370
    -3
100
AcDbMText
 10
-439.2004752892244
 20
385.9591215031753
 30
0.0
 40
19.8
 41
443.63684372649
 46
0.0
 71
     1
 72
     5
  1
\pi187.14077;{\fSimSun|b0|i0|c134|p2;0.8mm}
 73
     1
 44
1.0
1001
ACAD
1000
ACAD_MTEXT_COLUMN_INFO_BEGIN
1070
    75
1070
     2
1070
    79
1070
     0
1070
    76
1070
     1
1070
    78
1070
     0
1070
    48
1040
443.63684372649
1070
    49
1040
35.0
1070
    50
1070
     1
1040
0.0
1000
ACAD_MTEXT_COLUMN_INFO_END
  0
MTEXT
  5
1A2C3
102
{ACAD_XDICTIONARY
360
1B5B6
102
}
330
1A1BE
100
AcDbEntity
  8
0
370
    -3
100
AcDbMText
 10
-439.2004752892244
 20
350.2448715031758
 30
0.0
 40
19.8
 41
443.63684372649
 46
0.0
 71
     1
 72
     5
  1
\pi187.14077;{\fSimSun|b0|i0|c134|p2;0.8mm}
 73
     1
 44
1.0
1001
ACAD
1000
ACAD_MTEXT_COLUMN_INFO_BEGIN
1070
    75
1070
     2
1070
    79
1070
     0
1070
    76
1070
     1
1070
    78
1070
     0
1070
    48
1040
443.63684372649
1070
    49
1040
35.0
1070
    50
1070
     1
1040
0.0
1000
ACAD_MTEXT_COLUMN_INFO_END
  0
MTEXT
  5
1A2C4
330
1A1BE
100
AcDbEntity
  8
0
370
    -3
100
AcDbMText
 10
-439.2004752892244
 20
456.9521501926971
 30
0.0
 40
19.8
 41
443.63684372649
 46
0.0
 71
     1
 72
     5
  1
\pi194.98;扫唛
 73
     1
 44
1.0
1001
ACAD
1000
ACAD_MTEXT_COLUMN_INFO_BEGIN
1070
    75
1070
     2
1070
    79
1070
     0
1070
    76
1070
     1
1070
    78
1070
     0
1070
    48
1040
443.63684372649
1070
    49
1040
35.0
1070
    50
1070
     1
1040
0.0
1000
ACAD_MTEXT_COLUMN_INFO_END
  0
MTEXT
  5
1A2C5
330
1A1BE
100
AcDbEntity
  8
0
370
    -3
100
AcDbMText
 10
-439.2004752892262
 20
564.0949001926972
 30
0.0
 40
14.85
 41
443.63684372649
 46
0.0
 71
     1
 72
     5
  1
\pi201.89;点根
 73
     1
 44
1.0
1001
ACAD
1000
ACAD_MTEXT_COLUMN_INFO_BEGIN
1070
    75
1070
     2
1070
    79
1070
     0
1070
    76
1070
     1
1070
    78
1070
     0
1070
    48
1040
443.63684372649
1070
    49
1040
35.0
1070
    50
1070
     1
1040
0.0
1000
ACAD_MTEXT_COLUMN_INFO_END
  0
MTEXT
  5
1A2C6
330
1A1BE
100
AcDbEntity
  8
0
370
    -3
100
AcDbMText
 10
-439.2004752892262
 20
601.7891501926969
 30
0.0
 40
14.85
 41
443.63684372649
 46
0.0
 71
     1
 72
     5
  1
\pi191.5;防震胶
 73
     1
 44
1.0
1001
ACAD
1000
ACAD_MTEXT_COLUMN_INFO_BEGIN
1070
    75
1070
     2
1070
    79
1070
     0
1070
    76
1070
     1
1070
    78
1070
     0
1070
    48
1040
443.63684372649
1070
    49
1040
35.0
1070
    50
1070
     1
1040
0.0
1000
ACAD_MTEXT_COLUMN_INFO_END
  0
MTEXT
  5
1A2C7
330
1A1BE
100
AcDbEntity
  8
0
370
    -3
100
AcDbMText
 10
-439.2004752892262
 20
636.5134001926971
 30
0.0
 40
14.85
 41
443.63684372649
 46
0.0
 71
     1
 72
     5
  1
\pi201.61;盆底
 73
     1
 44
1.0
1001
ACAD
1000
ACAD_MTEXT_COLUMN_INFO_BEGIN
1070
    75
1070
     2
1070
    79
1070
     0
1070
    76
1070
     1
1070
    78
1070
     0
1070
    48
1040
443.63684372649
1070
    49
1040
35.0
1070
    50
1070
     1
1040
0.0
1000
ACAD_MTEXT_COLUMN_INFO_END
  0
MTEXT
  5
1A2C8
330
1A1BE
100
AcDbEntity
  8
0
370
    -3
100
AcDbMText
 10
-439.2004752892262
 20
278.8163715031758
 30
0.0
 40
14.85
 41
443.63684372649
 46
0.0
 71
     1
 72
     5
  1
\pi175.78;304不锈钢
 73
     1
 44
1.0
1001
ACAD
1000
ACAD_MTEXT_COLUMN_INFO_BEGIN
1070
    75
1070
     2
1070
    79
1070
     0
1070
    76
1070
     1
1070
    78
1070
     0
1070
    48
1040
443.63684372649
1070
    49
1040
35.0
1070
    50
1070
     1
1040
0.0
1000
ACAD_MTEXT_COLUMN_INFO_END
  0
MTEXT
  5
1A2C9
330
1A1BE
100
AcDbEntity
  8
0
370
    -3
100
AcDbMText
 10
-439.2004752892262
 20
314.530621503176
 30
0.0
 40
14.85
 41
443.63684372649
 46
0.0
 71
     1
 72
     5
  1
\pi201.56;砂光
 73
     1
 44
1.0
1001
ACAD
1000
ACAD_MTEXT_COLUMN_INFO_BEGIN
1070
    75
1070
     2
1070
    79
1070
     0
1070
    76
1070
     1
1070
    78
1070
     0
1070
    48
1040
443.63684372649
1070
    49
1040
35.0
1070
    50
1070
     1
1040
0.0
1000
ACAD_MTEXT_COLUMN_INFO_END
  0
MTEXT
  5
1A2CA
330
1A1BE
100
AcDbEntity
  8
0
100
AcDbMText
 10
-1081.813963384676
 20
89.28562499999953
 30
0.0
 40
14.85
 41
514.2218161997085
 46
0.0
 71
     5
 72
     5
  1
BH 02 377S 面板半成品
 73
     1
 44
1.0
1001
ACAD
1000
ACAD_MTEXT_COLUMN_INFO_BEGIN
1070
    75
1070
     2
1070
    79
1070
     0
1070
    76
1070
     1
1070
    78
1070
     0
1070
    48
1040
514.2218161997085
1070
    49
1040
35.0
1070
    50
1070
     1
1040
0.0
1000
ACAD_MTEXT_COLUMN_INFO_END
  0
MTEXT
  5
1A2CB
330
1A1BE
100
AcDbEntity
  8
0
100
AcDbMText
 10
-673.1993268000024
 20
232.6676031847628
 30
0.0
 40
14.85
 41
79.99992000000202
 46
0.0
 71
     5
 72
     5
  1
序号
 73
     1
 44
1.0
1001
ACAD
1000
ACAD_MTEXT_COLUMN_INFO_BEGIN
1070
    75
1070
     2
1070
    79
1070
     0
1070
    76
1070
     1
1070
    78
1070
     0
1070
    48
1040
79.99992000000202
1070
    49
1040
35.0
1070
    50
1070
     1
1040
0.0
1000
ACAD_MTEXT_COLUMN_INFO_END
  0
MTEXT
  5
1A2CC
330
1A1BE
100
AcDbEntity
  8
0
100
AcDbMText
 10
-673.1993268000024
 20
267.1741175295231
 30
0.0
 40
14.85
 41
79.99992000000213
 46
0.0
 71
     5
 72
     5
  1
1
 73
     1
 44
1.0
1001
ACAD
1000
ACAD_MTEXT_COLUMN_INFO_BEGIN
1070
    75
1070
     2
1070
    79
1070
     0
1070
    76
1070
     1
1070
    78
1070
     0
1070
    48
1040
79.99992000000213
1070
    49
1040
35.0
1070
    50
1070
     1
1040
0.0
1000
ACAD_MTEXT_COLUMN_INFO_END
  0
MTEXT
  5
1A2CD
330
1A1BE
100
AcDbEntity
  8
0
100
AcDbMText
 10
-673.1993268000024
 20
302.8883675295229
 30
0.0
 40
14.85
 41
79.99992000000213
 46
0.0
 71
     5
 72
     5
  1
2
 73
     1
 44
1.0
1001
ACAD
1000
ACAD_MTEXT_COLUMN_INFO_BEGIN
1070
    75
1070
     2
1070
    79
1070
     0
1070
    76
1070
     1
1070
    78
1070
     0
1070
    48
1040
79.99992000000213
1070
    49
1040
35.0
1070
    50
1070
     1
1040
0.0
1000
ACAD_MTEXT_COLUMN_INFO_END
  0
MTEXT
  5
1A2CE
330
1A1BE
100
AcDbEntity
  8
0
100
AcDbMText
 10
-673.1993268000024
 20
338.6026175295226
 30
0.0
 40
14.85
 41
79.99992000000213
 46
0.0
 71
     5
 72
     5
  1
3
 73
     1
 44
1.0
1001
ACAD
1000
ACAD_MTEXT_COLUMN_INFO_BEGIN
1070
    75
1070
     2
1070
    79
1070
     0
1070
    76
1070
     1
1070
    78
1070
     0
1070
    48
1040
79.99992000000213
1070
    49
1040
35.0
1070
    50
1070
     1
1040
0.0
1000
ACAD_MTEXT_COLUMN_INFO_END
  0
MTEXT
  5
1A2CF
330
1A1BE
100
AcDbEntity
  8
0
100
AcDbMText
 10
-673.1993268000024
 20
374.3168675295224
 30
0.0
 40
14.85
 41
79.99992000000213
 46
0.0
 71
     5
 72
     5
  1
4
 73
     1
 44
1.0
1001
ACAD
1000
ACAD_MTEXT_COLUMN_INFO_BEGIN
1070
    75
1070
     2
1070
    79
1070
     0
1070
    76
1070
     1
1070
    78
1070
     0
1070
    48
1040
79.99992000000213
1070
    49
1040
35.0
1070
    50
1070
     1
1040
0.0
1000
ACAD_MTEXT_COLUMN_INFO_END
  0
MTEXT
  5
1A2D0
330
1A1BE
100
AcDbEntity
  8
0
100
AcDbMText
 10
-673.1993268000024
 20
445.309896219044
 30
0.0
 40
14.85
 41
79.99992000000213
 46
0.0
 71
     5
 72
     5
  1
6
 73
     1
 44
1.0
1001
ACAD
1000
ACAD_MTEXT_COLUMN_INFO_BEGIN
1070
    75
1070
     2
1070
    79
1070
     0
1070
    76
1070
     1
1070
    78
1070
     0
1070
    48
1040
79.99992000000213
1070
    49
1040
35.0
1070
    50
1070
     1
1040
0.0
1000
ACAD_MTEXT_COLUMN_INFO_END
  0
MTEXT
  5
1A2D1
330
1A1BE
100
AcDbEntity
  8
0
100
AcDbMText
 10
-673.1993268000024
 20
481.0241462190438
 30
0.0
 40
14.85
 41
79.99992000000213
 46
0.0
 71
     5
 72
     5
  1
7
 73
     1
 44
1.0
1001
ACAD
1000
ACAD_MTEXT_COLUMN_INFO_BEGIN
1070
    75
1070
     2
1070
    79
1070
     0
1070
    76
1070
     1
1070
    78
1070
     0
1070
    48
1040
79.99992000000213
1070
    49
1040
35.0
1070
    50
1070
     1
1040
0.0
1000
ACAD_MTEXT_COLUMN_INFO_END
  0
MTEXT
  5
1A2D2
330
1A1BE
100
AcDbEntity
  8
0
100
AcDbMText
 10
-673.1993268000024
 20
516.7383962190435
 30
0.0
 40
14.85
 41
79.99992000000213
 46
0.0
 71
     5
 72
     5
  1
8
 73
     1
 44
1.0
1001
ACAD
1000
ACAD_MTEXT_COLUMN_INFO_BEGIN
1070
    75
1070
     2
1070
    79
1070
     0
1070
    76
1070
     1
1070
    78
1070
     0
1070
    48
1040
79.99992000000213
1070
    49
1040
35.0
1070
    50
1070
     1
1040
0.0
1000
ACAD_MTEXT_COLUMN_INFO_END
  0
MTEXT
  5
1A2D3
330
1A1BE
100
AcDbEntity
  8
0
100
AcDbMText
 10
-673.1993268000024
 20
552.4526462190443
 30
0.0
 40
14.85
 41
79.99992000000213
 46
0.0
 71
     5
 72
     5
  1
9
 73
     1
 44
1.0
1001
ACAD
1000
ACAD_MTEXT_COLUMN_INFO_BEGIN
1070
    75
1070
     2
1070
    79
1070
     0
1070
    76
1070
     1
1070
    78
1070
     0
1070
    48
1040
79.99992000000213
1070
    49
1040
35.0
1070
    50
1070
     1
1040
0.0
1000
ACAD_MTEXT_COLUMN_INFO_END
  0
MTEXT
  5
1A2D4
330
1A1BE
100
AcDbEntity
  8
0
100
AcDbMText
 10
-673.1993268000024
 20
590.1468962190442
 30
0.0
 40
14.85
 41
79.99992000000213
 46
0.0
 71
     5
 72
     5
  1
10
 73
     1
 44
1.0
1001
ACAD
1000
ACAD_MTEXT_COLUMN_INFO_BEGIN
1070
    75
1070
     2
1070
    79
1070
     0
1070
    76
1070
     1
1070
    78
1070
     0
1070
    48
1040
79.99992000000213
1070
    49
1040
35.0
1070
    50
1070
     1
1040
0.0
1000
ACAD_MTEXT_COLUMN_INFO_END
  0
MTEXT
  5
1A2D5
330
1A1BE
100
AcDbEntity
  8
0
100
AcDbMText
 10
-673.1993268000024
 20
624.871146219044
 30
0.0
 40
14.85
 41
79.99992000000213
 46
0.0
 71
     5
 72
     5
  1
11
 73
     1
 44
1.0
1001
ACAD
1000
ACAD_MTEXT_COLUMN_INFO_BEGIN
1070
    75
1070
     2
1070
    79
1070
     0
1070
    76
1070
     1
1070
    78
1070
     0
1070
    48
1040
79.99992000000213
1070
    49
1040
35.0
1070
    50
1070
     1
1040
0.0
1000
ACAD_MTEXT_COLUMN_INFO_END
  0
MTEXT
  5
1A2D6
330
1A1BE
100
AcDbEntity
  8
0
100
AcDbMText
 10
-673.1993268000024
 20
660.5853962190438
 30
0.0
 40
14.85
 41
79.99992000000213
 46
0.0
 71
     5
 72
     5
  1
12
 73
     1
 44
1.0
1001
ACAD
1000
ACAD_MTEXT_COLUMN_INFO_BEGIN
1070
    75
1070
     2
1070
    79
1070
     0
1070
    76
1070
     1
1070
    78
1070
     0
1070
    48
1040
79.99992000000213
1070
    49
1040
35.0
1070
    50
1070
     1
1040
0.0
1000
ACAD_MTEXT_COLUMN_INFO_END
  0
MTEXT
  5
1A2D7
330
1A1BE
100
AcDbEntity
  8
0
100
AcDbMText
 10
-673.1993268000024
 20
696.2996462190444
 30
0.0
 40
14.85
 41
79.99992000000213
 46
0.0
 71
     5
 72
     5
  1
13
 73
     1
 44
1.0
1001
ACAD
1000
ACAD_MTEXT_COLUMN_INFO_BEGIN
1070
    75
1070
     2
1070
    79
1070
     0
1070
    76
1070
     1
1070
    78
1070
     0
1070
    48
1040
79.99992000000213
1070
    49
1040
35.0
1070
    50
1070
     1
1040
0.0
1000
ACAD_MTEXT_COLUMN_INFO_END
  0
MTEXT
  5
1A2D8
330
1A1BE
100
AcDbEntity
  8
0
100
AcDbMText
 10
-673.1993268000024
 20
732.0138962190435
 30
0.0
 40
14.85
 41
79.99992000000213
 46
0.0
 71
     5
 72
     5
  1
14
 73
     1
 44
1.0
1001
ACAD
1000
ACAD_MTEXT_COLUMN_INFO_BEGIN
1070
    75
1070
     2
1070
    79
1070
     0
1070
    76
1070
     1
1070
    78
1070
     0
1070
    48
1040
79.99992000000213
1070
    49
1040
35.0
1070
    50
1070
     1
1040
0.0
1000
ACAD_MTEXT_COLUMN_INFO_END
  0
MTEXT
  5
1A2D9
330
1A1BE
100
AcDbEntity
  8
0
100
AcDbMText
 10
-536.399920844613
 20
232.6676031847628
 30
0.0
 40
14.85
 41
196.3625162735114
 46
0.0
 71
     5
 72
     5
  1
项目
 73
     1
 44
1.0
1001
ACAD
1000
ACAD_MTEXT_COLUMN_INFO_BEGIN
1070
    75
1070
     2
1070
    79
1070
     0
1070
    76
1070
     1
1070
    78
1070
     0
1070
    48
1040
196.3625162735114
1070
    49
1040
35.0
1070
    50
1070
     1
1040
0.0
1000
ACAD_MTEXT_COLUMN_INFO_END
  0
MTEXT
  5
1A2DA
330
1A1BE
100
AcDbEntity
  8
0
100
AcDbMText
 10
-536.399920844613
 20
267.1741175295231
 30
0.0
 40
14.85
 41
196.3625162735113
 46
0.0
 71
     5
 72
     5
  1
材质
 73
     1
 44
1.0
1001
ACAD
1000
ACAD_MTEXT_COLUMN_INFO_BEGIN
1070
    75
1070
     2
1070
    79
1070
     0
1070
    76
1070
     1
1070
    78
1070
     0
1070
    48
1040
196.3625162735113
1070
    49
1040
35.0
1070
    50
1070
     1
1040
0.0
1000
ACAD_MTEXT_COLUMN_INFO_END
  0
MTEXT
  5
1A2DB
330
1A1BE
100
AcDbEntity
  8
0
100
AcDbMText
 10
-536.399920844613
 20
302.8883675295231
 30
0.0
 40
14.85
 41
196.3625162735113
 46
0.0
 71
     5
 72
     5
  1
表面处理
 73
     1
 44
1.0
1001
ACAD
1000
ACAD_MTEXT_COLUMN_INFO_BEGIN
1070
    75
1070
     2
1070
    79
1070
     0
1070
    76
1070
     1
1070
    78
1070
     0
1070
    48
1040
196.3625162735113
1070
    49
1040
35.0
1070
    50
1070
     1
1040
0.0
1000
ACAD_MTEXT_COLUMN_INFO_END
  0
MTEXT
  5
1A2DC
330
1A1BE
100
AcDbEntity
  8
0
100
AcDbMText
 10
-536.399920844613
 20
338.6026175295228
 30
0.0
 40
14.85
 41
196.3625162735113
 46
0.0
 71
     5
 72
     5
  1
盆体厚度
 73
     1
 44
1.0
1001
ACAD
1000
ACAD_MTEXT_COLUMN_INFO_BEGIN
1070
    75
1070
     2
1070
    79
1070
     0
1070
    76
1070
     1
1070
    78
1070
     0
1070
    48
1040
196.3625162735113
1070
    49
1040
35.0
1070
    50
1070
     1
1040
0.0
1000
ACAD_MTEXT_COLUMN_INFO_END
  0
MTEXT
  5
1A2DD
330
1A1BE
100
AcDbEntity
  8
0
100
AcDbMText
 10
-536.399920844613
 20
374.3168675295228
 30
0.0
 40
14.85
 41
196.3625162735113
 46
0.0
 71
     5
 72
     5
  1
面板厚度
 73
     1
 44
1.0
1001
ACAD
1000
ACAD_MTEXT_COLUMN_INFO_BEGIN
1070
    75
1070
     2
1070
    79
1070
     0
1070
    76
1070
     1
1070
    78
1070
     0
1070
    48
1040
196.3625162735113
1070
    49
1040
35.0
1070
    50
1070
     1
1040
0.0
1000
ACAD_MTEXT_COLUMN_INFO_END
  0
MTEXT
  5
1A2DE
330
1A1BE
100
AcDbEntity
  8
0
100
AcDbMText
 10
-536.399920844613
 20
445.3098962190442
 30
0.0
 40
14.85
 41
196.3625162735112
 46
0.0
 71
     5
 72
     5
  1
商标工艺
 73
     1
 44
1.0
1001
ACAD
1000
ACAD_MTEXT_COLUMN_INFO_BEGIN
1070
    75
1070
     2
1070
    79
1070
     0
1070
    76
1070
     1
1070
    78
1070
     0
1070
    48
1040
196.3625162735112
1070
    49
1040
35.0
1070
    50
1070
     1
1040
0.0
1000
ACAD_MTEXT_COLUMN_INFO_END
  0
MTEXT
  5
1A2DF
330
1A1BE
100
AcDbEntity
  8
0
100
AcDbMText
 10
-536.399920844613
 20
481.024146219044
 30
0.0
 40
14.85
 41
196.3625162735112
 46
0.0
 71
     5
 72
     5
  1
商标代码
 73
     1
 44
1.0
1001
ACAD
1000
ACAD_MTEXT_COLUMN_INFO_BEGIN
1070
    75
1070
     2
1070
    79
1070
     0
1070
    76
1070
     1
1070
    78
1070
     0
1070
    48
1040
196.3625162735112
1070
    49
1040
35.0
1070
    50
1070
     1
1040
0.0
1000
ACAD_MTEXT_COLUMN_INFO_END
  0
MTEXT
  5
1A2E0
330
1A1BE
100
AcDbEntity
  8
0
100
AcDbMText
 10
-536.399920844613
 20
516.7383962190442
 30
0.0
 40
14.85
 41
196.3625162735112
 46
0.0
 71
     5
 72
     5
  1
商标位置
 73
     1
 44
1.0
1001
ACAD
1000
ACAD_MTEXT_COLUMN_INFO_BEGIN
1070
    75
1070
     2
1070
    79
1070
     0
1070
    76
1070
     1
1070
    78
1070
     0
1070
    48
1040
196.3625162735112
1070
    49
1040
35.0
1070
    50
1070
     1
1040
0.0
1000
ACAD_MTEXT_COLUMN_INFO_END
  0
MTEXT
  5
1A2E1
330
1A1BE
100
AcDbEntity
  8
0
100
AcDbMText
 10
-536.399920844613
 20
552.4526462190443
 30
0.0
 40
14.85
 41
196.3625162735111
 46
0.0
 71
     5
 72
     5
  1
加强根工艺
 73
     1
 44
1.0
1001
ACAD
1000
ACAD_MTEXT_COLUMN_INFO_BEGIN
1070
    75
1070
     2
1070
    79
1070
     0
1070
    76
1070
     1
1070
    78
1070
     0
1070
    48
1040
196.3625162735111
1070
    49
1040
35.0
1070
    50
1070
     1
1040
0.0
1000
ACAD_MTEXT_COLUMN_INFO_END
  0
MTEXT
  5
1A2E2
330
1A1BE
100
AcDbEntity
  8
0
100
AcDbMText
 10
-536.399920844613
 20
590.4445344308785
 30
0.0
 40
14.85
 41
196.3625162735111
 46
0.0
 71
     5
 72
     5
  1
翼板防震类型
 73
     1
 44
1.0
1001
ACAD
1000
ACAD_MTEXT_COLUMN_INFO_BEGIN
1070
    75
1070
     2
1070
    79
1070
     0
1070
    76
1070
     1
1070
    78
1070
     0
1070
    48
1040
196.3625162735111
1070
    49
1040
35.0
1070
    50
1070
     1
1040
0.0
1000
ACAD_MTEXT_COLUMN_INFO_END
  0
MTEXT
  5
1A2E3
330
1A1BE
100
AcDbEntity
  8
0
100
AcDbMText
 10
-536.399920844613
 20
624.8711462190442
 30
0.0
 40
14.85
 41
196.3625162735111
 46
0.0
 71
     5
 72
     5
  1
消音垫位置
 73
     1
 44
1.0
1001
ACAD
1000
ACAD_MTEXT_COLUMN_INFO_BEGIN
1070
    75
1070
     2
1070
    79
1070
     0
1070
    76
1070
     1
1070
    78
1070
     0
1070
    48
1040
196.3625162735111
1070
    49
1040
35.0
1070
    50
1070
     1
1040
0.0
1000
ACAD_MTEXT_COLUMN_INFO_END
  0
MTEXT
  5
1A2E4
330
1A1BE
100
AcDbEntity
  8
0
100
AcDbMText
 10
-536.399920844613
 20
660.5853962190444
 30
0.0
 40
14.85
 41
196.3625162735111
 46
0.0
 71
     5
 72
     5
  1
加强根类型
 73
     1
 44
1.0
1001
ACAD
1000
ACAD_MTEXT_COLUMN_INFO_BEGIN
1070
    75
1070
     2
1070
    79
1070
     0
1070
    76
1070
     1
1070
    78
1070
     0
1070
    48
1040
196.3625162735111
1070
    49
1040
35.0
1070
    50
1070
     1
1040
0.0
1000
ACAD_MTEXT_COLUMN_INFO_END
  0
MTEXT
  5
1A2E5
330
1A1BE
100
AcDbEntity
  8
0
100
AcDbMText
 10
-536.399920844613
 20
696.299646219044
 30
0.0
 40
14.85
 41
196.362516273511
 46
0.0
 71
     5
 72
     5
  1
加强根孔数、位置
 73
     1
 44
1.0
1001
ACAD
1000
ACAD_MTEXT_COLUMN_INFO_BEGIN
1070
    75
1070
     2
1070
    79
1070
     0
1070
    76
1070
     1
1070
    78
1070
     0
1070
    48
1040
196.362516273511
1070
    49
1040
35.0
1070
    50
1070
     1
1040
0.0
1000
ACAD_MTEXT_COLUMN_INFO_END
  0
MTEXT
  5
1A2E6
330
1A1BE
100
AcDbEntity
  8
0
100
AcDbMText
 10
-536.399920844613
 20
732.013896219044
 30
0.0
 40
14.85
 41
196.362516273511
 46
0.0
 71
     5
 72
     5
  1
边部形态
 73
     1
 44
1.0
1001
ACAD
1000
ACAD_MTEXT_COLUMN_INFO_BEGIN
1070
    75
1070
     2
1070
    79
1070
     0
1070
    76
1070
     1
1070
    78
1070
     0
1070
    48
1040
196.362516273511
1070
    49
1040
35.0
1070
    50
1070
     1
1040
0.0
1000
ACAD_MTEXT_COLUMN_INFO_END
  0
MTEXT
  5
1A2E7
330
1A1BE
100
AcDbEntity
  8
0
370
    -3
100
AcDbMText
 10
-455.3995446000044
 20
28.67917926167525
 30
0.0
 40
14.85
 41
79.99991999998724
 46
0.0
 71
     1
 72
     5
  1
\pi21.314;比例
 73
     1
 44
1.0
1001
ACAD
1000
ACAD_MTEXT_COLUMN_INFO_BEGIN
1070
    75
1070
     2
1070
    79
1070
     0
1070
    76
1070
     1
1070
    78
1070
     0
1070
    48
1040
79.99991999998724
1070
    49
1040
35.0
1070
    50
1070
     1
1040
0.0
1000
ACAD_MTEXT_COLUMN_INFO_END
  0
MTEXT
  5
1A2E8
330
1A1BE
100
AcDbEntity
  8
细实线
 62
     1
100
AcDbMText
 10
-133.2742107414233
 20
53.53424999999993
 30
0.0
 40
17.82
 41
269.2408297806542
 46
0.0
 71
     5
 72
     5
  1
{\fSimSun|b0|i0|c134|p54;珠海广金贸易有限公司}
 73
     1
 44
1.0
1001
ACAD
1000
ACAD_MTEXT_COLUMN_INFO_BEGIN
1070
    75
1070
     2
1070
    79
1070
     0
1070
    76
1070
     1
1070
    78
1070
     0
1070
    48
1040
269.2408297806542
1070
    49
1040
35.0
1070
    50
1070
     1
1040
0.0
1000
ACAD_MTEXT_COLUMN_INFO_END
  0
MTEXT
  5
1A2E9
102
{ACAD_XDICTIONARY
360
1B5B8
102
}
330
1A1BE
100
AcDbEntity
  8
细实线
 62
     1
100
AcDbMText
 10
-133.2742107414233
 20
17.85712499999988
 30
0.0
 40
10.89
 41
269.2408297806542
 46
0.0
 71
     5
 72
     5
  1
{\fSimSun|b0|i0|c134|p2;ZHUHAI GOLCONDA TRADING CD.,LTD.}
 73
     1
 44
1.0
1001
ACAD
1000
ACAD_MTEXT_COLUMN_INFO_BEGIN
1070
    75
1070
     2
1070
    79
1070
     0
1070
    76
1070
     1
1070
    78
1070
     0
1070
    48
1040
269.2408297806542
1070
    49
1040
35.0
1070
    50
1070
     1
1040
0.0
1000
ACAD_MTEXT_COLUMN_INFO_END
  0
MTEXT
  5
1A2EA
330
1A1BE
100
AcDbEntity
  8
0
100
AcDbMText
 10
-673.1993268000024
 20
409.8133818742837
 30
0.0
 40
14.85
 41
79.99992000000225
 46
0.0
 71
     5
 72
     5
  1
5
 73
     1
 44
1.0
1001
ACAD
1000
ACAD_MTEXT_COLUMN_INFO_BEGIN
1070
    75
1070
     2
1070
    79
1070
     0
1070
    76
1070
     1
1070
    78
1070
     0
1070
    48
1040
79.99992000000225
1070
    49
1040
35.0
1070
    50
1070
     1
1040
0.0
1000
ACAD_MTEXT_COLUMN_INFO_END
  0
MTEXT
  5
1A2EB
330
1A1BE
100
AcDbEntity
  8
0
100
AcDbMText
 10
-536.399920844613
 20
409.8133818742837
 30
0.0
 40
14.85
 41
196.3625162735112
 46
0.0
 71
     5
 72
     5
  1
底部处理
 73
     1
 44
1.0
1001
ACAD
1000
ACAD_MTEXT_COLUMN_INFO_BEGIN
1070
    75
1070
     2
1070
    79
1070
     0
1070
    76
1070
     1
1070
    78
1070
     0
1070
    48
1040
196.3625162735112
1070
    49
1040
35.0
1070
    50
1070
     1
1040
0.0
1000
ACAD_MTEXT_COLUMN_INFO_END
  0
MTEXT
  5
1A2EC
330
1A1BE
100
AcDbEntity
  8
0
100
AcDbMText
 10
-356.3996436000016
 20
196.2182138400024
 30
0.0
 40
14.85
 41
719.9992800000035
 46
0.0
 71
     5
 72
     5
  1
配置明细表
 73
     1
 44
1.0
1001
ACAD
1000
ACAD_MTEXT_COLUMN_INFO_BEGIN
1070
    75
1070
     2
1070
    79
1070
     0
1070
    76
1070
     1
1070
    78
1070
     0
1070
    48
1040
719.9992800000035
1070
    49
1040
35.0
1070
    50
1070
     1
1040
0.0
1000
ACAD_MTEXT_COLUMN_INFO_END
  0
MTEXT
  5
1A2ED
330
1A1BE
100
AcDbEntity
  8
0
100
AcDbMText
 10
-673.1993268000024
 20
142.6591069200014
 30
0.0
 40
14.85
 41
79.9999200000019
 46
0.0
 71
     5
 72
     5
  1
名称
 73
     1
 44
1.0
1001
ACAD
1000
ACAD_MTEXT_COLUMN_INFO_BEGIN
1070
    75
1070
     2
1070
    79
1070
     0
1070
    76
1070
     1
1070
    78
1070
     0
1070
    48
1040
79.9999200000019
1070
    49
1040
35.0
1070
    50
1070
     1
1040
0.0
1000
ACAD_MTEXT_COLUMN_INFO_END
  0
MTEXT
  5
1A2EE
330
1A1BE
100
AcDbEntity
  8
0
100
AcDbMText
 10
-316.7996832000008
 20
142.6591069200012
 30
0.0
 40
14.85
 41
639.9993600000017
 46
0.0
 71
     5
 72
     5
  1
32扫唛 NH377S-0001 08/08*1200*500*180 \P砂光 左双盆单翼 焊接型星盆
 73
     1
 44
1.0
1001
ACAD
1000
ACAD_MTEXT_COLUMN_INFO_BEGIN
1070
    75
1070
     2
1070
    79
1070
     0
1070
    76
1070
     1
1070
    78
1070
     0
1070
    48
1040
639.9993600000017
1070
    49
1040
35.0
1070
    50
1070
     1
1040
0.0
1000
ACAD_MTEXT_COLUMN_INFO_END
  0
LINE
  5
1A2EF
330
1A1BE
100
AcDbEntity
  8
0
370
    -3
100
AcDbLine
 10
-1425.598574400007
 20
178.4970000000003
 30
0.0
 11
-712.7992872000032
 21
178.4969999999996
 31
0.0
  0
MTEXT
  5
1A2F0
102
{ACAD_XDICTIONARY
360
1B5BA
102
}
330
1A1BE
100
AcDbEntity
  8
0
370
    -3
100
AcDbMText
 10
-827.2741643658209
 20
170.4611471359278
 30
0.0
 40
14.85
 41
115.6311890563805
 46
0.0
 71
     1
 72
     5
  1
\pi54.78752;1
 73
     1
 44
1.0
1001
ACAD
1000
ACAD_MTEXT_COLUMN_INFO_BEGIN
1070
    75
1070
     2
1070
    79
1070
     0
1070
    76
1070
     1
1070
    78
1070
     0
1070
    48
1040
115.6311890563805
1070
    49
1040
35.0
1070
    50
1070
     1
1040
0.0
1000
ACAD_MTEXT_COLUMN_INFO_END
  0
MTEXT
  5
1A2F1
102
{ACAD_XDICTIONARY
360
1B5BC
102
}
330
1A1BE
100
AcDbEntity
  8
0
370
    -3
100
AcDbMText
 10
-1425.598574400007
 20
170.4611471359271
 30
0.0
 40
14.85
 41
90.14627474391557
 46
0.0
 71
     1
 72
     5
  1
\pi41.04953;{\fSimSun|b0|i0|c134|p2;3}
 73
     1
 44
1.0
1001
ACAD
1000
ACAD_MTEXT_COLUMN_INFO_BEGIN
1070
    75
1070
     2
1070
    79
1070
     0
1070
    76
1070
     1
1070
    78
1070
     0
1070
    48
1040
90.14627474391557
1070
    49
1040
35.0
1070
    50
1070
     1
1040
0.0
1000
ACAD_MTEXT_COLUMN_INFO_END
  0
MTEXT
  5
1A2F2
330
1A1BE
100
AcDbEntity
  8
0
370
    -3
100
AcDbMText
 10
-1336.353762403534
 20
171.5870871579447
 30
0.0
 40
14.85
 41
514.2218161997084
 46
0.0
 71
     1
 72
     5
  1
\pi147.51;BH 01 243A 盆体半成品
 73
     1
 44
1.0
1001
ACAD
1000
ACAD_MTEXT_COLUMN_INFO_BEGIN
1070
    75
1070
     2
1070
    79
1070
     0
1070
    76
1070
     1
1070
    78
1070
     0
1070
    48
1040
514.2218161997084
1070
    49
1040
35.0
1070
    50
1070
     1
1040
0.0
1000
ACAD_MTEXT_COLUMN_INFO_END
  0
ENDBLK
  5
1A232
330
1A1BE
100
AcDbEntity
  8
0
100
AcDbBlockEnd
  0
BLOCK
  5
19593
330
19591
100
AcDbEntity
 67
     1
  8
0
100
AcDbBlockBegin
  2
*Paper_Space4
 70
     0
 10
0.0
 20
0.0
 30
0.0
  3
*Paper_Space4
  1

  0
VIEWPORT
  5
19599
330
19591
100
AcDbEntity
 67
     1
  8
0
100
AcDbViewport
 10
145.3409210443497
 20
105.9762382856022
 30
0.0
 40
284.9754454900927
 41
172.7991813524515
 68
     0
 69
     0
 12
145.3409210443497
 22
105.9762382856022
 13
0.0
 23
0.0
 14
10.0
 24
10.0
 15
10.0
 25
10.0
 16
0.0
 26
0.0
 36
1.0
 17
0.0
 27
0.0
 37
0.0
 42
50.0
 43
0.0
 44
0.0
 45
172.7991813524515
 50
0.0
 51
0.0
 72
 20000
 90
    32800
  1

281
     0
 71
     1
 74
     0
110
0.0
120
0.0
130
0.0
111
1.0
121
0.0
131
0.0
112
0.0
122
1.0
132
0.0
 79
     0
146
0.0
170
     0
 61
     5
348
19912
292
     1
282
     1
141
0.0
142
0.0
 63
   250
421
  3355443
  0
VIEWPORT
  5
1959B
330
19591
100
AcDbEntity
 67
     1
  8
尺寸线
100
AcDbViewport
 10
145.3409210443497
 20
101.8116623163223
 30
0.0
 40
232.5454736709595
 41
162.8986597061157
 68
     0
 69
     0
 12
5695.13332187057
 22
-2914.101988340145
 13
0.0
 23
0.0
 14
10.0
 24
10.0
 15
10.0
 25
10.0
 16
0.0
 26
0.0
 36
1.0
 17
0.0
 27
0.0
 37
0.0
 42
50.0
 43
0.0
 44
0.0
 45
1351.427312775331
 50
0.0
 51
0.0
 72
 20000
 90
    32864
  1

281
     0
 71
     1
 74
     0
110
0.0
120
0.0
130
0.0
111
1.0
121
0.0
131
0.0
112
0.0
122
1.0
132
0.0
 79
     0
146
0.0
170
     0
 61
     5
348
19912
292
     1
282
     1
141
0.0
142
0.0
 63
   250
421
  3355443
  0
ENDBLK
  5
19594
330
19591
100
AcDbEntity
 67
     1
  8
0
100
AcDbBlockEnd
  0
BLOCK
  5
1B358
330
1B357
100
AcDbEntity
  8
0
100
AcDbBlockBegin
  2
*D5
 70
     1
 10
0.0
 20
0.0
 30
0.0
  3
*D5
  1

  0
LINE
  5
1B402
330
1B357
100
AcDbEntity
  8
尺寸线
440
 16777216
100
AcDbLine
 10
6396.904586646902
 20
-2606.574022055328
 30
0.0
 11
6649.738606183594
 21
-2606.574022055328
 31
0.0
  0
LINE
  5
1B403
330
1B357
100
AcDbEntity
  8
尺寸线
440
 16777216
100
AcDbLine
 10
6396.904586646902
 20
-3106.574022055328
 30
0.0
 11
6649.738606183594
 21
-3106.574022055328
 31
0.0
  0
LINE
  5
1B404
330
1B357
100
AcDbEntity
  8
尺寸线
440
 16777216
100
AcDbLine
 10
6634.738606183593
 20
-2626.574022055328
 30
0.0
 11
6634.738606183593
 21
-3086.574022055329
 31
0.0
  0
SOLID
  5
1B405
330
1B357
100
AcDbEntity
  8
尺寸线
440
 16777216
100
AcDbTrace
 10
6631.40527285026
 20
-2626.574022055328
 30
0.0
 11
6638.071939516926
 21
-2626.574022055328
 31
0.0
 12
6634.738606183593
 22
-2606.574022055328
 32
0.0
 13
6634.738606183593
 23
-2606.574022055328
 33
0.0
  0
SOLID
  5
1B406
330
1B357
100
AcDbEntity
  8
尺寸线
440
 16777216
100
AcDbTrace
 10
6631.40527285026
 20
-3086.574022055329
 30
0.0
 11
6638.071939516926
 21
-3086.574022055329
 31
0.0
 12
6634.738606183593
 22
-3106.574022055328
 32
0.0
 13
6634.738606183593
 23
-3106.574022055328
 33
0.0
  0
MTEXT
  5
1B407
330
1B357
100
AcDbEntity
  8
尺寸线
440
 16777216
100
AcDbMText
 10
6622.238606183595
 20
-2856.574022055328
 30
0.0
 40
15.0
 41
0.0
 46
0.0
 71
     5
 72
     1
  1
\A1;500
 11
0.0000000000000001
 21
1.0
 31
0.0
 73
     1
 44
1.0
  0
POINT
  5
1B408
330
1B357
100
AcDbEntity
  8
Defpoints
 62
     0
440
 16777216
100
AcDbPoint
 10
6396.904586646902
 20
-2606.574022055328
 30
0.0
  0
POINT
  5
1B409
330
1B357
100
AcDbEntity
  8
Defpoints
 62
     0
440
 16777216
100
AcDbPoint
 10
6396.904586646902
 20
-3106.574022055328
 30
0.0
  0
POINT
  5
1B40A
330
1B357
100
AcDbEntity
  8
Defpoints
 62
     0
440
 16777216
100
AcDbPoint
 10
6634.738606183593
 20
-3106.574022055328
 30
0.0
  0
ENDBLK
  5
1B359
330
1B357
100
AcDbEntity
  8
0
100
AcDbBlockEnd
  0
BLOCK
  5
1B364
330
1B363
100
AcDbEntity
  8
0
100
AcDbBlockBegin
  2
*D6
 70
     1
 10
0.0
 20
0.0
 30
0.0
  3
*D6
  1

  0
LINE
  5
1B414
330
1B363
100
AcDbEntity
  8
尺寸线
440
 16777216
100
AcDbLine
 10
6521.40358262679
 20
-2706.574022055329
 30
0.0
 11
6575.234654722063
 21
-2706.574022055329
 31
0.0
  0
LINE
  5
1B415
330
1B363
100
AcDbEntity
  8
尺寸线
440
 16777216
100
AcDbLine
 10
6472.029482653486
 20
-3006.574022055329
 30
0.0
 11
6575.234654722063
 21
-3006.574022055329
 31
0.0
  0
LINE
  5
1B416
330
1B363
100
AcDbEntity
  8
尺寸线
440
 16777216
100
AcDbLine
 10
6560.234654722062
 20
-2726.574022055329
 30
0.0
 11
6560.234654722062
 21
-2986.574022055329
 31
0.0
  0
SOLID
  5
1B417
330
1B363
100
AcDbEntity
  8
尺寸线
440
 16777216
100
AcDbTrace
 10
6556.901321388728
 20
-2726.574022055329
 30
0.0
 11
6563.567988055395
 21
-2726.574022055329
 31
0.0
 12
6560.234654722062
 22
-2706.574022055329
 32
0.0
 13
6560.234654722062
 23
-2706.574022055329
 33
0.0
  0
SOLID
  5
1B418
330
1B363
100
AcDbEntity
  8
尺寸线
440
 16777216
100
AcDbTrace
 10
6556.901321388728
 20
-2986.574022055329
 30
0.0
 11
6563.567988055395
 21
-2986.574022055329
 31
0.0
 12
6560.234654722062
 22
-3006.574022055329
 32
0.0
 13
6560.234654722062
 23
-3006.574022055329
 33
0.0
  0
MTEXT
  5
1B419
330
1B363
100
AcDbEntity
  8
尺寸线
440
 16777216
100
AcDbMText
 10
6547.734654722063
 20
-2856.574022055328
 30
0.0
 40
15.0
 41
0.0
 46
0.0
 71
     5
 72
     1
  1
\A1;300
 11
0.0000000000000001
 21
1.0
 31
0.0
 73
     1
 44
1.0
  0
POINT
  5
1B41A
330
1B363
100
AcDbEntity
  8
Defpoints
 62
     0
440
 16777216
100
AcDbPoint
 10
6521.40358262679
 20
-2706.574022055329
 30
0.0
  0
POINT
  5
1B41B
330
1B363
100
AcDbEntity
  8
Defpoints
 62
     0
440
 16777216
100
AcDbPoint
 10
6472.029482653486
 20
-3006.574022055329
 30
0.0
  0
POINT
  5
1B41C
330
1B363
100
AcDbEntity
  8
Defpoints
 62
     0
440
 16777216
100
AcDbPoint
 10
6560.234654722062
 20
-3006.574022055329
 30
0.0
  0
ENDBLK
  5
1B365
330
1B363
100
AcDbEntity
  8
0
100
AcDbBlockEnd
  0
BLOCK
  5
1B370
330
1B36F
100
AcDbEntity
  8
0
100
AcDbBlockBegin
  2
*D7
 70
     1
 10
0.0
 20
0.0
 30
0.0
  3
*D7
  1

  0
LINE
  5
1B42F
330
1B36F
100
AcDbEntity
  8
尺寸线
440
 16777216
100
AcDbLine
 10
5324.404586646902
 20
-2979.074022055329
 30
0.0
 11
5324.404586646902
 21
-3199.858014973319
 31
0.0
  0
LINE
  5
1B430
330
1B36F
100
AcDbEntity
  8
尺寸线
440
 16777216
100
AcDbLine
 10
6524.404586646902
 20
-2979.074022055329
 30
0.0
 11
6524.404586646902
 21
-3199.858014973319
 31
0.0
  0
LINE
  5
1B431
330
1B36F
100
AcDbEntity
  8
尺寸线
440
 16777216
100
AcDbLine
 10
5344.404586646902
 20
-3184.858014973319
 30
0.0
 11
6504.404586646902
 21
-3184.858014973319
 31
0.0
  0
SOLID
  5
1B432
330
1B36F
100
AcDbEntity
  8
尺寸线
440
 16777216
100
AcDbTrace
 10
5344.404586646902
 20
-3181.524681639985
 30
0.0
 11
5344.404586646902
 21
-3188.191348306653
 31
0.0
 12
5324.404586646902
 22
-3184.858014973319
 32
0.0
 13
5324.404586646902
 23
-3184.858014973319
 33
0.0
  0
SOLID
  5
1B433
330
1B36F
100
AcDbEntity
  8
尺寸线
440
 16777216
100
AcDbTrace
 10
6504.404586646902
 20
-3181.524681639985
 30
0.0
 11
6504.404586646902
 21
-3188.191348306653
 31
0.0
 12
6524.404586646902
 22
-3184.858014973319
 32
0.0
 13
6524.404586646902
 23
-3184.858014973319
 33
0.0
  0
MTEXT
  5
1B434
330
1B36F
100
AcDbEntity
  8
尺寸线
440
 16777216
100
AcDbMText
 10
5924.404586646902
 20
-3172.358014973319
 30
0.0
 40
15.0
 41
0.0
 46
0.0
 71
     5
 72
     1
  1
\A1;1200
 73
     1
 44
1.0
  0
POINT
  5
1B435
330
1B36F
100
AcDbEntity
  8
Defpoints
 62
     0
440
 16777216
100
AcDbPoint
 10
5324.404586646902
 20
-2979.074022055329
 30
0.0
  0
POINT
  5
1B436
330
1B36F
100
AcDbEntity
  8
Defpoints
 62
     0
440
 16777216
100
AcDbPoint
 10
6524.404586646902
 20
-2979.074022055329
 30
0.0
  0
POINT
  5
1B437
330
1B36F
100
AcDbEntity
  8
Defpoints
 62
     0
440
 16777216
100
AcDbPoint
 10
6524.404586646902
 20
-3184.858014973319
 30
0.0
  0
ENDBLK
  5
1B371
330
1B36F
100
AcDbEntity
  8
0
100
AcDbBlockEnd
  0
BLOCK
  5
1B37C
330
1B37B
100
AcDbEntity
  8
0
100
AcDbBlockBegin
  2
*D8
 70
     1
 10
0.0
 20
0.0
 30
0.0
  3
*D8
  1

  0
LINE
  5
1B438
330
1B37B
100
AcDbEntity
  8
尺寸线
440
 16777216
100
AcDbLine
 10
6331.904586646903
 20
-3460.67613241102
 30
0.0
 11
6634.25996654728
 21
-3460.67613241102
 31
0.0
  0
LINE
  5
1B439
330
1B37B
100
AcDbEntity
  8
尺寸线
440
 16777216
100
AcDbLine
 10
6521.904586646903
 20
-3280.67613241102
 30
0.0
 11
6634.25996654728
 21
-3280.67613241102
 31
0.0
  0
LINE
  5
1B43A
330
1B37B
100
AcDbEntity
  8
尺寸线
440
 16777216
100
AcDbLine
 10
6619.259966547281
 20
-3440.676132411019
 30
0.0
 11
6619.259966547281
 21
-3300.67613241102
 31
0.0
  0
SOLID
  5
1B43B
330
1B37B
100
AcDbEntity
  8
尺寸线
440
 16777216
100
AcDbTrace
 10
6615.926633213948
 20
-3440.676132411019
 30
0.0
 11
6622.593299880614
 21
-3440.676132411019
 31
0.0
 12
6619.259966547281
 22
-3460.67613241102
 32
0.0
 13
6619.259966547281
 23
-3460.67613241102
 33
0.0
  0
SOLID
  5
1B43C
330
1B37B
100
AcDbEntity
  8
尺寸线
440
 16777216
100
AcDbTrace
 10
6615.926633213948
 20
-3300.67613241102
 30
0.0
 11
6622.593299880614
 21
-3300.67613241102
 31
0.0
 12
6619.259966547281
 22
-3280.67613241102
 32
0.0
 13
6619.259966547281
 23
-3280.67613241102
 33
0.0
  0
MTEXT
  5
1B43D
330
1B37B
100
AcDbEntity
  8
尺寸线
440
 16777216
100
AcDbMText
 10
6606.759966547281
 20
-3370.676132411019
 30
0.0
 40
15.0
 41
0.0
 46
0.0
 71
     5
 72
     1
  1
\A1;180
 11
0.0000000000000001
 21
1.0
 31
0.0
 73
     1
 44
1.0
  0
POINT
  5
1B43E
330
1B37B
100
AcDbEntity
  8
Defpoints
 62
     0
440
 16777216
100
AcDbPoint
 10
6331.904586646903
 20
-3460.67613241102
 30
0.0
  0
POINT
  5
1B43F
330
1B37B
100
AcDbEntity
  8
Defpoints
 62
     0
440
 16777216
100
AcDbPoint
 10
6521.904586646903
 20
-3280.67613241102
 30
0.0
  0
POINT
  5
1B440
330
1B37B
100
AcDbEntity
  8
Defpoints
 62
     0
440
 16777216
100
AcDbPoint
 10
6619.259966547281
 20
-3280.67613241102
 30
0.0
  0
ENDBLK
  5
1B37D
330
1B37B
100
AcDbEntity
  8
0
100
AcDbBlockEnd
  0
BLOCK
  5
1B388
330
1B387
100
AcDbEntity
  8
0
100
AcDbBlockBegin
  2
*D9
 70
     1
 10
0.0
 20
0.0
 30
0.0
  3
*D9
  1

  0
LINE
  5
1B441
330
1B387
100
AcDbEntity
  8
尺寸线
440
 16777216
100
AcDbLine
 10
6524.404586646902
 20
-2734.074022055329
 30
0.0
 11
6524.404586646902
 21
-2550.811542839296
 31
0.0
  0
LINE
  5
1B442
330
1B387
100
AcDbEntity
  8
尺寸线
440
 16777216
100
AcDbLine
 10
6061.904586646904
 20
-2654.074022055328
 30
0.0
 11
6061.904586646904
 21
-2550.811542839296
 31
0.0
  0
LINE
  5
1B443
330
1B387
100
AcDbEntity
  8
尺寸线
440
 16777216
100
AcDbLine
 10
6504.404586646902
 20
-2565.811542839296
 30
0.0
 11
6081.904586646904
 21
-2565.811542839296
 31
0.0
  0
SOLID
  5
1B444
330
1B387
100
AcDbEntity
  8
尺寸线
440
 16777216
100
AcDbTrace
 10
6504.404586646902
 20
-2562.478209505962
 30
0.0
 11
6504.404586646902
 21
-2569.144876172629
 31
0.0
 12
6524.404586646902
 22
-2565.811542839296
 32
0.0
 13
6524.404586646902
 23
-2565.811542839296
 33
0.0
  0
SOLID
  5
1B445
330
1B387
100
AcDbEntity
  8
尺寸线
440
 16777216
100
AcDbTrace
 10
6081.904586646904
 20
-2562.478209505962
 30
0.0
 11
6081.904586646904
 21
-2569.144876172629
 31
0.0
 12
6061.904586646904
 22
-2565.811542839296
 32
0.0
 13
6061.904586646904
 23
-2565.811542839296
 33
0.0
  0
MTEXT
  5
1B446
330
1B387
100
AcDbEntity
  8
尺寸线
440
 16777216
100
AcDbMText
 10
6293.154586646903
 20
-2553.311542839296
 30
0.0
 40
15.0
 41
0.0
 46
0.0
 71
     5
 72
     1
  1
\A1;462.5
 73
     1
 44
1.0
  0
POINT
  5
1B447
330
1B387
100
AcDbEntity
  8
Defpoints
 62
     0
440
 16777216
100
AcDbPoint
 10
6524.404586646902
 20
-2734.074022055329
 30
0.0
  0
POINT
  5
1B448
330
1B387
100
AcDbEntity
  8
Defpoints
 62
     0
440
 16777216
100
AcDbPoint
 10
6061.904586646904
 20
-2654.074022055328
 30
0.0
  0
POINT
  5
1B449
330
1B387
100
AcDbEntity
  8
Defpoints
 62
     0
440
 16777216
100
AcDbPoint
 10
6061.904586646904
 20
-2565.811542839296
 30
0.0
  0
ENDBLK
  5
1B389
330
1B387
100
AcDbEntity
  8
0
100
AcDbBlockEnd
  0
BLOCK
  5
1B394
330
1B393
100
AcDbEntity
  8
0
100
AcDbBlockBegin
  2
*D10
 70
     1
 10
0.0
 20
0.0
 30
0.0
  3
*D10
  1

  0
LINE
  5
1B44A
330
1B393
100
AcDbEntity
  8
尺寸线
440
 16777216
100
AcDbLine
 10
6061.904586646904
 20
-2654.074022055328
 30
0.0
 11
5967.327218236267
 21
-2654.074022055328
 31
0.0
  0
LINE
  5
1B44B
330
1B393
100
AcDbEntity
  8
尺寸线
440
 16777216
100
AcDbLine
 10
6020.267558817721
 20
-2606.574022055329
 30
0.0
 11
5967.327218236267
 21
-2606.574022055329
 31
0.0
  0
LINE
  5
1B44C
330
1B393
100
AcDbEntity
  8
尺寸线
440
 16777216
100
AcDbLine
 10
5982.327218236267
 20
-2674.074022055328
 30
0.0
 11
5982.327218236267
 21
-2694.074022055328
 31
0.0
  0
LINE
  5
1B44D
330
1B393
100
AcDbEntity
  8
尺寸线
440
 16777216
100
AcDbLine
 10
5982.327218236267
 20
-2586.574022055329
 30
0.0
 11
5982.327218236267
 21
-2566.574022055329
 31
0.0
  0
LINE
  5
1B44E
330
1B393
100
AcDbEntity
  8
尺寸线
440
 16777216
100
AcDbLine
 10
5982.327218236267
 20
-2566.574022055329
 30
0.0
 11
6027.9105515696
 21
-2566.574022055329
 31
0.0
  0
LINE
  5
1B44F
330
1B393
100
AcDbEntity
  8
尺寸线
440
 16777216
100
AcDbLine
 10
5982.327218236267
 20
-2654.074022055328
 30
0.0
 11
5982.327218236267
 21
-2606.574022055329
 31
0.0
  0
SOLID
  5
1B450
330
1B393
100
AcDbEntity
  8
尺寸线
440
 16777216
100
AcDbTrace
 10
5978.993884902934
 20
-2674.074022055328
 30
0.0
 11
5985.6605515696
 21
-2674.074022055328
 31
0.0
 12
5982.327218236267
 22
-2654.074022055328
 32
0.0
 13
5982.327218236267
 23
-2654.074022055328
 33
0.0
  0
SOLID
  5
1B451
330
1B393
100
AcDbEntity
  8
尺寸线
440
 16777216
100
AcDbTrace
 10
5978.993884902934
 20
-2586.574022055329
 30
0.0
 11
5985.6605515696
 21
-2586.574022055329
 31
0.0
 12
5982.327218236267
 22
-2606.574022055329
 32
0.0
 13
5982.327218236267
 23
-2606.574022055329
 33
0.0
  0
MTEXT
  5
1B452
330
1B393
100
AcDbEntity
  8
尺寸线
440
 16777216
100
AcDbMText
 10
6007.618884902935
 20
-2554.074022055328
 30
0.0
 40
15.0
 41
0.0
 46
0.0
 71
     5
 72
     1
  1
\A1;47.5
 73
     1
 44
1.0
  0
POINT
  5
1B453
330
1B393
100
AcDbEntity
  8
Defpoints
 62
     0
440
 16777216
100
AcDbPoint
 10
6061.904586646904
 20
-2654.074022055328
 30
0.0
  0
POINT
  5
1B454
330
1B393
100
AcDbEntity
  8
Defpoints
 62
     0
440
 16777216
100
AcDbPoint
 10
6020.267558817721
 20
-2606.574022055329
 30
0.0
  0
POINT
  5
1B455
330
1B393
100
AcDbEntity
  8
Defpoints
 62
     0
440
 16777216
100
AcDbPoint
 10
5982.327218236267
 20
-2606.574022055329
 30
0.0
  0
ENDBLK
  5
1B395
330
1B393
100
AcDbEntity
  8
0
100
AcDbBlockEnd
  0
BLOCK
  5
1B3AC
330
1B3AB
100
AcDbEntity
  8
0
100
AcDbBlockBegin
  2
*D11
 70
     1
 10
0.0
 20
0.0
 30
0.0
  3
*D11
  1

  0
LINE
  5
1B40B
330
1B3AB
100
AcDbEntity
  8
尺寸线
440
 16777216
100
AcDbLine
 10
6396.904586646902
 20
-2654.074022055329
 30
0.0
 11
6614.636249531719
 21
-2654.074022055329
 31
0.0
  0
LINE
  5
1B40C
330
1B3AB
100
AcDbEntity
  8
尺寸线
440
 16777216
100
AcDbLine
 10
6396.904586646902
 20
-3059.074022055329
 30
0.0
 11
6614.636249531719
 21
-3059.074022055329
 31
0.0
  0
LINE
  5
1B40D
330
1B3AB
100
AcDbEntity
  8
尺寸线
440
 16777216
100
AcDbLine
 10
6599.636249531719
 20
-2674.074022055329
 30
0.0
 11
6599.636249531719
 21
-3039.074022055328
 31
0.0
  0
SOLID
  5
1B40E
330
1B3AB
100
AcDbEntity
  8
尺寸线
440
 16777216
100
AcDbTrace
 10
6596.302916198386
 20
-2674.074022055329
 30
0.0
 11
6602.969582865052
 21
-2674.074022055329
 31
0.0
 12
6599.636249531719
 22
-2654.074022055329
 32
0.0
 13
6599.636249531719
 23
-2654.074022055329
 33
0.0
  0
SOLID
  5
1B40F
330
1B3AB
100
AcDbEntity
  8
尺寸线
440
 16777216
100
AcDbTrace
 10
6596.302916198386
 20
-3039.074022055328
 30
0.0
 11
6602.969582865052
 21
-3039.074022055328
 31
0.0
 12
6599.636249531719
 22
-3059.074022055329
 32
0.0
 13
6599.636249531719
 23
-3059.074022055329
 33
0.0
  0
MTEXT
  5
1B410
330
1B3AB
100
AcDbEntity
  8
尺寸线
440
 16777216
100
AcDbMText
 10
6587.13624953172
 20
-2856.574022055328
 30
0.0
 40
15.0
 41
0.0
 46
0.0
 71
     5
 72
     1
  1
\A1;405
 11
0.0000000000000001
 21
1.0
 31
0.0
 73
     1
 44
1.0
  0
POINT
  5
1B411
330
1B3AB
100
AcDbEntity
  8
Defpoints
 62
     0
440
 16777216
100
AcDbPoint
 10
6396.904586646902
 20
-2654.074022055329
 30
0.0
  0
POINT
  5
1B412
330
1B3AB
100
AcDbEntity
  8
Defpoints
 62
     0
440
 16777216
100
AcDbPoint
 10
6396.904586646902
 20
-3059.074022055329
 30
0.0
  0
POINT
  5
1B413
330
1B3AB
100
AcDbEntity
  8
Defpoints
 62
     0
440
 16777216
100
AcDbPoint
 10
6599.636249531719
 20
-3059.074022055329
 30
0.0
  0
ENDBLK
  5
1B3AD
330
1B3AB
100
AcDbEntity
  8
0
100
AcDbBlockEnd
  0
BLOCK
  5
1B3C1
330
1B3C0
100
AcDbEntity
  8
0
100
AcDbBlockBegin
  2
*D12
 70
     1
 10
0.0
 20
0.0
 30
0.0
  3
*D12
  1

  0
LINE
  5
1B41D
330
1B3C0
100
AcDbEntity
  8
尺寸线
440
 16777216
100
AcDbLine
 10
6476.904586646902
 20
-2979.074022055329
 30
0.0
 11
6476.904586646902
 21
-3159.714876765757
 31
0.0
  0
LINE
  5
1B41E
330
1B3C0
100
AcDbEntity
  8
尺寸线
440
 16777216
100
AcDbLine
 10
6096.904586646902
 20
-2979.074022055329
 30
0.0
 11
6096.904586646902
 21
-3159.714876765757
 31
0.0
  0
LINE
  5
1B41F
330
1B3C0
100
AcDbEntity
  8
尺寸线
440
 16777216
100
AcDbLine
 10
6456.904586646903
 20
-3144.714876765757
 30
0.0
 11
6116.904586646903
 21
-3144.714876765757
 31
0.0
  0
SOLID
  5
1B420
330
1B3C0
100
AcDbEntity
  8
尺寸线
440
 16777216
100
AcDbTrace
 10
6456.904586646903
 20
-3141.381543432423
 30
0.0
 11
6456.904586646903
 21
-3148.048210099091
 31
0.0
 12
6476.904586646902
 22
-3144.714876765757
 32
0.0
 13
6476.904586646902
 23
-3144.714876765757
 33
0.0
  0
SOLID
  5
1B421
330
1B3C0
100
AcDbEntity
  8
尺寸线
440
 16777216
100
AcDbTrace
 10
6116.904586646903
 20
-3141.381543432423
 30
0.0
 11
6116.904586646903
 21
-3148.048210099091
 31
0.0
 12
6096.904586646902
 22
-3144.714876765757
 32
0.0
 13
6096.904586646902
 23
-3144.714876765757
 33
0.0
  0
MTEXT
  5
1B422
330
1B3C0
100
AcDbEntity
  8
尺寸线
440
 16777216
100
AcDbMText
 10
6286.904586646902
 20
-3132.214876765757
 30
0.0
 40
15.0
 41
0.0
 46
0.0
 71
     5
 72
     1
  1
\A1;380
 73
     1
 44
1.0
  0
POINT
  5
1B423
330
1B3C0
100
AcDbEntity
  8
Defpoints
 62
     0
440
 16777216
100
AcDbPoint
 10
6476.904586646902
 20
-2979.074022055329
 30
0.0
  0
POINT
  5
1B424
330
1B3C0
100
AcDbEntity
  8
Defpoints
 62
     0
440
 16777216
100
AcDbPoint
 10
6096.904586646902
 20
-2979.074022055329
 30
0.0
  0
POINT
  5
1B425
330
1B3C0
100
AcDbEntity
  8
Defpoints
 62
     0
440
 16777216
100
AcDbPoint
 10
6096.904586646902
 20
-3144.714876765757
 30
0.0
  0
ENDBLK
  5
1B3C2
330
1B3C0
100
AcDbEntity
  8
0
100
AcDbBlockEnd
  0
BLOCK
  5
1B3CD
330
1B3CC
100
AcDbEntity
  8
0
100
AcDbBlockBegin
  2
*D13
 70
     1
 10
0.0
 20
0.0
 30
0.0
  3
*D13
  1

  0
LINE
  5
1B426
330
1B3CC
100
AcDbEntity
  8
尺寸线
440
 16777216
100
AcDbLine
 10
6061.904586646902
 20
-2941.574022055329
 30
0.0
 11
6061.904586646902
 21
-3157.914111995137
 31
0.0
  0
LINE
  5
1B427
330
1B3CC
100
AcDbEntity
  8
尺寸线
440
 16777216
100
AcDbLine
 10
5771.9045866469
 20
-2941.574022055329
 30
0.0
 11
5771.9045866469
 21
-3157.914111995137
 31
0.0
  0
LINE
  5
1B428
330
1B3CC
100
AcDbEntity
  8
尺寸线
440
 16777216
100
AcDbLine
 10
6041.904586646903
 20
-3142.914111995138
 30
0.0
 11
5791.9045866469
 21
-3142.914111995138
 31
0.0
  0
SOLID
  5
1B429
330
1B3CC
100
AcDbEntity
  8
尺寸线
440
 16777216
100
AcDbTrace
 10
6041.904586646903
 20
-3139.580778661804
 30
0.0
 11
6041.904586646903
 21
-3146.247445328471
 31
0.0
 12
6061.904586646902
 22
-3142.914111995138
 32
0.0
 13
6061.904586646902
 23
-3142.914111995138
 33
0.0
  0
SOLID
  5
1B42A
330
1B3CC
100
AcDbEntity
  8
尺寸线
440
 16777216
100
AcDbTrace
 10
5791.9045866469
 20
-3139.580778661804
 30
0.0
 11
5791.9045866469
 21
-3146.247445328471
 31
0.0
 12
5771.9045866469
 22
-3142.914111995138
 32
0.0
 13
5771.9045866469
 23
-3142.914111995138
 33
0.0
  0
MTEXT
  5
1B42B
330
1B3CC
100
AcDbEntity
  8
尺寸线
440
 16777216
100
AcDbMText
 10
5916.904586646901
 20
-3130.414111995138
 30
0.0
 40
15.0
 41
0.0
 46
0.0
 71
     5
 72
     1
  1
\A1;290
 73
     1
 44
1.0
  0
POINT
  5
1B42C
330
1B3CC
100
AcDbEntity
  8
Defpoints
 62
     0
440
 16777216
100
AcDbPoint
 10
6061.904586646902
 20
-2941.574022055329
 30
0.0
  0
POINT
  5
1B42D
330
1B3CC
100
AcDbEntity
  8
Defpoints
 62
     0
440
 16777216
100
AcDbPoint
 10
5771.9045866469
 20
-2941.574022055329
 30
0.0
  0
POINT
  5
1B42E
330
1B3CC
100
AcDbEntity
  8
Defpoints
 62
     0
440
 16777216
100
AcDbPoint
 10
5771.9045866469
 20
-3142.914111995138
 30
0.0
  0
ENDBLK
  5
1B3CE
330
1B3CC
100
AcDbEntity
  8
0
100
AcDbBlockEnd
  0
BLOCK
  5
1B3E2
330
1B3E1
100
AcDbEntity
  8
0
100
AcDbBlockBegin
  2
*D14
 70
     1
 10
0.0
 20
0.0
 30
0.0
  3
*D14
  1

  0
LINE
  5
1B456
330
1B3E1
100
AcDbEntity
  8
尺寸线
440
 16777216
100
AcDbLine
 10
5871.904586646902
 20
-3430.67613241102
 30
0.0
 11
5270.16506409738
 21
-3430.67613241102
 31
0.0
  0
LINE
  5
1B457
330
1B3E1
100
AcDbEntity
  8
尺寸线
440
 16777216
100
AcDbLine
 10
5326.904586646902
 20
-3280.67613241102
 30
0.0
 11
5270.16506409738
 21
-3280.67613241102
 31
0.0
  0
LINE
  5
1B458
330
1B3E1
100
AcDbEntity
  8
尺寸线
440
 16777216
100
AcDbLine
 10
5285.16506409738
 20
-3410.676132411019
 30
0.0
 11
5285.16506409738
 21
-3300.67613241102
 31
0.0
  0
SOLID
  5
1B459
330
1B3E1
100
AcDbEntity
  8
尺寸线
440
 16777216
100
AcDbTrace
 10
5281.831730764047
 20
-3410.676132411019
 30
0.0
 11
5288.498397430713
 21
-3410.676132411019
 31
0.0
 12
5285.16506409738
 22
-3430.67613241102
 32
0.0
 13
5285.16506409738
 23
-3430.67613241102
 33
0.0
  0
SOLID
  5
1B45A
330
1B3E1
100
AcDbEntity
  8
尺寸线
440
 16777216
100
AcDbTrace
 10
5281.831730764047
 20
-3300.67613241102
 30
0.0
 11
5288.498397430713
 21
-3300.67613241102
 31
0.0
 12
5285.16506409738
 22
-3280.67613241102
 32
0.0
 13
5285.16506409738
 23
-3280.67613241102
 33
0.0
  0
MTEXT
  5
1B45B
330
1B3E1
100
AcDbEntity
  8
尺寸线
440
 16777216
100
AcDbMText
 10
5272.665064097381
 20
-3355.676132411019
 30
0.0
 40
15.0
 41
0.0
 46
0.0
 71
     5
 72
     1
  1
\A1;150
 11
0.0000000000000001
 21
1.0
 31
0.0
 73
     1
 44
1.0
  0
POINT
  5
1B45C
330
1B3E1
100
AcDbEntity
  8
Defpoints
 62
     0
440
 16777216
100
AcDbPoint
 10
5871.904586646902
 20
-3430.67613241102
 30
0.0
  0
POINT
  5
1B45D
330
1B3E1
100
AcDbEntity
  8
Defpoints
 62
     0
440
 16777216
100
AcDbPoint
 10
5326.904586646902
 20
-3280.67613241102
 30
0.0
  0
POINT
  5
1B45E
330
1B3E1
100
AcDbEntity
  8
Defpoints
 62
     0
440
 16777216
100
AcDbPoint
 10
5285.16506409738
 20
-3280.67613241102
 30
0.0
  0
ENDBLK
  5
1B3E3
330
1B3E1
100
AcDbEntity
  8
0
100
AcDbBlockEnd
  0
BLOCK
  5
1B3EE
330
1B3ED
100
AcDbEntity
  8
0
100
AcDbBlockBegin
  2
*D15
 70
     1
 10
0.0
 20
0.0
 30
0.0
  3
*D15
  1

  0
LINE
  5
1B468
330
1B3ED
100
AcDbEntity
  8
尺寸线
440
 16777216
100
AcDbLine
 10
5964.389993852792
 20
-2729.00487186332
 30
0.0
 11
6004.370020483951
 21
-2729.00487186332
 31
0.0
  0
LINE
  5
1B469
330
1B3ED
100
AcDbEntity
  8
尺寸线
440
 16777216
100
AcDbLine
 10
6004.370020483951
 20
-2729.00487186332
 30
0.0
 11
6039.066514563539
 21
-2683.817466097922
 31
0.0
  0
LINE
  5
1B46A
330
1B3ED
100
AcDbEntity
  8
尺寸线
440
 16777216
100
AcDbLine
 10
6084.74265873027
 20
-2624.330578012732
 30
0.0
 11
6096.922963841399
 21
-2608.467407856681
 31
0.0
  0
MTEXT
  5
1B46B
102
{ACAD_XDICTIONARY
360
1B5D2
102
}
330
1B3ED
100
AcDbEntity
  8
尺寸线
440
 16777216
100
AcDbMText
 10
5981.880007168371
 20
-2715.945617535757
 30
0.0
 40
15.0
 41
0.0
 46
0.0
 71
     5
 72
     1
  1
\A1;∅35
 73
     1
 44
1.0
  0
LINE
  5
1B46C
330
1B3ED
100
AcDbEntity
  8
尺寸线
440
 16777216
100
AcDbLine
 10
6072.562353619141
 20
-2640.193748168783
 30
0.0
 11
6051.246819674666
 21
-2667.954295941872
 31
0.0
  0
SOLID
  5
1B46D
330
1B3ED
100
AcDbEntity
  8
尺寸线
440
 16777216
100
AcDbTrace
 10
6082.098797037595
 20
-2622.300527160878
 30
0.0
 11
6087.386520422945
 21
-2626.360628864587
 31
0.0
 12
6072.562353619141
 22
-2640.193748168783
 32
0.0
 13
6072.562353619141
 23
-2640.193748168783
 33
0.0
  0
SOLID
  5
1B46E
330
1B3ED
100
AcDbEntity
  8
尺寸线
440
 16777216
100
AcDbTrace
 10
6036.422652870863
 20
-2681.787415246069
 30
0.0
 11
6041.710376256212
 21
-2685.847516949777
 31
0.0
 12
6051.246819674666
 22
-2667.954295941872
 32
0.0
 13
6051.246819674666
 23
-2667.954295941872
 33
0.0
  0
POINT
  5
1B46F
330
1B3ED
100
AcDbEntity
  8
Defpoints
 62
     0
440
 16777216
100
AcDbPoint
 10
6051.246819674666
 20
-2667.954295941872
 30
0.0
  0
POINT
  5
1B470
330
1B3ED
100
AcDbEntity
  8
Defpoints
 62
     0
440
 16777216
100
AcDbPoint
 10
6072.562353619141
 20
-2640.193748168783
 30
0.0
  0
ENDBLK
  5
1B3EF
330
1B3ED
100
AcDbEntity
  8
0
100
AcDbBlockEnd
  0
BLOCK
  5
1B546
330
1B545
100
AcDbEntity
  8
0
100
AcDbBlockBegin
  2
*D16
 70
     1
 10
0.0
 20
0.0
 30
0.0
  3
*D16
  1

  0
LINE
  5
1B552
330
1B545
100
AcDbEntity
  8
尺寸线
440
 16777216
100
AcDbLine
 10
6029.582573536978
 20
-2927.116532975759
 30
0.0
 11
5989.35254690582
 21
-2927.116532975759
 31
0.0
  0
LINE
  5
1B553
330
1B545
100
AcDbEntity
  8
尺寸线
440
 16777216
100
AcDbLine
 10
5989.35254690582
 20
-2927.116532975759
 30
0.0
 11
5963.474868185474
 21
-2901.919461488839
 31
0.0
  0
LINE
  5
1B554
330
1B545
100
AcDbEntity
  8
尺寸线
440
 16777216
100
AcDbLine
 10
5870.334305108329
 20
-2811.228582621817
 30
0.0
 11
5856.004987711845
 21
-2797.276139719198
 31
0.0
  0
MTEXT
  5
1B555
102
{ACAD_XDICTIONARY
360
1B5D4
102
}
330
1B545
100
AcDbEntity
  8
尺寸线
440
 16777216
100
AcDbMText
 10
6011.9675602214
 20
-2914.057278648196
 30
0.0
 40
15.0
 41
0.0
 46
0.0
 71
     5
 72
     1
  1
\A1;∅90
 73
     1
 44
1.0
  0
LINE
  5
1B556
330
1B545
100
AcDbEntity
  8
尺寸线
440
 16777216
100
AcDbLine
 10
5884.663622504812
 20
-2825.181025524436
 30
0.0
 11
5949.14555078899
 21
-2887.96701858622
 31
0.0
  0
SOLID
  5
1B557
330
1B545
100
AcDbEntity
  8
尺寸线
440
 16777216
100
AcDbTrace
 10
5872.659712258766
 20
-2808.840363055736
 30
0.0
 11
5868.008897957893
 21
-2813.616802187898
 31
0.0
 12
5884.663622504812
 22
-2825.181025524436
 32
0.0
 13
5884.663622504812
 23
-2825.181025524436
 33
0.0
  0
SOLID
  5
1B558
330
1B545
100
AcDbEntity
  8
尺寸线
440
 16777216
100
AcDbTrace
 10
5965.80027533591
 20
-2899.531241922758
 30
0.0
 11
5961.149461035036
 21
-2904.307681054919
 31
0.0
 12
5949.14555078899
 22
-2887.96701858622
 32
0.0
 13
5949.14555078899
 23
-2887.96701858622
 33
0.0
  0
POINT
  5
1B559
330
1B545
100
AcDbEntity
  8
Defpoints
 62
     0
440
 16777216
100
AcDbPoint
 10
5949.14555078899
 20
-2887.96701858622
 30
0.0
  0
POINT
  5
1B55A
330
1B545
100
AcDbEntity
  8
Defpoints
 62
     0
440
 16777216
100
AcDbPoint
 10
5884.663622504812
 20
-2825.181025524436
 30
0.0
  0
ENDBLK
  5
1B547
330
1B545
100
AcDbEntity
  8
0
100
AcDbBlockEnd
  0
BLOCK
  5
1B55E
330
1B55D
100
AcDbEntity
  8
0
100
AcDbBlockBegin
  2
*D17
 70
     1
 10
0.0
 20
0.0
 30
0.0
  3
*D17
  1

  0
LINE
  5
1B56A
330
1B55D
100
AcDbEntity
  8
尺寸线
440
 16777216
100
AcDbLine
 10
6172.710116054085
 20
-2925.524829317314
 30
0.0
 11
6212.940142685244
 21
-2925.524829317314
 31
0.0
  0
LINE
  5
1B56B
330
1B55D
100
AcDbEntity
  8
尺寸线
440
 16777216
100
AcDbLine
 10
6212.940142685244
 20
-2925.524829317314
 30
0.0
 11
6239.359494047636
 21
-2900.896298279898
 31
0.0
  0
LINE
  5
1B56C
330
1B55D
100
AcDbEntity
  8
尺寸线
440
 16777216
100
AcDbLine
 10
6334.44967924617
 20
-2812.251745830761
 30
0.0
 11
6349.078938507484
 21
-2798.614122377048
 31
0.0
  0
MTEXT
  5
1B56D
102
{ACAD_XDICTIONARY
360
1B5D6
102
}
330
1B55D
100
AcDbEntity
  8
尺寸线
440
 16777216
100
AcDbMText
 10
6190.325129369664
 20
-2912.465574989751
 30
0.0
 40
15.0
 41
0.0
 46
0.0
 71
     5
 72
     1
  1
\A1;∅90
 73
     1
 44
1.0
  0
LINE
  5
1B56E
330
1B55D
100
AcDbEntity
  8
尺寸线
440
 16777216
100
AcDbLine
 10
6319.820419984857
 20
-2825.889369284474
 30
0.0
 11
6253.988753308949
 21
-2887.258674826185
 31
0.0
  0
SOLID
  5
1B56F
330
1B55D
100
AcDbEntity
  8
尺寸线
440
 16777216
100
AcDbTrace
 10
6332.176742003885
 20
-2809.813535953875
 30
0.0
 11
6336.722616488456
 21
-2814.689955707646
 31
0.0
 12
6319.820419984857
 22
-2825.889369284474
 32
0.0
 13
6319.820419984857
 23
-2825.889369284474
 33
0.0
  0
SOLID
  5
1B570
330
1B55D
100
AcDbEntity
  8
尺寸线
440
 16777216
100
AcDbTrace
 10
6237.086556805349
 20
-2898.458088403014
 30
0.0
 11
6241.632431289921
 21
-2903.334508156784
 31
0.0
 12
6253.988753308949
 22
-2887.258674826185
 32
0.0
 13
6253.988753308949
 23
-2887.258674826185
 33
0.0
  0
POINT
  5
1B571
330
1B55D
100
AcDbEntity
  8
Defpoints
 62
     0
440
 16777216
100
AcDbPoint
 10
6253.988753308949
 20
-2887.258674826185
 30
0.0
  0
POINT
  5
1B572
330
1B55D
100
AcDbEntity
  8
Defpoints
 62
     0
440
 16777216
100
AcDbPoint
 10
6319.820419984857
 20
-2825.889369284474
 30
0.0
  0
ENDBLK
  5
1B55F
330
1B55D
100
AcDbEntity
  8
0
100
AcDbBlockEnd
  0
ENDSEC
  0
SECTION
  2
ENTITIES
  0
MTEXT
  5
CB1A
330
1F
100
AcDbEntity
  8
尺寸线
100
AcDbMText
 10
1155.852774671316
 20
589.4087831620955
 30
0.0
 40
2.5
 41
2.5
 46
0.0
 71
     1
 72
     1
  1
\A1;
 73
     1
 44
1.0
  0
MTEXT
  5
108B0
330
1F
100
AcDbEntity
  8
尺寸线
100
AcDbMText
 10
-2447.938442199904
 20
2284.338164738504
 30
0.0
 40
10.0
 41
0.0
 46
0.0
 71
     1
 72
     1
  1

 73
     1
 44
1.0
  0
MTEXT
  5
108B1
330
1F
100
AcDbEntity
  8
尺寸线
100
AcDbMText
 10
-1948.091225355357
 20
2029.720797585754
 30
0.0
 40
10.0
 41
0.0
 46
0.0
 71
     1
 72
     1
  1

 73
     1
 44
1.0
  0
MTEXT
  5
108B2
330
1F
100
AcDbEntity
  8
尺寸线
100
AcDbMText
 10
-1948.091225355357
 20
2029.720797585754
 30
0.0
 40
10.0
 41
0.0
 46
0.0
 71
     1
 72
     1
  1

 73
     1
 44
1.0
  0
MTEXT
  5
108B3
330
1F
100
AcDbEntity
  8
尺寸线
100
AcDbMText
 10
-4320.957628344903
 20
3097.461971711872
 30
0.0
 40
10.0
 41
0.0
 46
0.0
 71
     1
 72
     1
  1

 73
     1
 44
1.0
  0
LWPOLYLINE
  5
1B242
102
{ACAD_REACTORS
330
1B331
102
}
330
1F
100
AcDbEntity
  8
0
100
AcDbPolyline
 90
        8
 70
     1
 43
0.0
 10
5771.9045866469
 20
-2771.574022055329
 42
-0.4142135623730951
 10
5836.904586646901
 20
-2706.574022055329
 10
5996.904586646902
 20
-2706.574022055329
 42
-0.4142135623730951
 10
6061.904586646902
 20
-2771.574022055329
 10
6061.904586646902
 20
-2941.574022055329
 42
-0.414213562373094
 10
5996.904586646902
 20
-3006.574022055329
 10
5836.904586646901
 20
-3006.574022055329
 42
-0.4142135623730951
 10
5771.9045866469
 20
-2941.574022055329
  0
LWPOLYLINE
  5
1B243
102
{ACAD_REACTORS
330
1B32A
330
1B32E
102
}
330
1F
100
AcDbEntity
  8
粗实线
100
AcDbPolyline
 90
        8
 70
     1
 43
0.0
 10
6096.904586646902
 20
-2734.074022055329
 42
-0.4142135623730947
 10
6176.904586646902
 20
-2654.074022055329
 10
6396.904586646902
 20
-2654.074022055329
 42
-0.4142135623730951
 10
6476.904586646902
 20
-2734.074022055329
 10
6476.904586646902
 20
-2979.074022055329
 42
-0.4142135623730951
 10
6396.904586646902
 20
-3059.074022055329
 10
6176.904586646902
 20
-3059.074022055329
 42
-0.4142135623730943
 10
6096.904586646902
 20
-2979.074022055329
  0
ARC
  5
1B244
330
1F
100
AcDbEntity
  8
0
100
AcDbCircle
 10
6396.904586646902
 20
-2734.074022055329
 30
0.0
 40
107.5
100
AcDbArc
 50
0.000000000000007
 51
90.0
  0
LINE
  5
1B245
330
1F
100
AcDbEntity
  8
0
100
AcDbLine
 10
6396.904586646902
 20
-2626.574022055328
 30
0.0
 11
6180.009931089356
 21
-2626.574022055328
 31
0.0
  0
LINE
  5
1B246
330
1F
100
AcDbEntity
  8
0
100
AcDbLine
 10
6504.404586646902
 20
-2979.074022055329
 30
0.0
 11
6504.404586646902
 21
-2734.074022055329
 31
0.0
  0
ARC
  5
1B247
330
1F
100
AcDbEntity
  8
0
100
AcDbCircle
 10
6396.904586646902
 20
-2979.074022055329
 30
0.0
 40
107.5
100
AcDbArc
 50
270.0
 51
0.000000000000007
  0
LINE
  5
1B248
330
1F
100
AcDbEntity
  8
0
100
AcDbLine
 10
5451.904586646902
 20
-3086.574022055329
 30
0.0
 11
5661.067016154891
 21
-3086.574022055329
 31
0.0
  0
ARC
  5
1B249
330
1F
100
AcDbEntity
  8
0
100
AcDbCircle
 10
5451.904586646902
 20
-2979.074022055329
 30
0.0
 40
107.5
100
AcDbArc
 50
180.0
 51
270.0
  0
LINE
  5
1B24A
330
1F
100
AcDbEntity
  8
0
100
AcDbLine
 10
5344.404586646902
 20
-2734.07402205533
 30
0.0
 11
5344.404586646902
 21
-2979.074022055329
 31
0.0
  0
ARC
  5
1B24B
330
1F
100
AcDbEntity
  8
0
100
AcDbCircle
 10
5451.904586646902
 20
-2734.074022055329
 30
0.0
 40
107.5
100
AcDbArc
 50
90.0
 51
180.0000000000002
  0
ARC
  5
1B24C
330
1F
100
AcDbEntity
  8
0
100
AcDbCircle
 10
6396.904586646902
 20
-2734.074022055329
 30
0.0
 40
100.5
100
AcDbArc
 50
0.000000000000007
 51
90.0
  0
LINE
  5
1B24D
330
1F
100
AcDbEntity
  8
0
100
AcDbLine
 10
6396.904586646902
 20
-2633.574022055328
 30
0.0
 11
6176.904586646902
 21
-2633.574022055328
 31
0.0
  0
LINE
  5
1B24E
330
1F
100
AcDbEntity
  8
0
100
AcDbLine
 10
6497.404586646903
 20
-2979.074022055329
 30
0.0
 11
6497.404586646903
 21
-2734.074022055329
 31
0.0
  0
ARC
  5
1B24F
330
1F
100
AcDbEntity
  8
0
100
AcDbCircle
 10
6396.904586646902
 20
-2979.074022055329
 30
0.0
 40
100.5
100
AcDbArc
 50
270.0
 51
0.000000000000007
  0
LINE
  5
1B250
330
1F
100
AcDbEntity
  8
0
100
AcDbLine
 10
5451.904586646902
 20
-3079.574022055329
 30
0.0
 11
5661.067016154891
 21
-3079.574022055329
 31
0.0
  0
ARC
  5
1B251
330
1F
100
AcDbEntity
  8
0
100
AcDbCircle
 10
5451.904586646902
 20
-2979.074022055329
 30
0.0
 40
100.5
100
AcDbArc
 50
180.0
 51
270.0
  0
LINE
  5
1B252
330
1F
100
AcDbEntity
  8
0
100
AcDbLine
 10
5351.404586646903
 20
-2734.07402205533
 30
0.0
 11
5351.404586646903
 21
-2979.074022055329
 31
0.0
  0
ARC
  5
1B253
330
1F
100
AcDbEntity
  8
0
100
AcDbCircle
 10
5451.904586646902
 20
-2734.074022055329
 30
0.0
 40
100.5
100
AcDbArc
 50
90.0
 51
180.0000000000002
  0
ARC
  5
1B254
330
1F
100
AcDbEntity
  8
0
100
AcDbCircle
 10
6070.538473622124
 20
-2652.574022055329
 30
0.0
 40
30.0
100
AcDbArc
 50
270.0
 51
324.1839264274096
  0
ARC
  5
1B255
330
1F
100
AcDbEntity
  8
0
100
AcDbCircle
 10
6070.538473622124
 20
-2652.574022055329
 30
0.0
 40
37.0
100
AcDbArc
 50
270.0
 51
324.1839264274096
  0
ARC
  5
1B256
330
1F
100
AcDbEntity
  8
0
100
AcDbCircle
 10
6180.009931089356
 20
-2731.574022055328
 30
0.0
 40
105.0
100
AcDbArc
 50
90.0
 51
144.1839264274098
  0
ARC
  5
1B257
330
1F
100
AcDbEntity
  8
0
100
AcDbCircle
 10
6180.009931089356
 20
-2731.574022055328
 30
0.0
 40
98.0
100
AcDbArc
 50
90.0
 51
144.1839264274098
  0
LINE
  5
1B258
330
1F
100
AcDbEntity
  8
0
100
AcDbLine
 10
5661.067016154891
 20
-2633.574022055329
 30
0.0
 11
5451.904586646902
 21
-2633.574022055329
 31
0.0
  0
LINE
  5
1B259
330
1F
100
AcDbEntity
  8
0
100
AcDbLine
 10
6176.904586646902
 20
-3079.574022055329
 30
0.0
 11
6396.904586646902
 21
-3079.574022055329
 31
0.0
  0
ARC
  5
1B25A
330
1F
100
AcDbEntity
  8
0
100
AcDbCircle
 10
5394.053948050951
 20
-2685.324022055329
 30
0.0
 40
5.0
100
AcDbArc
 50
90.0
 51
139.0261669069061
  0
ARC
  5
1B25B
330
1F
100
AcDbEntity
  8
0
100
AcDbCircle
 10
5390.024361612184
 20
-2690.424022055328
 30
0.0
 40
5.0
100
AcDbArc
 50
144.3482492087048
 51
270.0
  0
ARC
  5
1B25C
330
1F
100
AcDbEntity
  8
0
100
AcDbCircle
 10
5380.385717143582
 20
-2709.424022055328
 30
0.0
 40
5.0
100
AcDbArc
 50
90.0
 51
161.8546560587809
  0
ARC
  5
1B25D
330
1F
100
AcDbEntity
  8
0
100
AcDbCircle
 10
5378.925839968253
 20
-2714.524022055328
 30
0.0
 40
5.0
100
AcDbArc
 50
166.19775974534
 51
270.0
  0
ARC
  5
1B25E
330
1F
100
AcDbEntity
  8
0
100
AcDbCircle
 10
5376.904586646902
 20
-2738.624022055329
 30
0.0
 40
5.0
100
AcDbArc
 50
180.0
 51
270.0
  0
ARC
  5
1B25F
330
1F
100
AcDbEntity
  8
0
100
AcDbCircle
 10
5376.904586646902
 20
-2733.524022055329
 30
0.0
 40
5.0
100
AcDbArc
 50
90.0
 51
180.0
  0
ARC
  5
1B260
330
1F
100
AcDbEntity
  8
0
100
AcDbCircle
 10
5376.904586646902
 20
-2757.624022055329
 30
0.0
 40
5.0
100
AcDbArc
 50
90.0
 51
180.0
  0
ARC
  5
1B261
330
1F
100
AcDbEntity
  8
0
100
AcDbCircle
 10
5376.904586646902
 20
-2762.724022055329
 30
0.0
 40
5.0
100
AcDbArc
 50
180.0
 51
270.0
  0
ARC
  5
1B262
330
1F
100
AcDbEntity
  8
0
100
AcDbCircle
 10
5376.904586646902
 20
-2781.724022055328
 30
0.0
 40
5.0
100
AcDbArc
 50
90.0
 51
180.0
  0
ARC
  5
1B263
330
1F
100
AcDbEntity
  8
0
100
AcDbCircle
 10
5376.904586646902
 20
-2786.824022055329
 30
0.0
 40
5.0
100
AcDbArc
 50
180.0
 51
270.0
  0
ARC
  5
1B264
330
1F
100
AcDbEntity
  8
0
100
AcDbCircle
 10
5376.904586646902
 20
-2805.824022055328
 30
0.0
 40
5.0
100
AcDbArc
 50
90.0
 51
180.0
  0
ARC
  5
1B265
330
1F
100
AcDbEntity
  8
0
100
AcDbCircle
 10
5376.904586646902
 20
-2810.924022055329
 30
0.0
 40
5.0
100
AcDbArc
 50
180.0
 51
270.0
  0
ARC
  5
1B266
330
1F
100
AcDbEntity
  8
0
100
AcDbCircle
 10
5376.904586646902
 20
-2859.124022055328
 30
0.0
 40
5.0
100
AcDbArc
 50
180.0
 51
270.0
  0
ARC
  5
1B267
330
1F
100
AcDbEntity
  8
0
100
AcDbCircle
 10
5376.904586646902
 20
-2854.024022055329
 30
0.0
 40
5.0
100
AcDbArc
 50
90.0
 51
180.0
  0
ARC
  5
1B268
330
1F
100
AcDbEntity
  8
0
100
AcDbCircle
 10
5376.904586646902
 20
-2835.024022055328
 30
0.0
 40
5.0
100
AcDbArc
 50
180.0
 51
270.0
  0
ARC
  5
1B269
330
1F
100
AcDbEntity
  8
0
100
AcDbCircle
 10
5376.904586646902
 20
-2829.924022055328
 30
0.0
 40
5.0
100
AcDbArc
 50
90.0
 51
180.0
  0
ARC
  5
1B26A
330
1F
100
AcDbEntity
  8
0
100
AcDbCircle
 10
5376.904586646902
 20
-2878.124022055329
 30
0.0
 40
5.0
100
AcDbArc
 50
90.0
 51
180.0
  0
ARC
  5
1B26B
330
1F
100
AcDbEntity
  8
0
100
AcDbCircle
 10
5376.904586646902
 20
-2883.224022055328
 30
0.0
 40
5.0
100
AcDbArc
 50
180.0
 51
270.0
  0
ARC
  5
1B26C
330
1F
100
AcDbEntity
  8
0
100
AcDbCircle
 10
5376.904586646902
 20
-2902.224022055328
 30
0.0
 40
5.0
100
AcDbArc
 50
90.0
 51
180.0
  0
ARC
  5
1B26D
330
1F
100
AcDbEntity
  8
0
100
AcDbCircle
 10
5376.904586646902
 20
-2907.324022055329
 30
0.0
 40
5.0
100
AcDbArc
 50
180.0
 51
270.0
  0
ARC
  5
1B26E
330
1F
100
AcDbEntity
  8
0
100
AcDbCircle
 10
5376.904586646902
 20
-2926.324022055329
 30
0.0
 40
5.0
100
AcDbArc
 50
90.0
 51
180.0
  0
ARC
  5
1B26F
330
1F
100
AcDbEntity
  8
0
100
AcDbCircle
 10
5376.904586646902
 20
-2931.424022055328
 30
0.0
 40
5.0
100
AcDbArc
 50
180.0
 51
270.0
  0
ARC
  5
1B270
330
1F
100
AcDbEntity
  8
0
100
AcDbCircle
 10
5376.904586646902
 20
-2950.424022055329
 30
0.0
 40
5.0
100
AcDbArc
 50
90.0
 51
180.0
  0
ARC
  5
1B271
330
1F
100
AcDbEntity
  8
0
100
AcDbCircle
 10
5376.904586646902
 20
-2955.524022055329
 30
0.0
 40
5.0
100
AcDbArc
 50
180.0
 51
270.0
  0
ARC
  5
1B272
330
1F
100
AcDbEntity
  8
0
100
AcDbCircle
 10
5376.904586646902
 20
-2974.524022055329
 30
0.0
 40
5.0
100
AcDbArc
 50
90.0
 51
180.0
  0
ARC
  5
1B273
330
1F
100
AcDbEntity
  8
0
100
AcDbCircle
 10
5376.904586646902
 20
-2979.624022055329
 30
0.0
 40
5.0
100
AcDbArc
 50
180.0
 51
270.0
  0
ARC
  5
1B274
330
1F
100
AcDbEntity
  8
0
100
AcDbCircle
 10
5378.925839968253
 20
-2998.624022055329
 30
0.0
 40
5.0
100
AcDbArc
 50
90.0
 51
193.8022402546599
  0
ARC
  5
1B275
330
1F
100
AcDbEntity
  8
0
100
AcDbCircle
 10
5380.385717143582
 20
-3003.724022055329
 30
0.0
 40
5.0
100
AcDbArc
 50
198.1453439412191
 51
270.0
  0
ARC
  5
1B276
330
1F
100
AcDbEntity
  8
0
100
AcDbCircle
 10
5390.024361612184
 20
-3022.724022055328
 30
0.0
 40
5.0
100
AcDbArc
 50
90.0
 51
215.6517507912951
  0
ARC
  5
1B277
330
1F
100
AcDbEntity
  8
0
100
AcDbCircle
 10
5394.053948050951
 20
-3027.824022055329
 30
0.0
 40
5.0
100
AcDbArc
 50
220.9738330930875
 51
270.0
  0
ARC
  5
1B278
330
1F
100
AcDbEntity
  8
0
100
AcDbCircle
 10
5420.6750231736
 20
-3046.824022055329
 30
0.0
 40
5.0
100
AcDbArc
 50
90.0
 51
247.9937303256947
  0
ARC
  5
1B279
330
1F
100
AcDbEntity
  8
0
100
AcDbCircle
 10
5690.904414232597
 20
-3046.824022055329
 30
0.0
 40
5.0
100
AcDbArc
 50
289.9484435888025
 51
90.0
  0
ARC
  5
1B27A
330
1F
100
AcDbEntity
  8
0
100
AcDbCircle
 10
5721.202057081988
 20
-3027.824022055329
 30
0.0
 40
5.0
100
AcDbArc
 50
270.0
 51
314.2361508067787
  0
ARC
  5
1B27B
330
1F
100
AcDbEntity
  8
0
100
AcDbCircle
 10
5726.024474357346
 20
-3022.724022055328
 30
0.0
 40
5.0
100
AcDbArc
 50
318.9687479776559
 51
90.0
  0
ARC
  5
1B27C
330
1F
100
AcDbEntity
  8
0
100
AcDbCircle
 10
5738.525471528246
 20
-3003.724022055329
 30
0.0
 40
5.0
100
AcDbArc
 50
270.0
 51
334.3456400791759
  0
ARC
  5
1B27D
330
1F
100
AcDbEntity
  8
0
100
AcDbCircle
 10
5740.772260633145
 20
-2998.624022055329
 30
0.0
 40
5.0
100
AcDbArc
 50
338.1028779929047
 51
90.0
  0
ARC
  5
1B27E
330
1F
100
AcDbEntity
  8
0
100
AcDbCircle
 10
5745.950466974257
 20
-2979.624022055329
 30
0.0
 40
5.0
100
AcDbArc
 50
270.0
 51
351.407160988655
  0
ARC
  5
1B27F
330
1F
100
AcDbEntity
  8
0
100
AcDbCircle
 10
5746.564140153874
 20
-2974.524022055329
 30
0.0
 40
5.0
100
AcDbArc
 50
354.8702327414262
 51
90.0
  0
ARC
  5
1B280
330
1F
100
AcDbEntity
  8
0
100
AcDbCircle
 10
5746.904586646902
 20
-2955.524022055329
 30
0.0
 40
5.0
100
AcDbArc
 50
270.0
 51
0.000000000000007
  0
ARC
  5
1B281
330
1F
100
AcDbEntity
  8
0
100
AcDbCircle
 10
5746.904586646902
 20
-2950.424022055329
 30
0.0
 40
5.0
100
AcDbArc
 50
0.000000000000007
 51
90.0
  0
ARC
  5
1B282
330
1F
100
AcDbEntity
  8
0
100
AcDbCircle
 10
5746.904586646902
 20
-2931.424022055329
 30
0.0
 40
5.0
100
AcDbArc
 50
270.0
 51
0.000000000000007
  0
ARC
  5
1B283
330
1F
100
AcDbEntity
  8
0
100
AcDbCircle
 10
5746.904586646902
 20
-2926.324022055329
 30
0.0
 40
5.0
100
AcDbArc
 50
0.000000000000007
 51
90.0
  0
ARC
  5
1B284
330
1F
100
AcDbEntity
  8
0
100
AcDbCircle
 10
5746.904586646902
 20
-2907.324022055329
 30
0.0
 40
5.0
100
AcDbArc
 50
270.0
 51
0.000000000000007
  0
ARC
  5
1B285
330
1F
100
AcDbEntity
  8
0
100
AcDbCircle
 10
5746.904586646902
 20
-2902.224022055328
 30
0.0
 40
5.0
100
AcDbArc
 50
0.000000000000007
 51
90.0
  0
ARC
  5
1B286
330
1F
100
AcDbEntity
  8
0
100
AcDbCircle
 10
5746.904586646902
 20
-2883.224022055329
 30
0.0
 40
5.0
100
AcDbArc
 50
270.0
 51
0.000000000000007
  0
ARC
  5
1B287
330
1F
100
AcDbEntity
  8
0
100
AcDbCircle
 10
5746.904586646902
 20
-2878.124022055329
 30
0.0
 40
5.0
100
AcDbArc
 50
0.000000000000007
 51
90.0
  0
ARC
  5
1B288
330
1F
100
AcDbEntity
  8
0
100
AcDbCircle
 10
5746.904586646902
 20
-2859.124022055329
 30
0.0
 40
5.0
100
AcDbArc
 50
270.0
 51
0.000000000000007
  0
ARC
  5
1B289
330
1F
100
AcDbEntity
  8
0
100
AcDbCircle
 10
5746.904586646902
 20
-2854.024022055329
 30
0.0
 40
5.0
100
AcDbArc
 50
0.000000000000007
 51
90.0
  0
ARC
  5
1B28A
330
1F
100
AcDbEntity
  8
0
100
AcDbCircle
 10
5746.904586646902
 20
-2835.024022055329
 30
0.0
 40
5.0
100
AcDbArc
 50
270.0
 51
0.000000000000007
  0
ARC
  5
1B28B
330
1F
100
AcDbEntity
  8
0
100
AcDbCircle
 10
5746.904586646902
 20
-2829.924022055329
 30
0.0
 40
5.0
100
AcDbArc
 50
0.000000000000007
 51
90.0
  0
ARC
  5
1B28C
330
1F
100
AcDbEntity
  8
0
100
AcDbCircle
 10
5746.904586646902
 20
-2810.924022055329
 30
0.0
 40
5.0
100
AcDbArc
 50
270.0
 51
0.000000000000007
  0
ARC
  5
1B28D
330
1F
100
AcDbEntity
  8
0
100
AcDbCircle
 10
5746.904586646902
 20
-2805.824022055329
 30
0.0
 40
5.0
100
AcDbArc
 50
0.000000000000007
 51
90.0
  0
ARC
  5
1B28E
330
1F
100
AcDbEntity
  8
0
100
AcDbCircle
 10
5746.904586646902
 20
-2786.824022055329
 30
0.0
 40
5.0
100
AcDbArc
 50
270.0
 51
0.000000000000007
  0
ARC
  5
1B28F
330
1F
100
AcDbEntity
  8
0
100
AcDbCircle
 10
5746.904586646902
 20
-2781.724022055329
 30
0.0
 40
5.0
100
AcDbArc
 50
0.000000000000007
 51
90.0
  0
ARC
  5
1B290
330
1F
100
AcDbEntity
  8
0
100
AcDbCircle
 10
5746.904586646902
 20
-2762.724022055329
 30
0.0
 40
5.0
100
AcDbArc
 50
270.0
 51
0.000000000000007
  0
ARC
  5
1B291
330
1F
100
AcDbEntity
  8
0
100
AcDbCircle
 10
5746.904586646902
 20
-2757.624022055329
 30
0.0
 40
5.0
100
AcDbArc
 50
0.000000000000007
 51
90.0
  0
ARC
  5
1B292
330
1F
100
AcDbEntity
  8
0
100
AcDbCircle
 10
5746.564140153874
 20
-2738.624022055329
 30
0.0
 40
5.0
100
AcDbArc
 50
270.0
 51
5.129767258573835
  0
ARC
  5
1B293
330
1F
100
AcDbEntity
  8
0
100
AcDbCircle
 10
5745.950466974257
 20
-2733.524022055329
 30
0.0
 40
5.0
100
AcDbArc
 50
8.592839011345006
 51
90.0
  0
ARC
  5
1B294
330
1F
100
AcDbEntity
  8
0
100
AcDbCircle
 10
5740.772260633145
 20
-2714.524022055329
 30
0.0
 40
5.0
100
AcDbArc
 50
270.0
 51
21.89712200709533
  0
ARC
  5
1B295
330
1F
100
AcDbEntity
  8
0
100
AcDbCircle
 10
5738.525471528246
 20
-2709.424022055328
 30
0.0
 40
5.0
100
AcDbArc
 50
25.65435992082416
 51
90.0
  0
ARC
  5
1B296
330
1F
100
AcDbEntity
  8
0
100
AcDbCircle
 10
5726.024474357346
 20
-2690.42402205533
 30
0.0
 40
5.0
100
AcDbArc
 50
270.0
 51
41.03125202234406
  0
ARC
  5
1B297
330
1F
100
AcDbEntity
  8
0
100
AcDbCircle
 10
5721.202057081988
 20
-2685.324022055329
 30
0.0
 40
5.0
100
AcDbArc
 50
45.76384919322124
 51
90.0
  0
ARC
  5
1B298
330
1F
100
AcDbEntity
  8
0
100
AcDbCircle
 10
5420.6750231736
 20
-2666.324022055328
 30
0.0
 40
5.0
100
AcDbArc
 50
112.0062696743053
 51
270.0
  0
ARC
  5
1B299
330
1F
100
AcDbEntity
  8
0
100
AcDbCircle
 10
5690.904414232594
 20
-2666.324022055329
 30
0.0
 40
5.0
100
AcDbArc
 50
270.0
 51
70.05155641119742
  0
ARC
  5
1B29A
330
1F
100
AcDbEntity
  8
0
100
AcDbCircle
 10
5446.904586646902
 20
-2731.224022055329
 30
0.0
 40
75.0
100
AcDbArc
 50
90.0
 51
112.0062696743053
  0
ARC
  5
1B29B
330
1F
100
AcDbEntity
  8
0
100
AcDbCircle
 10
5446.904586646902
 20
-2731.224022055329
 30
0.0
 40
75.0
100
AcDbArc
 50
139.0261669069061
 51
144.3482492087048
  0
ARC
  5
1B29C
330
1F
100
AcDbEntity
  8
0
100
AcDbCircle
 10
5446.904586646902
 20
-2731.224022055329
 30
0.0
 40
75.0
100
AcDbArc
 50
161.8546560587809
 51
166.19775974534
  0
LINE
  5
1B29D
330
1F
100
AcDbEntity
  8
0
100
AcDbLine
 10
5371.904586646902
 20
-2757.624022055329
 30
0.0
 11
5371.904586646902
 21
-2762.724022055329
 31
0.0
  0
LINE
  5
1B29E
330
1F
100
AcDbEntity
  8
0
100
AcDbLine
 10
5371.904586646902
 20
-2781.724022055328
 30
0.0
 11
5371.904586646902
 21
-2786.824022055329
 31
0.0
  0
LINE
  5
1B29F
330
1F
100
AcDbEntity
  8
0
100
AcDbLine
 10
5371.904586646902
 20
-2805.824022055328
 30
0.0
 11
5371.904586646902
 21
-2810.924022055329
 31
0.0
  0
LINE
  5
1B2A0
330
1F
100
AcDbEntity
  8
0
100
AcDbLine
 10
5371.904586646902
 20
-2829.924022055328
 30
0.0
 11
5371.904586646902
 21
-2835.024022055328
 31
0.0
  0
LINE
  5
1B2A1
330
1F
100
AcDbEntity
  8
0
100
AcDbLine
 10
5371.904586646902
 20
-2854.024022055329
 30
0.0
 11
5371.904586646902
 21
-2859.124022055328
 31
0.0
  0
LINE
  5
1B2A2
330
1F
100
AcDbEntity
  8
0
100
AcDbLine
 10
5371.904586646902
 20
-2878.124022055329
 30
0.0
 11
5371.904586646902
 21
-2883.224022055328
 31
0.0
  0
LINE
  5
1B2A3
330
1F
100
AcDbEntity
  8
0
100
AcDbLine
 10
5371.904586646902
 20
-2902.224022055328
 30
0.0
 11
5371.904586646902
 21
-2907.324022055329
 31
0.0
  0
LINE
  5
1B2A4
330
1F
100
AcDbEntity
  8
0
100
AcDbLine
 10
5371.904586646902
 20
-2926.324022055329
 30
0.0
 11
5371.904586646902
 21
-2931.424022055328
 31
0.0
  0
LINE
  5
1B2A5
330
1F
100
AcDbEntity
  8
0
100
AcDbLine
 10
5371.904586646902
 20
-2950.424022055329
 30
0.0
 11
5371.904586646902
 21
-2955.524022055329
 31
0.0
  0
LINE
  5
1B2A6
330
1F
100
AcDbEntity
  8
0
100
AcDbLine
 10
5371.904586646902
 20
-2974.524022055329
 30
0.0
 11
5371.904586646902
 21
-2979.624022055329
 31
0.0
  0
ARC
  5
1B2A7
330
1F
100
AcDbEntity
  8
0
100
AcDbCircle
 10
5446.904586646902
 20
-2981.924022055329
 30
0.0
 40
75.0
100
AcDbArc
 50
193.8022402546599
 51
198.1453439412191
  0
ARC
  5
1B2A8
330
1F
100
AcDbEntity
  8
0
100
AcDbCircle
 10
5446.904586646902
 20
-2981.924022055329
 30
0.0
 40
75.0
100
AcDbArc
 50
215.6517507912951
 51
220.9738330930875
  0
ARC
  5
1B2A9
330
1F
100
AcDbEntity
  8
0
100
AcDbCircle
 10
5661.904586646902
 20
-2966.924022055329
 30
0.0
 40
90.0
100
AcDbArc
 50
270.0
 51
289.9484435888025
  0
ARC
  5
1B2AA
330
1F
100
AcDbEntity
  8
0
100
AcDbCircle
 10
5661.904586646902
 20
-2966.924022055329
 30
0.0
 40
90.0
100
AcDbArc
 50
314.2361508067787
 51
318.9687479776559
  0
ARC
  5
1B2AB
330
1F
100
AcDbEntity
  8
0
100
AcDbCircle
 10
5661.904586646902
 20
-2966.924022055329
 30
0.0
 40
90.0
100
AcDbArc
 50
334.3456400791759
 51
338.1028779929047
  0
LINE
  5
1B2AC
330
1F
100
AcDbEntity
  8
0
100
AcDbLine
 10
5751.904586646902
 20
-2950.424022055329
 30
0.0
 11
5751.904586646902
 21
-2955.524022055329
 31
0.0
  0
LINE
  5
1B2AD
330
1F
100
AcDbEntity
  8
0
100
AcDbLine
 10
5751.904586646902
 20
-2926.324022055329
 30
0.0
 11
5751.904586646902
 21
-2931.424022055329
 31
0.0
  0
LINE
  5
1B2AE
330
1F
100
AcDbEntity
  8
0
100
AcDbLine
 10
5751.904586646902
 20
-2902.224022055328
 30
0.0
 11
5751.904586646902
 21
-2907.324022055329
 31
0.0
  0
LINE
  5
1B2AF
330
1F
100
AcDbEntity
  8
0
100
AcDbLine
 10
5751.904586646902
 20
-2878.124022055329
 30
0.0
 11
5751.904586646902
 21
-2883.224022055329
 31
0.0
  0
LINE
  5
1B2B0
330
1F
100
AcDbEntity
  8
0
100
AcDbLine
 10
5751.904586646902
 20
-2854.024022055329
 30
0.0
 11
5751.904586646902
 21
-2859.124022055329
 31
0.0
  0
LINE
  5
1B2B1
330
1F
100
AcDbEntity
  8
0
100
AcDbLine
 10
5751.904586646902
 20
-2829.924022055329
 30
0.0
 11
5751.904586646902
 21
-2835.024022055329
 31
0.0
  0
LINE
  5
1B2B2
330
1F
100
AcDbEntity
  8
0
100
AcDbLine
 10
5751.904586646902
 20
-2805.824022055329
 30
0.0
 11
5751.904586646902
 21
-2810.924022055329
 31
0.0
  0
LINE
  5
1B2B3
330
1F
100
AcDbEntity
  8
0
100
AcDbLine
 10
5751.904586646902
 20
-2781.724022055329
 30
0.0
 11
5751.904586646902
 21
-2786.824022055329
 31
0.0
  0
ARC
  5
1B2B4
330
1F
100
AcDbEntity
  8
0
100
AcDbCircle
 10
5661.904586646902
 20
-2746.224022055329
 30
0.0
 40
90.0
100
AcDbArc
 50
5.129767258573835
 51
8.592839011345006
  0
ARC
  5
1B2B5
330
1F
100
AcDbEntity
  8
0
100
AcDbCircle
 10
5661.904586646902
 20
-2746.224022055329
 30
0.0
 40
90.0
100
AcDbArc
 50
21.89712200709533
 51
25.65435992082416
  0
ARC
  5
1B2B6
330
1F
100
AcDbEntity
  8
0
100
AcDbCircle
 10
5661.904586646902
 20
-2746.224022055329
 30
0.0
 40
90.0
100
AcDbArc
 50
41.03125202234406
 51
45.76384919322124
  0
ARC
  5
1B2B7
330
1F
100
AcDbEntity
  8
0
100
AcDbCircle
 10
5661.904586646902
 20
-2966.924022055329
 30
0.0
 40
90.0
100
AcDbArc
 50
351.407160988655
 51
354.8702327414262
  0
ARC
  5
1B2B8
330
1F
100
AcDbEntity
  8
0
100
AcDbCircle
 10
5661.904586646902
 20
-2746.224022055329
 30
0.0
 40
90.0
100
AcDbArc
 50
70.05155641119742
 51
90.0
  0
ARC
  5
1B2B9
330
1F
100
AcDbEntity
  8
0
100
AcDbCircle
 10
5446.904586646902
 20
-2981.924022055329
 30
0.0
 40
75.0
100
AcDbArc
 50
247.9937303256947
 51
270.0
  0
LINE
  5
1B2BA
330
1F
100
AcDbEntity
  8
0
100
AcDbLine
 10
5661.904586646902
 20
-3056.924022055329
 30
0.0
 11
5446.904586646902
 21
-3056.924022055329
 31
0.0
  0
LINE
  5
1B2BB
330
1F
100
AcDbEntity
  8
0
100
AcDbLine
 10
5721.202057081988
 20
-3032.824022055329
 30
0.0
 11
5394.053948050951
 21
-3032.824022055328
 31
0.0
  0
LINE
  5
1B2BC
330
1F
100
AcDbEntity
  8
0
100
AcDbLine
 10
5690.904414232597
 20
-3041.824022055329
 30
0.0
 11
5420.6750231736
 21
-3041.824022055329
 31
0.0
  0
LINE
  5
1B2BD
330
1F
100
AcDbEntity
  8
0
100
AcDbLine
 10
5738.525471528246
 20
-3008.724022055329
 30
0.0
 11
5380.385717143582
 21
-3008.724022055329
 31
0.0
  0
LINE
  5
1B2BE
330
1F
100
AcDbEntity
  8
0
100
AcDbLine
 10
5726.024474357346
 20
-3017.724022055329
 30
0.0
 11
5390.024361612184
 21
-3017.724022055329
 31
0.0
  0
LINE
  5
1B2BF
330
1F
100
AcDbEntity
  8
0
100
AcDbLine
 10
5745.950466974257
 20
-2984.624022055329
 30
0.0
 11
5376.904586646902
 21
-2984.624022055328
 31
0.0
  0
LINE
  5
1B2C0
330
1F
100
AcDbEntity
  8
0
100
AcDbLine
 10
5740.772260633145
 20
-2993.624022055329
 30
0.0
 11
5378.925839968253
 21
-2993.624022055329
 31
0.0
  0
LINE
  5
1B2C1
330
1F
100
AcDbEntity
  8
0
100
AcDbLine
 10
5746.904586646902
 20
-2960.524022055329
 30
0.0
 11
5376.904586646902
 21
-2960.524022055328
 31
0.0
  0
LINE
  5
1B2C2
330
1F
100
AcDbEntity
  8
0
100
AcDbLine
 10
5746.564140153874
 20
-2969.524022055329
 30
0.0
 11
5376.904586646902
 21
-2969.524022055328
 31
0.0
  0
LINE
  5
1B2C3
330
1F
100
AcDbEntity
  8
0
100
AcDbLine
 10
5746.904586646902
 20
-2936.424022055329
 30
0.0
 11
5376.904586646902
 21
-2936.424022055328
 31
0.0
  0
LINE
  5
1B2C4
330
1F
100
AcDbEntity
  8
0
100
AcDbLine
 10
5746.904586646902
 20
-2945.424022055329
 30
0.0
 11
5376.904586646902
 21
-2945.424022055328
 31
0.0
  0
LINE
  5
1B2C5
330
1F
100
AcDbEntity
  8
0
100
AcDbLine
 10
5746.904586646902
 20
-2912.324022055329
 30
0.0
 11
5376.904586646902
 21
-2912.324022055329
 31
0.0
  0
LINE
  5
1B2C6
330
1F
100
AcDbEntity
  8
0
100
AcDbLine
 10
5746.904586646902
 20
-2921.324022055329
 30
0.0
 11
5376.904586646902
 21
-2921.324022055328
 31
0.0
  0
LINE
  5
1B2C7
330
1F
100
AcDbEntity
  8
0
100
AcDbLine
 10
5746.904586646902
 20
-2888.224022055329
 30
0.0
 11
5376.904586646902
 21
-2888.224022055328
 31
0.0
  0
LINE
  5
1B2C8
330
1F
100
AcDbEntity
  8
0
100
AcDbLine
 10
5746.904586646902
 20
-2897.224022055329
 30
0.0
 11
5376.904586646902
 21
-2897.224022055328
 31
0.0
  0
LINE
  5
1B2C9
330
1F
100
AcDbEntity
  8
0
100
AcDbLine
 10
5746.904586646902
 20
-2864.124022055329
 30
0.0
 11
5376.904586646902
 21
-2864.124022055328
 31
0.0
  0
LINE
  5
1B2CA
330
1F
100
AcDbEntity
  8
0
100
AcDbLine
 10
5746.904586646902
 20
-2873.124022055329
 30
0.0
 11
5376.904586646902
 21
-2873.124022055328
 31
0.0
  0
LINE
  5
1B2CB
330
1F
100
AcDbEntity
  8
0
100
AcDbLine
 10
5746.904586646902
 20
-2840.024022055329
 30
0.0
 11
5376.904586646902
 21
-2840.024022055328
 31
0.0
  0
LINE
  5
1B2CC
330
1F
100
AcDbEntity
  8
0
100
AcDbLine
 10
5746.904586646902
 20
-2849.024022055329
 30
0.0
 11
5376.904586646902
 21
-2849.024022055329
 31
0.0
  0
LINE
  5
1B2CD
330
1F
100
AcDbEntity
  8
0
100
AcDbLine
 10
5746.904586646902
 20
-2815.924022055329
 30
0.0
 11
5376.904586646902
 21
-2815.924022055328
 31
0.0
  0
LINE
  5
1B2CE
330
1F
100
AcDbEntity
  8
0
100
AcDbLine
 10
5746.904586646902
 20
-2824.924022055329
 30
0.0
 11
5376.904586646902
 21
-2824.924022055328
 31
0.0
  0
LINE
  5
1B2CF
330
1F
100
AcDbEntity
  8
0
100
AcDbLine
 10
5746.904586646902
 20
-2791.824022055329
 30
0.0
 11
5376.904586646902
 21
-2791.824022055328
 31
0.0
  0
LINE
  5
1B2D0
330
1F
100
AcDbEntity
  8
0
100
AcDbLine
 10
5746.904586646902
 20
-2800.824022055329
 30
0.0
 11
5376.904586646902
 21
-2800.824022055328
 31
0.0
  0
LINE
  5
1B2D1
330
1F
100
AcDbEntity
  8
0
100
AcDbLine
 10
5746.904586646902
 20
-2767.724022055329
 30
0.0
 11
5376.904586646902
 21
-2767.724022055328
 31
0.0
  0
LINE
  5
1B2D2
330
1F
100
AcDbEntity
  8
0
100
AcDbLine
 10
5746.904586646902
 20
-2776.724022055329
 30
0.0
 11
5376.904586646902
 21
-2776.724022055328
 31
0.0
  0
LINE
  5
1B2D3
330
1F
100
AcDbEntity
  8
0
100
AcDbLine
 10
5746.564140153874
 20
-2743.624022055329
 30
0.0
 11
5376.904586646902
 21
-2743.624022055329
 31
0.0
  0
LINE
  5
1B2D4
330
1F
100
AcDbEntity
  8
0
100
AcDbLine
 10
5746.904586646902
 20
-2752.624022055329
 30
0.0
 11
5376.904586646902
 21
-2752.624022055329
 31
0.0
  0
LINE
  5
1B2D5
330
1F
100
AcDbEntity
  8
0
100
AcDbLine
 10
5740.772260633145
 20
-2719.524022055329
 30
0.0
 11
5378.925839968253
 21
-2719.524022055328
 31
0.0
  0
LINE
  5
1B2D6
330
1F
100
AcDbEntity
  8
0
100
AcDbLine
 10
5745.950466974257
 20
-2728.524022055328
 30
0.0
 11
5376.904586646902
 21
-2728.524022055328
 31
0.0
  0
LINE
  5
1B2D7
330
1F
100
AcDbEntity
  8
0
100
AcDbLine
 10
5738.525471528246
 20
-2704.424022055329
 30
0.0
 11
5380.385717143582
 21
-2704.424022055328
 31
0.0
  0
LINE
  5
1B2D8
330
1F
100
AcDbEntity
  8
0
100
AcDbLine
 10
5726.024474357346
 20
-2695.424022055329
 30
0.0
 11
5390.024361612184
 21
-2695.424022055329
 31
0.0
  0
LINE
  5
1B2D9
330
1F
100
AcDbEntity
  8
0
100
AcDbLine
 10
5721.202057081988
 20
-2680.324022055329
 30
0.0
 11
5394.053948050951
 21
-2680.32402205533
 31
0.0
  0
LINE
  5
1B2DA
330
1F
100
AcDbEntity
  8
0
100
AcDbLine
 10
5690.904414232594
 20
-2671.324022055329
 30
0.0
 11
5420.6750231736
 21
-2671.324022055328
 31
0.0
  0
LINE
  5
1B2DB
330
1F
100
AcDbEntity
  8
0
100
AcDbLine
 10
5751.904586646902
 20
-2757.624022055329
 30
0.0
 11
5751.904586646902
 21
-2762.724022055329
 31
0.0
  0
LINE
  5
1B2DC
330
1F
100
AcDbEntity
  8
0
100
AcDbLine
 10
5371.904586646902
 20
-2733.524022055329
 30
0.0
 11
5371.904586646902
 21
-2738.624022055329
 31
0.0
  0
LINE
  5
1B2DD
330
1F
100
AcDbEntity
  8
0
100
AcDbLine
 10
5661.904586646902
 20
-2656.224022055329
 30
0.0
 11
5446.904586646902
 21
-2656.224022055329
 31
0.0
  0
CIRCLE
  5
1B2DE
102
{ACAD_REACTORS
330
1B573
102
}
330
1F
100
AcDbEntity
  8
0
100
AcDbCircle
 10
6286.904586646902
 20
-2856.574022055329
 30
0.0
 40
45.0
  0
CIRCLE
  5
1B2DF
102
{ACAD_REACTORS
330
1B55B
102
}
330
1F
100
AcDbEntity
  8
0
100
AcDbCircle
 10
5916.904586646903
 20
-2856.574022055329
 30
0.0
 40
45.0
  0
CIRCLE
  5
1B2E0
330
1F
100
AcDbEntity
  8
0
100
AcDbCircle
 10
6286.904586646902
 20
-2856.574022055329
 30
0.0
 40
57.0
  0
CIRCLE
  5
1B2E1
330
1F
100
AcDbEntity
  8
0
100
AcDbCircle
 10
5916.904586646903
 20
-2856.574022055329
 30
0.0
 40
57.0
  0
LINE
  5
1B2E2
330
1F
100
AcDbEntity
  8
0
100
AcDbLine
 10
5324.404586646902
 20
-2979.074022055329
 30
0.0
 11
5324.404586646902
 21
-2734.07402205533
 31
0.0
  0
ARC
  5
1B2E3
330
1F
100
AcDbEntity
  8
0
100
AcDbCircle
 10
5451.904586646902
 20
-2734.074022055329
 30
0.0
 40
127.5
100
AcDbArc
 50
90.0
 51
180.0000000000002
  0
LINE
  5
1B2E4
102
{ACAD_REACTORS
330
1B350
102
}
330
1F
100
AcDbEntity
  8
0
100
AcDbLine
 10
5451.904586646902
 20
-2606.574022055329
 30
0.0
 11
6396.904586646902
 21
-2606.574022055328
 31
0.0
  0
LINE
  5
1B2E5
330
1F
100
AcDbEntity
  8
0
100
AcDbLine
 10
5770.538473622124
 20
-2682.574022055329
 30
0.0
 11
6070.538473622124
 21
-2682.574022055328
 31
0.0
  0
LINE
  5
1B2E6
330
1F
100
AcDbEntity
  8
0
100
AcDbLine
 10
5770.538473622124
 20
-2689.574022055329
 30
0.0
 11
6070.538473622124
 21
-2689.574022055328
 31
0.0
  0
ARC
  5
1B2E7
330
1F
100
AcDbEntity
  8
0
100
AcDbCircle
 10
6396.904586646902
 20
-2734.074022055329
 30
0.0
 40
127.5
100
AcDbArc
 50
0.000000000000007
 51
90.0
  0
LINE
  5
1B2E8
102
{ACAD_REACTORS
330
1B34D
102
}
330
1F
100
AcDbEntity
  8
0
100
AcDbLine
 10
6524.404586646902
 20
-2734.074022055329
 30
0.0
 11
6524.404586646902
 21
-2979.074022055329
 31
0.0
  0
ARC
  5
1B2E9
330
1F
100
AcDbEntity
  8
0
100
AcDbCircle
 10
6396.904586646902
 20
-2979.074022055329
 30
0.0
 40
127.5
100
AcDbArc
 50
270.0
 51
0.000000000000007
  0
LINE
  5
1B2EA
330
1F
100
AcDbEntity
  8
0
100
AcDbLine
 10
6396.904586646902
 20
-3106.574022055328
 30
0.0
 11
5451.904586646902
 21
-3106.574022055328
 31
0.0
  0
ARC
  5
1B2EB
330
1F
100
AcDbEntity
  8
0
100
AcDbCircle
 10
5451.904586646902
 20
-2979.074022055329
 30
0.0
 40
127.5
100
AcDbArc
 50
180.0
 51
270.0
  0
LINE
  5
1B2EC
330
1F
100
AcDbEntity
  8
0
100
AcDbLine
 10
6521.904586646903
 20
-3280.67613241102
 30
0.0
 11
5326.904586646902
 21
-3280.67613241102
 31
0.0
  0
LINE
  5
1B2ED
330
1F
100
AcDbEntity
  8
0
100
AcDbLine
 10
6521.904586646903
 20
-3285.676132411019
 30
0.0
 11
6396.904586646902
 21
-3285.676132411019
 31
0.0
  0
LINE
  5
1B2EE
330
1F
100
AcDbEntity
  8
0
100
AcDbLine
 10
5348.750022787713
 20
-3286.882058373944
 30
0.0
 11
5347.905624337953
 21
-3285.676132411019
 31
0.0
  0
LINE
  5
1B2EF
330
1F
100
AcDbEntity
  8
0
100
AcDbLine
 10
5451.904586646902
 20
-3287.832686625678
 30
0.0
 11
5348.750022787713
 21
-3286.882058373944
 31
0.0
  0
LINE
  5
1B2F0
330
1F
100
AcDbEntity
  8
0
100
AcDbLine
 10
6497.402511264805
 20
-3290.676132411019
 30
0.0
 11
6396.904586646902
 21
-3290.676132411019
 31
0.0
  0
LINE
  5
1B2F1
330
1F
100
AcDbEntity
  8
0
100
AcDbLine
 10
6497.402511264805
 20
-3290.676132411019
 30
0.0
 11
6500.903548955851
 21
-3285.676132411019
 31
0.0
  0
LINE
  5
1B2F2
330
1F
100
AcDbEntity
  8
0
100
AcDbLine
 10
6473.482984945563
 20
-3388.657985363795
 30
0.0
 11
6476.904586646902
 21
-3290.676132411019
 31
0.0
  0
LINE
  5
1B2F3
330
1F
100
AcDbEntity
  8
0
100
AcDbLine
 10
6410.791048474985
 20
-3451.349921834373
 30
0.0
 11
6343.904586646902
 21
-3453.68564854999
 31
0.0
  0
ARC
  5
1B2F4
330
1F
100
AcDbEntity
  8
0
100
AcDbCircle
 10
6408.522581189321
 20
-3386.389518078132
 30
0.0
 40
65.0
100
AcDbArc
 50
272.0000000000037
 51
357.999999999999
  0
LINE
  5
1B2F5
330
1F
100
AcDbEntity
  8
0
100
AcDbLine
 10
6343.904586646902
 20
-3453.685648549991
 30
0.0
 11
6331.904586646903
 21
-3460.67613241102
 31
0.0
  0
LINE
  5
1B2F6
330
1F
100
AcDbEntity
  8
0
100
AcDbLine
 10
6343.904586646902
 20
-3453.685648549991
 30
0.0
 11
6286.904586646902
 21
-3453.685648549991
 31
0.0
  0
LINE
  5
1B2F7
102
{ACAD_REACTORS
330
1B34A
102
}
330
1F
100
AcDbEntity
  8
0
100
AcDbLine
 10
6331.904586646903
 20
-3460.67613241102
 30
0.0
 11
6286.904586646902
 21
-3460.67613241102
 31
0.0
  0
LINE
  5
1B2F8
330
1F
100
AcDbEntity
  8
0
100
AcDbLine
 10
6100.32618834824
 20
-3388.657985363795
 30
0.0
 11
6097.393477419788
 21
-3304.67613241102
 31
0.0
  0
LINE
  5
1B2F9
330
1F
100
AcDbEntity
  8
0
100
AcDbLine
 10
6163.01812481882
 20
-3451.349921834373
 30
0.0
 11
6229.904586646902
 21
-3453.68564854999
 31
0.0
  0
ARC
  5
1B2FA
330
1F
100
AcDbEntity
  8
0
100
AcDbCircle
 10
6165.286592104483
 20
-3386.389518078132
 30
0.0
 40
65.0
100
AcDbArc
 50
182.000000000001
 51
267.9999999999964
  0
LINE
  5
1B2FB
330
1F
100
AcDbEntity
  8
0
100
AcDbLine
 10
6229.904586646902
 20
-3453.685648549991
 30
0.0
 11
6241.904586646903
 21
-3460.67613241102
 31
0.0
  0
LINE
  5
1B2FC
330
1F
100
AcDbEntity
  8
0
100
AcDbLine
 10
6229.904586646902
 20
-3453.685648549991
 30
0.0
 11
6286.904586646902
 21
-3453.685648549991
 31
0.0
  0
LINE
  5
1B2FD
330
1F
100
AcDbEntity
  8
0
100
AcDbLine
 10
6241.904586646903
 20
-3460.67613241102
 30
0.0
 11
6286.904586646902
 21
-3460.67613241102
 31
0.0
  0
LINE
  5
1B2FE
330
1F
100
AcDbEntity
  8
0
100
AcDbLine
 10
6059.476944417889
 20
-3360.194710161306
 30
0.0
 11
6061.415695874017
 21
-3304.67613241102
 31
0.0
  0
LINE
  5
1B2FF
330
1F
100
AcDbEntity
  8
0
100
AcDbLine
 10
5996.78500794731
 20
-3422.886646631885
 30
0.0
 11
5973.904586646902
 21
-3423.685648549991
 31
0.0
  0
LINE
  5
1B300
330
1F
100
AcDbEntity
  8
0
100
AcDbLine
 10
5973.904586646902
 20
-3423.685648549991
 30
0.0
 11
5961.904586646902
 21
-3430.67613241102
 31
0.0
  0
LINE
  5
1B301
330
1F
100
AcDbEntity
  8
0
100
AcDbLine
 10
5973.904586646902
 20
-3423.685648549991
 30
0.0
 11
5916.904586646903
 21
-3423.685648549991
 31
0.0
  0
LINE
  5
1B302
330
1F
100
AcDbEntity
  8
0
100
AcDbLine
 10
5961.904586646902
 20
-3430.67613241102
 30
0.0
 11
5916.904586646903
 21
-3430.67613241102
 31
0.0
  0
LINE
  5
1B303
330
1F
100
AcDbEntity
  8
0
100
AcDbLine
 10
5837.024165346491
 20
-3422.886646631885
 30
0.0
 11
5859.904586646902
 21
-3423.685648549991
 31
0.0
  0
LINE
  5
1B304
330
1F
100
AcDbEntity
  8
0
100
AcDbLine
 10
5859.904586646902
 20
-3423.685648549991
 30
0.0
 11
5871.904586646902
 21
-3430.67613241102
 31
0.0
  0
LINE
  5
1B305
330
1F
100
AcDbEntity
  8
0
100
AcDbLine
 10
5859.904586646902
 20
-3423.685648549991
 30
0.0
 11
5916.904586646903
 21
-3423.685648549991
 31
0.0
  0
LINE
  5
1B306
102
{ACAD_REACTORS
330
1B353
102
}
330
1F
100
AcDbEntity
  8
0
100
AcDbLine
 10
5871.904586646902
 20
-3430.67613241102
 30
0.0
 11
5916.904586646903
 21
-3430.67613241102
 31
0.0
  0
ARC
  5
1B307
330
1F
100
AcDbEntity
  8
0
100
AcDbCircle
 10
5994.516540661649
 20
-3357.926242875644
 30
0.0
 40
65.0
100
AcDbArc
 50
272.0000000000037
 51
357.999999999999
  0
LINE
  5
1B308
330
1F
100
AcDbEntity
  8
0
100
AcDbLine
 10
5774.332228875912
 20
-3360.194710161306
 30
0.0
 11
5772.393477419786
 21
-3304.676132411021
 31
0.0
  0
ARC
  5
1B309
330
1F
100
AcDbEntity
  8
0
100
AcDbCircle
 10
5839.292632632155
 20
-3357.926242875644
 30
0.0
 40
65.0
100
AcDbArc
 50
182.000000000001
 51
267.9999999999964
  0
LINE
  5
1B30A
330
1F
100
AcDbEntity
  8
0
 62
     0
100
AcDbLine
 10
6307.03658542632
 20
-3298.67613241102
 30
0.0
 11
6307.03658542632
 21
-3293.67613241102
 31
0.0
  0
LINE
  5
1B30B
330
1F
100
AcDbEntity
  8
0
 62
     0
100
AcDbLine
 10
6307.03658542632
 20
-3293.67613241102
 30
0.0
 11
6317.03658542632
 21
-3293.67613241102
 31
0.0
  0
LINE
  5
1B30C
330
1F
100
AcDbEntity
  8
0
 62
     0
100
AcDbLine
 10
6317.03658542632
 20
-3293.67613241102
 30
0.0
 11
6317.03658542632
 21
-3298.67613241102
 31
0.0
  0
LINE
  5
1B30D
330
1F
100
AcDbEntity
  8
0
 62
     0
100
AcDbLine
 10
6317.03658542632
 20
-3298.67613241102
 30
0.0
 11
6307.03658542632
 21
-3298.67613241102
 31
0.0
  0
LINE
  5
1B30E
330
1F
100
AcDbEntity
  8
0
100
AcDbLine
 10
6312.036585426319
 20
-3289.351359682247
 30
0.0
 11
6312.036585426319
 21
-3302.888330647269
 31
0.0
  0
LINE
  5
1B30F
330
1F
100
AcDbEntity
  8
0
100
AcDbLine
 10
5791.674409541087
 20
-3289.351359682247
 30
0.0
 11
5791.674409541087
 21
-3302.888330647269
 31
0.0
  0
LINE
  5
1B310
330
1F
100
AcDbEntity
  8
0
100
AcDbLine
 10
5563.772587867485
 20
-3289.351359682247
 30
0.0
 11
5563.772587867485
 21
-3302.888330647269
 31
0.0
  0
LINE
  5
1B311
330
1F
100
AcDbEntity
  8
0
 62
     0
100
AcDbLine
 10
5786.674409541086
 20
-3298.676132411021
 30
0.0
 11
5786.674409541086
 21
-3293.67613241102
 31
0.0
  0
LINE
  5
1B312
330
1F
100
AcDbEntity
  8
0
 62
     0
100
AcDbLine
 10
5786.674409541086
 20
-3293.67613241102
 30
0.0
 11
5796.674409541086
 21
-3293.67613241102
 31
0.0
  0
LINE
  5
1B313
330
1F
100
AcDbEntity
  8
0
 62
     0
100
AcDbLine
 10
5796.674409541086
 20
-3293.67613241102
 30
0.0
 11
5796.674409541086
 21
-3298.676132411021
 31
0.0
  0
LINE
  5
1B314
330
1F
100
AcDbEntity
  8
0
 62
     0
100
AcDbLine
 10
5796.674409541086
 20
-3298.676132411021
 30
0.0
 11
5786.674409541086
 21
-3298.676132411021
 31
0.0
  0
LINE
  5
1B315
330
1F
100
AcDbEntity
  8
0
 62
     0
100
AcDbLine
 10
5558.772587867484
 20
-3298.67613241102
 30
0.0
 11
5568.772587867485
 21
-3298.67613241102
 31
0.0
  0
LINE
  5
1B316
330
1F
100
AcDbEntity
  8
0
 62
     0
100
AcDbLine
 10
5558.772587867484
 20
-3293.67613241102
 30
0.0
 11
5558.772587867484
 21
-3298.67613241102
 31
0.0
  0
LINE
  5
1B317
330
1F
100
AcDbEntity
  8
0
 62
     0
100
AcDbLine
 10
5568.772587867485
 20
-3293.67613241102
 30
0.0
 11
5558.772587867484
 21
-3293.67613241102
 31
0.0
  0
LINE
  5
1B318
330
1F
100
AcDbEntity
  8
0
 62
     0
100
AcDbLine
 10
5568.772587867485
 20
-3298.67613241102
 30
0.0
 11
5568.772587867485
 21
-3293.67613241102
 31
0.0
  0
LINE
  5
1B319
330
1F
100
AcDbEntity
  8
0
 62
     0
100
AcDbLine
 10
6065.518824602196
 20
-3298.676132411021
 30
0.0
 11
6075.518824602195
 21
-3298.676132411021
 31
0.0
  0
LINE
  5
1B31A
330
1F
100
AcDbEntity
  8
0
 62
     0
100
AcDbLine
 10
6065.518824602196
 20
-3293.67613241102
 30
0.0
 11
6065.518824602196
 21
-3298.676132411021
 31
0.0
  0
LINE
  5
1B31B
330
1F
100
AcDbEntity
  8
0
 62
     0
100
AcDbLine
 10
6075.518824602195
 20
-3293.67613241102
 30
0.0
 11
6065.518824602196
 21
-3293.67613241102
 31
0.0
  0
LINE
  5
1B31C
330
1F
100
AcDbEntity
  8
0
 62
     0
100
AcDbLine
 10
6075.518824602195
 20
-3298.676132411021
 30
0.0
 11
6075.518824602195
 21
-3293.67613241102
 31
0.0
  0
LINE
  5
1B31D
330
1F
100
AcDbEntity
  8
0
 62
     0
100
AcDbLine
 10
6357.904586646903
 20
-3304.67613241102
 30
0.0
 11
6391.904586646902
 21
-3304.67613241102
 31
0.0
  0
LINE
  5
1B31E
330
1F
100
AcDbEntity
  8
0
 62
     0
100
AcDbLine
 10
6396.904586646902
 20
-3299.67613241102
 30
0.0
 11
6396.904586646902
 21
-3288.167382319453
 31
0.0
  0
LINE
  5
1B31F
330
1F
100
AcDbEntity
  8
0
 62
     0
100
AcDbLine
 10
6391.904586646902
 20
-3304.67613241102
 30
0.0
 11
6396.904586646902
 21
-3299.67613241102
 31
0.0
  0
LINE
  5
1B320
330
1F
100
AcDbEntity
  8
0
 62
     0
100
AcDbLine
 10
5456.904586646903
 20
-3304.67613241102
 30
0.0
 11
5451.904586646902
 21
-3299.67613241102
 31
0.0
  0
LINE
  5
1B321
330
1F
100
AcDbEntity
  8
0
 62
     0
100
AcDbLine
 10
5451.904586646902
 20
-3299.67613241102
 30
0.0
 11
5451.904586646902
 21
-3285.676132411019
 31
0.0
  0
LINE
  5
1B322
330
1F
100
AcDbEntity
  8
0
 62
     0
100
AcDbLine
 10
6037.415695874017
 20
-3304.67613241102
 30
0.0
 11
5456.904586646904
 21
-3304.676132411023
 31
0.0
  0
LINE
  5
1B323
330
1F
100
AcDbEntity
  8
0
100
AcDbLine
 10
6070.518824602196
 20
-3289.351359682247
 30
0.0
 11
6070.518824602196
 21
-3302.888330647269
 31
0.0
  0
LINE
  5
1B324
330
1F
100
AcDbEntity
  8
0
 62
     0
100
AcDbLine
 10
6396.904586646902
 20
-3288.167382319453
 30
0.0
 11
6396.904586646902
 21
-3285.676132411019
 31
0.0
  0
LINE
  5
1B325
330
1F
100
AcDbEntity
  8
0
 62
     0
100
AcDbLine
 10
5971.904586646902
 20
-3304.67613241102
 30
0.0
 11
6391.904586646902
 21
-3304.67613241102
 31
0.0
  0
LINE
  5
1B326
330
1F
100
AcDbEntity
  8
0
100
AcDbLine
 10
6509.404586646903
 20
-3304.67613241102
 30
0.0
 11
6509.404586646903
 21
-3285.676132411019
 31
0.0
  0
DIMENSION
  5
1B327
330
1F
100
AcDbEntity
  8
尺寸线
100
AcDbDimension
280
     0
  2
*D5
 10
6634.738606183593
 20
-3106.574022055328
 30
0.0
 11
6622.238606183595
 21
-2856.574022055328
 31
0.0
 70
    32
 71
     5
 42
500.0
 73
     0
 74
     0
 75
     0
  3
直线
100
AcDbAlignedDimension
 13
6396.904586646902
 23
-2606.574022055328
 33
0.0
 14
6396.904586646902
 24
-3106.574022055328
 34
0.0
 50
90.0
100
AcDbRotatedDimension
  0
DIMENSION
  5
1B328
102
{ACAD_XDICTIONARY
360
1B329
102
}
102
{ACAD_REACTORS
330
1B32A
102
}
330
1F
100
AcDbEntity
  8
尺寸线
100
AcDbDimension
280
     0
  2
*D11
 10
6599.636249531719
 20
-3059.074022055329
 30
0.0
 11
6587.13624953172
 21
-2856.574022055328
 31
0.0
 70
    32
 71
     5
 42
405.0
 73
     0
 74
     0
 75
     0
  3
直线
100
AcDbAlignedDimension
 13
6396.904586646902
 23
-2654.074022055329
 33
0.0
 14
6396.904586646902
 24
-3059.074022055329
 34
0.0
 50
90.0
100
AcDbRotatedDimension
  0
DIMENSION
  5
1B32B
330
1F
100
AcDbEntity
  8
尺寸线
100
AcDbDimension
280
     0
  2
*D6
 10
6560.234654722062
 20
-3006.574022055329
 30
0.0
 11
6547.734654722063
 21
-2856.574022055328
 31
0.0
 70
    32
 71
     5
 42
300.0
 73
     0
 74
     0
 75
     0
  3
直线
100
AcDbAlignedDimension
 13
6521.40358262679
 23
-2706.574022055329
 33
0.0
 14
6472.029482653486
 24
-3006.574022055329
 34
0.0
 50
90.0
100
AcDbRotatedDimension
  0
DIMENSION
  5
1B32C
102
{ACAD_XDICTIONARY
360
1B32D
102
}
102
{ACAD_REACTORS
330
1B32E
102
}
330
1F
100
AcDbEntity
  8
尺寸线
100
AcDbDimension
280
     0
  2
*D12
 10
6096.904586646902
 20
-3144.714876765757
 30
0.0
 11
6286.904586646902
 21
-3132.214876765757
 31
0.0
 70
    32
 71
     5
 42
380.0
 73
     0
 74
     0
 75
     0
  3
直线
100
AcDbAlignedDimension
 13
6476.904586646902
 23
-2979.074022055329
 33
0.0
 14
6096.904586646902
 24
-2979.074022055329
 34
0.0
 50
180.0
100
AcDbRotatedDimension
  0
DIMENSION
  5
1B32F
102
{ACAD_XDICTIONARY
360
1B330
102
}
102
{ACAD_REACTORS
330
1B331
102
}
330
1F
100
AcDbEntity
  8
尺寸线
100
AcDbDimension
280
     0
  2
*D13
 10
5771.9045866469
 20
-3142.914111995138
 30
0.0
 11
5916.904586646901
 21
-3130.414111995138
 31
0.0
 70
    32
 71
     5
 42
290.0000000000018
 73
     0
 74
     0
 75
     0
  3
直线
100
AcDbAlignedDimension
 13
6061.904586646902
 23
-2941.574022055329
 33
0.0
 14
5771.9045866469
 24
-2941.574022055329
 34
0.0
 50
180.0
100
AcDbRotatedDimension
  0
DIMENSION
  5
1B332
330
1F
100
AcDbEntity
  8
尺寸线
100
AcDbDimension
280
     0
  2
*D7
 10
6524.404586646902
 20
-3184.858014973319
 30
0.0
 11
5924.404586646902
 21
-3172.358014973319
 31
0.0
 70
    32
 71
     5
 42
1200.0
 73
     0
 74
     0
 75
     0
  3
直线
100
AcDbAlignedDimension
 13
5324.404586646902
 23
-2979.074022055329
 33
0.0
 14
6524.404586646902
 24
-2979.074022055329
 34
0.0
 50
180.0
100
AcDbRotatedDimension
  0
ARC
  5
1B333
102
{ACAD_REACTORS
330
1B34A
102
}
330
1F
100
AcDbEntity
  8
0
100
AcDbCircle
 10
6521.904586646903
 20
-3283.17613241102
 30
0.0
 40
2.500000000000226
100
AcDbArc
 50
270.0
 51
90.0
  0
LINE
  5
1B334
330
1F
100
AcDbEntity
  8
0
100
AcDbLine
 10
5339.404586646902
 20
-3304.67613241102
 30
0.0
 11
5339.404586646902
 21
-3285.676132411019
 31
0.0
  0
ARC
  5
1B335
102
{ACAD_REACTORS
330
1B353
102
}
330
1F
100
AcDbEntity
  8
0
100
AcDbCircle
 10
5326.904586646902
 20
-3283.17613241102
 30
0.0
 40
2.500000000000226
100
AcDbArc
 50
90.0
 51
270.0
  0
LINE
  5
1B336
330
1F
100
AcDbEntity
  8
粗实线
100
AcDbLine
 10
5326.904586646902
 20
-3285.676132411019
 30
0.0
 11
5451.904586646902
 21
-3285.676132411019
 31
0.0
  0
CIRCLE
  5
1B337
102
{ACAD_REACTORS
330
1B34D
330
1B356
102
}
330
1F
100
AcDbEntity
  8
0
100
AcDbCircle
 10
6061.904586646904
 20
-2654.074022055328
 30
0.0
 40
17.5
  0
ARC
  5
1B338
330
1F
100
AcDbEntity
  8
0
100
AcDbCircle
 10
5770.538473622124
 20
-2652.574022055329
 30
0.0
 40
30.0
100
AcDbArc
 50
215.8160735725921
 51
270.0
  0
ARC
  5
1B339
330
1F
100
AcDbEntity
  8
0
100
AcDbCircle
 10
5770.538473622124
 20
-2652.574022055329
 30
0.0
 40
37.0
100
AcDbArc
 50
215.8160735725921
 51
270.0
  0
ARC
  5
1B33A
330
1F
100
AcDbEntity
  8
0
100
AcDbCircle
 10
5661.067016154891
 20
-2731.574022055328
 30
0.0
 40
105.0
100
AcDbArc
 50
35.81607357259195
 51
90.0
  0
ARC
  5
1B33B
330
1F
100
AcDbEntity
  8
0
100
AcDbCircle
 10
5661.067016154891
 20
-2731.574022055328
 30
0.0
 40
98.0
100
AcDbArc
 50
35.81607357259195
 51
90.0
  0
LINE
  5
1B33C
330
1F
100
AcDbEntity
  8
0
100
AcDbLine
 10
5661.067016154891
 20
-2626.574022055328
 30
0.0
 11
5451.904586646902
 21
-2626.574022055328
 31
0.0
  0
ARC
  5
1B33D
330
1F
100
AcDbEntity
  8
0
100
AcDbCircle
 10
6070.538473622124
 20
-3060.574022055328
 30
0.0
 40
30.0
100
AcDbArc
 50
35.81607357258372
 51
90.0
  0
ARC
  5
1B33E
330
1F
100
AcDbEntity
  8
0
100
AcDbCircle
 10
6070.538473622124
 20
-3060.574022055328
 30
0.0
 40
37.0
100
AcDbArc
 50
35.81607357258372
 51
90.0
  0
ARC
  5
1B33F
330
1F
100
AcDbEntity
  8
0
100
AcDbCircle
 10
6180.009931089356
 20
-2981.574022055328
 30
0.0
 40
105.0
100
AcDbArc
 50
215.8160735725837
 51
270.0
  0
ARC
  5
1B340
330
1F
100
AcDbEntity
  8
0
100
AcDbCircle
 10
6180.009931089356
 20
-2981.574022055328
 30
0.0
 40
98.0
100
AcDbArc
 50
215.8160735725837
 51
270.0
  0
LINE
  5
1B341
330
1F
100
AcDbEntity
  8
0
100
AcDbLine
 10
5770.538473622124
 20
-3030.574022055329
 30
0.0
 11
6070.538473622124
 21
-3030.574022055329
 31
0.0
  0
LINE
  5
1B342
330
1F
100
AcDbEntity
  8
0
100
AcDbLine
 10
5770.538473622124
 20
-3023.574022055329
 30
0.0
 11
6070.538473622124
 21
-3023.574022055329
 31
0.0
  0
ARC
  5
1B343
330
1F
100
AcDbEntity
  8
0
100
AcDbCircle
 10
5770.538473622124
 20
-3060.574022055328
 30
0.0
 40
30.0
100
AcDbArc
 50
90.0
 51
144.1839264274157
  0
ARC
  5
1B344
330
1F
100
AcDbEntity
  8
0
100
AcDbCircle
 10
5770.538473622124
 20
-3060.574022055328
 30
0.0
 40
37.0
100
AcDbArc
 50
90.0
 51
144.1839264274157
  0
ARC
  5
1B345
330
1F
100
AcDbEntity
  8
0
100
AcDbCircle
 10
5661.067016154891
 20
-2981.574022055328
 30
0.0
 40
105.0
100
AcDbArc
 50
270.0
 51
324.1839264274158
  0
ARC
  5
1B346
330
1F
100
AcDbEntity
  8
0
100
AcDbCircle
 10
5661.067016154891
 20
-2981.574022055328
 30
0.0
 40
98.0
100
AcDbArc
 50
270.0
 51
324.1839264274158
  0
LINE
  5
1B347
330
1F
100
AcDbEntity
  8
0
100
AcDbLine
 10
6180.009931089356
 20
-3086.574022055329
 30
0.0
 11
6396.904586646902
 21
-3086.574022055329
 31
0.0
  0
DIMENSION
  5
1B348
102
{ACAD_XDICTIONARY
360
1B349
102
}
102
{ACAD_REACTORS
330
1B34A
102
}
330
1F
100
AcDbEntity
  8
尺寸线
100
AcDbDimension
280
     0
  2
*D8
 10
6619.259966547281
 20
-3280.67613241102
 30
0.0
 11
6606.759966547281
 21
-3370.676132411019
 31
0.0
 70
    32
 71
     5
 42
179.9999999999995
 73
     0
 74
     0
 75
     0
  3
直线
100
AcDbAlignedDimension
 13
6331.904586646903
 23
-3460.67613241102
 33
0.0
 14
6521.904586646903
 24
-3280.67613241102
 34
0.0
 50
90.0
100
AcDbRotatedDimension
  0
DIMENSION
  5
1B34B
102
{ACAD_XDICTIONARY
360
1B34C
102
}
102
{ACAD_REACTORS
330
1B34D
102
}
330
1F
100
AcDbEntity
  8
尺寸线
100
AcDbDimension
280
     0
  2
*D9
 10
6061.904586646904
 20
-2565.811542839296
 30
0.0
 11
6293.154586646903
 21
-2553.311542839296
 31
0.0
 70
    32
 71
     5
 42
462.4999999999982
 73
     0
 74
     0
 75
     0
  3
直线
100
AcDbAlignedDimension
 13
6524.404586646902
 23
-2734.074022055329
 33
0.0
 14
6061.904586646904
 24
-2654.074022055328
 34
0.0
 50
180.0
100
AcDbRotatedDimension
  0
DIMENSION
  5
1B34E
102
{ACAD_XDICTIONARY
360
1B34F
102
}
102
{ACAD_REACTORS
330
1B350
102
}
330
1F
100
AcDbEntity
  8
尺寸线
100
AcDbDimension
280
     0
  2
*D10
 10
5982.327218236267
 20
-2606.574022055329
 30
0.0
 11
6007.618884902935
 21
-2554.074022055328
 31
0.0
 70
    32
 71
     5
 42
47.49999999999909
 73
     0
 74
     0
 75
     0
  3
直线
100
AcDbAlignedDimension
 13
6061.904586646904
 23
-2654.074022055328
 33
0.0
 14
6020.267558817721
 24
-2606.574022055329
 34
0.0
 50
90.0
100
AcDbRotatedDimension
  0
DIMENSION
  5
1B351
102
{ACAD_XDICTIONARY
360
1B352
102
}
102
{ACAD_REACTORS
330
1B353
102
}
330
1F
100
AcDbEntity
  8
尺寸线
100
AcDbDimension
280
     0
  2
*D14
 10
5285.16506409738
 20
-3280.67613241102
 30
0.0
 11
5272.665064097381
 21
-3355.676132411019
 31
0.0
 70
    32
 71
     5
 42
150.0
 73
     0
 74
     0
 75
     0
  3
直线
100
AcDbAlignedDimension
 13
5871.904586646902
 23
-3430.67613241102
 33
0.0
 14
5326.904586646902
 24
-3280.67613241102
 34
0.0
 50
90.0
100
AcDbRotatedDimension
  0
DIMENSION
  5
1B354
102
{ACAD_XDICTIONARY
360
1B355
102
}
102
{ACAD_REACTORS
330
1B356
102
}
330
1F
100
AcDbEntity
  8
尺寸线
100
AcDbDimension
280
     0
  2
*D15
 10
6072.562353619141
 20
-2640.193748168783
 30
0.0
 11
5981.880007168371
 21
-2729.00487186332
 31
0.0
 70
   163
 71
     5
 42
35.0
 73
     0
 74
     0
 75
     0
  3
直线
100
AcDbDiametricDimension
 15
6051.246819674666
 25
-2667.954295941872
 35
0.0
 40
0.0
1001
ACAD
1000
DSTYLE
1002
{
1070
   288
1070
     1
1002
}
1001
ACAD_DSTYLE_DIMRADIAL_EXTENSION
1070
   387
1070
     1
1070
   388
1040
0.0
1070
   390
1040
0.0
  0
DIMENSION
  5
1B544
102
{ACAD_XDICTIONARY
360
1B551
102
}
102
{ACAD_REACTORS
330
1B55B
102
}
330
1F
100
AcDbEntity
  8
尺寸线
100
AcDbDimension
280
     0
  2
*D16
 10
5884.663622504812
 20
-2825.181025524436
 30
0.0
 11
6011.9675602214
 21
-2914.057278648196
 31
0.0
 70
    35
 71
     5
 42
90.0000000000009
 73
     0
 74
     0
 75
     0
  3
直线
100
AcDbDiametricDimension
 15
5949.14555078899
 25
-2887.96701858622
 35
0.0
 40
0.0
1001
ACAD
1000
DSTYLE
1002
{
1070
   288
1070
     1
1002
}
1001
ACAD_DSTYLE_DIMRADIAL_EXTENSION
1070
   387
1070
     1
1070
   388
1040
0.0
1070
   390
1040
0.0
  0
DIMENSION
  5
1B55C
102
{ACAD_XDICTIONARY
360
1B569
102
}
102
{ACAD_REACTORS
330
1B573
102
}
330
1F
100
AcDbEntity
  8
尺寸线
100
AcDbDimension
280
     0
  2
*D17
 10
6319.820419984857
 20
-2825.889369284474
 30
0.0
 11
6190.325129369664
 21
-2912.465574989751
 31
0.0
 70
    35
 71
     5
 42
89.99999999999909
 73
     0
 74
     0
 75
     0
  3
直线
100
AcDbDiametricDimension
 15
6253.988753308949
 25
-2887.258674826185
 35
0.0
 40
0.0
1001
ACAD
1000
DSTYLE
1002
{
1070
   288
1070
     1
1002
}
1001
ACAD_DSTYLE_DIMRADIAL_EXTENSION
1070
   387
1070
     1
1070
   388
1040
0.0
1070
   390
1040
0.0
  0
VIEWPORT
  5
1AE44
330
1AE3C
100
AcDbEntity
 67
     1
  8
0
100
AcDbViewport
 10
210.4323677736242
 20
101.853999376297
 30
0.0
 40
496.6757724311136
 41
222.2413625793458
 68
     1
 69
     1
 12
210.4323677736242
 22
101.853999376297
 13
0.0
 23
0.0
 14
10.0
 24
10.0
 15
10.0
 25
10.0
 16
0.0
 26
0.0
 36
1.0
 17
0.0
 27
0.0
 37
0.0
 42
50.0
 43
0.0
 44
0.0
 45
222.2413625793458
 50
0.0
 51
0.0
 72
 20000
 90
    32800
  1

281
     0
 71
     1
 74
     0
110
0.0
120
0.0
130
0.0
111
1.0
121
0.0
131
0.0
112
0.0
122
1.0
132
0.0
 79
     0
146
0.0
170
     0
 61
     5
348
19912
292
     1
282
     1
141
0.0
142
0.0
 63
   250
421
  3355443
  0
VIEWPORT
  5
1AE46
330
1AE3C
100
AcDbEntity
 67
     1
  8
0
100
AcDbViewport
 10
145.351510643959
 20
101.8539978265762
 30
0.0
 40
232.5624170303345
 41
162.9663965225219
 68
     2
 69
     2
 12
6043.103016848277
 22
-3035.295550186742
 13
0.0
 23
0.0
 14
10.0
 24
10.0
 15
10.0
 25
10.0
 16
0.0
 26
0.0
 36
1.0
 17
0.0
 27
0.0
 37
0.0
 42
50.0
 43
0.0
 44
0.0
 45
1682.062590147449
 50
0.0
 51
0.0
 72
 20000
 90
    32864
  1

281
     0
 71
     1
 74
     0
110
0.0
120
0.0
130
0.0
111
1.0
121
0.0
131
0.0
112
0.0
122
1.0
132
0.0
 79
     0
146
0.0
170
     0
 61
     5
348
19912
292
     1
282
     1
141
0.0
142
0.0
 63
   250
421
  3355443
  0
ENDSEC
  0
SECTION
  2
OBJECTS
  0
DICTIONARY
  5
C
330
0
100
AcDbDictionary
281
     1
  3
ACAD_CIP_PREVIOUS_PRODUCT_INFO
350
101B5EA
  3
ACAD_COLOR
350
EDD
  3
ACAD_DETAILVIEWSTYLE
350
101B5DC
  3
ACAD_GROUP
350
D
  3
ACAD_LAYOUT
350
1A
  3
ACAD_MATERIAL
350
EDC
  3
ACAD_MLEADERSTYLE
350
19937
  3
ACAD_MLINESTYLE
350
17
  3
ACAD_PLOTSETTINGS
350
19
  3
ACAD_PLOTSTYLENAME
350
E
  3
ACAD_SCALELIST
350
19925
  3
ACAD_SECTIONVIEWSTYLE
350
101B5DA
  3
ACAD_TABLESTYLE
350
A1DC
  3
ACAD_VISUALSTYLE
350
1990C
  3
ACDB_RECOMPOSE_DATA
350
101B644
  3
AcDbVariableDictionary
350
5E
  3
ASE_INDEX_DICTIONARY
350
FAB0
  0
DICTIONARY
  5
19B92
330
8
100
AcDbDictionary
280
     1
281
     1
  0
DICTIONARY
  5
B4B
330
2
100
AcDbDictionary
280
     1
281
     1
  3
ACAD_LAYERFILTERS
360
F6A3
  3
ACAD_LAYERSTATES
360
B4C
  3
ACLYDICTIONARY
360
F6A2
  0
DICTIONARY
  5
19944
330
10
100
AcDbDictionary
280
     1
281
     1
  3
ADSK_XREC_LAYER_RECONCILED
360
19945
  0
DICTIONARY
  5
19946
330
90
100
AcDbDictionary
280
     1
281
     1
  3
ADSK_XREC_LAYER_RECONCILED
360
19947
  0
DICTIONARY
  5
19948
330
91
100
AcDbDictionary
280
     1
281
     1
  3
ADSK_XREC_LAYER_RECONCILED
360
19949
  0
DICTIONARY
  5
1994A
330
95
100
AcDbDictionary
280
     1
281
     1
  3
ADSK_XREC_LAYER_RECONCILED
360
1994B
  0
DICTIONARY
  5
1994C
330
97
100
AcDbDictionary
280
     1
281
     1
  3
ADSK_XREC_LAYER_RECONCILED
360
1994D
  0
DICTIONARY
  5
19A19
330
19A18
100
AcDbDictionary
280
     1
281
     1
  0
DICTIONARY
  5
AD58
330
1F
100
AcDbDictionary
280
     1
281
     1
  3
ACAD_SORTENTS
360
AD59
  0
DICTIONARY
  5
19AE7
330
1999A
100
AcDbDictionary
280
     1
281
     1
  0
DICTIONARY
  5
19D6B
330
19BE3
100
AcDbDictionary
280
     1
281
     1
  3
ACAD_SORTENTS
360
19D6C
  0
DICTIONARY
  5
1A2F3
330
1A1BE
100
AcDbDictionary
280
     1
281
     1
  0
DICTIONARY
  5
1B57C
330
19AE6
100
AcDbDictionary
280
     1
281
     1
  3
ACAD_MTEXT_2008_RT
360
101B61F
  0
DICTIONARY
  5
1B57E
330
19D2C
100
AcDbDictionary
280
     1
281
     1
  3
ACAD_MTEXT_2008_RT
360
101B620
  0
DICTIONARY
  5
1B580
330
19D31
100
AcDbDictionary
280
     1
281
     1
  3
ACAD_MTEXT_2008_RT
360
101B621
  0
DICTIONARY
  5
1B582
330
19D39
100
AcDbDictionary
280
     1
281
     1
  3
ACAD_MTEXT_2008_RT
360
101B622
  0
DICTIONARY
  5
1B584
330
19D3A
100
AcDbDictionary
280
     1
281
     1
  3
ACAD_MTEXT_2008_RT
360
101B623
  0
DICTIONARY
  5
1B586
330
19D3C
100
AcDbDictionary
280
     1
281
     1
  3
ACAD_MTEXT_2008_RT
360
101B624
  0
DICTIONARY
  5
1B588
330
19D3D
100
AcDbDictionary
280
     1
281
     1
  3
ACAD_MTEXT_2008_RT
360
101B625
  0
DICTIONARY
  5
1B58A
330
19D46
100
AcDbDictionary
280
     1
281
     1
  3
ACAD_MTEXT_2008_RT
360
101B626
  0
DICTIONARY
  5
1B58C
330
19D47
100
AcDbDictionary
280
     1
281
     1
  3
ACAD_MTEXT_2008_RT
360
101B627
  0
DICTIONARY
  5
1B58E
330
19D48
100
AcDbDictionary
280
     1
281
     1
  3
ACAD_MTEXT_2008_RT
360
101B628
  0
DICTIONARY
  5
1B590
330
19D49
100
AcDbDictionary
280
     1
281
     1
  3
ACAD_MTEXT_2008_RT
360
101B629
  0
DICTIONARY
  5
1B592
330
19D4A
100
AcDbDictionary
280
     1
281
     1
  3
ACAD_MTEXT_2008_RT
360
101B62A
  0
DICTIONARY
  5
1B594
330
19D4B
100
AcDbDictionary
280
     1
281
     1
  3
ACAD_MTEXT_2008_RT
360
101B62B
  0
DICTIONARY
  5
1B596
330
19D4C
100
AcDbDictionary
280
     1
281
     1
  3
ACAD_MTEXT_2008_RT
360
101B62C
  0
DICTIONARY
  5
1B598
330
19D4D
100
AcDbDictionary
280
     1
281
     1
  3
ACAD_MTEXT_2008_RT
360
101B62D
  0
DICTIONARY
  5
1B59A
330
19D4E
100
AcDbDictionary
280
     1
281
     1
  3
ACAD_MTEXT_2008_RT
360
101B62E
  0
DICTIONARY
  5
1B59C
330
19D4F
100
AcDbDictionary
280
     1
281
     1
  3
ACAD_MTEXT_2008_RT
360
101B62F
  0
DICTIONARY
  5
1B59E
330
19D50
100
AcDbDictionary
280
     1
281
     1
  3
ACAD_MTEXT_2008_RT
360
101B630
  0
DICTIONARY
  5
1B5A0
330
19D51
100
AcDbDictionary
280
     1
281
     1
  3
ACAD_MTEXT_2008_RT
360
101B631
  0
DICTIONARY
  5
1B5A2
330
19D52
100
AcDbDictionary
280
     1
281
     1
  3
ACAD_MTEXT_2008_RT
360
101B632
  0
DICTIONARY
  5
1B5A4
330
19D53
100
AcDbDictionary
280
     1
281
     1
  3
ACAD_MTEXT_2008_RT
360
101B633
  0
DICTIONARY
  5
1B5A6
330
19D68
100
AcDbDictionary
280
     1
281
     1
  3
ACAD_MTEXT_2008_RT
360
101B634
  0
DICTIONARY
  5
1B5A8
330
19D6A
100
AcDbDictionary
280
     1
281
     1
  3
ACAD_MTEXT_2008_RT
360
101B635
  0
DICTIONARY
  5
1B5AA
330
1A2A4
100
AcDbDictionary
280
     1
281
     1
  3
ACAD_MTEXT_2008_RT
360
101B636
  0
DICTIONARY
  5
1B5AC
330
1A2AD
100
AcDbDictionary
280
     1
281
     1
  3
ACAD_MTEXT_2008_RT
360
101B637
  0
DICTIONARY
  5
1B5AE
330
1A2AE
100
AcDbDictionary
280
     1
281
     1
  3
ACAD_MTEXT_2008_RT
360
101B638
  0
DICTIONARY
  5
1B5B0
330
1A2B0
100
AcDbDictionary
280
     1
281
     1
  3
ACAD_MTEXT_2008_RT
360
101B639
  0
DICTIONARY
  5
1B5B2
330
1A2B1
100
AcDbDictionary
280
     1
281
     1
  3
ACAD_MTEXT_2008_RT
360
101B63A
  0
DICTIONARY
  5
1B5B4
330
1A2C2
100
AcDbDictionary
280
     1
281
     1
  3
ACAD_MTEXT_2008_RT
360
101B63B
  0
DICTIONARY
  5
1B5B6
330
1A2C3
100
AcDbDictionary
280
     1
281
     1
  3
ACAD_MTEXT_2008_RT
360
101B63C
  0
DICTIONARY
  5
1B5B8
330
1A2E9
100
AcDbDictionary
280
     1
281
     1
  3
ACAD_MTEXT_2008_RT
360
101B63D
  0
DICTIONARY
  5
1B5BA
330
1A2F0
100
AcDbDictionary
280
     1
281
     1
  3
ACAD_MTEXT_2008_RT
360
101B63E
  0
DICTIONARY
  5
1B5BC
330
1A2F1
100
AcDbDictionary
280
     1
281
     1
  3
ACAD_MTEXT_2008_RT
360
101B63F
  0
DICTIONARY
  5
1B5D2
330
1B46B
100
AcDbDictionary
280
     1
281
     1
  0
DICTIONARY
  5
1B5D4
330
1B555
100
AcDbDictionary
280
     1
281
     1
  0
DICTIONARY
  5
1B5D6
330
1B56D
100
AcDbDictionary
280
     1
281
     1
  0
DICTIONARY
  5
1B329
330
1B328
100
AcDbDictionary
280
     1
281
     1
  3
ACAD_DIMASSOC
360
1B32A
  0
DICTIONARY
  5
1B32D
330
1B32C
100
AcDbDictionary
280
     1
281
     1
  3
ACAD_DIMASSOC
360
1B32E
  0
DICTIONARY
  5
1B330
330
1B32F
100
AcDbDictionary
280
     1
281
     1
  3
ACAD_DIMASSOC
360
1B331
  0
DICTIONARY
  5
1B349
330
1B348
100
AcDbDictionary
280
     1
281
     1
  3
ACAD_DIMASSOC
360
1B34A
  0
DICTIONARY
  5
1B34C
330
1B34B
100
AcDbDictionary
280
     1
281
     1
  3
ACAD_DIMASSOC
360
1B34D
  0
DICTIONARY
  5
1B34F
330
1B34E
100
AcDbDictionary
280
     1
281
     1
  3
ACAD_DIMASSOC
360
1B350
  0
DICTIONARY
  5
1B352
330
1B351
100
AcDbDictionary
280
     1
281
     1
  3
ACAD_DIMASSOC
360
1B353
  0
DICTIONARY
  5
1B355
330
1B354
100
AcDbDictionary
280
     1
281
     1
  3
ACAD_DIMASSOC
360
1B356
  0
DICTIONARY
  5
1B551
330
1B544
100
AcDbDictionary
280
     1
281
     1
  3
ACAD_DIMASSOC
360
1B55B
  0
DICTIONARY
  5
1B569
330
1B55C
100
AcDbDictionary
280
     1
281
     1
  3
ACAD_DIMASSOC
360
1B573
  0
XRECORD
  5
101B5EA
102
{ACAD_REACTORS
330
C
102
}
330
C
100
AcDbXrecord
280
     1
300
ACD
300
2017
300
ACD_F_S
  0
DICTIONARY
  5
EDD
102
{ACAD_REACTORS
330
C
102
}
330
C
100
AcDbDictionary
281
     1
  0
DICTIONARY
  5
101B5DC
102
{ACAD_REACTORS
330
C
102
}
330
C
100
AcDbDictionary
281
     1
  3
Metric50
350
101B5DD
  0
DICTIONARY
  5
D
102
{ACAD_REACTORS
330
C
102
}
330
C
100
AcDbDictionary
281
     1
  0
DICTIONARY
  5
1A
102
{ACAD_REACTORS
330
C
102
}
330
C
100
AcDbDictionary
281
     1
  3
Model
350
22
  3
布局1
350
19592
  3
布局2
350
1AE3D
1001
AcadStringInfo
1000
MIFCodePage
1070
     5
  0
DICTIONARY
  5
EDC
102
{ACAD_REACTORS
330
C
102
}
330
C
100
AcDbDictionary
281
     1
  3
ByBlock
350
198FC
  3
ByLayer
350
198F4
  3
Global
350
19904
  0
DICTIONARY
  5
19937
102
{ACAD_REACTORS
330
C
102
}
330
C
100
AcDbDictionary
281
     1
  3
Standard
350
19938
  0
DICTIONARY
  5
17
102
{ACAD_REACTORS
330
C
102
}
330
C
100
AcDbDictionary
281
     1
  3
Standard
350
18
  0
DICTIONARY
  5
19
102
{ACAD_REACTORS
330
C
102
}
330
C
100
AcDbDictionary
281
     1
  0
ACDBDICTIONARYWDFLT
  5
E
102
{ACAD_REACTORS
330
C
102
}
330
C
100
AcDbDictionary
281
     1
  3
Normal
350
F
100
AcDbDictionaryWithDefault
340
F
  0
DICTIONARY
  5
19925
102
{ACAD_REACTORS
330
C
102
}
330
C
100
AcDbDictionary
281
     1
  3
A0
350
19926
  3
A1
350
19927
  3
A2
350
19928
  3
A3
350
19929
  3
A4
350
1992A
  3
A5
350
1992B
  3
A6
350
1992C
  3
A7
350
1992D
  3
A8
350
1992E
  3
A9
350
1992F
  3
B0
350
19930
  3
B1
350
19931
  3
B2
350
19932
  3
B3
350
19933
  3
B4
350
19934
  3
B5
350
19935
  3
B6
350
19936
  0
DICTIONARY
  5
101B5DA
102
{ACAD_REACTORS
330
C
102
}
330
C
100
AcDbDictionary
281
     1
  3
Metric50
350
101B5DB
  0
DICTIONARY
  5
A1DC
102
{ACAD_REACTORS
330
C
102
}
330
C
100
AcDbDictionary
281
     1
  3
Standard
350
A1DD
  0
DICTIONARY
  5
1990C
102
{ACAD_REACTORS
330
C
102
}
330
C
100
AcDbDictionary
281
     1
  3
2dWireframe
350
19912
  3
3D Hidden
350
1AF5B
  3
3dWireframe
350
1AF5A
  3
Basic
350
19911
  3
Brighten
350
19918
  3
ColorChange
350
1991C
  3
Conceptual
350
19915
  3
Dim
350
19917
  3
EdgeColorOff
350
19924
  3
Facepattern
350
1991B
  3
Flat
350
1990D
  3
FlatWithEdges
350
1990E
  3
Gouraud
350
1990F
  3
GouraudWithEdges
350
19910
  3
Hidden
350
19914
  3
JitterOff
350
19922
  3
Linepattern
350
1991A
  3
OverhangOff
350
19923
  3
Realistic
350
19916
  3
Shaded
350
19921
  3
Shaded with edges
350
19920
  3
Shades of Gray
350
1991D
  3
Sketchy
350
1991E
  3
Thicken
350
19919
  3
Wireframe
350
19913
  3
X-Ray
350
1991F
  0
XRECORD
  5
101B644
102
{ACAD_REACTORS
330
C
102
}
330
C
100
AcDbXrecord
280
     1
 90
        1
330
A1DD
330
19AE6
330
19D2C
330
19D2D
330
19D2E
330
19D2F
330
19D30
330
19D31
330
19D32
330
19D33
330
19D34
330
19D35
330
19D36
330
19D37
330
19D38
330
19D39
330
19D3A
330
19D3B
330
19D3C
330
19D3D
330
19D3E
330
19D3F
330
19D40
330
19D41
330
19D42
330
19D43
330
19D44
330
19D45
330
19D46
330
19D47
330
19D48
330
19D49
330
19D4A
330
19D4B
330
19D4C
330
19D4D
330
19D4E
330
19D4F
330
19D50
330
19D51
330
19D52
330
19D53
330
19D54
330
19D55
330
19D56
330
19D57
330
19D58
330
19D59
330
19D5A
330
19D5B
330
19D5C
330
19D5D
330
19D5E
330
19D5F
330
19D60
330
19D61
330
19D64
330
19D68
330
19D69
330
19D6A
330
1A2A4
330
1A2A5
330
1A2A6
330
1A2A7
330
1A2A8
330
1A2A9
330
1A2AA
330
1A2AB
330
1A2AC
330
1A2AD
330
1A2AE
330
1A2AF
330
1A2B0
330
1A2B1
330
1A2B2
330
1A2B3
330
1A2B4
330
1A2B5
330
1A2B6
330
1A2B7
330
1A2C1
330
1A2C2
330
1A2C3
330
1A2C4
330
1A2C5
330
1A2C6
330
1A2C7
330
1A2C8
330
1A2C9
330
1A2CA
330
1A2CB
330
1A2CC
330
1A2CD
330
1A2CE
330
1A2CF
330
1A2D0
330
1A2D1
330
1A2D2
330
1A2D3
330
1A2D4
330
1A2D5
330
1A2D6
330
1A2D7
330
1A2D8
330
1A2D9
330
1A2DA
330
1A2DB
330
1A2DC
330
1A2DD
330
1A2DE
330
1A2DF
330
1A2E0
330
1A2E1
330
1A2E2
330
1A2E3
330
1A2E4
330
1A2E5
330
1A2E6
330
1A2E7
330
1A2E8
330
1A2E9
330
1A2EA
330
1A2EB
330
1A2EC
330
1A2ED
330
1A2EE
330
1A2F0
330
1A2F1
330
1A2F2
330
101B5DB
330
101B5DD
  0
DICTIONARY
  5
5E
102
{ACAD_REACTORS
330
C
102
}
330
C
100
AcDbDictionary
281
     1
  3
CANNOSCALE
350
19BD9
  3
CMLEADERSTYLE
350
19BD8
  3
CTABLESTYLE
350
A918
  3
CVIEWDETAILSTYLE
350
101B618
  3
CVIEWSECTIONSTYLE
350
101B619
  3
DIMASSOC
350
5F
  3
HIDETEXT
350
63
  3
INDEXCTL
350
19BDB
  3
LAYEREVAL
350
101B61C
  3
LAYERNOTIFY
350
101B61D
  3
LIGHTINGUNITS
350
101B61B
  3
MSLTSCALE
350
101B61A
  3
PROJECTNAME
350
F29
  3
SORTENTS
350
19BDA
  0
DICTIONARY
  5
FAB0
102
{ACAD_REACTORS
330
C
102
}
330
C
100
AcDbDictionary
281
     1
  3
ASEBlockHierarchyIndexRecord
350
FAB1
1001
DCO15
1040
1597567683.314
  0
DICTIONARY
  5
F6A3
102
{ACAD_REACTORS
330
B4B
102
}
330
B4B
100
AcDbDictionary
281
     1
  0
DICTIONARY
  5
B4C
102
{ACAD_REACTORS
330
B4B
102
}
330
B4B
100
AcDbDictionary
281
     1
  0
DICTIONARY
  5
F6A2
102
{ACAD_REACTORS
330
B4B
102
}
330
B4B
100
AcDbDictionary
281
     1
1001
ACAD
1000
<All
  0
XRECORD
  5
19945
102
{ACAD_REACTORS
330
19944
102
}
330
19944
100
AcDbXrecord
280
     1
290
     1
  0
XRECORD
  5
19947
102
{ACAD_REACTORS
330
19946
102
}
330
19946
100
AcDbXrecord
280
     1
290
     1
  0
XRECORD
  5
19949
102
{ACAD_REACTORS
330
19948
102
}
330
19948
100
AcDbXrecord
280
     1
290
     1
  0
XRECORD
  5
1994B
102
{ACAD_REACTORS
330
1994A
102
}
330
1994A
100
AcDbXrecord
280
     1
290
     1
  0
XRECORD
  5
1994D
102
{ACAD_REACTORS
330
1994C
102
}
330
1994C
100
AcDbXrecord
280
     1
290
     1
  0
SORTENTSTABLE
  5
AD59
102
{ACAD_REACTORS
330
AD58
102
}
330
AD58
100
AcDbSortentsTable
330
1F
331
108B3
  5
108B3
331
108B2
  5
108B2
331
CB1A
  5
CD0B
331
108B1
  5
108B1
331
108B0
  5
108B0
  0
SORTENTSTABLE
  5
19D6C
102
{ACAD_REACTORS
330
19D6B
102
}
330
19D6B
100
AcDbSortentsTable
330
19BE3
331
19D31
  5
19D2C
331
19D0E
  5
19D09
331
19D66
  5
19CFD
331
19D4B
  5
19D46
331
19D30
  5
19D2B
331
19D09
  5
19D04
331
19D61
  5
19D5C
331
19D4A
  5
19D45
331
19D3D
  5
19D38
331
19D33
  5
19D2E
331
19D08
  5
19D03
331
19D60
  5
19D5B
331
19CFD
  5
19D61
331
19D55
  5
19D50
331
19D3C
  5
19D37
331
19D25
  5
19D20
331
19D32
  5
19D2D
331
19D0B
  5
19D06
331
19D63
  5
19D5E
331
19D54
  5
19D4F
331
19D3F
  5
19D3A
331
19D24
  5
19D1F
331
19D0A
  5
19D05
331
19D62
  5
19D5D
331
19CFF
  5
19D63
331
19D57
  5
19D52
331
19D3E
  5
19D39
331
19D27
  5
19D22
331
19CFE
  5
19D62
331
19D56
  5
19D51
331
19D39
  5
19D34
331
19D26
  5
19D21
331
19D51
  5
19D4C
331
19D38
  5
19D33
331
19D21
  5
19D1C
331
19D50
  5
19D4B
331
19D3B
  5
19D36
331
19D20
  5
19D1B
331
19D15
  5
19D10
331
19D53
  5
19D4E
331
19D3A
  5
19D35
331
19D23
  5
19D1E
331
19D14
  5
19D0F
331
19D52
  5
19D4D
331
19D45
  5
19D40
331
19D22
  5
19D1D
331
19D17
  5
19D12
331
19D44
  5
19D3F
331
19D2D
  5
19D28
331
19D16
  5
19D11
331
19D47
  5
19D42
331
19D2C
  5
19D27
331
19D11
  5
19D0C
331
19D46
  5
19D41
331
19D2F
  5
19D2A
331
19D10
  5
19D0B
331
19D41
  5
19D3C
331
19D2E
  5
19D29
331
19D13
  5
19D0E
331
19D40
  5
19D3B
331
19D29
  5
19D24
331
19D05
  5
19D00
331
19D12
  5
19D0D
331
19D5D
  5
19D58
331
19D43
  5
19D3E
331
19D28
  5
19D23
331
19D1D
  5
19D18
331
19D04
  5
19CFF
331
19D5C
  5
19D57
331
19D42
  5
19D3D
331
19D2B
  5
19D26
331
19D1C
  5
19D17
331
19D07
  5
19D02
331
19D5F
  5
19D5A
331
19D2A
  5
19D25
331
19D1F
  5
19D1A
331
19D06
  5
19D01
331
19D5E
  5
19D59
331
19D1E
  5
19D19
331
19D01
  5
19D65
331
19D59
  5
19D54
331
19D00
  5
19D64
331
19D19
  5
19D14
331
19D58
  5
19D53
331
19D4D
  5
19D48
331
19D03
  5
19CFE
331
19D18
  5
19D13
331
19D5B
  5
19D56
331
19D4C
  5
19D47
331
19D02
  5
19D66
331
19D35
  5
19D30
331
19D1B
  5
19D16
331
19D5A
  5
19D55
331
19D4F
  5
19D4A
331
19D34
  5
19D2F
331
19D0D
  5
19D08
331
19D1A
  5
19D15
331
19D65
  5
19D60
331
19D4E
  5
19D49
331
19D37
  5
19D32
331
19D0C
  5
19D07
331
19D64
  5
19D5F
331
19D49
  5
19D44
331
19D36
  5
19D31
331
19D0F
  5
19D0A
331
19D48
  5
19D43
  0
XRECORD
  5
101B61F
102
{ACAD_REACTORS
330
1B57C
102
}
330
1B57C
100
AcDbXrecord
280
     1
 40
47029.0
  1
\pxqc;{\Fgeniso|c134;NH377S}
  0
XRECORD
  5
101B620
102
{ACAD_REACTORS
330
1B57E
102
}
330
1B57E
100
AcDbXrecord
280
     1
 40
80612.0
  1
\pxqc;NH377S
  0
XRECORD
  5
101B621
102
{ACAD_REACTORS
330
1B580
102
}
330
1B580
100
AcDbXrecord
280
     1
 40
171689.0
  1
\pxqc;ZHUHAI GOLCONDA TRADING CD.,LTD.
  0
XRECORD
  5
101B622
102
{ACAD_REACTORS
330
1B582
102
}
330
1B582
100
AcDbXrecord
280
     1
 40
5161.0
  1
\pxqc;{\fSimSun|b0|i0|c0|p2;1}
  0
XRECORD
  5
101B623
102
{ACAD_REACTORS
330
1B584
102
}
330
1B584
100
AcDbXrecord
280
     1
 40
5161.0
  1
\pxqc;{\fSimSun|b0|i0|c0|p2;1}
  0
XRECORD
  5
101B624
102
{ACAD_REACTORS
330
1B586
102
}
330
1B586
100
AcDbXrecord
280
     1
 40
5042.0
  1
\pxqc;{\fSimSun|b0|i0|c0|p2;1}
  0
XRECORD
  5
101B625
102
{ACAD_REACTORS
330
1B588
102
}
330
1B588
100
AcDbXrecord
280
     1
 40
62857.0
  1
\pxqc;{\fSimSun|b0|i0|c134|p2;2}
  0
XRECORD
  5
101B626
102
{ACAD_REACTORS
330
1B58A
102
}
330
1B58A
100
AcDbXrecord
280
     1
 40
62871.0
  1
\pxqc;{\fSimSun|b0|i0|c134|p2;1}
  0
XRECORD
  5
101B627
102
{ACAD_REACTORS
330
1B58C
102
}
330
1B58C
100
AcDbXrecord
280
     1
 40
62811.0
  1
\pxqc;{\fSimSun|b0|i0|c134|p2;2}
  0
XRECORD
  5
101B628
102
{ACAD_REACTORS
330
1B58E
102
}
330
1B58E
100
AcDbXrecord
280
     1
 40
62928.0
  1
\pxqc;{\fSimSun|b0|i0|c134|p2;3}
  0
XRECORD
  5
101B629
102
{ACAD_REACTORS
330
1B590
102
}
330
1B590
100
AcDbXrecord
280
     1
 40
62894.0
  1
\pxqc;{\fSimSun|b0|i0|c134|p2;4}
  0
XRECORD
  5
101B62A
102
{ACAD_REACTORS
330
1B592
102
}
330
1B592
100
AcDbXrecord
280
     1
 40
63002.0
  1
\pxqc;{\fSimSun|b0|i0|c134|p2;5}
  0
XRECORD
  5
101B62B
102
{ACAD_REACTORS
330
1B594
102
}
330
1B594
100
AcDbXrecord
280
     1
 40
63027.0
  1
\pxqc;{\fSimSun|b0|i0|c134|p2;6}
  0
XRECORD
  5
101B62C
102
{ACAD_REACTORS
330
1B596
102
}
330
1B596
100
AcDbXrecord
280
     1
 40
63076.0
  1
\pxqc;{\fSimSun|b0|i0|c134|p2;7}
  0
XRECORD
  5
101B62D
102
{ACAD_REACTORS
330
1B598
102
}
330
1B598
100
AcDbXrecord
280
     1
 40
63141.0
  1
\pxqc;{\fSimSun|b0|i0|c134|p2;8}
  0
XRECORD
  5
101B62E
102
{ACAD_REACTORS
330
1B59A
102
}
330
1B59A
100
AcDbXrecord
280
     1
 40
63138.0
  1
\pxqc;{\fSimSun|b0|i0|c134|p2;9}
  0
XRECORD
  5
101B62F
102
{ACAD_REACTORS
330
1B59C
102
}
330
1B59C
100
AcDbXrecord
280
     1
 40
64805.0
  1
\pxqc;{\fSimSun|b0|i0|c134|p2;10}
  0
XRECORD
  5
101B630
102
{ACAD_REACTORS
330
1B59E
102
}
330
1B59E
100
AcDbXrecord
280
     1
 40
64776.0
  1
\pxqc;{\fSimSun|b0|i0|c134|p2;11}
  0
XRECORD
  5
101B631
102
{ACAD_REACTORS
330
1B5A0
102
}
330
1B5A0
100
AcDbXrecord
280
     1
 40
64844.0
  1
\pxqc;{\fSimSun|b0|i0|c134|p2;12}
  0
XRECORD
  5
101B632
102
{ACAD_REACTORS
330
1B5A2
102
}
330
1B5A2
100
AcDbXrecord
280
     1
 40
64882.0
  1
\pxqc;{\fSimSun|b0|i0|c134|p2;13}
  0
XRECORD
  5
101B633
102
{ACAD_REACTORS
330
1B5A4
102
}
330
1B5A4
100
AcDbXrecord
280
     1
 40
64861.0
  1
\pxqc;{\fSimSun|b0|i0|c134|p2;14}
  0
XRECORD
  5
101B634
102
{ACAD_REACTORS
330
1B5A6
102
}
330
1B5A6
100
AcDbXrecord
280
     1
 40
62927.0
  1
\pxqc;3
  0
XRECORD
  5
101B635
102
{ACAD_REACTORS
330
1B5A8
102
}
330
1B5A8
100
AcDbXrecord
280
     1
 40
5161.0
  1
\pxqc;{\fSimSun|b0|i0|c0|p2;1}
  0
XRECORD
  5
101B636
102
{ACAD_REACTORS
330
1B5AA
102
}
330
1B5AA
100
AcDbXrecord
280
     1
 40
99801.0
  1
\pxqc;NH377S-0001-32
  0
XRECORD
  5
101B637
102
{ACAD_REACTORS
330
1B5AC
102
}
330
1B5AC
100
AcDbXrecord
280
     1
 40
5132.0
  1
\pxqc;{\fSimSun|b0|i0|c0|p2;1}
  0
XRECORD
  5
101B638
102
{ACAD_REACTORS
330
1B5AE
102
}
330
1B5AE
100
AcDbXrecord
280
     1
 40
5132.0
  1
\pxqc;{\fSimSun|b0|i0|c0|p2;1}
  0
XRECORD
  5
101B639
102
{ACAD_REACTORS
330
1B5B0
102
}
330
1B5B0
100
AcDbXrecord
280
     1
 40
5013.0
  1
\pxqc;{\fSimSun|b0|i0|c0|p2;1}
  0
XRECORD
  5
101B63A
102
{ACAD_REACTORS
330
1B5B2
102
}
330
1B5B2
100
AcDbXrecord
280
     1
 40
62926.0
  1
\pxqc;{\fSimSun|b0|i0|c134|p2;2}
  0
XRECORD
  5
101B63B
102
{ACAD_REACTORS
330
1B5B4
102
}
330
1B5B4
100
AcDbXrecord
280
     1
 40
79413.0
  1
\pxqc;0.8mm
  0
XRECORD
  5
101B63C
102
{ACAD_REACTORS
330
1B5B6
102
}
330
1B5B6
100
AcDbXrecord
280
     1
 40
79413.0
  1
\pxqc;0.8mm
  0
XRECORD
  5
101B63D
102
{ACAD_REACTORS
330
1B5B8
102
}
330
1B5B8
100
AcDbXrecord
280
     1
 40
118699.0
  1
\pxqc;ZHUHAI GOLCONDA TRADING CD.,LTD.
  0
XRECORD
  5
101B63E
102
{ACAD_REACTORS
330
1B5BA
102
}
330
1B5BA
100
AcDbXrecord
280
     1
 40
5132.0
  1
\pxqc;{\fSimSun|b0|i0|c0|p2;1}
  0
XRECORD
  5
101B63F
102
{ACAD_REACTORS
330
1B5BC
102
}
330
1B5BC
100
AcDbXrecord
280
     1
 40
62872.0
  1
\pxqc;3
  0
DIMASSOC
  5
1B32A
102
{ACAD_REACTORS
330
1B329
102
}
330
1B329
100
AcDbDimAssoc
330
1B328
 90
        3
 70
     0
 71
     0
  1
AcDbOsnapPointRef
 72
     1
331
1B243
 73
     2
 91
        2
 40
1.0
 10
0.0
 20
0.0
 30
2.000000000000000E+50
 75
     0
  1
AcDbOsnapPointRef
 72
     8
331
1B243
 73
     2
 91
        6
 40
0.0
 10
0.0
 20
0.0
 30
0.0
 75
     1
  1
AcDbOsnapPointRef
 72
     1
331
1B243
 73
     2
 91
        2
 40
1.0
 10
0.0
 20
0.0
 30
2.000000000000000E+50
 75
     0
  0
DIMASSOC
  5
1B32E
102
{ACAD_REACTORS
330
1B32D
102
}
330
1B32D
100
AcDbDimAssoc
330
1B32C
 90
        1
 70
     0
 71
     0
  1
AcDbOsnapPointRef
 72
    11
331
1B243
 73
     2
 91
        0
 40
3.999999999999998
 10
0.0
 20
0.0
 30
0.0
332
1B243
 74
     2
 92
        0
 75
     0
  0
DIMASSOC
  5
1B331
102
{ACAD_REACTORS
330
1B330
102
}
330
1B330
100
AcDbDimAssoc
330
1B32F
 90
        2
 70
     0
 71
     0
  1
AcDbOsnapPointRef
 72
     1
331
1B242
 73
     2
 91
        7
 40
6.283185307179586
 10
0.0
 20
0.0
 30
2.000000000000000E+50
 75
     0
  0
DIMASSOC
  5
1B34A
102
{ACAD_REACTORS
330
1B349
102
}
330
1B349
100
AcDbDimAssoc
330
1B348
 90
        3
 70
     0
 71
     0
  1
AcDbOsnapPointRef
 72
    13
331
1B2F7
 73
     2
 91
        0
 40
0.0
 10
0.0
 20
0.0
 30
2.000000000000000E+50
 75
     0
  1
AcDbOsnapPointRef
 72
     1
331
1B333
 73
     2
 91
        0
 40
1.570796326794896
 10
0.0
 20
0.0
 30
2.000000000000000E+50
 75
     0
  0
DIMASSOC
  5
1B34D
102
{ACAD_REACTORS
330
1B34C
102
}
330
1B34C
100
AcDbDimAssoc
330
1B34B
 90
        3
 70
     0
 71
     0
  1
AcDbOsnapPointRef
 72
    13
331
1B2E8
 73
     2
 91
        0
 40
0.0
 10
0.0
 20
0.0
 30
2.000000000000000E+50
 75
     0
  1
AcDbOsnapPointRef
 72
     3
331
1B337
 73
     2
 91
        0
 40
0.0
 10
0.0
 20
0.0
 30
0.0
 75
     0
  0
DIMASSOC
  5
1B350
102
{ACAD_REACTORS
330
1B34F
102
}
330
1B34F
100
AcDbDimAssoc
330
1B34E
 90
        2
 70
     0
 71
     0
  1
AcDbOsnapPointRef
 72
    10
331
1B2E4
 73
     2
 91
        0
 40
0.6014422985934579
 10
0.0
 20
0.0
 30
0.0
 75
     0
  0
DIMASSOC
  5
1B353
102
{ACAD_REACTORS
330
1B352
102
}
330
1B352
100
AcDbDimAssoc
330
1B351
 90
        3
 70
     0
 71
     0
  1
AcDbOsnapPointRef
 72
    13
331
1B306
 73
     2
 91
        0
 40
0.0
 10
0.0
 20
0.0
 30
2.000000000000000E+50
 75
     0
  1
AcDbOsnapPointRef
 72
    13
331
1B335
 73
     2
 91
        0
 40
7.853981633974482
 10
0.0
 20
0.0
 30
2.000000000000000E+50
 75
     0
  0
DIMASSOC
  5
1B356
102
{ACAD_REACTORS
330
1B355
102
}
330
1B355
100
AcDbDimAssoc
330
1B354
 90
        2
 70
     0
 71
     0
  1
AcDbOsnapPointRef
 72
     3
331
1B337
 73
     2
 91
        0
 40
0.0
 10
0.0
 20
0.0
 30
0.0
 75
     0
  0
DIMASSOC
  5
1B55B
102
{ACAD_REACTORS
330
1B551
102
}
330
1B551
100
AcDbDimAssoc
330
1B544
 90
        2
 70
     0
 71
     0
  1
AcDbOsnapPointRef
 72
     3
331
1B2DF
 73
     2
 91
        0
 40
0.0
 10
0.0
 20
0.0
 30
0.0
 75
     0
  0
DIMASSOC
  5
1B573
102
{ACAD_REACTORS
330
1B569
102
}
330
1B569
100
AcDbDimAssoc
330
1B55C
 90
        2
 70
     0
 71
     0
  1
AcDbOsnapPointRef
 72
     3
331
1B2DE
 73
     2
 91
        0
 40
0.0
 10
0.0
 20
0.0
 30
0.0
 75
     0
  0
ACDBDETAILVIEWSTYLE
  5
101B5DD
102
{ACAD_XDICTIONARY
360
101B642
102
}
102
{ACAD_REACTORS
330
101B5DC
102
}
330
101B5DC
100
AcDbModelDocViewStyle
 70
     0
  3
Metric50
290
     0
100
AcDbDetailViewStyle
 70
     0
 71
     0
 90
        3
 71
     1
340
11
 62
   256
 40
5.0
340
0
 62
   256
 40
5.0
300

 40
0.0
280
     1
 71
     2
340
16
 90
       25
 62
   256
 71
     3
340
11
 62
   256
 40
5.0
 90
        0
 40
15.0
 90
        1
300
%<\AcVar ViewDetailId>% (%<\AcVar ViewScale \f "%sn">%)
 71
     4
340
16
 90
       25
 62
   256
340
16
 90
       25
 62
   256
280
     0
  0
LAYOUT
  5
22
102
{ACAD_XDICTIONARY
360
1AF6E
102
}
102
{ACAD_REACTORS
330
1A
102
}
330
1A
100
AcDbPlotSettings
  1

  2
\\彭生\Canon iP1100 series
  4
User256
  6

 40
4.180416584014892
 41
5.831417560577392
 42
4.180404663085937
 43
3.757080078125
 44
209.9733276367187
 45
296.9683227539062
 46
8.669999999999999
 47
0.0
 48
14372.74123631706
 49
997.4483354599614
140
14877.17298983096
141
1320.885473192833
142
1.0
143
1.755278935505243
 70
 11956
 72
     1
 73
     1
 74
     4
  7
acad.ctb
 75
     0
147
0.5697100214514669
 76
     0
 77
     2
 78
   300
148
-14372.74123631706
149
-997.4483354599614
100
AcDbLayout
  1
Model
 70
     1
 71
     0
 10
0.0
 20
0.0
 11
12.0
 21
9.0
 12
0.0
 22
0.0
 32
0.0
 14
0.0
 24
0.0
 34
0.0
 15
0.0
 25
0.0
 35
0.0
146
0.0
 13
0.0
 23
0.0
 33
0.0
 16
1.0
 26
0.0
 36
0.0
 17
0.0
 27
1.0
 37
0.0
 76
     0
330
1F
331
1AF58
1001
AcadStringInfo
1000
MIFCodePage
1070
     5
  0
LAYOUT
  5
19592
102
{ACAD_REACTORS
330
1A
102
}
330
1A
100
AcDbPlotSettings
  1

  2
Adobe PDF
  4
A4
  6

 40
3.174999952316284
 41
3.174999952316284
 42
3.175003051757812
 43
3.17498779296875
 44
209.9733276367187
 45
297.0318298339844
 46
0.0
 47
0.0
 48
0.0
 49
0.0
140
0.0
141
0.0
142
1.0
143
1.0
 70
   688
 72
     1
 73
     1
 74
     5
  7

 75
    16
147
1.0
 76
     1
 77
     2
 78
   300
148
0.0
149
0.0
100
AcDbLayout
  1
布局1
 70
     1
 71
     1
 10
-3.17498779296875
 20
-3.174999952316284
 11
293.8568420410156
 21
206.7983276844024
 12
0.0
 22
0.0
 32
0.0
 14
29.06818420886992
 24
20.36233246326446
 34
0.0
 15
261.6136578798294
 25
183.2609921693802
 35
0.0
146
0.0
 13
0.0
 23
0.0
 33
0.0
 16
1.0
 26
0.0
 36
0.0
 17
0.0
 27
1.0
 37
0.0
 76
     0
330
19591
331
19599
1001
AcadStringInfo
1000
MIFCodePage
1070
     5
  0
LAYOUT
  5
1AE3D
102
{ACAD_REACTORS
330
1A
102
}
330
1A
100
AcDbPlotSettings
  1

  2
Microsoft Office Document Image Writer
  4
A4
  6

 40
3.174999952316284
 41
3.174999952316284
 42
3.175003051757812
 43
3.17498779296875
 44
210.0579986572266
 45
297.0530090332031
 46
0.0
 47
0.0
 48
0.0
 49
0.0
140
0.0
141
0.0
142
1.0
143
1.0
 70
   688
 72
     1
 73
     1
 74
     5
  7

 75
    16
147
1.0
 76
     0
 77
     2
 78
   300
148
0.0
149
0.0
100
AcDbLayout
  1
布局2
 70
     1
 71
     2
 10
-3.17498779296875
 20
-3.174999952316284
 11
293.8780212402344
 21
206.8829987049103
 12
0.0
 22
0.0
 32
0.0
 14
29.06588899291467
 24
20.36100953846704
 34
-0.0015258207003583
 15
261.637145837612
 25
183.3469901922857
 35
0.0000000349246037
146
0.0
 13
0.0
 23
0.0
 33
0.0
 16
1.0
 26
0.0
 36
0.0
 17
0.0
 27
1.0
 37
0.0
 76
     0
330
1AE3C
331
1AE44
1001
AcadStringInfo
1000
MIFCodePage
1070
     5
  0
MATERIAL
  5
198FC
102
{ACAD_XDICTIONARY
360
198FD
102
}
102
{ACAD_REACTORS
330
EDC
102
}
330
EDC
100
AcDbMaterial
  1
ByBlock
 72
     0
 43
0.0008202099737533
 43
0.0
 43
0.0
 43
0.0
 43
0.0
 43
0.0008202099737533
 43
0.0
 43
0.0
 43
0.0
 43
0.0
 43
1.0
 43
0.0
 43
0.0
 43
0.0
 43
0.0
 43
1.0
 77
     0
 47
0.0008202099737533
 47
0.0
 47
0.0
 47
0.0
 47
0.0
 47
0.0008202099737533
 47
0.0
 47
0.0
 47
0.0
 47
0.0
 47
1.0
 47
0.0
 47
0.0
 47
0.0
 47
0.0
 47
1.0
171
     0
 49
0.0008202099737533
 49
0.0
 49
0.0
 49
0.0
 49
0.0
 49
0.0008202099737533
 49
0.0
 49
0.0
 49
0.0
 49
0.0
 49
1.0
 49
0.0
 49
0.0
 49
0.0
 49
0.0
 49
1.0
175
     0
142
0.0008202099737533
142
0.0
142
0.0
142
0.0
142
0.0
142
0.0008202099737533
142
0.0
142
0.0
142
0.0
142
0.0
142
1.0
142
0.0
142
0.0
142
0.0
142
0.0
142
1.0
179
     0
144
0.0008202099737533
144
0.0
144
0.0
144
0.0
144
0.0
144
0.0008202099737533
144
0.0
144
0.0
144
0.0
144
0.0
144
1.0
144
0.0
144
0.0
144
0.0
144
0.0
144
1.0
147
0.0008202099737533
147
0.0
147
0.0
147
0.0
147
0.0
147
0.0008202099737533
147
0.0
147
0.0
147
0.0
147
0.0
147
1.0
147
0.0
147
0.0
147
0.0
147
0.0
147
1.0
  0
MATERIAL
  5
198F4
102
{ACAD_XDICTIONARY
360
198F5
102
}
102
{ACAD_REACTORS
330
EDC
102
}
330
EDC
100
AcDbMaterial
  1
ByLayer
 72
     0
 43
0.0008202099737533
 43
0.0
 43
0.0
 43
0.0
 43
0.0
 43
0.0008202099737533
 43
0.0
 43
0.0
 43
0.0
 43
0.0
 43
1.0
 43
0.0
 43
0.0
 43
0.0
 43
0.0
 43
1.0
 77
     0
 47
0.0008202099737533
 47
0.0
 47
0.0
 47
0.0
 47
0.0
 47
0.0008202099737533
 47
0.0
 47
0.0
 47
0.0
 47
0.0
 47
1.0
 47
0.0
 47
0.0
 47
0.0
 47
0.0
 47
1.0
171
     0
 49
0.0008202099737533
 49
0.0
 49
0.0
 49
0.0
 49
0.0
 49
0.0008202099737533
 49
0.0
 49
0.0
 49
0.0
 49
0.0
 49
1.0
 49
0.0
 49
0.0
 49
0.0
 49
0.0
 49
1.0
175
     0
142
0.0008202099737533
142
0.0
142
0.0
142
0.0
142
0.0
142
0.0008202099737533
142
0.0
142
0.0
142
0.0
142
0.0
142
1.0
142
0.0
142
0.0
142
0.0
142
0.0
142
1.0
179
     0
144
0.0008202099737533
144
0.0
144
0.0
144
0.0
144
0.0
144
0.0008202099737533
144
0.0
144
0.0
144
0.0
144
0.0
144
1.0
144
0.0
144
0.0
144
0.0
144
0.0
144
1.0
147
0.0008202099737533
147
0.0
147
0.0
147
0.0
147
0.0
147
0.0008202099737533
147
0.0
147
0.0
147
0.0
147
0.0
147
1.0
147
0.0
147
0.0
147
0.0
147
0.0
147
1.0
  0
MATERIAL
  5
19904
102
{ACAD_XDICTIONARY
360
19905
102
}
102
{ACAD_REACTORS
330
EDC
102
}
330
EDC
100
AcDbMaterial
  1
Global
 72
     0
 43
0.0008202099737533
 43
0.0
 43
0.0
 43
0.0
 43
0.0
 43
0.0008202099737533
 43
0.0
 43
0.0
 43
0.0
 43
0.0
 43
1.0
 43
0.0
 43
0.0
 43
0.0
 43
0.0
 43
1.0
 77
     0
 47
0.0008202099737533
 47
0.0
 47
0.0
 47
0.0
 47
0.0
 47
0.0008202099737533
 47
0.0
 47
0.0
 47
0.0
 47
0.0
 47
1.0
 47
0.0
 47
0.0
 47
0.0
 47
0.0
 47
1.0
171
     0
 49
0.0008202099737533
 49
0.0
 49
0.0
 49
0.0
 49
0.0
 49
0.0008202099737533
 49
0.0
 49
0.0
 49
0.0
 49
0.0
 49
1.0
 49
0.0
 49
0.0
 49
0.0
 49
0.0
 49
1.0
175
     0
142
0.0008202099737533
142
0.0
142
0.0
142
0.0
142
0.0
142
0.0008202099737533
142
0.0
142
0.0
142
0.0
142
0.0
142
1.0
142
0.0
142
0.0
142
0.0
142
0.0
142
1.0
179
     0
144
0.0008202099737533
144
0.0
144
0.0
144
0.0
144
0.0
144
0.0008202099737533
144
0.0
144
0.0
144
0.0
144
0.0
144
1.0
144
0.0
144
0.0
144
0.0
144
0.0
144
1.0
147
0.0008202099737533
147
0.0
147
0.0
147
0.0
147
0.0
147
0.0008202099737533
147
0.0
147
0.0
147
0.0
147
0.0
147
1.0
147
0.0
147
0.0
147
0.0
147
0.0
147
1.0
  0
MLEADERSTYLE
  5
19938
102
{ACAD_REACTORS
330
19937
102
}
330
19937
100
AcDbMLeaderStyle
179
     2
170
     2
171
     1
172
     0
 90
        2
 40
0.0
 41
0.0
173
     1
 91
-1056964608
340
14
 92
       -2
290
     1
 42
2.0
291
     1
 43
0.36
  3
Standard
 44
4.0
300

342
11
174
     1
178
     6
175
     1
176
     0
 93
-1056964608
 45
4.0
292
     0
297
     0
 46
4.0
 94
-1056964608
 47
1.0
 49
1.0
140
1.0
293
     1
141
0.0
294
     1
177
     0
142
1.0
295
     0
296
     0
143
0.125
271
     0
272
     9
273
     9
298
     0
  0
MLINESTYLE
  5
18
102
{ACAD_REACTORS
330
17
102
}
330
17
100
AcDbMlineStyle
  2
STANDARD
 70
     0
  3

 62
   256
 51
90.0
 52
90.0
 71
     2
 49
0.5
 62
   256
  6
BYLAYER
 49
-0.5
 62
   256
  6
BYLAYER
  0
ACDBPLACEHOLDER
  5
F
102
{ACAD_REACTORS
330
E
102
}
330
E
  0
SCALE
  5
19926
102
{ACAD_REACTORS
330
19925
102
}
330
19925
100
AcDbScale
 70
     0
300
1:1
140
1.0
141
1.0
290
     1
  0
SCALE
  5
19927
102
{ACAD_REACTORS
330
19925
102
}
330
19925
100
AcDbScale
 70
     0
300
1:2
140
1.0
141
2.0
290
     0
  0
SCALE
  5
19928
102
{ACAD_REACTORS
330
19925
102
}
330
19925
100
AcDbScale
 70
     0
300
1:4
140
1.0
141
4.0
290
     0
  0
SCALE
  5
19929
102
{ACAD_REACTORS
330
19925
102
}
330
19925
100
AcDbScale
 70
     0
300
1:5
140
1.0
141
5.0
290
     0
  0
SCALE
  5
1992A
102
{ACAD_REACTORS
330
19925
102
}
330
19925
100
AcDbScale
 70
     0
300
1:8
140
1.0
141
8.0
290
     0
  0
SCALE
  5
1992B
102
{ACAD_REACTORS
330
19925
102
}
330
19925
100
AcDbScale
 70
     0
300
1:10
140
1.0
141
10.0
290
     0
  0
SCALE
  5
1992C
102
{ACAD_REACTORS
330
19925
102
}
330
19925
100
AcDbScale
 70
     0
300
1:16
140
1.0
141
16.0
290
     0
  0
SCALE
  5
1992D
102
{ACAD_REACTORS
330
19925
102
}
330
19925
100
AcDbScale
 70
     0
300
1:20
140
1.0
141
20.0
290
     0
  0
SCALE
  5
1992E
102
{ACAD_REACTORS
330
19925
102
}
330
19925
100
AcDbScale
 70
     0
300
1:30
140
1.0
141
30.0
290
     0
  0
SCALE
  5
1992F
102
{ACAD_REACTORS
330
19925
102
}
330
19925
100
AcDbScale
 70
     0
300
1:40
140
1.0
141
40.0
290
     0
  0
SCALE
  5
19930
102
{ACAD_REACTORS
330
19925
102
}
330
19925
100
AcDbScale
 70
     0
300
1:50
140
1.0
141
50.0
290
     0
  0
SCALE
  5
19931
102
{ACAD_REACTORS
330
19925
102
}
330
19925
100
AcDbScale
 70
     0
300
1:100
140
1.0
141
100.0
290
     0
  0
SCALE
  5
19932
102
{ACAD_REACTORS
330
19925
102
}
330
19925
100
AcDbScale
 70
     0
300
2:1
140
2.0
141
1.0
290
     0
  0
SCALE
  5
19933
102
{ACAD_REACTORS
330
19925
102
}
330
19925
100
AcDbScale
 70
     0
300
4:1
140
4.0
141
1.0
290
     0
  0
SCALE
  5
19934
102
{ACAD_REACTORS
330
19925
102
}
330
19925
100
AcDbScale
 70
     0
300
8:1
140
8.0
141
1.0
290
     0
  0
SCALE
  5
19935
102
{ACAD_REACTORS
330
19925
102
}
330
19925
100
AcDbScale
 70
     0
300
10:1
140
10.0
141
1.0
290
     0
  0
SCALE
  5
19936
102
{ACAD_REACTORS
330
19925
102
}
330
19925
100
AcDbScale
 70
     0
300
100:1
140
100.0
141
1.0
290
     0
  0
ACDBSECTIONVIEWSTYLE
  5
101B5DB
102
{ACAD_XDICTIONARY
360
101B640
102
}
102
{ACAD_REACTORS
330
101B5DA
102
}
330
101B5DA
100
AcDbModelDocViewStyle
 70
     0
  3
Metric50
290
     0
100
AcDbSectionViewStyle
 70
     0
 71
     0
 90
      102
 71
     1
340
11
 62
   256
 40
5.0
340
0
340
0
 62
   256
 40
5.0
300
I, O, Q, S, X, Z
 40
10.0
 90
        0
 40
2.5
 90
        0
 71
     2
340
16
 90
       25
 62
   256
340
16
 90
       50
 62
   256
 40
5.0
 40
2.5
 40
5.0
 71
     3
340
11
 62
   256
 40
5.0
 90
        0
 40
15.0
 90
        1
300
%<\AcVar ViewSectionStartId>%-%<\AcVar ViewSectionEndId>% (%<\AcVar ViewScale \f "%sn">%)
 71
     4
 62
   256
 62
   257
300
ANSI31
 40
1.0
 90
        0
290
     0
290
     0
 90
        6
 40
0.0
 40
1.570796326794896
 40
0.2617993877991494
 40
1.308996938995747
 40
-0.2617993877991494
 40
1.832595714594046
  0
TABLESTYLE
  5
A1DD
102
{ACAD_XDICTIONARY
360
19B8C
102
}
102
{ACAD_REACTORS
330
A1DC
102
}
330
A1DC
100
AcDbTableStyle
280
     0
  3
Standard
 70
     0
 71
     0
 40
1.5
 41
1.5
280
     0
281
     0
  7
Standard
140
4.5
170
     2
 62
     0
 63
     7
283
     0
 90
        4
 91
        0
  1

274
    -2
284
     1
 64
     0
275
    -2
285
     1
 65
     0
276
    -2
286
     1
 66
     0
277
    -2
287
     1
 67
     0
278
    -2
288
     1
 68
     0
279
    -2
289
     1
 69
     0
  7
Standard
140
6.0
170
     5
 62
     0
 63
     7
283
     0
 90
        4
 91
        0
  1

274
    -2
284
     1
 64
     0
275
    -2
285
     1
 65
     0
276
    -2
286
     1
 66
     0
277
    -2
287
     1
 67
     0
278
    -2
288
     1
 68
     0
279
    -2
289
     1
 69
     0
  7
Standard
140
4.5
170
     5
 62
     0
 63
     7
283
     0
 90
        4
 91
        0
  1

274
    -2
284
     1
 64
     0
275
    -2
285
     1
 65
     0
276
    -2
286
     1
 66
     0
277
    -2
287
     1
 67
     0
278
    -2
288
     1
 68
     0
279
    -2
289
     1
 69
     0
1001
ACAD
1000
AcRTDxfName
1000
TABLESTYLE
1000
AcRTDxfName
1000
TABLESTYLE
  0
VISUALSTYLE
  5
19912
102
{ACAD_REACTORS
330
1990C
102
}
330
1990C
100
AcDbVisualStyle
  2
2dWireframe
 70
     4
177
     3
291
     0
 70
    58
 90
        0
176
     1
 90
        2
176
     1
 90
        0
176
     1
 90
        0
176
     1
 40
0.6
176
     1
 40
30.0
176
     1
 62
     7
176
     1
 90
        1
176
     1
 90
        4
176
     1
 62
     7
176
     1
 62
   257
176
     1
 90
        1
176
     1
 90
        1
176
     1
 40
1.0
176
     1
 90
        0
176
     1
 62
   257
176
     1
 40
1.0
176
     1
 90
        1
176
     1
 90
        6
176
     1
 90
        2
176
     1
 62
     7
176
     1
 90
        5
176
     1
 90
        0
176
     1
 90
        0
176
     1
290
     0
176
     1
 90
        1
176
     1
 40
0.0
176
     1
 90
        0
176
     1
290
     1
176
     1
290
     1
176
     1
290
     0
176
     1
290
     0
176
     1
290
     0
176
     1
290
     0
176
     1
290
     0
176
     1
290
     0
176
     1
290
     0
176
     1
 90
       50
176
     1
 40
0.0
176
     1
 40
1.0
176
     1
 90
        0
176
     1
 62
    18
420
        0
176
     1
 90
       50
176
     1
 90
        3
176
     1
 62
     5
420
      255
176
     1
290
     0
176
     1
 90
       50
176
     1
 90
       50
176
     1
 90
       50
176
     1
290
     0
176
     1
 90
       50
176
     1
 62
   256
176
     0
 40
1.0
176
     0
 90
        2
176
     1
  1
strokes_ogs.tif
176
     1
290
     0
176
     1
 40
1.0
176
     1
 40
1.0
176
     1
  0
VISUALSTYLE
  5
1AF5B
102
{ACAD_REACTORS
330
1990C
102
}
330
1990C
100
AcDbVisualStyle
  2
3D Hidden
 70
     6
177
     3
291
     0
 70
    58
 90
        1
176
     1
 90
        2
176
     1
 90
        2
176
     1
 90
        0
176
     1
 40
0.6
176
     1
 40
30.0
176
     1
 62
     7
420
 16777215
176
     1
 90
        2
176
     1
 90
        2
176
     1
 62
     7
176
     1
 62
   257
176
     1
 90
        2
176
     1
 90
        1
176
     1
 40
179.0
176
     1
 90
        0
176
     1
 62
   257
176
     1
 40
1.0
176
     1
 90
        1
176
     1
 90
        6
176
     1
 90
        2
176
     1
 62
     7
176
     1
 90
        3
176
     1
 90
        0
176
     1
 90
        0
176
     1
290
     0
176
     1
 90
        1
176
     1
 40
0.0
176
     1
 90
        0
176
     1
290
     0
176
     1
290
     1
176
     1
290
     1
176
     1
290
     0
176
     1
290
     0
176
     1
290
     0
176
     1
290
     0
176
     1
290
     0
176
     1
290
     0
176
     1
 90
       50
176
     1
 40
0.0
176
     1
 40
1.0
176
     1
 90
        0
176
     1
 62
    18
420
        0
176
     1
 90
       50
176
     1
 90
        3
176
     1
 62
     5
420
      255
176
     1
290
     0
176
     1
 90
       50
176
     1
 90
       50
176
     1
 90
       50
176
     1
290
     0
176
     1
 90
       50
176
     1
 62
   256
176
     0
 40
1.0
176
     0
 90
        2
176
     1
  1
strokes_ogs.tif
176
     1
290
     0
176
     1
 40
1.0
176
     1
 40
1.0
176
     1
  0
VISUALSTYLE
  5
1AF5A
102
{ACAD_REACTORS
330
1990C
102
}
330
1990C
100
AcDbVisualStyle
  2
3dWireframe
 70
     5
177
     3
291
     0
 70
    58
 90
        0
176
     1
 90
        2
176
     1
 90
        0
176
     1
 90
        0
176
     1
 40
0.6
176
     1
 40
30.0
176
     1
 62
     7
420
 16777215
176
     1
 90
        1
176
     1
 90
        4
176
     1
 62
     7
176
     1
 62
   257
176
     1
 90
        1
176
     1
 90
        1
176
     1
 40
1.0
176
     1
 90
        0
176
     1
 62
   257
176
     1
 40
1.0
176
     1
 90
        1
176
     1
 90
        6
176
     1
 90
        2
176
     1
 62
     7
176
     1
 90
        5
176
     1
 90
        0
176
     1
 90
        0
176
     1
290
     0
176
     1
 90
        1
176
     1
 40
0.0
176
     1
 90
        0
176
     1
290
     0
176
     1
290
     1
176
     1
290
     1
176
     1
290
     0
176
     1
290
     0
176
     1
290
     0
176
     1
290
     0
176
     1
290
     0
176
     1
290
     0
176
     1
 90
       50
176
     1
 40
0.0
176
     1
 40
1.0
176
     1
 90
        0
176
     1
 62
    18
420
        0
176
     1
 90
       50
176
     1
 90
        3
176
     1
 62
     5
420
      255
176
     1
290
     0
176
     1
 90
       50
176
     1
 90
       50
176
     1
 90
       50
176
     1
290
     0
176
     1
 90
       50
176
     1
 62
   256
176
     0
 40
1.0
176
     0
 90
        2
176
     1
  1
strokes_ogs.tif
176
     1
290
     0
176
     1
 40
1.0
176
     1
 40
1.0
176
     1
  0
VISUALSTYLE
  5
19911
102
{ACAD_REACTORS
330
1990C
102
}
330
1990C
100
AcDbVisualStyle
  2
Basic
 70
     7
177
     3
291
     1
 70
    58
 90
        1
176
     1
 90
        0
176
     1
 90
        1
176
     1
 90
        0
176
     1
 40
0.6
176
     1
 40
30.0
176
     1
 62
     7
176
     1
 90
        0
176
     1
 90
        4
176
     1
 62
     7
176
     1
 62
   257
176
     1
 90
        1
176
     1
 90
        1
176
     1
 40
1.0
176
     1
 90
        8
176
     1
 62
     7
176
     1
 40
1.0
176
     1
 90
        1
176
     1
 90
        6
176
     1
 90
        2
176
     1
 62
     7
176
     1
 90
        5
176
     1
 90
        0
176
     1
 90
        0
176
     1
290
     0
176
     1
 90
        1
176
     1
 40
0.0
176
     1
 90
        0
176
     1
290
     0
176
     1
290
     1
176
     1
290
     1
176
     1
290
     0
176
     1
290
     0
176
     1
290
     0
176
     1
290
     0
176
     1
290
     0
176
     1
290
     0
176
     1
 90
       50
176
     1
 40
0.0
176
     1
 40
1.0
176
     1
 90
        0
176
     1
 62
    18
420
        0
176
     1
 90
       50
176
     1
 90
        3
176
     1
 62
     5
420
      255
176
     1
290
     0
176
     1
 90
       50
176
     1
 90
       50
176
     1
 90
       50
176
     1
290
     0
176
     1
 90
       50
176
     1
 62
   256
176
     0
 40
1.0
176
     0
 90
        2
176
     1
  1
strokes_ogs.tif
176
     1
290
     0
176
     1
 40
1.0
176
     1
 40
1.0
176
     1
  0
VISUALSTYLE
  5
19918
102
{ACAD_REACTORS
330
1990C
102
}
330
1990C
100
AcDbVisualStyle
  2
Brighten
 70
    12
177
     3
291
     1
 70
    58
 90
        2
176
     1
 90
        2
176
     1
 90
        0
176
     1
 90
        0
176
     1
 40
0.6
176
     1
 40
30.0
176
     1
 62
     7
176
     1
 90
        1
176
     1
 90
        4
176
     1
 62
     7
176
     1
 62
   257
176
     1
 90
        1
176
     1
 90
        1
176
     1
 40
1.0
176
     1
 90
        8
176
     1
 62
     7
176
     1
 40
1.0
176
     1
 90
        1
176
     1
 90
        6
176
     1
 90
        2
176
     1
 62
     7
176
     1
 90
        5
176
     1
 90
        0
176
     1
 90
        0
176
     1
290
     0
176
     1
 90
        1
176
     1
 40
50.0
176
     1
 90
        0
176
     1
290
     0
176
     1
290
     1
176
     1
290
     1
176
     1
290
     0
176
     1
290
     0
176
     1
290
     0
176
     1
290
     0
176
     1
290
     0
176
     1
290
     0
176
     1
 90
       50
176
     1
 40
0.0
176
     1
 40
1.0
176
     1
 90
        0
176
     1
 62
    18
420
        0
176
     1
 90
       50
176
     1
 90
        3
176
     1
 62
     5
420
      255
176
     1
290
     0
176
     1
 90
       50
176
     1
 90
       50
176
     1
 90
       50
176
     1
290
     0
176
     1
 90
       50
176
     1
 62
   256
176
     0
 40
1.0
176
     0
 90
        2
176
     1
  1
strokes_ogs.tif
176
     1
290
     0
176
     1
 40
1.0
176
     1
 40
1.0
176
     1
  0
VISUALSTYLE
  5
1991C
102
{ACAD_REACTORS
330
1990C
102
}
330
1990C
100
AcDbVisualStyle
  2
ColorChange
 70
    16
177
     3
291
     1
 70
    58
 90
        2
176
     1
 90
        2
176
     1
 90
        3
176
     1
 90
        0
176
     1
 40
0.6
176
     1
 40
30.0
176
     1
 62
     8
176
     1
 90
        1
176
     1
 90
        4
176
     1
 62
     7
176
     1
 62
   257
176
     1
 90
        1
176
     1
 90
        1
176
     1
 40
1.0
176
     1
 90
        8
176
     1
 62
     8
176
     1
 40
1.0
176
     1
 90
        1
176
     1
 90
        6
176
     1
 90
        2
176
     1
 62
     7
176
     1
 90
        5
176
     1
 90
        0
176
     1
 90
        0
176
     1
290
     0
176
     1
 90
        1
176
     1
 40
0.0
176
     1
 90
        0
176
     1
290
     0
176
     1
290
     1
176
     1
290
     1
176
     1
290
     0
176
     1
290
     0
176
     1
290
     0
176
     1
290
     0
176
     1
290
     0
176
     1
290
     0
176
     1
 90
       50
176
     1
 40
0.0
176
     1
 40
1.0
176
     1
 90
        0
176
     1
 62
    18
420
        0
176
     1
 90
       50
176
     1
 90
        3
176
     1
 62
     5
420
      255
176
     1
290
     0
176
     1
 90
       50
176
     1
 90
       50
176
     1
 90
       50
176
     1
290
     0
176
     1
 90
       50
176
     1
 62
   256
176
     0
 40
1.0
176
     0
 90
        2
176
     1
  1
strokes_ogs.tif
176
     1
290
     0
176
     1
 40
1.0
176
     1
 40
1.0
176
     1
  0
VISUALSTYLE
  5
19915
102
{ACAD_REACTORS
330
1990C
102
}
330
1990C
100
AcDbVisualStyle
  2
Conceptual
 70
     9
177
     3
291
     0
 70
    58
 90
        3
176
     1
 90
        2
176
     1
 90
        0
176
     1
 90
        0
176
     1
 40
0.6
176
     1
 40
30.0
176
     1
 62
     7
176
     1
 90
        2
176
     1
 90
        2
176
     1
 62
     7
176
     1
 62
   257
176
     1
 90
        1
176
     1
 90
        1
176
     1
 40
179.0
176
     1
 90
        8
176
     1
 62
     7
176
     1
 40
1.0
176
     1
 90
        1
176
     1
 90
        6
176
     1
 90
        2
176
     1
 62
     7
176
     1
 90
        3
176
     1
 90
        0
176
     1
 90
        0
176
     1
290
     0
176
     1
 90
        1
176
     1
 40
0.0
176
     1
 90
        0
176
     1
290
     0
176
     1
290
     1
176
     1
290
     1
176
     1
290
     0
176
     1
290
     0
176
     1
290
     0
176
     1
290
     0
176
     1
290
     0
176
     1
290
     0
176
     1
 90
       50
176
     1
 40
0.0
176
     1
 40
1.0
176
     1
 90
        0
176
     1
 62
    18
420
        0
176
     1
 90
       50
176
     1
 90
        3
176
     1
 62
     5
420
      255
176
     1
290
     0
176
     1
 90
       50
176
     1
 90
       50
176
     1
 90
       50
176
     1
290
     0
176
     1
 90
       50
176
     1
 62
   256
176
     0
 40
1.0
176
     0
 90
        2
176
     1
  1
strokes_ogs.tif
176
     1
290
     0
176
     1
 40
1.0
176
     1
 40
1.0
176
     1
  0
VISUALSTYLE
  5
19917
102
{ACAD_REACTORS
330
1990C
102
}
330
1990C
100
AcDbVisualStyle
  2
Dim
 70
    11
177
     3
291
     1
 70
    58
 90
        2
176
     1
 90
        2
176
     1
 90
        0
176
     1
 90
        0
176
     1
 40
0.6
176
     1
 40
30.0
176
     1
 62
     7
176
     1
 90
        1
176
     1
 90
        4
176
     1
 62
     7
176
     1
 62
   257
176
     1
 90
        1
176
     1
 90
        1
176
     1
 40
1.0
176
     1
 90
        8
176
     1
 62
     7
176
     1
 40
1.0
176
     1
 90
        1
176
     1
 90
        6
176
     1
 90
        2
176
     1
 62
     7
176
     1
 90
        5
176
     1
 90
        0
176
     1
 90
        0
176
     1
290
     0
176
     1
 90
        1
176
     1
 40
-50.0
176
     1
 90
        0
176
     1
290
     0
176
     1
290
     1
176
     1
290
     1
176
     1
290
     0
176
     1
290
     0
176
     1
290
     0
176
     1
290
     0
176
     1
290
     0
176
     1
290
     0
176
     1
 90
       50
176
     1
 40
0.0
176
     1
 40
1.0
176
     1
 90
        0
176
     1
 62
    18
420
        0
176
     1
 90
       50
176
     1
 90
        3
176
     1
 62
     5
420
      255
176
     1
290
     0
176
     1
 90
       50
176
     1
 90
       50
176
     1
 90
       50
176
     1
290
     0
176
     1
 90
       50
176
     1
 62
   256
176
     0
 40
1.0
176
     0
 90
        2
176
     1
  1
strokes_ogs.tif
176
     1
290
     0
176
     1
 40
1.0
176
     1
 40
1.0
176
     1
  0
VISUALSTYLE
  5
19924
102
{ACAD_REACTORS
330
1990C
102
}
330
1990C
100
AcDbVisualStyle
  2
EdgeColorOff
 70
    22
177
     3
291
     1
 70
    58
 90
        2
176
     0
 90
        2
176
     0
 90
        0
176
     0
 90
        0
176
     0
 40
0.6
176
     0
 40
30.0
176
     0
 62
     7
176
     0
 90
        1
176
     0
 90
        4
176
     0
 62
     7
176
     0
 62
   257
176
     0
 90
        1
176
     0
 90
        1
176
     0
 40
1.0
176
     0
 90
        8
176
     2
 62
     7
176
     0
 40
1.0
176
     0
 90
        1
176
     0
 90
        6
176
     0
 90
        2
176
     0
 62
     7
176
     0
 90
        5
176
     0
 90
        0
176
     0
 90
        0
176
     0
290
     0
176
     0
 90
        1
176
     0
 40
0.0
176
     0
 90
        0
176
     0
290
     0
176
     0
290
     1
176
     0
290
     1
176
     0
290
     0
176
     0
290
     0
176
     0
290
     0
176
     1
290
     0
176
     1
290
     0
176
     1
290
     0
176
     1
 90
       50
176
     1
 40
0.0
176
     1
 40
1.0
176
     1
 90
        0
176
     1
 62
    18
420
        0
176
     1
 90
       50
176
     1
 90
        3
176
     1
 62
     5
420
      255
176
     1
290
     0
176
     1
 90
       50
176
     1
 90
       50
176
     1
 90
       50
176
     1
290
     0
176
     1
 90
       50
176
     1
 62
   256
176
     0
 40
1.0
176
     0
 90
        2
176
     1
  1
strokes_ogs.tif
176
     1
290
     0
176
     1
 40
1.0
176
     1
 40
1.0
176
     1
  0
VISUALSTYLE
  5
1991B
102
{ACAD_REACTORS
330
1990C
102
}
330
1990C
100
AcDbVisualStyle
  2
Facepattern
 70
    15
177
     3
291
     1
 70
    58
 90
        2
176
     1
 90
        2
176
     1
 90
        0
176
     1
 90
        0
176
     1
 40
0.6
176
     1
 40
30.0
176
     1
 62
     7
176
     1
 90
        1
176
     1
 90
        4
176
     1
 62
     7
176
     1
 62
   257
176
     1
 90
        1
176
     1
 90
        1
176
     1
 40
1.0
176
     1
 90
        8
176
     1
 62
     7
176
     1
 40
1.0
176
     1
 90
        1
176
     1
 90
        6
176
     1
 90
        2
176
     1
 62
     7
176
     1
 90
        5
176
     1
 90
        0
176
     1
 90
        0
176
     1
290
     0
176
     1
 90
        1
176
     1
 40
0.0
176
     1
 90
        0
176
     1
290
     0
176
     1
290
     1
176
     1
290
     1
176
     1
290
     0
176
     1
290
     0
176
     1
290
     0
176
     1
290
     0
176
     1
290
     0
176
     1
290
     0
176
     1
 90
       50
176
     1
 40
0.0
176
     1
 40
1.0
176
     1
 90
        0
176
     1
 62
    18
420
        0
176
     1
 90
       50
176
     1
 90
        3
176
     1
 62
     5
420
      255
176
     1
290
     0
176
     1
 90
       50
176
     1
 90
       50
176
     1
 90
       50
176
     1
290
     0
176
     1
 90
       50
176
     1
 62
   256
176
     0
 40
1.0
176
     0
 90
        2
176
     1
  1
strokes_ogs.tif
176
     1
290
     0
176
     1
 40
1.0
176
     1
 40
1.0
176
     1
  0
VISUALSTYLE
  5
1990D
102
{ACAD_REACTORS
330
1990C
102
}
330
1990C
100
AcDbVisualStyle
  2
Flat
 70
     0
177
     3
291
     1
 70
    58
 90
        2
176
     1
 90
        1
176
     1
 90
        1
176
     1
 90
        2
176
     1
 40
0.6
176
     1
 40
30.0
176
     1
 62
     7
176
     1
 90
        0
176
     1
 90
        0
176
     1
 62
     7
176
     1
 62
   257
176
     1
 90
        1
176
     1
 90
        1
176
     1
 40
1.0
176
     1
 90
        8
176
     1
 62
     7
176
     1
 40
1.0
176
     1
 90
        1
176
     1
 90
        6
176
     1
 90
        2
176
     1
 62
     7
176
     1
 90
        5
176
     1
 90
        0
176
     1
 90
        0
176
     1
290
     0
176
     1
 90
       13
176
     1
 40
0.0
176
     1
 90
        0
176
     1
290
     0
176
     1
290
     1
176
     1
290
     1
176
     1
290
     0
176
     1
290
     0
176
     1
290
     0
176
     1
290
     0
176
     1
290
     0
176
     1
290
     0
176
     1
 90
       50
176
     1
 40
0.0
176
     1
 40
1.0
176
     1
 90
        0
176
     1
 62
    18
420
        0
176
     1
 90
       50
176
     1
 90
        3
176
     1
 62
     5
420
      255
176
     1
290
     0
176
     1
 90
       50
176
     1
 90
       50
176
     1
 90
       50
176
     1
290
     0
176
     1
 90
       50
176
     1
 62
   256
176
     0
 40
1.0
176
     0
 90
        2
176
     1
  1
strokes_ogs.tif
176
     1
290
     0
176
     1
 40
1.0
176
     1
 40
1.0
176
     1
  0
VISUALSTYLE
  5
1990E
102
{ACAD_REACTORS
330
1990C
102
}
330
1990C
100
AcDbVisualStyle
  2
FlatWithEdges
 70
     1
177
     3
291
     1
 70
    58
 90
        2
176
     1
 90
        1
176
     1
 90
        1
176
     1
 90
        2
176
     1
 40
0.6
176
     1
 40
30.0
176
     1
 62
     7
176
     1
 90
        1
176
     1
 90
        0
176
     1
 62
     7
176
     1
 62
   257
176
     1
 90
        1
176
     1
 90
        1
176
     1
 40
1.0
176
     1
 90
        0
176
     1
 62
   257
176
     1
 40
1.0
176
     1
 90
        1
176
     1
 90
        6
176
     1
 90
        2
176
     1
 62
     7
176
     1
 90
        5
176
     1
 90
        0
176
     1
 90
        0
176
     1
290
     0
176
     1
 90
       13
176
     1
 40
0.0
176
     1
 90
        0
176
     1
290
     0
176
     1
290
     1
176
     1
290
     1
176
     1
290
     0
176
     1
290
     0
176
     1
290
     0
176
     1
290
     0
176
     1
290
     0
176
     1
290
     0
176
     1
 90
       50
176
     1
 40
0.0
176
     1
 40
1.0
176
     1
 90
        0
176
     1
 62
    18
420
        0
176
     1
 90
       50
176
     1
 90
        3
176
     1
 62
     5
420
      255
176
     1
290
     0
176
     1
 90
       50
176
     1
 90
       50
176
     1
 90
       50
176
     1
290
     0
176
     1
 90
       50
176
     1
 62
   256
176
     0
 40
1.0
176
     0
 90
        2
176
     1
  1
strokes_ogs.tif
176
     1
290
     0
176
     1
 40
1.0
176
     1
 40
1.0
176
     1
  0
VISUALSTYLE
  5
1990F
102
{ACAD_REACTORS
330
1990C
102
}
330
1990C
100
AcDbVisualStyle
  2
Gouraud
 70
     2
177
     3
291
     1
 70
    58
 90
        2
176
     1
 90
        2
176
     1
 90
        1
176
     1
 90
        2
176
     1
 40
0.6
176
     1
 40
30.0
176
     1
 62
     7
176
     1
 90
        0
176
     1
 90
        0
176
     1
 62
     7
176
     1
 62
   257
176
     1
 90
        1
176
     1
 90
        1
176
     1
 40
1.0
176
     1
 90
        0
176
     1
 62
     7
176
     1
 40
1.0
176
     1
 90
        1
176
     1
 90
        6
176
     1
 90
        2
176
     1
 62
     7
176
     1
 90
        5
176
     1
 90
        0
176
     1
 90
        0
176
     1
290
     0
176
     1
 90
       13
176
     1
 40
0.0
176
     1
 90
        0
176
     1
290
     0
176
     1
290
     1
176
     1
290
     1
176
     1
290
     0
176
     1
290
     0
176
     1
290
     0
176
     1
290
     0
176
     1
290
     0
176
     1
290
     0
176
     1
 90
       50
176
     1
 40
0.0
176
     1
 40
1.0
176
     1
 90
        0
176
     1
 62
    18
420
        0
176
     1
 90
       50
176
     1
 90
        3
176
     1
 62
     5
420
      255
176
     1
290
     0
176
     1
 90
       50
176
     1
 90
       50
176
     1
 90
       50
176
     1
290
     0
176
     1
 90
       50
176
     1
 62
   256
176
     0
 40
1.0
176
     0
 90
        2
176
     1
  1
strokes_ogs.tif
176
     1
290
     0
176
     1
 40
1.0
176
     1
 40
1.0
176
     1
  0
VISUALSTYLE
  5
19910
102
{ACAD_REACTORS
330
1990C
102
}
330
1990C
100
AcDbVisualStyle
  2
GouraudWithEdges
 70
     3
177
     3
291
     1
 70
    58
 90
        2
176
     1
 90
        2
176
     1
 90
        1
176
     1
 90
        2
176
     1
 40
0.6
176
     1
 40
30.0
176
     1
 62
     7
176
     1
 90
        1
176
     1
 90
        0
176
     1
 62
     7
176
     1
 62
   257
176
     1
 90
        1
176
     1
 90
        1
176
     1
 40
1.0
176
     1
 90
        0
176
     1
 62
   257
176
     1
 40
1.0
176
     1
 90
        1
176
     1
 90
        6
176
     1
 90
        2
176
     1
 62
     7
176
     1
 90
        5
176
     1
 90
        0
176
     1
 90
        0
176
     1
290
     0
176
     1
 90
       13
176
     1
 40
0.0
176
     1
 90
        0
176
     1
290
     0
176
     1
290
     1
176
     1
290
     1
176
     1
290
     0
176
     1
290
     0
176
     1
290
     0
176
     1
290
     0
176
     1
290
     0
176
     1
290
     0
176
     1
 90
       50
176
     1
 40
0.0
176
     1
 40
1.0
176
     1
 90
        0
176
     1
 62
    18
420
        0
176
     1
 90
       50
176
     1
 90
        3
176
     1
 62
     5
420
      255
176
     1
290
     0
176
     1
 90
       50
176
     1
 90
       50
176
     1
 90
       50
176
     1
290
     0
176
     1
 90
       50
176
     1
 62
   256
176
     0
 40
1.0
176
     0
 90
        2
176
     1
  1
strokes_ogs.tif
176
     1
290
     0
176
     1
 40
1.0
176
     1
 40
1.0
176
     1
  0
VISUALSTYLE
  5
19914
102
{ACAD_REACTORS
330
1990C
102
}
330
1990C
100
AcDbVisualStyle
  2
Hidden
 70
     6
177
     3
291
     0
 70
    58
 90
        1
176
     1
 90
        2
176
     1
 90
        2
176
     1
 90
        0
176
     1
 40
0.6
176
     1
 40
30.0
176
     1
 62
     7
176
     1
 90
        2
176
     1
 90
        2
176
     1
 62
     7
176
     1
 62
   257
176
     1
 90
        2
176
     1
 90
        1
176
     1
 40
40.0
176
     1
 90
        0
176
     1
 62
   257
176
     1
 40
1.0
176
     1
 90
        1
176
     1
 90
        6
176
     1
 90
        2
176
     1
 62
     7
176
     1
 90
        3
176
     1
 90
        0
176
     1
 90
        0
176
     1
290
     0
176
     1
 90
        1
176
     1
 40
0.0
176
     1
 90
        0
176
     1
290
     0
176
     1
290
     1
176
     1
290
     1
176
     1
290
     0
176
     1
290
     0
176
     1
290
     0
176
     1
290
     0
176
     1
290
     0
176
     1
290
     0
176
     1
 90
       50
176
     1
 40
0.0
176
     1
 40
1.0
176
     1
 90
        0
176
     1
 62
    18
420
        0
176
     1
 90
       50
176
     1
 90
        3
176
     1
 62
     5
420
      255
176
     1
290
     0
176
     1
 90
       50
176
     1
 90
       50
176
     1
 90
       50
176
     1
290
     0
176
     1
 90
       50
176
     1
 62
   256
176
     0
 40
1.0
176
     0
 90
        2
176
     1
  1
strokes_ogs.tif
176
     1
290
     0
176
     1
 40
1.0
176
     1
 40
1.0
176
     1
  0
VISUALSTYLE
  5
19922
102
{ACAD_REACTORS
330
1990C
102
}
330
1990C
100
AcDbVisualStyle
  2
JitterOff
 70
    20
177
     3
291
     1
 70
    58
 90
        2
176
     0
 90
        2
176
     0
 90
        0
176
     0
 90
        0
176
     0
 40
0.6
176
     0
 40
30.0
176
     0
 62
     7
176
     0
 90
        1
176
     0
 90
        4
176
     0
 62
     7
176
     0
 62
   257
176
     0
 90
        1
176
     0
 90
        1
176
     0
 40
1.0
176
     0
 90
       10
176
     2
 62
     7
176
     0
 40
1.0
176
     0
 90
        1
176
     0
 90
        6
176
     0
 90
        2
176
     0
 62
     7
176
     0
 90
        5
176
     0
 90
        0
176
     0
 90
        0
176
     0
290
     0
176
     0
 90
        1
176
     0
 40
0.0
176
     0
 90
        0
176
     0
290
     0
176
     0
290
     1
176
     0
290
     1
176
     0
290
     0
176
     0
290
     0
176
     0
290
     0
176
     1
290
     0
176
     1
290
     0
176
     1
290
     0
176
     1
 90
       50
176
     1
 40
0.0
176
     1
 40
1.0
176
     1
 90
        0
176
     1
 62
    18
420
        0
176
     1
 90
       50
176
     1
 90
        3
176
     1
 62
     5
420
      255
176
     1
290
     0
176
     1
 90
       50
176
     1
 90
       50
176
     1
 90
       50
176
     1
290
     0
176
     1
 90
       50
176
     1
 62
   256
176
     0
 40
1.0
176
     0
 90
        2
176
     1
  1
strokes_ogs.tif
176
     1
290
     0
176
     1
 40
1.0
176
     1
 40
1.0
176
     1
  0
VISUALSTYLE
  5
1991A
102
{ACAD_REACTORS
330
1990C
102
}
330
1990C
100
AcDbVisualStyle
  2
Linepattern
 70
    14
177
     3
291
     1
 70
    58
 90
        2
176
     1
 90
        2
176
     1
 90
        0
176
     1
 90
        0
176
     1
 40
0.6
176
     1
 40
30.0
176
     1
 62
     7
176
     1
 90
        1
176
     1
 90
        4
176
     1
 62
     7
176
     1
 62
   257
176
     1
 90
        7
176
     1
 90
        7
176
     1
 40
1.0
176
     1
 90
        8
176
     1
 62
     7
176
     1
 40
1.0
176
     1
 90
        1
176
     1
 90
        6
176
     1
 90
        2
176
     1
 62
     7
176
     1
 90
        5
176
     1
 90
        0
176
     1
 90
        0
176
     1
290
     0
176
     1
 90
        1
176
     1
 40
0.0
176
     1
 90
        0
176
     1
290
     0
176
     1
290
     1
176
     1
290
     1
176
     1
290
     0
176
     1
290
     0
176
     1
290
     0
176
     1
290
     0
176
     1
290
     0
176
     1
290
     0
176
     1
 90
       50
176
     1
 40
0.0
176
     1
 40
1.0
176
     1
 90
        0
176
     1
 62
    18
420
        0
176
     1
 90
       50
176
     1
 90
        3
176
     1
 62
     5
420
      255
176
     1
290
     0
176
     1
 90
       50
176
     1
 90
       50
176
     1
 90
       50
176
     1
290
     0
176
     1
 90
       50
176
     1
 62
   256
176
     0
 40
1.0
176
     0
 90
        2
176
     1
  1
strokes_ogs.tif
176
     1
290
     0
176
     1
 40
1.0
176
     1
 40
1.0
176
     1
  0
VISUALSTYLE
  5
19923
102
{ACAD_REACTORS
330
1990C
102
}
330
1990C
100
AcDbVisualStyle
  2
OverhangOff
 70
    21
177
     3
291
     1
 70
    58
 90
        2
176
     0
 90
        2
176
     0
 90
        0
176
     0
 90
        0
176
     0
 40
0.6
176
     0
 40
30.0
176
     0
 62
     7
176
     0
 90
        1
176
     0
 90
        4
176
     0
 62
     7
176
     0
 62
   257
176
     0
 90
        1
176
     0
 90
        1
176
     0
 40
1.0
176
     0
 90
        9
176
     2
 62
     7
176
     0
 40
1.0
176
     0
 90
        1
176
     0
 90
        6
176
     0
 90
        2
176
     0
 62
     7
176
     0
 90
        5
176
     0
 90
        0
176
     0
 90
        0
176
     0
290
     0
176
     0
 90
        1
176
     0
 40
0.0
176
     0
 90
        0
176
     0
290
     0
176
     0
290
     1
176
     0
290
     1
176
     0
290
     0
176
     0
290
     0
176
     0
290
     0
176
     1
290
     0
176
     1
290
     0
176
     1
290
     0
176
     1
 90
       50
176
     1
 40
0.0
176
     1
 40
1.0
176
     1
 90
        0
176
     1
 62
    18
420
        0
176
     1
 90
       50
176
     1
 90
        3
176
     1
 62
     5
420
      255
176
     1
290
     0
176
     1
 90
       50
176
     1
 90
       50
176
     1
 90
       50
176
     1
290
     0
176
     1
 90
       50
176
     1
 62
   256
176
     0
 40
1.0
176
     0
 90
        2
176
     1
  1
strokes_ogs.tif
176
     1
290
     0
176
     1
 40
1.0
176
     1
 40
1.0
176
     1
  0
VISUALSTYLE
  5
19916
102
{ACAD_REACTORS
330
1990C
102
}
330
1990C
100
AcDbVisualStyle
  2
Realistic
 70
     8
177
     3
291
     0
 70
    58
 90
        2
176
     1
 90
        2
176
     1
 90
        0
176
     1
 90
        2
176
     1
 40
0.6
176
     1
 40
30.0
176
     1
 62
     7
176
     1
 90
        0
176
     1
 90
        0
176
     1
 62
     7
176
     1
 62
   257
176
     1
 90
        1
176
     1
 90
        1
176
     1
 40
1.0
176
     1
 90
        8
176
     1
 62
   257
176
     1
 40
1.0
176
     1
 90
        1
176
     1
 90
        6
176
     1
 90
        2
176
     1
 62
     7
176
     1
 90
        3
176
     1
 90
        0
176
     1
 90
        0
176
     1
290
     0
176
     1
 90
       13
176
     1
 40
0.0
176
     1
 90
        0
176
     1
290
     0
176
     1
290
     1
176
     1
290
     1
176
     1
290
     0
176
     1
290
     0
176
     1
290
     0
176
     1
290
     0
176
     1
290
     0
176
     1
290
     0
176
     1
 90
       50
176
     1
 40
0.0
176
     1
 40
1.0
176
     1
 90
        0
176
     1
 62
    18
420
        0
176
     1
 90
       50
176
     1
 90
        3
176
     1
 62
     5
420
      255
176
     1
290
     0
176
     1
 90
       50
176
     1
 90
       50
176
     1
 90
       50
176
     1
290
     0
176
     1
 90
       50
176
     1
 62
   256
176
     0
 40
1.0
176
     0
 90
        2
176
     1
  1
strokes_ogs.tif
176
     1
290
     0
176
     1
 40
1.0
176
     1
 40
1.0
176
     1
  0
VISUALSTYLE
  5
19921
102
{ACAD_REACTORS
330
1990C
102
}
330
1990C
100
AcDbVisualStyle
  2
Shaded
 70
    27
177
     3
291
     0
 70
    58
 90
        2
176
     1
 90
        2
176
     1
 90
        1
176
     1
 90
        2
176
     1
 40
0.6
176
     1
 40
30.0
176
     1
 62
     7
176
     1
 90
        0
176
     1
 90
        4
176
     1
 62
     7
176
     1
 62
   257
176
     1
 90
        1
176
     1
 90
        1
176
     1
 40
1.0
176
     1
 90
        8
176
     1
 62
   257
176
     1
 40
1.0
176
     1
 90
        1
176
     1
 90
        6
176
     1
 90
        2
176
     1
 62
     8
176
     1
 90
        3
176
     1
 90
        0
176
     1
 90
        0
176
     1
290
     0
176
     1
 90
        5
176
     1
 40
0.0
176
     1
 90
        0
176
     1
290
     0
176
     1
290
     1
176
     1
290
     1
176
     1
290
     0
176
     1
290
     0
176
     1
290
     0
176
     1
290
     0
176
     1
290
     0
176
     1
290
     0
176
     1
 90
       50
176
     1
 40
0.0
176
     1
 40
1.0
176
     1
 90
        0
176
     1
 62
    18
420
        0
176
     1
 90
       50
176
     1
 90
        3
176
     1
 62
     5
420
      255
176
     1
290
     0
176
     1
 90
       50
176
     1
 90
       50
176
     1
 90
       50
176
     1
290
     0
176
     1
 90
       50
176
     1
 62
   256
176
     0
 40
1.0
176
     0
 90
        2
176
     1
  1
strokes_ogs.tif
176
     1
290
     0
176
     1
 40
1.0
176
     1
 40
1.0
176
     1
  0
VISUALSTYLE
  5
19920
102
{ACAD_REACTORS
330
1990C
102
}
330
1990C
100
AcDbVisualStyle
  2
Shaded with edges
 70
    26
177
     3
291
     0
 70
    58
 90
        2
176
     1
 90
        2
176
     1
 90
        1
176
     1
 90
        2
176
     1
 40
0.6
176
     1
 40
30.0
176
     1
 62
     7
176
     1
 90
        1
176
     1
 90
        2
176
     1
 62
     7
176
     1
 62
   257
176
     1
 90
        2
176
     1
 90
        1
176
     1
 40
1.0
176
     1
 90
        8
176
     1
 62
   257
176
     1
 40
1.0
176
     1
 90
        1
176
     1
 90
        6
176
     1
 90
        2
176
     1
 62
     7
176
     1
 90
        3
176
     1
 90
        0
176
     1
 90
        0
176
     1
290
     0
176
     1
 90
        5
176
     1
 40
0.0
176
     1
 90
        0
176
     1
290
     0
176
     1
290
     1
176
     1
290
     1
176
     1
290
     0
176
     1
290
     0
176
     1
290
     0
176
     1
290
     0
176
     1
290
     0
176
     1
290
     0
176
     1
 90
       50
176
     1
 40
0.0
176
     1
 40
1.0
176
     1
 90
        0
176
     1
 62
    18
420
        0
176
     1
 90
       50
176
     1
 90
        3
176
     1
 62
     5
420
      255
176
     1
290
     0
176
     1
 90
       50
176
     1
 90
       50
176
     1
 90
       50
176
     1
290
     0
176
     1
 90
       50
176
     1
 62
   256
176
     0
 40
1.0
176
     0
 90
        2
176
     1
  1
strokes_ogs.tif
176
     1
290
     0
176
     1
 40
1.0
176
     1
 40
1.0
176
     1
  0
VISUALSTYLE
  5
1991D
102
{ACAD_REACTORS
330
1990C
102
}
330
1990C
100
AcDbVisualStyle
  2
Shades of Gray
 70
    23
177
     3
291
     0
 70
    58
 90
        2
176
     1
 90
        2
176
     1
 90
        3
176
     1
 90
        0
176
     1
 40
0.6
176
     1
 40
30.0
176
     1
 62
     7
176
     1
 90
        2
176
     1
 90
        2
176
     1
 62
     7
176
     1
 62
     7
176
     1
 90
        1
176
     1
 90
        1
176
     1
 40
40.0
176
     1
 90
        8
176
     1
 62
     7
176
     1
 40
1.0
176
     1
 90
        1
176
     1
 90
        6
176
     1
 90
        2
176
     1
 62
     7
176
     1
 90
        3
176
     1
 90
        0
176
     1
 90
        0
176
     1
290
     0
176
     1
 90
        1
176
     1
 40
0.0
176
     1
 90
        0
176
     1
290
     0
176
     1
290
     1
176
     1
290
     1
176
     1
290
     0
176
     1
290
     0
176
     1
290
     0
176
     1
290
     0
176
     1
290
     0
176
     1
290
     0
176
     1
 90
       50
176
     1
 40
0.0
176
     1
 40
1.0
176
     1
 90
        0
176
     1
 62
    18
420
        0
176
     1
 90
       50
176
     1
 90
        3
176
     1
 62
     5
420
      255
176
     1
290
     0
176
     1
 90
       50
176
     1
 90
       50
176
     1
 90
       50
176
     1
290
     0
176
     1
 90
       50
176
     1
 62
   256
176
     0
 40
1.0
176
     0
 90
        2
176
     1
  1
strokes_ogs.tif
176
     1
290
     0
176
     1
 40
1.0
176
     1
 40
1.0
176
     1
  0
VISUALSTYLE
  5
1991E
102
{ACAD_REACTORS
330
1990C
102
}
330
1990C
100
AcDbVisualStyle
  2
Sketchy
 70
    24
177
     3
291
     0
 70
    58
 90
        1
176
     1
 90
        2
176
     1
 90
        2
176
     1
 90
        0
176
     1
 40
0.6
176
     1
 40
30.0
176
     1
 62
     7
176
     1
 90
        2
176
     1
 90
        2
176
     1
 62
     7
176
     1
 62
     7
176
     1
 90
        1
176
     1
 90
        1
176
     1
 40
40.0
176
     1
 90
       11
176
     1
 62
     7
176
     1
 40
1.0
176
     1
 90
        1
176
     1
 90
        6
176
     1
 90
        2
176
     1
 62
     7
176
     1
 90
        6
176
     1
 90
        0
176
     1
 90
        0
176
     1
290
     0
176
     1
 90
        1
176
     1
 40
0.0
176
     1
 90
        0
176
     1
290
     0
176
     1
290
     1
176
     1
290
     1
176
     1
290
     0
176
     1
290
     0
176
     1
290
     0
176
     1
290
     0
176
     1
290
     0
176
     1
290
     0
176
     1
 90
       50
176
     1
 40
0.0
176
     1
 40
1.0
176
     1
 90
        0
176
     1
 62
    18
420
        0
176
     1
 90
       50
176
     1
 90
        3
176
     1
 62
     5
420
      255
176
     1
290
     0
176
     1
 90
       50
176
     1
 90
       50
176
     1
 90
       50
176
     1
290
     0
176
     1
 90
       50
176
     1
 62
   256
176
     0
 40
1.0
176
     0
 90
        2
176
     1
  1
strokes_ogs.tif
176
     1
290
     0
176
     1
 40
1.0
176
     1
 40
1.0
176
     1
  0
VISUALSTYLE
  5
19919
102
{ACAD_REACTORS
330
1990C
102
}
330
1990C
100
AcDbVisualStyle
  2
Thicken
 70
    13
177
     3
291
     1
 70
    58
 90
        2
176
     1
 90
        2
176
     1
 90
        0
176
     1
 90
        0
176
     1
 40
0.6
176
     1
 40
30.0
176
     1
 62
     7
176
     1
 90
        1
176
     1
 90
        4
176
     1
 62
     7
176
     1
 62
   257
176
     1
 90
        1
176
     1
 90
        1
176
     1
 40
1.0
176
     1
 90
       12
176
     1
 62
     7
176
     1
 40
1.0
176
     1
 90
        1
176
     1
 90
        6
176
     1
 90
        2
176
     1
 62
     7
176
     1
 90
        5
176
     1
 90
        0
176
     1
 90
        0
176
     1
290
     0
176
     1
 90
        1
176
     1
 40
0.0
176
     1
 90
        0
176
     1
290
     0
176
     1
290
     1
176
     1
290
     1
176
     1
290
     0
176
     1
290
     0
176
     1
290
     0
176
     1
290
     0
176
     1
290
     0
176
     1
290
     0
176
     1
 90
       50
176
     1
 40
0.0
176
     1
 40
1.0
176
     1
 90
        0
176
     1
 62
    18
420
        0
176
     1
 90
       50
176
     1
 90
        3
176
     1
 62
     5
420
      255
176
     1
290
     0
176
     1
 90
       50
176
     1
 90
       50
176
     1
 90
       50
176
     1
290
     0
176
     1
 90
       50
176
     1
 62
   256
176
     0
 40
1.0
176
     0
 90
        2
176
     1
  1
strokes_ogs.tif
176
     1
290
     0
176
     1
 40
1.0
176
     1
 40
1.0
176
     1
  0
VISUALSTYLE
  5
19913
102
{ACAD_REACTORS
330
1990C
102
}
330
1990C
100
AcDbVisualStyle
  2
Wireframe
 70
     5
177
     3
291
     0
 70
    58
 90
        0
176
     1
 90
        2
176
     1
 90
        0
176
     1
 90
        0
176
     1
 40
0.6
176
     1
 40
30.0
176
     1
 62
     7
176
     1
 90
        1
176
     1
 90
        4
176
     1
 62
     7
176
     1
 62
   257
176
     1
 90
        1
176
     1
 90
        1
176
     1
 40
1.0
176
     1
 90
        0
176
     1
 62
   257
176
     1
 40
1.0
176
     1
 90
        1
176
     1
 90
        6
176
     1
 90
        2
176
     1
 62
     7
176
     1
 90
        3
176
     1
 90
        0
176
     1
 90
        0
176
     1
290
     0
176
     1
 90
        1
176
     1
 40
0.0
176
     1
 90
        0
176
     1
290
     0
176
     1
290
     1
176
     1
290
     1
176
     1
290
     0
176
     1
290
     0
176
     1
290
     0
176
     1
290
     0
176
     1
290
     0
176
     1
290
     0
176
     1
 90
       50
176
     1
 40
0.0
176
     1
 40
1.0
176
     1
 90
        0
176
     1
 62
    18
420
        0
176
     1
 90
       50
176
     1
 90
        3
176
     1
 62
     5
420
      255
176
     1
290
     0
176
     1
 90
       50
176
     1
 90
       50
176
     1
 90
       50
176
     1
290
     0
176
     1
 90
       50
176
     1
 62
   256
176
     0
 40
1.0
176
     0
 90
        2
176
     1
  1
strokes_ogs.tif
176
     1
290
     0
176
     1
 40
1.0
176
     1
 40
1.0
176
     1
  0
VISUALSTYLE
  5
1991F
102
{ACAD_REACTORS
330
1990C
102
}
330
1990C
100
AcDbVisualStyle
  2
X-Ray
 70
    25
177
     3
291
     0
 70
    58
 90
        2
176
     1
 90
        2
176
     1
 90
        1
176
     1
 90
        1
176
     1
 40
0.5
176
     1
 40
30.0
176
     1
 62
     7
176
     1
 90
        1
176
     1
 90
        0
176
     1
 62
     7
176
     1
 62
   257
176
     1
 90
        1
176
     1
 90
        1
176
     1
 40
1.0
176
     1
 90
        8
176
     1
 62
     7
176
     1
 40
1.0
176
     1
 90
        1
176
     1
 90
        6
176
     1
 90
        2
176
     1
 62
     7
176
     1
 90
        3
176
     1
 90
        0
176
     1
 90
        0
176
     1
290
     0
176
     1
 90
       13
176
     1
 40
0.0
176
     1
 90
        0
176
     1
290
     0
176
     1
290
     1
176
     1
290
     1
176
     1
290
     0
176
     1
290
     0
176
     1
290
     0
176
     1
290
     0
176
     1
290
     0
176
     1
290
     0
176
     1
 90
       50
176
     1
 40
0.0
176
     1
 40
1.0
176
     1
 90
        0
176
     1
 62
    18
420
        0
176
     1
 90
       50
176
     1
 90
        3
176
     1
 62
     5
420
      255
176
     1
290
     0
176
     1
 90
       50
176
     1
 90
       50
176
     1
 90
       50
176
     1
290
     0
176
     1
 90
       50
176
     1
 62
   256
176
     0
 40
1.0
176
     0
 90
        2
176
     1
  1
strokes_ogs.tif
176
     1
290
     0
176
     1
 40
1.0
176
     1
 40
1.0
176
     1
  0
DICTIONARYVAR
  5
19BD9
102
{ACAD_REACTORS
330
5E
102
}
330
5E
100
DictionaryVariables
280
     0
  1
1:1
  0
DICTIONARYVAR
  5
19BD8
102
{ACAD_REACTORS
330
5E
102
}
330
5E
100
DictionaryVariables
280
     0
  1
STANDARD
  0
DICTIONARYVAR
  5
A918
102
{ACAD_REACTORS
330
5E
102
}
330
5E
100
DictionaryVariables
280
     0
  1
STANDARD
  0
DICTIONARYVAR
  5
101B618
102
{ACAD_REACTORS
330
5E
102
}
330
5E
100
DictionaryVariables
280
     0
  1
Metric50
  0
DICTIONARYVAR
  5
101B619
102
{ACAD_REACTORS
330
5E
102
}
330
5E
100
DictionaryVariables
280
     0
  1
Metric50
  0
DICTIONARYVAR
  5
5F
102
{ACAD_REACTORS
330
5E
102
}
330
5E
100
DictionaryVariables
280
     0
  1
2
  0
DICTIONARYVAR
  5
63
102
{ACAD_REACTORS
330
5E
102
}
330
5E
100
DictionaryVariables
280
     0
  1
1
  0
DICTIONARYVAR
  5
19BDB
102
{ACAD_REACTORS
330
5E
102
}
330
5E
100
DictionaryVariables
280
     0
  1
0
  0
DICTIONARYVAR
  5
101B61C
102
{ACAD_REACTORS
330
5E
102
}
330
5E
100
DictionaryVariables
280
     0
  1
1
  0
DICTIONARYVAR
  5
101B61D
102
{ACAD_REACTORS
330
5E
102
}
330
5E
100
DictionaryVariables
280
     0
  1
15
  0
DICTIONARYVAR
  5
101B61B
102
{ACAD_REACTORS
330
5E
102
}
330
5E
100
DictionaryVariables
280
     0
  1
0
  0
DICTIONARYVAR
  5
101B61A
102
{ACAD_REACTORS
330
5E
102
}
330
5E
100
DictionaryVariables
280
     0
  1
0
  0
DICTIONARYVAR
  5
F29
102
{ACAD_REACTORS
330
5E
102
}
330
5E
100
DictionaryVariables
280
     0
  1

  0
DICTIONARYVAR
  5
19BDA
102
{ACAD_REACTORS
330
5E
102
}
330
5E
100
DictionaryVariables
280
     0
  1
127
  0
XRECORD
  5
FAB1
102
{ACAD_REACTORS
330
FAB0
102
}
330
FAB0
100
AcDbXrecord
280
     1
330
0
  0
DICTIONARY
  5
101B642
330
101B5DD
100
AcDbDictionary
280
     1
281
     1
  3
ACAD_XREC_ROUNDTRIP
360
101B643
  0
DICTIONARY
  5
1AF6E
330
22
100
AcDbDictionary
280
     1
281
     1
  0
DICTIONARY
  5
198FD
330
198FC
100
AcDbDictionary
280
     1
281
     1
  3
BUMPTILE
360
198FF
  3
DIFFUSETILE
360
198FE
  3
OPACITYTILE
360
19902
  3
REFLECTIONTILE
360
19901
  3
REFRACTIONTILE
360
19903
  3
SPECULARTILE
360
19900
  0
DICTIONARY
  5
198F5
330
198F4
100
AcDbDictionary
280
     1
281
     1
  3
BUMPTILE
360
198F7
  3
DIFFUSETILE
360
198F6
  3
OPACITYTILE
360
198FA
  3
REFLECTIONTILE
360
198F9
  3
REFRACTIONTILE
360
198FB
  3
SPECULARTILE
360
198F8
  0
DICTIONARY
  5
19905
330
19904
100
AcDbDictionary
280
     1
281
     1
  3
BUMPTILE
360
19907
  3
DIFFUSETILE
360
19906
  3
OPACITYTILE
360
1990A
  3
REFLECTIONTILE
360
19909
  3
REFRACTIONTILE
360
1990B
  3
SPECULARTILE
360
19908
  0
DICTIONARY
  5
101B640
330
101B5DB
100
AcDbDictionary
280
     1
281
     1
  3
ACAD_XREC_ROUNDTRIP
360
101B641
  0
DICTIONARY
  5
19B8C
330
A1DD
100
AcDbDictionary
280
     1
281
     1
  3
ACAD_ROUNDTRIP_2008_TABLESTYLE_CELLSTYLEMAP
360
101B61E
  0
XRECORD
  5
101B643
102
{ACAD_REACTORS
330
101B642
102
}
330
101B642
100
AcDbXrecord
280
     1
102
DISPLAYNAME
  1
Metric50
102
FLAGS
 90
        0
  0
XRECORD
  5
198FF
102
{ACAD_REACTORS
330
198FD
102
}
330
198FD
100
AcDbXrecord
280
     1
270
     1
271
     1
  0
XRECORD
  5
198FE
102
{ACAD_REACTORS
330
198FD
102
}
330
198FD
100
AcDbXrecord
280
     1
270
     1
271
     1
  0
XRECORD
  5
19902
102
{ACAD_REACTORS
330
198FD
102
}
330
198FD
100
AcDbXrecord
280
     1
270
     1
271
     1
  0
XRECORD
  5
19901
102
{ACAD_REACTORS
330
198FD
102
}
330
198FD
100
AcDbXrecord
280
     1
270
     1
271
     1
  0
XRECORD
  5
19903
102
{ACAD_REACTORS
330
198FD
102
}
330
198FD
100
AcDbXrecord
280
     1
270
     1
271
     1
  0
XRECORD
  5
19900
102
{ACAD_REACTORS
330
198FD
102
}
330
198FD
100
AcDbXrecord
280
     1
270
     1
271
     1
  0
XRECORD
  5
198F7
102
{ACAD_REACTORS
330
198F5
102
}
330
198F5
100
AcDbXrecord
280
     1
270
     1
271
     1
  0
XRECORD
  5
198F6
102
{ACAD_REACTORS
330
198F5
102
}
330
198F5
100
AcDbXrecord
280
     1
270
     1
271
     1
  0
XRECORD
  5
198FA
102
{ACAD_REACTORS
330
198F5
102
}
330
198F5
100
AcDbXrecord
280
     1
270
     1
271
     1
  0
XRECORD
  5
198F9
102
{ACAD_REACTORS
330
198F5
102
}
330
198F5
100
AcDbXrecord
280
     1
270
     1
271
     1
  0
XRECORD
  5
198FB
102
{ACAD_REACTORS
330
198F5
102
}
330
198F5
100
AcDbXrecord
280
     1
270
     1
271
     1
  0
XRECORD
  5
198F8
102
{ACAD_REACTORS
330
198F5
102
}
330
198F5
100
AcDbXrecord
280
     1
270
     1
271
     1
  0
XRECORD
  5
19907
102
{ACAD_REACTORS
330
19905
102
}
330
19905
100
AcDbXrecord
280
     1
270
     1
271
     1
  0
XRECORD
  5
19906
102
{ACAD_REACTORS
330
19905
102
}
330
19905
100
AcDbXrecord
280
     1
270
     1
271
     1
  0
XRECORD
  5
1990A
102
{ACAD_REACTORS
330
19905
102
}
330
19905
100
AcDbXrecord
280
     1
270
     1
271
     1
  0
XRECORD
  5
19909
102
{ACAD_REACTORS
330
19905
102
}
330
19905
100
AcDbXrecord
280
     1
270
     1
271
     1
  0
XRECORD
  5
1990B
102
{ACAD_REACTORS
330
19905
102
}
330
19905
100
AcDbXrecord
280
     1
270
     1
271
     1
  0
XRECORD
  5
19908
102
{ACAD_REACTORS
330
19905
102
}
330
19905
100
AcDbXrecord
280
     1
270
     1
271
     1
  0
XRECORD
  5
101B641
102
{ACAD_REACTORS
330
101B640
102
}
330
101B640
100
AcDbXrecord
280
     1
102
DISPLAYNAME
  1
Metric50
102
FLAGS
 90
        0
  0
CELLSTYLEMAP
  5
101B61E
102
{ACAD_REACTORS
330
19B8C
102
}
330
19B8C
100
AcDbCellStyleMap
 90
        3
300
CELLSTYLE
  1
TABLEFORMAT_BEGIN
 90
        5
170
     1
 91
        0
 92
    32768
 62
   257
 93
        1
300
CONTENTFORMAT
  1
CONTENTFORMAT_BEGIN
 90
        0
 91
        0
 92
        4
 93
        0
300

 40
0.0
140
1.0
 94
        5
 62
     0
340
11
144
6.0
309
CONTENTFORMAT_END
171
     1
301
MARGIN
  1
CELLMARGIN_BEGIN
 40
1.5
 40
1.5
 40
1.5
 40
1.5
 40
0.18
 40
0.18
309
CELLMARGIN_END
 94
        6
 95
        1
302
GRIDFORMAT
  1
GRIDFORMAT_BEGIN
 90
        0
 91
        1
 62
     0
 92
       -2
340
0
 93
        0
 40
0.045
309
GRIDFORMAT_END
 95
        2
302
GRIDFORMAT
  1
GRIDFORMAT_BEGIN
 90
        0
 91
        1
 62
     0
 92
       -2
340
0
 93
        0
 40
0.045
309
GRIDFORMAT_END
 95
        4
302
GRIDFORMAT
  1
GRIDFORMAT_BEGIN
 90
        0
 91
        1
 62
     0
 92
       -2
340
0
 93
        0
 40
0.045
309
GRIDFORMAT_END
 95
        8
302
GRIDFORMAT
  1
GRIDFORMAT_BEGIN
 90
        0
 91
        1
 62
     0
 92
       -2
340
0
 93
        0
 40
0.045
309
GRIDFORMAT_END
 95
       16
302
GRIDFORMAT
  1
GRIDFORMAT_BEGIN
 90
        0
 91
        1
 62
     0
 92
       -2
340
0
 93
        0
 40
0.045
309
GRIDFORMAT_END
 95
       32
302
GRIDFORMAT
  1
GRIDFORMAT_BEGIN
 90
        0
 91
        1
 62
     0
 92
       -2
340
0
 93
        0
 40
0.045
309
GRIDFORMAT_END
309
TABLEFORMAT_END
  1
CELLSTYLE_BEGIN
 90
        1
 91
        1
300
_TITLE
309
CELLSTYLE_END
300
CELLSTYLE
  1
TABLEFORMAT_BEGIN
 90
        5
170
     1
 91
        0
 92
        0
 62
   257
 93
        1
300
CONTENTFORMAT
  1
CONTENTFORMAT_BEGIN
 90
        0
 91
        0
 92
        4
 93
        0
300

 40
0.0
140
1.0
 94
        5
 62
     0
340
11
144
4.5
309
CONTENTFORMAT_END
171
     1
301
MARGIN
  1
CELLMARGIN_BEGIN
 40
1.5
 40
1.5
 40
1.5
 40
1.5
 40
0.18
 40
0.18
309
CELLMARGIN_END
 94
        6
 95
        1
302
GRIDFORMAT
  1
GRIDFORMAT_BEGIN
 90
        0
 91
        1
 62
     0
 92
       -2
340
0
 93
        0
 40
0.045
309
GRIDFORMAT_END
 95
        2
302
GRIDFORMAT
  1
GRIDFORMAT_BEGIN
 90
        0
 91
        1
 62
     0
 92
       -2
340
0
 93
        0
 40
0.045
309
GRIDFORMAT_END
 95
        4
302
GRIDFORMAT
  1
GRIDFORMAT_BEGIN
 90
        0
 91
        1
 62
     0
 92
       -2
340
0
 93
        0
 40
0.045
309
GRIDFORMAT_END
 95
        8
302
GRIDFORMAT
  1
GRIDFORMAT_BEGIN
 90
        0
 91
        1
 62
     0
 92
       -2
340
0
 93
        0
 40
0.045
309
GRIDFORMAT_END
 95
       16
302
GRIDFORMAT
  1
GRIDFORMAT_BEGIN
 90
        0
 91
        1
 62
     0
 92
       -2
340
0
 93
        0
 40
0.045
309
GRIDFORMAT_END
 95
       32
302
GRIDFORMAT
  1
GRIDFORMAT_BEGIN
 90
        0
 91
        1
 62
     0
 92
       -2
340
0
 93
        0
 40
0.045
309
GRIDFORMAT_END
309
TABLEFORMAT_END
  1
CELLSTYLE_BEGIN
 90
        2
 91
        1
300
_HEADER
309
CELLSTYLE_END
300
CELLSTYLE
  1
TABLEFORMAT_BEGIN
 90
        5
170
     1
 91
        0
 92
        0
 62
   257
 93
        1
300
CONTENTFORMAT
  1
CONTENTFORMAT_BEGIN
 90
        0
 91
        0
 92
        4
 93
        0
300

 40
0.0
140
1.0
 94
        2
 62
     0
340
11
144
4.5
309
CONTENTFORMAT_END
171
     1
301
MARGIN
  1
CELLMARGIN_BEGIN
 40
1.5
 40
1.5
 40
1.5
 40
1.5
 40
0.18
 40
0.18
309
CELLMARGIN_END
 94
        6
 95
        1
302
GRIDFORMAT
  1
GRIDFORMAT_BEGIN
 90
        0
 91
        1
 62
     0
 92
       -2
340
0
 93
        0
 40
0.045
309
GRIDFORMAT_END
 95
        2
302
GRIDFORMAT
  1
GRIDFORMAT_BEGIN
 90
        0
 91
        1
 62
     0
 92
       -2
340
0
 93
        0
 40
0.045
309
GRIDFORMAT_END
 95
        4
302
GRIDFORMAT
  1
GRIDFORMAT_BEGIN
 90
        0
 91
        1
 62
     0
 92
       -2
340
0
 93
        0
 40
0.045
309
GRIDFORMAT_END
 95
        8
302
GRIDFORMAT
  1
GRIDFORMAT_BEGIN
 90
        0
 91
        1
 62
     0
 92
       -2
340
0
 93
        0
 40
0.045
309
GRIDFORMAT_END
 95
       16
302
GRIDFORMAT
  1
GRIDFORMAT_BEGIN
 90
        0
 91
        1
 62
     0
 92
       -2
340
0
 93
        0
 40
0.045
309
GRIDFORMAT_END
 95
       32
302
GRIDFORMAT
  1
GRIDFORMAT_BEGIN
 90
        0
 91
        1
 62
     0
 92
       -2
340
0
 93
        0
 40
0.045
309
GRIDFORMAT_END
309
TABLEFORMAT_END
  1
CELLSTYLE_BEGIN
 90
        3
 91
        2
300
_DATA
309
CELLSTYLE_END
  0
ENDSEC
  0
SECTION
  2
ACDSDATA
 70
     2
 71
     8
  0
ACDSSCHEMA
 90
        0
  1
AcDb_Thumbnail_Schema
  2
AcDbDs::ID
280
    10
 91
        8
  2
Thumbnail_Data
280
    15
 91
        0
101
ACDSRECORD
 95
        0
 90
        1
  2
AcDbDs::TreatedAsObjectData
280
     1
291
     1
101
ACDSRECORD
 95
        0
 90
        2
  2
AcDbDs::Legacy
280
     1
291
     1
101
ACDSRECORD
  1
AcDbDs::ID
 90
        3
  2
AcDs:Indexable
280
     1
291
     1
101
ACDSRECORD
  1
AcDbDs::ID
 90
        4
  2
AcDbDs::HandleAttribute
280
     7
282
     1
  0
ACDSSCHEMA
 90
        1
  1
AcDbDs::TreatedAsObjectDataSchema
  2
AcDbDs::TreatedAsObjectData
280
     1
 91
        0
  0
ACDSSCHEMA
 90
        2
  1
AcDbDs::LegacySchema
  2
AcDbDs::Legacy
280
     1
 91
        0
  0
ACDSSCHEMA
 90
        3
  1
AcDbDs::IndexedPropertySchema
  2
AcDs:Indexable
280
     1
 91
        0
  0
ACDSSCHEMA
 90
        4
  1
AcDbDs::HandleAttributeSchema
  2
AcDbDs::HandleAttribute
280
     7
 91
        1
284
     1
  0
ACDSRECORD
 90
        0
  2
AcDbDs::ID
280
    10
320
22
  2
Thumbnail_Data
280
    15
 94
     1974
310
89504E470D0A1A0A0000000D4948445200000100000000AD0803000000685951D000000300504C5445000000000000FFFFFF0000000000000000000000000000000000000000000000000000330000660000990000CC0000FF0033000033330033660033990033CC0033FF0066000066330066660066990066CC0066FF0099
310
000099330099660099990099CC0099FF00CC0000CC3300CC6600CC9900CCCC00CCFF00FF0000FF3300FF6600FF9900FFCC00FFFF3300003300333300663300993300CC3300FF3333003333333333663333993333CC3333FF3366003366333366663366993366CC3366FF3399003399333399663399993399CC3399FF33CC00
310
33CC3333CC6633CC9933CCCC33CCFF33FF0033FF3333FF6633FF9933FFCC33FFFF6600006600336600666600996600CC6600FF6633006633336633666633996633CC6633FF6666006666336666666666996666CC6666FF6699006699336699666699996699CC6699FF66CC0066CC3366CC6666CC9966CCCC66CCFF66FF0066
310
FF3366FF6666FF9966FFCC66FFFF9900009900339900669900999900CC9900FF9933009933339933669933999933CC9933FF9966009966339966669966999966CC9966FF9999009999339999669999999999CC9999FF99CC0099CC3399CC6699CC9999CCCC99CCFF99FF0099FF3399FF6699FF9999FFCC99FFFFCC0000CC00
310
33CC0066CC0099CC00CCCC00FFCC3300CC3333CC3366CC3399CC33CCCC33FFCC6600CC6633CC6666CC6699CC66CCCC66FFCC9900CC9933CC9966CC9999CC99CCCC99FFCCCC00CCCC33CCCC66CCCC99CCCCCCCCCCFFCCFF00CCFF33CCFF66CCFF99CCFFCCCCFFFFFF0000FF0033FF0066FF0099FF00CCFF00FFFF3300FF3333
310
FF3366FF3399FF33CCFF33FFFF6600FF6633FF6666FF6699FF66CCFF66FFFF9900FF9933FF9966FF9999FF99CCFF99FFFFCC00FFCC33FFCC66FFCC99FFCCCCFFCCFFFFFF00FFFF33FFFF66FFFF99FFFFCCFFFFFF0000000D0D0D1A1A1A2828283535354343435050505D5D5D6B6B6B787878868686939393A1A1A1AEAEAEBB
310
BBBBC9C9C9D6D6D6E4E4E4F1F1F1FFFFFF000000000000000000000000000000000000000000000000000000000000C11FEF66000004714944415478DAED9D6996AC200C857BFF9BBA7B610FF9DF5516A8A50C01B5982EE7F5E9419F928F248418AC3F3379FBFBFA4DA6683100338C39011000011000011000011000011000
310
011000011000011000011000011000011000011000011000011000011000013CDEF06ACBF7E05120F03F0703E095330C20C8A53300AB84C86F63002857E851348000FA0770A144CD5AF3FB27FBA538FB5E877015C0A9D2AEDC074049DBA301A8A5019FEEA8CB10A300DC28A6CA1ADD45E131A45F03B0FDC929C50C0078A93F
310
94F6F4B96D131AF0EA4852C2C4F175D45F8E406550CB19CB49F50158F9A3C396106AEFC59C761738C15A00B60E277D44621A5C660023F62B39FE8B0EEC27D02A009C312A3C40120036F98DCAEE4C13009C0FB8120838DD16D1C96F09BC75A632003710BA7BA400E8E55F09B400401B05266601EC66555D9F9B0190B92D23A4
310
06996B0F59FEB910B81200C9077056052BC1CA47DBE77516403D0D90A869FBE381703A44F2569F0E00EA03D08F99EFDC6D15274500BAD28054C49C0D40BA0220E9B092008606604605903171D10408600B5DCF11B21F803BEF90F3EADC0400CF1AC10760970919CA097AD35F1E005B460963F98055A03D013F00AB32C720AA
310
6F00B2A5B3A200F6F2CB4826B0741D7A003887D13621B0A443AF3E29FEBD13FC08F65904C60118CF79AD0128D580D3C8063400DE545187004E1AB010480280F16652FA06E0F7EEBE59009ED9628838607DC889681C00849E2CF5BE18F245783E006BD271BCC5D01AE3AF65627B00D6B8BD6B86D156830801C02CF900E7C40F
310
0006CC0825FA88E1F30104303780F7A416ED46770090EB041500D462A0812743C8D70089F5A20840CD6783C87D3A8C70F98F9B24B46248131A900F20AC3099627C97C85605905121A29805A0AD1041031522B8A746E85830A4F3A84D00B8A74AECB860D05589A1812A3118D75F659D60DA04F4758268A04E109A4A51D9558A
310
6A22416DA5281AA81485AA56784741E504E3576BAA56D866ABF5D5E21A00BACBD9A8B272B5389C6D6B6B04550094FB054E5B2D6B0150944B6BFB88FD3553E5F74700A80740BF67480F206D510D698031DA6810E9C35DED1ACBBEE33D1AB0BB56E57D8317019CC62C0020B0A7BA4B005FA21C0403A60090DA0B9EB771BC6F13
310
98D0075C673414801B5E80501B40FD565B03F08415648CFF803EA02B1318A611000110000110000110400E80EDED4755DB4D617189067CEE278133635500917E24DE43627FF2BE93E052507E1380DF7E38E4A138E7F700AEDFC87B580AAF05430004301500315501144E3A0440000F01B8981D6CC407C8F80052AF659A0080
310
A48E75E2038A6F180BF715AB859600141390C46AA70C643700428B26E58231D8AD5F03B8FC4C2BFC9E3D65A96C6D0D78323FA378ABEC8D1AD9624AACE0E58C6301F0A178F2493193A2044000044000044000044000044000044000044000044000044000CD0378A6F2AA270077F68F0008A04700AA0FAD20009A00A7C179A6
310
C1D39F643213909872CCE00409602E007482610D30EB31D13944022080F1E380B934C0F3E97E04500C608A16013061FB07E6F479AC5452BC970000000049454E44AE426082
  0
ENDSEC
  0
EOF
