  0
SECTION
  2
HEADER
  9
$ACADVER
  1
AC1027
  9
$ACADMAINTVER
 70
   125
  9
$DWGCODEPAGE
  3
ANSI_1252
  9
$LASTSAVEDBY
  1
fleminab
  9
$REQUIREDVERSIONS
160
                 0
  9
$INSBASE
 10
0.0
 20
0.0
 30
0.0
  9
$EXTMIN
 10
96.24572862899606
 20
120.8329933858861
 30
-10.90087886073263
  9
$EXTMAX
 10
360.0915536425211
 20
208.3205572288956
 30
0.1007080428543432
  9
$LIMMIN
 10
0.0
 20
0.0
  9
$LIMMAX
 10
420.0
 20
297.0
  9
$ORTHOMODE
 70
     0
  9
$REGENMODE
 70
     1
  9
$FILLMODE
 70
     1
  9
$QTEXTMODE
 70
     0
  9
$MIRRTEXT
 70
     1
  9
$LTSCALE
 40
1.0
  9
$ATTMODE
 70
     1
  9
$TEXTSIZE
 40
3.5
  9
$TRACEWID
 40
1.0
  9
$TEXTSTYLE
  7
Standard
  9
$CLAYER
  8
0
  9
$CELTYPE
  6
ByLayer
  9
$CECOLOR
 62
   256
  9
$CELTSCALE
 40
1.0
  9
$DISPSILH
 70
     0
  9
$DIMSCALE
 40
1.0
  9
$DIMASZ
 40
3.0
  9
$DIMEXO
 40
1.0
  9
$DIMDLI
 40
3.75
  9
$DIMRND
 40
0.0
  9
$DIMDLE
 40
0.0
  9
$DIMEXE
 40
1.0
  9
$DIMTP
 40
0.0
  9
$DIMTM
 40
0.0
  9
$DIMTXT
 40
3.880555555599999
  9
$DIMCEN
 40
2.5
  9
$DIMTSZ
 40
0.0
  9
$DIMTOL
 70
     0
  9
$DIMLIM
 70
     0
  9
$DIMTIH
 70
     1
  9
$DIMTOH
 70
     1
  9
$DIMSE1
 70
     0
  9
$DIMSE2
 70
     0
  9
$DIMTAD
 70
     1
  9
$DIMZIN
 70
     0
  9
$DIMBLK
  1

  9
$DIMASO
 70
     1
  9
$DIMSHO
 70
     1
  9
$DIMPOST
  1

  9
$DIMAPOST
  1

  9
$DIMALT
 70
     0
  9
$DIMALTD
 70
     3
  9
$DIMALTF
 40
0.0393700787
  9
$DIMLFAC
 40
2.0
  9
$DIMTOFL
 70
     1
  9
$DIMTVP
 40
0.0
  9
$DIMTIX
 70
     0
  9
$DIMSOXD
 70
     0
  9
$DIMSAH
 70
     0
  9
$DIMBLK1
  1

  9
$DIMBLK2
  1

  9
$DIMSTYLE
  2
ISO-25
  9
$DIMCLRD
 70
     0
  9
$DIMCLRE
 70
     0
  9
$DIMCLRT
 70
     0
  9
$DIMTFAC
 40
1.0
  9
$DIMGAP
 40
1.524
  9
$DIMJUST
 70
     0
  9
$DIMSD1
 70
     0
  9
$DIMSD2
 70
     0
  9
$DIMTOLJ
 70
     0
  9
$DIMTZIN
 70
     0
  9
$DIMALTZ
 70
     0
  9
$DIMALTTZ
 70
     0
  9
$DIMUPT
 70
     0
  9
$DIMDEC
 70
     2
  9
$DIMTDEC
 70
     2
  9
$DIMALTU
 70
     2
  9
$DIMALTTD
 70
     3
  9
$DIMTXSTY
  7
Standard
  9
$DIMAUNIT
 70
     0
  9
$DIMADEC
 70
     1
  9
$DIMALTRND
 40
0.0
  9
$DIMAZIN
 70
     0
  9
$DIMDSEP
 70
    44
  9
$DIMATFIT
 70
     3
  9
$DIMFRAC
 70
     0
  9
$DIMLDRBLK
  1

  9
$DIMLUNIT
 70
     2
  9
$DIMLWD
 70
    -2
  9
$DIMLWE
 70
    -2
  9
$DIMTMOVE
 70
     0
  9
$DIMFXL
 40
1.0
  9
$DIMFXLON
 70
     0
  9
$DIMJOGANG
 40
0.7853981633974483
  9
$DIMTFILL
 70
     0
  9
$DIMTFILLCLR
 70
     0
  9
$DIMARCSYM
 70
     0
  9
$DIMLTYPE
  6

  9
$DIMLTEX1
  6

  9
$DIMLTEX2
  6

  9
$DIMTXTDIRECTION
 70
     0
  9
$LUNITS
 70
     2
  9
$LUPREC
 70
     2
  9
$SKETCHINC
 40
1.0
  9
$FILLETRAD
 40
10.0
  9
$AUNITS
 70
     0
  9
$AUPREC
 70
     2
  9
$MENU
  1
.
  9
$ELEVATION
 40
0.0
  9
$PELEVATION
 40
0.0
  9
$THICKNESS
 40
0.0
  9
$LIMCHECK
 70
     0
  9
$CHAMFERA
 40
10.0
  9
$CHAMFERB
 40
10.0
  9
$CHAMFERC
 40
20.0
  9
$CHAMFERD
 40
0.0
  9
$SKPOLY
 70
     0
  9
$TDCREATE
 40
2456241.572152777
  9
$TDUCREATE
 40
2456241.113829757
  9
$TDUPDATE
 40
2458066.547175926
  9
$TDUUPDATE
 40
2458066.088842593
  9
$TDINDWG
 40
0.0001504745
  9
$TDUSRTIMER
 40
0.0001504745
  9
$USRTIMER
 70
     1
  9
$ANGBASE
 50
0.0
  9
$ANGDIR
 70
     0
  9
$PDMODE
 70
     0
  9
$PDSIZE
 40
-1.0
  9
$PLINEWID
 40
0.0
  9
$SPLFRAME
 70
     0
  9
$SPLINETYPE
 70
     6
  9
$SPLINESEGS
 70
     8
  9
$HANDSEED
  5
1DA
  9
$SURFTAB1
 70
     6
  9
$SURFTAB2
 70
     6
  9
$SURFTYPE
 70
     6
  9
$SURFU
 70
     6
  9
$SURFV
 70
     6
  9
$UCSBASE
  2

  9
$UCSNAME
  2

  9
$UCSORG
 10
0.0
 20
0.0
 30
0.0
  9
$UCSXDIR
 10
1.0
 20
0.0
 30
0.0
  9
$UCSYDIR
 10
0.0
 20
1.0
 30
0.0
  9
$UCSORTHOREF
  2

  9
$UCSORTHOVIEW
 70
     0
  9
$UCSORGTOP
 10
0.0
 20
0.0
 30
0.0
  9
$UCSORGBOTTOM
 10
0.0
 20
0.0
 30
0.0
  9
$UCSORGLEFT
 10
0.0
 20
0.0
 30
0.0
  9
$UCSORGRIGHT
 10
0.0
 20
0.0
 30
0.0
  9
$UCSORGFRONT
 10
0.0
 20
0.0
 30
0.0
  9
$UCSORGBACK
 10
0.0
 20
0.0
 30
0.0
  9
$PUCSBASE
  2

  9
$PUCSNAME
  2

  9
$PUCSORG
 10
0.0
 20
0.0
 30
0.0
  9
$PUCSXDIR
 10
1.0
 20
0.0
 30
0.0
  9
$PUCSYDIR
 10
0.0
 20
1.0
 30
0.0
  9
$PUCSORTHOREF
  2

  9
$PUCSORTHOVIEW
 70
     0
  9
$PUCSORGTOP
 10
0.0
 20
0.0
 30
0.0
  9
$PUCSORGBOTTOM
 10
0.0
 20
0.0
 30
0.0
  9
$PUCSORGLEFT
 10
0.0
 20
0.0
 30
0.0
  9
$PUCSORGRIGHT
 10
0.0
 20
0.0
 30
0.0
  9
$PUCSORGFRONT
 10
0.0
 20
0.0
 30
0.0
  9
$PUCSORGBACK
 10
0.0
 20
0.0
 30
0.0
  9
$USERI1
 70
     0
  9
$USERI2
 70
     0
  9
$USERI3
 70
     0
  9
$USERI4
 70
     0
  9
$USERI5
 70
     0
  9
$USERR1
 40
0.0
  9
$USERR2
 40
0.0
  9
$USERR3
 40
0.0
  9
$USERR4
 40
0.0
  9
$USERR5
 40
0.0
  9
$WORLDVIEW
 70
     1
  9
$SHADEDGE
 70
     3
  9
$SHADEDIF
 70
    70
  9
$TILEMODE
 70
     1
  9
$MAXACTVP
 70
    64
  9
$PINSBASE
 10
0.0
 20
0.0
 30
0.0
  9
$PLIMCHECK
 70
     0
  9
$PEXTMIN
 10
1.000000000000000E+20
 20
1.000000000000000E+20
 30
1.000000000000000E+20
  9
$PEXTMAX
 10
-1.000000000000000E+20
 20
-1.000000000000000E+20
 30
-1.000000000000000E+20
  9
$PLIMMIN
 10
0.0
 20
0.0
  9
$PLIMMAX
 10
420.0
 20
297.0
  9
$UNITMODE
 70
     0
  9
$VISRETAIN
 70
     1
  9
$PLINEGEN
 70
     0
  9
$PSLTSCALE
 70
     1
  9
$TREEDEPTH
 70
  3020
  9
$CMLSTYLE
  2
Standard
  9
$CMLJUST
 70
     0
  9
$CMLSCALE
 40
20.0
  9
$PROXYGRAPHICS
 70
     1
  9
$MEASUREMENT
 70
     1
  9
$CELWEIGHT
370
    -1
  9
$ENDCAPS
280
     0
  9
$JOINSTYLE
280
     0
  9
$LWDISPLAY
290
     1
  9
$INSUNITS
 70
     4
  9
$HYPERLINKBASE
  1

  9
$STYLESHEET
  1

  9
$XEDIT
290
     1
  9
$CEPSNTYPE
380
     0
  9
$PSTYLEMODE
290
     1
  9
$FINGERPRINTGUID
  2
{1D1DE0F0-9099-4F81-8123-2EE8AF1C6C35}
  9
$VERSIONGUID
  2
{25D925F7-E871-BF4E-844F-78C7E4D35DF6}
  9
$EXTNAMES
290
     1
  9
$PSVPSCALE
 40
0.0
  9
$OLESTARTUP
290
     0
  9
$SORTENTS
280
   127
  9
$INDEXCTL
280
     0
  9
$HIDETEXT
280
     0
  9
$XCLIPFRAME
280
     2
  9
$HALOGAP
280
     0
  9
$OBSCOLOR
 70
   257
  9
$OBSLTYPE
280
     0
  9
$INTERSECTIONDISPLAY
280
     0
  9
$INTERSECTIONCOLOR
 70
   257
  9
$DIMASSOC
280
     1
  9
$PROJECTNAME
  1

  9
$CAMERADISPLAY
290
     0
  9
$LENSLENGTH
 40
50.0
  9
$CAMERAHEIGHT
 40
0.0
  9
$STEPSPERSEC
 40
2.0
  9
$STEPSIZE
 40
6.0
  9
$3DDWFPREC
 40
2.0
  9
$PSOLWIDTH
 40
0.25
  9
$PSOLHEIGHT
 40
4.0
  9
$LOFTANG1
 40
1.570796326794896
  9
$LOFTANG2
 40
1.570796326794896
  9
$LOFTMAG1
 40
0.0
  9
$LOFTMAG2
 40
0.0
  9
$LOFTPARAM
 70
     7
  9
$LOFTNORMALS
280
     1
  9
$LATITUDE
 40
37.795
  9
$LONGITUDE
 40
-122.394
  9
$NORTHDIRECTION
 40
0.0
  9
$TIMEZONE
 70
 -8000
  9
$LIGHTGLYPHDISPLAY
280
     1
  9
$TILEMODELIGHTSYNCH
280
     1
  9
$CMATERIAL
347
164
  9
$SOLIDHIST
280
     0
  9
$SHOWHIST
280
     1
  9
$DWFFRAME
280
     2
  9
$DGNFRAME
280
     0
  9
$REALWORLDSCALE
290
     1
  9
$INTERFERECOLOR
 62
     1
  9
$INTERFEREOBJVS
345
186
  9
$INTERFEREVPVS
346
183
  9
$CSHADOW
280
     0
  9
$SHADOWPLANELOCATION
 40
0.0
  0
ENDSEC
  0
SECTION
  2
CLASSES
  0
CLASS
  1
ACDBDICTIONARYWDFLT
  2
AcDbDictionaryWithDefault
  3
ObjectDBX Classes
 90
        0
 91
        1
280
     0
281
     0
  0
CLASS
  1
VISUALSTYLE
  2
AcDbVisualStyle
  3
ObjectDBX Classes
 90
     4095
 91
       24
280
     0
281
     0
  0
CLASS
  1
MATERIAL
  2
AcDbMaterial
  3
ObjectDBX Classes
 90
     1153
 91
        3
280
     0
281
     0
  0
CLASS
  1
TABLESTYLE
  2
AcDbTableStyle
  3
ObjectDBX Classes
 90
     4095
 91
        1
280
     0
281
     0
  0
CLASS
  1
SCALE
  2
AcDbScale
  3
ObjectDBX Classes
 90
     1153
 91
       17
280
     0
281
     0
  0
CLASS
  1
MLEADERSTYLE
  2
AcDbMLeaderStyle
  3
ACDB_MLEADERSTYLE_CLASS
 90
     4095
 91
        1
280
     0
281
     0
  0
CLASS
  1
ACDBSECTIONVIEWSTYLE
  2
AcDbSectionViewStyle
  3
ObjectDBX Classes
 90
     1025
 91
        1
280
     0
281
     0
  0
CLASS
  1
ACDBDETAILVIEWSTYLE
  2
AcDbDetailViewStyle
  3
ObjectDBX Classes
 90
     1025
 91
        1
280
     0
281
     0
  0
CLASS
  1
DICTIONARYVAR
  2
AcDbDictionaryVar
  3
ObjectDBX Classes
 90
        0
 91
       18
280
     0
281
     0
  0
CLASS
  1
CELLSTYLEMAP
  2
AcDbCellStyleMap
  3
ObjectDBX Classes
 90
     1152
 91
        1
280
     0
281
     0
  0
ENDSEC
  0
SECTION
  2
TABLES
  0
TABLE
  2
VPORT
  5
8
330
0
100
AcDbSymbolTable
 70
     1
1001
ACAD
1000
DbSaveVer
1071
        5
  0
VPORT
  5
29
330
8
100
AcDbSymbolTableRecord
100
AcDbViewportTableRecord
  2
*Active
 70
     0
 10
0.0
 20
0.0
 11
1.0
 21
1.0
 12
228.1686411357586
 22
164.5767753073908
 13
0.0
 23
0.0
 14
10.0
 24
10.0
 15
10.0
 25
10.0
 16
0.0
 26
0.0
 36
1.0
 17
0.0
 27
0.0
 37
0.0
 40
115.4396107006992
 41
2.292712066905615
 42
50.0
 43
0.0
 44
0.0
 50
0.0
 51
0.0
 71
     0
 72
  2000
 73
     1
 74
     3
 75
     0
 76
     0
 77
     0
 78
     0
281
     0
 65
     1
110
0.0
120
0.0
130
0.0
111
1.0
121
0.0
131
0.0
112
0.0
122
1.0
132
0.0
 79
     0
146
0.0
348
182
 60
     3
 61
     5
292
     1
282
     1
141
0.0
142
0.0
 63
   250
421
  3355443
1001
ACAD_NAV_VCDISPLAY
1070
     3
  0
ENDTAB
  0
TABLE
  2
LTYPE
  5
5
330
0
100
AcDbSymbolTable
 70
     6
  0
LTYPE
  5
14
330
5
100
AcDbSymbolTableRecord
100
AcDbLinetypeTableRecord
  2
ByBlock
 70
     0
  3

 72
    65
 73
     0
 40
0.0
  0
LTYPE
  5
15
330
5
100
AcDbSymbolTableRecord
100
AcDbLinetypeTableRecord
  2
ByLayer
 70
     0
  3

 72
    65
 73
     0
 40
0.0
  0
LTYPE
  5
16
330
5
100
AcDbSymbolTableRecord
100
AcDbLinetypeTableRecord
  2
Continuous
 70
     0
  3
Solid line
 72
    65
 73
     0
 40
0.0
  0
LTYPE
  5
3F
330
5
100
AcDbSymbolTableRecord
100
AcDbLinetypeTableRecord
  2
HIDDEN
 70
     0
  3
Hidden __ __ __ __ __ __ __ __ __ __ __ __ __ __
 72
    65
 73
     2
 40
1.905
 49
1.27
 74
     0
 49
-0.635
 74
     0
  0
LTYPE
  5
40
330
5
100
AcDbSymbolTableRecord
100
AcDbLinetypeTableRecord
  2
PHANTOM
 70
     0
  3
Phantom ______  __  __  ______  __  __  ______
 72
    65
 73
     6
 40
12.7
 49
6.349999999999999
 74
     0
 49
-1.27
 74
     0
 49
1.27
 74
     0
 49
-1.27
 74
     0
 49
1.27
 74
     0
 49
-1.27
 74
     0
  0
LTYPE
  5
41
330
5
100
AcDbSymbolTableRecord
100
AcDbLinetypeTableRecord
  2
CENTER
 70
     0
  3
Center ____ _ ____ _ ____ _ ____ _ ____ _ ____
 72
    65
 73
     4
 40
10.16
 49
6.349999999999999
 74
     0
 49
-1.27
 74
     0
 49
1.27
 74
     0
 49
-1.27
 74
     0
  0
LTYPE
  5
42
330
5
100
AcDbSymbolTableRecord
100
AcDbLinetypeTableRecord
  2
CENTERX2
 70
     0
  3
Center (2x) ________  __  ________  __  _____
 72
    65
 73
     4
 40
20.32
 49
12.7
 74
     0
 49
-2.54
 74
     0
 49
2.54
 74
     0
 49
-2.54
 74
     0
  0
LTYPE
  5
43
330
5
100
AcDbSymbolTableRecord
100
AcDbLinetypeTableRecord
  2
DOT2
 70
     0
  3
Dot (.5x) ........................................
 72
    65
 73
     2
 40
0.635
 49
0.0
 74
     0
 49
-0.635
 74
     0
  0
ENDTAB
  0
TABLE
  2
LAYER
  5
2
330
0
100
AcDbSymbolTable
 70
     3
  0
LAYER
  5
10
102
{ACAD_XDICTIONARY
360
1B3
102
}
330
2
100
AcDbSymbolTableRecord
100
AcDbLayerTableRecord
  2
0
 70
     0
 62
     7
  6
Continuous
370
    -3
390
F
347
174
348
0
  0
LAYER
  5
44
102
{ACAD_XDICTIONARY
360
1B5
102
}
330
2
100
AcDbSymbolTableRecord
100
AcDbLayerTableRecord
  2
FORMAT
 70
     0
 62
     7
  6
Continuous
370
    -3
390
F
347
174
348
0
  0
LAYER
  5
45
102
{ACAD_XDICTIONARY
360
1B7
102
}
330
2
100
AcDbSymbolTableRecord
100
AcDbLayerTableRecord
  2
DIM
 70
     0
 62
     7
  6
Continuous
370
    -3
390
F
347
174
348
0
  0
ENDTAB
  0
TABLE
  2
STYLE
  5
3
330
0
100
AcDbSymbolTable
 70
     2
  0
STYLE
  5
11
330
3
100
AcDbSymbolTableRecord
100
AcDbTextStyleTableRecord
  2
Standard
 70
     0
 40
0.0
 41
1.0
 50
0.0
 71
     0
 42
3.5
  3
txt
  4

  0
STYLE
  5
61
330
3
100
AcDbSymbolTableRecord
100
AcDbTextStyleTableRecord
  2
SLDTEXTSTYLE0
 70
     0
 40
0.0
 41
0.75
 50
0.0
 71
     0
 42
0.2
  3
TXT
  4

  0
ENDTAB
  0
TABLE
  2
VIEW
  5
6
330
0
100
AcDbSymbolTable
 70
     0
  0
ENDTAB
  0
TABLE
  2
UCS
  5
7
330
0
100
AcDbSymbolTable
 70
     0
  0
ENDTAB
  0
TABLE
  2
APPID
  5
9
330
0
100
AcDbSymbolTable
 70
     2
  0
APPID
  5
12
330
9
100
AcDbSymbolTableRecord
100
AcDbRegAppTableRecord
  2
ACAD
 70
     0
  0
APPID
  5
1B9
330
9
100
AcDbSymbolTableRecord
100
AcDbRegAppTableRecord
  2
ACAD_NAV_VCDISPLAY
 70
     0
  0
ENDTAB
  0
TABLE
  2
DIMSTYLE
  5
A
330
0
100
AcDbSymbolTable
 70
     4
100
AcDbDimStyleTable
 71
     0
  0
DIMSTYLE
105
27
330
A
100
AcDbSymbolTableRecord
100
AcDbDimStyleTableRecord
  2
ISO-25
 70
     0
 41
2.5
 42
0.625
 43
3.75
 44
1.25
 73
     0
 74
     0
 77
     1
 78
     8
140
2.5
141
2.5
143
0.0393700787
147
0.625
171
     3
172
     1
271
     2
272
     2
274
     3
278
    44
283
     0
284
     8
340
11
  0
DIMSTYLE
105
62
102
{ACAD_REACTORS
330
60
102
}
330
A
100
AcDbSymbolTableRecord
100
AcDbDimStyleTableRecord
  2
SLDDIMSTYLE0
 70
     0
 41
3.0
 44
0.0
 45
0.000000001
 73
     0
 74
     0
 77
     1
 78
    12
 79
     3
140
2.9104166667
147
0.7276041667000001
172
     1
173
     1
271
     2
272
     2
276
     2
284
    12
289
     0
340
61
  0
DIMSTYLE
105
6F
102
{ACAD_REACTORS
330
6E
330
79
102
}
330
A
100
AcDbSymbolTableRecord
100
AcDbDimStyleTableRecord
  2
SLDDIMSTYLE1
 70
     0
 41
3.0
 44
0.0
 45
0.000000001
 73
     0
 74
     0
 77
     1
 78
    12
 79
     3
140
2.9104166667
147
0.7276041667000001
173
     1
271
     0
272
     2
276
     2
284
    12
340
61
  0
DIMSTYLE
105
84
102
{ACAD_REACTORS
330
83
330
133
102
}
330
A
100
AcDbSymbolTableRecord
100
AcDbDimStyleTableRecord
  2
SLDDIMSTYLE2
 70
     0
 41
3.0
 44
0.0
 45
0.000000001
 73
     0
 74
     0
 77
     1
 78
    12
 79
     3
140
2.9104166667
147
0.7276041667000001
173
     1
271
     2
272
     2
276
     2
284
    12
340
61
  0
ENDTAB
  0
TABLE
  2
BLOCK_RECORD
  5
1
330
0
100
AcDbSymbolTable
 70
    10
  0
BLOCK_RECORD
  5
1F
330
1
100
AcDbSymbolTableRecord
100
AcDbBlockTableRecord
  2
*Model_Space
340
22
 70
     0
280
     1
281
     0
  0
BLOCK_RECORD
  5
1B
330
1
100
AcDbSymbolTableRecord
100
AcDbBlockTableRecord
  2
*Paper_Space
340
1E
 70
     0
280
     1
281
     0
  0
BLOCK_RECORD
  5
23
330
1
100
AcDbSymbolTableRecord
100
AcDbBlockTableRecord
  2
*Paper_Space0
340
26
 70
     0
280
     1
281
     0
  0
BLOCK_RECORD
  5
63
330
1
100
AcDbSymbolTableRecord
100
AcDbBlockTableRecord
  2
_D
340
0
 70
     0
280
     1
281
     0
  0
BLOCK_RECORD
  5
70
330
1
100
AcDbSymbolTableRecord
100
AcDbBlockTableRecord
  2
_D_1
340
0
 70
     0
280
     1
281
     0
  0
BLOCK_RECORD
  5
7A
330
1
100
AcDbSymbolTableRecord
100
AcDbBlockTableRecord
  2
_D_2
340
0
 70
     0
280
     1
281
     0
  0
BLOCK_RECORD
  5
85
330
1
100
AcDbSymbolTableRecord
100
AcDbBlockTableRecord
  2
_D_3
340
0
 70
     0
280
     1
281
     0
  0
BLOCK_RECORD
  5
90
330
1
100
AcDbSymbolTableRecord
100
AcDbBlockTableRecord
  2
SW_BROKEN_VIEW_0
340
0
102
{BLKREFS
331
93
102
}
 70
     0
280
     1
281
     0
  0
BLOCK_RECORD
  5
134
330
1
100
AcDbSymbolTableRecord
100
AcDbBlockTableRecord
  2
_D_4
340
0
 70
     0
280
     1
281
     0
  0
BLOCK_RECORD
  5
13C
330
1
100
AcDbSymbolTableRecord
100
AcDbBlockTableRecord
  2
SW_SYMBOL_MOD_BOX
340
0
102
{BLKREFS
331
143
102
}
 70
     0
280
     1
281
     0
  0
BLOCK_RECORD
  5
145
330
1
100
AcDbSymbolTableRecord
100
AcDbBlockTableRecord
  2
SW_CENTERMARKSYMBOL_0
340
0
102
{BLKREFS
331
150
102
}
 70
     0
280
     1
281
     0
  0
BLOCK_RECORD
  5
151
330
1
100
AcDbSymbolTableRecord
100
AcDbBlockTableRecord
  2
SW_CENTERMARKSYMBOL_1
340
0
102
{BLKREFS
331
15C
102
}
 70
     0
280
     1
281
     0
  0
ENDTAB
  0
ENDSEC
  0
SECTION
  2
BLOCKS
  0
BLOCK
  5
20
330
1F
100
AcDbEntity
  8
0
100
AcDbBlockBegin
  2
*Model_Space
 70
     0
 10
0.0
 20
0.0
 30
0.0
  3
*Model_Space
  1

  0
ENDBLK
  5
21
330
1F
100
AcDbEntity
  8
0
100
AcDbBlockEnd
  0
BLOCK
  5
1C
330
1B
100
AcDbEntity
 67
     1
  8
0
100
AcDbBlockBegin
  2
*Paper_Space
 70
     0
 10
0.0
 20
0.0
 30
0.0
  3
*Paper_Space
  1

  0
ENDBLK
  5
1D
330
1B
100
AcDbEntity
 67
     1
  8
0
100
AcDbBlockEnd
  0
BLOCK
  5
24
330
23
100
AcDbEntity
 67
     1
  8
0
100
AcDbBlockBegin
  2
*Paper_Space0
 70
     0
 10
0.0
 20
0.0
 30
0.0
  3
*Paper_Space0
  1

  0
ENDBLK
  5
25
330
23
100
AcDbEntity
 67
     1
  8
0
100
AcDbBlockEnd
  0
BLOCK
  5
64
330
63
100
AcDbEntity
  8
0
100
AcDbBlockBegin
  2
_D
 70
     0
 10
0.0
 20
0.0
 30
0.0
  3
_D
  1

  0
SOLID
  5
66
330
63
100
AcDbEntity
  8
DIM
 62
     7
440
 16777216
100
AcDbTrace
 10
353.8797622392
 20
133.4190538259
 30
0.0
 11
356.8797622392
 21
132.9190538259
 31
0.0
 12
356.8797622392
 22
133.9190538259
 32
0.0
 13
356.8797622392
 23
133.9190538259
 33
0.0
  0
SOLID
  5
67
330
63
100
AcDbEntity
  8
DIM
 62
     7
440
 16777216
100
AcDbTrace
 10
347.8797622392
 20
133.4190538259
 30
0.0
 11
344.8797622392
 21
133.9190538259
 31
0.0
 12
344.8797622392
 22
132.9190538259
 32
0.0
 13
344.8797622392
 23
132.9190538259
 33
0.0
  0
LINE
  5
68
330
63
100
AcDbEntity
  8
DIM
 62
     7
440
 16777216
100
AcDbLine
 10
353.8797622392
 20
138.2682972956
 30
0.0
 11
353.8797622392
 21
132.4190538259
 31
0.0
  0
LINE
  5
69
330
63
100
AcDbEntity
  8
DIM
 62
     7
440
 16777216
100
AcDbLine
 10
347.8797622392
 20
138.2682972956
 30
0.0
 11
347.8797622392
 21
132.4190538259
 31
0.0
  0
LINE
  5
6A
330
63
100
AcDbEntity
  8
DIM
 62
     7
440
 16777216
100
AcDbLine
 10
353.8797622392
 20
133.4190538259
 30
0.0
 11
358.2297622392
 21
133.4190538259
 31
0.0
  0
LINE
  5
6B
330
63
100
AcDbEntity
  8
DIM
 62
     7
440
 16777216
100
AcDbLine
 10
353.8797622392
 20
133.4190538259
 30
0.0
 11
347.8797622392
 21
133.4190538259
 31
0.0
  0
LINE
  5
6C
330
63
100
AcDbEntity
  8
DIM
 62
     7
440
 16777216
100
AcDbLine
 10
347.8797622392
 20
133.4190538259
 30
0.0
 11
343.5297622391999
 21
133.4190538259
 31
0.0
  0
MTEXT
  5
6D
330
63
100
AcDbEntity
  8
DIM
 62
     7
440
 16777216
100
AcDbMText
 10
348.7607407455
 20
137.1707782348
 30
0.1
 40
2.9104166667
 41
0.0
 46
0.0
 71
     1
 72
     1
  1
6
  7
SLDTEXTSTYLE0
 73
     1
 44
1.0
  0
ENDBLK
  5
65
330
63
100
AcDbEntity
  8
0
100
AcDbBlockEnd
  0
BLOCK
  5
71
330
70
100
AcDbEntity
  8
0
100
AcDbBlockBegin
  2
_D_1
 70
     0
 10
0.0
 20
0.0
 30
0.0
  3
_D_1
  1

  0
SOLID
  5
73
330
70
100
AcDbEntity
  8
DIM
 62
     7
440
 16777216
100
AcDbTrace
 10
353.8797622392
 20
127.835778225
 30
0.0
 11
350.8797622392
 21
128.335778225
 31
0.0
 12
350.8797622392
 22
127.335778225
 32
0.0
 13
350.8797622392
 23
127.335778225
 33
0.0
  0
SOLID
  5
74
330
70
100
AcDbEntity
  8
DIM
 62
     7
440
 16777216
100
AcDbTrace
 10
340.3797622392
 20
127.835778225
 30
0.0
 11
343.3797622392
 21
127.335778225
 31
0.0
 12
343.3797622392
 22
128.335778225
 32
0.0
 13
343.3797622392
 23
128.335778225
 33
0.0
  0
LINE
  5
75
330
70
100
AcDbEntity
  8
DIM
 62
     7
440
 16777216
100
AcDbLine
 10
353.8797622392
 20
138.2682972956
 30
0.0
 11
353.8797622392
 21
126.835778225
 31
0.0
  0
LINE
  5
76
330
70
100
AcDbEntity
  8
DIM
 62
     7
440
 16777216
100
AcDbLine
 10
340.3797622392
 20
144.7682972956
 30
0.0
 11
340.3797622392
 21
126.835778225
 31
0.0
  0
LINE
  5
77
330
70
100
AcDbEntity
  8
DIM
 62
     7
440
 16777216
100
AcDbLine
 10
353.8797622392
 20
127.835778225
 30
0.0
 11
340.3797622392
 21
127.835778225
 31
0.0
  0
MTEXT
  5
78
330
70
100
AcDbEntity
  8
DIM
 62
     7
440
 16777216
100
AcDbMText
 10
343.4517662048
 20
131.5875026339
 30
0.1
 40
2.9104166667
 41
0.0
 46
0.0
 71
     1
 72
     1
  1
14
  7
SLDTEXTSTYLE0
 73
     1
 44
1.0
  0
ENDBLK
  5
72
330
70
100
AcDbEntity
  8
0
100
AcDbBlockEnd
  0
BLOCK
  5
7B
330
7A
100
AcDbEntity
  8
0
100
AcDbBlockBegin
  2
_D_2
 70
     0
 10
0.0
 20
0.0
 30
0.0
  3
_D_2
  1

  0
SOLID
  5
7D
330
7A
100
AcDbEntity
  8
DIM
 62
     7
440
 16777216
100
AcDbTrace
 10
353.8797622392
 20
121.835778225
 30
0.0
 11
350.8797622392
 21
122.335778225
 31
0.0
 12
350.8797622392
 22
121.335778225
 32
0.0
 13
350.8797622392
 23
121.335778225
 33
0.0
  0
SOLID
  5
7E
330
7A
100
AcDbEntity
  8
DIM
 62
     7
440
 16777216
100
AcDbTrace
 10
296.5797622391999
 20
121.835778225
 30
0.0
 11
299.5797622392
 21
121.335778225
 31
0.0
 12
299.5797622392
 22
122.335778225
 32
0.0
 13
299.5797622392
 23
122.335778225
 33
0.0
  0
LINE
  5
7F
330
7A
100
AcDbEntity
  8
DIM
 62
     7
440
 16777216
100
AcDbLine
 10
353.8797622392
 20
138.2682972956
 30
0.0
 11
353.8797622392
 21
120.835778225
 31
0.0
  0
LINE
  5
80
330
7A
100
AcDbEntity
  8
DIM
 62
     7
440
 16777216
100
AcDbLine
 10
296.5797622391999
 20
144.7682972956
 30
0.0
 11
296.5797622391999
 21
120.835778225
 31
0.0
  0
LINE
  5
81
330
7A
100
AcDbEntity
  8
DIM
 62
     7
440
 16777216
100
AcDbLine
 10
353.8797622392
 20
121.835778225
 30
0.0
 11
296.5797622391999
 21
121.835778225
 31
0.0
  0
MTEXT
  5
82
330
7A
100
AcDbEntity
  8
DIM
 62
     7
440
 16777216
100
AcDbMText
 10
322.9710643824
 20
125.5875026339
 30
0.1
 40
2.9104166667
 41
0.0
 46
0.0
 71
     1
 72
     1
  1
57
  7
SLDTEXTSTYLE0
 73
     1
 44
1.0
  0
ENDBLK
  5
7C
330
7A
100
AcDbEntity
  8
0
100
AcDbBlockEnd
  0
BLOCK
  5
86
330
85
100
AcDbEntity
  8
0
100
AcDbBlockBegin
  2
_D_3
 70
     0
 10
0.0
 20
0.0
 30
0.0
  3
_D_3
  1

  0
SOLID
  5
88
330
85
100
AcDbEntity
  8
DIM
 62
     7
440
 16777216
100
AcDbTrace
 10
286.5797622391
 20
187.7682972956
 30
0.0
 11
286.0797622391
 21
184.7682972956
 31
0.0
 12
287.0797622391
 22
184.7682972956
 32
0.0
 13
287.0797622391
 23
184.7682972956
 33
0.0
  0
SOLID
  5
89
330
85
100
AcDbEntity
  8
DIM
 62
     7
440
 16777216
100
AcDbTrace
 10
286.5797622391
 20
145.7682972956
 30
0.0
 11
287.0797622391
 21
148.7682972956
 31
0.0
 12
286.0797622391
 22
148.7682972956
 32
0.0
 13
286.0797622391
 23
148.7682972956
 33
0.0
  0
LINE
  5
8A
330
85
100
AcDbEntity
  8
DIM
 62
     7
440
 16777216
100
AcDbLine
 10
339.3797622392
 20
187.7682972956
 30
0.0
 11
285.5797622391
 21
187.7682972956
 31
0.0
  0
LINE
  5
8B
330
85
100
AcDbEntity
  8
DIM
 62
     7
440
 16777216
100
AcDbLine
 10
339.3797622392
 20
145.7682972956
 30
0.0
 11
285.5797622391
 21
145.7682972956
 31
0.0
  0
LINE
  5
8C
330
85
100
AcDbEntity
  8
DIM
 62
     7
440
 16777216
100
AcDbLine
 10
286.5797622391
 20
187.7682972956
 30
0.0
 11
286.5797622391
 21
145.7682972956
 31
0.0
  0
MTEXT
  5
8D
330
85
100
AcDbEntity
  8
DIM
 62
     7
440
 16777216
100
AcDbMText
 10
282.8280377138
 20
160.6453041704
 30
0.1
 40
2.9104166667
 41
0.0
 46
0.0
 71
     1
 72
     1
  1
%%c
  7
SLDTEXTSTYLE0
 11
-0.000000000000007
 21
1.0
 31
0.0
 73
     1
 44
1.0
  0
MTEXT
  5
8E
330
85
100
AcDbEntity
  8
DIM
 62
     7
440
 16777216
100
AcDbMText
 10
282.8280378302
 20
165.0384165504
 30
0.1
 40
2.9104166667
 41
0.0
 46
0.0
 71
     1
 72
     1
  1
42
  7
SLDTEXTSTYLE0
 11
-0.000000000000007
 21
1.0
 31
0.0
 73
     1
 44
1.0
  0
ENDBLK
  5
87
330
85
100
AcDbEntity
  8
0
100
AcDbBlockEnd
  0
BLOCK
  5
91
330
90
100
AcDbEntity
  8
0
100
AcDbBlockBegin
  2
SW_BROKEN_VIEW_0
 70
     0
 10
0.0
 20
0.0
 30
0.0
  3
SW_BROKEN_VIEW_0
  1

  0
ENDBLK
  5
92
330
90
100
AcDbEntity
  8
0
100
AcDbBlockEnd
  0
BLOCK
  5
135
330
134
100
AcDbEntity
  8
0
100
AcDbBlockBegin
  2
_D_4
 70
     0
 10
0.0
 20
0.0
 30
0.0
  3
_D_4
  1

  0
SOLID
  5
137
330
134
100
AcDbEntity
  8
DIM
 62
     7
440
 16777216
100
AcDbTrace
 10
194.6903909223
 20
128.9445413411
 30
0.0
 11
197.6903909223
 21
128.4445413411
 31
0.0
 12
197.6903909223
 22
129.4445413411
 32
0.0
 13
197.6903909223
 23
129.4445413411
 33
0.0
  0
SOLID
  5
138
330
134
100
AcDbEntity
  8
DIM
 62
     7
440
 16777216
100
AcDbTrace
 10
249.6903909223
 20
128.9445413411
 30
0.0
 11
246.6903909223
 21
129.4445413411
 31
0.0
 12
246.6903909223
 22
128.4445413411
 32
0.0
 13
246.6903909223
 23
128.4445413411
 33
0.0
  0
LINE
  5
139
330
134
100
AcDbEntity
  8
DIM
 62
     7
440
 16777216
100
AcDbLine
 10
194.6903909223
 20
142.2682972956
 30
0.0
 11
194.6903909223
 21
127.9445413411
 31
0.0
  0
LINE
  5
13A
330
134
100
AcDbEntity
  8
DIM
 62
     7
440
 16777216
100
AcDbLine
 10
249.6903909223
 20
142.2682972956
 30
0.0
 11
249.6903909223
 21
127.9445413411
 31
0.0
  0
LINE
  5
13B
330
134
100
AcDbEntity
  8
DIM
 62
     7
440
 16777216
100
AcDbLine
 10
194.6903909223
 20
128.9445413411
 30
0.0
 11
249.6903909223
 21
128.9445413411
 31
0.0
  0
INSERT
  5
143
330
134
100
AcDbEntity
  8
DIM
 62
     7
440
 16777216
100
AcDbBlockReference
  2
SW_SYMBOL_MOD_BOX
 10
216.9582600809
 20
129.3481345683
 30
0.0
 41
0.0037176025
 42
0.0037176025
 43
0.0037176025
  0
MTEXT
  5
144
330
134
100
AcDbEntity
  8
DIM
 62
     7
440
 16777216
100
AcDbMText
 10
221.1201557994
 20
132.69626575
 30
-10.9
 40
2.9104166667
 41
0.0
 46
0.0
 71
     1
 72
     1
  1
55
  7
SLDTEXTSTYLE0
 73
     1
 44
1.0
  0
ENDBLK
  5
136
330
134
100
AcDbEntity
  8
0
100
AcDbBlockEnd
  0
BLOCK
  5
13D
330
13C
100
AcDbEntity
  8
0
100
AcDbBlockBegin
  2
SW_SYMBOL_MOD_BOX
 70
     0
 10
0.0
 20
0.0
 30
0.0
  3
SW_SYMBOL_MOD_BOX
  1

  0
LINE
  5
13F
330
13C
100
AcDbEntity
  8
DIM
 62
     0
100
AcDbLine
 10
200.0
 20
200.0
 30
0.0
 11
800.0
 21
200.0
 31
0.0
  0
LINE
  5
140
330
13C
100
AcDbEntity
  8
DIM
 62
     0
100
AcDbLine
 10
200.0
 20
200.0
 30
0.0
 11
200.0
 21
800.0
 31
0.0
  0
LINE
  5
141
330
13C
100
AcDbEntity
  8
DIM
 62
     0
100
AcDbLine
 10
200.0
 20
800.0
 30
0.0
 11
800.0
 21
800.0
 31
0.0
  0
LINE
  5
142
330
13C
100
AcDbEntity
  8
DIM
 62
     0
100
AcDbLine
 10
800.0
 20
800.0
 30
0.0
 11
800.0
 21
200.0
 31
0.0
  0
ENDBLK
  5
13E
330
13C
100
AcDbEntity
  8
0
100
AcDbBlockEnd
  0
BLOCK
  5
146
330
145
100
AcDbEntity
  8
0
100
AcDbBlockBegin
  2
SW_CENTERMARKSYMBOL_0
 70
     0
 10
0.0
 20
0.0
 30
0.0
  3
SW_CENTERMARKSYMBOL_0
  1

  0
LINE
  5
148
330
145
100
AcDbEntity
  8
DIM
 62
     0
100
AcDbLine
 10
0.0
 20
0.0
 30
0.0
 11
0.0
 21
2.499999944099999
 31
0.0
  0
LINE
  5
149
330
145
100
AcDbEntity
  8
DIM
 62
     0
100
AcDbLine
 10
0.0
 20
0.0
 30
0.0
 11
-2.500005066399999
 21
0.0
 31
0.0
  0
LINE
  5
14A
330
145
100
AcDbEntity
  8
DIM
 62
     0
100
AcDbLine
 10
0.0
 20
0.0
 30
0.0
 11
0.0
 21
-2.499999944099999
 31
0.0
  0
LINE
  5
14B
330
145
100
AcDbEntity
  8
DIM
 62
     0
100
AcDbLine
 10
0.0
 20
0.0
 30
0.0
 11
2.4999976158
 21
0.0
 31
0.0
  0
LINE
  5
14C
330
145
100
AcDbEntity
  8
DIM
 62
     0
100
AcDbLine
 10
0.0
 20
4.999999888199999
 30
0.0
 11
0.0
 21
31.3848741353
 31
0.0
  0
LINE
  5
14D
330
145
100
AcDbEntity
  8
DIM
 62
     0
100
AcDbLine
 10
-5.000002682199999
 20
0.0
 30
0.0
 11
-31.6662862897
 21
0.0
 31
0.0
  0
LINE
  5
14E
330
145
100
AcDbEntity
  8
DIM
 62
     0
100
AcDbLine
 10
0.0
 20
-4.999999888199999
 30
0.0
 11
0.0
 21
-29.9730096012
 31
0.0
  0
LINE
  5
14F
330
145
100
AcDbEntity
  8
DIM
 62
     0
100
AcDbLine
 10
4.9999952316
 20
0.0
 30
0.0
 11
33.2179144025
 21
0.0
 31
0.0
  0
ENDBLK
  5
147
330
145
100
AcDbEntity
  8
0
100
AcDbBlockEnd
  0
BLOCK
  5
152
330
151
100
AcDbEntity
  8
0
100
AcDbBlockBegin
  2
SW_CENTERMARKSYMBOL_1
 70
     0
 10
0.0
 20
0.0
 30
0.0
  3
SW_CENTERMARKSYMBOL_1
  1

  0
LINE
  5
154
330
151
100
AcDbEntity
  8
DIM
 62
     0
100
AcDbLine
 10
0.0
 20
0.0
 30
0.0
 11
0.0
 21
2.499999944099999
 31
0.0
  0
LINE
  5
155
330
151
100
AcDbEntity
  8
DIM
 62
     0
100
AcDbLine
 10
0.0
 20
0.0
 30
0.0
 11
-2.4999976158
 21
0.0
 31
0.0
  0
LINE
  5
156
330
151
100
AcDbEntity
  8
DIM
 62
     0
100
AcDbLine
 10
0.0
 20
0.0
 30
0.0
 11
0.0
 21
-2.499999944099999
 31
0.0
  0
LINE
  5
157
330
151
100
AcDbEntity
  8
DIM
 62
     0
100
AcDbLine
 10
0.0
 20
0.0
 30
0.0
 11
2.500005066399999
 21
0.0
 31
0.0
  0
LINE
  5
158
330
151
100
AcDbEntity
  8
DIM
 62
     0
100
AcDbLine
 10
0.0
 20
4.999999888199999
 30
0.0
 11
0.0
 21
33.7357521057
 31
0.0
  0
LINE
  5
159
330
151
100
AcDbEntity
  8
DIM
 62
     0
100
AcDbLine
 10
-4.9999952316
 20
0.0
 30
0.0
 11
-30.0845131278
 21
0.0
 31
0.0
  0
LINE
  5
15A
330
151
100
AcDbEntity
  8
DIM
 62
     0
100
AcDbLine
 10
0.0
 20
-4.999999888199999
 30
0.0
 11
0.0
 21
-32.323885709
 31
0.0
  0
LINE
  5
15B
330
151
100
AcDbEntity
  8
DIM
 62
     0
100
AcDbLine
 10
5.000002682199999
 20
0.0
 30
0.0
 11
31.9786295295
 21
0.0
 31
0.0
  0
ENDBLK
  5
153
330
151
100
AcDbEntity
  8
0
100
AcDbBlockEnd
  0
ENDSEC
  0
SECTION
  2
ENTITIES
  0
LINE
  5
46
330
1F
100
AcDbEntity
  8
0
  6
Continuous
 62
     7
370
    15
100
AcDbLine
 10
340.0797623986
 20
193.018296476
 30
0.0
 11
296.5797608563
 21
193.018296476
 31
0.0
  0
LINE
  5
47
330
1F
100
AcDbEntity
  8
0
  6
Continuous
 62
     7
370
    15
100
AcDbLine
 10
340.0797623986
 20
146.9182965565
 30
0.0
 11
340.379761889
 21
146.9182965565
 31
0.0
  0
LINE
  5
48
330
1F
100
AcDbEntity
  8
0
  6
Continuous
 62
     7
370
    15
100
AcDbLine
 10
340.379761889
 20
186.6182980347
 30
0.0
 11
340.0797623986
 21
186.6182980347
 31
0.0
  0
LINE
  5
49
330
1F
100
AcDbEntity
  8
0
  6
Continuous
 62
     7
370
    15
100
AcDbLine
 10
347.879762187
 20
187.7682970125
 30
0.0
 11
340.379761889
 21
187.7682970125
 31
0.0
  0
LINE
  5
4A
330
1F
100
AcDbEntity
  8
0
  6
Continuous
 62
     7
370
    15
100
AcDbLine
 10
340.379761889
 20
145.7682975787
 30
0.0
 11
347.879762187
 21
145.7682975787
 31
0.0
  0
LINE
  5
4B
330
1F
100
AcDbEntity
  8
0
  6
Continuous
 62
     7
370
    15
100
AcDbLine
 10
317.8297629425
 20
145.7682975787
 30
0.0
 11
340.0797623986
 21
145.7682975787
 31
0.0
  0
LINE
  5
4C
330
1F
100
AcDbEntity
  8
0
  6
Continuous
 62
     7
370
    15
100
AcDbLine
 10
296.5797608563
 20
145.7682975787
 30
0.0
 11
312.3644379744
 21
145.7682975787
 31
0.0
  0
LINE
  5
4D
330
1F
100
AcDbEntity
  8
0
  6
Continuous
 62
     7
370
    15
100
AcDbLine
 10
313.2337083884999
 20
145.8682974088
 30
0.0
 11
316.9139003226
 21
145.8682974088
 31
0.0
  0
LINE
  5
4E
330
1F
100
AcDbEntity
  8
0
  6
Continuous
 62
     7
370
    15
100
AcDbLine
 10
340.0797623986
 20
191.0182980108
 30
0.0
 11
340.0797623986
 21
193.018296476
 31
0.0
  0
LINE
  5
4F
330
1F
100
AcDbEntity
  8
0
  6
Continuous
 62
     7
370
    15
100
AcDbLine
 10
296.5797608563
 20
191.0182980108
 30
0.0
 11
296.5797608563
 21
193.018296476
 31
0.0
  0
LINE
  5
50
330
1F
100
AcDbEntity
  8
0
  6
Continuous
 62
     7
370
    15
100
AcDbLine
 10
340.0797623986
 20
187.6630333471
 30
0.0
 11
340.0797623986
 21
191.0182980108
 31
0.0
  0
LINE
  5
51
330
1F
100
AcDbEntity
  8
0
  6
Continuous
 62
     7
370
    15
100
AcDbLine
 10
296.5797608563
 20
187.6630333471
 30
0.0
 11
296.5797608563
 21
191.0182980108
 31
0.0
  0
LINE
  5
52
330
1F
100
AcDbEntity
  8
0
  6
Continuous
 62
     7
370
    15
100
AcDbLine
 10
340.379761889
 20
177.8838352519
 30
0.0
 11
340.379761889
 21
187.7682970125
 31
0.0
  0
LINE
  5
53
330
1F
100
AcDbEntity
  8
0
  6
Continuous
 62
     7
370
    15
100
AcDbLine
 10
340.379761889
 20
145.7682975787
 30
0.0
 11
340.379761889
 21
177.8838352519
 31
0.0
  0
LINE
  5
54
330
1F
100
AcDbEntity
  8
0
  6
Continuous
 62
     7
370
    15
100
AcDbLine
 10
340.0797623986
 20
145.7682975787
 30
0.0
 11
340.0797623986
 21
187.6630333471
 31
0.0
  0
LINE
  5
55
330
1F
100
AcDbEntity
  8
0
  6
Continuous
 62
     7
370
    15
100
AcDbLine
 10
296.5797608563
 20
145.7682975787
 30
0.0
 11
296.5797608563
 21
187.6630333471
 31
0.0
  0
LINE
  5
56
330
1F
100
AcDbEntity
  8
0
  6
Continuous
 62
     7
370
    15
100
AcDbLine
 10
296.5797608563
 20
187.6630333471
 30
0.0
 11
340.0797623986
 21
187.6630333471
 31
0.0
  0
ARC
  5
57
330
1F
100
AcDbEntity
  8
0
  6
Continuous
 62
     7
370
    15
100
AcDbCircle
 10
315.0798865138
 20
124.8646251708
 30
0.0
 40
21.08376959918656
100
AcDbArc
 50
82.50577721970001
 51
97.39986806790001
  0
LINE
  5
58
330
1F
100
AcDbEntity
  8
0
  6
Continuous
 62
     7
370
    15
100
AcDbLine
 10
353.8797622392
 20
139.2682974446
 30
0.0
 11
347.879762187
 21
139.2682974446
 31
0.0
  0
LINE
  5
59
330
1F
100
AcDbEntity
  8
0
  6
Continuous
 62
     7
370
    15
100
AcDbLine
 10
347.879762187
 20
139.2682974446
 30
0.0
 11
347.879762187
 21
143.2682981002
 31
0.0
  0
LINE
  5
5A
330
1F
100
AcDbEntity
  8
0
  6
Continuous
 62
     7
370
    15
100
AcDbLine
 10
353.8797622392
 20
143.2682981002
 30
0.0
 11
353.8797622392
 21
139.2682974446
 31
0.0
  0
LINE
  5
5B
330
1F
100
AcDbEntity
  8
0
  6
Continuous
 62
     7
370
    15
100
AcDbLine
 10
347.879762187
 20
143.2682981002
 30
0.0
 11
347.879762187
 21
190.2682964909
 31
0.0
  0
LINE
  5
5C
330
1F
100
AcDbEntity
  8
0
  6
Continuous
 62
     7
370
    15
100
AcDbLine
 10
353.8797622392
 20
143.2682981002
 30
0.0
 11
353.8797622392
 21
190.2682964909
 31
0.0
  0
LINE
  5
5D
330
1F
100
AcDbEntity
  8
0
  6
Continuous
 62
     7
370
    15
100
AcDbLine
 10
347.879762187
 20
194.2682971466
 30
0.0
 11
353.8797622392
 21
194.2682971466
 31
0.0
  0
LINE
  5
5E
330
1F
100
AcDbEntity
  8
0
  6
Continuous
 62
     7
370
    15
100
AcDbLine
 10
347.879762187
 20
190.2682964909
 30
0.0
 11
347.879762187
 21
194.2682971466
 31
0.0
  0
LINE
  5
5F
330
1F
100
AcDbEntity
  8
0
  6
Continuous
 62
     7
370
    15
100
AcDbLine
 10
353.8797622392
 20
194.2682971466
 30
0.0
 11
353.8797622392
 21
190.2682964909
 31
0.0
  0
DIMENSION
  5
60
330
1F
100
AcDbEntity
  8
DIM
 62
     7
100
AcDbDimension
280
     0
  2
_D
 10
347.8797622392
 20
133.4190538259
 30
0.0
 11
351.016313683
 21
133.4190538259
 31
0.0
 70
   160
  1
<>
 71
     2
 42
-1.0
 73
     0
 74
     0
 75
     0
  3
SLDDIMSTYLE0
100
AcDbAlignedDimension
 13
353.8797622392
 23
139.2682972956
 33
0.0
 14
347.8797622392
 24
139.2682972956
 34
0.0
100
AcDbRotatedDimension
  0
DIMENSION
  5
6E
330
1F
100
AcDbEntity
  8
DIM
 62
     7
100
AcDbDimension
280
     0
  2
_D_1
 10
340.3797622392
 20
127.835778225
 30
0.0
 11
346.7825764332
 21
127.835778225
 31
0.0
 70
   160
  1
<>
 71
     2
 42
-1.0
 73
     0
 74
     0
 75
     0
  3
SLDDIMSTYLE1
100
AcDbAlignedDimension
 13
353.8797622392
 23
139.2682972956
 33
0.0
 14
340.3797622392
 24
145.7682972956
 34
0.0
100
AcDbRotatedDimension
  0
DIMENSION
  5
79
330
1F
100
AcDbEntity
  8
DIM
 62
     7
100
AcDbDimension
280
     0
  2
_D_2
 10
296.5797622391999
 20
121.835778225
 30
0.0
 11
326.3018746108
 21
121.835778225
 31
0.0
 70
   160
  1
<>
 71
     2
 42
-1.0
 73
     0
 74
     0
 75
     0
  3
SLDDIMSTYLE1
100
AcDbAlignedDimension
 13
353.8797622392
 23
139.2682972956
 33
0.0
 14
296.5797622391999
 24
145.7682972956
 34
0.0
100
AcDbRotatedDimension
  0
DIMENSION
  5
83
330
1F
100
AcDbEntity
  8
DIM
 62
     7
100
AcDbDimension
280
     0
  2
_D_3
 10
286.5797622391
 20
145.7682972956
 30
0.0
 11
286.5797622391
 21
166.1726710544
 31
0.0
 70
   160
  1
%%c<>
 71
     2
 42
-1.0
 73
     0
 74
     0
 75
     0
  3
SLDDIMSTYLE2
100
AcDbAlignedDimension
 13
340.3797622392
 23
187.7682972956
 33
0.0
 14
340.3797622392
 24
145.7682972956
 34
0.0
 50
90.0
100
AcDbRotatedDimension
  0
LINE
  5
8F
330
1F
100
AcDbEntity
  8
DIM
  6
CENTERX2
 62
     7
370
     0
100
AcDbLine
 10
294.5797622391999
 20
166.7682972956
 30
0.0
 11
360.0693417313
 21
166.7682972956
 31
0.0
  0
INSERT
  5
93
330
1F
100
AcDbEntity
  8
0
  6
Continuous
 62
     7
100
AcDbBlockReference
  2
SW_BROKEN_VIEW_0
 10
0.0
 20
0.0
 30
0.0
  0
LINE
  5
94
330
1F
100
AcDbEntity
  8
0
  6
Continuous
 62
     7
370
    15
100
AcDbLine
 10
219.4403905646
 20
145.9491362083
 30
0.0
 11
219.4403905646
 21
145.8682974088
 31
0.0
  0
LINE
  5
95
330
1F
100
AcDbEntity
  8
0
  6
Continuous
 62
     7
370
    15
100
AcDbLine
 10
224.9403942601
 20
145.8682974088
 30
0.0
 11
224.9403942601
 21
145.9491362083
 31
0.0
  0
LINE
  5
96
330
1F
100
AcDbEntity
  8
0
  6
Continuous
 62
     7
370
    15
100
AcDbLine
 10
224.2373425738
 20
145.8682974088
 30
0.0
 11
224.9403942601
 21
145.8682974088
 31
0.0
  0
LINE
  5
97
330
1F
100
AcDbEntity
  8
0
  6
Continuous
 62
     7
370
    15
100
AcDbLine
 10
219.4403905646
 20
145.8682974088
 30
0.0
 11
220.0497884528
 21
145.8682974088
 31
0.0
  0
LINE
  5
98
330
1F
100
AcDbEntity
  8
0
  6
Continuous
 62
     7
370
    15
100
AcDbLine
 10
220.0497884528
 20
145.8776814151
 30
0.0
 11
220.0497884528
 21
145.8682974088
 31
0.0
  0
LINE
  5
99
330
1F
100
AcDbEntity
  8
0
  6
Continuous
 62
     7
370
    15
100
AcDbLine
 10
220.1434422509
 20
145.8682974088
 30
0.0
 11
220.0497884528
 21
145.8682974088
 31
0.0
  0
LINE
  5
9A
330
1F
100
AcDbEntity
  8
0
  6
Continuous
 62
     7
370
    15
100
AcDbLine
 10
220.1903883593
 20
191.0182980108
 30
0.0
 11
220.1903883593
 21
184.5182978767
 31
0.0
  0
LINE
  5
9B
330
1F
100
AcDbEntity
  8
0
  6
Continuous
 62
     7
370
    15
100
AcDbLine
 10
224.1903890149
 20
184.5182978767
 30
0.0
 11
224.1903890149
 21
191.0182980108
 31
0.0
  0
ARC
  5
9C
330
1F
100
AcDbEntity
  8
0
  6
Continuous
 62
     7
370
    15
100
AcDbCircle
 10
222.1903886871
 20
184.5182978767
 30
0.0
 40
2.000000327825545
100
AcDbArc
 50
179.9999999999
 51
0.0000000001
  0
ARC
  5
9D
330
1F
100
AcDbEntity
  8
0
  6
Continuous
 62
     7
370
    15
100
AcDbCircle
 10
222.1903886871
 20
191.0182961482
 30
0.0
 40
2.000000327826414
100
AcDbArc
 50
0.0000533608
 51
179.9999466392
  0
LINE
  5
9E
330
1F
100
AcDbEntity
  8
0
  6
Continuous
 62
     7
370
    15
100
AcDbLine
 10
220.0903941171
 20
185.0480676848
 30
0.0
 11
220.1903883593
 21
185.0592789459
 31
0.0
  0
LINE
  5
9F
330
1F
100
AcDbEntity
  8
0
  6
Continuous
 62
     7
370
    15
100
AcDbLine
 10
224.1903890149
 20
185.0592789459
 30
0.0
 11
224.2903907077
 21
185.0480676848
 31
0.0
  0
LINE
  5
A0
330
1F
100
AcDbEntity
  8
0
  6
Continuous
 62
     7
370
    15
100
AcDbLine
 10
220.0903941171
 20
186.5069006789
 30
0.0
 11
220.1903883593
 21
186.5172849256
 31
0.0
  0
LINE
  5
A1
330
1F
100
AcDbEntity
  8
0
  6
Continuous
 62
     7
370
    15
100
AcDbLine
 10
224.1903890149
 20
186.5172849256
 30
0.0
 11
224.2903907077
 21
186.5069006789
 31
0.0
  0
LINE
  5
A2
330
1F
100
AcDbEntity
  8
0
  6
Continuous
 62
     7
370
    15
100
AcDbLine
 10
224.2903907077
 20
187.6630333471
 30
0.0
 11
224.1903890149
 21
187.6728420365
 31
0.0
  0
LINE
  5
A3
330
1F
100
AcDbEntity
  8
0
  6
Continuous
 62
     7
370
    15
100
AcDbLine
 10
220.1903883593
 20
187.6728420365
 30
0.0
 11
220.0903941171
 21
187.6630333471
 31
0.0
  0
LINE
  5
A4
330
1F
100
AcDbEntity
  8
0
  6
Continuous
 62
     7
370
    15
100
AcDbLine
 10
224.2903907077
 20
186.5571827847
 30
0.0
 11
224.1903890149
 21
186.5675390916999
 31
0.0
  0
LINE
  5
A5
330
1F
100
AcDbEntity
  8
0
  6
Continuous
 62
     7
370
    15
100
AcDbLine
 10
220.1903883593
 20
186.5675390916999
 30
0.0
 11
220.0903941171
 21
186.5571827847
 31
0.0
  0
SPLINE
  5
A6
330
1F
100
AcDbEntity
  8
0
  6
Continuous
 62
     7
370
    15
100
AcDbSpline
210
0.0
220
0.0
230
1.0
 70
     8
 71
     3
 72
     9
 73
     5
 74
     0
 42
0.00000001
 43
0.0000000001
 40
0.0
 40
0.0
 40
0.0
 40
0.0
 40
0.5592514735562869
 40
1.0
 40
1.0
 40
1.0
 40
1.0
 10
240.2513895408599
 20
167.6782532348555
 30
0.0
 10
240.175398525336
 20
167.696811779814
 30
0.0
 10
240.0395186589123
 20
167.7299963950294
 30
0.0
 10
239.8998040516928
 20
167.7298848995012
 30
0.0
 10
239.8382250444381
 20
167.7298357580114
 30
0.0
  0
SPLINE
  5
A7
330
1F
100
AcDbEntity
  8
0
  6
Continuous
 62
     7
370
    15
100
AcDbSpline
210
0.0
220
0.0
230
1.0
 70
     8
 71
     3
 72
    10
 73
     6
 74
     0
 42
0.00000001
 43
0.0000000001
 40
0.0
 40
0.0
 40
0.0
 40
0.0
 40
0.5591730935949663
 40
0.7800579265533091
 40
1.0
 40
1.0
 40
1.0
 40
1.0
 10
240.6775702015845
 20
166.7873277446163
 30
0.0
 10
240.6663886169986
 20
166.9856459763642
 30
0.0
 10
240.6507900773199
 20
167.2623039744457
 30
0.0
 10
240.4509449405091
 20
167.5607322685542
 30
0.0
 10
240.3178131014456
 20
167.6391354708715
 30
0.0
 10
240.2513895408599
 20
167.6782532348555
 30
0.0
  0
SPLINE
  5
A8
330
1F
100
AcDbEntity
  8
0
  6
Continuous
 62
     7
370
    15
100
AcDbSpline
210
0.0
220
0.0
230
1.0
 70
     8
 71
     3
 72
     9
 73
     5
 74
     0
 42
0.00000001
 43
0.0000000001
 40
0.0
 40
0.0
 40
0.0
 40
0.0
 40
0.5574289083464325
 40
1.0
 40
1.0
 40
1.0
 40
1.0
 10
240.4371846692054
 20
165.9835416693498
 30
0.0
 10
240.5207885828126
 20
166.1221179956774
 30
0.0
 10
240.6707698851013
 20
166.3707170981866
 30
0.0
 10
240.6754839103044
 20
166.6595144051895
 30
0.0
 10
240.6775702015845
 20
166.7873277446163
 30
0.0
  0
SPLINE
  5
A9
330
1F
100
AcDbEntity
  8
0
  6
Continuous
 62
     7
370
    15
100
AcDbSpline
210
0.0
220
0.0
230
1.0
 70
     8
 71
     3
 72
     9
 73
     5
 74
     0
 42
0.00000001
 43
0.0000000001
 40
0.0
 40
0.0
 40
0.0
 40
0.0
 40
0.5618320074142276
 40
1.0
 40
1.0
 40
1.0
 40
1.0
 10
239.8467410580604
 20
165.8067588331435
 30
0.0
 10
239.9681264044681
 20
165.8068932408628
 30
0.0
 10
240.1841791476472
 20
165.8071324720165
 30
0.0
 10
240.3601012394074
 20
165.929794913569
 30
0.0
 10
240.4371846692054
 20
165.9835416693498
 30
0.0
  0
LINE
  5
AA
330
1F
100
AcDbEntity
  8
0
  6
Continuous
 62
     7
370
    15
100
AcDbLine
 10
239.8382250444
 20
167.7298357579999
 30
0.0
 11
239.3314142005
 21
167.7298357579999
 31
0.0
  0
LINE
  5
AB
330
1F
100
AcDbEntity
  8
0
  6
Continuous
 62
     7
370
    15
100
AcDbLine
 10
239.3314142005
 20
165.8067588331
 30
0.0
 11
239.8467410581
 21
165.8067588331
 31
0.0
  0
LINE
  5
AC
330
1F
100
AcDbEntity
  8
0
  6
Continuous
 62
     7
370
    15
100
AcDbLine
 10
239.3314142005
 20
167.7298357579999
 30
0.0
 11
239.3314142005
 21
165.8067588331
 31
0.0
  0
SPLINE
  5
AD
330
1F
100
AcDbEntity
  8
0
  6
Continuous
 62
     7
370
    15
100
AcDbSpline
210
0.0
220
0.0
230
1.0
 70
     8
 71
     3
 72
    11
 73
     7
 74
     0
 42
0.00000001
 43
0.0000000001
 40
0.0
 40
0.0
 40
0.0
 40
0.0
 40
0.187208565516707
 40
0.3739219038511154
 40
0.5607749564545227
 40
1.0
 40
1.0
 40
1.0
 40
1.0
 10
232.8700769917457
 20
167.7618870497938
 30
0.0
 10
232.7817169247959
 20
167.7558363862977
 30
0.0
 10
232.6052305318411
 20
167.7437510652667
 30
0.0
 10
232.3692798909924
 20
167.6094487559234
 30
0.0
 10
232.1266371456003
 20
167.3021129105532
 30
0.0
 10
232.1038276404319
 20
167.0001625801609
 30
0.0
 10
232.0878256337134
 20
166.7883293474845
 30
0.0
  0
SPLINE
  5
AE
330
1F
100
AcDbEntity
  8
0
  6
Continuous
 62
     7
370
    15
100
AcDbSpline
210
0.0
220
0.0
230
1.0
 70
     8
 71
     3
 72
    11
 73
     7
 74
     0
 42
0.00000001
 43
0.0000000001
 40
0.0
 40
0.0
 40
0.0
 40
0.0
 40
0.2805694170054234
 40
0.5596965501700064
 40
0.7796335729876283
 40
1.0
 40
1.0
 40
1.0
 40
1.0
 10
233.4980864302604
 20
167.2480649184693
 30
0.0
 10
233.470455634424
 20
167.3258382922186
 30
0.0
 10
233.4153360805069
 20
167.4809852410457
 30
0.0
 10
233.2606905505669
 20
167.6593347250739
 30
0.0
 10
233.0643407788315
 20
167.7502199477865
 30
0.0
 10
232.9348736748676
 20
167.7579954881031
 30
0.0
 10
232.8700769917457
 20
167.7618870497938
 30
0.0
  0
LINE
  5
AF
330
1F
100
AcDbEntity
  8
0
  6
Continuous
 62
     7
370
    15
100
AcDbLine
 10
233.8506479041
 20
167.323685925
 30
0.0
 11
233.4980864303
 21
167.2480649185
 31
0.0
  0
SPLINE
  5
B0
330
1F
100
AcDbEntity
  8
0
  6
Continuous
 62
     7
370
    15
100
AcDbSpline
210
0.0
220
0.0
230
1.0
 70
     8
 71
     3
 72
    11
 73
     7
 74
     0
 42
0.00000001
 43
0.0000000001
 40
0.0
 40
0.0
 40
0.0
 40
0.0
 40
0.2800561578985599
 40
0.5593956626451618
 40
0.7795531525212736
 40
1.0
 40
1.0
 40
1.0
 40
1.0
 10
232.8871090189902
 20
168.0503486176279
 30
0.0
 10
233.0095887052211
 20
168.0412964800113
 30
0.0
 10
233.2542346567826
 20
168.0232153688573
 30
0.0
 10
233.5546986081063
 20
167.8425570406651
 30
0.0
 10
233.7554813606497
 20
167.5960894789457
 30
0.0
 10
233.818911837412
 20
167.4145268554653
 30
0.0
 10
233.8506479041068
 20
167.323685925014
 30
0.0
  0
SPLINE
  5
B1
330
1F
100
AcDbEntity
  8
0
  6
Continuous
 62
     7
370
    15
100
AcDbSpline
210
0.0
220
0.0
230
1.0
 70
     8
 71
     3
 72
    11
 73
     7
 74
     0
 42
0.00000001
 43
0.0000000001
 40
0.0
 40
0.0
 40
0.0
 40
0.0
 40
0.2805011391188696
 40
0.5595501532136581
 40
0.7796115793094108
 40
1.0
 40
1.0
 40
1.0
 40
1.0
 10
231.735264159867
 20
166.7868269422727
 30
0.0
 10
231.7486972016358
 20
166.967192550879
 30
0.0
 10
231.7754937437228
 20
167.3269900342231
 30
0.0
 10
232.0544888294022
 20
167.7686017690187
 30
0.0
 10
232.4631949806839
 20
168.0110588360017
 30
0.0
 10
232.7457344194719
 20
168.0372455433236
 30
0.0
 10
232.8871090189902
 20
168.0503486176279
 30
0.0
  0
SPLINE
  5
B2
330
1F
100
AcDbEntity
  8
0
  6
Continuous
 62
     7
370
    15
100
AcDbSpline
210
0.0
220
0.0
230
1.0
 70
     8
 71
     3
 72
    11
 73
     7
 74
     0
 42
0.00000001
 43
0.0000000001
 40
0.0
 40
0.0
 40
0.0
 40
0.0
 40
0.2799578566107154
 40
0.5580886793999557
 40
0.7789121298155435
 40
1.0
 40
1.0
 40
1.0
 40
1.0
 10
232.8941200153319
 20
165.486245973527
 30
0.0
 10
232.7067695199499
 20
165.4999923206686
 30
0.0
 10
232.3332911978249
 20
165.5273953048738
 30
0.0
 10
231.9384554021891
 20
165.9072318024635
 30
0.0
 10
231.766028581475
 20
166.3525752258505
 30
0.0
 10
231.7455230569295
 20
166.6420186401779
 30
0.0
 10
231.735264159867
 20
166.7868269422727
 30
0.0
  0
SPLINE
  5
B3
330
1F
100
AcDbEntity
  8
0
  6
Continuous
 62
     7
370
    15
100
AcDbSpline
210
0.0
220
0.0
230
1.0
 70
     8
 71
     3
 72
    11
 73
     7
 74
     0
 42
0.00000001
 43
0.0000000001
 40
0.0
 40
0.0
 40
0.0
 40
0.0
 40
0.2802563553886502
 40
0.5595475238186954
 40
0.7795911375983052
 40
1.0
 40
1.0
 40
1.0
 40
1.0
 10
233.9147526995627
 20
166.3185777478177
 30
0.0
 10
233.8733313101828
 20
166.1905905045493
 30
0.0
 10
233.7906311843336
 20
165.9350567988038
 30
0.0
 10
233.5266692518912
 20
165.6558234689984
 30
0.0
 10
233.2099618860875
 20
165.5069361476359
 30
0.0
 10
232.9994588260139
 20
165.4931465099513
 30
0.0
 10
232.8941200153319
 20
165.486245973527
 30
0.0
  0
LINE
  5
B4
330
1F
100
AcDbEntity
  8
0
  6
Continuous
 62
     7
370
    15
100
AcDbLine
 10
233.5621837751
 20
166.4007091648
 30
0.0
 11
233.9147526996
 21
166.3185777478
 31
0.0
  0
SPLINE
  5
B5
330
1F
100
AcDbEntity
  8
0
  6
Continuous
 62
     7
370
    15
100
AcDbSpline
210
0.0
220
0.0
230
1.0
 70
     8
 71
     3
 72
    10
 73
     6
 74
     0
 42
0.00000001
 43
0.0000000001
 40
0.0
 40
0.0
 40
0.0
 40
0.0
 40
0.2807523376436074
 40
0.5609035452402175
 40
1.0
 40
1.0
 40
1.0
 40
1.0
 10
232.8610617892234
 20
165.7747075413611
 30
0.0
 10
232.9571729721735
 20
165.7840080307682
 30
0.0
 10
233.14918955058
 20
165.8025890959329
 30
0.0
 10
233.4413958721542
 20
166.0148153099338
 30
0.0
 10
233.5163963971076
 20
166.2544273983827
 30
0.0
 10
233.5621837751357
 20
166.4007091648203
 30
0.0
  0
SPLINE
  5
B6
330
1F
100
AcDbEntity
  8
0
  6
Continuous
 62
     7
370
    15
100
AcDbSpline
210
0.0
220
0.0
230
1.0
 70
     8
 71
     3
 72
    11
 73
     7
 74
     0
 42
0.00000001
 43
0.0000000001
 40
0.0
 40
0.0
 40
0.0
 40
0.0
 40
0.2812227942098275
 40
0.5607134267048905
 40
0.7801350612526987
 40
1.0
 40
1.0
 40
1.0
 40
1.0
 10
232.0878256337134
 20
166.7883293474845
 30
0.0
 10
232.0947650947886
 20
166.654068564936
 30
0.0
 10
232.1086012740708
 20
166.3863739647655
 30
0.0
 10
232.2544401349791
 20
166.0272067803867
 30
0.0
 10
232.5444429287398
 20
165.8115130624183
 30
0.0
 10
232.7554511896956
 20
165.7869842994129
 30
0.0
 10
232.8610617892234
 20
165.7747075413611
 30
0.0
  0
LINE
  5
B7
330
1F
100
AcDbEntity
  8
0
  6
Continuous
 62
     7
370
    15
100
AcDbLine
 10
237.408337392
 20
165.8067588331
 30
0.0
 11
238.5942388551
 21
165.8067588331
 31
0.0
  0
LINE
  5
B8
330
1F
100
AcDbEntity
  8
0
  6
Continuous
 62
     7
370
    15
100
AcDbLine
 10
237.408337392
 20
168.0182972676
 30
0.0
 11
237.408337392
 21
165.8067588331
 31
0.0
  0
LINE
  5
B9
330
1F
100
AcDbEntity
  8
0
  6
Continuous
 62
     7
370
    15
100
AcDbLine
 10
237.0557759182
 20
168.0182972676
 30
0.0
 11
237.408337392
 21
168.0182972676
 31
0.0
  0
LINE
  5
BA
330
1F
100
AcDbEntity
  8
0
  6
Continuous
 62
     7
370
    15
100
AcDbLine
 10
237.0557759182
 20
165.5182973235
 30
0.0
 11
237.0557759182
 21
168.0182972676
 31
0.0
  0
LINE
  5
BB
330
1F
100
AcDbEntity
  8
0
  6
Continuous
 62
     7
370
    15
100
AcDbLine
 10
238.5942388551
 20
165.5182973235
 30
0.0
 11
237.0557759182
 21
165.5182973235
 31
0.0
  0
LINE
  5
BC
330
1F
100
AcDbEntity
  8
0
  6
Continuous
 62
     7
370
    15
100
AcDbLine
 10
238.5942388551
 20
165.8067588331
 30
0.0
 11
238.5942388551
 21
165.5182973235
 31
0.0
  0
LINE
  5
BD
330
1F
100
AcDbEntity
  8
0
  6
Continuous
 62
     7
370
    15
100
AcDbLine
 10
220.0903941171
 20
184.5182978767
 30
0.0
 11
220.0903941171
 21
187.6630333471
 31
0.0
  0
ARC
  5
BE
330
1F
100
AcDbEntity
  8
0
  6
Continuous
 62
     7
370
    15
100
AcDbCircle
 10
222.1903924124
 20
184.5182960141
 30
0.0
 40
2.099998295307985
100
AcDbArc
 50
179.9999491801
 51
0.0000508199
  0
LINE
  5
BF
330
1F
100
AcDbEntity
  8
0
  6
Continuous
 62
     7
370
    15
100
AcDbLine
 10
224.2903907077
 20
187.6630333471
 30
0.0
 11
224.2903907077
 21
184.5182978767
 31
0.0
  0
ARC
  5
C0
330
1F
100
AcDbEntity
  8
0
  6
Continuous
 62
     7
370
    15
100
AcDbCircle
 10
222.1903924124
 20
166.7682972884
 30
0.0
 40
20.99999970966651
100
AcDbArc
 50
95.73916588240001
 51
84.2608341176
  0
SPLINE
  5
C1
330
1F
100
AcDbEntity
  8
0
  6
Continuous
 62
     7
370
    15
100
AcDbSpline
210
0.0
220
0.0
230
1.0
 70
     8
 71
     3
 72
    10
 73
     6
 74
     0
 42
0.00000001
 43
0.0000000001
 40
0.0
 40
0.0
 40
0.0
 40
0.0
 40
0.2797693333203355
 40
0.5599169434853219
 40
1.0
 40
1.0
 40
1.0
 40
1.0
 10
240.6390059964149
 20
167.8034534896981
 30
0.0
 10
240.7124942625562
 20
167.7273192429668
 30
0.0
 10
240.8595701585149
 20
167.5749478081909
 30
0.0
 10
241.0026280627474
 20
167.2183161935087
 30
0.0
 10
241.0197001225733
 20
166.9473733364211
 30
0.0
 10
241.030131675431
 20
166.7818189297507
 30
0.0
  0
SPLINE
  5
C2
330
1F
100
AcDbEntity
  8
0
  6
Continuous
 62
     7
370
    15
100
AcDbSpline
210
0.0
220
0.0
230
1.0
 70
     8
 71
     3
 72
     9
 73
     5
 74
     0
 42
0.00000001
 43
0.0000000001
 40
0.0
 40
0.0
 40
0.0
 40
0.0
 40
0.5598636756501462
 40
1.0
 40
1.0
 40
1.0
 40
1.0
 10
240.2754251138656
 20
167.9822396007624
 30
0.0
 10
240.3494293885041
 20
167.960929396564
 30
0.0
 10
240.4816120569949
 20
167.9228661945289
 30
0.0
 10
240.5909030572695
 20
167.8399485548501
 30
0.0
 10
240.6390059964149
 20
167.8034534896981
 30
0.0
  0
SPLINE
  5
C3
330
1F
100
AcDbEntity
  8
0
  6
Continuous
 62
     7
370
    15
100
AcDbSpline
210
0.0
220
0.0
230
1.0
 70
     8
 71
     3
 72
     9
 73
     5
 74
     0
 42
0.00000001
 43
0.0000000001
 40
0.0
 40
0.0
 40
0.0
 40
0.0
 40
0.5601843139248575
 40
1.0
 40
1.0
 40
1.0
 40
1.0
 10
239.8337174431769
 20
168.0182972676378
 30
0.0
 10
239.9167595906656
 20
168.0179497629441
 30
0.0
 10
240.0650003489739
 20
168.0173294230223
 30
0.0
 10
240.2111473641278
 20
167.9929583715056
 30
0.0
 10
240.2754251138656
 20
167.9822396007624
 30
0.0
  0
LINE
  5
C4
330
1F
100
AcDbEntity
  8
0
  6
Continuous
 62
     7
370
    15
100
AcDbLine
 10
238.9788527266
 20
168.0182972676
 30
0.0
 11
239.8337174432
 21
168.0182972676
 31
0.0
  0
LINE
  5
C5
330
1F
100
AcDbEntity
  8
0
  6
Continuous
 62
     7
370
    15
100
AcDbLine
 10
238.9788527266
 20
165.5182973235
 30
0.0
 11
238.9788527266
 21
168.0182972676
 31
0.0
  0
LINE
  5
C6
330
1F
100
AcDbEntity
  8
0
  6
Continuous
 62
     7
370
    15
100
AcDbLine
 10
239.8742858545
 20
165.5182973235
 30
0.0
 11
238.9788527266
 21
165.5182973235
 31
0.0
  0
SPLINE
  5
C7
330
1F
100
AcDbEntity
  8
0
  6
Continuous
 62
     7
370
    15
100
AcDbSpline
210
0.0
220
0.0
230
1.0
 70
     8
 71
     3
 72
    11
 73
     7
 74
     0
 42
0.00000001
 43
0.0000000001
 40
0.0
 40
0.0
 40
0.0
 40
0.0
 40
0.2808329284301955
 40
0.5599536849142593
 40
0.7790695117466246
 40
1.0
 40
1.0
 40
1.0
 40
1.0
 10
241.030131675431
 20
166.7818189297507
 30
0.0
 10
241.0175645984392
 20
166.5992413735595
 30
0.0
 10
240.9925070629517
 20
166.2351993933567
 30
0.0
 10
240.7378272583494
 20
165.7650069719874
 30
0.0
 10
240.3061495913754
 20
165.5358568426317
 30
0.0
 10
240.0186356497981
 20
165.5241665659957
 30
0.0
 10
239.8742858545272
 20
165.5182973235171
 30
0.0
  0
SPLINE
  5
C8
330
1F
100
AcDbEntity
  8
0
  6
Continuous
 62
     7
370
    15
100
AcDbSpline
210
0.0
220
0.0
230
1.0
 70
     8
 71
     3
 72
    11
 73
     7
 74
     0
 42
0.00000001
 43
0.0000000001
 40
0.0
 40
0.0
 40
0.0
 40
0.0
 40
0.2795753316295453
 40
0.5585728789723227
 40
0.7790867536735171
 40
1.0
 40
1.0
 40
1.0
 40
1.0
 10
235.422660805413
 20
168.0503486176279
 30
0.0
 10
235.6066750283241
 20
168.0287866116636
 30
0.0
 10
235.9743231812003
 20
167.9857071608491
 30
0.0
 10
236.3792211185884
 20
167.6322375939575
 30
0.0
 10
236.5778317133961
 20
167.1969378895726
 30
0.0
 10
236.5973095311969
 20
166.9085935112801
 30
0.0
 10
236.6070572511642
 20
166.7642908854689
 30
0.0
  0
SPLINE
  5
C9
330
1F
100
AcDbEntity
  8
0
  6
Continuous
 62
     7
370
    15
100
AcDbSpline
210
0.0
220
0.0
230
1.0
 70
     8
 71
     3
 72
    11
 73
     7
 74
     0
 42
0.00000001
 43
0.0000000001
 40
0.0
 40
0.0
 40
0.0
 40
0.0
 40
0.2805808361334821
 40
0.5596085215105876
 40
0.7795770507773217
 40
1.0
 40
1.0
 40
1.0
 40
1.0
 10
234.2352617756812
 20
166.7352444100218
 30
0.0
 10
234.2473346205666
 20
166.9229311698567
 30
0.0
 10
234.2714134812964
 20
167.2972657524522
 30
0.0
 10
234.5641524220299
 20
167.7514241453789
 30
0.0
 10
234.9812140500282
 20
168.01451129247
 30
0.0
 10
235.2754106975671
 20
168.0383946278657
 30
0.0
 10
235.422660805413
 20
168.0503486176279
 30
0.0
  0
SPLINE
  5
CA
330
1F
100
AcDbEntity
  8
0
  6
Continuous
 62
     7
370
    15
100
AcDbSpline
210
0.0
220
0.0
230
1.0
 70
     8
 71
     3
 72
    11
 73
     7
 74
     0
 42
0.00000001
 43
0.0000000001
 40
0.0
 40
0.0
 40
0.0
 40
0.0
 40
0.2796039118112215
 40
0.5587668490674726
 40
0.7792971104321667
 40
1.0
 40
1.0
 40
1.0
 40
1.0
 10
235.421163238713
 20
165.486245973527
 30
0.0
 10
235.240531545554
 20
165.5069822556526
 30
0.0
 10
234.8795530407313
 20
165.5484221158807
 30
0.0
 10
234.4800578869033
 20
165.8904015318021
 30
0.0
 10
234.2722066788546
 20
166.3112281128239
 30
0.0
 10
234.2475799550615
 20
166.5938687841461
 30
0.0
 10
234.2352617756812
 20
166.7352444100218
 30
0.0
  0
SPLINE
  5
CB
330
1F
100
AcDbEntity
  8
0
  6
Continuous
 62
     7
370
    15
100
AcDbSpline
210
0.0
220
0.0
230
1.0
 70
     8
 71
     3
 72
    11
 73
     7
 74
     0
 42
0.00000001
 43
0.0000000001
 40
0.0
 40
0.0
 40
0.0
 40
0.0
 40
0.2803586929125014
 40
0.5595117628418013
 40
0.7796266640296034
 40
1.0
 40
1.0
 40
1.0
 40
1.0
 10
236.6070572511642
 20
166.7642908854689
 30
0.0
 10
236.5912671750046
 20
166.5810421650703
 30
0.0
 10
236.5597549245527
 20
166.2153327464551
 30
0.0
 10
236.2684967555163
 20
165.7712304927161
 30
0.0
 10
235.8519374583655
 20
165.5278948856655
 30
0.0
 10
235.5648107977403
 20
165.5001343732778
 30
0.0
 10
235.421163238713
 20
165.486245973527
 30
0.0
  0
SPLINE
  5
CC
330
1F
100
AcDbEntity
  8
0
  6
Continuous
 62
     7
370
    15
100
AcDbSpline
210
0.0
220
0.0
230
1.0
 70
     8
 71
     3
 72
    11
 73
     7
 74
     0
 42
0.00000001
 43
0.0000000001
 40
0.0
 40
0.0
 40
0.0
 40
0.0
 40
0.2790936451518057
 40
0.5581695214682827
 40
0.7788099485595572
 40
1.0
 40
1.0
 40
1.0
 40
1.0
 10
235.4196582214324
 20
165.7747075413611
 30
0.0
 10
235.5567689691071
 20
165.7922165782201
 30
0.0
 10
235.8309817351345
 20
165.827233537204
 30
0.0
 10
236.1150817817364
 20
166.1132516903292
 30
0.0
 10
236.2395464488164
 20
166.4448070597271
 30
0.0
 10
236.2495085369674
 20
166.6593766416089
 30
0.0
 10
236.2544957773177
 20
166.7667948917299
 30
0.0
  0
SPLINE
  5
CD
330
1F
100
AcDbEntity
  8
0
  6
Continuous
 62
     7
370
    15
100
AcDbSpline
210
0.0
220
0.0
230
1.0
 70
     8
 71
     3
 72
    11
 73
     7
 74
     0
 42
0.00000001
 43
0.0000000001
 40
0.0
 40
0.0
 40
0.0
 40
0.0
 40
0.2806429628327149
 40
0.5598842431508216
 40
0.7798523266431405
 40
1.0
 40
1.0
 40
1.0
 40
1.0
 10
234.5878232495276
 20
166.731238002187
 30
0.0
 10
234.5962768550392
 20
166.5974298754877
 30
0.0
 10
234.6131418441911
 20
166.3304819321356
 30
0.0
 10
234.8153193253935
 20
166.0047093199434
 30
0.0
 10
235.1048729429599
 20
165.8044613333466
 30
0.0
 10
235.3147012550272
 20
165.7846281696732
 30
0.0
 10
235.4196582214324
 20
165.7747075413611
 30
0.0
  0
SPLINE
  5
CE
330
1F
100
AcDbEntity
  8
0
  6
Continuous
 62
     7
370
    15
100
AcDbSpline
210
0.0
220
0.0
230
1.0
 70
     8
 71
     3
 72
    10
 73
     6
 74
     0
 42
0.00000001
 43
0.0000000001
 40
0.0
 40
0.0
 40
0.0
 40
0.0
 40
0.2801331572062777
 40
0.5596510067302081
 40
1.0
 40
1.0
 40
1.0
 40
1.0
 10
235.4246650115935
 20
167.7618870497938
 30
0.0
 10
235.2842604228139
 20
167.7430482665262
 30
0.0
 10
235.0037596415293
 20
167.7054120790558
 30
0.0
 10
234.6188306456119
 20
167.3274680158339
 30
0.0
 10
234.5995918146732
 20
166.9575314883692
 30
0.0
 10
234.5878232495276
 20
166.731238002187
 30
0.0
  0
SPLINE
  5
CF
330
1F
100
AcDbEntity
  8
0
  6
Continuous
 62
     7
370
    15
100
AcDbSpline
210
0.0
220
0.0
230
1.0
 70
     8
 71
     3
 72
    11
 73
     7
 74
     0
 42
0.00000001
 43
0.0000000001
 40
0.0
 40
0.0
 40
0.0
 40
0.0
 40
0.2807957524916407
 40
0.5600738190882306
 40
0.7799754482566991
 40
1.0
 40
1.0
 40
1.0
 40
1.0
 10
236.2544957773177
 20
166.7667948917299
 30
0.0
 10
236.2459434115079
 20
166.9032047966975
 30
0.0
 10
236.228884904964
 20
167.1752873184547
 30
0.0
 10
236.041605340522
 20
167.5195902859091
 30
0.0
 10
235.7459780303253
 20
167.7282997462224
 30
0.0
 10
235.5317893004496
 20
167.7506891966104
 30
0.0
 10
235.4246650115935
 20
167.7618870497938
 30
0.0
  0
SPLINE
  5
D0
330
1F
100
AcDbEntity
  8
0
  6
Continuous
 62
     7
370
    15
100
AcDbSpline
210
0.0
220
0.0
230
1.0
 70
     8
 71
     3
 72
     9
 73
     5
 74
     0
 42
0.00000001
 43
0.0000000001
 40
0.0
 40
0.0
 40
0.0
 40
0.0
 40
0.5618320074142276
 40
1.0
 40
1.0
 40
1.0
 40
1.0
 10
239.8467410580604
 20
165.8067588331435
 30
0.0
 10
239.9681264044681
 20
165.8068932408628
 30
0.0
 10
240.1841791476472
 20
165.8071324720165
 30
0.0
 10
240.3601012394074
 20
165.929794913569
 30
0.0
 10
240.4371846692054
 20
165.9835416693498
 30
0.0
  0
SPLINE
  5
D1
330
1F
100
AcDbEntity
  8
0
  6
Continuous
 62
     7
370
    15
100
AcDbSpline
210
0.0
220
0.0
230
1.0
 70
     8
 71
     3
 72
     9
 73
     5
 74
     0
 42
0.00000001
 43
0.0000000001
 40
0.0
 40
0.0
 40
0.0
 40
0.0
 40
0.5574289083464325
 40
1.0
 40
1.0
 40
1.0
 40
1.0
 10
240.4371846692054
 20
165.9835416693498
 30
0.0
 10
240.5207885828126
 20
166.1221179956774
 30
0.0
 10
240.6707698851013
 20
166.3707170981866
 30
0.0
 10
240.6754839103044
 20
166.6595144051895
 30
0.0
 10
240.6775702015845
 20
166.7873277446163
 30
0.0
  0
SPLINE
  5
D2
330
1F
100
AcDbEntity
  8
0
  6
Continuous
 62
     7
370
    15
100
AcDbSpline
210
0.0
220
0.0
230
1.0
 70
     8
 71
     3
 72
    10
 73
     6
 74
     0
 42
0.00000001
 43
0.0000000001
 40
0.0
 40
0.0
 40
0.0
 40
0.0
 40
0.2797693333203355
 40
0.5599169434853219
 40
1.0
 40
1.0
 40
1.0
 40
1.0
 10
240.6390059964149
 20
167.8034534896981
 30
0.0
 10
240.7124942625562
 20
167.7273192429668
 30
0.0
 10
240.8595701585149
 20
167.5749478081909
 30
0.0
 10
241.0026280627474
 20
167.2183161935087
 30
0.0
 10
241.0197001225733
 20
166.9473733364211
 30
0.0
 10
241.030131675431
 20
166.7818189297507
 30
0.0
  0
SPLINE
  5
D3
330
1F
100
AcDbEntity
  8
0
  6
Continuous
 62
     7
370
    15
100
AcDbSpline
210
0.0
220
0.0
230
1.0
 70
     8
 71
     3
 72
    11
 73
     7
 74
     0
 42
0.00000001
 43
0.0000000001
 40
0.0
 40
0.0
 40
0.0
 40
0.0
 40
0.2808329284301955
 40
0.5599536849142593
 40
0.7790695117466246
 40
1.0
 40
1.0
 40
1.0
 40
1.0
 10
241.030131675431
 20
166.7818189297507
 30
0.0
 10
241.0175645984392
 20
166.5992413735595
 30
0.0
 10
240.9925070629517
 20
166.2351993933567
 30
0.0
 10
240.7378272583494
 20
165.7650069719874
 30
0.0
 10
240.3061495913754
 20
165.5358568426317
 30
0.0
 10
240.0186356497981
 20
165.5241665659957
 30
0.0
 10
239.8742858545272
 20
165.5182973235171
 30
0.0
  0
SPLINE
  5
D4
330
1F
100
AcDbEntity
  8
0
  6
Continuous
 62
     7
370
    15
100
AcDbSpline
210
0.0
220
0.0
230
1.0
 70
     8
 71
     3
 72
    10
 73
     6
 74
     0
 42
0.00000001
 43
0.0000000001
 40
0.0
 40
0.0
 40
0.0
 40
0.0
 40
0.5591730935949663
 40
0.7800579265533091
 40
1.0
 40
1.0
 40
1.0
 40
1.0
 10
240.6775702015845
 20
166.7873277446163
 30
0.0
 10
240.6663886169986
 20
166.9856459763642
 30
0.0
 10
240.6507900773199
 20
167.2623039744457
 30
0.0
 10
240.4509449405091
 20
167.5607322685542
 30
0.0
 10
240.3178131014456
 20
167.6391354708715
 30
0.0
 10
240.2513895408599
 20
167.6782532348555
 30
0.0
  0
SPLINE
  5
D5
330
1F
100
AcDbEntity
  8
0
  6
Continuous
 62
     7
370
    15
100
AcDbSpline
210
0.0
220
0.0
230
1.0
 70
     8
 71
     3
 72
    11
 73
     7
 74
     0
 42
0.00000001
 43
0.0000000001
 40
0.0
 40
0.0
 40
0.0
 40
0.0
 40
0.2802563553886502
 40
0.5595475238186954
 40
0.7795911375983052
 40
1.0
 40
1.0
 40
1.0
 40
1.0
 10
233.9147526995627
 20
166.3185777478177
 30
0.0
 10
233.8733313101828
 20
166.1905905045493
 30
0.0
 10
233.7906311843336
 20
165.9350567988038
 30
0.0
 10
233.5266692518912
 20
165.6558234689984
 30
0.0
 10
233.2099618860875
 20
165.5069361476359
 30
0.0
 10
232.9994588260139
 20
165.4931465099513
 30
0.0
 10
232.8941200153319
 20
165.486245973527
 30
0.0
  0
SPLINE
  5
D6
330
1F
100
AcDbEntity
  8
0
  6
Continuous
 62
     7
370
    15
100
AcDbSpline
210
0.0
220
0.0
230
1.0
 70
     8
 71
     3
 72
    11
 73
     7
 74
     0
 42
0.00000001
 43
0.0000000001
 40
0.0
 40
0.0
 40
0.0
 40
0.0
 40
0.2805694170054234
 40
0.5596965501700064
 40
0.7796335729876283
 40
1.0
 40
1.0
 40
1.0
 40
1.0
 10
233.4980864302604
 20
167.2480649184693
 30
0.0
 10
233.470455634424
 20
167.3258382922186
 30
0.0
 10
233.4153360805069
 20
167.4809852410457
 30
0.0
 10
233.2606905505669
 20
167.6593347250739
 30
0.0
 10
233.0643407788315
 20
167.7502199477865
 30
0.0
 10
232.9348736748676
 20
167.7579954881031
 30
0.0
 10
232.8700769917457
 20
167.7618870497938
 30
0.0
  0
SPLINE
  5
D7
330
1F
100
AcDbEntity
  8
0
  6
Continuous
 62
     7
370
    15
100
AcDbSpline
210
0.0
220
0.0
230
1.0
 70
     8
 71
     3
 72
    10
 73
     6
 74
     0
 42
0.00000001
 43
0.0000000001
 40
0.0
 40
0.0
 40
0.0
 40
0.0
 40
0.2807523376436074
 40
0.5609035452402175
 40
1.0
 40
1.0
 40
1.0
 40
1.0
 10
232.8610617892234
 20
165.7747075413611
 30
0.0
 10
232.9571729721735
 20
165.7840080307682
 30
0.0
 10
233.14918955058
 20
165.8025890959329
 30
0.0
 10
233.4413958721542
 20
166.0148153099338
 30
0.0
 10
233.5163963971076
 20
166.2544273983827
 30
0.0
 10
233.5621837751357
 20
166.4007091648203
 30
0.0
  0
SPLINE
  5
D8
330
1F
100
AcDbEntity
  8
0
  6
Continuous
 62
     7
370
    15
100
AcDbSpline
210
0.0
220
0.0
230
1.0
 70
     8
 71
     3
 72
    11
 73
     7
 74
     0
 42
0.00000001
 43
0.0000000001
 40
0.0
 40
0.0
 40
0.0
 40
0.0
 40
0.2812227942098275
 40
0.5607134267048905
 40
0.7801350612526987
 40
1.0
 40
1.0
 40
1.0
 40
1.0
 10
232.0878256337134
 20
166.7883293474845
 30
0.0
 10
232.0947650947886
 20
166.654068564936
 30
0.0
 10
232.1086012740708
 20
166.3863739647655
 30
0.0
 10
232.2544401349791
 20
166.0272067803867
 30
0.0
 10
232.5444429287398
 20
165.8115130624183
 30
0.0
 10
232.7554511896956
 20
165.7869842994129
 30
0.0
 10
232.8610617892234
 20
165.7747075413611
 30
0.0
  0
SPLINE
  5
D9
330
1F
100
AcDbEntity
  8
0
  6
Continuous
 62
     7
370
    15
100
AcDbSpline
210
0.0
220
0.0
230
1.0
 70
     8
 71
     3
 72
    11
 73
     7
 74
     0
 42
0.00000001
 43
0.0000000001
 40
0.0
 40
0.0
 40
0.0
 40
0.0
 40
0.2799578566107154
 40
0.5580886793999557
 40
0.7789121298155435
 40
1.0
 40
1.0
 40
1.0
 40
1.0
 10
232.8941200153319
 20
165.486245973527
 30
0.0
 10
232.7067695199499
 20
165.4999923206686
 30
0.0
 10
232.3332911978249
 20
165.5273953048738
 30
0.0
 10
231.9384554021891
 20
165.9072318024635
 30
0.0
 10
231.766028581475
 20
166.3525752258505
 30
0.0
 10
231.7455230569295
 20
166.6420186401779
 30
0.0
 10
231.735264159867
 20
166.7868269422727
 30
0.0
  0
SPLINE
  5
DA
330
1F
100
AcDbEntity
  8
0
  6
Continuous
 62
     7
370
    15
100
AcDbSpline
210
0.0
220
0.0
230
1.0
 70
     8
 71
     3
 72
    11
 73
     7
 74
     0
 42
0.00000001
 43
0.0000000001
 40
0.0
 40
0.0
 40
0.0
 40
0.0
 40
0.2805011391188696
 40
0.5595501532136581
 40
0.7796115793094108
 40
1.0
 40
1.0
 40
1.0
 40
1.0
 10
231.735264159867
 20
166.7868269422727
 30
0.0
 10
231.7486972016358
 20
166.967192550879
 30
0.0
 10
231.7754937437228
 20
167.3269900342231
 30
0.0
 10
232.0544888294022
 20
167.7686017690187
 30
0.0
 10
232.4631949806839
 20
168.0110588360017
 30
0.0
 10
232.7457344194719
 20
168.0372455433236
 30
0.0
 10
232.8871090189902
 20
168.0503486176279
 30
0.0
  0
SPLINE
  5
DB
330
1F
100
AcDbEntity
  8
0
  6
Continuous
 62
     7
370
    15
100
AcDbSpline
210
0.0
220
0.0
230
1.0
 70
     8
 71
     3
 72
    11
 73
     7
 74
     0
 42
0.00000001
 43
0.0000000001
 40
0.0
 40
0.0
 40
0.0
 40
0.0
 40
0.187208565516707
 40
0.3739219038511154
 40
0.5607749564545227
 40
1.0
 40
1.0
 40
1.0
 40
1.0
 10
232.8700769917457
 20
167.7618870497938
 30
0.0
 10
232.7817169247959
 20
167.7558363862977
 30
0.0
 10
232.6052305318411
 20
167.7437510652667
 30
0.0
 10
232.3692798909924
 20
167.6094487559234
 30
0.0
 10
232.1266371456003
 20
167.3021129105532
 30
0.0
 10
232.1038276404319
 20
167.0001625801609
 30
0.0
 10
232.0878256337134
 20
166.7883293474845
 30
0.0
  0
SPLINE
  5
DC
330
1F
100
AcDbEntity
  8
0
  6
Continuous
 62
     7
370
    15
100
AcDbSpline
210
0.0
220
0.0
230
1.0
 70
     8
 71
     3
 72
    11
 73
     7
 74
     0
 42
0.00000001
 43
0.0000000001
 40
0.0
 40
0.0
 40
0.0
 40
0.0
 40
0.2800561578985599
 40
0.5593956626451618
 40
0.7795531525212736
 40
1.0
 40
1.0
 40
1.0
 40
1.0
 10
232.8871090189902
 20
168.0503486176279
 30
0.0
 10
233.0095887052211
 20
168.0412964800113
 30
0.0
 10
233.2542346567826
 20
168.0232153688573
 30
0.0
 10
233.5546986081063
 20
167.8425570406651
 30
0.0
 10
233.7554813606497
 20
167.5960894789457
 30
0.0
 10
233.818911837412
 20
167.4145268554653
 30
0.0
 10
233.8506479041068
 20
167.323685925014
 30
0.0
  0
SPLINE
  5
DD
330
1F
100
AcDbEntity
  8
0
  6
Continuous
 62
     7
370
    15
100
AcDbSpline
210
0.0
220
0.0
230
1.0
 70
     8
 71
     3
 72
    10
 73
     6
 74
     0
 42
0.00000001
 43
0.0000000001
 40
0.0
 40
0.0
 40
0.0
 40
0.0
 40
0.2801331572062777
 40
0.5596510067302081
 40
1.0
 40
1.0
 40
1.0
 40
1.0
 10
235.4246650115935
 20
167.7618870497938
 30
0.0
 10
235.2842604228139
 20
167.7430482665262
 30
0.0
 10
235.0037596415293
 20
167.7054120790558
 30
0.0
 10
234.6188306456119
 20
167.3274680158339
 30
0.0
 10
234.5995918146732
 20
166.9575314883692
 30
0.0
 10
234.5878232495276
 20
166.731238002187
 30
0.0
  0
SPLINE
  5
DE
330
1F
100
AcDbEntity
  8
0
  6
Continuous
 62
     7
370
    15
100
AcDbSpline
210
0.0
220
0.0
230
1.0
 70
     8
 71
     3
 72
    11
 73
     7
 74
     0
 42
0.00000001
 43
0.0000000001
 40
0.0
 40
0.0
 40
0.0
 40
0.0
 40
0.2803586929125014
 40
0.5595117628418013
 40
0.7796266640296034
 40
1.0
 40
1.0
 40
1.0
 40
1.0
 10
236.6070572511642
 20
166.7642908854689
 30
0.0
 10
236.5912671750046
 20
166.5810421650703
 30
0.0
 10
236.5597549245527
 20
166.2153327464551
 30
0.0
 10
236.2684967555163
 20
165.7712304927161
 30
0.0
 10
235.8519374583655
 20
165.5278948856655
 30
0.0
 10
235.5648107977403
 20
165.5001343732778
 30
0.0
 10
235.421163238713
 20
165.486245973527
 30
0.0
  0
SPLINE
  5
DF
330
1F
100
AcDbEntity
  8
0
  6
Continuous
 62
     7
370
    15
100
AcDbSpline
210
0.0
220
0.0
230
1.0
 70
     8
 71
     3
 72
    11
 73
     7
 74
     0
 42
0.00000001
 43
0.0000000001
 40
0.0
 40
0.0
 40
0.0
 40
0.0
 40
0.2806429628327149
 40
0.5598842431508216
 40
0.7798523266431405
 40
1.0
 40
1.0
 40
1.0
 40
1.0
 10
234.5878232495276
 20
166.731238002187
 30
0.0
 10
234.5962768550392
 20
166.5974298754877
 30
0.0
 10
234.6131418441911
 20
166.3304819321356
 30
0.0
 10
234.8153193253935
 20
166.0047093199434
 30
0.0
 10
235.1048729429599
 20
165.8044613333466
 30
0.0
 10
235.3147012550272
 20
165.7846281696732
 30
0.0
 10
235.4196582214324
 20
165.7747075413611
 30
0.0
  0
SPLINE
  5
E0
330
1F
100
AcDbEntity
  8
0
  6
Continuous
 62
     7
370
    15
100
AcDbSpline
210
0.0
220
0.0
230
1.0
 70
     8
 71
     3
 72
    11
 73
     7
 74
     0
 42
0.00000001
 43
0.0000000001
 40
0.0
 40
0.0
 40
0.0
 40
0.0
 40
0.2795753316295453
 40
0.5585728789723227
 40
0.7790867536735171
 40
1.0
 40
1.0
 40
1.0
 40
1.0
 10
235.422660805413
 20
168.0503486176279
 30
0.0
 10
235.6066750283241
 20
168.0287866116636
 30
0.0
 10
235.9743231812003
 20
167.9857071608491
 30
0.0
 10
236.3792211185884
 20
167.6322375939575
 30
0.0
 10
236.5778317133961
 20
167.1969378895726
 30
0.0
 10
236.5973095311969
 20
166.9085935112801
 30
0.0
 10
236.6070572511642
 20
166.7642908854689
 30
0.0
  0
SPLINE
  5
E1
330
1F
100
AcDbEntity
  8
0
  6
Continuous
 62
     7
370
    15
100
AcDbSpline
210
0.0
220
0.0
230
1.0
 70
     8
 71
     3
 72
    11
 73
     7
 74
     0
 42
0.00000001
 43
0.0000000001
 40
0.0
 40
0.0
 40
0.0
 40
0.0
 40
0.2796039118112215
 40
0.5587668490674726
 40
0.7792971104321667
 40
1.0
 40
1.0
 40
1.0
 40
1.0
 10
235.421163238713
 20
165.486245973527
 30
0.0
 10
235.240531545554
 20
165.5069822556526
 30
0.0
 10
234.8795530407313
 20
165.5484221158807
 30
0.0
 10
234.4800578869033
 20
165.8904015318021
 30
0.0
 10
234.2722066788546
 20
166.3112281128239
 30
0.0
 10
234.2475799550615
 20
166.5938687841461
 30
0.0
 10
234.2352617756812
 20
166.7352444100218
 30
0.0
  0
SPLINE
  5
E2
330
1F
100
AcDbEntity
  8
0
  6
Continuous
 62
     7
370
    15
100
AcDbSpline
210
0.0
220
0.0
230
1.0
 70
     8
 71
     3
 72
    11
 73
     7
 74
     0
 42
0.00000001
 43
0.0000000001
 40
0.0
 40
0.0
 40
0.0
 40
0.0
 40
0.2805808361334821
 40
0.5596085215105876
 40
0.7795770507773217
 40
1.0
 40
1.0
 40
1.0
 40
1.0
 10
234.2352617756812
 20
166.7352444100218
 30
0.0
 10
234.2473346205666
 20
166.9229311698567
 30
0.0
 10
234.2714134812964
 20
167.2972657524522
 30
0.0
 10
234.5641524220299
 20
167.7514241453789
 30
0.0
 10
234.9812140500282
 20
168.01451129247
 30
0.0
 10
235.2754106975671
 20
168.0383946278657
 30
0.0
 10
235.422660805413
 20
168.0503486176279
 30
0.0
  0
SPLINE
  5
E3
330
1F
100
AcDbEntity
  8
0
  6
Continuous
 62
     7
370
    15
100
AcDbSpline
210
0.0
220
0.0
230
1.0
 70
     8
 71
     3
 72
    11
 73
     7
 74
     0
 42
0.00000001
 43
0.0000000001
 40
0.0
 40
0.0
 40
0.0
 40
0.0
 40
0.2807957524916407
 40
0.5600738190882306
 40
0.7799754482566991
 40
1.0
 40
1.0
 40
1.0
 40
1.0
 10
236.2544957773177
 20
166.7667948917299
 30
0.0
 10
236.2459434115079
 20
166.9032047966975
 30
0.0
 10
236.228884904964
 20
167.1752873184547
 30
0.0
 10
236.041605340522
 20
167.5195902859091
 30
0.0
 10
235.7459780303253
 20
167.7282997462224
 30
0.0
 10
235.5317893004496
 20
167.7506891966104
 30
0.0
 10
235.4246650115935
 20
167.7618870497938
 30
0.0
  0
SPLINE
  5
E4
330
1F
100
AcDbEntity
  8
0
  6
Continuous
 62
     7
370
    15
100
AcDbSpline
210
0.0
220
0.0
230
1.0
 70
     8
 71
     3
 72
    11
 73
     7
 74
     0
 42
0.00000001
 43
0.0000000001
 40
0.0
 40
0.0
 40
0.0
 40
0.0
 40
0.2790936451518057
 40
0.5581695214682827
 40
0.7788099485595572
 40
1.0
 40
1.0
 40
1.0
 40
1.0
 10
235.4196582214324
 20
165.7747075413611
 30
0.0
 10
235.5567689691071
 20
165.7922165782201
 30
0.0
 10
235.8309817351345
 20
165.827233537204
 30
0.0
 10
236.1150817817364
 20
166.1132516903292
 30
0.0
 10
236.2395464488164
 20
166.4448070597271
 30
0.0
 10
236.2495085369674
 20
166.6593766416089
 30
0.0
 10
236.2544957773177
 20
166.7667948917299
 30
0.0
  0
LINE
  5
E5
330
1F
100
AcDbEntity
  8
0
  6
Continuous
 62
     7
370
    15
100
AcDbLine
 10
224.2299963014
 20
184.0182968634
 30
0.0
 11
224.1903890149
 21
184.0182968634
 31
0.0
  0
LINE
  5
E6
330
1F
100
AcDbEntity
  8
0
  6
Continuous
 62
     7
370
    15
100
AcDbLine
 10
220.1903883593
 20
184.0182968634
 30
0.0
 11
220.1507810728
 21
184.0182968634
 31
0.0
  0
LINE
  5
E7
330
1F
100
AcDbEntity
  8
0
  6
Continuous
 62
     7
370
    15
100
AcDbLine
 10
245.6903878824
 20
194.2682971466
 30
0.0
 11
198.6903894917
 21
194.2682971466
 31
0.0
  0
ARC
  5
E8
330
1F
100
AcDbEntity
  8
0
  6
Continuous
 62
     7
370
    15
100
AcDbCircle
 10
245.6903878895
 20
190.268296498
 30
0.0
 40
4.000000648589093
100
AcDbArc
 50
359.9999998988
 51
90.00000010120002
  0
LINE
  5
E9
330
1F
100
AcDbEntity
  8
0
  6
Continuous
 62
     7
370
    15
100
AcDbLine
 10
249.6903885381
 20
143.2682981002
 30
0.0
 11
249.6903885381
 21
190.2682964909
 31
0.0
  0
ARC
  5
EA
330
1F
100
AcDbEntity
  8
0
  6
Continuous
 62
     7
370
    15
100
AcDbCircle
 10
245.6903878895
 20
143.2682980932
 30
0.0
 40
4.000000648589065
100
AcDbArc
 50
269.9999998988
 51
0.0000001012
  0
LINE
  5
EB
330
1F
100
AcDbEntity
  8
0
  6
Continuous
 62
     7
370
    15
100
AcDbLine
 10
198.6903894917
 20
139.2682974446
 30
0.0
 11
245.6903878824
 21
139.2682974446
 31
0.0
  0
LINE
  5
EC
330
1F
100
AcDbEntity
  8
0
  6
Continuous
 62
     7
370
    15
100
AcDbLine
 10
194.6903888361
 20
190.2682964909
 30
0.0
 11
194.6903888361
 21
143.2682981002
 31
0.0
  0
ARC
  5
ED
330
1F
100
AcDbEntity
  8
0
  6
Continuous
 62
     7
370
    15
100
AcDbCircle
 10
198.6903894847
 20
143.2682980932
 30
0.0
 40
4.000000648589065
100
AcDbArc
 50
179.9999998988
 51
270.0000001012
  0
ARC
  5
EE
330
1F
100
AcDbEntity
  8
0
  6
Continuous
 62
     7
370
    15
100
AcDbCircle
 10
198.6903894847
 20
190.268296498
 30
0.0
 40
4.000000648589093
100
AcDbArc
 50
89.99999989879999
 51
180.0000001012
  0
LINE
  5
EF
330
1F
100
AcDbEntity
  8
0
  6
Continuous
 62
     7
370
    15
100
AcDbLine
 10
123.5884586604
 20
145.9491362083
 30
0.0
 11
123.5884586604
 21
145.8682974088
 31
0.0
  0
LINE
  5
F0
330
1F
100
AcDbEntity
  8
0
  6
Continuous
 62
     7
370
    15
100
AcDbLine
 10
129.0884623558
 20
145.8682974088
 30
0.0
 11
129.0884623558
 21
145.9491362083
 31
0.0
  0
LINE
  5
F1
330
1F
100
AcDbEntity
  8
0
  6
Continuous
 62
     7
370
    15
100
AcDbLine
 10
114.5820552738
 20
167.7298357579999
 30
0.0
 11
113.7807676823
 21
167.7298357579999
 31
0.0
  0
LINE
  5
F2
330
1F
100
AcDbEntity
  8
0
  6
Continuous
 62
     7
370
    15
100
AcDbLine
 10
114.5820552738
 20
168.0182972676
 30
0.0
 11
114.5820552738
 21
167.7298357579999
 31
0.0
  0
LINE
  5
F3
330
1F
100
AcDbEntity
  8
0
  6
Continuous
 62
     7
370
    15
100
AcDbLine
 10
112.6269260676
 20
168.0182972676
 30
0.0
 11
114.5820552738
 21
168.0182972676
 31
0.0
  0
LINE
  5
F4
330
1F
100
AcDbEntity
  8
0
  6
Continuous
 62
     7
370
    15
100
AcDbLine
 10
112.6269260676
 20
167.7298357579999
 30
0.0
 11
112.6269260676
 21
168.0182972676
 31
0.0
  0
LINE
  5
F5
330
1F
100
AcDbEntity
  8
0
  6
Continuous
 62
     7
370
    15
100
AcDbLine
 10
113.4282062085
 20
167.7298357579999
 30
0.0
 11
112.6269260676
 21
167.7298357579999
 31
0.0
  0
LINE
  5
F6
330
1F
100
AcDbEntity
  8
0
  6
Continuous
 62
     7
370
    15
100
AcDbLine
 10
113.4282062085
 20
165.5182973235
 30
0.0
 11
113.4282062085
 21
167.7298357579999
 31
0.0
  0
LINE
  5
F7
330
1F
100
AcDbEntity
  8
0
  6
Continuous
 62
     7
370
    15
100
AcDbLine
 10
113.7807676823
 20
165.5182973235
 30
0.0
 11
113.4282062085
 21
165.5182973235
 31
0.0
  0
LINE
  5
F8
330
1F
100
AcDbEntity
  8
0
  6
Continuous
 62
     7
370
    15
100
AcDbLine
 10
113.7807676823
 20
167.7298357579999
 30
0.0
 11
113.7807676823
 21
165.5182973235
 31
0.0
  0
LINE
  5
F9
330
1F
100
AcDbEntity
  8
0
  6
Continuous
 62
     7
370
    15
100
AcDbLine
 10
109.19743872
 20
166.7041947338
 30
0.0
 11
107.9794848592
 21
166.7041947338
 31
0.0
  0
LINE
  5
FA
330
1F
100
AcDbEntity
  8
0
  6
Continuous
 62
     7
370
    15
100
AcDbLine
 10
109.19743872
 20
165.5182973235
 30
0.0
 11
109.19743872
 21
166.7041947338
 31
0.0
  0
LINE
  5
FB
330
1F
100
AcDbEntity
  8
0
  6
Continuous
 62
     7
370
    15
100
AcDbLine
 10
109.5500001938
 20
165.5182973235
 30
0.0
 11
109.19743872
 21
165.5182973235
 31
0.0
  0
LINE
  5
FC
330
1F
100
AcDbEntity
  8
0
  6
Continuous
 62
     7
370
    15
100
AcDbLine
 10
109.5500001938
 20
168.0182972676
 30
0.0
 11
109.5500001938
 21
165.5182973235
 31
0.0
  0
LINE
  5
FD
330
1F
100
AcDbEntity
  8
0
  6
Continuous
 62
     7
370
    15
100
AcDbLine
 10
109.19743872
 20
168.0182972676
 30
0.0
 11
109.5500001938
 21
168.0182972676
 31
0.0
  0
LINE
  5
FE
330
1F
100
AcDbEntity
  8
0
  6
Continuous
 62
     7
370
    15
100
AcDbLine
 10
109.19743872
 20
166.9926562653
 30
0.0
 11
109.19743872
 21
168.0182972676
 31
0.0
  0
LINE
  5
FF
330
1F
100
AcDbEntity
  8
0
  6
Continuous
 62
     7
370
    15
100
AcDbLine
 10
107.9794848592
 20
166.9926562653
 30
0.0
 11
109.19743872
 21
166.9926562653
 31
0.0
  0
LINE
  5
100
330
1F
100
AcDbEntity
  8
0
  6
Continuous
 62
     7
370
    15
100
AcDbLine
 10
107.9794848592
 20
168.0182972676
 30
0.0
 11
107.9794848592
 21
166.9926562653
 31
0.0
  0
LINE
  5
101
330
1F
100
AcDbEntity
  8
0
  6
Continuous
 62
     7
370
    15
100
AcDbLine
 10
107.6269233854
 20
168.0182972676
 30
0.0
 11
107.9794848592
 21
168.0182972676
 31
0.0
  0
LINE
  5
102
330
1F
100
AcDbEntity
  8
0
  6
Continuous
 62
     7
370
    15
100
AcDbLine
 10
107.6269233854
 20
165.5182973235
 30
0.0
 11
107.6269233854
 21
168.0182972676
 31
0.0
  0
LINE
  5
103
330
1F
100
AcDbEntity
  8
0
  6
Continuous
 62
     7
370
    15
100
AcDbLine
 10
107.9794848592
 20
165.5182973235
 30
0.0
 11
107.6269233854
 21
165.5182973235
 31
0.0
  0
LINE
  5
104
330
1F
100
AcDbEntity
  8
0
  6
Continuous
 62
     7
370
    15
100
AcDbLine
 10
107.9794848592
 20
166.7041947338
 30
0.0
 11
107.9794848592
 21
165.5182973235
 31
0.0
  0
LINE
  5
105
330
1F
100
AcDbEntity
  8
0
  6
Continuous
 62
     7
370
    15
100
AcDbLine
 10
124.2384622128
 20
184.5182978767
 30
0.0
 11
124.2384622128
 21
187.6630333471
 31
0.0
  0
ARC
  5
106
330
1F
100
AcDbEntity
  8
0
  6
Continuous
 62
     7
370
    15
100
AcDbCircle
 10
126.3384605081
 20
184.5182960141
 30
0.0
 40
2.099998295308
100
AcDbArc
 50
179.9999491801
 51
0.0000508199
  0
LINE
  5
107
330
1F
100
AcDbEntity
  8
0
  6
Continuous
 62
     7
370
    15
100
AcDbLine
 10
128.4384588034
 20
187.6630333471
 30
0.0
 11
128.4384588034
 21
184.5182978767
 31
0.0
  0
ARC
  5
108
330
1F
100
AcDbEntity
  8
0
  6
Continuous
 62
     7
370
    15
100
AcDbCircle
 10
126.3384605081
 20
166.7682972884
 30
0.0
 40
20.99999970966651
100
AcDbArc
 50
95.73916588240001
 51
84.2608341176
  0
SPLINE
  5
109
330
1F
100
AcDbEntity
  8
0
  6
Continuous
 62
     7
370
    15
100
AcDbSpline
210
0.0
220
0.0
230
1.0
 70
     8
 71
     3
 72
    11
 73
     7
 74
     0
 42
0.00000001
 43
0.0000000001
 40
0.0
 40
0.0
 40
0.0
 40
0.0
 40
0.2795753316295453
 40
0.5585728789723227
 40
0.7790867536735171
 40
1.0
 40
1.0
 40
1.0
 40
1.0
 10
111.1861178905941
 20
168.0503486176279
 30
0.0
 10
111.3701321135052
 20
168.0287866116636
 30
0.0
 10
111.7377802663814
 20
167.9857071608491
 30
0.0
 10
112.1426782037695
 20
167.6322375939575
 30
0.0
 10
112.3412887985772
 20
167.1969378895726
 30
0.0
 10
112.360766616378
 20
166.9085935112801
 30
0.0
 10
112.3705143363453
 20
166.7642908854689
 30
0.0
  0
SPLINE
  5
10A
330
1F
100
AcDbEntity
  8
0
  6
Continuous
 62
     7
370
    15
100
AcDbSpline
210
0.0
220
0.0
230
1.0
 70
     8
 71
     3
 72
    11
 73
     7
 74
     0
 42
0.00000001
 43
0.0000000001
 40
0.0
 40
0.0
 40
0.0
 40
0.0
 40
0.2805808361334821
 40
0.5596085215105876
 40
0.7795770507773217
 40
1.0
 40
1.0
 40
1.0
 40
1.0
 10
109.9987188608623
 20
166.7352444100218
 30
0.0
 10
110.0107917057477
 20
166.9229311698567
 30
0.0
 10
110.0348705664775
 20
167.2972657524522
 30
0.0
 10
110.327609507211
 20
167.7514241453789
 30
0.0
 10
110.7446711352093
 20
168.01451129247
 30
0.0
 10
111.0388677827482
 20
168.0383946278657
 30
0.0
 10
111.1861178905941
 20
168.0503486176279
 30
0.0
  0
SPLINE
  5
10B
330
1F
100
AcDbEntity
  8
0
  6
Continuous
 62
     7
370
    15
100
AcDbSpline
210
0.0
220
0.0
230
1.0
 70
     8
 71
     3
 72
    11
 73
     7
 74
     0
 42
0.00000001
 43
0.0000000001
 40
0.0
 40
0.0
 40
0.0
 40
0.0
 40
0.2796011719078103
 40
0.5587651709125865
 40
0.7792962710264427
 40
1.0
 40
1.0
 40
1.0
 40
1.0
 10
111.1846128733135
 20
165.486245973527
 30
0.0
 10
111.0039838172185
 20
165.5069827320344
 30
0.0
 10
110.6430081291983
 20
165.5484238259058
 30
0.0
 10
110.2435149817098
 20
165.8904015234027
 30
0.0
 10
110.0356637618673
 20
166.311228114716
 30
0.0
 10
110.0110370395196
 20
166.593868784777
 30
0.0
 10
109.9987188608623
 20
166.7352444100218
 30
0.0
  0
SPLINE
  5
10C
330
1F
100
AcDbEntity
  8
0
  6
Continuous
 62
     7
370
    15
100
AcDbSpline
210
0.0
220
0.0
230
1.0
 70
     8
 71
     3
 72
    11
 73
     7
 74
     0
 42
0.00000001
 43
0.0000000001
 40
0.0
 40
0.0
 40
0.0
 40
0.0
 40
0.2803579687218731
 40
0.5595124356762467
 40
0.7796234600977138
 40
1.0
 40
1.0
 40
1.0
 40
1.0
 10
112.3705143363453
 20
166.7642908854689
 30
0.0
 10
112.3547248656372
 20
166.5810416745255
 30
0.0
 10
112.3232137041952
 20
166.2153298924843
 30
0.0
 10
112.0319466468328
 20
165.7712353675456
 30
0.0
 10
111.6153912550573
 20
165.5278917837325
 30
0.0
 10
111.3282633585287
 20
165.5001334876102
 30
0.0
 10
111.1846128733135
 20
165.486245973527
 30
0.0
  0
SPLINE
  5
10D
330
1F
100
AcDbEntity
  8
0
  6
Continuous
 62
     7
370
    15
100
AcDbSpline
210
0.0
220
0.0
230
1.0
 70
     8
 71
     3
 72
    11
 73
     7
 74
     0
 42
0.00000001
 43
0.0000000001
 40
0.0
 40
0.0
 40
0.0
 40
0.0
 40
0.279089009745208
 40
0.5581689582389722
 40
0.7788096665945814
 40
1.0
 40
1.0
 40
1.0
 40
1.0
 10
111.1831153066135
 20
165.7747075413611
 30
0.0
 10
111.320222915966
 20
165.7922176286674
 30
0.0
 10
111.5944336831644
 20
165.8272372347758
 30
0.0
 10
111.8785390144157
 20
166.1132490782774
 30
0.0
 10
112.0030033558002
 20
166.4448072635945
 30
0.0
 10
112.0129655627001
 20
166.6593767096211
 30
0.0
 10
112.0179528624988
 20
166.7667948917299
 30
0.0
  0
SPLINE
  5
10E
330
1F
100
AcDbEntity
  8
0
  6
Continuous
 62
     7
370
    15
100
AcDbSpline
210
0.0
220
0.0
230
1.0
 70
     8
 71
     3
 72
    11
 73
     7
 74
     0
 42
0.00000001
 43
0.0000000001
 40
0.0
 40
0.0
 40
0.0
 40
0.0
 40
0.2806429628327149
 40
0.5598842431508216
 40
0.7798523266431405
 40
1.0
 40
1.0
 40
1.0
 40
1.0
 10
110.3512803347087
 20
166.731238002187
 30
0.0
 10
110.3597339402203
 20
166.5974298754877
 30
0.0
 10
110.3765989293722
 20
166.3304819321356
 30
0.0
 10
110.5787764105746
 20
166.0047093199434
 30
0.0
 10
110.868330028141
 20
165.8044613333466
 30
0.0
 10
111.0781583402083
 20
165.7846281696732
 30
0.0
 10
111.1831153066135
 20
165.7747075413611
 30
0.0
  0
SPLINE
  5
10F
330
1F
100
AcDbEntity
  8
0
  6
Continuous
 62
     7
370
    15
100
AcDbSpline
210
0.0
220
0.0
230
1.0
 70
     8
 71
     3
 72
    11
 73
     7
 74
     0
 42
0.00000001
 43
0.0000000001
 40
0.0
 40
0.0
 40
0.0
 40
0.0
 40
0.2807959787748361
 40
0.5600742704315732
 40
0.7799803227338244
 40
1.0
 40
1.0
 40
1.0
 40
1.0
 10
112.0179528624988
 20
166.7667948917299
 30
0.0
 10
112.0094004183617
 20
166.9032046728501
 30
0.0
 10
111.9923417555866
 20
167.1752869475821
 30
0.0
 10
111.8050622559979
 20
167.5195935038091
 30
0.0
 10
111.5094309397498
 20
167.7282966005885
 30
0.0
 10
111.2952434846986
 20
167.7506883055995
 30
0.0
 10
111.1881220967746
 20
167.7618870497938
 30
0.0
  0
SPLINE
  5
110
330
1F
100
AcDbEntity
  8
0
  6
Continuous
 62
     7
370
    15
100
AcDbSpline
210
0.0
220
0.0
230
1.0
 70
     8
 71
     3
 72
    10
 73
     6
 74
     0
 42
0.00000001
 43
0.0000000001
 40
0.0
 40
0.0
 40
0.0
 40
0.0
 40
0.2801331572062777
 40
0.5596510067302081
 40
1.0
 40
1.0
 40
1.0
 40
1.0
 10
111.1881220967746
 20
167.7618870497938
 30
0.0
 10
111.047717507995
 20
167.7430482665262
 30
0.0
 10
110.7672167267104
 20
167.7054120790558
 30
0.0
 10
110.3822877307931
 20
167.3274680158339
 30
0.0
 10
110.3630488998543
 20
166.9575314883692
 30
0.0
 10
110.3512803347087
 20
166.731238002187
 30
0.0
  0
SPLINE
  5
111
330
1F
100
AcDbEntity
  8
0
  6
Continuous
 62
     7
370
    15
100
AcDbSpline
210
0.0
220
0.0
230
1.0
 70
     8
 71
     3
 72
    11
 73
     7
 74
     0
 42
0.00000001
 43
0.0000000001
 40
0.0
 40
0.0
 40
0.0
 40
0.0
 40
0.279089009745208
 40
0.5581689582389722
 40
0.7788096665945814
 40
1.0
 40
1.0
 40
1.0
 40
1.0
 10
111.1831153066135
 20
165.7747075413611
 30
0.0
 10
111.320222915966
 20
165.7922176286674
 30
0.0
 10
111.5944336831644
 20
165.8272372347758
 30
0.0
 10
111.8785390144157
 20
166.1132490782774
 30
0.0
 10
112.0030033558002
 20
166.4448072635945
 30
0.0
 10
112.0129655627001
 20
166.6593767096211
 30
0.0
 10
112.0179528624988
 20
166.7667948917299
 30
0.0
  0
SPLINE
  5
112
330
1F
100
AcDbEntity
  8
0
  6
Continuous
 62
     7
370
    15
100
AcDbSpline
210
0.0
220
0.0
230
1.0
 70
     8
 71
     3
 72
    11
 73
     7
 74
     0
 42
0.00000001
 43
0.0000000001
 40
0.0
 40
0.0
 40
0.0
 40
0.0
 40
0.2803579687218731
 40
0.5595124356762467
 40
0.7796234600977138
 40
1.0
 40
1.0
 40
1.0
 40
1.0
 10
112.3705143363453
 20
166.7642908854689
 30
0.0
 10
112.3547248656372
 20
166.5810416745255
 30
0.0
 10
112.3232137041952
 20
166.2153298924843
 30
0.0
 10
112.0319466468328
 20
165.7712353675456
 30
0.0
 10
111.6153912550573
 20
165.5278917837325
 30
0.0
 10
111.3282633585287
 20
165.5001334876102
 30
0.0
 10
111.1846128733135
 20
165.486245973527
 30
0.0
  0
SPLINE
  5
113
330
1F
100
AcDbEntity
  8
0
  6
Continuous
 62
     7
370
    15
100
AcDbSpline
210
0.0
220
0.0
230
1.0
 70
     8
 71
     3
 72
    11
 73
     7
 74
     0
 42
0.00000001
 43
0.0000000001
 40
0.0
 40
0.0
 40
0.0
 40
0.0
 40
0.2807959787748361
 40
0.5600742704315732
 40
0.7799803227338244
 40
1.0
 40
1.0
 40
1.0
 40
1.0
 10
112.0179528624988
 20
166.7667948917299
 30
0.0
 10
112.0094004183617
 20
166.9032046728501
 30
0.0
 10
111.9923417555866
 20
167.1752869475821
 30
0.0
 10
111.8050622559979
 20
167.5195935038091
 30
0.0
 10
111.5094309397498
 20
167.7282966005885
 30
0.0
 10
111.2952434846986
 20
167.7506883055995
 30
0.0
 10
111.1881220967746
 20
167.7618870497938
 30
0.0
  0
SPLINE
  5
114
330
1F
100
AcDbEntity
  8
0
  6
Continuous
 62
     7
370
    15
100
AcDbSpline
210
0.0
220
0.0
230
1.0
 70
     8
 71
     3
 72
    11
 73
     7
 74
     0
 42
0.00000001
 43
0.0000000001
 40
0.0
 40
0.0
 40
0.0
 40
0.0
 40
0.2796011719078103
 40
0.5587651709125865
 40
0.7792962710264427
 40
1.0
 40
1.0
 40
1.0
 40
1.0
 10
111.1846128733135
 20
165.486245973527
 30
0.0
 10
111.0039838172185
 20
165.5069827320344
 30
0.0
 10
110.6430081291983
 20
165.5484238259058
 30
0.0
 10
110.2435149817098
 20
165.8904015234027
 30
0.0
 10
110.0356637618673
 20
166.311228114716
 30
0.0
 10
110.0110370395196
 20
166.593868784777
 30
0.0
 10
109.9987188608623
 20
166.7352444100218
 30
0.0
  0
SPLINE
  5
115
330
1F
100
AcDbEntity
  8
0
  6
Continuous
 62
     7
370
    15
100
AcDbSpline
210
0.0
220
0.0
230
1.0
 70
     8
 71
     3
 72
    11
 73
     7
 74
     0
 42
0.00000001
 43
0.0000000001
 40
0.0
 40
0.0
 40
0.0
 40
0.0
 40
0.2806429628327149
 40
0.5598842431508216
 40
0.7798523266431405
 40
1.0
 40
1.0
 40
1.0
 40
1.0
 10
110.3512803347087
 20
166.731238002187
 30
0.0
 10
110.3597339402203
 20
166.5974298754877
 30
0.0
 10
110.3765989293722
 20
166.3304819321356
 30
0.0
 10
110.5787764105746
 20
166.0047093199434
 30
0.0
 10
110.868330028141
 20
165.8044613333466
 30
0.0
 10
111.0781583402083
 20
165.7846281696732
 30
0.0
 10
111.1831153066135
 20
165.7747075413611
 30
0.0
  0
SPLINE
  5
116
330
1F
100
AcDbEntity
  8
0
  6
Continuous
 62
     7
370
    15
100
AcDbSpline
210
0.0
220
0.0
230
1.0
 70
     8
 71
     3
 72
    11
 73
     7
 74
     0
 42
0.00000001
 43
0.0000000001
 40
0.0
 40
0.0
 40
0.0
 40
0.0
 40
0.2795753316295453
 40
0.5585728789723227
 40
0.7790867536735171
 40
1.0
 40
1.0
 40
1.0
 40
1.0
 10
111.1861178905941
 20
168.0503486176279
 30
0.0
 10
111.3701321135052
 20
168.0287866116636
 30
0.0
 10
111.7377802663814
 20
167.9857071608491
 30
0.0
 10
112.1426782037695
 20
167.6322375939575
 30
0.0
 10
112.3412887985772
 20
167.1969378895726
 30
0.0
 10
112.360766616378
 20
166.9085935112801
 30
0.0
 10
112.3705143363453
 20
166.7642908854689
 30
0.0
  0
SPLINE
  5
117
330
1F
100
AcDbEntity
  8
0
  6
Continuous
 62
     7
370
    15
100
AcDbSpline
210
0.0
220
0.0
230
1.0
 70
     8
 71
     3
 72
    11
 73
     7
 74
     0
 42
0.00000001
 43
0.0000000001
 40
0.0
 40
0.0
 40
0.0
 40
0.0
 40
0.2805808361334821
 40
0.5596085215105876
 40
0.7795770507773217
 40
1.0
 40
1.0
 40
1.0
 40
1.0
 10
109.9987188608623
 20
166.7352444100218
 30
0.0
 10
110.0107917057477
 20
166.9229311698567
 30
0.0
 10
110.0348705664775
 20
167.2972657524522
 30
0.0
 10
110.327609507211
 20
167.7514241453789
 30
0.0
 10
110.7446711352093
 20
168.01451129247
 30
0.0
 10
111.0388677827482
 20
168.0383946278657
 30
0.0
 10
111.1861178905941
 20
168.0503486176279
 30
0.0
  0
SPLINE
  5
118
330
1F
100
AcDbEntity
  8
0
  6
Continuous
 62
     7
370
    15
100
AcDbSpline
210
0.0
220
0.0
230
1.0
 70
     8
 71
     3
 72
    10
 73
     6
 74
     0
 42
0.00000001
 43
0.0000000001
 40
0.0
 40
0.0
 40
0.0
 40
0.0
 40
0.2801331572062777
 40
0.5596510067302081
 40
1.0
 40
1.0
 40
1.0
 40
1.0
 10
111.1881220967746
 20
167.7618870497938
 30
0.0
 10
111.047717507995
 20
167.7430482665262
 30
0.0
 10
110.7672167267104
 20
167.7054120790558
 30
0.0
 10
110.3822877307931
 20
167.3274680158339
 30
0.0
 10
110.3630488998543
 20
166.9575314883692
 30
0.0
 10
110.3512803347087
 20
166.731238002187
 30
0.0
  0
LINE
  5
119
330
1F
100
AcDbEntity
  8
0
  6
Continuous
 62
     7
370
    15
100
AcDbLine
 10
128.3780718477
 20
184.0182968634
 30
0.0
 11
128.3384645612
 21
184.0182968634
 31
0.0
  0
LINE
  5
11A
330
1F
100
AcDbEntity
  8
0
  6
Continuous
 62
     7
370
    15
100
AcDbLine
 10
124.3384639056
 20
184.0182968634
 30
0.0
 11
124.2988566191
 21
184.0182968634
 31
0.0
  0
LINE
  5
11B
330
1F
100
AcDbEntity
  8
0
  6
Continuous
 62
     7
370
    15
100
AcDbLine
 10
128.3854106696
 20
145.8682974088
 30
0.0
 11
129.0884623558
 21
145.8682974088
 31
0.0
  0
LINE
  5
11C
330
1F
100
AcDbEntity
  8
0
  6
Continuous
 62
     7
370
    15
100
AcDbLine
 10
123.5884586604
 20
145.8682974088
 30
0.0
 11
124.1978639991
 21
145.8682974088
 31
0.0
  0
LINE
  5
11D
330
1F
100
AcDbEntity
  8
0
  6
Continuous
 62
     7
370
    15
100
AcDbLine
 10
124.1978639991
 20
145.8776814151
 30
0.0
 11
124.1978639991
 21
145.8682974088
 31
0.0
  0
LINE
  5
11E
330
1F
100
AcDbEntity
  8
0
  6
Continuous
 62
     7
370
    15
100
AcDbLine
 10
124.2915103466
 20
145.8682974088
 30
0.0
 11
124.1978639991
 21
145.8682974088
 31
0.0
  0
LINE
  5
11F
330
1F
100
AcDbEntity
  8
0
  6
Continuous
 62
     7
370
    15
100
AcDbLine
 10
124.3384639056
 20
191.0182980108
 30
0.0
 11
124.3384639056
 21
184.5182978767
 31
0.0
  0
ARC
  5
120
330
1F
100
AcDbEntity
  8
0
  6
Continuous
 62
     7
370
    15
100
AcDbCircle
 10
126.3384642334
 20
191.0182961482
 30
0.0
 40
2.000000327826428
100
AcDbArc
 50
0.0000533608
 51
179.9999466392
  0
LINE
  5
121
330
1F
100
AcDbEntity
  8
0
  6
Continuous
 62
     7
370
    15
100
AcDbLine
 10
128.3384645612
 20
184.5182978767
 30
0.0
 11
128.3384645612
 21
191.0182980108
 31
0.0
  0
ARC
  5
122
330
1F
100
AcDbEntity
  8
0
  6
Continuous
 62
     7
370
    15
100
AcDbCircle
 10
126.3384642334
 20
184.5182978767
 30
0.0
 40
2.00000032782556
100
AcDbArc
 50
179.9999999999
 51
0.0000000001
  0
LINE
  5
123
330
1F
100
AcDbEntity
  8
0
  6
Continuous
 62
     7
370
    15
100
AcDbLine
 10
124.2384622128
 20
185.0480676848
 30
0.0
 11
124.3384639056
 21
185.0592789459
 31
0.0
  0
LINE
  5
124
330
1F
100
AcDbEntity
  8
0
  6
Continuous
 62
     7
370
    15
100
AcDbLine
 10
128.3384645612
 20
185.0592789459
 30
0.0
 11
128.4384588034
 21
185.0480676848
 31
0.0
  0
LINE
  5
125
330
1F
100
AcDbEntity
  8
0
  6
Continuous
 62
     7
370
    15
100
AcDbLine
 10
124.2384622128
 20
186.5069006789
 30
0.0
 11
124.3384639056
 21
186.5172849256
 31
0.0
  0
LINE
  5
126
330
1F
100
AcDbEntity
  8
0
  6
Continuous
 62
     7
370
    15
100
AcDbLine
 10
128.3384645612
 20
186.5172849256
 30
0.0
 11
128.4384588034
 21
186.5069006789
 31
0.0
  0
LINE
  5
127
330
1F
100
AcDbEntity
  8
0
  6
Continuous
 62
     7
370
    15
100
AcDbLine
 10
128.4384588034
 20
186.5571827847
 30
0.0
 11
128.3384645612
 21
186.5675390916999
 31
0.0
  0
LINE
  5
128
330
1F
100
AcDbEntity
  8
0
  6
Continuous
 62
     7
370
    15
100
AcDbLine
 10
124.3384639056
 20
186.5675390916999
 30
0.0
 11
124.2384622128
 21
186.5571827847
 31
0.0
  0
LINE
  5
129
330
1F
100
AcDbEntity
  8
0
  6
Continuous
 62
     7
370
    15
100
AcDbLine
 10
128.4384588034
 20
187.6630333471
 30
0.0
 11
128.3384645612
 21
187.6728420365
 31
0.0
  0
LINE
  5
12A
330
1F
100
AcDbEntity
  8
0
  6
Continuous
 62
     7
370
    15
100
AcDbLine
 10
124.3384639056
 20
187.6728420365
 30
0.0
 11
124.2384622128
 21
187.6630333471
 31
0.0
  0
ARC
  5
12B
330
1F
100
AcDbEntity
  8
0
  6
Continuous
 62
     7
370
    15
100
AcDbCircle
 10
102.838465031
 20
190.268296498
 30
0.0
 40
4.000000648589121
100
AcDbArc
 50
89.99999989879999
 51
180.0000001012
  0
LINE
  5
12C
330
1F
100
AcDbEntity
  8
0
  6
Continuous
 62
     7
370
    15
100
AcDbLine
 10
149.8384634287
 20
194.2682971466
 30
0.0
 11
102.8384650381
 21
194.2682971466
 31
0.0
  0
ARC
  5
12D
330
1F
100
AcDbEntity
  8
0
  6
Continuous
 62
     7
370
    15
100
AcDbCircle
 10
149.8384634358
 20
190.268296498
 30
0.0
 40
4.000000648589121
100
AcDbArc
 50
359.9999998988
 51
90.00000010120002
  0
LINE
  5
12E
330
1F
100
AcDbEntity
  8
0
  6
Continuous
 62
     7
370
    15
100
AcDbLine
 10
153.8384640844
 20
143.2682981002
 30
0.0
 11
153.8384640844
 21
190.2682964909
 31
0.0
  0
ARC
  5
12F
330
1F
100
AcDbEntity
  8
0
  6
Continuous
 62
     7
370
    15
100
AcDbCircle
 10
149.8384634358
 20
143.2682980932
 30
0.0
 40
4.000000648589093
100
AcDbArc
 50
269.9999998988
 51
0.0000001012
  0
LINE
  5
130
330
1F
100
AcDbEntity
  8
0
  6
Continuous
 62
     7
370
    15
100
AcDbLine
 10
102.8384650381
 20
139.2682974446
 30
0.0
 11
149.8384634287
 21
139.2682974446
 31
0.0
  0
ARC
  5
131
330
1F
100
AcDbEntity
  8
0
  6
Continuous
 62
     7
370
    15
100
AcDbCircle
 10
102.838465031
 20
143.2682980932
 30
0.0
 40
4.000000648589078
100
AcDbArc
 50
179.9999998988
 51
270.0000001012
  0
LINE
  5
132
330
1F
100
AcDbEntity
  8
0
  6
Continuous
 62
     7
370
    15
100
AcDbLine
 10
98.83846438239999
 20
190.2682964909
 30
0.0
 11
98.83846438239999
 21
143.2682981002
 31
0.0
  0
DIMENSION
  5
133
330
1F
100
AcDbEntity
  8
DIM
 62
     7
100
AcDbDimension
280
     0
  2
_D_4
 10
249.6903909223
 20
128.9445413411
 30
0.0
 11
222.3700181685
 21
128.9445413411
 31
0.0
 70
   160
  1
{\fGDT;o}<>
 71
     2
 42
-1.0
 73
     0
 74
     0
 75
     0
  3
SLDDIMSTYLE2
100
AcDbAlignedDimension
 13
194.6903909223
 23
143.2682972956
 33
0.0
 14
249.6903909223
 24
143.2682972956
 34
0.0
100
AcDbRotatedDimension
  0
INSERT
  5
150
330
1F
100
AcDbEntity
  8
DIM
 62
     7
100
AcDbBlockReference
  2
SW_CENTERMARKSYMBOL_0
 10
222.1903924124
 20
166.7682972956
 30
0.0
  0
INSERT
  5
15C
330
1F
100
AcDbEntity
  8
DIM
 62
     7
100
AcDbBlockReference
  2
SW_CENTERMARKSYMBOL_1
 10
126.3384605081
 20
166.7682972956
 30
0.0
  0
ARC
  5
15D
330
1F
100
AcDbEntity
  8
0
  6
HIDDEN
 62
     7
370
     0
100
AcDbCircle
 10
222.2307213278
 20
187.5356827844
 30
0.0
 40
53.99520227094036
100
AcDbArc
 50
157.380135052
 51
202.619864948
  0
ARC
  5
15E
330
1F
100
AcDbEntity
  8
0
  6
HIDDEN
 62
     7
370
     0
100
AcDbCircle
 10
122.5472709815
 20
146.0009118068
 30
0.0
 40
53.99520227094035
100
AcDbArc
 50
337.380135052
 51
22.619864948
  0
ARC
  5
15F
330
1F
100
AcDbEntity
  8
0
  6
HIDDEN
 62
     7
370
     0
100
AcDbCircle
 10
227.2307213278
 20
187.5356827844
 30
0.0
 40
53.9952022709404
100
AcDbArc
 50
157.380135052
 51
202.619864948
  0
ARC
  5
160
330
1F
100
AcDbEntity
  8
0
  6
HIDDEN
 62
     7
370
     0
100
AcDbCircle
 10
127.5472709815
 20
146.0009118068
 30
0.0
 40
53.99520227094036
100
AcDbArc
 50
337.380135052
 51
22.619864948
  0
ENDSEC
  0
SECTION
  2
OBJECTS
  0
DICTIONARY
  5
C
330
0
100
AcDbDictionary
281
     1
  3
ACAD_CIP_PREVIOUS_PRODUCT_INFO
350
1B2
  3
ACAD_COLOR
350
195
  3
ACAD_DETAILVIEWSTYLE
350
1AE
  3
ACAD_GROUP
350
D
  3
ACAD_LAYOUT
350
1A
  3
ACAD_MATERIAL
350
163
  3
ACAD_MLEADERSTYLE
350
1AA
  3
ACAD_MLINESTYLE
350
17
  3
ACAD_PLOTSETTINGS
350
19
  3
ACAD_PLOTSTYLENAME
350
E
  3
ACAD_SCALELIST
350
198
  3
ACAD_SECTIONVIEWSTYLE
350
1AC
  3
ACAD_TABLESTYLE
350
196
  3
ACAD_VISUALSTYLE
350
17C
  3
ACDB_RECOMPOSE_DATA
350
1D9
  3
AcDbVariableDictionary
350
1C9
  0
DICTIONARY
  5
1B3
330
10
100
AcDbDictionary
280
     1
281
     1
  3
ADSK_XREC_LAYER_RECONCILED
360
1B4
  0
DICTIONARY
  5
1B5
330
44
100
AcDbDictionary
280
     1
281
     1
  3
ADSK_XREC_LAYER_RECONCILED
360
1B6
  0
DICTIONARY
  5
1B7
330
45
100
AcDbDictionary
280
     1
281
     1
  3
ADSK_XREC_LAYER_RECONCILED
360
1B8
  0
XRECORD
  5
1B2
102
{ACAD_REACTORS
330
C
102
}
330
C
100
AcDbXrecord
280
     1
300
ACD
300
2017
300
ACD_F_S
  0
DICTIONARY
  5
195
102
{ACAD_REACTORS
330
C
102
}
330
C
100
AcDbDictionary
281
     1
  0
DICTIONARY
  5
1AE
102
{ACAD_REACTORS
330
C
102
}
330
C
100
AcDbDictionary
281
     1
  3
Metric50
350
1AF
  0
DICTIONARY
  5
D
102
{ACAD_REACTORS
330
C
102
}
330
C
100
AcDbDictionary
281
     1
  0
DICTIONARY
  5
1A
102
{ACAD_REACTORS
330
C
102
}
330
C
100
AcDbDictionary
281
     1
  3
Layout1
350
1E
  3
Layout2
350
26
  3
Model
350
22
  0
DICTIONARY
  5
163
102
{ACAD_REACTORS
330
C
102
}
330
C
100
AcDbDictionary
281
     1
  3
ByBlock
350
16C
  3
ByLayer
350
164
  3
Global
350
174
  0
DICTIONARY
  5
1AA
102
{ACAD_REACTORS
330
C
102
}
330
C
100
AcDbDictionary
281
     1
  3
Standard
350
1AB
  0
DICTIONARY
  5
17
102
{ACAD_REACTORS
330
C
102
}
330
C
100
AcDbDictionary
281
     1
  3
Standard
350
18
  0
DICTIONARY
  5
19
102
{ACAD_REACTORS
330
C
102
}
330
C
100
AcDbDictionary
281
     1
  0
ACDBDICTIONARYWDFLT
  5
E
102
{ACAD_REACTORS
330
C
102
}
330
C
100
AcDbDictionary
281
     1
  3
Normal
350
F
100
AcDbDictionaryWithDefault
340
F
  0
DICTIONARY
  5
198
102
{ACAD_REACTORS
330
C
102
}
330
C
100
AcDbDictionary
281
     1
  3
A0
350
199
  3
A1
350
19A
  3
A2
350
19B
  3
A3
350
19C
  3
A4
350
19D
  3
A5
350
19E
  3
A6
350
19F
  3
A7
350
1A0
  3
A8
350
1A1
  3
A9
350
1A2
  3
B0
350
1A3
  3
B1
350
1A4
  3
B2
350
1A5
  3
B3
350
1A6
  3
B4
350
1A7
  3
B5
350
1A8
  3
B6
350
1A9
  0
DICTIONARY
  5
1AC
102
{ACAD_REACTORS
330
C
102
}
330
C
100
AcDbDictionary
281
     1
  3
Metric50
350
1AD
  0
DICTIONARY
  5
196
102
{ACAD_REACTORS
330
C
102
}
330
C
100
AcDbDictionary
281
     1
  3
Standard
350
197
  0
DICTIONARY
  5
17C
102
{ACAD_REACTORS
330
C
102
}
330
C
100
AcDbDictionary
281
     1
  3
2dWireframe
350
182
  3
Basic
350
181
  3
Brighten
350
188
  3
ColorChange
350
18C
  3
Conceptual
350
185
  3
Dim
350
187
  3
EdgeColorOff
350
194
  3
Facepattern
350
18B
  3
Flat
350
17D
  3
FlatWithEdges
350
17E
  3
Gouraud
350
17F
  3
GouraudWithEdges
350
180
  3
Hidden
350
184
  3
JitterOff
350
192
  3
Linepattern
350
18A
  3
OverhangOff
350
193
  3
Realistic
350
186
  3
Shaded
350
191
  3
Shaded with edges
350
190
  3
Shades of Gray
350
18D
  3
Sketchy
350
18E
  3
Thicken
350
189
  3
Wireframe
350
183
  3
X-Ray
350
18F
  0
XRECORD
  5
1D9
102
{ACAD_REACTORS
330
C
102
}
330
C
100
AcDbXrecord
280
     1
 90
        1
330
197
330
1AD
330
1AF
  0
DICTIONARY
  5
1C9
102
{ACAD_REACTORS
330
C
102
}
330
C
100
AcDbDictionary
281
     1
  3
CANNOSCALE
350
1CF
  3
CMLEADERSTYLE
350
1CB
  3
CTABLESTYLE
350
1CA
  3
CVIEWDETAILSTYLE
350
1CC
  3
CVIEWSECTIONSTYLE
350
1CD
  3
LAYEREVAL
350
1D1
  3
LAYERNOTIFY
350
1D2
  3
LIGHTINGUNITS
350
1D0
  3
MSLTSCALE
350
1CE
  0
XRECORD
  5
1B4
102
{ACAD_REACTORS
330
1B3
102
}
330
1B3
100
AcDbXrecord
280
     1
290
     1
  0
XRECORD
  5
1B6
102
{ACAD_REACTORS
330
1B5
102
}
330
1B5
100
AcDbXrecord
280
     1
290
     1
  0
XRECORD
  5
1B8
102
{ACAD_REACTORS
330
1B7
102
}
330
1B7
100
AcDbXrecord
280
     1
290
     1
  0
ACDBDETAILVIEWSTYLE
  5
1AF
102
{ACAD_XDICTIONARY
360
1D7
102
}
102
{ACAD_REACTORS
330
1AE
102
}
330
1AE
100
AcDbModelDocViewStyle
 70
     0
  3
Metric50
290
     0
100
AcDbDetailViewStyle
 70
     0
 71
     0
 90
        3
 71
     1
340
11
 62
   256
 40
5.0
340
0
 62
   256
 40
5.0
300

 40
0.0
280
     1
 71
     2
340
16
 90
       25
 62
   256
 71
     3
340
11
 62
   256
 40
5.0
 90
        0
 40
15.0
 90
        1
300
%<\AcVar ViewDetailId>% (%<\AcVar ViewScale \f "%sn">%)
 71
     4
340
16
 90
       25
 62
   256
340
16
 90
       25
 62
   256
280
     0
  0
LAYOUT
  5
1E
102
{ACAD_REACTORS
330
1A
102
}
330
1A
100
AcDbPlotSettings
  1

  2
none_device
  4

  6

 40
0.0
 41
0.0
 42
0.0
 43
0.0
 44
0.0
 45
0.0
 46
0.0
 47
0.0
 48
0.0
 49
0.0
140
0.0
141
0.0
142
1.0
143
1.0
 70
   688
 72
     0
 73
     0
 74
     5
  7

 75
    16
147
1.0
 76
     0
 77
     2
 78
   300
148
0.0
149
0.0
100
AcDbLayout
  1
Layout1
 70
     1
 71
     1
 10
0.0
 20
0.0
 11
420.0
 21
297.0
 12
0.0
 22
0.0
 32
0.0
 14
1.000000000000000E+20
 24
1.000000000000000E+20
 34
1.000000000000000E+20
 15
-1.000000000000000E+20
 25
-1.000000000000000E+20
 35
-1.000000000000000E+20
146
0.0
 13
0.0
 23
0.0
 33
0.0
 16
1.0
 26
0.0
 36
0.0
 17
0.0
 27
1.0
 37
0.0
 76
     0
330
1B
  0
LAYOUT
  5
26
102
{ACAD_REACTORS
330
1A
102
}
330
1A
100
AcDbPlotSettings
  1

  2
none_device
  4

  6

 40
0.0
 41
0.0
 42
0.0
 43
0.0
 44
0.0
 45
0.0
 46
0.0
 47
0.0
 48
0.0
 49
0.0
140
0.0
141
0.0
142
1.0
143
1.0
 70
   688
 72
     0
 73
     0
 74
     5
  7

 75
    16
147
1.0
 76
     0
 77
     2
 78
   300
148
0.0
149
0.0
100
AcDbLayout
  1
Layout2
 70
     1
 71
     2
 10
0.0
 20
0.0
 11
0.0
 21
0.0
 12
0.0
 22
0.0
 32
0.0
 14
0.0
 24
0.0
 34
0.0
 15
0.0
 25
0.0
 35
0.0
146
0.0
 13
0.0
 23
0.0
 33
0.0
 16
1.0
 26
0.0
 36
0.0
 17
0.0
 27
1.0
 37
0.0
 76
     0
330
23
  0
LAYOUT
  5
22
102
{ACAD_REACTORS
330
1A
102
}
330
1A
100
AcDbPlotSettings
  1

  2
none_device
  4

  6

 40
0.0
 41
0.0
 42
0.0
 43
0.0
 44
0.0
 45
0.0
 46
0.0
 47
0.0
 48
0.0
 49
0.0
140
0.0
141
0.0
142
1.0
143
1.0
 70
  1712
 72
     0
 73
     0
 74
     0
  7

 75
     0
147
1.0
 76
     0
 77
     2
 78
   300
148
0.0
149
0.0
100
AcDbLayout
  1
Model
 70
     1
 71
     0
 10
0.0
 20
0.0
 11
420.0
 21
297.0
 12
0.0
 22
0.0
 32
0.0
 14
0.0
 24
0.0
 34
0.0
 15
420.0
 25
297.0
 35
0.0
146
0.0
 13
0.0
 23
0.0
 33
0.0
 16
1.0
 26
0.0
 36
0.0
 17
0.0
 27
1.0
 37
0.0
 76
     0
330
1F
331
29
  0
MATERIAL
  5
16C
102
{ACAD_XDICTIONARY
360
16D
102
}
102
{ACAD_REACTORS
330
163
102
}
330
163
100
AcDbMaterial
  1
ByBlock
 72
     0
 43
0.0008202099737533
 43
0.0
 43
0.0
 43
0.0
 43
0.0
 43
0.0008202099737533
 43
0.0
 43
0.0
 43
0.0
 43
0.0
 43
1.0
 43
0.0
 43
0.0
 43
0.0
 43
0.0
 43
1.0
 77
     0
 47
0.0008202099737533
 47
0.0
 47
0.0
 47
0.0
 47
0.0
 47
0.0008202099737533
 47
0.0
 47
0.0
 47
0.0
 47
0.0
 47
1.0
 47
0.0
 47
0.0
 47
0.0
 47
0.0
 47
1.0
171
     0
 49
0.0008202099737533
 49
0.0
 49
0.0
 49
0.0
 49
0.0
 49
0.0008202099737533
 49
0.0
 49
0.0
 49
0.0
 49
0.0
 49
1.0
 49
0.0
 49
0.0
 49
0.0
 49
0.0
 49
1.0
175
     0
142
0.0008202099737533
142
0.0
142
0.0
142
0.0
142
0.0
142
0.0008202099737533
142
0.0
142
0.0
142
0.0
142
0.0
142
1.0
142
0.0
142
0.0
142
0.0
142
0.0
142
1.0
179
     0
144
0.0008202099737533
144
0.0
144
0.0
144
0.0
144
0.0
144
0.0008202099737533
144
0.0
144
0.0
144
0.0
144
0.0
144
1.0
144
0.0
144
0.0
144
0.0
144
0.0
144
1.0
147
0.0008202099737533
147
0.0
147
0.0
147
0.0
147
0.0
147
0.0008202099737533
147
0.0
147
0.0
147
0.0
147
0.0
147
1.0
147
0.0
147
0.0
147
0.0
147
0.0
147
1.0
  0
MATERIAL
  5
164
102
{ACAD_XDICTIONARY
360
165
102
}
102
{ACAD_REACTORS
330
163
102
}
330
163
100
AcDbMaterial
  1
ByLayer
 72
     0
 43
0.0008202099737533
 43
0.0
 43
0.0
 43
0.0
 43
0.0
 43
0.0008202099737533
 43
0.0
 43
0.0
 43
0.0
 43
0.0
 43
1.0
 43
0.0
 43
0.0
 43
0.0
 43
0.0
 43
1.0
 77
     0
 47
0.0008202099737533
 47
0.0
 47
0.0
 47
0.0
 47
0.0
 47
0.0008202099737533
 47
0.0
 47
0.0
 47
0.0
 47
0.0
 47
1.0
 47
0.0
 47
0.0
 47
0.0
 47
0.0
 47
1.0
171
     0
 49
0.0008202099737533
 49
0.0
 49
0.0
 49
0.0
 49
0.0
 49
0.0008202099737533
 49
0.0
 49
0.0
 49
0.0
 49
0.0
 49
1.0
 49
0.0
 49
0.0
 49
0.0
 49
0.0
 49
1.0
175
     0
142
0.0008202099737533
142
0.0
142
0.0
142
0.0
142
0.0
142
0.0008202099737533
142
0.0
142
0.0
142
0.0
142
0.0
142
1.0
142
0.0
142
0.0
142
0.0
142
0.0
142
1.0
179
     0
144
0.0008202099737533
144
0.0
144
0.0
144
0.0
144
0.0
144
0.0008202099737533
144
0.0
144
0.0
144
0.0
144
0.0
144
1.0
144
0.0
144
0.0
144
0.0
144
0.0
144
1.0
147
0.0008202099737533
147
0.0
147
0.0
147
0.0
147
0.0
147
0.0008202099737533
147
0.0
147
0.0
147
0.0
147
0.0
147
1.0
147
0.0
147
0.0
147
0.0
147
0.0
147
1.0
  0
MATERIAL
  5
174
102
{ACAD_XDICTIONARY
360
175
102
}
102
{ACAD_REACTORS
330
163
102
}
330
163
100
AcDbMaterial
  1
Global
 72
     0
 43
0.0008202099737533
 43
0.0
 43
0.0
 43
0.0
 43
0.0
 43
0.0008202099737533
 43
0.0
 43
0.0
 43
0.0
 43
0.0
 43
1.0
 43
0.0
 43
0.0
 43
0.0
 43
0.0
 43
1.0
 77
     0
 47
0.0008202099737533
 47
0.0
 47
0.0
 47
0.0
 47
0.0
 47
0.0008202099737533
 47
0.0
 47
0.0
 47
0.0
 47
0.0
 47
1.0
 47
0.0
 47
0.0
 47
0.0
 47
0.0
 47
1.0
171
     0
 49
0.0008202099737533
 49
0.0
 49
0.0
 49
0.0
 49
0.0
 49
0.0008202099737533
 49
0.0
 49
0.0
 49
0.0
 49
0.0
 49
1.0
 49
0.0
 49
0.0
 49
0.0
 49
0.0
 49
1.0
175
     0
142
0.0008202099737533
142
0.0
142
0.0
142
0.0
142
0.0
142
0.0008202099737533
142
0.0
142
0.0
142
0.0
142
0.0
142
1.0
142
0.0
142
0.0
142
0.0
142
0.0
142
1.0
179
     0
144
0.0008202099737533
144
0.0
144
0.0
144
0.0
144
0.0
144
0.0008202099737533
144
0.0
144
0.0
144
0.0
144
0.0
144
1.0
144
0.0
144
0.0
144
0.0
144
0.0
144
1.0
147
0.0008202099737533
147
0.0
147
0.0
147
0.0
147
0.0
147
0.0008202099737533
147
0.0
147
0.0
147
0.0
147
0.0
147
1.0
147
0.0
147
0.0
147
0.0
147
0.0
147
1.0
  0
MLEADERSTYLE
  5
1AB
102
{ACAD_REACTORS
330
1AA
102
}
330
1AA
100
AcDbMLeaderStyle
179
     2
170
     2
171
     1
172
     0
 90
        2
 40
0.0
 41
0.0
173
     1
 91
-1056964608
340
14
 92
       -2
290
     1
 42
2.0
291
     1
 43
0.36
  3
Standard
 44
4.0
300

342
11
174
     1
178
     6
175
     1
176
     0
 93
-1056964608
 45
4.0
292
     0
297
     0
 46
4.0
 94
-1056964608
 47
1.0
 49
1.0
140
1.0
293
     1
141
0.0
294
     1
177
     0
142
1.0
295
     0
296
     0
143
0.125
271
     0
272
     9
273
     9
298
     0
  0
MLINESTYLE
  5
18
102
{ACAD_REACTORS
330
17
102
}
330
17
100
AcDbMlineStyle
  2
STANDARD
 70
     0
  3

 62
   256
 51
90.0
 52
90.0
 71
     2
 49
0.5
 62
   256
  6
BYLAYER
 49
-0.5
 62
   256
  6
BYLAYER
  0
ACDBPLACEHOLDER
  5
F
102
{ACAD_REACTORS
330
E
102
}
330
E
  0
SCALE
  5
199
102
{ACAD_REACTORS
330
198
102
}
330
198
100
AcDbScale
 70
     0
300
1:1
140
1.0
141
1.0
290
     1
  0
SCALE
  5
19A
102
{ACAD_REACTORS
330
198
102
}
330
198
100
AcDbScale
 70
     0
300
1:2
140
1.0
141
2.0
290
     0
  0
SCALE
  5
19B
102
{ACAD_REACTORS
330
198
102
}
330
198
100
AcDbScale
 70
     0
300
1:4
140
1.0
141
4.0
290
     0
  0
SCALE
  5
19C
102
{ACAD_REACTORS
330
198
102
}
330
198
100
AcDbScale
 70
     0
300
1:5
140
1.0
141
5.0
290
     0
  0
SCALE
  5
19D
102
{ACAD_REACTORS
330
198
102
}
330
198
100
AcDbScale
 70
     0
300
1:8
140
1.0
141
8.0
290
     0
  0
SCALE
  5
19E
102
{ACAD_REACTORS
330
198
102
}
330
198
100
AcDbScale
 70
     0
300
1:10
140
1.0
141
10.0
290
     0
  0
SCALE
  5
19F
102
{ACAD_REACTORS
330
198
102
}
330
198
100
AcDbScale
 70
     0
300
1:16
140
1.0
141
16.0
290
     0
  0
SCALE
  5
1A0
102
{ACAD_REACTORS
330
198
102
}
330
198
100
AcDbScale
 70
     0
300
1:20
140
1.0
141
20.0
290
     0
  0
SCALE
  5
1A1
102
{ACAD_REACTORS
330
198
102
}
330
198
100
AcDbScale
 70
     0
300
1:30
140
1.0
141
30.0
290
     0
  0
SCALE
  5
1A2
102
{ACAD_REACTORS
330
198
102
}
330
198
100
AcDbScale
 70
     0
300
1:40
140
1.0
141
40.0
290
     0
  0
SCALE
  5
1A3
102
{ACAD_REACTORS
330
198
102
}
330
198
100
AcDbScale
 70
     0
300
1:50
140
1.0
141
50.0
290
     0
  0
SCALE
  5
1A4
102
{ACAD_REACTORS
330
198
102
}
330
198
100
AcDbScale
 70
     0
300
1:100
140
1.0
141
100.0
290
     0
  0
SCALE
  5
1A5
102
{ACAD_REACTORS
330
198
102
}
330
198
100
AcDbScale
 70
     0
300
2:1
140
2.0
141
1.0
290
     0
  0
SCALE
  5
1A6
102
{ACAD_REACTORS
330
198
102
}
330
198
100
AcDbScale
 70
     0
300
4:1
140
4.0
141
1.0
290
     0
  0
SCALE
  5
1A7
102
{ACAD_REACTORS
330
198
102
}
330
198
100
AcDbScale
 70
     0
300
8:1
140
8.0
141
1.0
290
     0
  0
SCALE
  5
1A8
102
{ACAD_REACTORS
330
198
102
}
330
198
100
AcDbScale
 70
     0
300
10:1
140
10.0
141
1.0
290
     0
  0
SCALE
  5
1A9
102
{ACAD_REACTORS
330
198
102
}
330
198
100
AcDbScale
 70
     0
300
100:1
140
100.0
141
1.0
290
     0
  0
ACDBSECTIONVIEWSTYLE
  5
1AD
102
{ACAD_XDICTIONARY
360
1D5
102
}
102
{ACAD_REACTORS
330
1AC
102
}
330
1AC
100
AcDbModelDocViewStyle
 70
     0
  3
Metric50
290
     0
100
AcDbSectionViewStyle
 70
     0
 71
     0
 90
      102
 71
     1
340
11
 62
   256
 40
5.0
340
0
340
0
 62
   256
 40
5.0
300
I, O, Q, S, X, Z
 40
10.0
 90
        0
 40
2.5
 90
        0
 71
     2
340
16
 90
       25
 62
   256
340
16
 90
       50
 62
   256
 40
5.0
 40
2.5
 40
5.0
 71
     3
340
11
 62
   256
 40
5.0
 90
        0
 40
15.0
 90
        1
300
%<\AcVar ViewSectionStartId>%-%<\AcVar ViewSectionEndId>% (%<\AcVar ViewScale \f "%sn">%)
 71
     4
 62
   256
 62
   257
300
ANSI31
 40
1.0
 90
        0
290
     0
290
     0
 90
        6
 40
0.0
 40
1.570796326794896
 40
0.2617993877991494
 40
1.308996938995747
 40
-0.2617993877991494
 40
1.832595714594046
  0
TABLESTYLE
  5
197
102
{ACAD_XDICTIONARY
360
1D3
102
}
102
{ACAD_REACTORS
330
196
102
}
330
196
100
AcDbTableStyle
280
     0
  3
Standard
 70
     0
 71
     0
 40
1.5
 41
1.5
280
     0
281
     0
  7
Standard
140
4.5
170
     2
 62
     0
 63
     7
283
     0
 90
      512
 91
        0
  1

274
    -2
284
     1
 64
     0
275
    -2
285
     1
 65
     0
276
    -2
286
     1
 66
     0
277
    -2
287
     1
 67
     0
278
    -2
288
     1
 68
     0
279
    -2
289
     1
 69
     0
  7
Standard
140
6.0
170
     5
 62
     0
 63
     7
283
     0
 90
      512
 91
        0
  1

274
    -2
284
     1
 64
     0
275
    -2
285
     1
 65
     0
276
    -2
286
     1
 66
     0
277
    -2
287
     1
 67
     0
278
    -2
288
     1
 68
     0
279
    -2
289
     1
 69
     0
  7
Standard
140
4.5
170
     5
 62
     0
 63
     7
283
     0
 90
      512
 91
        0
  1

274
    -2
284
     1
 64
     0
275
    -2
285
     1
 65
     0
276
    -2
286
     1
 66
     0
277
    -2
287
     1
 67
     0
278
    -2
288
     1
 68
     0
279
    -2
289
     1
 69
     0
  0
VISUALSTYLE
  5
182
102
{ACAD_REACTORS
330
17C
102
}
330
17C
100
AcDbVisualStyle
  2
2dWireframe
 70
     4
177
     3
291
     0
 70
    58
 90
        0
176
     1
 90
        2
176
     1
 90
        0
176
     1
 90
        0
176
     1
 40
0.6
176
     1
 40
30.0
176
     1
 62
     7
420
 16777215
176
     1
 90
        1
176
     1
 90
        4
176
     1
 62
     7
176
     1
 62
   257
176
     1
 90
        1
176
     1
 90
        1
176
     1
 40
1.0
176
     1
 90
        0
176
     1
 62
   257
176
     1
 40
1.0
176
     1
 90
        1
176
     1
 90
        6
176
     1
 90
        2
176
     1
 62
     7
176
     1
 90
        5
176
     1
 90
        0
176
     1
 90
        0
176
     1
290
     0
176
     1
 90
        1
176
     1
 40
0.0
176
     1
 90
        0
176
     1
290
     1
176
     1
290
     1
176
     1
290
     0
176
     1
290
     0
176
     1
290
     0
176
     1
290
     0
176
     1
290
     0
176
     1
290
     0
176
     1
290
     0
176
     1
 90
       50
176
     1
 40
0.0
176
     1
 40
1.0
176
     1
 90
        0
176
     1
 62
    18
420
        0
176
     1
 90
       50
176
     1
 90
        3
176
     1
 62
     5
420
      255
176
     1
290
     0
176
     1
 90
       50
176
     1
 90
       50
176
     1
 90
       50
176
     1
290
     0
176
     1
 90
       50
176
     1
 62
   256
176
     0
 40
1.0
176
     0
 90
        2
176
     1
  1
strokes_ogs.tif
176
     1
290
     0
176
     1
 40
1.0
176
     1
 40
1.0
176
     1
  0
VISUALSTYLE
  5
181
102
{ACAD_REACTORS
330
17C
102
}
330
17C
100
AcDbVisualStyle
  2
Basic
 70
     7
177
     3
291
     1
 70
    58
 90
        1
176
     1
 90
        0
176
     1
 90
        1
176
     1
 90
        0
176
     1
 40
0.6
176
     1
 40
30.0
176
     1
 62
     7
420
 16777215
176
     1
 90
        0
176
     1
 90
        4
176
     1
 62
     7
176
     1
 62
   257
176
     1
 90
        1
176
     1
 90
        1
176
     1
 40
1.0
176
     1
 90
        8
176
     1
 62
     7
176
     1
 40
1.0
176
     1
 90
        1
176
     1
 90
        6
176
     1
 90
        2
176
     1
 62
     7
176
     1
 90
        5
176
     1
 90
        0
176
     1
 90
        0
176
     1
290
     0
176
     1
 90
        1
176
     1
 40
0.0
176
     1
 90
        0
176
     1
290
     0
176
     1
290
     1
176
     1
290
     1
176
     1
290
     0
176
     1
290
     0
176
     1
290
     0
176
     1
290
     0
176
     1
290
     0
176
     1
290
     0
176
     1
 90
       50
176
     1
 40
0.0
176
     1
 40
1.0
176
     1
 90
        0
176
     1
 62
    18
420
        0
176
     1
 90
       50
176
     1
 90
        3
176
     1
 62
     5
420
      255
176
     1
290
     0
176
     1
 90
       50
176
     1
 90
       50
176
     1
 90
       50
176
     1
290
     0
176
     1
 90
       50
176
     1
 62
   256
176
     0
 40
1.0
176
     0
 90
        2
176
     1
  1
strokes_ogs.tif
176
     1
290
     0
176
     1
 40
1.0
176
     1
 40
1.0
176
     1
  0
VISUALSTYLE
  5
188
102
{ACAD_REACTORS
330
17C
102
}
330
17C
100
AcDbVisualStyle
  2
Brighten
 70
    12
177
     3
291
     1
 70
    58
 90
        2
176
     1
 90
        2
176
     1
 90
        0
176
     1
 90
        0
176
     1
 40
0.6
176
     1
 40
30.0
176
     1
 62
     7
420
 16777215
176
     1
 90
        1
176
     1
 90
        4
176
     1
 62
     7
176
     1
 62
   257
176
     1
 90
        1
176
     1
 90
        1
176
     1
 40
1.0
176
     1
 90
        8
176
     1
 62
     7
176
     1
 40
1.0
176
     1
 90
        1
176
     1
 90
        6
176
     1
 90
        2
176
     1
 62
     7
176
     1
 90
        5
176
     1
 90
        0
176
     1
 90
        0
176
     1
290
     0
176
     1
 90
        1
176
     1
 40
50.0
176
     1
 90
        0
176
     1
290
     0
176
     1
290
     1
176
     1
290
     1
176
     1
290
     0
176
     1
290
     0
176
     1
290
     0
176
     1
290
     0
176
     1
290
     0
176
     1
290
     0
176
     1
 90
       50
176
     1
 40
0.0
176
     1
 40
1.0
176
     1
 90
        0
176
     1
 62
    18
420
        0
176
     1
 90
       50
176
     1
 90
        3
176
     1
 62
     5
420
      255
176
     1
290
     0
176
     1
 90
       50
176
     1
 90
       50
176
     1
 90
       50
176
     1
290
     0
176
     1
 90
       50
176
     1
 62
   256
176
     0
 40
1.0
176
     0
 90
        2
176
     1
  1
strokes_ogs.tif
176
     1
290
     0
176
     1
 40
1.0
176
     1
 40
1.0
176
     1
  0
VISUALSTYLE
  5
18C
102
{ACAD_REACTORS
330
17C
102
}
330
17C
100
AcDbVisualStyle
  2
ColorChange
 70
    16
177
     3
291
     1
 70
    58
 90
        2
176
     1
 90
        2
176
     1
 90
        3
176
     1
 90
        0
176
     1
 40
0.6
176
     1
 40
30.0
176
     1
 62
     8
420
  8421504
176
     1
 90
        1
176
     1
 90
        4
176
     1
 62
     7
176
     1
 62
   257
176
     1
 90
        1
176
     1
 90
        1
176
     1
 40
1.0
176
     1
 90
        8
176
     1
 62
     8
420
  8421504
176
     1
 40
1.0
176
     1
 90
        1
176
     1
 90
        6
176
     1
 90
        2
176
     1
 62
     7
176
     1
 90
        5
176
     1
 90
        0
176
     1
 90
        0
176
     1
290
     0
176
     1
 90
        1
176
     1
 40
0.0
176
     1
 90
        0
176
     1
290
     0
176
     1
290
     1
176
     1
290
     1
176
     1
290
     0
176
     1
290
     0
176
     1
290
     0
176
     1
290
     0
176
     1
290
     0
176
     1
290
     0
176
     1
 90
       50
176
     1
 40
0.0
176
     1
 40
1.0
176
     1
 90
        0
176
     1
 62
    18
420
        0
176
     1
 90
       50
176
     1
 90
        3
176
     1
 62
     5
420
      255
176
     1
290
     0
176
     1
 90
       50
176
     1
 90
       50
176
     1
 90
       50
176
     1
290
     0
176
     1
 90
       50
176
     1
 62
   256
176
     0
 40
1.0
176
     0
 90
        2
176
     1
  1
strokes_ogs.tif
176
     1
290
     0
176
     1
 40
1.0
176
     1
 40
1.0
176
     1
  0
VISUALSTYLE
  5
185
102
{ACAD_REACTORS
330
17C
102
}
330
17C
100
AcDbVisualStyle
  2
Conceptual
 70
     9
177
     3
291
     0
 70
    58
 90
        3
176
     1
 90
        2
176
     1
 90
        0
176
     1
 90
        0
176
     1
 40
0.6
176
     1
 40
30.0
176
     1
 62
     7
420
 16777215
176
     1
 90
        2
176
     1
 90
        2
176
     1
 62
     7
176
     1
 62
   257
176
     1
 90
        1
176
     1
 90
        1
176
     1
 40
179.0
176
     1
 90
        8
176
     1
 62
     7
176
     1
 40
1.0
176
     1
 90
        1
176
     1
 90
        6
176
     1
 90
        2
176
     1
 62
     7
176
     1
 90
        3
176
     1
 90
        0
176
     1
 90
        0
176
     1
290
     0
176
     1
 90
        1
176
     1
 40
0.0
176
     1
 90
        0
176
     1
290
     0
176
     1
290
     1
176
     1
290
     1
176
     1
290
     0
176
     1
290
     0
176
     1
290
     0
176
     1
290
     0
176
     1
290
     0
176
     1
290
     0
176
     1
 90
       50
176
     1
 40
0.0
176
     1
 40
1.0
176
     1
 90
        0
176
     1
 62
    18
420
        0
176
     1
 90
       50
176
     1
 90
        3
176
     1
 62
     5
420
      255
176
     1
290
     0
176
     1
 90
       50
176
     1
 90
       50
176
     1
 90
       50
176
     1
290
     0
176
     1
 90
       50
176
     1
 62
   256
176
     0
 40
1.0
176
     0
 90
        2
176
     1
  1
strokes_ogs.tif
176
     1
290
     0
176
     1
 40
1.0
176
     1
 40
1.0
176
     1
  0
VISUALSTYLE
  5
187
102
{ACAD_REACTORS
330
17C
102
}
330
17C
100
AcDbVisualStyle
  2
Dim
 70
    11
177
     3
291
     1
 70
    58
 90
        2
176
     1
 90
        2
176
     1
 90
        0
176
     1
 90
        0
176
     1
 40
0.6
176
     1
 40
30.0
176
     1
 62
     7
420
 16777215
176
     1
 90
        1
176
     1
 90
        4
176
     1
 62
     7
176
     1
 62
   257
176
     1
 90
        1
176
     1
 90
        1
176
     1
 40
1.0
176
     1
 90
        8
176
     1
 62
     7
176
     1
 40
1.0
176
     1
 90
        1
176
     1
 90
        6
176
     1
 90
        2
176
     1
 62
     7
176
     1
 90
        5
176
     1
 90
        0
176
     1
 90
        0
176
     1
290
     0
176
     1
 90
        1
176
     1
 40
-50.0
176
     1
 90
        0
176
     1
290
     0
176
     1
290
     1
176
     1
290
     1
176
     1
290
     0
176
     1
290
     0
176
     1
290
     0
176
     1
290
     0
176
     1
290
     0
176
     1
290
     0
176
     1
 90
       50
176
     1
 40
0.0
176
     1
 40
1.0
176
     1
 90
        0
176
     1
 62
    18
420
        0
176
     1
 90
       50
176
     1
 90
        3
176
     1
 62
     5
420
      255
176
     1
290
     0
176
     1
 90
       50
176
     1
 90
       50
176
     1
 90
       50
176
     1
290
     0
176
     1
 90
       50
176
     1
 62
   256
176
     0
 40
1.0
176
     0
 90
        2
176
     1
  1
strokes_ogs.tif
176
     1
290
     0
176
     1
 40
1.0
176
     1
 40
1.0
176
     1
  0
VISUALSTYLE
  5
194
102
{ACAD_REACTORS
330
17C
102
}
330
17C
100
AcDbVisualStyle
  2
EdgeColorOff
 70
    22
177
     3
291
     1
 70
    58
 90
        2
176
     0
 90
        2
176
     0
 90
        0
176
     0
 90
        0
176
     0
 40
0.6
176
     0
 40
30.0
176
     0
 62
     7
420
 16777215
176
     0
 90
        1
176
     0
 90
        4
176
     0
 62
     7
176
     0
 62
   257
176
     0
 90
        1
176
     0
 90
        1
176
     0
 40
1.0
176
     0
 90
        8
176
     2
 62
     7
176
     0
 40
1.0
176
     0
 90
        1
176
     0
 90
        6
176
     0
 90
        2
176
     0
 62
     7
176
     0
 90
        5
176
     0
 90
        0
176
     0
 90
        0
176
     0
290
     0
176
     0
 90
        1
176
     0
 40
0.0
176
     0
 90
        0
176
     0
290
     0
176
     1
290
     1
176
     1
290
     1
176
     1
290
     0
176
     1
290
     0
176
     1
290
     0
176
     1
290
     0
176
     1
290
     0
176
     1
290
     0
176
     1
 90
       50
176
     0
 40
0.0
176
     0
 40
1.0
176
     0
 90
        0
176
     0
 62
    18
420
        0
176
     0
 90
       50
176
     0
 90
        3
176
     0
 62
     5
420
      255
176
     0
290
     0
176
     1
 90
       50
176
     0
 90
       50
176
     0
 90
       50
176
     0
290
     0
176
     1
 90
       50
176
     0
 62
   256
176
     0
 40
1.0
176
     0
 90
        2
176
     0
  1
strokes_ogs.tif
176
     0
290
     0
176
     1
 40
1.0
176
     0
 40
1.0
176
     0
  0
VISUALSTYLE
  5
18B
102
{ACAD_REACTORS
330
17C
102
}
330
17C
100
AcDbVisualStyle
  2
Facepattern
 70
    15
177
     3
291
     1
 70
    58
 90
        2
176
     1
 90
        2
176
     1
 90
        0
176
     1
 90
        0
176
     1
 40
0.6
176
     1
 40
30.0
176
     1
 62
     7
420
 16777215
176
     1
 90
        1
176
     1
 90
        4
176
     1
 62
     7
176
     1
 62
   257
176
     1
 90
        1
176
     1
 90
        1
176
     1
 40
1.0
176
     1
 90
        8
176
     1
 62
     7
176
     1
 40
1.0
176
     1
 90
        1
176
     1
 90
        6
176
     1
 90
        2
176
     1
 62
     7
176
     1
 90
        5
176
     1
 90
        0
176
     1
 90
        0
176
     1
290
     0
176
     1
 90
        1
176
     1
 40
0.0
176
     1
 90
        0
176
     1
290
     0
176
     1
290
     1
176
     1
290
     1
176
     1
290
     0
176
     1
290
     0
176
     1
290
     0
176
     1
290
     0
176
     1
290
     0
176
     1
290
     0
176
     1
 90
       50
176
     1
 40
0.0
176
     1
 40
1.0
176
     1
 90
        0
176
     1
 62
    18
420
        0
176
     1
 90
       50
176
     1
 90
        3
176
     1
 62
     5
420
      255
176
     1
290
     0
176
     1
 90
       50
176
     1
 90
       50
176
     1
 90
       50
176
     1
290
     0
176
     1
 90
       50
176
     1
 62
   256
176
     0
 40
1.0
176
     0
 90
        2
176
     1
  1
strokes_ogs.tif
176
     1
290
     0
176
     1
 40
1.0
176
     1
 40
1.0
176
     1
  0
VISUALSTYLE
  5
17D
102
{ACAD_REACTORS
330
17C
102
}
330
17C
100
AcDbVisualStyle
  2
Flat
 70
     0
177
     3
291
     1
 70
    58
 90
        2
176
     1
 90
        1
176
     1
 90
        1
176
     1
 90
        2
176
     1
 40
0.6
176
     1
 40
30.0
176
     1
 62
     7
420
 16777215
176
     1
 90
        0
176
     1
 90
        0
176
     1
 62
     7
176
     1
 62
   257
176
     1
 90
        1
176
     1
 90
        1
176
     1
 40
1.0
176
     1
 90
        8
176
     1
 62
     7
176
     1
 40
1.0
176
     1
 90
        1
176
     1
 90
        6
176
     1
 90
        2
176
     1
 62
     7
176
     1
 90
        5
176
     1
 90
        0
176
     1
 90
        0
176
     1
290
     0
176
     1
 90
       13
176
     1
 40
0.0
176
     1
 90
        0
176
     1
290
     0
176
     1
290
     1
176
     1
290
     1
176
     1
290
     0
176
     1
290
     0
176
     1
290
     0
176
     1
290
     0
176
     1
290
     0
176
     1
290
     0
176
     1
 90
       50
176
     1
 40
0.0
176
     1
 40
1.0
176
     1
 90
        0
176
     1
 62
    18
420
        0
176
     1
 90
       50
176
     1
 90
        3
176
     1
 62
     5
420
      255
176
     1
290
     0
176
     1
 90
       50
176
     1
 90
       50
176
     1
 90
       50
176
     1
290
     0
176
     1
 90
       50
176
     1
 62
   256
176
     0
 40
1.0
176
     0
 90
        2
176
     1
  1
strokes_ogs.tif
176
     1
290
     0
176
     1
 40
1.0
176
     1
 40
1.0
176
     1
  0
VISUALSTYLE
  5
17E
102
{ACAD_REACTORS
330
17C
102
}
330
17C
100
AcDbVisualStyle
  2
FlatWithEdges
 70
     1
177
     3
291
     1
 70
    58
 90
        2
176
     1
 90
        1
176
     1
 90
        1
176
     1
 90
        2
176
     1
 40
0.6
176
     1
 40
30.0
176
     1
 62
     7
420
 16777215
176
     1
 90
        1
176
     1
 90
        0
176
     1
 62
     7
176
     1
 62
   257
176
     1
 90
        1
176
     1
 90
        1
176
     1
 40
1.0
176
     1
 90
        0
176
     1
 62
   257
176
     1
 40
1.0
176
     1
 90
        1
176
     1
 90
        6
176
     1
 90
        2
176
     1
 62
     7
176
     1
 90
        5
176
     1
 90
        0
176
     1
 90
        0
176
     1
290
     0
176
     1
 90
       13
176
     1
 40
0.0
176
     1
 90
        0
176
     1
290
     0
176
     1
290
     1
176
     1
290
     1
176
     1
290
     0
176
     1
290
     0
176
     1
290
     0
176
     1
290
     0
176
     1
290
     0
176
     1
290
     0
176
     1
 90
       50
176
     1
 40
0.0
176
     1
 40
1.0
176
     1
 90
        0
176
     1
 62
    18
420
        0
176
     1
 90
       50
176
     1
 90
        3
176
     1
 62
     5
420
      255
176
     1
290
     0
176
     1
 90
       50
176
     1
 90
       50
176
     1
 90
       50
176
     1
290
     0
176
     1
 90
       50
176
     1
 62
   256
176
     0
 40
1.0
176
     0
 90
        2
176
     1
  1
strokes_ogs.tif
176
     1
290
     0
176
     1
 40
1.0
176
     1
 40
1.0
176
     1
  0
VISUALSTYLE
  5
17F
102
{ACAD_REACTORS
330
17C
102
}
330
17C
100
AcDbVisualStyle
  2
Gouraud
 70
     2
177
     3
291
     1
 70
    58
 90
        2
176
     1
 90
        2
176
     1
 90
        1
176
     1
 90
        2
176
     1
 40
0.6
176
     1
 40
30.0
176
     1
 62
     7
420
 16777215
176
     1
 90
        0
176
     1
 90
        0
176
     1
 62
     7
176
     1
 62
   257
176
     1
 90
        1
176
     1
 90
        1
176
     1
 40
1.0
176
     1
 90
        0
176
     1
 62
     7
176
     1
 40
1.0
176
     1
 90
        1
176
     1
 90
        6
176
     1
 90
        2
176
     1
 62
     7
176
     1
 90
        5
176
     1
 90
        0
176
     1
 90
        0
176
     1
290
     0
176
     1
 90
       13
176
     1
 40
0.0
176
     1
 90
        0
176
     1
290
     0
176
     1
290
     1
176
     1
290
     1
176
     1
290
     0
176
     1
290
     0
176
     1
290
     0
176
     1
290
     0
176
     1
290
     0
176
     1
290
     0
176
     1
 90
       50
176
     1
 40
0.0
176
     1
 40
1.0
176
     1
 90
        0
176
     1
 62
    18
420
        0
176
     1
 90
       50
176
     1
 90
        3
176
     1
 62
     5
420
      255
176
     1
290
     0
176
     1
 90
       50
176
     1
 90
       50
176
     1
 90
       50
176
     1
290
     0
176
     1
 90
       50
176
     1
 62
   256
176
     0
 40
1.0
176
     0
 90
        2
176
     1
  1
strokes_ogs.tif
176
     1
290
     0
176
     1
 40
1.0
176
     1
 40
1.0
176
     1
  0
VISUALSTYLE
  5
180
102
{ACAD_REACTORS
330
17C
102
}
330
17C
100
AcDbVisualStyle
  2
GouraudWithEdges
 70
     3
177
     3
291
     1
 70
    58
 90
        2
176
     1
 90
        2
176
     1
 90
        1
176
     1
 90
        2
176
     1
 40
0.6
176
     1
 40
30.0
176
     1
 62
     7
420
 16777215
176
     1
 90
        1
176
     1
 90
        0
176
     1
 62
     7
176
     1
 62
   257
176
     1
 90
        1
176
     1
 90
        1
176
     1
 40
1.0
176
     1
 90
        0
176
     1
 62
   257
176
     1
 40
1.0
176
     1
 90
        1
176
     1
 90
        6
176
     1
 90
        2
176
     1
 62
     7
176
     1
 90
        5
176
     1
 90
        0
176
     1
 90
        0
176
     1
290
     0
176
     1
 90
       13
176
     1
 40
0.0
176
     1
 90
        0
176
     1
290
     0
176
     1
290
     1
176
     1
290
     1
176
     1
290
     0
176
     1
290
     0
176
     1
290
     0
176
     1
290
     0
176
     1
290
     0
176
     1
290
     0
176
     1
 90
       50
176
     1
 40
0.0
176
     1
 40
1.0
176
     1
 90
        0
176
     1
 62
    18
420
        0
176
     1
 90
       50
176
     1
 90
        3
176
     1
 62
     5
420
      255
176
     1
290
     0
176
     1
 90
       50
176
     1
 90
       50
176
     1
 90
       50
176
     1
290
     0
176
     1
 90
       50
176
     1
 62
   256
176
     0
 40
1.0
176
     0
 90
        2
176
     1
  1
strokes_ogs.tif
176
     1
290
     0
176
     1
 40
1.0
176
     1
 40
1.0
176
     1
  0
VISUALSTYLE
  5
184
102
{ACAD_REACTORS
330
17C
102
}
330
17C
100
AcDbVisualStyle
  2
Hidden
 70
     6
177
     3
291
     0
 70
    58
 90
        1
176
     1
 90
        2
176
     1
 90
        2
176
     1
 90
        0
176
     1
 40
0.6
176
     1
 40
30.0
176
     1
 62
     7
420
 16777215
176
     1
 90
        2
176
     1
 90
        2
176
     1
 62
     7
176
     1
 62
   257
176
     1
 90
        2
176
     1
 90
        1
176
     1
 40
40.0
176
     1
 90
        0
176
     1
 62
   257
176
     1
 40
1.0
176
     1
 90
        1
176
     1
 90
        6
176
     1
 90
        2
176
     1
 62
     7
176
     1
 90
        3
176
     1
 90
        0
176
     1
 90
        0
176
     1
290
     0
176
     1
 90
        1
176
     1
 40
0.0
176
     1
 90
        0
176
     1
290
     0
176
     1
290
     1
176
     1
290
     1
176
     1
290
     0
176
     1
290
     0
176
     1
290
     0
176
     1
290
     0
176
     1
290
     0
176
     1
290
     0
176
     1
 90
       50
176
     1
 40
0.0
176
     1
 40
1.0
176
     1
 90
        0
176
     1
 62
    18
420
        0
176
     1
 90
       50
176
     1
 90
        3
176
     1
 62
     5
420
      255
176
     1
290
     0
176
     1
 90
       50
176
     1
 90
       50
176
     1
 90
       50
176
     1
290
     0
176
     1
 90
       50
176
     1
 62
   256
176
     0
 40
1.0
176
     0
 90
        2
176
     1
  1
strokes_ogs.tif
176
     1
290
     0
176
     1
 40
1.0
176
     1
 40
1.0
176
     1
  0
VISUALSTYLE
  5
192
102
{ACAD_REACTORS
330
17C
102
}
330
17C
100
AcDbVisualStyle
  2
JitterOff
 70
    20
177
     3
291
     1
 70
    58
 90
        2
176
     0
 90
        2
176
     0
 90
        0
176
     0
 90
        0
176
     0
 40
0.6
176
     0
 40
30.0
176
     0
 62
     7
420
 16777215
176
     0
 90
        1
176
     0
 90
        4
176
     0
 62
     7
176
     0
 62
   257
176
     0
 90
        1
176
     0
 90
        1
176
     0
 40
1.0
176
     0
 90
       10
176
     2
 62
     7
176
     0
 40
1.0
176
     0
 90
        1
176
     0
 90
        6
176
     0
 90
        2
176
     0
 62
     7
176
     0
 90
        5
176
     0
 90
        0
176
     0
 90
        0
176
     0
290
     0
176
     0
 90
        1
176
     0
 40
0.0
176
     0
 90
        0
176
     0
290
     0
176
     1
290
     1
176
     1
290
     1
176
     1
290
     0
176
     1
290
     0
176
     1
290
     0
176
     1
290
     0
176
     1
290
     0
176
     1
290
     0
176
     1
 90
       50
176
     0
 40
0.0
176
     0
 40
1.0
176
     0
 90
        0
176
     0
 62
    18
420
        0
176
     0
 90
       50
176
     0
 90
        3
176
     0
 62
     5
420
      255
176
     0
290
     0
176
     1
 90
       50
176
     0
 90
       50
176
     0
 90
       50
176
     0
290
     0
176
     1
 90
       50
176
     0
 62
   256
176
     0
 40
1.0
176
     0
 90
        2
176
     0
  1
strokes_ogs.tif
176
     0
290
     0
176
     1
 40
1.0
176
     0
 40
1.0
176
     0
  0
VISUALSTYLE
  5
18A
102
{ACAD_REACTORS
330
17C
102
}
330
17C
100
AcDbVisualStyle
  2
Linepattern
 70
    14
177
     3
291
     1
 70
    58
 90
        2
176
     1
 90
        2
176
     1
 90
        0
176
     1
 90
        0
176
     1
 40
0.6
176
     1
 40
30.0
176
     1
 62
     7
420
 16777215
176
     1
 90
        1
176
     1
 90
        4
176
     1
 62
     7
176
     1
 62
   257
176
     1
 90
        7
176
     1
 90
        7
176
     1
 40
1.0
176
     1
 90
        8
176
     1
 62
     7
176
     1
 40
1.0
176
     1
 90
        1
176
     1
 90
        6
176
     1
 90
        2
176
     1
 62
     7
176
     1
 90
        5
176
     1
 90
        0
176
     1
 90
        0
176
     1
290
     0
176
     1
 90
        1
176
     1
 40
0.0
176
     1
 90
        0
176
     1
290
     0
176
     1
290
     1
176
     1
290
     1
176
     1
290
     0
176
     1
290
     0
176
     1
290
     0
176
     1
290
     0
176
     1
290
     0
176
     1
290
     0
176
     1
 90
       50
176
     1
 40
0.0
176
     1
 40
1.0
176
     1
 90
        0
176
     1
 62
    18
420
        0
176
     1
 90
       50
176
     1
 90
        3
176
     1
 62
     5
420
      255
176
     1
290
     0
176
     1
 90
       50
176
     1
 90
       50
176
     1
 90
       50
176
     1
290
     0
176
     1
 90
       50
176
     1
 62
   256
176
     0
 40
1.0
176
     0
 90
        2
176
     1
  1
strokes_ogs.tif
176
     1
290
     0
176
     1
 40
1.0
176
     1
 40
1.0
176
     1
  0
VISUALSTYLE
  5
193
102
{ACAD_REACTORS
330
17C
102
}
330
17C
100
AcDbVisualStyle
  2
OverhangOff
 70
    21
177
     3
291
     1
 70
    58
 90
        2
176
     0
 90
        2
176
     0
 90
        0
176
     0
 90
        0
176
     0
 40
0.6
176
     0
 40
30.0
176
     0
 62
     7
420
 16777215
176
     0
 90
        1
176
     0
 90
        4
176
     0
 62
     7
176
     0
 62
   257
176
     0
 90
        1
176
     0
 90
        1
176
     0
 40
1.0
176
     0
 90
        9
176
     2
 62
     7
176
     0
 40
1.0
176
     0
 90
        1
176
     0
 90
        6
176
     0
 90
        2
176
     0
 62
     7
176
     0
 90
        5
176
     0
 90
        0
176
     0
 90
        0
176
     0
290
     0
176
     0
 90
        1
176
     0
 40
0.0
176
     0
 90
        0
176
     0
290
     0
176
     1
290
     1
176
     1
290
     1
176
     1
290
     0
176
     1
290
     0
176
     1
290
     0
176
     1
290
     0
176
     1
290
     0
176
     1
290
     0
176
     1
 90
       50
176
     0
 40
0.0
176
     0
 40
1.0
176
     0
 90
        0
176
     0
 62
    18
420
        0
176
     0
 90
       50
176
     0
 90
        3
176
     0
 62
     5
420
      255
176
     0
290
     0
176
     1
 90
       50
176
     0
 90
       50
176
     0
 90
       50
176
     0
290
     0
176
     1
 90
       50
176
     0
 62
   256
176
     0
 40
1.0
176
     0
 90
        2
176
     0
  1
strokes_ogs.tif
176
     0
290
     0
176
     1
 40
1.0
176
     0
 40
1.0
176
     0
  0
VISUALSTYLE
  5
186
102
{ACAD_REACTORS
330
17C
102
}
330
17C
100
AcDbVisualStyle
  2
Realistic
 70
     8
177
     3
291
     0
 70
    58
 90
        2
176
     1
 90
        3
176
     1
 90
        0
176
     1
 90
        2
176
     1
 40
0.6
176
     1
 40
30.0
176
     1
 62
     7
420
 16777215
176
     1
 90
        0
176
     1
 90
        0
176
     1
 62
     7
176
     1
 62
   257
176
     1
 90
        1
176
     1
 90
        1
176
     1
 40
1.0
176
     1
 90
        8
176
     1
 62
   257
176
     1
 40
1.0
176
     1
 90
        1
176
     1
 90
        6
176
     1
 90
        2
176
     1
 62
     7
176
     1
 90
        3
176
     1
 90
        0
176
     1
 90
        0
176
     1
290
     0
176
     1
 90
       13
176
     1
 40
0.0
176
     1
 90
        0
176
     1
290
     0
176
     1
290
     1
176
     1
290
     1
176
     1
290
     0
176
     1
290
     0
176
     1
290
     0
176
     1
290
     0
176
     1
290
     0
176
     1
290
     0
176
     1
 90
       50
176
     1
 40
0.0
176
     1
 40
1.0
176
     1
 90
        0
176
     1
 62
    18
420
        0
176
     1
 90
       50
176
     1
 90
        3
176
     1
 62
     5
420
      255
176
     1
290
     0
176
     1
 90
       50
176
     1
 90
       50
176
     1
 90
       50
176
     1
290
     0
176
     1
 90
       50
176
     1
 62
   256
176
     0
 40
1.0
176
     0
 90
        2
176
     1
  1
strokes_ogs.tif
176
     1
290
     0
176
     1
 40
1.0
176
     1
 40
1.0
176
     1
  0
VISUALSTYLE
  5
191
102
{ACAD_REACTORS
330
17C
102
}
330
17C
100
AcDbVisualStyle
  2
Shaded
 70
    27
177
     3
291
     0
 70
    58
 90
        2
176
     1
 90
        2
176
     1
 90
        1
176
     1
 90
        2
176
     1
 40
0.6
176
     1
 40
30.0
176
     1
 62
     7
420
 16777215
176
     1
 90
        0
176
     1
 90
        4
176
     1
 62
     7
176
     1
 62
   257
176
     1
 90
        1
176
     1
 90
        1
176
     1
 40
1.0
176
     1
 90
        8
176
     1
 62
   257
176
     1
 40
1.0
176
     1
 90
        1
176
     1
 90
        6
176
     1
 90
        2
176
     1
 62
     8
420
  7895160
176
     1
 90
        3
176
     1
 90
        0
176
     1
 90
        0
176
     1
290
     0
176
     1
 90
        5
176
     1
 40
0.0
176
     1
 90
        0
176
     1
290
     0
176
     1
290
     1
176
     1
290
     1
176
     1
290
     0
176
     1
290
     0
176
     1
290
     0
176
     1
290
     0
176
     1
290
     0
176
     1
290
     0
176
     1
 90
       50
176
     1
 40
0.0
176
     1
 40
1.0
176
     1
 90
        0
176
     1
 62
    18
420
        0
176
     1
 90
       50
176
     1
 90
        3
176
     1
 62
     5
420
      255
176
     1
290
     0
176
     1
 90
       50
176
     1
 90
       50
176
     1
 90
       50
176
     1
290
     0
176
     1
 90
       50
176
     1
 62
   256
176
     0
 40
1.0
176
     0
 90
        2
176
     1
  1
strokes_ogs.tif
176
     1
290
     0
176
     1
 40
1.0
176
     1
 40
1.0
176
     1
  0
VISUALSTYLE
  5
190
102
{ACAD_REACTORS
330
17C
102
}
330
17C
100
AcDbVisualStyle
  2
Shaded with edges
 70
    26
177
     3
291
     0
 70
    58
 90
        2
176
     1
 90
        2
176
     1
 90
        1
176
     1
 90
        2
176
     1
 40
0.6
176
     1
 40
30.0
176
     1
 62
     7
420
 16777215
176
     1
 90
        1
176
     1
 90
        2
176
     1
 62
     7
176
     1
 62
   257
176
     1
 90
        2
176
     1
 90
        1
176
     1
 40
1.0
176
     1
 90
        8
176
     1
 62
   257
176
     1
 40
1.0
176
     1
 90
        1
176
     1
 90
        6
176
     1
 90
        2
176
     1
 62
     7
176
     1
 90
        3
176
     1
 90
        0
176
     1
 90
        0
176
     1
290
     0
176
     1
 90
        5
176
     1
 40
0.0
176
     1
 90
        0
176
     1
290
     0
176
     1
290
     1
176
     1
290
     1
176
     1
290
     0
176
     1
290
     0
176
     1
290
     0
176
     1
290
     0
176
     1
290
     0
176
     1
290
     0
176
     1
 90
       50
176
     1
 40
0.0
176
     1
 40
1.0
176
     1
 90
        0
176
     1
 62
    18
420
        0
176
     1
 90
       50
176
     1
 90
        3
176
     1
 62
     5
420
      255
176
     1
290
     0
176
     1
 90
       50
176
     1
 90
       50
176
     1
 90
       50
176
     1
290
     0
176
     1
 90
       50
176
     1
 62
   256
176
     0
 40
1.0
176
     0
 90
        2
176
     1
  1
strokes_ogs.tif
176
     1
290
     0
176
     1
 40
1.0
176
     1
 40
1.0
176
     1
  0
VISUALSTYLE
  5
18D
102
{ACAD_REACTORS
330
17C
102
}
330
17C
100
AcDbVisualStyle
  2
Shades of Gray
 70
    23
177
     3
291
     0
 70
    58
 90
        2
176
     1
 90
        2
176
     1
 90
        3
176
     1
 90
        0
176
     1
 40
0.6
176
     1
 40
30.0
176
     1
 62
     7
420
 16777215
176
     1
 90
        2
176
     1
 90
        2
176
     1
 62
     7
176
     1
 62
     7
176
     1
 90
        1
176
     1
 90
        1
176
     1
 40
40.0
176
     1
 90
        8
176
     1
 62
     7
176
     1
 40
1.0
176
     1
 90
        1
176
     1
 90
        6
176
     1
 90
        2
176
     1
 62
     7
176
     1
 90
        3
176
     1
 90
        0
176
     1
 90
        0
176
     1
290
     0
176
     1
 90
        1
176
     1
 40
0.0
176
     1
 90
        0
176
     1
290
     0
176
     1
290
     1
176
     1
290
     1
176
     1
290
     0
176
     1
290
     0
176
     1
290
     0
176
     1
290
     0
176
     1
290
     0
176
     1
290
     0
176
     1
 90
       50
176
     1
 40
0.0
176
     1
 40
1.0
176
     1
 90
        0
176
     1
 62
    18
420
        0
176
     1
 90
       50
176
     1
 90
        3
176
     1
 62
     5
420
      255
176
     1
290
     0
176
     1
 90
       50
176
     1
 90
       50
176
     1
 90
       50
176
     1
290
     0
176
     1
 90
       50
176
     1
 62
   256
176
     0
 40
1.0
176
     0
 90
        2
176
     1
  1
strokes_ogs.tif
176
     1
290
     0
176
     1
 40
1.0
176
     1
 40
1.0
176
     1
  0
VISUALSTYLE
  5
18E
102
{ACAD_REACTORS
330
17C
102
}
330
17C
100
AcDbVisualStyle
  2
Sketchy
 70
    24
177
     3
291
     0
 70
    58
 90
        1
176
     1
 90
        2
176
     1
 90
        2
176
     1
 90
        0
176
     1
 40
0.6
176
     1
 40
30.0
176
     1
 62
     7
420
 16777215
176
     1
 90
        2
176
     1
 90
        2
176
     1
 62
     7
176
     1
 62
     7
176
     1
 90
        1
176
     1
 90
        1
176
     1
 40
40.0
176
     1
 90
       11
176
     1
 62
     7
176
     1
 40
1.0
176
     1
 90
        1
176
     1
 90
        6
176
     1
 90
        2
176
     1
 62
     7
176
     1
 90
        6
176
     1
 90
        0
176
     1
 90
        0
176
     1
290
     0
176
     1
 90
        1
176
     1
 40
0.0
176
     1
 90
        0
176
     1
290
     0
176
     1
290
     1
176
     1
290
     1
176
     1
290
     0
176
     1
290
     0
176
     1
290
     0
176
     1
290
     0
176
     1
290
     0
176
     1
290
     0
176
     1
 90
       50
176
     1
 40
0.0
176
     1
 40
1.0
176
     1
 90
        0
176
     1
 62
    18
420
        0
176
     1
 90
       50
176
     1
 90
        3
176
     1
 62
     5
420
      255
176
     1
290
     0
176
     1
 90
       50
176
     1
 90
       50
176
     1
 90
       50
176
     1
290
     0
176
     1
 90
       50
176
     1
 62
   256
176
     0
 40
1.0
176
     0
 90
        2
176
     1
  1
strokes_ogs.tif
176
     1
290
     0
176
     1
 40
1.0
176
     1
 40
1.0
176
     1
  0
VISUALSTYLE
  5
189
102
{ACAD_REACTORS
330
17C
102
}
330
17C
100
AcDbVisualStyle
  2
Thicken
 70
    13
177
     3
291
     1
 70
    58
 90
        2
176
     1
 90
        2
176
     1
 90
        0
176
     1
 90
        0
176
     1
 40
0.6
176
     1
 40
30.0
176
     1
 62
     7
420
 16777215
176
     1
 90
        1
176
     1
 90
        4
176
     1
 62
     7
176
     1
 62
   257
176
     1
 90
        1
176
     1
 90
        1
176
     1
 40
1.0
176
     1
 90
       12
176
     1
 62
     7
176
     1
 40
1.0
176
     1
 90
        1
176
     1
 90
        6
176
     1
 90
        2
176
     1
 62
     7
176
     1
 90
        5
176
     1
 90
        0
176
     1
 90
        0
176
     1
290
     0
176
     1
 90
        1
176
     1
 40
0.0
176
     1
 90
        0
176
     1
290
     0
176
     1
290
     1
176
     1
290
     1
176
     1
290
     0
176
     1
290
     0
176
     1
290
     0
176
     1
290
     0
176
     1
290
     0
176
     1
290
     0
176
     1
 90
       50
176
     1
 40
0.0
176
     1
 40
1.0
176
     1
 90
        0
176
     1
 62
    18
420
        0
176
     1
 90
       50
176
     1
 90
        3
176
     1
 62
     5
420
      255
176
     1
290
     0
176
     1
 90
       50
176
     1
 90
       50
176
     1
 90
       50
176
     1
290
     0
176
     1
 90
       50
176
     1
 62
   256
176
     0
 40
1.0
176
     0
 90
        2
176
     1
  1
strokes_ogs.tif
176
     1
290
     0
176
     1
 40
1.0
176
     1
 40
1.0
176
     1
  0
VISUALSTYLE
  5
183
102
{ACAD_REACTORS
330
17C
102
}
330
17C
100
AcDbVisualStyle
  2
Wireframe
 70
     5
177
     3
291
     0
 70
    58
 90
        0
176
     1
 90
        2
176
     1
 90
        0
176
     1
 90
        0
176
     1
 40
0.6
176
     1
 40
30.0
176
     1
 62
     7
420
 16777215
176
     1
 90
        1
176
     1
 90
        4
176
     1
 62
     7
176
     1
 62
   257
176
     1
 90
        1
176
     1
 90
        1
176
     1
 40
1.0
176
     1
 90
        0
176
     1
 62
   257
176
     1
 40
1.0
176
     1
 90
        1
176
     1
 90
        6
176
     1
 90
        2
176
     1
 62
     7
176
     1
 90
        3
176
     1
 90
        0
176
     1
 90
        0
176
     1
290
     0
176
     1
 90
        1
176
     1
 40
0.0
176
     1
 90
        0
176
     1
290
     0
176
     1
290
     1
176
     1
290
     1
176
     1
290
     0
176
     1
290
     0
176
     1
290
     0
176
     1
290
     0
176
     1
290
     0
176
     1
290
     0
176
     1
 90
       50
176
     1
 40
0.0
176
     1
 40
1.0
176
     1
 90
        0
176
     1
 62
    18
420
        0
176
     1
 90
       50
176
     1
 90
        3
176
     1
 62
     5
420
      255
176
     1
290
     0
176
     1
 90
       50
176
     1
 90
       50
176
     1
 90
       50
176
     1
290
     0
176
     1
 90
       50
176
     1
 62
   256
176
     0
 40
1.0
176
     0
 90
        2
176
     1
  1
strokes_ogs.tif
176
     1
290
     0
176
     1
 40
1.0
176
     1
 40
1.0
176
     1
  0
VISUALSTYLE
  5
18F
102
{ACAD_REACTORS
330
17C
102
}
330
17C
100
AcDbVisualStyle
  2
X-Ray
 70
    25
177
     3
291
     0
 70
    58
 90
        2
176
     1
 90
        2
176
     1
 90
        1
176
     1
 90
        1
176
     1
 40
0.5
176
     1
 40
30.0
176
     1
 62
     7
420
 16777215
176
     1
 90
        1
176
     1
 90
        0
176
     1
 62
     7
176
     1
 62
   257
176
     1
 90
        1
176
     1
 90
        1
176
     1
 40
1.0
176
     1
 90
        8
176
     1
 62
     7
176
     1
 40
1.0
176
     1
 90
        1
176
     1
 90
        6
176
     1
 90
        2
176
     1
 62
     7
176
     1
 90
        3
176
     1
 90
        0
176
     1
 90
        0
176
     1
290
     0
176
     1
 90
       13
176
     1
 40
0.0
176
     1
 90
        0
176
     1
290
     0
176
     1
290
     1
176
     1
290
     1
176
     1
290
     0
176
     1
290
     0
176
     1
290
     0
176
     1
290
     0
176
     1
290
     0
176
     1
290
     0
176
     1
 90
       50
176
     1
 40
0.0
176
     1
 40
1.0
176
     1
 90
        0
176
     1
 62
    18
420
        0
176
     1
 90
       50
176
     1
 90
        3
176
     1
 62
     5
420
      255
176
     1
290
     0
176
     1
 90
       50
176
     1
 90
       50
176
     1
 90
       50
176
     1
290
     0
176
     1
 90
       50
176
     1
 62
   256
176
     0
 40
1.0
176
     0
 90
        2
176
     1
  1
strokes_ogs.tif
176
     1
290
     0
176
     1
 40
1.0
176
     1
 40
1.0
176
     1
  0
DICTIONARYVAR
  5
1CF
102
{ACAD_REACTORS
330
1C9
102
}
330
1C9
100
DictionaryVariables
280
     0
  1
1:1
  0
DICTIONARYVAR
  5
1CB
102
{ACAD_REACTORS
330
1C9
102
}
330
1C9
100
DictionaryVariables
280
     0
  1
STANDARD
  0
DICTIONARYVAR
  5
1CA
102
{ACAD_REACTORS
330
1C9
102
}
330
1C9
100
DictionaryVariables
280
     0
  1
STANDARD
  0
DICTIONARYVAR
  5
1CC
102
{ACAD_REACTORS
330
1C9
102
}
330
1C9
100
DictionaryVariables
280
     0
  1
Metric50
  0
DICTIONARYVAR
  5
1CD
102
{ACAD_REACTORS
330
1C9
102
}
330
1C9
100
DictionaryVariables
280
     0
  1
Metric50
  0
DICTIONARYVAR
  5
1D1
102
{ACAD_REACTORS
330
1C9
102
}
330
1C9
100
DictionaryVariables
280
     0
  1
1
  0
DICTIONARYVAR
  5
1D2
102
{ACAD_REACTORS
330
1C9
102
}
330
1C9
100
DictionaryVariables
280
     0
  1
15
  0
DICTIONARYVAR
  5
1D0
102
{ACAD_REACTORS
330
1C9
102
}
330
1C9
100
DictionaryVariables
280
     0
  1
0
  0
DICTIONARYVAR
  5
1CE
102
{ACAD_REACTORS
330
1C9
102
}
330
1C9
100
DictionaryVariables
280
     0
  1
0
  0
DICTIONARY
  5
1D7
330
1AF
100
AcDbDictionary
280
     1
281
     1
  3
ACAD_XREC_ROUNDTRIP
360
1D8
  0
DICTIONARY
  5
16D
330
16C
100
AcDbDictionary
280
     1
281
     1
  3
BUMPTILE
360
16F
  3
DIFFUSETILE
360
16E
  3
OPACITYTILE
360
172
  3
REFLECTIONTILE
360
171
  3
REFRACTIONTILE
360
173
  3
SPECULARTILE
360
170
  0
DICTIONARY
  5
165
330
164
100
AcDbDictionary
280
     1
281
     1
  3
BUMPTILE
360
167
  3
DIFFUSETILE
360
166
  3
OPACITYTILE
360
16A
  3
REFLECTIONTILE
360
169
  3
REFRACTIONTILE
360
16B
  3
SPECULARTILE
360
168
  0
DICTIONARY
  5
175
330
174
100
AcDbDictionary
280
     1
281
     1
  3
BUMPTILE
360
177
  3
DIFFUSETILE
360
176
  3
OPACITYTILE
360
17A
  3
REFLECTIONTILE
360
179
  3
REFRACTIONTILE
360
17B
  3
SPECULARTILE
360
178
  0
DICTIONARY
  5
1D5
330
1AD
100
AcDbDictionary
280
     1
281
     1
  3
ACAD_XREC_ROUNDTRIP
360
1D6
  0
DICTIONARY
  5
1D3
330
197
100
AcDbDictionary
280
     1
281
     1
  3
ACAD_ROUNDTRIP_2008_TABLESTYLE_CELLSTYLEMAP
360
1D4
  0
XRECORD
  5
1D8
102
{ACAD_REACTORS
330
1D7
102
}
330
1D7
100
AcDbXrecord
280
     1
102
DISPLAYNAME
  1
Metric50
102
FLAGS
 90
        0
  0
XRECORD
  5
16F
102
{ACAD_REACTORS
330
16D
102
}
330
16D
100
AcDbXrecord
280
     1
270
     1
271
     1
  0
XRECORD
  5
16E
102
{ACAD_REACTORS
330
16D
102
}
330
16D
100
AcDbXrecord
280
     1
270
     1
271
     1
  0
XRECORD
  5
172
102
{ACAD_REACTORS
330
16D
102
}
330
16D
100
AcDbXrecord
280
     1
270
     1
271
     1
  0
XRECORD
  5
171
102
{ACAD_REACTORS
330
16D
102
}
330
16D
100
AcDbXrecord
280
     1
270
     1
271
     1
  0
XRECORD
  5
173
102
{ACAD_REACTORS
330
16D
102
}
330
16D
100
AcDbXrecord
280
     1
270
     1
271
     1
  0
XRECORD
  5
170
102
{ACAD_REACTORS
330
16D
102
}
330
16D
100
AcDbXrecord
280
     1
270
     1
271
     1
  0
XRECORD
  5
167
102
{ACAD_REACTORS
330
165
102
}
330
165
100
AcDbXrecord
280
     1
270
     1
271
     1
  0
XRECORD
  5
166
102
{ACAD_REACTORS
330
165
102
}
330
165
100
AcDbXrecord
280
     1
270
     1
271
     1
  0
XRECORD
  5
16A
102
{ACAD_REACTORS
330
165
102
}
330
165
100
AcDbXrecord
280
     1
270
     1
271
     1
  0
XRECORD
  5
169
102
{ACAD_REACTORS
330
165
102
}
330
165
100
AcDbXrecord
280
     1
270
     1
271
     1
  0
XRECORD
  5
16B
102
{ACAD_REACTORS
330
165
102
}
330
165
100
AcDbXrecord
280
     1
270
     1
271
     1
  0
XRECORD
  5
168
102
{ACAD_REACTORS
330
165
102
}
330
165
100
AcDbXrecord
280
     1
270
     1
271
     1
  0
XRECORD
  5
177
102
{ACAD_REACTORS
330
175
102
}
330
175
100
AcDbXrecord
280
     1
270
     1
271
     1
  0
XRECORD
  5
176
102
{ACAD_REACTORS
330
175
102
}
330
175
100
AcDbXrecord
280
     1
270
     1
271
     1
  0
XRECORD
  5
17A
102
{ACAD_REACTORS
330
175
102
}
330
175
100
AcDbXrecord
280
     1
270
     1
271
     1
  0
XRECORD
  5
179
102
{ACAD_REACTORS
330
175
102
}
330
175
100
AcDbXrecord
280
     1
270
     1
271
     1
  0
XRECORD
  5
17B
102
{ACAD_REACTORS
330
175
102
}
330
175
100
AcDbXrecord
280
     1
270
     1
271
     1
  0
XRECORD
  5
178
102
{ACAD_REACTORS
330
175
102
}
330
175
100
AcDbXrecord
280
     1
270
     1
271
     1
  0
XRECORD
  5
1D6
102
{ACAD_REACTORS
330
1D5
102
}
330
1D5
100
AcDbXrecord
280
     1
102
DISPLAYNAME
  1
Metric50
102
FLAGS
 90
        0
  0
CELLSTYLEMAP
  5
1D4
102
{ACAD_REACTORS
330
1D3
102
}
330
1D3
100
AcDbCellStyleMap
 90
        3
300
CELLSTYLE
  1
TABLEFORMAT_BEGIN
 90
        5
170
     1
 91
        0
 92
    32768
 62
   257
 93
        1
300
CONTENTFORMAT
  1
CONTENTFORMAT_BEGIN
 90
        0
 91
        0
 92
      512
 93
        0
300

 40
0.0
140
1.0
 94
        5
 62
     0
340
11
144
6.0
309
CONTENTFORMAT_END
171
     1
301
MARGIN
  1
CELLMARGIN_BEGIN
 40
1.5
 40
1.5
 40
1.5
 40
1.5
 40
4.5
 40
4.5
309
CELLMARGIN_END
 94
        6
 95
        1
302
GRIDFORMAT
  1
GRIDFORMAT_BEGIN
 90
        0
 91
        1
 62
     0
 92
       -2
340
0
 93
        0
 40
1.125
309
GRIDFORMAT_END
 95
        2
302
GRIDFORMAT
  1
GRIDFORMAT_BEGIN
 90
        0
 91
        1
 62
     0
 92
       -2
340
0
 93
        0
 40
1.125
309
GRIDFORMAT_END
 95
        4
302
GRIDFORMAT
  1
GRIDFORMAT_BEGIN
 90
        0
 91
        1
 62
     0
 92
       -2
340
0
 93
        0
 40
1.125
309
GRIDFORMAT_END
 95
        8
302
GRIDFORMAT
  1
GRIDFORMAT_BEGIN
 90
        0
 91
        1
 62
     0
 92
       -2
340
0
 93
        0
 40
1.125
309
GRIDFORMAT_END
 95
       16
302
GRIDFORMAT
  1
GRIDFORMAT_BEGIN
 90
        0
 91
        1
 62
     0
 92
       -2
340
0
 93
        0
 40
1.125
309
GRIDFORMAT_END
 95
       32
302
GRIDFORMAT
  1
GRIDFORMAT_BEGIN
 90
        0
 91
        1
 62
     0
 92
       -2
340
0
 93
        0
 40
1.125
309
GRIDFORMAT_END
309
TABLEFORMAT_END
  1
CELLSTYLE_BEGIN
 90
        1
 91
        1
300
_TITLE
309
CELLSTYLE_END
300
CELLSTYLE
  1
TABLEFORMAT_BEGIN
 90
        5
170
     1
 91
        0
 92
        0
 62
   257
 93
        1
300
CONTENTFORMAT
  1
CONTENTFORMAT_BEGIN
 90
        0
 91
        0
 92
      512
 93
        0
300

 40
0.0
140
1.0
 94
        5
 62
     0
340
11
144
4.5
309
CONTENTFORMAT_END
171
     1
301
MARGIN
  1
CELLMARGIN_BEGIN
 40
1.5
 40
1.5
 40
1.5
 40
1.5
 40
4.5
 40
4.5
309
CELLMARGIN_END
 94
        6
 95
        1
302
GRIDFORMAT
  1
GRIDFORMAT_BEGIN
 90
        0
 91
        1
 62
     0
 92
       -2
340
0
 93
        0
 40
1.125
309
GRIDFORMAT_END
 95
        2
302
GRIDFORMAT
  1
GRIDFORMAT_BEGIN
 90
        0
 91
        1
 62
     0
 92
       -2
340
0
 93
        0
 40
1.125
309
GRIDFORMAT_END
 95
        4
302
GRIDFORMAT
  1
GRIDFORMAT_BEGIN
 90
        0
 91
        1
 62
     0
 92
       -2
340
0
 93
        0
 40
1.125
309
GRIDFORMAT_END
 95
        8
302
GRIDFORMAT
  1
GRIDFORMAT_BEGIN
 90
        0
 91
        1
 62
     0
 92
       -2
340
0
 93
        0
 40
1.125
309
GRIDFORMAT_END
 95
       16
302
GRIDFORMAT
  1
GRIDFORMAT_BEGIN
 90
        0
 91
        1
 62
     0
 92
       -2
340
0
 93
        0
 40
1.125
309
GRIDFORMAT_END
 95
       32
302
GRIDFORMAT
  1
GRIDFORMAT_BEGIN
 90
        0
 91
        1
 62
     0
 92
       -2
340
0
 93
        0
 40
1.125
309
GRIDFORMAT_END
309
TABLEFORMAT_END
  1
CELLSTYLE_BEGIN
 90
        2
 91
        1
300
_HEADER
309
CELLSTYLE_END
300
CELLSTYLE
  1
TABLEFORMAT_BEGIN
 90
        5
170
     1
 91
        0
 92
        0
 62
   257
 93
        1
300
CONTENTFORMAT
  1
CONTENTFORMAT_BEGIN
 90
        0
 91
        0
 92
      512
 93
        0
300

 40
0.0
140
1.0
 94
        2
 62
     0
340
11
144
4.5
309
CONTENTFORMAT_END
171
     1
301
MARGIN
  1
CELLMARGIN_BEGIN
 40
1.5
 40
1.5
 40
1.5
 40
1.5
 40
4.5
 40
4.5
309
CELLMARGIN_END
 94
        6
 95
        1
302
GRIDFORMAT
  1
GRIDFORMAT_BEGIN
 90
        0
 91
        1
 62
     0
 92
       -2
340
0
 93
        0
 40
1.125
309
GRIDFORMAT_END
 95
        2
302
GRIDFORMAT
  1
GRIDFORMAT_BEGIN
 90
        0
 91
        1
 62
     0
 92
       -2
340
0
 93
        0
 40
1.125
309
GRIDFORMAT_END
 95
        4
302
GRIDFORMAT
  1
GRIDFORMAT_BEGIN
 90
        0
 91
        1
 62
     0
 92
       -2
340
0
 93
        0
 40
1.125
309
GRIDFORMAT_END
 95
        8
302
GRIDFORMAT
  1
GRIDFORMAT_BEGIN
 90
        0
 91
        1
 62
     0
 92
       -2
340
0
 93
        0
 40
1.125
309
GRIDFORMAT_END
 95
       16
302
GRIDFORMAT
  1
GRIDFORMAT_BEGIN
 90
        0
 91
        1
 62
     0
 92
       -2
340
0
 93
        0
 40
1.125
309
GRIDFORMAT_END
 95
       32
302
GRIDFORMAT
  1
GRIDFORMAT_BEGIN
 90
        0
 91
        1
 62
     0
 92
       -2
340
0
 93
        0
 40
1.125
309
GRIDFORMAT_END
309
TABLEFORMAT_END
  1
CELLSTYLE_BEGIN
 90
        3
 91
        2
300
_DATA
309
CELLSTYLE_END
  0
ENDSEC
  0
EOF
