  0
SECTION
  2
HEADER
  9
$ACADVER
  1
AC1027
  9
$ACADMAINTVER
 70
   125
  9
$DWGCODEPAGE
  3
ANSI_1252
  9
$LASTSAVEDBY
  1
fleminab
  9
$REQUIREDVERSIONS
160
                 0
  9
$INSBASE
 10
0.0
 20
0.0
 30
0.0
  9
$EXTMIN
 10
11732.06740412801
 20
346.5785790686332
 30
-0.0015258207003583
  9
$EXTMAX
 10
13069.6381330181
 20
1379.906240729781
 30
0.0000000349246037
  9
$LIMMIN
 10
0.0
 20
0.0
  9
$LIMMAX
 10
420.0
 20
297.0
  9
$ORTHOMODE
 70
     0
  9
$REGENMODE
 70
     1
  9
$FILLMODE
 70
     1
  9
$QTEXTMODE
 70
     0
  9
$MIRRTEXT
 70
     0
  9
$LTSCALE
 40
1.0
  9
$ATTMODE
 70
     1
  9
$TEXTSIZE
 40
2.5
  9
$TRACEWID
 40
1.0
  9
$TEXTSTYLE
  7
Standard
  9
$CLAYER
  8
0
  9
$CELTYPE
  6
ByLayer
  9
$CECOLOR
 62
   256
  9
$CELTSCALE
 40
1.0
  9
$DISPSILH
 70
     0
  9
$DIMSCALE
 40
1.0
  9
$DIMASZ
 40
20.0
  9
$DIMEXO
 40
2.0
  9
$DIMDLI
 40
10.0
  9
$DIMRND
 40
0.0
  9
$DIMDLE
 40
0.0
  9
$DIMEXE
 40
2.0
  9
$DIMTP
 40
0.0
  9
$DIMTM
 40
0.0
  9
$DIMTXT
 40
15.0
  9
$DIMCEN
 40
10.0
  9
$DIMTSZ
 40
0.0
  9
$DIMTOL
 70
     0
  9
$DIMLIM
 70
     0
  9
$DIMTIH
 70
     0
  9
$DIMTOH
 70
     0
  9
$DIMSE1
 70
     0
  9
$DIMSE2
 70
     0
  9
$DIMTAD
 70
     1
  9
$DIMZIN
 70
     8
  9
$DIMBLK
  1

  9
$DIMASO
 70
     1
  9
$DIMSHO
 70
     1
  9
$DIMPOST
  1

  9
$DIMAPOST
  1
mm
  9
$DIMALT
 70
     0
  9
$DIMALTD
 70
     2
  9
$DIMALTF
 40
25.4
  9
$DIMLFAC
 40
1.0
  9
$DIMTOFL
 70
     1
  9
$DIMTVP
 40
0.0
  9
$DIMTIX
 70
     0
  9
$DIMSOXD
 70
     0
  9
$DIMSAH
 70
     0
  9
$DIMBLK1
  1

  9
$DIMBLK2
  1

  9
$DIMSTYLE
  2
N915
  9
$DIMCLRD
 70
     0
  9
$DIMCLRE
 70
     0
  9
$DIMCLRT
 70
     0
  9
$DIMTFAC
 40
1.0
  9
$DIMGAP
 40
2.0
  9
$DIMJUST
 70
     0
  9
$DIMSD1
 70
     0
  9
$DIMSD2
 70
     0
  9
$DIMTOLJ
 70
     1
  9
$DIMTZIN
 70
     0
  9
$DIMALTZ
 70
     0
  9
$DIMALTTZ
 70
     0
  9
$DIMUPT
 70
     1
  9
$DIMDEC
 70
     2
  9
$DIMTDEC
 70
     2
  9
$DIMALTU
 70
     2
  9
$DIMALTTD
 70
     2
  9
$DIMTXSTY
  7
Standard
  9
$DIMAUNIT
 70
     0
  9
$DIMADEC
 70
     1
  9
$DIMALTRND
 40
0.0
  9
$DIMAZIN
 70
     0
  9
$DIMDSEP
 70
    46
  9
$DIMATFIT
 70
     3
  9
$DIMFRAC
 70
     0
  9
$DIMLDRBLK
  1

  9
$DIMLUNIT
 70
     2
  9
$DIMLWD
 70
    -2
  9
$DIMLWE
 70
    -2
  9
$DIMTMOVE
 70
     0
  9
$DIMFXL
 40
1.0
  9
$DIMFXLON
 70
     0
  9
$DIMJOGANG
 40
0.7853981633974483
  9
$DIMTFILL
 70
     0
  9
$DIMTFILLCLR
 70
     0
  9
$DIMARCSYM
 70
     0
  9
$DIMLTYPE
  6

  9
$DIMLTEX1
  6

  9
$DIMLTEX2
  6

  9
$DIMTXTDIRECTION
 70
     0
  9
$LUNITS
 70
     2
  9
$LUPREC
 70
     4
  9
$SKETCHINC
 40
1.0
  9
$FILLETRAD
 40
15.0
  9
$AUNITS
 70
     0
  9
$AUPREC
 70
     0
  9
$MENU
  1
.
  9
$ELEVATION
 40
0.0
  9
$PELEVATION
 40
0.0
  9
$THICKNESS
 40
0.0
  9
$LIMCHECK
 70
     0
  9
$CHAMFERA
 40
0.0
  9
$CHAMFERB
 40
0.0
  9
$CHAMFERC
 40
0.0
  9
$CHAMFERD
 40
0.0
  9
$SKPOLY
 70
     0
  9
$TDCREATE
 40
2455146.636087963
  9
$TDUCREATE
 40
2455146.177762939
  9
$TDUPDATE
 40
2458015.547002315
  9
$TDUUPDATE
 40
2458015.130335648
  9
$TDINDWG
 40
0.0451520949
  9
$TDUSRTIMER
 40
0.0451520949
  9
$USRTIMER
 70
     1
  9
$ANGBASE
 50
0.0
  9
$ANGDIR
 70
     0
  9
$PDMODE
 70
     0
  9
$PDSIZE
 40
0.0
  9
$PLINEWID
 40
0.0
  9
$SPLFRAME
 70
     0
  9
$SPLINETYPE
 70
     6
  9
$SPLINESEGS
 70
     8
  9
$HANDSEED
  5
4921
  9
$SURFTAB1
 70
     6
  9
$SURFTAB2
 70
     6
  9
$SURFTYPE
 70
     6
  9
$SURFU
 70
     6
  9
$SURFV
 70
     6
  9
$UCSBASE
  2

  9
$UCSNAME
  2

  9
$UCSORG
 10
0.0
 20
0.0
 30
0.0
  9
$UCSXDIR
 10
1.0
 20
0.0
 30
0.0
  9
$UCSYDIR
 10
0.0
 20
1.0
 30
0.0
  9
$UCSORTHOREF
  2

  9
$UCSORTHOVIEW
 70
     0
  9
$UCSORGTOP
 10
0.0
 20
0.0
 30
0.0
  9
$UCSORGBOTTOM
 10
0.0
 20
0.0
 30
0.0
  9
$UCSORGLEFT
 10
0.0
 20
0.0
 30
0.0
  9
$UCSORGRIGHT
 10
0.0
 20
0.0
 30
0.0
  9
$UCSORGFRONT
 10
0.0
 20
0.0
 30
0.0
  9
$UCSORGBACK
 10
0.0
 20
0.0
 30
0.0
  9
$PUCSBASE
  2

  9
$PUCSNAME
  2

  9
$PUCSORG
 10
0.0
 20
0.0
 30
0.0
  9
$PUCSXDIR
 10
1.0
 20
0.0
 30
0.0
  9
$PUCSYDIR
 10
0.0
 20
1.0
 30
0.0
  9
$PUCSORTHOREF
  2

  9
$PUCSORTHOVIEW
 70
     0
  9
$PUCSORGTOP
 10
0.0
 20
0.0
 30
0.0
  9
$PUCSORGBOTTOM
 10
0.0
 20
0.0
 30
0.0
  9
$PUCSORGLEFT
 10
0.0
 20
0.0
 30
0.0
  9
$PUCSORGRIGHT
 10
0.0
 20
0.0
 30
0.0
  9
$PUCSORGFRONT
 10
0.0
 20
0.0
 30
0.0
  9
$PUCSORGBACK
 10
0.0
 20
0.0
 30
0.0
  9
$USERI1
 70
     0
  9
$USERI2
 70
     0
  9
$USERI3
 70
     0
  9
$USERI4
 70
     0
  9
$USERI5
 70
     0
  9
$USERR1
 40
0.0
  9
$USERR2
 40
0.0
  9
$USERR3
 40
0.0
  9
$USERR4
 40
0.0
  9
$USERR5
 40
2.5
  9
$WORLDVIEW
 70
     1
  9
$SHADEDGE
 70
     3
  9
$SHADEDIF
 70
    70
  9
$TILEMODE
 70
     1
  9
$MAXACTVP
 70
    64
  9
$PINSBASE
 10
0.0
 20
0.0
 30
0.0
  9
$PLIMCHECK
 70
     0
  9
$PEXTMIN
 10
4.97734458046716
 20
55.97694212324916
 30
-0.0015258207003583
  9
$PEXTMAX
 10
185.0043130582636
 20
287.0072081488981
 30
0.0000000349246037
  9
$PLIMMIN
 10
-127.4182497939359
 20
-10.82665186583117
  9
$PLIMMAX
 10
307.2197102571284
 20
296.663184041771
  9
$UNITMODE
 70
     0
  9
$VISRETAIN
 70
     1
  9
$PLINEGEN
 70
     0
  9
$PSLTSCALE
 70
     1
  9
$TREEDEPTH
 70
  3020
  9
$CMLSTYLE
  2
Standard
  9
$CMLJUST
 70
     0
  9
$CMLSCALE
 40
20.0
  9
$PROXYGRAPHICS
 70
     1
  9
$MEASUREMENT
 70
     1
  9
$CELWEIGHT
370
    -1
  9
$ENDCAPS
280
     0
  9
$JOINSTYLE
280
     0
  9
$LWDISPLAY
290
     0
  9
$INSUNITS
 70
     4
  9
$HYPERLINKBASE
  1

  9
$STYLESHEET
  1

  9
$XEDIT
290
     1
  9
$CEPSNTYPE
380
     0
  9
$PSTYLEMODE
290
     1
  9
$FINGERPRINTGUID
  2
{2F5B2D13-79D4-450D-8442-A0C3616ECF58}
  9
$VERSIONGUID
  2
{DD314349-44E8-1E45-BE3D-75B884FC60FB}
  9
$EXTNAMES
290
     1
  9
$PSVPSCALE
 40
0.0
  9
$OLESTARTUP
290
     0
  9
$SORTENTS
280
   127
  9
$INDEXCTL
280
     0
  9
$HIDETEXT
280
     1
  9
$XCLIPFRAME
280
     0
  9
$HALOGAP
280
     0
  9
$OBSCOLOR
 70
   257
  9
$OBSLTYPE
280
     0
  9
$INTERSECTIONDISPLAY
280
     0
  9
$INTERSECTIONCOLOR
 70
   257
  9
$DIMASSOC
280
     2
  9
$PROJECTNAME
  1

  9
$CAMERADISPLAY
290
     0
  9
$LENSLENGTH
 40
50.0
  9
$CAMERAHEIGHT
 40
0.0
  9
$STEPSPERSEC
 40
2.0
  9
$STEPSIZE
 40
6.0
  9
$3DDWFPREC
 40
2.0
  9
$PSOLWIDTH
 40
5.0
  9
$PSOLHEIGHT
 40
80.0
  9
$LOFTANG1
 40
1.570796326794896
  9
$LOFTANG2
 40
1.570796326794896
  9
$LOFTMAG1
 40
0.0
  9
$LOFTMAG2
 40
0.0
  9
$LOFTPARAM
 70
     7
  9
$LOFTNORMALS
280
     1
  9
$LATITUDE
 40
37.795
  9
$LONGITUDE
 40
-122.394
  9
$NORTHDIRECTION
 40
0.0
  9
$TIMEZONE
 70
 -8000
  9
$LIGHTGLYPHDISPLAY
280
     1
  9
$TILEMODELIGHTSYNCH
280
     1
  9
$CMATERIAL
347
2A9
  9
$SOLIDHIST
280
     1
  9
$SHOWHIST
280
     1
  9
$DWFFRAME
280
     2
  9
$DGNFRAME
280
     0
  9
$REALWORLDSCALE
290
     1
  9
$INTERFERECOLOR
 62
     1
  9
$INTERFEREOBJVS
345
2B6
  9
$INTERFEREVPVS
346
48C5
  9
$CSHADOW
280
     0
  9
$SHADOWPLANELOCATION
 40
0.0
  0
ENDSEC
  0
SECTION
  2
CLASSES
  0
CLASS
  1
ACDBDICTIONARYWDFLT
  2
AcDbDictionaryWithDefault
  3
ObjectDBX Classes
 90
        0
 91
        1
280
     0
281
     0
  0
CLASS
  1
DICTIONARYVAR
  2
AcDbDictionaryVar
  3
ObjectDBX Classes
 90
        0
 91
       19
280
     0
281
     0
  0
CLASS
  1
TABLESTYLE
  2
AcDbTableStyle
  3
ObjectDBX Classes
 90
     4095
 91
        1
280
     0
281
     0
  0
CLASS
  1
MATERIAL
  2
AcDbMaterial
  3
ObjectDBX Classes
 90
     1153
 91
        3
280
     0
281
     0
  0
CLASS
  1
VISUALSTYLE
  2
AcDbVisualStyle
  3
ObjectDBX Classes
 90
     4095
 91
       26
280
     0
281
     0
  0
CLASS
  1
VLO-VL
  2
vlo_VL
  3
VL|AutoLISP based application
 90
      129
 91
        1
280
     0
281
     0
  0
CLASS
  1
DIMASSOC
  2
AcDbDimAssoc
  3
"AcDbDimAssoc|Product Desc:     AcDim ARX App For Dimension|Company:          Autodesk, Inc.|WEB Address:      www.autodesk.com"
 90
        0
 91
       21
280
     0
281
     0
  0
CLASS
  1
SORTENTSTABLE
  2
AcDbSortentsTable
  3
ObjectDBX Classes
 90
        0
 91
        1
280
     0
281
     0
  0
CLASS
  1
SCALE
  2
AcDbScale
  3
ObjectDBX Classes
 90
     1153
 91
       17
280
     0
281
     0
  0
CLASS
  1
MLEADERSTYLE
  2
AcDbMLeaderStyle
  3
ACDB_MLEADERSTYLE_CLASS
 90
     4095
 91
        1
280
     0
281
     0
  0
CLASS
  1
ACDBSECTIONVIEWSTYLE
  2
AcDbSectionViewStyle
  3
ObjectDBX Classes
 90
     1025
 91
        1
280
     0
281
     0
  0
CLASS
  1
ACDBDETAILVIEWSTYLE
  2
AcDbDetailViewStyle
  3
ObjectDBX Classes
 90
     1025
 91
        1
280
     0
281
     0
  0
CLASS
  1
CELLSTYLEMAP
  2
AcDbCellStyleMap
  3
ObjectDBX Classes
 90
     1152
 91
        1
280
     0
281
     0
  0
ENDSEC
  0
SECTION
  2
TABLES
  0
TABLE
  2
VPORT
  5
8
330
0
100
AcDbSymbolTable
 70
     1
1001
ACAD
1000
DbSaveVer
1071
        5
  0
VPORT
  5
28F
330
8
100
AcDbSymbolTableRecord
100
AcDbViewportTableRecord
  2
*Active
 70
     0
 10
0.0
 20
0.0
 11
1.0
 21
1.0
 12
12400.85276857305
 22
863.2424098992069
 13
0.0
 23
0.0
 14
10.0
 24
10.0
 15
10.0
 25
10.0
 16
0.0
 26
0.0
 36
1.0
 17
0.0
 27
0.0
 37
0.0
 40
1040.726189071609
 41
2.292712066905615
 42
50.0
 43
0.0
 44
0.0
 50
0.0
 51
0.0
 71
     0
 72
  1000
 73
     1
 74
     3
 75
     0
 76
     0
 77
     0
 78
     0
281
     0
 65
     1
110
0.0
120
0.0
130
0.0
111
1.0
121
0.0
131
0.0
112
0.0
122
1.0
132
0.0
 79
     0
146
0.0
348
2B2
 60
     3
 61
     5
292
     1
282
     1
141
0.0
142
0.0
 63
   250
421
  3355443
1001
ACAD_NAV_VCDISPLAY
1070
     3
  0
ENDTAB
  0
TABLE
  2
LTYPE
  5
5
330
0
100
AcDbSymbolTable
 70
     4
  0
LTYPE
  5
14
330
5
100
AcDbSymbolTableRecord
100
AcDbLinetypeTableRecord
  2
ByBlock
 70
     0
  3

 72
    65
 73
     0
 40
0.0
  0
LTYPE
  5
15
330
5
100
AcDbSymbolTableRecord
100
AcDbLinetypeTableRecord
  2
ByLayer
 70
     0
  3

 72
    65
 73
     0
 40
0.0
  0
LTYPE
  5
16
330
5
100
AcDbSymbolTableRecord
100
AcDbLinetypeTableRecord
  2
Continuous
 70
     0
  3
Solid line
 72
    65
 73
     0
 40
0.0
  0
LTYPE
  5
644
330
5
100
AcDbSymbolTableRecord
100
AcDbLinetypeTableRecord
  2
CENTER
 70
     0
  3
____ _ ____ _ ____ _ ____ _ ____ _ ____ _ ____
 72
    65
 73
     4
 40
0.6
 49
0.375
 74
     0
 49
-0.075
 74
     0
 49
0.075
 74
     0
 49
-0.075
 74
     0
  0
LTYPE
  5
645
330
5
100
AcDbSymbolTableRecord
100
AcDbLinetypeTableRecord
  2
DIVIDE
 70
     0
  3
Divide ____ . . ____ . . ____ . . ____ . . ____
 72
    65
 73
     6
 40
31.75
 49
12.7
 74
     0
 49
-6.349999999999999
 74
     0
 49
0.0
 74
     0
 49
-6.349999999999999
 74
     0
 49
0.0
 74
     0
 49
-6.349999999999999
 74
     0
  0
LTYPE
  5
1663
330
5
100
AcDbSymbolTableRecord
100
AcDbLinetypeTableRecord
  2
PHANTOM
 70
     0
  3
Phantom ______  __  __  ______  __  __  ______
 72
    65
 73
     6
 40
63.5
 49
31.75
 74
     0
 49
-6.349999999999999
 74
     0
 49
6.349999999999999
 74
     0
 49
-6.349999999999999
 74
     0
 49
6.349999999999999
 74
     0
 49
-6.349999999999999
 74
     0
  0
ENDTAB
  0
TABLE
  2
LAYER
  5
2
102
{ACAD_XDICTIONARY
360
289
102
}
330
0
100
AcDbSymbolTable
 70
     8
  0
LAYER
  5
10
102
{ACAD_XDICTIONARY
360
48F6
102
}
330
2
100
AcDbSymbolTableRecord
100
AcDbLayerTableRecord
  2
0
 70
     0
 62
     7
  6
Continuous
370
    -3
390
F
347
2AB
348
0
  0
LAYER
  5
194
102
{ACAD_XDICTIONARY
360
48F8
102
}
330
2
100
AcDbSymbolTableRecord
100
AcDbLayerTableRecord
  2
图框_标题栏文字
 70
     0
 62
     6
  6
Continuous
370
    -3
390
F
347
2AB
348
0
1001
AcadStringInfo
1000
MIFCodePage
1070
     5
  0
LAYER
  5
195
102
{ACAD_XDICTIONARY
360
48FA
102
}
330
2
100
AcDbSymbolTableRecord
100
AcDbLayerTableRecord
  2
图框_标题栏属性
 70
     0
 62
     1
  6
Continuous
370
    -3
390
F
347
2AB
348
0
1001
AcadStringInfo
1000
MIFCodePage
1070
     5
  0
LAYER
  5
196
102
{ACAD_XDICTIONARY
360
48FC
102
}
330
2
100
AcDbSymbolTableRecord
100
AcDbLayerTableRecord
  2
图框_角线
 70
     0
 62
     5
  6
Continuous
370
   200
390
F
347
2AB
348
0
1001
AcadStringInfo
1000
MIFCodePage
1070
     5
  0
LAYER
  5
197
102
{ACAD_XDICTIONARY
360
48FE
102
}
330
2
100
AcDbSymbolTableRecord
100
AcDbLayerTableRecord
  2
图框_内框线
 70
     0
 62
     5
  6
Continuous
370
    50
390
F
347
2AB
348
0
1001
AcadStringInfo
1000
MIFCodePage
1070
     5
  0
LAYER
  5
198
102
{ACAD_XDICTIONARY
360
4900
102
}
330
2
100
AcDbSymbolTableRecord
100
AcDbLayerTableRecord
  2
图框_视口
 70
     4
 62
     7
  6
Continuous
370
    -3
390
F
347
2AB
348
0
1001
AcadStringInfo
1000
MIFCodePage
1070
     5
  0
LAYER
  5
199
102
{ACAD_XDICTIONARY
360
4902
102
}
330
2
100
AcDbSymbolTableRecord
100
AcDbLayerTableRecord
  2
图框_外框线
 70
     0
 62
     7
  6
Continuous
370
    -3
390
F
347
2AB
348
0
1001
AcadStringInfo
1000
MIFCodePage
1070
     5
  0
LAYER
  5
646
330
2
100
AcDbSymbolTableRecord
100
AcDbLayerTableRecord
  2
Defpoints
 70
     0
 62
     7
  6
Continuous
290
     0
370
    -3
390
F
347
2AB
348
0
  0
ENDTAB
  0
TABLE
  2
STYLE
  5
3
330
0
100
AcDbSymbolTable
 70
     5
  0
STYLE
  5
11
330
3
100
AcDbSymbolTableRecord
100
AcDbTextStyleTableRecord
  2
Standard
 70
     0
 40
0.0
 41
1.0
 50
0.0
 71
     0
 42
2.5
  3
txt.shx
  4
gbcbig.shx
  0
STYLE
  5
6B
330
3
100
AcDbSymbolTableRecord
100
AcDbTextStyleTableRecord
  2
工程字
 70
     0
 40
0.0
 41
1.0
 50
0.0
 71
     0
 42
5.0
  3
gbenor.shx
  4
gbcbig.shx
1001
AcadStringInfo
1000
MIFCodePage
1070
     5
  0
STYLE
  5
647
330
3
100
AcDbSymbolTableRecord
100
AcDbTextStyleTableRecord
  2
ROMANS
 70
     0
 40
0.0
 41
1.0
 50
10.0
 71
     0
 42
2.25
  3
romans
  4

  0
STYLE
  5
648
330
3
100
AcDbSymbolTableRecord
100
AcDbTextStyleTableRecord
  2
xs
 70
     0
 40
0.0
 41
0.6700000000000001
 50
0.0
 71
     0
 42
0.2
  3
NSimSun.ttf
  4

1001
ACAD
1000
NSimSun
1071
    34353
  0
STYLE
  5
649
330
3
100
AcDbSymbolTableRecord
100
AcDbTextStyleTableRecord
  2
ADESK2
 70
     0
 40
0.0
 41
1.0
 50
0.0
 71
     0
 42
0.065
  3
SimSun.ttf
  4

1001
ACAD
1000
SimSun
1071
    34306
  0
ENDTAB
  0
TABLE
  2
VIEW
  5
6
330
0
100
AcDbSymbolTable
 70
     0
  0
ENDTAB
  0
TABLE
  2
UCS
  5
7
330
0
100
AcDbSymbolTable
 70
     0
  0
ENDTAB
  0
TABLE
  2
APPID
  5
9
330
0
100
AcDbSymbolTable
 70
     6
  0
APPID
  5
12
330
9
100
AcDbSymbolTableRecord
100
AcDbRegAppTableRecord
  2
ACAD
 70
     0
  0
APPID
  5
82
330
9
100
AcDbSymbolTableRecord
100
AcDbRegAppTableRecord
  2
DCO15
 70
     0
  0
APPID
  5
64F
330
9
100
AcDbSymbolTableRecord
100
AcDbRegAppTableRecord
  2
ACAD_PSEXT
 70
     0
  0
APPID
  5
FB5
330
9
100
AcDbSymbolTableRecord
100
AcDbRegAppTableRecord
  2
ACAD_EXEMPT_FROM_CAD_STANDARDS
 70
     0
  0
APPID
  5
48E4
330
9
100
AcDbSymbolTableRecord
100
AcDbRegAppTableRecord
  2
AcadStringInfo
 70
     0
  0
APPID
  5
4904
330
9
100
AcDbSymbolTableRecord
100
AcDbRegAppTableRecord
  2
ACAD_NAV_VCDISPLAY
 70
     0
  0
ENDTAB
  0
TABLE
  2
DIMSTYLE
  5
A
330
0
100
AcDbSymbolTable
 70
     9
100
AcDbDimStyleTable
 71
     3
340
64D
340
64B
340
19A
  0
DIMSTYLE
105
19A
330
A
100
AcDbSymbolTableRecord
100
AcDbDimStyleTableRecord
  2
GB-35
 70
     0
 41
3.5
 42
0.875
 43
5.25
 44
1.75
 73
     0
 74
     0
 77
     1
 78
     8
140
3.5
141
3.5
143
0.0394
146
0.7
147
0.875
171
     4
172
     1
271
     2
272
     2
273
     8
274
     4
283
     0
340
6B
  0
DIMSTYLE
105
64A
330
A
100
AcDbSymbolTableRecord
100
AcDbDimStyleTableRecord
  2
N6_iso
 70
     0
 41
5.0
 42
1.0
 43
10.0
 44
1.0
 73
     0
140
6.0
141
3.0
147
1.0
179
     1
271
     2
272
     2
340
11
  0
DIMSTYLE
105
64B
102
{ACAD_REACTORS
330
1A5C
330
1A5F
102
}
330
A
100
AcDbSymbolTableRecord
100
AcDbDimStyleTableRecord
  2
N915iso
 70
     0
 41
20.0
 42
2.0
 43
10.0
 44
2.0
 73
     0
 77
     1
 78
     8
140
15.0
141
10.0
147
2.0
172
     1
179
     1
271
     2
272
     2
288
     1
340
11
  0
DIMSTYLE
105
64C
330
A
100
AcDbSymbolTableRecord
100
AcDbDimStyleTableRecord
  2
ISO-25
 70
     0
  3
mm
 41
25.0
 42
5.0
 43
3.75
 44
5.0
 73
     0
 77
     1
 78
     8
140
20.0
141
2.5
143
0.03937007874016
147
5.0
171
     3
172
     1
271
     2
272
     2
274
     3
278
    44
283
     0
284
     8
340
11
  0
DIMSTYLE
105
64D
102
{ACAD_REACTORS
330
1A40
330
1A4F
330
1A52
330
1A55
330
1A56
330
1A59
330
1A64
330
1A84
330
1A87
330
1A8A
330
1A8D
330
1A8E
330
1A93
330
1B12
330
1C09
330
1C0E
330
1C12
330
1C17
330
1C1A
330
1C2C
330
1C2F
330
1C32
330
1C35
102
}
330
A
100
AcDbSymbolTableRecord
100
AcDbDimStyleTableRecord
  2
N915
 70
     0
  4
mm
 41
20.0
 42
2.0
 43
10.0
 44
2.0
 73
     0
 74
     0
 77
     1
 78
     8
140
15.0
141
10.0
147
2.0
172
     1
179
     1
271
     2
272
     2
288
     1
340
11
  0
DIMSTYLE
105
64E
330
A
100
AcDbSymbolTableRecord
100
AcDbDimStyleTableRecord
  2
-25
 70
     0
  3
M<>
 41
13.0
 42
0.625
 43
3.75
 44
1.25
 49
1.25
 50
90.0
 73
     0
 74
     0
 77
     1
 78
     8
140
30.0
141
2.5
143
0.03937007874016
147
1.0
171
     3
172
     1
179
     2
271
     2
272
     2
274
     3
278
    44
283
     0
284
     8
340
11
  0
DIMSTYLE
105
1664
330
A
100
AcDbSymbolTableRecord
100
AcDbDimStyleTableRecord
  2
ISO-25-iso
 70
     0
 41
25.0
 42
0.625
 43
3.75
 44
1.25
 49
1.25
 50
90.0
 73
     0
 77
     1
 78
     8
140
20.0
141
2.5
143
0.03937007874016
147
1.0
171
     3
172
     1
179
     2
271
     2
272
     2
274
     3
278
    44
283
     0
284
     8
340
648
  0
DIMSTYLE
105
1665
330
A
100
AcDbSymbolTableRecord
100
AcDbDimStyleTableRecord
  2
isoN912
 70
     0
  3
mm
 41
10.0
 42
2.0
 43
10.0
 44
2.0
 73
     0
140
12.0
141
0.0
147
2.0
179
     1
271
     2
272
     2
340
11
  0
DIMSTYLE
105
1666
330
A
100
AcDbSymbolTableRecord
100
AcDbDimStyleTableRecord
  2
ISO-25-1
 70
     0
  3
mm
 41
25.0
 42
5.0
 43
3.75
 44
5.0
 73
     0
 74
     0
 77
     1
 78
     8
140
20.0
141
2.5
143
0.03937007874016
147
5.0
171
     3
172
     1
271
     2
272
     2
274
     3
278
    44
283
     0
284
     8
340
11
  0
ENDTAB
  0
TABLE
  2
BLOCK_RECORD
  5
1
330
0
100
AcDbSymbolTable
 70
   122
  0
BLOCK_RECORD
  5
1F
102
{ACAD_XDICTIONARY
360
F99
102
}
330
1
100
AcDbSymbolTableRecord
100
AcDbBlockTableRecord
  2
*Model_Space
340
22
 70
     0
280
     1
281
     0
  0
BLOCK_RECORD
  5
72
330
1
100
AcDbSymbolTableRecord
100
AcDbBlockTableRecord
  2
*Paper_Space
340
71
 70
     0
280
     1
281
     0
  0
BLOCK_RECORD
  5
145
330
1
100
AcDbSymbolTableRecord
100
AcDbBlockTableRecord
  2
GB_A4 title block
340
0
310
2800000020000000200000000100080000000000000400000000000000000000000000000000000000000000000080000080000000808000800000008000800080800000C0C0C000C0DCC000F0CAA6000020400000206000002080000020A0000020C0000020E00000400000004020000040400000406000004080000040A0
310
000040C0000040E00000600000006020000060400000606000006080000060A0000060C0000060E00000800000008020000080400000806000008080000080A0000080C0000080E00000A0000000A0200000A0400000A0600000A0800000A0A00000A0C00000A0E00000C0000000C0200000C0400000C0600000C0800000C0
310
A00000C0C00000C0E00000E0000000E0200000E0400000E0600000E0800000E0A00000E0C00000E0E00040000000400020004000400040006000400080004000A0004000C0004000E00040200000402020004020400040206000402080004020A0004020C0004020E000404000004040200040404000404060004040800040
310
40A0004040C0004040E00040600000406020004060400040606000406080004060A0004060C0004060E00040800000408020004080400040806000408080004080A0004080C0004080E00040A0000040A0200040A0400040A0600040A0800040A0A00040A0C00040A0E00040C0000040C0200040C0400040C0600040C08000
310
40C0A00040C0C00040C0E00040E0000040E0200040E0400040E0600040E0800040E0A00040E0C00040E0E00080000000800020008000400080006000800080008000A0008000C0008000E00080200000802020008020400080206000802080008020A0008020C0008020E00080400000804020008040400080406000804080
310
008040A0008040C0008040E00080600000806020008060400080606000806080008060A0008060C0008060E00080800000808020008080400080806000808080008080A0008080C0008080E00080A0000080A0200080A0400080A0600080A0800080A0A00080A0C00080A0E00080C0000080C0200080C0400080C0600080C0
310
800080C0A00080C0C00080C0E00080E0000080E0200080E0400080E0600080E0800080E0A00080E0C00080E0E000C0000000C0002000C0004000C0006000C0008000C000A000C000C000C000E000C0200000C0202000C0204000C0206000C0208000C020A000C020C000C020E000C0400000C0402000C0404000C0406000C0
310
408000C040A000C040C000C040E000C0600000C0602000C0604000C0606000C0608000C060A000C060C000C060E000C0800000C0802000C0804000C0806000C0808000C080A000C080C000C080E000C0A00000C0A02000C0A04000C0A06000C0A08000C0A0A000C0A0C000C0A0E000C0C00000C0C02000C0C04000C0C06000
310
C0C08000C0C0A000F0FBFF00A4A0A000808080000000FF0000FF000000FFFF00FF000000FF00FF00FFFF0000FFFFFF00FFFFFFFFFFFFFFFFFFFFFFFFFFFFFFFFFFFFFFFFFFFFFFFFFFFFFFFFFFFFFFFFFFFFFFFFFFFF0000000000000000000000000000000000000000FFFFFFFFFFFFFFFFFFFFFFFF00FFFDFD0000FD0000
310
00F9F9F9F9F900F9F90000FFFFFFFFFFFFFFFFFFFFFFFF00FFFDFD0000000000000000F9F9F9FFF9F9FF00FFFFFFFFFFFFFFFFFFFFFFFF00FFFDFD0000FDFD0000FDFDFDFDFD00F9F90000FFFFFFFFFFFFFFFFFFFFFFFF00FFFDFDFDFDFDFDFDFD00F9F9F90000F9F90000FFFFFFFFFFFFFFFFFFFFFFFF00FF000000000000
310
000000F9F9F900FFF9F9FF00FFFFFFFFFFFFFFFFFFFFFFFF00FF0000000000000000000000000000F9F90000FFFFFFFFFFFFFFFFFFFFFFFF00FFFCFFFFFFFFFFFFFFFFFFFFFFFFFFFFFFFF00FFFFFFFFFFFFFFFFFFFFFFFF00FFFCFFFFFFFFFFFFFFFFFFFFFFFFFFFFFFFF00FFFFFFFFFFFFFFFFFFFFFFFF00FFFCFFFFFFFF
310
FFFFFFFFFFFFFFFFFFFFFFFF00FFFFFFFFFFFFFFFFFFFFFFFF00FFFCFFFFFFFFFFFFFFFFFFFFFFFFFFFFFFFF00FFFFFFFFFFFFFFFFFFFFFFFF00FFFCFFFFFFFFFFFFFFFFFFFFFFFFFFFFFFFF00FFFFFFFFFFFFFFFFFFFFFFFF00FFFCFFFFFFFFFFFFFFFFFFFFFFFFFFFFFFFF00FFFFFFFFFFFFFFFFFFFFFFFF00FFFCFFFFFF
310
FFFFFFFFFFFFFFFFFFFFFFFFFF00FFFFFFFFFFFFFFFFFFFFFFFF00FCFCFFFFFFFFFFFFFFFFFFFFFFFFFFFFFFFF00FFFFFFFFFFFFFFFFFFFFFFFF00FFFCFFFFFFFFFFFFFFFFFFFFFFFFFFFFFFFF00FFFFFFFFFFFFFFFFFFFFFFFF00FFFCFFFFFFFFFFFFFFFFFFFFFFFFFFFFFFFF00FFFFFFFFFFFFFFFFFFFFFFFF00FFFCFFFF
310
FFFFFFFFFFFFFFFFFFFFFFFFFFFF00FFFFFFFFFFFFFFFFFFFFFFFF00FFFCFFFFFFFFFFFFFFFFFFFFFFFFFFFFFFFF00FFFFFFFFFFFFFFFFFFFFFFFF00FFFCFFFFFFFFFFFFFFFFFFFFFFFFFFFFFFFF00FFFFFFFFFFFFFFFFFFFFFFFF00FFFCFFFFFFFFFFFFFFFFFFFFFFFFFFFFFFFF00FFFFFFFFFFFFFFFFFFFFFFFF00FFFCFF
310
FFFFFFFFFFFFFFFFFFFFFFFFFFFFFF00FFFFFFFFFFFFFFFFFFFFFFFF00FFFCFFFFFFFFFFFFFFFFFFFFFFFFFFFFFFFF00FFFFFFFFFFFFFFFFFFFFFFFF00FFFCFFFFFFFFFFFFFFFFFFFFFFFFFFFFFFFF00FFFFFFFFFFFFFFFFFFFFFFFF00FFFCFFFFFFFFFFFFFFFFFFFFFFFFFFFFFFFF00FFFFFFFFFFFFFFFFFFFFFFFF00FFFC
310
FFFFFFFFFFFFFFFFFFFFFFFFFFFFFFFF00FFFFFFFFFFFFFFFFFFFFFFFF00FFFCFFFFFFFFFFFFFFFFFFFFFFFFFFFFFFFF00FFFFFFFFFFFFFFFFFFFFFFFF00FFFCFFFFFFFFFFFFFFFFFFFFFFFFFFFFFFFF00FFFFFFFFFFFFFFFFFFFFFFFF00FFFCFCFCFCFCFCFCFCFCFCFCFCFCFCFCFCFC00FFFFFFFFFFFFFFFFFFFFFFFF0000
310
000000000000000000000000000000000000FFFFFFFFFFFFFFFFFFFFFFFFFFFFFFFFFFFFFFFFFFFFFFFFFFFFFFFFFFFFFFFFFFFFFFFFFFFF
 70
     4
280
     1
281
     0
  0
BLOCK_RECORD
  5
1CF5
330
1
100
AcDbSymbolTableRecord
100
AcDbBlockTableRecord
  2
*D3
340
0
 70
     0
280
     1
281
     0
  0
BLOCK_RECORD
  5
1D03
330
1
100
AcDbSymbolTableRecord
100
AcDbBlockTableRecord
  2
*D4
340
0
 70
     0
280
     1
281
     0
  0
BLOCK_RECORD
  5
1D29
330
1
100
AcDbSymbolTableRecord
100
AcDbBlockTableRecord
  2
*D7
340
0
 70
     0
280
     1
281
     0
  0
BLOCK_RECORD
  5
1D5F
330
1
100
AcDbSymbolTableRecord
100
AcDbBlockTableRecord
  2
*D11
340
0
 70
     0
280
     1
281
     0
  0
BLOCK_RECORD
  5
1DF4
330
1
100
AcDbSymbolTableRecord
100
AcDbBlockTableRecord
  2
*D20
340
0
 70
     0
280
     1
281
     0
  0
BLOCK_RECORD
  5
1E00
330
1
100
AcDbSymbolTableRecord
100
AcDbBlockTableRecord
  2
*D21
340
0
 70
     0
280
     1
281
     0
  0
BLOCK_RECORD
  5
1E15
330
1
100
AcDbSymbolTableRecord
100
AcDbBlockTableRecord
  2
*D22
340
0
 70
     0
280
     1
281
     0
  0
BLOCK_RECORD
  5
1E21
330
1
100
AcDbSymbolTableRecord
100
AcDbBlockTableRecord
  2
*D23
340
0
 70
     0
280
     1
281
     0
  0
BLOCK_RECORD
  5
1ECB
330
1
100
AcDbSymbolTableRecord
100
AcDbBlockTableRecord
  2
*D36
340
0
 70
     0
280
     1
281
     0
  0
BLOCK_RECORD
  5
1ED7
330
1
100
AcDbSymbolTableRecord
100
AcDbBlockTableRecord
  2
*D37
340
0
 70
     0
280
     1
281
     0
  0
BLOCK_RECORD
  5
1EE3
330
1
100
AcDbSymbolTableRecord
100
AcDbBlockTableRecord
  2
*D38
340
0
 70
     0
280
     1
281
     0
  0
BLOCK_RECORD
  5
1EEF
330
1
100
AcDbSymbolTableRecord
100
AcDbBlockTableRecord
  2
*D39
340
0
 70
     0
280
     1
281
     0
  0
BLOCK_RECORD
  5
1EFB
330
1
100
AcDbSymbolTableRecord
100
AcDbBlockTableRecord
  2
*D40
340
0
 70
     0
280
     1
281
     0
  0
BLOCK_RECORD
  5
1F09
330
1
100
AcDbSymbolTableRecord
100
AcDbBlockTableRecord
  2
*D41
340
0
 70
     0
280
     1
281
     0
  0
BLOCK_RECORD
  5
1F22
330
1
100
AcDbSymbolTableRecord
100
AcDbBlockTableRecord
  2
*D42
340
0
 70
     0
280
     1
281
     0
  0
BLOCK_RECORD
  5
1F30
330
1
100
AcDbSymbolTableRecord
100
AcDbBlockTableRecord
  2
*D43
340
0
 70
     0
280
     1
281
     0
  0
BLOCK_RECORD
  5
1FF7
330
1
100
AcDbSymbolTableRecord
100
AcDbBlockTableRecord
  2
*D56
340
0
 70
     0
280
     1
281
     0
  0
BLOCK_RECORD
  5
207B
330
1
100
AcDbSymbolTableRecord
100
AcDbBlockTableRecord
  2
*D65
340
0
 70
     0
280
     1
281
     0
  0
BLOCK_RECORD
  5
2088
330
1
100
AcDbSymbolTableRecord
100
AcDbBlockTableRecord
  2
*D66
340
0
 70
     0
280
     1
281
     0
  0
BLOCK_RECORD
  5
2096
330
1
100
AcDbSymbolTableRecord
100
AcDbBlockTableRecord
  2
*D67
340
0
 70
     0
280
     1
281
     0
  0
BLOCK_RECORD
  5
20A4
330
1
100
AcDbSymbolTableRecord
100
AcDbBlockTableRecord
  2
*D68
340
0
 70
     0
280
     1
281
     0
  0
BLOCK_RECORD
  5
20D6
330
1
100
AcDbSymbolTableRecord
100
AcDbBlockTableRecord
  2
*D71
340
0
 70
     0
280
     1
281
     0
  0
BLOCK_RECORD
  5
20DE
330
1
100
AcDbSymbolTableRecord
100
AcDbBlockTableRecord
  2
*D72
340
0
 70
     0
280
     1
281
     0
  0
BLOCK_RECORD
  5
20E6
330
1
100
AcDbSymbolTableRecord
100
AcDbBlockTableRecord
  2
*D73
340
0
 70
     0
280
     1
281
     0
  0
BLOCK_RECORD
  5
20EE
330
1
100
AcDbSymbolTableRecord
100
AcDbBlockTableRecord
  2
*D74
340
0
 70
     0
280
     1
281
     0
  0
ENDTAB
  0
ENDSEC
  0
SECTION
  2
BLOCKS
  0
BLOCK
  5
20
330
1F
100
AcDbEntity
  8
0
100
AcDbBlockBegin
  2
*Model_Space
 70
     0
 10
0.0
 20
0.0
 30
0.0
  3
*Model_Space
  1

  0
ENDBLK
  5
21
330
1F
100
AcDbEntity
  8
0
100
AcDbBlockEnd
  0
BLOCK
  5
76
330
72
100
AcDbEntity
 67
     1
  8
0
100
AcDbBlockBegin
  2
*Paper_Space
 70
     0
 10
0.0
 20
0.0
 30
0.0
  3
*Paper_Space
  1

  0
ENDBLK
  5
77
330
72
100
AcDbEntity
 67
     1
  8
0
100
AcDbBlockEnd
  0
BLOCK
  5
184
330
145
100
AcDbEntity
  8
0
100
AcDbBlockBegin
  2
GB_A4 title block
 70
     2
 10
0.0
 20
0.0
 30
0.0
  3
GB_A4 title block
  1

  0
LWPOLYLINE
  5
1EE
330
145
100
AcDbEntity
  8
图框_角线
100
AcDbPolyline
 90
        3
 70
   128
 43
0.0
 10
175.0
 20
291.0
 10
184.0
 20
291.0
 10
184.0
 20
282.0
  0
LWPOLYLINE
  5
1EF
330
145
100
AcDbEntity
  8
图框_内框线
100
AcDbPolyline
 90
        2
 70
     0
 43
0.0
 10
185.0
 20
143.5
 10
175.0
 20
143.5
  0
LWPOLYLINE
  5
1F0
330
145
100
AcDbEntity
  8
图框_角线
100
AcDbPolyline
 90
        3
 70
   128
 43
0.0
 10
184.0
 20
5.0
 10
184.0
 20
-4.0
 10
175.0
 20
-4.0
  0
LWPOLYLINE
  5
1F1
330
145
100
AcDbEntity
  8
图框_内框线
100
AcDbPolyline
 90
        2
 70
     0
 43
0.0
 10
80.0
 20
292.0
 10
80.0
 20
282.0
  0
LWPOLYLINE
  5
1F2
330
145
100
AcDbEntity
  8
图框_角线
100
AcDbPolyline
 90
        3
 70
   128
 43
0.0
 10
-24.0
 20
282.0
 10
-24.0
 20
291.0
 10
-15.0
 20
291.0
  0
LWPOLYLINE
  5
1F3
330
145
100
AcDbEntity
  8
图框_内框线
100
AcDbPolyline
 90
        2
 70
     0
 43
0.0
 10
80.0
 20
-5.0
 10
80.0
 20
0.0
  0
LWPOLYLINE
  5
1F4
330
145
100
AcDbEntity
  8
图框_内框线
100
AcDbPolyline
 90
        2
 70
     0
 43
0.0
 10
-25.0
 20
143.5
 10
5.0
 20
143.5
  0
LWPOLYLINE
  5
1F5
330
145
100
AcDbEntity
  8
图框_角线
100
AcDbPolyline
 90
        3
 70
   128
 43
0.0
 10
-15.0
 20
-4.0
 10
-24.0
 20
-4.0
 10
-24.0
 20
5.0
  0
LWPOLYLINE
  5
1F6
330
145
100
AcDbEntity
  8
图框_内框线
100
AcDbPolyline
 90
        4
 70
     1
 43
0.0
 10
0.0
 20
0.0
 10
180.0
 20
0.0
 10
180.0
 20
287.0
 10
0.0
 20
287.0
  0
LWPOLYLINE
  5
1F7
330
145
100
AcDbEntity
  8
图框_外框线
100
AcDbPolyline
 90
        4
 70
     1
 43
0.0
 10
-25.0
 20
-5.0
 10
185.0
 20
-5.0
 10
185.0
 20
292.0
 10
-25.0
 20
292.0
  0
LINE
  5
1F8
330
145
100
AcDbEntity
  8
图框_外框线
100
AcDbLine
 10
130.0
 20
38.0
 30
0.0
 11
180.0
 21
38.0
 31
0.0
  0
LINE
  5
1F9
330
145
100
AcDbEntity
  8
图框_外框线
100
AcDbLine
 10
180.0
 20
18.0
 30
0.0
 11
80.0
 21
18.0
 31
0.0
  0
LWPOLYLINE
  5
1FA
330
145
100
AcDbEntity
  8
图框_外框线
100
AcDbPolyline
 90
        5
 70
     0
 43
0.0
 10
180.0
 20
56.0
 10
0.0
 20
56.0
 10
0.0
 20
0.0
 10
180.0000000000002
 20
0.0
 10
180.0
 20
56.0
  0
LINE
  5
1FB
330
145
100
AcDbEntity
  8
图框_外框线
100
AcDbLine
 10
130.0
 20
56.0
 30
0.0
 11
130.0
 21
0.0
 31
0.0
  0
LINE
  5
1FC
330
145
100
AcDbEntity
  8
图框_外框线
100
AcDbLine
 10
80.0
 20
56.0
 30
0.0
 11
80.0
 21
0.0
 31
0.0
  0
LINE
  5
1FD
330
145
100
AcDbEntity
  8
图框_外框线
100
AcDbLine
 10
40.0
 20
0.0
 30
0.0
 11
40.0
 21
28.0
 31
0.0
  0
LINE
  5
1FE
330
145
100
AcDbEntity
  8
图框_外框线
100
AcDbLine
 10
24.0
 20
28.0
 30
0.0
 11
24.0
 21
0.0
 31
0.0
  0
LINE
  5
1FF
330
145
100
AcDbEntity
  8
图框_外框线
100
AcDbLine
 10
12.0
 20
0.0
 30
0.0
 11
12.0
 21
28.0
 31
0.0
  0
LINE
  5
200
330
145
100
AcDbEntity
  8
图框_外框线
100
AcDbLine
 10
106.0
 20
28.0
 30
0.0
 11
106.0
 21
9.0
 31
0.0
  0
LINE
  5
201
330
145
100
AcDbEntity
  8
图框_外框线
100
AcDbLine
 10
118.0
 20
28.0
 30
0.0
 11
118.0
 21
9.0
 31
0.0
  0
LINE
  5
202
330
145
100
AcDbEntity
  8
图框_外框线
100
AcDbLine
 10
64.0
 20
0.0
 30
0.0
 11
64.0
 21
28.0
 31
0.0
  0
LINE
  5
203
330
145
100
AcDbEntity
  8
图框_外框线
100
AcDbLine
 10
52.0
 20
28.0
 30
0.0
 11
52.0
 21
0.0
 31
0.0
  0
LINE
  5
204
330
145
100
AcDbEntity
  8
图框_外框线
100
AcDbLine
 10
93.0
 20
18.0
 30
0.0
 11
93.0
 21
9.0
 31
0.0
  0
LINE
  5
205
330
145
100
AcDbEntity
  8
图框_外框线
100
AcDbLine
 10
86.5
 20
18.0
 30
0.0
 11
86.5
 21
9.0
 31
0.0
  0
LINE
  5
206
330
145
100
AcDbEntity
  8
图框_外框线
100
AcDbLine
 10
99.50000000000001
 20
18.0
 30
0.0
 11
99.50000000000001
 21
9.0
 31
0.0
  0
LINE
  5
207
330
145
100
AcDbEntity
  8
图框_外框线
100
AcDbLine
 10
0.0
 20
14.0
 30
0.0
 11
80.0
 21
14.0
 31
0.0
  0
LINE
  5
208
330
145
100
AcDbEntity
  8
图框_外框线
100
AcDbLine
 10
0.0
 20
7.0
 30
0.0
 11
80.0
 21
7.0
 31
0.0
  0
TEXT
  5
209
330
145
100
AcDbEntity
  8
图框_标题栏文字
100
AcDbText
 10
1.045077494601855
 20
1.148395388825292
 30
0.0
 40
5.0
  1
工艺
  7
工程字
100
AcDbText
1001
AcadStringInfo
1000
MIFCodePage
1070
     5
  0
TEXT
  5
20A
330
145
100
AcDbEntity
  8
图框_标题栏文字
100
AcDbText
 10
1.045077494601855
 20
8.148395388825292
 30
0.0
 40
5.0
  1
审核
  7
工程字
100
AcDbText
1001
AcadStringInfo
1000
MIFCodePage
1070
     5
  0
TEXT
  5
20B
330
145
100
AcDbEntity
  8
图框_标题栏文字
100
AcDbText
 10
41.47003071851645
 20
1.148396199330477
 30
0.0
 40
5.0
  1
批准
  7
工程字
100
AcDbText
1001
AcadStringInfo
1000
MIFCodePage
1070
     5
  0
TEXT
  5
20C
330
145
100
AcDbEntity
  8
图框_标题栏文字
100
AcDbText
 10
84.4007282514949
 20
2.0
 30
0.0
 40
5.0
  1
共   张 第  张
  7
工程字
100
AcDbText
1001
AcadStringInfo
1000
MIFCodePage
1070
     5
  0
LINE
  5
20D
330
145
100
AcDbEntity
  8
图框_外框线
100
AcDbLine
 10
130.0
 20
9.0
 30
0.0
 11
80.0
 21
9.0
 31
0.0
  0
LINE
  5
20E
330
145
100
AcDbEntity
  8
图框_外框线
100
AcDbLine
 10
0.0
 20
49.0
 30
0.0
 11
80.0
 21
49.0
 31
0.0
  0
TEXT
  5
20F
330
145
100
AcDbEntity
  8
图框_标题栏文字
100
AcDbText
 10
54.0
 20
29.0
 30
0.0
 40
5.0
  1
签名
  7
工程字
100
AcDbText
1001
AcadStringInfo
1000
MIFCodePage
1070
     5
  0
LINE
  5
210
330
145
100
AcDbEntity
  8
图框_外框线
100
AcDbLine
 10
0.0
 20
42.0
 30
0.0
 11
80.0
 21
42.0
 31
0.0
  0
LINE
  5
211
330
145
100
AcDbEntity
  8
图框_外框线
100
AcDbLine
 10
0.0
 20
35.0
 30
0.0
 11
80.0
 21
35.0
 31
0.0
  0
LINE
  5
212
330
145
100
AcDbEntity
  8
图框_外框线
100
AcDbLine
 10
0.0
 20
21.0
 30
0.0
 11
80.0
 21
21.0
 31
0.0
  0
LINE
  5
213
330
145
100
AcDbEntity
  8
图框_外框线
100
AcDbLine
 10
0.0
 20
28.0
 30
0.0
 11
130.0
 21
28.0
 31
0.0
  0
LINE
  5
214
330
145
100
AcDbEntity
  8
图框_外框线
100
AcDbLine
 10
10.0
 20
56.0
 30
0.0
 11
10.0
 21
28.0
 31
0.0
  0
TEXT
  5
215
330
145
100
AcDbEntity
  8
图框_标题栏文字
100
AcDbText
 10
1.0
 20
29.43872591737909
 30
0.0
 40
5.0
  1
标记
  7
工程字
100
AcDbText
1001
AcadStringInfo
1000
MIFCodePage
1070
     5
  0
TEXT
  5
216
330
145
100
AcDbEntity
  8
图框_标题栏文字
100
AcDbText
 10
1.334625653507146
 20
22.34847714549829
 30
0.0
 40
5.0
  1
设计
  7
工程字
100
AcDbText
1001
AcadStringInfo
1000
MIFCodePage
1070
     5
  0
LINE
  5
217
330
145
100
AcDbEntity
  8
图框_外框线
100
AcDbLine
 10
52.0
 20
28.0
 30
0.0
 11
52.0
 21
56.0
 31
0.0
  0
LINE
  5
218
330
145
100
AcDbEntity
  8
图框_外框线
100
AcDbLine
 10
30.0
 20
56.0
 30
0.0
 11
30.0
 21
28.0
 31
0.0
  0
LINE
  5
219
330
145
100
AcDbEntity
  8
图框_外框线
100
AcDbLine
 10
20.0
 20
28.0
 30
0.0
 11
20.0
 21
56.0
 31
0.0
  0
TEXT
  5
21A
330
145
100
AcDbEntity
  8
图框_标题栏文字
100
AcDbText
 10
31.0
 20
29.58713295238179
 30
0.0
 40
5.0
  1
更改文件号
  7
工程字
100
AcDbText
1001
AcadStringInfo
1000
MIFCodePage
1070
     5
  0
TEXT
  5
21B
330
145
100
AcDbEntity
  8
图框_标题栏文字
100
AcDbText
 10
11.0
 20
29.43872591737909
 30
0.0
 40
5.0
  1
处数
  7
工程字
100
AcDbText
1001
AcadStringInfo
1000
MIFCodePage
1070
     5
  0
TEXT
  5
21C
330
145
100
AcDbEntity
  8
图框_标题栏文字
100
AcDbText
 10
21.0
 20
29.43872591737909
 30
0.0
 40
5.0
  1
分区
  7
工程字
100
AcDbText
1001
AcadStringInfo
1000
MIFCodePage
1070
     5
  0
TEXT
  5
21D
330
145
100
AcDbEntity
  8
图框_标题栏文字
100
AcDbText
 10
40.43901960824041
 20
22.0
 30
0.0
 40
5.0
  1
标准化
  7
工程字
100
AcDbText
1001
AcadStringInfo
1000
MIFCodePage
1070
     5
  0
LINE
  5
21E
330
145
100
AcDbEntity
  8
图框_外框线
100
AcDbLine
 10
64.0
 20
56.0
 30
0.0
 11
64.0
 21
28.0
 31
0.0
  0
TEXT
  5
21F
330
145
100
AcDbEntity
  8
图框_标题栏文字
100
AcDbText
 10
66.0
 20
29.0
 30
0.0
 40
5.0
  1
年月日
  7
工程字
100
AcDbText
1001
AcadStringInfo
1000
MIFCodePage
1070
     5
  0
TEXT
  5
220
330
145
100
AcDbEntity
  8
图框_标题栏文字
100
AcDbText
 10
85.89077928789151
 20
20.2
 30
0.0
 40
5.0
  1
阶段标记
  7
工程字
100
AcDbText
1001
AcadStringInfo
1000
MIFCodePage
1070
     5
  0
TEXT
  5
221
330
145
100
AcDbEntity
  8
图框_标题栏文字
100
AcDbText
 10
107.8907792878915
 20
20.0
 30
0.0
 40
5.0
  1
重量
  7
工程字
100
AcDbText
1001
AcadStringInfo
1000
MIFCodePage
1070
     5
  0
TEXT
  5
222
330
145
100
AcDbEntity
  8
图框_标题栏文字
100
AcDbText
 10
120.0
 20
20.0
 30
0.0
 40
5.0
  1
比例
  7
工程字
100
AcDbText
1001
AcadStringInfo
1000
MIFCodePage
1070
     5
  0
ATTDEF
  5
223
330
145
100
AcDbEntity
  8
图框_标题栏属性
100
AcDbText
 10
93.94224277899834
 20
37.29897765641386
 30
0.0
 40
7.0
  1
xxx1
  7
工程字
 72
     4
 11
103.0422427789983
 21
40.79897765641385
 31
0.0
100
AcDbAttributeDefinition
280
     0
  3
名称1
  2
XXX1
 70
     0
280
     0
1001
AcadStringInfo
1000
MIFCodePage
1070
     5
  0
ATTDEF
  5
224
330
145
100
AcDbEntity
  8
图框_标题栏属性
100
AcDbText
 10
143.422325769551
 20
43.25611160273171
 30
0.0
 40
7.0
  1
xxx2
  7
工程字
 72
     4
 11
153.4325324624644
 21
46.93180057910967
 31
0.0
100
AcDbAttributeDefinition
280
     0
  3
名称2
  2
XXX2
 70
     0
280
     0
1001
AcadStringInfo
1000
MIFCodePage
1070
     5
  0
ATTDEF
  5
225
330
145
100
AcDbEntity
  8
图框_标题栏属性
100
AcDbText
 10
144.802086825971
 20
25.17830687839783
 30
0.0
 40
7.0
  1
xxx3
  7
工程字
 72
     4
 11
154.7470615728016
 21
28.53333213156725
 31
0.0
100
AcDbAttributeDefinition
280
     0
  3
名称3
  2
XXX3
 70
     0
280
     0
1001
AcadStringInfo
1000
MIFCodePage
1070
     5
  0
ATTDEF
  5
226
330
145
100
AcDbEntity
  8
图框_标题栏属性
100
AcDbText
 10
144.5970615728016
 20
5.320687680483274
 30
0.0
 40
7.0
  1
xxx4
  7
工程字
 72
     4
 11
154.7470615728016
 21
8.820687680483274
 31
0.0
100
AcDbAttributeDefinition
280
     0
  3
名称4
  2
XXX4
 70
     0
280
     0
1001
AcadStringInfo
1000
MIFCodePage
1070
     5
  0
ATTDEF
  5
227
330
145
100
AcDbEntity
  8
图框_标题栏属性
100
AcDbText
 10
107.0058429934309
 20
11.83382664077868
 30
0.0
 40
3.5
  1
xxx5
  7
工程字
 72
     1
 11
111.9783303668462
 21
13.58382664077868
 31
0.0
100
AcDbAttributeDefinition
280
     0
  3
重量
  2
XXX5
 70
     0
 74
     2
280
     0
1001
AcadStringInfo
1000
MIFCodePage
1070
     5
  0
ATTDEF
  5
228
330
145
100
AcDbEntity
  8
图框_标题栏属性
100
AcDbText
 10
118.6137133771492
 20
11.99284807675928
 30
0.0
 40
3.5
  1
xxx6
  7
工程字
 72
     1
 11
123.6005244007713
 21
13.74284807675928
 31
0.0
100
AcDbAttributeDefinition
280
     0
  3
比例
  2
XXX6
 70
     0
 74
     2
280
     0
1001
AcadStringInfo
1000
MIFCodePage
1070
     5
  0
ATTDEF
  5
229
330
145
100
AcDbEntity
  8
图框_标题栏属性
100
AcDbText
 10
87.14701881317841
 20
1.542546479159106
 30
0.0
 40
5.0
  1
xxx7
  7
工程字
 72
     1
 11
94.14701881317842
 21
4.042546479159106
 31
0.0
100
AcDbAttributeDefinition
280
     0
  3
共几张
  2
XXX7
 70
     0
 74
     2
280
     0
1001
AcadStringInfo
1000
MIFCodePage
1070
     5
  0
ATTDEF
  5
22A
330
145
100
AcDbEntity
  8
图框_标题栏属性
100
AcDbText
 10
110.5506151715112
 20
1.542546479159106
 30
0.0
 40
5.0
  1
xxx8
  7
工程字
 72
     1
 11
117.5506151715112
 21
4.042546479159106
 31
0.0
100
AcDbAttributeDefinition
280
     0
  3
第几张
  2
XXX8
 70
     0
 74
     2
280
     0
1001
AcadStringInfo
1000
MIFCodePage
1070
     5
  0
ENDBLK
  5
185
330
145
100
AcDbEntity
  8
0
100
AcDbBlockEnd
  0
BLOCK
  5
1D01
330
1CF5
100
AcDbEntity
  8
0
100
AcDbBlockBegin
  2
*D3
 70
     1
 10
0.0
 20
0.0
 30
0.0
  3
*D3
  1

  0
LINE
  5
479D
330
1CF5
100
AcDbEntity
  8
0
 62
     0
440
 16777216
370
    -2
100
AcDbLine
 10
12977.29739760426
 20
606.4042814685126
 30
0.0
 11
13024.0578843238
 21
606.4042814685126
 31
0.0
  0
LINE
  5
479E
330
1CF5
100
AcDbEntity
  8
0
 62
     0
440
 16777216
370
    -2
100
AcDbLine
 10
12974.29739760426
 20
611.4042814685126
 30
0.0
 11
13024.0578843238
 21
611.4042814685126
 31
0.0
  0
LINE
  5
479F
330
1CF5
100
AcDbEntity
  8
0
 62
     0
440
 16777216
370
    -2
100
AcDbLine
 10
13022.0578843238
 20
631.4042814685126
 30
0.0
 11
13022.0578843238
 21
651.4042814685126
 31
0.0
  0
LINE
  5
47A0
330
1CF5
100
AcDbEntity
  8
0
 62
     0
440
 16777216
370
    -2
100
AcDbLine
 10
13022.0578843238
 20
586.4042814685126
 30
0.0
 11
13022.0578843238
 21
537.4042814685106
 31
0.0
  0
LINE
  5
47A1
330
1CF5
100
AcDbEntity
  8
0
 62
     0
440
 16777216
370
    -2
100
AcDbLine
 10
13022.0578843238
 20
611.4042814685126
 30
0.0
 11
13022.0578843238
 21
606.4042814685126
 31
0.0
  0
SOLID
  5
47A2
330
1CF5
100
AcDbEntity
  8
0
 62
     0
440
 16777216
100
AcDbTrace
 10
13018.72455099047
 20
631.4042814685126
 30
0.0
 11
13025.39121765714
 21
631.4042814685126
 31
0.0
 12
13022.0578843238
 22
611.4042814685126
 32
0.0
 13
13022.0578843238
 23
611.4042814685126
 33
0.0
  0
SOLID
  5
47A3
330
1CF5
100
AcDbEntity
  8
0
 62
     0
440
 16777216
100
AcDbTrace
 10
13018.72455099047
 20
586.4042814685126
 30
0.0
 11
13025.39121765714
 21
586.4042814685126
 31
0.0
 12
13022.0578843238
 22
606.4042814685126
 32
0.0
 13
13022.0578843238
 23
606.4042814685126
 33
0.0
  0
MTEXT
  5
47A4
330
1CF5
100
AcDbEntity
  8
0
 62
     0
440
 16777216
100
AcDbMText
 10
13012.5578843238
 20
544.4042814685126
 30
0.0
 40
15.0
 41
0.0
 46
0.0
 71
     5
 72
     1
  1
\A1;5
 11
0.0000000000000001
 21
1.0
 31
0.0
 73
     1
 44
1.0
  0
POINT
  5
47A5
330
1CF5
100
AcDbEntity
  8
Defpoints
 62
     0
440
 16777216
100
AcDbPoint
 10
12975.29739760426
 20
606.4042814685126
 30
0.0
  0
POINT
  5
47A6
330
1CF5
100
AcDbEntity
  8
Defpoints
 62
     0
440
 16777216
100
AcDbPoint
 10
12972.29739760426
 20
611.4042814685126
 30
0.0
  0
POINT
  5
47A7
330
1CF5
100
AcDbEntity
  8
Defpoints
 62
     0
440
 16777216
100
AcDbPoint
 10
13022.0578843238
 20
611.4042814685126
 30
0.0
  0
ENDBLK
  5
1D02
330
1CF5
100
AcDbEntity
  8
0
100
AcDbBlockEnd
  0
BLOCK
  5
1D0D
330
1D03
100
AcDbEntity
  8
0
100
AcDbBlockBegin
  2
*D4
 70
     1
 10
0.0
 20
0.0
 30
0.0
  3
*D4
  1

  0
LINE
  5
47BA
330
1D03
100
AcDbEntity
  8
0
 62
     0
440
 16777216
370
    -2
100
AcDbLine
 10
12926.29739760426
 20
1269.847699705835
 30
0.0
 11
13024.4203601987
 21
1269.847699705835
 31
0.0
  0
LINE
  5
47BB
330
1D03
100
AcDbEntity
  8
0
 62
     0
440
 16777216
370
    -2
100
AcDbLine
 10
12926.29739760426
 20
871.8476997058351
 30
0.0
 11
13024.4203601987
 21
871.8476997058351
 31
0.0
  0
LINE
  5
47BC
330
1D03
100
AcDbEntity
  8
0
 62
     0
440
 16777216
370
    -2
100
AcDbLine
 10
13022.4203601987
 20
1249.847699705835
 30
0.0
 11
13022.4203601987
 21
891.847699705835
 31
0.0
  0
SOLID
  5
47BD
330
1D03
100
AcDbEntity
  8
0
 62
     0
440
 16777216
100
AcDbTrace
 10
13019.08702686536
 20
1249.847699705835
 30
0.0
 11
13025.75369353203
 21
1249.847699705835
 31
0.0
 12
13022.4203601987
 22
1269.847699705835
 32
0.0
 13
13022.4203601987
 23
1269.847699705835
 33
0.0
  0
SOLID
  5
47BE
330
1D03
100
AcDbEntity
  8
0
 62
     0
440
 16777216
100
AcDbTrace
 10
13019.08702686536
 20
891.847699705835
 30
0.0
 11
13025.75369353203
 21
891.847699705835
 31
0.0
 12
13022.4203601987
 22
871.8476997058351
 32
0.0
 13
13022.4203601987
 23
871.8476997058351
 33
0.0
  0
MTEXT
  5
47BF
330
1D03
100
AcDbEntity
  8
0
 62
     0
440
 16777216
100
AcDbMText
 10
13012.9203601987
 20
1058.347699705835
 30
0.0
 40
15.0
 41
0.0
 46
0.0
 71
     5
 72
     1
  1
\A1;398
 11
0.0000000000000001
 21
1.0
 31
0.0
 73
     1
 44
1.0
  0
POINT
  5
47C0
330
1D03
100
AcDbEntity
  8
Defpoints
 62
     0
440
 16777216
100
AcDbPoint
 10
12924.29739760426
 20
1269.847699705835
 30
0.0
  0
POINT
  5
47C1
330
1D03
100
AcDbEntity
  8
Defpoints
 62
     0
440
 16777216
100
AcDbPoint
 10
12924.29739760426
 20
871.8476997058351
 30
0.0
  0
POINT
  5
47C2
330
1D03
100
AcDbEntity
  8
Defpoints
 62
     0
440
 16777216
100
AcDbPoint
 10
13022.4203601987
 20
871.8476997058351
 30
0.0
  0
ENDBLK
  5
1D0E
330
1D03
100
AcDbEntity
  8
0
100
AcDbBlockEnd
  0
BLOCK
  5
1D35
330
1D29
100
AcDbEntity
  8
0
100
AcDbBlockBegin
  2
*D7
 70
     1
 10
0.0
 20
0.0
 30
0.0
  3
*D7
  1

  0
LINE
  5
480F
330
1D29
100
AcDbEntity
  8
0
 62
     0
440
 16777216
370
    -2
100
AcDbLine
 10
12977.29739760426
 20
1295.847699705835
 30
0.0
 11
13024.4203601987
 21
1295.847699705835
 31
0.0
  0
LINE
  5
4810
330
1D29
100
AcDbEntity
  8
0
 62
     0
440
 16777216
370
    -2
100
AcDbLine
 10
12928.29739760426
 20
1269.847699705835
 30
0.0
 11
13024.4203601987
 21
1269.847699705835
 31
0.0
  0
LINE
  5
4811
330
1D29
100
AcDbEntity
  8
0
 62
     0
440
 16777216
370
    -2
100
AcDbLine
 10
13022.4203601987
 20
1249.847699705835
 30
0.0
 11
13022.4203601987
 21
1229.847699705835
 31
0.0
  0
LINE
  5
4812
330
1D29
100
AcDbEntity
  8
0
 62
     0
440
 16777216
370
    -2
100
AcDbLine
 10
13022.4203601987
 20
1315.847699705835
 30
0.0
 11
13022.4203601987
 21
1379.84769970584
 31
0.0
  0
LINE
  5
4813
330
1D29
100
AcDbEntity
  8
0
 62
     0
440
 16777216
370
    -2
100
AcDbLine
 10
13022.4203601987
 20
1269.847699705835
 30
0.0
 11
13022.4203601987
 21
1295.847699705835
 31
0.0
  0
SOLID
  5
4814
330
1D29
100
AcDbEntity
  8
0
 62
     0
440
 16777216
100
AcDbTrace
 10
13019.08702686536
 20
1249.847699705835
 30
0.0
 11
13025.75369353203
 21
1249.847699705835
 31
0.0
 12
13022.4203601987
 22
1269.847699705835
 32
0.0
 13
13022.4203601987
 23
1269.847699705835
 33
0.0
  0
SOLID
  5
4815
330
1D29
100
AcDbEntity
  8
0
 62
     0
440
 16777216
100
AcDbTrace
 10
13019.08702686536
 20
1315.847699705835
 30
0.0
 11
13025.75369353203
 21
1315.847699705835
 31
0.0
 12
13022.4203601987
 22
1295.847699705835
 32
0.0
 13
13022.4203601987
 23
1295.847699705835
 33
0.0
  0
MTEXT
  5
4816
330
1D29
100
AcDbEntity
  8
0
 62
     0
440
 16777216
100
AcDbMText
 10
13012.9203601987
 20
1365.347699705842
 30
0.0
 40
15.0
 41
0.0
 46
0.0
 71
     5
 72
     1
  1
\A1;26
 11
0.0000000000000001
 21
1.0
 31
0.0
 73
     1
 44
1.0
  0
POINT
  5
4817
330
1D29
100
AcDbEntity
  8
Defpoints
 62
     0
440
 16777216
100
AcDbPoint
 10
12975.29739760426
 20
1295.847699705835
 30
0.0
  0
POINT
  5
4818
330
1D29
100
AcDbEntity
  8
Defpoints
 62
     0
440
 16777216
100
AcDbPoint
 10
12926.29739760426
 20
1269.847699705835
 30
0.0
  0
POINT
  5
4819
330
1D29
100
AcDbEntity
  8
Defpoints
 62
     0
440
 16777216
100
AcDbPoint
 10
13022.4203601987
 20
1269.847699705835
 30
0.0
  0
ENDBLK
  5
1D36
330
1D29
100
AcDbEntity
  8
0
100
AcDbBlockEnd
  0
BLOCK
  5
1D6B
330
1D5F
100
AcDbEntity
  8
0
100
AcDbBlockBegin
  2
*D11
 70
     1
 10
0.0
 20
0.0
 30
0.0
  3
*D11
  1

  0
LINE
  5
4866
330
1D5F
100
AcDbEntity
  8
0
 62
     0
440
 16777216
370
    -2
100
AcDbLine
 10
12531.95181519571
 20
584.4042814685053
 30
0.0
 11
12531.95181519571
 21
348.2002039298732
 31
0.0
  0
LINE
  5
4867
330
1D5F
100
AcDbEntity
  8
0
 62
     0
440
 16777216
370
    -2
100
AcDbLine
 10
12528.2395064886
 20
424.3937558111211
 30
0.0
 11
12528.2395064886
 21
348.2002039298732
 31
0.0
  0
LINE
  5
4868
330
1D5F
100
AcDbEntity
  8
0
 62
     0
440
 16777216
370
    -2
100
AcDbLine
 10
12551.95181519571
 20
350.2002039298732
 30
0.0
 11
12571.95181519571
 21
350.2002039298732
 31
0.0
  0
LINE
  5
4869
330
1D5F
100
AcDbEntity
  8
0
 62
     0
440
 16777216
370
    -2
100
AcDbLine
 10
12508.2395064886
 20
350.2002039298732
 30
0.0
 11
12406.6788143778
 21
350.2002039298732
 31
0.0
  0
LINE
  5
486A
330
1D5F
100
AcDbEntity
  8
0
 62
     0
440
 16777216
370
    -2
100
AcDbLine
 10
12531.95181519571
 20
350.2002039298732
 30
0.0
 11
12528.2395064886
 21
350.2002039298732
 31
0.0
  0
SOLID
  5
486B
330
1D5F
100
AcDbEntity
  8
0
 62
     0
440
 16777216
100
AcDbTrace
 10
12551.95181519571
 20
353.5335372632065
 30
0.0
 11
12551.95181519571
 21
346.8668705965399
 31
0.0
 12
12531.95181519571
 22
350.2002039298732
 32
0.0
 13
12531.95181519571
 23
350.2002039298732
 33
0.0
  0
SOLID
  5
486C
330
1D5F
100
AcDbEntity
  8
0
 62
     0
440
 16777216
100
AcDbTrace
 10
12508.2395064886
 20
353.5335372632065
 30
0.0
 11
12508.2395064886
 21
346.8668705965399
 31
0.0
 12
12528.2395064886
 22
350.2002039298732
 32
0.0
 13
12528.2395064886
 23
350.2002039298732
 33
0.0
  0
MTEXT
  5
486D
330
1D5F
100
AcDbEntity
  8
0
 62
     0
440
 16777216
100
AcDbMText
 10
12413.6788143778
 20
359.7002039298732
 30
0.0
 40
15.0
 41
0.0
 46
0.0
 71
     5
 72
     1
  1
\A1;5
 73
     1
 44
1.0
  0
POINT
  5
486E
330
1D5F
100
AcDbEntity
  8
Defpoints
 62
     0
440
 16777216
100
AcDbPoint
 10
12531.95181519571
 20
586.4042814685054
 30
0.0
  0
POINT
  5
486F
330
1D5F
100
AcDbEntity
  8
Defpoints
 62
     0
440
 16777216
100
AcDbPoint
 10
12528.2395064886
 20
426.393755811121
 30
0.0
  0
POINT
  5
4870
330
1D5F
100
AcDbEntity
  8
Defpoints
 62
     0
440
 16777216
100
AcDbPoint
 10
12528.2395064886
 20
350.2002039298732
 30
0.0
  0
ENDBLK
  5
1D6C
330
1D5F
100
AcDbEntity
  8
0
100
AcDbBlockEnd
  0
BLOCK
  5
1DFE
330
1DF4
100
AcDbEntity
  8
0
100
AcDbBlockBegin
  2
*D20
 70
     1
 10
0.0
 20
0.0
 30
0.0
  3
*D20
  1

  0
LINE
  5
47A8
330
1DF4
100
AcDbEntity
  8
0
 62
     0
440
 16777216
370
    -2
100
AcDbLine
 10
12975.29739760426
 20
843.8476997058351
 30
0.0
 11
12975.29739760426
 21
749.0817881336588
 31
0.0
  0
LINE
  5
47A9
330
1DF4
100
AcDbEntity
  8
0
 62
     0
440
 16777216
370
    -2
100
AcDbLine
 10
11767.29739760426
 20
843.8476997058351
 30
0.0
 11
11767.29739760426
 21
749.0817881336588
 31
0.0
  0
LINE
  5
47AA
330
1DF4
100
AcDbEntity
  8
0
 62
     0
440
 16777216
370
    -2
100
AcDbLine
 10
12955.29739760426
 20
751.0817881336588
 30
0.0
 11
11787.29739760426
 21
751.0817881336588
 31
0.0
  0
SOLID
  5
47AB
330
1DF4
100
AcDbEntity
  8
0
 62
     0
440
 16777216
100
AcDbTrace
 10
12955.29739760426
 20
754.4151214669922
 30
0.0
 11
12955.29739760426
 21
747.7484548003254
 31
0.0
 12
12975.29739760426
 22
751.0817881336588
 32
0.0
 13
12975.29739760426
 23
751.0817881336588
 33
0.0
  0
SOLID
  5
47AC
330
1DF4
100
AcDbEntity
  8
0
 62
     0
440
 16777216
100
AcDbTrace
 10
11787.29739760426
 20
754.4151214669922
 30
0.0
 11
11787.29739760426
 21
747.7484548003254
 31
0.0
 12
11767.29739760426
 22
751.0817881336588
 32
0.0
 13
11767.29739760426
 23
751.0817881336588
 33
0.0
  0
MTEXT
  5
47AD
330
1DF4
100
AcDbEntity
  8
0
 62
     0
440
 16777216
100
AcDbMText
 10
12552.07644563091
 20
760.5817881336588
 30
0.0
 40
15.0
 41
0.0
 46
0.0
 71
     5
 72
     1
  1
\A1;1208
 73
     1
 44
1.0
  0
POINT
  5
47AE
330
1DF4
100
AcDbEntity
  8
Defpoints
 62
     0
440
 16777216
100
AcDbPoint
 10
12975.29739760426
 20
845.8476997058351
 30
0.0
  0
POINT
  5
47AF
330
1DF4
100
AcDbEntity
  8
Defpoints
 62
     0
440
 16777216
100
AcDbPoint
 10
11767.29739760426
 20
845.8476997058351
 30
0.0
  0
POINT
  5
47B0
330
1DF4
100
AcDbEntity
  8
Defpoints
 62
     0
440
 16777216
100
AcDbPoint
 10
11767.29739760426
 20
751.0817881336588
 30
0.0
  0
ENDBLK
  5
1DFF
330
1DF4
100
AcDbEntity
  8
0
100
AcDbBlockEnd
  0
BLOCK
  5
1E0A
330
1E00
100
AcDbEntity
  8
0
100
AcDbBlockBegin
  2
*D21
 70
     1
 10
0.0
 20
0.0
 30
0.0
  3
*D21
  1

  0
LINE
  5
47B1
330
1E00
100
AcDbEntity
  8
0
 62
     0
440
 16777216
370
    -2
100
AcDbLine
 10
12977.29739760426
 20
845.8476997058351
 30
0.0
 11
13067.08952295274
 21
845.8476997058349
 31
0.0
  0
LINE
  5
47B2
330
1E00
100
AcDbEntity
  8
0
 62
     0
440
 16777216
370
    -2
100
AcDbLine
 10
12977.29739760426
 20
1295.847699705835
 30
0.0
 11
13067.08952295274
 21
1295.847699705835
 31
0.0
  0
LINE
  5
47B3
330
1E00
100
AcDbEntity
  8
0
 62
     0
440
 16777216
370
    -2
100
AcDbLine
 10
13065.08952295274
 20
865.847699705835
 30
0.0
 11
13065.08952295274
 21
1275.847699705835
 31
0.0
  0
SOLID
  5
47B4
330
1E00
100
AcDbEntity
  8
0
 62
     0
440
 16777216
100
AcDbTrace
 10
13061.75618961941
 20
865.847699705835
 30
0.0
 11
13068.42285628608
 21
865.847699705835
 31
0.0
 12
13065.08952295274
 22
845.8476997058349
 32
0.0
 13
13065.08952295274
 23
845.8476997058349
 33
0.0
  0
SOLID
  5
47B5
330
1E00
100
AcDbEntity
  8
0
 62
     0
440
 16777216
100
AcDbTrace
 10
13061.75618961941
 20
1275.847699705835
 30
0.0
 11
13068.42285628608
 21
1275.847699705835
 31
0.0
 12
13065.08952295274
 22
1295.847699705835
 32
0.0
 13
13065.08952295274
 23
1295.847699705835
 33
0.0
  0
MTEXT
  5
47B6
330
1E00
100
AcDbEntity
  8
0
 62
     0
440
 16777216
100
AcDbMText
 10
13055.58952295274
 20
1083.797366955081
 30
0.0
 40
15.0
 41
0.0
 46
0.0
 71
     5
 72
     1
  1
\A1;450
 11
0.0000000000000001
 21
1.0
 31
0.0
 73
     1
 44
1.0
  0
POINT
  5
47B7
330
1E00
100
AcDbEntity
  8
Defpoints
 62
     0
440
 16777216
100
AcDbPoint
 10
12975.29739760426
 20
845.8476997058351
 30
0.0
  0
POINT
  5
47B8
330
1E00
100
AcDbEntity
  8
Defpoints
 62
     0
440
 16777216
100
AcDbPoint
 10
12975.29739760426
 20
1295.847699705835
 30
0.0
  0
POINT
  5
47B9
330
1E00
100
AcDbEntity
  8
Defpoints
 62
     0
440
 16777216
100
AcDbPoint
 10
13065.08952295274
 20
1295.847699705835
 30
0.0
  0
ENDBLK
  5
1E0B
330
1E00
100
AcDbEntity
  8
0
100
AcDbBlockEnd
  0
BLOCK
  5
1E1F
330
1E15
100
AcDbEntity
  8
0
100
AcDbBlockBegin
  2
*D22
 70
     1
 10
0.0
 20
0.0
 30
0.0
  3
*D22
  1

  0
LINE
  5
47C3
330
1E15
100
AcDbEntity
  8
0
 62
     0
440
 16777216
370
    -2
100
AcDbLine
 10
12176.29739760426
 20
884.8476997058314
 30
0.0
 11
12176.29739760426
 21
792.5917510489562
 31
0.0
  0
LINE
  5
47C4
330
1E15
100
AcDbEntity
  8
0
 62
     0
440
 16777216
370
    -2
100
AcDbLine
 10
12534.29739760426
 20
894.8476997058351
 30
0.0
 11
12534.29739760426
 21
792.5917510489562
 31
0.0
  0
LINE
  5
47C5
330
1E15
100
AcDbEntity
  8
0
 62
     0
440
 16777216
370
    -2
100
AcDbLine
 10
12196.29739760426
 20
794.5917510489562
 30
0.0
 11
12514.29739760426
 21
794.5917510489562
 31
0.0
  0
SOLID
  5
47C6
330
1E15
100
AcDbEntity
  8
0
 62
     0
440
 16777216
100
AcDbTrace
 10
12196.29739760426
 20
797.9250843822896
 30
0.0
 11
12196.29739760426
 21
791.2584177156228
 31
0.0
 12
12176.29739760426
 22
794.5917510489562
 32
0.0
 13
12176.29739760426
 23
794.5917510489562
 33
0.0
  0
SOLID
  5
47C7
330
1E15
100
AcDbEntity
  8
0
 62
     0
440
 16777216
100
AcDbTrace
 10
12514.29739760426
 20
797.9250843822896
 30
0.0
 11
12514.29739760426
 21
791.2584177156228
 31
0.0
 12
12534.29739760426
 22
794.5917510489562
 32
0.0
 13
12534.29739760426
 23
794.5917510489562
 33
0.0
  0
MTEXT
  5
47C8
330
1E15
100
AcDbEntity
  8
0
 62
     0
440
 16777216
100
AcDbMText
 10
12420.28239453501
 20
804.0917510489562
 30
0.0
 40
15.0
 41
0.0
 46
0.0
 71
     5
 72
     1
  1
\A1;358
 73
     1
 44
1.0
  0
POINT
  5
47C9
330
1E15
100
AcDbEntity
  8
Defpoints
 62
     0
440
 16777216
100
AcDbPoint
 10
12176.29739760426
 20
886.8476997058314
 30
0.0
  0
POINT
  5
47CA
330
1E15
100
AcDbEntity
  8
Defpoints
 62
     0
440
 16777216
100
AcDbPoint
 10
12534.29739760426
 20
896.8476997058351
 30
0.0
  0
POINT
  5
47CB
330
1E15
100
AcDbEntity
  8
Defpoints
 62
     0
440
 16777216
100
AcDbPoint
 10
12534.29739760426
 20
794.5917510489562
 30
0.0
  0
ENDBLK
  5
1E20
330
1E15
100
AcDbEntity
  8
0
100
AcDbBlockEnd
  0
BLOCK
  5
1E2B
330
1E21
100
AcDbEntity
  8
0
100
AcDbBlockBegin
  2
*D23
 70
     1
 10
0.0
 20
0.0
 30
0.0
  3
*D23
  1

  0
LINE
  5
47CC
330
1E21
100
AcDbEntity
  8
0
 62
     0
440
 16777216
370
    -2
100
AcDbLine
 10
12151.29739760425
 20
884.8476997058352
 30
0.0
 11
12151.29739760425
 21
793.426082564798
 31
0.0
  0
LINE
  5
47CD
330
1E21
100
AcDbEntity
  8
0
 62
     0
440
 16777216
370
    -2
100
AcDbLine
 10
11793.29739760425
 20
884.8476997058352
 30
0.0
 11
11793.29739760425
 21
793.426082564798
 31
0.0
  0
LINE
  5
47CE
330
1E21
100
AcDbEntity
  8
0
 62
     0
440
 16777216
370
    -2
100
AcDbLine
 10
12131.29739760425
 20
795.4260825647979
 30
0.0
 11
11813.29739760425
 21
795.4260825647979
 31
0.0
  0
SOLID
  5
47CF
330
1E21
100
AcDbEntity
  8
0
 62
     0
440
 16777216
100
AcDbTrace
 10
12131.29739760425
 20
798.7594158981313
 30
0.0
 11
12131.29739760425
 21
792.0927492314646
 31
0.0
 12
12151.29739760425
 22
795.4260825647979
 32
0.0
 13
12151.29739760425
 23
795.4260825647979
 33
0.0
  0
SOLID
  5
47D0
330
1E21
100
AcDbEntity
  8
0
 62
     0
440
 16777216
100
AcDbTrace
 10
11813.29739760425
 20
798.7594158981313
 30
0.0
 11
11813.29739760425
 21
792.0927492314646
 31
0.0
 12
11793.29739760425
 22
795.4260825647979
 32
0.0
 13
11793.29739760425
 23
795.4260825647979
 33
0.0
  0
MTEXT
  5
47D1
330
1E21
100
AcDbEntity
  8
0
 62
     0
440
 16777216
100
AcDbMText
 10
11955.17416003845
 20
804.926082564798
 30
0.0
 40
15.0
 41
0.0
 46
0.0
 71
     5
 72
     1
  1
\A1;358
 73
     1
 44
1.0
  0
POINT
  5
47D2
330
1E21
100
AcDbEntity
  8
Defpoints
 62
     0
440
 16777216
100
AcDbPoint
 10
12151.29739760425
 20
886.8476997058351
 30
0.0
  0
POINT
  5
47D3
330
1E21
100
AcDbEntity
  8
Defpoints
 62
     0
440
 16777216
100
AcDbPoint
 10
11793.29739760425
 20
886.8476997058351
 30
0.0
  0
POINT
  5
47D4
330
1E21
100
AcDbEntity
  8
Defpoints
 62
     0
440
 16777216
100
AcDbPoint
 10
11793.29739760425
 20
795.4260825647979
 30
0.0
  0
ENDBLK
  5
1E2C
330
1E21
100
AcDbEntity
  8
0
100
AcDbBlockEnd
  0
BLOCK
  5
1ED5
330
1ECB
100
AcDbEntity
  8
0
100
AcDbBlockBegin
  2
*D36
 70
     1
 10
0.0
 20
0.0
 30
0.0
  3
*D36
  1

  0
LINE
  5
488A
330
1ECB
100
AcDbEntity
  8
0
 62
     0
440
 16777216
370
    -2
100
AcDbLine
 10
12093.69246076784
 20
1063.461302106468
 30
0.0
 11
12054.19246076784
 21
1063.461302106468
 31
0.0
  0
LINE
  5
488B
330
1ECB
100
AcDbEntity
  8
0
 62
     0
440
 16777216
370
    -2
100
AcDbLine
 10
12054.19246076784
 20
1063.461302106468
 30
0.0
 11
12025.52918866059
 21
1083.546541266247
 31
0.0
  0
LINE
  5
488C
330
1ECB
100
AcDbEntity
  8
0
 62
     0
440
 16777216
370
    -2
100
AcDbLine
 10
11919.06560654793
 20
1158.148858145421
 30
0.0
 11
11902.68659391521
 21
1169.626137665294
 31
0.0
  0
MTEXT
  5
488D
330
1ECB
100
AcDbEntity
  8
0
 62
     0
440
 16777216
100
AcDbMText
 10
12074.94246076784
 20
1072.961302106467
 30
0.0
 40
15.0
 41
0.0
 46
0.0
 71
     5
 72
     1
  1
\A1;\U+220590
 73
     1
 44
1.0
  0
LINE
  5
488E
330
1ECB
100
AcDbEntity
  8
0
 62
     0
440
 16777216
370
    -2
100
AcDbLine
 10
11935.44461918065
 20
1146.671578625548
 30
0.0
 11
12009.15017602787
 21
1095.023820786121
 31
0.0
  0
SOLID
  5
488F
330
1ECB
100
AcDbEntity
  8
0
 62
     0
440
 16777216
100
AcDbTrace
 10
11920.97848646791
 20
1160.878693584207
 30
0.0
 11
11917.15272662795
 21
1155.419022706635
 31
0.0
 12
11935.44461918065
 22
1146.671578625548
 32
0.0
 13
11935.44461918065
 23
1146.671578625548
 33
0.0
  0
SOLID
  5
4890
330
1ECB
100
AcDbEntity
  8
0
 62
     0
440
 16777216
100
AcDbTrace
 10
12027.44206858056
 20
1086.276376705033
 30
0.0
 11
12023.61630874061
 21
1080.816705827461
 31
0.0
 12
12009.15017602787
 22
1095.023820786121
 32
0.0
 13
12009.15017602787
 23
1095.023820786121
 33
0.0
  0
POINT
  5
4891
330
1ECB
100
AcDbEntity
  8
Defpoints
 62
     0
440
 16777216
100
AcDbPoint
 10
12009.15017602787
 20
1095.023820786121
 30
0.0
  0
POINT
  5
4892
330
1ECB
100
AcDbEntity
  8
Defpoints
 62
     0
440
 16777216
100
AcDbPoint
 10
11935.44461918065
 20
1146.671578625548
 30
0.0
  0
ENDBLK
  5
1ED6
330
1ECB
100
AcDbEntity
  8
0
100
AcDbBlockEnd
  0
BLOCK
  5
1EE1
330
1ED7
100
AcDbEntity
  8
0
100
AcDbBlockBegin
  2
*D37
 70
     1
 10
0.0
 20
0.0
 30
0.0
  3
*D37
  1

  0
LINE
  5
4893
330
1ED7
100
AcDbEntity
  8
0
 62
     0
440
 16777216
370
    -2
100
AcDbLine
 10
12467.56534966028
 20
1044.942005142191
 30
0.0
 11
12428.06534966028
 21
1044.942005142191
 31
0.0
  0
LINE
  5
4894
330
1ED7
100
AcDbEntity
  8
0
 62
     0
440
 16777216
370
    -2
100
AcDbLine
 10
12428.06534966028
 20
1044.942005142191
 30
0.0
 11
12400.27929946537
 21
1073.92618539782
 31
0.0
  0
LINE
  5
4895
330
1ED7
100
AcDbEntity
  8
0
 62
     0
440
 16777216
370
    -2
100
AcDbLine
 10
12310.31549574313
 20
1167.769214013868
 30
0.0
 11
12296.47491055509
 21
1182.206603031718
 31
0.0
  0
MTEXT
  5
4896
330
1ED7
100
AcDbEntity
  8
0
 62
     0
440
 16777216
100
AcDbMText
 10
12448.81534966028
 20
1054.44200514219
 30
0.0
 40
15.0
 41
0.0
 46
0.0
 71
     5
 72
     1
  1
\A1;\U+220590
 73
     1
 44
1.0
  0
LINE
  5
4897
330
1ED7
100
AcDbEntity
  8
0
 62
     0
440
 16777216
370
    -2
100
AcDbLine
 10
12324.15608093116
 20
1153.331824996017
 30
0.0
 11
12386.43871427734
 21
1088.363574415672
 31
0.0
  0
SOLID
  5
4898
330
1ED7
100
AcDbEntity
  8
0
 62
     0
440
 16777216
100
AcDbTrace
 10
12312.7217272461
 20
1170.075978211874
 30
0.0
 11
12307.90926424015
 21
1165.462449815861
 31
0.0
 12
12324.15608093116
 22
1153.331824996017
 32
0.0
 13
12324.15608093116
 23
1153.331824996017
 33
0.0
  0
SOLID
  5
4899
330
1ED7
100
AcDbEntity
  8
0
 62
     0
440
 16777216
100
AcDbTrace
 10
12402.68553096834
 20
1076.232949595826
 30
0.0
 11
12397.87306796239
 21
1071.619421199813
 31
0.0
 12
12386.43871427734
 22
1088.363574415672
 32
0.0
 13
12386.43871427734
 23
1088.363574415672
 33
0.0
  0
POINT
  5
489A
330
1ED7
100
AcDbEntity
  8
Defpoints
 62
     0
440
 16777216
100
AcDbPoint
 10
12386.43871427734
 20
1088.363574415672
 30
0.0
  0
POINT
  5
489B
330
1ED7
100
AcDbEntity
  8
Defpoints
 62
     0
440
 16777216
100
AcDbPoint
 10
12324.15608093116
 20
1153.331824996017
 30
0.0
  0
ENDBLK
  5
1EE2
330
1ED7
100
AcDbEntity
  8
0
100
AcDbBlockEnd
  0
BLOCK
  5
1EED
330
1EE3
100
AcDbEntity
  8
0
100
AcDbBlockBegin
  2
*D38
 70
     1
 10
0.0
 20
0.0
 30
0.0
  3
*D38
  1

  0
LINE
  5
47E7
330
1EE3
100
AcDbEntity
  8
0
 62
     0
440
 16777216
370
    -2
100
AcDbLine
 10
11918.82714378501
 20
411.4042814685126
 30
0.0
 11
11747.30736857736
 21
411.4042814685126
 31
0.0
  0
LINE
  5
47E8
330
1EE3
100
AcDbEntity
  8
0
 62
     0
440
 16777216
370
    -2
100
AcDbLine
 10
11768.29739760426
 20
611.4042814685126
 30
0.0
 11
11747.30736857736
 21
611.4042814685126
 31
0.0
  0
LINE
  5
47E9
330
1EE3
100
AcDbEntity
  8
0
 62
     0
440
 16777216
370
    -2
100
AcDbLine
 10
11749.30736857736
 20
431.4042814685127
 30
0.0
 11
11749.30736857736
 21
591.4042814685126
 31
0.0
  0
SOLID
  5
47EA
330
1EE3
100
AcDbEntity
  8
0
 62
     0
440
 16777216
100
AcDbTrace
 10
11745.97403524402
 20
431.4042814685127
 30
0.0
 11
11752.64070191069
 21
431.4042814685127
 31
0.0
 12
11749.30736857736
 22
411.4042814685126
 32
0.0
 13
11749.30736857736
 23
411.4042814685126
 33
0.0
  0
SOLID
  5
47EB
330
1EE3
100
AcDbEntity
  8
0
 62
     0
440
 16777216
100
AcDbTrace
 10
11745.97403524402
 20
591.4042814685126
 30
0.0
 11
11752.64070191069
 21
591.4042814685126
 31
0.0
 12
11749.30736857736
 22
611.4042814685126
 32
0.0
 13
11749.30736857736
 23
611.4042814685126
 33
0.0
  0
MTEXT
  5
47EC
330
1EE3
100
AcDbEntity
  8
0
 62
     0
440
 16777216
100
AcDbMText
 10
11739.80736857736
 20
518.8908461958963
 30
0.0
 40
15.0
 41
0.0
 46
0.0
 71
     5
 72
     1
  1
\A1;200
 11
0.0000000000000001
 21
1.0
 31
0.0
 73
     1
 44
1.0
  0
POINT
  5
47ED
330
1EE3
100
AcDbEntity
  8
Defpoints
 62
     0
440
 16777216
100
AcDbPoint
 10
11920.82714378502
 20
411.4042814685126
 30
0.0
  0
POINT
  5
47EE
330
1EE3
100
AcDbEntity
  8
Defpoints
 62
     0
440
 16777216
100
AcDbPoint
 10
11770.29739760426
 20
611.4042814685126
 30
0.0
  0
POINT
  5
47EF
330
1EE3
100
AcDbEntity
  8
Defpoints
 62
     0
440
 16777216
100
AcDbPoint
 10
11749.30736857736
 20
611.4042814685126
 30
0.0
  0
ENDBLK
  5
1EEE
330
1EE3
100
AcDbEntity
  8
0
100
AcDbBlockEnd
  0
BLOCK
  5
1EF9
330
1EEF
100
AcDbEntity
  8
0
100
AcDbBlockBegin
  2
*D39
 70
     1
 10
0.0
 20
0.0
 30
0.0
  3
*D39
  1

  0
LINE
  5
47F0
330
1EEF
100
AcDbEntity
  8
0
 62
     0
440
 16777216
370
    -2
100
AcDbLine
 10
12406.29739760426
 20
411.4042814685126
 30
0.0
 11
13053.74433435681
 21
411.4042814685124
 31
0.0
  0
LINE
  5
47F1
330
1EEF
100
AcDbEntity
  8
0
 62
     0
440
 16777216
370
    -2
100
AcDbLine
 10
12974.29739760426
 20
611.4042814685126
 30
0.0
 11
13053.74433435681
 21
611.4042814685126
 31
0.0
  0
LINE
  5
47F2
330
1EEF
100
AcDbEntity
  8
0
 62
     0
440
 16777216
370
    -2
100
AcDbLine
 10
13051.74433435681
 20
431.4042814685124
 30
0.0
 11
13051.74433435681
 21
591.4042814685126
 31
0.0
  0
SOLID
  5
47F3
330
1EEF
100
AcDbEntity
  8
0
 62
     0
440
 16777216
100
AcDbTrace
 10
13048.41100102348
 20
431.4042814685124
 30
0.0
 11
13055.07766769014
 21
431.4042814685124
 31
0.0
 12
13051.74433435681
 22
411.4042814685124
 32
0.0
 13
13051.74433435681
 23
411.4042814685124
 33
0.0
  0
SOLID
  5
47F4
330
1EEF
100
AcDbEntity
  8
0
 62
     0
440
 16777216
100
AcDbTrace
 10
13048.41100102348
 20
591.4042814685126
 30
0.0
 11
13055.07766769014
 21
591.4042814685126
 31
0.0
 12
13051.74433435681
 22
611.4042814685126
 32
0.0
 13
13051.74433435681
 23
611.4042814685126
 33
0.0
  0
MTEXT
  5
47F5
330
1EEF
100
AcDbEntity
  8
0
 62
     0
440
 16777216
100
AcDbMText
 10
13042.24433435681
 20
525.3841968121232
 30
0.0
 40
15.0
 41
0.0
 46
0.0
 71
     5
 72
     1
  1
\A1;200
 11
0.0000000000000001
 21
1.0
 31
0.0
 73
     1
 44
1.0
  0
POINT
  5
47F6
330
1EEF
100
AcDbEntity
  8
Defpoints
 62
     0
440
 16777216
100
AcDbPoint
 10
12404.29739760426
 20
411.4042814685126
 30
0.0
  0
POINT
  5
47F7
330
1EEF
100
AcDbEntity
  8
Defpoints
 62
     0
440
 16777216
100
AcDbPoint
 10
12972.29739760426
 20
611.4042814685126
 30
0.0
  0
POINT
  5
47F8
330
1EEF
100
AcDbEntity
  8
Defpoints
 62
     0
440
 16777216
100
AcDbPoint
 10
13051.74433435681
 20
611.4042814685126
 30
0.0
  0
ENDBLK
  5
1EFA
330
1EEF
100
AcDbEntity
  8
0
100
AcDbBlockEnd
  0
BLOCK
  5
1F07
330
1EFB
100
AcDbEntity
  8
0
100
AcDbBlockBegin
  2
*D40
 70
     1
 10
0.0
 20
0.0
 30
0.0
  3
*D40
  1

  0
LINE
  5
47F9
330
1EFB
100
AcDbEntity
  8
0
 62
     0
440
 16777216
370
    -2
100
AcDbLine
 10
12949.29739760426
 20
884.8476997058352
 30
0.0
 11
12949.29739760426
 21
815.2485403179417
 31
0.0
  0
LINE
  5
47FA
330
1EFB
100
AcDbEntity
  8
0
 62
     0
440
 16777216
370
    -2
100
AcDbLine
 10
12975.29739760426
 20
843.8476997058351
 30
0.0
 11
12975.29739760426
 21
815.2485403179417
 31
0.0
  0
LINE
  5
47FB
330
1EFB
100
AcDbEntity
  8
0
 62
     0
440
 16777216
370
    -2
100
AcDbLine
 10
12995.29739760426
 20
817.2485403179416
 30
0.0
 11
13015.29739760426
 21
817.2485403179416
 31
0.0
  0
LINE
  5
47FC
330
1EFB
100
AcDbEntity
  8
0
 62
     0
440
 16777216
370
    -2
100
AcDbLine
 10
12929.29739760426
 20
817.2485403179416
 30
0.0
 11
12865.29739760426
 21
817.2485403179416
 31
0.0
  0
LINE
  5
47FD
330
1EFB
100
AcDbEntity
  8
0
 62
     0
440
 16777216
370
    -2
100
AcDbLine
 10
12975.29739760426
 20
817.2485403179416
 30
0.0
 11
12949.29739760426
 21
817.2485403179416
 31
0.0
  0
SOLID
  5
47FE
330
1EFB
100
AcDbEntity
  8
0
 62
     0
440
 16777216
100
AcDbTrace
 10
12995.29739760426
 20
820.581873651275
 30
0.0
 11
12995.29739760426
 21
813.9152069846083
 31
0.0
 12
12975.29739760426
 22
817.2485403179416
 32
0.0
 13
12975.29739760426
 23
817.2485403179416
 33
0.0
  0
SOLID
  5
47FF
330
1EFB
100
AcDbEntity
  8
0
 62
     0
440
 16777216
100
AcDbTrace
 10
12929.29739760426
 20
820.581873651275
 30
0.0
 11
12929.29739760426
 21
813.9152069846083
 31
0.0
 12
12949.29739760426
 22
817.2485403179416
 32
0.0
 13
12949.29739760426
 23
817.2485403179416
 33
0.0
  0
MTEXT
  5
4800
330
1EFB
100
AcDbEntity
  8
0
 62
     0
440
 16777216
100
AcDbMText
 10
12879.79739760426
 20
826.7485403179417
 30
0.0
 40
15.0
 41
0.0
 46
0.0
 71
     5
 72
     1
  1
\A1;26
 73
     1
 44
1.0
  0
POINT
  5
4801
330
1EFB
100
AcDbEntity
  8
Defpoints
 62
     0
440
 16777216
100
AcDbPoint
 10
12949.29739760426
 20
886.8476997058351
 30
0.0
  0
POINT
  5
4802
330
1EFB
100
AcDbEntity
  8
Defpoints
 62
     0
440
 16777216
100
AcDbPoint
 10
12975.29739760426
 20
845.8476997058351
 30
0.0
  0
POINT
  5
4803
330
1EFB
100
AcDbEntity
  8
Defpoints
 62
     0
440
 16777216
100
AcDbPoint
 10
12975.29739760426
 20
817.2485403179416
 30
0.0
  0
ENDBLK
  5
1F08
330
1EFB
100
AcDbEntity
  8
0
100
AcDbBlockEnd
  0
BLOCK
  5
1F15
330
1F09
100
AcDbEntity
  8
0
100
AcDbBlockBegin
  2
*D41
 70
     1
 10
0.0
 20
0.0
 30
0.0
  3
*D41
  1

  0
LINE
  5
4804
330
1F09
100
AcDbEntity
  8
0
 62
     0
440
 16777216
370
    -2
100
AcDbLine
 10
12972.29739760425
 20
846.8476997058351
 30
0.0
 11
12972.29739760425
 21
786.7252291774239
 31
0.0
  0
LINE
  5
4805
330
1F09
100
AcDbEntity
  8
0
 62
     0
440
 16777216
370
    -2
100
AcDbLine
 10
12975.29739760426
 20
843.8476997058351
 30
0.0
 11
12975.29739760426
 21
786.7252291774239
 31
0.0
  0
LINE
  5
4806
330
1F09
100
AcDbEntity
  8
0
 62
     0
440
 16777216
370
    -2
100
AcDbLine
 10
12995.29739760426
 20
788.7252291774239
 30
0.0
 11
13015.29739760426
 21
788.7252291774239
 31
0.0
  0
LINE
  5
4807
330
1F09
100
AcDbEntity
  8
0
 62
     0
440
 16777216
370
    -2
100
AcDbLine
 10
12952.29739760425
 20
788.7252291774239
 30
0.0
 11
12902.29739760425
 21
788.7252291774239
 31
0.0
  0
LINE
  5
4808
330
1F09
100
AcDbEntity
  8
0
 62
     0
440
 16777216
370
    -2
100
AcDbLine
 10
12975.29739760426
 20
788.7252291774239
 30
0.0
 11
12972.29739760425
 21
788.7252291774239
 31
0.0
  0
SOLID
  5
4809
330
1F09
100
AcDbEntity
  8
0
 62
     0
440
 16777216
100
AcDbTrace
 10
12995.29739760426
 20
792.0585625107572
 30
0.0
 11
12995.29739760426
 21
785.3918958440905
 31
0.0
 12
12975.29739760426
 22
788.7252291774239
 32
0.0
 13
12975.29739760426
 23
788.7252291774239
 33
0.0
  0
SOLID
  5
480A
330
1F09
100
AcDbEntity
  8
0
 62
     0
440
 16777216
100
AcDbTrace
 10
12952.29739760425
 20
792.0585625107572
 30
0.0
 11
12952.29739760425
 21
785.3918958440905
 31
0.0
 12
12972.29739760425
 22
788.7252291774239
 32
0.0
 13
12972.29739760425
 23
788.7252291774239
 33
0.0
  0
MTEXT
  5
480B
330
1F09
100
AcDbEntity
  8
0
 62
     0
440
 16777216
100
AcDbMText
 10
12909.29739760425
 20
798.2252291774239
 30
0.0
 40
15.0
 41
0.0
 46
0.0
 71
     5
 72
     1
  1
\A1;3
 73
     1
 44
1.0
  0
POINT
  5
480C
330
1F09
100
AcDbEntity
  8
Defpoints
 62
     0
440
 16777216
100
AcDbPoint
 10
12972.29739760425
 20
848.847699705835
 30
0.0
  0
POINT
  5
480D
330
1F09
100
AcDbEntity
  8
Defpoints
 62
     0
440
 16777216
100
AcDbPoint
 10
12975.29739760426
 20
845.8476997058351
 30
0.0
  0
POINT
  5
480E
330
1F09
100
AcDbEntity
  8
Defpoints
 62
     0
440
 16777216
100
AcDbPoint
 10
12975.29739760426
 20
788.7252291774239
 30
0.0
  0
ENDBLK
  5
1F16
330
1F09
100
AcDbEntity
  8
0
100
AcDbBlockEnd
  0
BLOCK
  5
1F2E
330
1F22
100
AcDbEntity
  8
0
100
AcDbBlockBegin
  2
*D42
 70
     1
 10
0.0
 20
0.0
 30
0.0
  3
*D42
  1

  0
LINE
  5
481A
330
1F22
100
AcDbEntity
  8
0
 62
     0
440
 16777216
370
    -2
100
AcDbLine
 10
12974.29739760425
 20
1292.847699705835
 30
0.0
 11
13048.12552933471
 21
1292.847699705835
 31
0.0
  0
LINE
  5
481B
330
1F22
100
AcDbEntity
  8
0
 62
     0
440
 16777216
370
    -2
100
AcDbLine
 10
12977.29739760426
 20
1295.847699705835
 30
0.0
 11
13048.12552933471
 21
1295.847699705835
 31
0.0
  0
LINE
  5
481C
330
1F22
100
AcDbEntity
  8
0
 62
     0
440
 16777216
370
    -2
100
AcDbLine
 10
13046.12552933471
 20
1272.847699705835
 30
0.0
 11
13046.12552933471
 21
1252.847699705835
 31
0.0
  0
LINE
  5
481D
330
1F22
100
AcDbEntity
  8
0
 62
     0
440
 16777216
370
    -2
100
AcDbLine
 10
13046.12552933471
 20
1315.847699705835
 30
0.0
 11
13046.12552933471
 21
1364.84769970584
 31
0.0
  0
LINE
  5
481E
330
1F22
100
AcDbEntity
  8
0
 62
     0
440
 16777216
370
    -2
100
AcDbLine
 10
13046.12552933471
 20
1292.847699705835
 30
0.0
 11
13046.12552933471
 21
1295.847699705835
 31
0.0
  0
SOLID
  5
481F
330
1F22
100
AcDbEntity
  8
0
 62
     0
440
 16777216
100
AcDbTrace
 10
13042.79219600137
 20
1272.847699705835
 30
0.0
 11
13049.45886266804
 21
1272.847699705835
 31
0.0
 12
13046.12552933471
 22
1292.847699705835
 32
0.0
 13
13046.12552933471
 23
1292.847699705835
 33
0.0
  0
SOLID
  5
4820
330
1F22
100
AcDbEntity
  8
0
 62
     0
440
 16777216
100
AcDbTrace
 10
13042.79219600137
 20
1315.847699705835
 30
0.0
 11
13049.45886266804
 21
1315.847699705835
 31
0.0
 12
13046.12552933471
 22
1295.847699705835
 32
0.0
 13
13046.12552933471
 23
1295.847699705835
 33
0.0
  0
MTEXT
  5
4821
330
1F22
100
AcDbEntity
  8
0
 62
     0
440
 16777216
100
AcDbMText
 10
13036.62552933471
 20
1357.847699705842
 30
0.0
 40
15.0
 41
0.0
 46
0.0
 71
     5
 72
     1
  1
\A1;3
 11
0.0000000000000001
 21
1.0
 31
0.0
 73
     1
 44
1.0
  0
POINT
  5
4822
330
1F22
100
AcDbEntity
  8
Defpoints
 62
     0
440
 16777216
100
AcDbPoint
 10
12972.29739760425
 20
1292.847699705835
 30
0.0
  0
POINT
  5
4823
330
1F22
100
AcDbEntity
  8
Defpoints
 62
     0
440
 16777216
100
AcDbPoint
 10
12975.29739760426
 20
1295.847699705835
 30
0.0
  0
POINT
  5
4824
330
1F22
100
AcDbEntity
  8
Defpoints
 62
     0
440
 16777216
100
AcDbPoint
 10
13046.12552933471
 20
1295.847699705835
 30
0.0
  0
ENDBLK
  5
1F2F
330
1F22
100
AcDbEntity
  8
0
100
AcDbBlockEnd
  0
BLOCK
  5
1F3C
330
1F30
100
AcDbEntity
  8
0
100
AcDbBlockBegin
  2
*D43
 70
     1
 10
0.0
 20
0.0
 30
0.0
  3
*D43
  1

  0
LINE
  5
4825
330
1F30
100
AcDbEntity
  8
0
 62
     0
440
 16777216
370
    -2
100
AcDbLine
 10
12952.29739760426
 20
598.8950151402714
 30
0.0
 11
12991.77250959058
 21
598.8950151402714
 31
0.0
  0
LINE
  5
4826
330
1F30
100
AcDbEntity
  8
0
 62
     0
440
 16777216
370
    -2
100
AcDbLine
 10
12974.29739760426
 20
611.4042814685126
 30
0.0
 11
12991.77250959058
 21
611.4042814685126
 31
0.0
  0
LINE
  5
4827
330
1F30
100
AcDbEntity
  8
0
 62
     0
440
 16777216
370
    -2
100
AcDbLine
 10
12989.77250959058
 20
631.4042814685126
 30
0.0
 11
12989.77250959058
 21
651.4042814685126
 31
0.0
  0
LINE
  5
4828
330
1F30
100
AcDbEntity
  8
0
 62
     0
440
 16777216
370
    -2
100
AcDbLine
 10
12989.77250959058
 20
578.8950151402714
 30
0.0
 11
12989.77250959058
 21
509.8950151402729
 31
0.0
  0
LINE
  5
4829
330
1F30
100
AcDbEntity
  8
0
 62
     0
440
 16777216
370
    -2
100
AcDbLine
 10
12989.77250959058
 20
611.4042814685126
 30
0.0
 11
12989.77250959058
 21
598.8950151402714
 31
0.0
  0
SOLID
  5
482A
330
1F30
100
AcDbEntity
  8
0
 62
     0
440
 16777216
100
AcDbTrace
 10
12986.43917625725
 20
631.4042814685126
 30
0.0
 11
12993.10584292392
 21
631.4042814685126
 31
0.0
 12
12989.77250959058
 22
611.4042814685126
 32
0.0
 13
12989.77250959058
 23
611.4042814685126
 33
0.0
  0
SOLID
  5
482B
330
1F30
100
AcDbEntity
  8
0
 62
     0
440
 16777216
100
AcDbTrace
 10
12986.43917625725
 20
578.8950151402714
 30
0.0
 11
12993.10584292392
 21
578.8950151402714
 31
0.0
 12
12989.77250959058
 22
598.8950151402714
 32
0.0
 13
12989.77250959058
 23
598.8950151402714
 33
0.0
  0
MTEXT
  5
482C
330
1F30
100
AcDbEntity
  8
0
 62
     0
440
 16777216
100
AcDbMText
 10
12980.27250959058
 20
531.895015140275
 30
0.0
 40
15.0
 41
0.0
 46
0.0
 71
     5
 72
     1
  1
\A1;12.5
 11
0.0000000000000001
 21
1.0
 31
0.0
 73
     1
 44
1.0
  0
POINT
  5
482D
330
1F30
100
AcDbEntity
  8
Defpoints
 62
     0
440
 16777216
100
AcDbPoint
 10
12950.29739760426
 20
598.8950151402714
 30
0.0
  0
POINT
  5
482E
330
1F30
100
AcDbEntity
  8
Defpoints
 62
     0
440
 16777216
100
AcDbPoint
 10
12972.29739760426
 20
611.4042814685126
 30
0.0
  0
POINT
  5
482F
330
1F30
100
AcDbEntity
  8
Defpoints
 62
     0
440
 16777216
100
AcDbPoint
 10
12989.77250959058
 20
611.4042814685126
 30
0.0
  0
ENDBLK
  5
1F3D
330
1F30
100
AcDbEntity
  8
0
100
AcDbBlockEnd
  0
BLOCK
  5
2003
330
1FF7
100
AcDbEntity
  8
0
100
AcDbBlockBegin
  2
*D56
 70
     1
 10
0.0
 20
0.0
 30
0.0
  3
*D56
  1

  0
LINE
  5
4830
330
1FF7
100
AcDbEntity
  8
0
 62
     0
440
 16777216
370
    -2
100
AcDbLine
 10
12533.95181519571
 20
586.4042814685054
 30
0.0
 11
12961.05075334033
 21
586.4042814685052
 31
0.0
  0
LINE
  5
4831
330
1FF7
100
AcDbEntity
  8
0
 62
     0
440
 16777216
370
    -2
100
AcDbLine
 10
12970.29739760426
 20
611.4042814685126
 30
0.0
 11
12957.05075334033
 21
611.4042814685126
 31
0.0
  0
LINE
  5
4832
330
1FF7
100
AcDbEntity
  8
0
 62
     0
440
 16777216
370
    -2
100
AcDbLine
 10
12959.05075334033
 20
631.4042814685126
 30
0.0
 11
12959.05075334033
 21
651.4042814685126
 31
0.0
  0
LINE
  5
4833
330
1FF7
100
AcDbEntity
  8
0
 62
     0
440
 16777216
370
    -2
100
AcDbLine
 10
12959.05075334033
 20
566.4042814685052
 30
0.0
 11
12959.05075334033
 21
502.4042814685032
 31
0.0
  0
LINE
  5
4834
330
1FF7
100
AcDbEntity
  8
0
 62
     0
440
 16777216
370
    -2
100
AcDbLine
 10
12959.05075334033
 20
611.4042814685126
 30
0.0
 11
12959.05075334033
 21
586.4042814685052
 31
0.0
  0
SOLID
  5
4835
330
1FF7
100
AcDbEntity
  8
0
 62
     0
440
 16777216
100
AcDbTrace
 10
12955.717420007
 20
631.4042814685126
 30
0.0
 11
12962.38408667367
 21
631.4042814685126
 31
0.0
 12
12959.05075334033
 22
611.4042814685126
 32
0.0
 13
12959.05075334033
 23
611.4042814685126
 33
0.0
  0
SOLID
  5
4836
330
1FF7
100
AcDbEntity
  8
0
 62
     0
440
 16777216
100
AcDbTrace
 10
12955.717420007
 20
566.4042814685052
 30
0.0
 11
12962.38408667367
 21
566.4042814685052
 31
0.0
 12
12959.05075334033
 22
586.4042814685052
 32
0.0
 13
12959.05075334033
 23
586.4042814685052
 33
0.0
  0
MTEXT
  5
4837
330
1FF7
100
AcDbEntity
  8
0
 62
     0
440
 16777216
100
AcDbMText
 10
12949.55075334033
 20
516.9042814685053
 30
0.0
 40
15.0
 41
0.0
 46
0.0
 71
     5
 72
     1
  1
\A1;25
 11
0.0000000000000001
 21
1.0
 31
0.0
 73
     1
 44
1.0
  0
POINT
  5
4838
330
1FF7
100
AcDbEntity
  8
Defpoints
 62
     0
440
 16777216
100
AcDbPoint
 10
12531.95181519571
 20
586.4042814685054
 30
0.0
  0
POINT
  5
4839
330
1FF7
100
AcDbEntity
  8
Defpoints
 62
     0
440
 16777216
100
AcDbPoint
 10
12972.29739760426
 20
611.4042814685126
 30
0.0
  0
POINT
  5
483A
330
1FF7
100
AcDbEntity
  8
Defpoints
 62
     0
440
 16777216
100
AcDbPoint
 10
12959.05075334033
 20
611.4042814685126
 30
0.0
  0
ENDBLK
  5
2004
330
1FF7
100
AcDbEntity
  8
0
100
AcDbBlockEnd
  0
BLOCK
  5
2086
330
207B
100
AcDbEntity
  8
0
100
AcDbBlockBegin
  2
*D65
 70
     1
 10
0.0
 20
0.0
 30
0.0
  3
*D65
  1

  0
LINE
  5
483B
330
207B
100
AcDbEntity
  8
0
 62
     0
440
 16777216
370
    -2
100
AcDbLine
 10
12536.29739760426
 20
1095.847699705839
 30
0.0
 11
12577.7167607881
 21
1095.847699705839
 31
0.0
  0
LINE
  5
483C
330
207B
100
AcDbEntity
  8
0
 62
     0
440
 16777216
370
    -2
100
AcDbLine
 10
12536.29739760426
 20
1045.847699705839
 30
0.0
 11
12577.7167607881
 21
1045.847699705839
 31
0.0
  0
LINE
  5
483D
330
207B
100
AcDbEntity
  8
0
 62
     0
440
 16777216
370
    -2
100
AcDbLine
 10
12575.7167607881
 20
1075.847699705839
 30
0.0
 11
12575.7167607881
 21
1065.847699705839
 31
0.0
  0
LINE
  5
483E
330
207B
100
AcDbEntity
  8
0
 62
     0
440
 16777216
370
    -2
100
AcDbLine
 10
12575.7167607881
 20
1045.847699705839
 30
0.0
 11
12575.7167607881
 21
984.3476997058367
 31
0.0
  0
SOLID
  5
483F
330
207B
100
AcDbEntity
  8
0
 62
     0
440
 16777216
100
AcDbTrace
 10
12572.38342745477
 20
1075.847699705839
 30
0.0
 11
12579.05009412143
 21
1075.847699705839
 31
0.0
 12
12575.7167607881
 22
1095.847699705839
 32
0.0
 13
12575.7167607881
 23
1095.847699705839
 33
0.0
  0
SOLID
  5
4840
330
207B
100
AcDbEntity
  8
0
 62
     0
440
 16777216
100
AcDbTrace
 10
12572.38342745477
 20
1065.847699705839
 30
0.0
 11
12579.05009412143
 21
1065.847699705839
 31
0.0
 12
12575.7167607881
 22
1045.847699705839
 32
0.0
 13
12575.7167607881
 23
1045.847699705839
 33
0.0
  0
MTEXT
  5
4841
330
207B
100
AcDbEntity
  8
0
 62
     0
440
 16777216
100
AcDbMText
 10
12566.2167607881
 20
997.5976997058387
 30
0.0
 40
15.0
 41
0.0
 46
0.0
 71
     5
 72
     1
  1
\A1;50
 11
0.0000000000000001
 21
1.0
 31
0.0
 73
     1
 44
1.0
  0
POINT
  5
4842
330
207B
100
AcDbEntity
  8
Defpoints
 62
     0
440
 16777216
100
AcDbPoint
 10
12534.29739760426
 20
1095.847699705839
 30
0.0
  0
POINT
  5
4843
330
207B
100
AcDbEntity
  8
Defpoints
 62
     0
440
 16777216
100
AcDbPoint
 10
12534.29739760426
 20
1045.847699705839
 30
0.0
  0
POINT
  5
4844
330
207B
100
AcDbEntity
  8
Defpoints
 62
     0
440
 16777216
100
AcDbPoint
 10
12575.7167607881
 20
1045.847699705839
 30
0.0
  0
ENDBLK
  5
2087
330
207B
100
AcDbEntity
  8
0
100
AcDbBlockEnd
  0
BLOCK
  5
2094
330
2088
100
AcDbEntity
  8
0
100
AcDbBlockBegin
  2
*D66
 70
     1
 10
0.0
 20
0.0
 30
0.0
  3
*D66
  1

  0
LINE
  5
4845
330
2088
100
AcDbEntity
  8
0
 62
     0
440
 16777216
370
    -2
100
AcDbLine
 10
11794.16938118019
 20
426.4951342847089
 30
0.0
 11
11777.01861488698
 21
426.4951342847089
 31
0.0
  0
LINE
  5
4846
330
2088
100
AcDbEntity
  8
0
 62
     0
440
 16777216
370
    -2
100
AcDbLine
 10
11918.82714378501
 20
411.4042814685126
 30
0.0
 11
11777.01861488698
 21
411.4042814685126
 31
0.0
  0
LINE
  5
4847
330
2088
100
AcDbEntity
  8
0
 62
     0
440
 16777216
370
    -2
100
AcDbLine
 10
11779.01861488698
 20
391.4042814685127
 30
0.0
 11
11779.01861488698
 21
371.4042814685127
 31
0.0
  0
LINE
  5
4848
330
2088
100
AcDbEntity
  8
0
 62
     0
440
 16777216
370
    -2
100
AcDbLine
 10
11779.01861488698
 20
446.4951342847089
 30
0.0
 11
11779.01861488698
 21
490.4951342847106
 31
0.0
  0
LINE
  5
4849
330
2088
100
AcDbEntity
  8
0
 62
     0
440
 16777216
370
    -2
100
AcDbLine
 10
11779.01861488698
 20
411.4042814685126
 30
0.0
 11
11779.01861488698
 21
426.4951342847089
 31
0.0
  0
SOLID
  5
484A
330
2088
100
AcDbEntity
  8
0
 62
     0
440
 16777216
100
AcDbTrace
 10
11775.68528155365
 20
391.4042814685127
 30
0.0
 11
11782.35194822032
 21
391.4042814685127
 31
0.0
 12
11779.01861488698
 22
411.4042814685126
 32
0.0
 13
11779.01861488698
 23
411.4042814685126
 33
0.0
  0
SOLID
  5
484B
330
2088
100
AcDbEntity
  8
0
 62
     0
440
 16777216
100
AcDbTrace
 10
11775.68528155365
 20
446.4951342847089
 30
0.0
 11
11782.35194822032
 21
446.4951342847089
 31
0.0
 12
11779.01861488698
 22
426.4951342847089
 32
0.0
 13
11779.01861488698
 23
426.4951342847089
 33
0.0
  0
MTEXT
  5
484C
330
2088
100
AcDbEntity
  8
0
 62
     0
440
 16777216
100
AcDbMText
 10
11769.51861488698
 20
478.4951342847125
 30
0.0
 40
15.0
 41
0.0
 46
0.0
 71
     5
 72
     1
  1
\A1;15
 11
0.0000000000000001
 21
1.0
 31
0.0
 73
     1
 44
1.0
  0
POINT
  5
484D
330
2088
100
AcDbEntity
  8
Defpoints
 62
     0
440
 16777216
100
AcDbPoint
 10
11796.16938118019
 20
426.4951342847089
 30
0.0
  0
POINT
  5
484E
330
2088
100
AcDbEntity
  8
Defpoints
 62
     0
440
 16777216
100
AcDbPoint
 10
11920.82714378502
 20
411.4042814685126
 30
0.0
  0
POINT
  5
484F
330
2088
100
AcDbEntity
  8
Defpoints
 62
     0
440
 16777216
100
AcDbPoint
 10
11779.01861488698
 20
411.4042814685126
 30
0.0
  0
ENDBLK
  5
2095
330
2088
100
AcDbEntity
  8
0
100
AcDbBlockEnd
  0
BLOCK
  5
20A2
330
2096
100
AcDbEntity
  8
0
100
AcDbBlockBegin
  2
*D67
 70
     1
 10
0.0
 20
0.0
 30
0.0
  3
*D67
  1

  0
LINE
  5
4850
330
2096
100
AcDbEntity
  8
0
 62
     0
440
 16777216
370
    -2
100
AcDbLine
 10
11791.09594779363
 20
609.4042814685126
 30
0.0
 11
11791.09594779363
 21
359.0897968010431
 31
0.0
  0
LINE
  5
4851
330
2096
100
AcDbEntity
  8
0
 62
     0
440
 16777216
370
    -2
100
AcDbLine
 10
11796.16938118019
 20
424.4951342847088
 30
0.0
 11
11796.16938118019
 21
359.0897968010431
 31
0.0
  0
LINE
  5
4852
330
2096
100
AcDbEntity
  8
0
 62
     0
440
 16777216
370
    -2
100
AcDbLine
 10
11771.09594779363
 20
361.0897968010431
 30
0.0
 11
11751.09594779363
 21
361.0897968010431
 31
0.0
  0
LINE
  5
4853
330
2096
100
AcDbEntity
  8
0
 62
     0
440
 16777216
370
    -2
100
AcDbLine
 10
11816.16938118019
 20
361.0897968010431
 30
0.0
 11
11866.41938118019
 21
361.0897968010431
 31
0.0
  0
LINE
  5
4854
330
2096
100
AcDbEntity
  8
0
 62
     0
440
 16777216
370
    -2
100
AcDbLine
 10
11791.09594779363
 20
361.0897968010431
 30
0.0
 11
11796.16938118019
 21
361.0897968010431
 31
0.0
  0
SOLID
  5
4855
330
2096
100
AcDbEntity
  8
0
 62
     0
440
 16777216
100
AcDbTrace
 10
11771.09594779363
 20
364.4231301343765
 30
0.0
 11
11771.09594779363
 21
357.7564634677098
 31
0.0
 12
11791.09594779363
 22
361.0897968010431
 32
0.0
 13
11791.09594779363
 23
361.0897968010431
 33
0.0
  0
SOLID
  5
4856
330
2096
100
AcDbEntity
  8
0
 62
     0
440
 16777216
100
AcDbTrace
 10
11816.16938118019
 20
364.4231301343765
 30
0.0
 11
11816.16938118019
 21
357.7564634677098
 31
0.0
 12
11796.16938118019
 22
361.0897968010431
 32
0.0
 13
11796.16938118019
 23
361.0897968010431
 33
0.0
  0
MTEXT
  5
4857
330
2096
100
AcDbEntity
  8
0
 62
     0
440
 16777216
100
AcDbMText
 10
11859.41938118019
 20
370.5897968010431
 30
0.0
 40
15.0
 41
0.0
 46
0.0
 71
     5
 72
     1
  1
\A1;5
 73
     1
 44
1.0
  0
POINT
  5
4858
330
2096
100
AcDbEntity
  8
Defpoints
 62
     0
440
 16777216
100
AcDbPoint
 10
11791.09594779363
 20
611.4042814685126
 30
0.0
  0
POINT
  5
4859
330
2096
100
AcDbEntity
  8
Defpoints
 62
     0
440
 16777216
100
AcDbPoint
 10
11796.16938118019
 20
426.4951342847089
 30
0.0
  0
POINT
  5
485A
330
2096
100
AcDbEntity
  8
Defpoints
 62
     0
440
 16777216
100
AcDbPoint
 10
11796.16938118019
 20
361.0897968010431
 30
0.0
  0
ENDBLK
  5
20A3
330
2096
100
AcDbEntity
  8
0
100
AcDbBlockEnd
  0
BLOCK
  5
20B0
330
20A4
100
AcDbEntity
  8
0
100
AcDbBlockBegin
  2
*D68
 70
     1
 10
0.0
 20
0.0
 30
0.0
  3
*D68
  1

  0
LINE
  5
485B
330
20A4
100
AcDbEntity
  8
0
 62
     0
440
 16777216
370
    -2
100
AcDbLine
 10
12530.2395064886
 20
426.393755811121
 30
0.0
 11
12557.27776899967
 21
426.393755811121
 31
0.0
  0
LINE
  5
485C
330
20A4
100
AcDbEntity
  8
0
 62
     0
440
 16777216
370
    -2
100
AcDbLine
 10
12406.29739760426
 20
411.4042814685126
 30
0.0
 11
12557.27776899967
 21
411.4042814685126
 31
0.0
  0
LINE
  5
485D
330
20A4
100
AcDbEntity
  8
0
 62
     0
440
 16777216
370
    -2
100
AcDbLine
 10
12555.27776899967
 20
391.4042814685126
 30
0.0
 11
12555.27776899967
 21
371.4042814685126
 31
0.0
  0
LINE
  5
485E
330
20A4
100
AcDbEntity
  8
0
 62
     0
440
 16777216
370
    -2
100
AcDbLine
 10
12555.27776899967
 20
446.3937558111211
 30
0.0
 11
12555.27776899967
 21
490.3937558111263
 31
0.0
  0
LINE
  5
485F
330
20A4
100
AcDbEntity
  8
0
 62
     0
440
 16777216
370
    -2
100
AcDbLine
 10
12555.27776899967
 20
411.4042814685126
 30
0.0
 11
12555.27776899967
 21
426.393755811121
 31
0.0
  0
SOLID
  5
4860
330
20A4
100
AcDbEntity
  8
0
 62
     0
440
 16777216
100
AcDbTrace
 10
12551.94443566634
 20
391.4042814685126
 30
0.0
 11
12558.61110233301
 21
391.4042814685126
 31
0.0
 12
12555.27776899967
 22
411.4042814685126
 32
0.0
 13
12555.27776899967
 23
411.4042814685126
 33
0.0
  0
SOLID
  5
4861
330
20A4
100
AcDbEntity
  8
0
 62
     0
440
 16777216
100
AcDbTrace
 10
12551.94443566634
 20
446.3937558111211
 30
0.0
 11
12558.61110233301
 21
446.3937558111211
 31
0.0
 12
12555.27776899967
 22
426.393755811121
 32
0.0
 13
12555.27776899967
 23
426.393755811121
 33
0.0
  0
MTEXT
  5
4862
330
20A4
100
AcDbEntity
  8
0
 62
     0
440
 16777216
100
AcDbMText
 10
12545.77776899967
 20
478.3937558111283
 30
0.0
 40
15.0
 41
0.0
 46
0.0
 71
     5
 72
     1
  1
\A1;15
 11
0.0000000000000001
 21
1.0
 31
0.0
 73
     1
 44
1.0
  0
POINT
  5
4863
330
20A4
100
AcDbEntity
  8
Defpoints
 62
     0
440
 16777216
100
AcDbPoint
 10
12528.2395064886
 20
426.393755811121
 30
0.0
  0
POINT
  5
4864
330
20A4
100
AcDbEntity
  8
Defpoints
 62
     0
440
 16777216
100
AcDbPoint
 10
12404.29739760426
 20
411.4042814685126
 30
0.0
  0
POINT
  5
4865
330
20A4
100
AcDbEntity
  8
Defpoints
 62
     0
440
 16777216
100
AcDbPoint
 10
12555.27776899967
 20
411.4042814685126
 30
0.0
  0
ENDBLK
  5
20B1
330
20A4
100
AcDbEntity
  8
0
100
AcDbBlockEnd
  0
BLOCK
  5
20DC
330
20D6
100
AcDbEntity
  8
0
100
AcDbBlockBegin
  2
*D71
 70
     1
 10
0.0
 20
0.0
 30
0.0
  3
*D71
  1

  0
LINE
  5
4885
330
20D6
100
AcDbEntity
  8
0
 62
     0
440
 16777216
370
    -2
100
AcDbLine
 10
11855.53662530149
 20
1165.171983514405
 30
0.0
 11
11810.62773206729
 21
1250.423952279693
 31
0.0
  0
MTEXT
  5
4886
330
20D6
100
AcDbEntity
  8
0
 62
     0
440
 16777216
100
AcDbMText
 10
11854.85344100531
 20
1186.852233956167
 30
0.0
 40
15.0
 41
0.0
 46
0.0
 71
     5
 72
     1
  1
\A1;R15
 11
0.4660668926085053
 21
-0.8847494852297186
 31
0.0
 73
     1
 44
1.0
  0
SOLID
  5
4887
330
20D6
100
AcDbEntity
  8
0
 62
     0
440
 16777216
100
AcDbTrace
 10
11813.57689701806
 20
1251.977508588389
 30
0.0
 11
11807.67856711653
 21
1248.870395970998
 31
0.0
 12
11801.30639421512
 22
1268.118941984288
 32
0.0
 13
11801.30639421512
 23
1268.118941984288
 33
0.0
  0
POINT
  5
4888
330
20D6
100
AcDbEntity
  8
Defpoints
 62
     0
440
 16777216
100
AcDbPoint
 10
11801.30639421512
 20
1268.118941984288
 30
0.0
  0
POINT
  5
4889
330
20D6
100
AcDbEntity
  8
Defpoints
 62
     0
440
 16777216
100
AcDbPoint
 10
11808.29739760426
 20
1254.847699705832
 30
0.0
  0
ENDBLK
  5
20DD
330
20D6
100
AcDbEntity
  8
0
100
AcDbBlockEnd
  0
BLOCK
  5
20E4
330
20DE
100
AcDbEntity
  8
0
100
AcDbBlockBegin
  2
*D72
 70
     1
 10
0.0
 20
0.0
 30
0.0
  3
*D72
  1

  0
LINE
  5
4876
330
20DE
100
AcDbEntity
  8
0
 62
     0
440
 16777216
370
    -2
100
AcDbLine
 10
12259.75711491783
 20
926.2718941217118
 30
0.0
 11
12195.63029110509
 21
889.342901884037
 31
0.0
  0
MTEXT
  5
4877
330
20DE
100
AcDbEntity
  8
0
 62
     0
440
 16777216
100
AcDbMText
 10
12238.11794612585
 20
924.773103278285
 30
0.0
 40
15.0
 41
0.0
 46
0.0
 71
     5
 72
     1
  1
\A1;R15
 11
0.8665787001721222
 21
0.4990404356442423
 31
0.0
 73
     1
 44
1.0
  0
SOLID
  5
4878
330
20DE
100
AcDbEntity
  8
0
 62
     0
440
 16777216
100
AcDbTrace
 10
12193.96682298628
 20
892.2314975512772
 30
0.0
 11
12197.29375922391
 21
886.4543062167967
 31
0.0
 12
12178.29871710165
 22
879.3620931711521
 32
0.0
 13
12178.29871710165
 23
879.3620931711521
 33
0.0
  0
POINT
  5
4879
330
20DE
100
AcDbEntity
  8
Defpoints
 62
     0
440
 16777216
100
AcDbPoint
 10
12178.29871710165
 20
879.3620931711521
 30
0.0
  0
POINT
  5
487A
330
20DE
100
AcDbEntity
  8
Defpoints
 62
     0
440
 16777216
100
AcDbPoint
 10
12191.29739760426
 20
886.8476997058314
 30
0.0
  0
ENDBLK
  5
20E5
330
20DE
100
AcDbEntity
  8
0
100
AcDbBlockEnd
  0
BLOCK
  5
20EC
330
20E6
100
AcDbEntity
  8
0
100
AcDbBlockBegin
  2
*D73
 70
     1
 10
0.0
 20
0.0
 30
0.0
  3
*D73
  1

  0
LINE
  5
48A1
330
20E6
100
AcDbEntity
  8
0
 62
     0
440
 16777216
370
    -2
100
AcDbLine
 10
12267.65184594549
 20
473.5462019790374
 30
0.0
 11
12200.65892849383
 21
442.1145457815982
 31
0.0
  0
MTEXT
  5
48A2
330
20E6
100
AcDbEntity
  8
0
 62
     0
440
 16777216
100
AcDbMText
 10
12245.96316183491
 20
473.8639779241839
 30
0.0
 40
15.0
 41
0.0
 46
0.0
 71
     5
 72
     1
  1
\A1;R15
 11
0.9053096952928012
 21
0.4247521107762213
 31
0.0
 73
     1
 44
1.0
  0
SOLID
  5
48A3
330
20E6
100
AcDbEntity
  8
0
 62
     0
440
 16777216
100
AcDbTrace
 10
12199.24308812458
 20
445.1322447659077
 30
0.0
 11
12202.07476886308
 21
439.0968467972888
 31
0.0
 12
12182.55273458797
 22
433.6195035660739
 32
0.0
 13
12182.55273458797
 23
433.6195035660739
 33
0.0
  0
POINT
  5
48A4
330
20E6
100
AcDbEntity
  8
Defpoints
 62
     0
440
 16777216
100
AcDbPoint
 10
12182.55273458797
 20
433.6195035660739
 30
0.0
  0
POINT
  5
48A5
330
20E6
100
AcDbEntity
  8
Defpoints
 62
     0
440
 16777216
100
AcDbPoint
 10
12196.13238001737
 20
439.9907852277173
 30
0.0
  0
ENDBLK
  5
20ED
330
20E6
100
AcDbEntity
  8
0
100
AcDbBlockEnd
  0
BLOCK
  5
20F4
330
20EE
100
AcDbEntity
  8
0
100
AcDbBlockBegin
  2
*D74
 70
     1
 10
0.0
 20
0.0
 30
0.0
  3
*D74
  1

  0
LINE
  5
489C
330
20EE
100
AcDbEntity
  8
0
 62
     0
440
 16777216
370
    -2
100
AcDbLine
 10
12056.45338093302
 20
468.605028181053
 30
0.0
 11
12125.93427897139
 21
443.1412341239674
 31
0.0
  0
MTEXT
  5
489D
330
20EE
100
AcDbEntity
  8
0
 62
     0
440
 16777216
100
AcDbMText
 10
12078.03153708559
 20
470.8148193601255
 30
0.0
 40
15.0
 41
0.0
 46
0.0
 71
     5
 72
     1
  1
\A1;R15
 11
0.9389310545725715
 21
-0.344105325095731
 31
0.0
 73
     1
 44
1.0
  0
SOLID
  5
489E
330
20EE
100
AcDbEntity
  8
0
 62
     0
440
 16777216
100
AcDbTrace
 10
12127.08129672171
 20
446.271004305875
 30
0.0
 11
12124.78726122107
 21
440.0114639420589
 31
0.0
 12
12144.71290006284
 22
436.2591276220528
 32
0.0
 13
12144.71290006284
 23
436.2591276220528
 33
0.0
  0
POINT
  5
489F
330
20EE
100
AcDbEntity
  8
Defpoints
 62
     0
440
 16777216
100
AcDbPoint
 10
12144.71290006284
 20
436.2591276220528
 30
0.0
  0
POINT
  5
48A0
330
20EE
100
AcDbEntity
  8
Defpoints
 62
     0
440
 16777216
100
AcDbPoint
 10
12130.62893424426
 20
441.4207074984887
 30
0.0
  0
ENDBLK
  5
20F5
330
20EE
100
AcDbEntity
  8
0
100
AcDbBlockEnd
  0
ENDSEC
  0
SECTION
  2
ENTITIES
  0
LINE
  5
1A00
330
1F
100
AcDbEntity
  8
0
100
AcDbLine
 10
11767.29739760426
 20
845.8476997058351
 30
0.0
 11
12975.29739760426
 21
845.8476997058351
 31
0.0
  0
LINE
  5
1A01
330
1F
100
AcDbEntity
  8
0
100
AcDbLine
 10
12509.29739760426
 20
871.8476997058351
 30
0.0
 11
12934.29739760426
 21
871.8476997058351
 31
0.0
  0
LINE
  5
1A02
330
1F
100
AcDbEntity
  8
0
100
AcDbLine
 10
12136.29739760425
 20
871.8476997058278
 30
0.0
 11
12519.29739760426
 21
871.8476997058386
 31
0.0
  0
LINE
  5
1A03
330
1F
100
AcDbEntity
  8
0
100
AcDbLine
 10
11808.29739760425
 20
871.8476997058351
 30
0.0
 11
12136.29739760425
 21
871.8476997058351
 31
0.0
  0
ARC
  5
1A04
330
1F
100
AcDbEntity
  8
0
100
AcDbCircle
 10
11808.29739760425
 20
886.8476997058351
 30
0.0
 40
15.0
100
AcDbArc
 50
180.0
 51
270.0
  0
LINE
  5
1A05
102
{ACAD_REACTORS
330
1A8C
102
}
330
1F
100
AcDbEntity
  8
0
100
AcDbLine
 10
11770.29739760426
 20
848.847699705835
 30
0.0
 11
12972.29739760426
 21
848.847699705835
 31
0.0
  0
LINE
  5
1A06
330
1F
100
AcDbEntity
  8
0
100
AcDbLine
 10
12975.29739760426
 20
845.8476997058351
 30
0.0
 11
12975.29739760426
 21
1295.847699705835
 31
0.0
  0
LINE
  5
1A07
102
{ACAD_REACTORS
330
1A89
102
}
330
1F
100
AcDbEntity
  8
0
100
AcDbLine
 10
12949.29739760426
 20
886.8476997058351
 30
0.0
 11
12949.29739760426
 21
1254.847699705835
 31
0.0
  0
LINE
  5
1A09
102
{ACAD_REACTORS
330
1A8C
102
}
330
1F
100
AcDbEntity
  8
0
100
AcDbLine
 10
12972.29739760425
 20
848.8476997058388
 30
0.0
 11
12972.29739760426
 21
1292.847699705839
 31
0.0
  0
LINE
  5
1A0A
330
1F
100
AcDbEntity
  8
0
100
AcDbLine
 10
12975.29739760426
 20
1295.847699705835
 30
0.0
 11
11767.29739760426
 21
1295.847699705835
 31
0.0
  0
LINE
  5
1A0B
330
1F
100
AcDbEntity
  8
0
100
AcDbLine
 10
12934.29739760426
 20
1269.847699705835
 30
0.0
 11
12509.29739760426
 21
1269.847699705835
 31
0.0
  0
LINE
  5
1A0D
330
1F
100
AcDbEntity
  8
0
100
AcDbLine
 10
12519.29739760426
 20
1269.847699705842
 30
0.0
 11
12126.29739760426
 21
1269.847699705838
 31
0.0
  0
ARC
  5
1A0E
330
1F
100
AcDbEntity
  8
0
100
AcDbCircle
 10
12519.29739760426
 20
1254.847699705842
 30
0.0
 40
15.0
100
AcDbArc
 50
0.0
 51
90.0
  0
LINE
  5
1A0F
102
{ACAD_REACTORS
330
1A90
102
}
330
1F
100
AcDbEntity
  8
0
100
AcDbLine
 10
12972.29739760425
 20
1292.847699705835
 30
0.0
 11
11770.29739760426
 21
1292.847699705835
 31
0.0
  0
LINE
  5
1A10
330
1F
100
AcDbEntity
  8
0
100
AcDbLine
 10
11767.29739760426
 20
1295.847699705835
 30
0.0
 11
11767.29739760426
 21
845.8476997058351
 31
0.0
  0
LINE
  5
1A11
102
{ACAD_REACTORS
330
1A5B
102
}
330
1F
100
AcDbEntity
  8
0
100
AcDbLine
 10
11793.29739760426
 20
1254.847699705831
 30
0.0
 11
11793.29739760425
 21
886.8476997058351
 31
0.0
  0
ARC
  5
1A12
102
{ACAD_REACTORS
330
1C2E
102
}
330
1F
100
AcDbEntity
  8
0
100
AcDbCircle
 10
11808.29739760426
 20
1254.847699705831
 30
0.0
 40
15.0
100
AcDbArc
 50
90.0
 51
180.0
  0
LINE
  5
1A13
102
{ACAD_REACTORS
330
1A5B
102
}
330
1F
100
AcDbEntity
  8
0
100
AcDbLine
 10
12151.29739760426
 20
1254.847699705842
 30
0.0
 11
12151.29739760425
 21
886.8476997058351
 31
0.0
  0
ARC
  5
1A14
330
1F
100
AcDbEntity
  8
0
100
AcDbCircle
 10
12136.29739760425
 20
886.8476997058351
 30
0.0
 40
15.0
100
AcDbArc
 50
270.0
 51
0.0
  0
LINE
  5
1A15
102
{ACAD_REACTORS
330
1A58
102
}
330
1F
100
AcDbEntity
  8
0
100
AcDbLine
 10
12176.29739760426
 20
1254.847699705842
 30
0.0
 11
12176.29739760426
 21
886.8476997058314
 31
0.0
  0
LINE
  5
1A16
330
1F
100
AcDbEntity
  8
0
100
AcDbLine
 10
12534.29739760426
 20
1254.847699705842
 30
0.0
 11
12534.29739760426
 21
886.8476997058387
 31
0.0
  0
ARC
  5
1A17
330
1F
100
AcDbEntity
  8
0
100
AcDbCircle
 10
12519.29739760426
 20
886.8476997058387
 30
0.0
 40
15.0
100
AcDbArc
 50
270.0
 51
0.0
  0
LINE
  5
1A18
330
1F
100
AcDbEntity
  8
0
100
AcDbLine
 10
11770.29739760425
 20
1292.847699705839
 30
0.0
 11
11770.29739760426
 21
848.847699705835
 31
0.0
  0
LINE
  5
1A19
102
{ACAD_REACTORS
330
1A51
102
}
330
1F
100
AcDbEntity
  8
0
100
AcDbLine
 10
12972.29739760426
 20
848.847699705835
 30
0.0
 11
12975.29739760426
 21
845.8476997058351
 31
0.0
  0
LINE
  5
1A1A
102
{ACAD_REACTORS
330
1A54
102
}
330
1F
100
AcDbEntity
  8
0
100
AcDbLine
 10
12972.29739760426
 20
1292.847699705835
 30
0.0
 11
12975.29739760426
 21
1295.847699705835
 31
0.0
  0
LINE
  5
1A1B
330
1F
100
AcDbEntity
  8
0
100
AcDbLine
 10
11770.29739760426
 20
1292.847699705835
 30
0.0
 11
11767.29739760426
 21
1295.847699705835
 31
0.0
  0
LINE
  5
1A1C
102
{ACAD_REACTORS
330
1A51
102
}
330
1F
100
AcDbEntity
  8
0
100
AcDbLine
 10
11770.29739760426
 20
848.847699705835
 30
0.0
 11
11767.29739760426
 21
845.8476997058351
 31
0.0
  0
CIRCLE
  5
1A1D
102
{ACAD_REACTORS
330
1A5E
102
}
330
1F
100
AcDbEntity
  8
0
100
AcDbCircle
 10
11972.29739760426
 20
1120.847699705835
 30
0.0
 40
45.0
  0
CIRCLE
  5
1A1E
330
1F
100
AcDbEntity
  8
0
100
AcDbCircle
 10
11972.29739760426
 20
1120.847699705835
 30
0.0
 40
55.0
  0
LINE
  5
1A1F
330
1F
100
AcDbEntity
  8
0
100
AcDbLine
 10
12950.29739760426
 20
599.373309453269
 30
0.0
 11
12950.29739760426
 21
609.7042814685119
 31
0.0
  0
ARC
  5
1A20
330
1F
100
AcDbEntity
  8
0
100
AcDbCircle
 10
12949.79739760426
 20
599.373309453269
 30
0.0
 40
0.5
100
AcDbArc
 50
272.5420575969999
 51
0.0
  0
LINE
  5
1A21
330
1F
100
AcDbEntity
  8
0
100
AcDbLine
 10
12951.49739760426
 20
599.3733094532727
 30
0.0
 11
12951.49739760426
 21
609.7042814685083
 31
0.0
  0
ARC
  5
1A22
330
1F
100
AcDbEntity
  8
0
100
AcDbCircle
 10
12949.79739760426
 20
599.3733094532727
 30
0.0
 40
1.7
100
AcDbArc
 50
272.5420575969999
 51
0.0
  0
ARC
  5
1A23
330
1F
100
AcDbEntity
  8
0
100
AcDbCircle
 10
12951.99739760426
 20
609.7042814685083
 30
0.0
 40
0.5
100
AcDbArc
 50
90.0
 51
180.0
  0
LINE
  5
1A24
330
1F
100
AcDbEntity
  8
0
100
AcDbLine
 10
12971.61796914949
 20
610.2042814685155
 30
0.0
 11
12951.99739760426
 21
610.2042814685082
 31
0.0
  0
LINE
  5
1A25
330
1F
100
AcDbEntity
  8
0
100
AcDbLine
 10
12975.29739760426
 20
606.4042814685126
 30
0.0
 11
12972.29739760426
 21
611.4042814685126
 31
0.0
  0
LINE
  5
1A26
330
1F
100
AcDbEntity
  8
0
100
AcDbLine
 10
12974.2684060934
 20
605.7868865620003
 30
0.0
 11
12971.61796914949
 21
610.2042814685155
 31
0.0
  0
ARC
  5
1A27
330
1F
100
AcDbEntity
  8
0
100
AcDbCircle
 10
12951.99739760426
 20
609.7042814685119
 30
0.0
 40
1.7
100
AcDbArc
 50
90.0
 51
180.0
  0
LINE
  5
1A28
330
1F
100
AcDbEntity
  8
0
100
AcDbLine
 10
12974.2684060934
 20
605.7868865620003
 30
0.0
 11
12975.29739760426
 21
606.4042814685126
 31
0.0
  0
LINE
  5
1A29
330
1F
100
AcDbEntity
  8
0
100
AcDbLine
 10
12026.58991228981
 20
417.595232292686
 30
0.0
 11
12021.29739760426
 21
412.6042814685133
 31
0.0
  0
LINE
  5
1A2A
330
1F
100
AcDbEntity
  8
0
100
AcDbLine
 10
12027.1083197426
 20
416.4346847598972
 30
0.0
 11
12021.77396878787
 21
411.4042814685126
 31
0.0
  0
LINE
  5
1A2B
330
1F
100
AcDbEntity
  8
0
100
AcDbLine
 10
12021.29739760426
 20
412.6042814685133
 30
0.0
 11
11921.29739760426
 21
412.6042814685097
 31
0.0
  0
LINE
  5
1A2C
102
{ACAD_REACTORS
330
1A66
102
}
330
1F
100
AcDbEntity
  8
0
100
AcDbLine
 10
12021.77396878787
 20
411.4042814685126
 30
0.0
 11
11920.82714378502
 21
411.4042814685126
 31
0.0
  0
LINE
  5
1A2D
330
1F
100
AcDbEntity
  8
0
100
AcDbLine
 10
11921.29739760426
 20
412.6042814685133
 30
0.0
 11
11915.8975595469
 21
417.6042814685169
 31
0.0
  0
LINE
  5
1A2E
102
{ACAD_REACTORS
330
1A66
102
}
330
1F
100
AcDbEntity
  8
0
100
AcDbLine
 10
11920.82714378502
 20
411.4042814685126
 30
0.0
 11
11915.38525397537
 21
416.4432194439105
 31
0.0
  0
LINE
  5
1A2F
330
1F
100
AcDbEntity
  8
0
100
AcDbLine
 10
11796.9715036382
 20
441.0093094208969
 30
0.0
 11
11792.36313968795
 21
608.9718243718817
 31
0.0
  0
ARC
  5
1A30
330
1F
100
AcDbEntity
  8
0
100
AcDbCircle
 10
11811.96586096426
 20
441.4207074984915
 30
0.0
 40
15.0
100
AcDbArc
 50
181.5716219781544
 51
265.180396351061
  0
ARC
  5
1A31
330
1F
100
AcDbEntity
  8
0
100
AcDbCircle
 10
11811.96586096426
 20
441.4207074984915
 30
0.0
 40
16.2
100
AcDbArc
 50
181.5716219781544
 51
265.180396351061
  0
LINE
  5
1A32
330
1F
100
AcDbEntity
  8
0
100
AcDbLine
 10
11795.77359268926
 20
440.9202595888164
 30
0.0
 11
11791.1635777241
 21
608.9394037782658
 31
0.0
  0
LINE
  5
1A33
330
1F
100
AcDbEntity
  8
0
100
AcDbLine
 10
11789.86405226327
 20
610.2042814685082
 30
0.0
 11
11770.97682605902
 21
610.2042814685119
 31
0.0
  0
LINE
  5
1A34
102
{ACAD_REACTORS
330
1A66
102
}
330
1F
100
AcDbEntity
  8
0
100
AcDbLine
 10
11770.29739760426
 20
611.4042814685126
 30
0.0
 11
11767.29739760426
 21
606.4042814685126
 31
0.0
  0
LINE
  5
1A35
330
1F
100
AcDbEntity
  8
0
100
AcDbLine
 10
11770.97682605902
 20
610.2042814685119
 30
0.0
 11
11768.32638911511
 21
605.7868865620003
 31
0.0
  0
LINE
  5
1A36
330
1F
100
AcDbEntity
  8
0
100
AcDbLine
 10
11768.32638911511
 20
605.7868865620003
 30
0.0
 11
11767.29739760426
 21
606.4042814685126
 31
0.0
  0
LINE
  5
1A37
330
1F
100
AcDbEntity
  8
0
100
AcDbLine
 10
11770.29739760426
 20
611.4042814685126
 30
0.0
 11
12972.29739760426
 21
611.4042814685126
 31
0.0
  0
ARC
  5
1A3E
330
1F
100
AcDbEntity
  8
0
100
AcDbCircle
 10
11789.86405226327
 20
608.9042814685126
 30
0.0
 40
2.5
100
AcDbArc
 50
1.548157699002253
 51
90.0
  0
ARC
  5
1A3F
330
1F
100
AcDbEntity
  8
0
100
AcDbCircle
 10
11789.86405226327
 20
608.9042814685126
 30
0.0
 40
1.3
100
AcDbArc
 50
1.548157699002253
 51
90.0
  0
DIMENSION
  5
1A40
330
1F
100
AcDbEntity
  8
0
100
AcDbDimension
280
     0
  2
*D3
 10
13022.0578843238
 20
611.4042814685126
 30
0.0
 11
13022.0578843238
 21
544.4042814685126
 31
0.0
 70
   160
 71
     5
 42
5.0
 73
     0
 74
     0
 75
     0
  3
N915
100
AcDbAlignedDimension
 13
12975.29739760426
 23
606.4042814685126
 33
0.0
 14
12972.29739760426
 24
611.4042814685126
 34
0.0
 50
90.0
100
AcDbRotatedDimension
  0
LINE
  5
1A41
330
1F
100
AcDbEntity
  8
0
100
AcDbLine
 10
12136.29739760426
 20
1254.847699705842
 30
0.0
 11
12015.13641149609
 21
1155.341451151209
 31
0.0
  0
LINE
  5
1A42
330
1F
100
AcDbEntity
  8
0
100
AcDbLine
 10
11929.45838371242
 20
1155.341451151205
 30
0.0
 11
11808.29739760426
 21
1254.847699705831
 31
0.0
  0
LINE
  5
1A43
330
1F
100
AcDbEntity
  8
0
100
AcDbLine
 10
12003.45648286304
 20
1075.525393874868
 30
0.0
 11
12136.29739760425
 21
886.8476997058351
 31
0.0
  0
LINE
  5
1A44
330
1F
100
AcDbEntity
  8
0
100
AcDbLine
 10
11941.13831234547
 20
1075.525393874868
 30
0.0
 11
11808.29739760425
 21
886.8476997058351
 31
0.0
  0
LINE
  5
1A45
330
1F
100
AcDbEntity
  8
0
100
AcDbLine
 10
12136.29739760426
 20
1269.847699705842
 30
0.0
 11
11808.29739760426
 21
1269.847699705831
 31
0.0
  0
ARC
  5
1A46
330
1F
100
AcDbEntity
  8
0
100
AcDbCircle
 10
12136.29739760426
 20
1254.847699705842
 30
0.0
 40
15.0
100
AcDbArc
 50
0.0
 51
90.0
  0
LINE
  5
1A47
102
{ACAD_REACTORS
330
1C0B
102
}
330
1F
100
AcDbEntity
  8
0
100
AcDbLine
 10
12934.29739760426
 20
886.8476997058351
 30
0.0
 11
12534.29739760426
 21
1045.847699705839
 31
0.0
  0
LINE
  5
1A48
102
{ACAD_REACTORS
330
1C0B
102
}
330
1F
100
AcDbEntity
  8
0
100
AcDbLine
 10
12534.29739760426
 20
1095.847699705839
 30
0.0
 11
12934.29739760426
 21
1254.847699705835
 31
0.0
  0
CIRCLE
  5
1A49
102
{ACAD_REACTORS
330
1A61
102
}
330
1F
100
AcDbEntity
  8
0
100
AcDbCircle
 10
12355.29739760426
 20
1120.847699705835
 30
0.0
 40
45.0
  0
CIRCLE
  5
1A4A
330
1F
100
AcDbEntity
  8
0
100
AcDbCircle
 10
12355.29739760426
 20
1120.847699705835
 30
0.0
 40
55.0
  0
DIMENSION
  5
1A4F
102
{ACAD_XDICTIONARY
360
1A50
102
}
102
{ACAD_REACTORS
330
1A51
102
}
330
1F
100
AcDbEntity
  8
0
100
AcDbDimension
280
     0
  2
*D20
 10
11767.29739760426
 20
751.0817881336588
 30
0.0
 11
12552.07644563091
 21
751.0817881336588
 31
0.0
 70
   160
 71
     5
 42
1208.0
 73
     0
 74
     0
 75
     0
  3
N915
100
AcDbAlignedDimension
 13
12975.29739760426
 23
845.8476997058351
 33
0.0
 14
11767.29739760426
 24
845.8476997058351
 34
0.0
100
AcDbRotatedDimension
  0
DIMENSION
  5
1A52
102
{ACAD_XDICTIONARY
360
1A53
102
}
102
{ACAD_REACTORS
330
1A54
102
}
330
1F
100
AcDbEntity
  8
0
100
AcDbDimension
280
     0
  2
*D21
 10
13065.08952295274
 20
1295.847699705835
 30
0.0
 11
13065.08952295274
 21
1083.797366955081
 31
0.0
 70
   160
 71
     5
 42
450.0
 73
     0
 74
     0
 75
     0
  3
N915
100
AcDbAlignedDimension
 13
12975.29739760426
 23
845.8476997058351
 33
0.0
 14
12975.29739760426
 24
1295.847699705835
 34
0.0
 50
90.0
100
AcDbRotatedDimension
  0
DIMENSION
  5
1A55
330
1F
100
AcDbEntity
  8
0
100
AcDbDimension
280
     0
  2
*D4
 10
13022.4203601987
 20
871.8476997058351
 30
0.0
 11
13022.4203601987
 21
1058.347699705835
 31
0.0
 70
   160
 71
     5
 42
398.0000000000001
 73
     0
 74
     0
 75
     0
  3
N915
100
AcDbAlignedDimension
 13
12924.29739760426
 23
1269.847699705835
 33
0.0
 14
12924.29739760426
 24
871.8476997058351
 34
0.0
 50
90.0
100
AcDbRotatedDimension
  0
DIMENSION
  5
1A56
102
{ACAD_XDICTIONARY
360
1A57
102
}
102
{ACAD_REACTORS
330
1A58
102
}
330
1F
100
AcDbEntity
  8
0
100
AcDbDimension
280
     0
  2
*D22
 10
12534.29739760426
 20
794.5917510489562
 30
0.0
 11
12420.28239453501
 21
794.5917510489562
 31
0.0
 70
   160
 71
     5
 42
358.0
 73
     0
 74
     0
 75
     0
  3
N915
100
AcDbAlignedDimension
 13
12176.29739760426
 23
886.8476997058314
 33
0.0
 14
12534.29739760426
 24
896.8476997058351
 34
0.0
100
AcDbRotatedDimension
  0
DIMENSION
  5
1A59
102
{ACAD_XDICTIONARY
360
1A5A
102
}
102
{ACAD_REACTORS
330
1A5B
102
}
330
1F
100
AcDbEntity
  8
0
100
AcDbDimension
280
     0
  2
*D23
 10
11793.29739760425
 20
795.4260825647979
 30
0.0
 11
11955.17416003845
 21
795.4260825647979
 31
0.0
 70
   160
 71
     5
 42
358.0
 73
     0
 74
     0
 75
     0
  3
N915
100
AcDbAlignedDimension
 13
12151.29739760425
 23
886.8476997058351
 33
0.0
 14
11793.29739760425
 24
886.8476997058351
 34
0.0
100
AcDbRotatedDimension
  0
DIMENSION
  5
1A5C
102
{ACAD_XDICTIONARY
360
1A5D
102
}
102
{ACAD_REACTORS
330
1A5E
102
}
330
1F
100
AcDbEntity
  8
0
100
AcDbDimension
280
     0
  2
*D36
 10
11935.44461918065
 20
1146.671578625548
 30
0.0
 11
12074.94246076784
 21
1072.961302106467
 31
0.0
 70
    35
 71
     5
 42
89.99999999999454
 73
     0
 74
     0
 75
     0
  3
N915iso
100
AcDbDiametricDimension
 15
12009.15017602787
 25
1095.023820786121
 35
0.0
 40
0.0
1001
ACAD
1000
DSTYLE
1002
{
1070
   271
1070
     1
1002
}
  0
DIMENSION
  5
1A5F
102
{ACAD_XDICTIONARY
360
1A60
102
}
102
{ACAD_REACTORS
330
1A61
102
}
330
1F
100
AcDbEntity
  8
0
100
AcDbDimension
280
     0
  2
*D37
 10
12324.15608093116
 20
1153.331824996017
 30
0.0
 11
12448.81534966028
 21
1044.94200514219
 31
0.0
 70
   163
 71
     5
 42
90.00000000002547
 73
     0
 74
     0
 75
     0
  3
N915iso
100
AcDbDiametricDimension
 15
12386.43871427734
 25
1088.363574415672
 35
0.0
 40
0.0
1001
ACAD
1000
DSTYLE
1002
{
1070
   271
1070
     1
1002
}
  0
LINE
  5
1A62
330
1F
100
AcDbEntity
  8
0
100
AcDbLine
 10
12309.29739760426
 20
412.6042814685133
 30
0.0
 11
12309.29739760426
 21
411.4042814685126
 31
0.0
  0
LINE
  5
1A63
330
1F
100
AcDbEntity
  8
0
100
AcDbLine
 10
12399.29739760426
 20
412.6042814685169
 30
0.0
 11
12399.29739760426
 21
411.4042814685126
 31
0.0
  0
DIMENSION
  5
1A64
102
{ACAD_XDICTIONARY
360
1A65
102
}
102
{ACAD_REACTORS
330
1A66
102
}
330
1F
100
AcDbEntity
  8
0
100
AcDbDimension
280
     0
  2
*D38
 10
11749.30736857736
 20
611.4042814685126
 30
0.0
 11
11749.30736857736
 21
518.8908461958963
 31
0.0
 70
   160
 71
     5
 42
199.9999999999999
 73
     0
 74
     0
 75
     0
  3
N915
100
AcDbAlignedDimension
 13
11920.82714378502
 23
411.4042814685126
 33
0.0
 14
11770.29739760426
 24
611.4042814685126
 34
0.0
 50
90.0
100
AcDbRotatedDimension
  0
LINE
  5
1A67
330
1F
100
AcDbEntity
  8
0
100
AcDbLine
 10
12533.07007572185
 20
584.0547348341242
 30
0.0
 11
12528.69697954305
 21
439.4307677059841
 31
0.0
  0
ARC
  5
1A68
330
1F
100
AcDbEntity
  8
0
100
AcDbCircle
 10
12512.50694412513
 20
439.9988813975324
 30
0.0
 40
16.2
100
AcDbArc
 50
280.3048464687287
 51
357.9902967673109
  0
LINE
  5
1A69
330
1F
100
AcDbEntity
  8
0
100
AcDbLine
 10
12531.87086521154
 20
584.0967975974999
 30
0.0
 11
12527.49888285134
 21
439.4731934950214
 31
0.0
  0
ARC
  5
1A6A
330
1F
100
AcDbEntity
  8
0
100
AcDbCircle
 10
12512.50810467491
 20
439.999092406586
 30
0.0
 40
15.0
100
AcDbArc
 50
280.3048464687287
 51
357.9908023673583
  0
LINE
  5
1A6B
330
1F
100
AcDbEntity
  8
0
100
AcDbLine
 10
12515.40488822397
 20
424.0601888539131
 30
0.0
 11
12409.29739760426
 21
416.4042814685126
 31
0.0
  0
LINE
  5
1A6C
330
1F
100
AcDbEntity
  8
0
100
AcDbLine
 10
12515.19138624791
 20
425.2410437550861
 30
0.0
 11
12408.71392969778
 21
417.5178698368799
 31
0.0
  0
LINE
  5
1A6D
330
1F
100
AcDbEntity
  8
0
100
AcDbLine
 10
12409.29739760425
 20
416.4042814685126
 30
0.0
 11
12404.29739760426
 21
411.4042814685126
 31
0.0
  0
LINE
  5
1A6E
330
1F
100
AcDbEntity
  8
0
100
AcDbLine
 10
12408.71392969777
 20
417.5178698368799
 30
0.0
 11
12403.80034132941
 21
412.6042814685169
 31
0.0
  0
LINE
  5
1A6F
102
{ACAD_REACTORS
330
1A86
102
}
330
1F
100
AcDbEntity
  8
0
100
AcDbLine
 10
12404.29739760426
 20
411.4042814685126
 30
0.0
 11
12304.29739760426
 21
411.4042814685126
 31
0.0
  0
LINE
  5
1A70
330
1F
100
AcDbEntity
  8
0
100
AcDbLine
 10
12403.80034132941
 20
412.6042814685169
 30
0.0
 11
12304.79445387912
 21
412.6042814685097
 31
0.0
  0
LINE
  5
1A71
330
1F
100
AcDbEntity
  8
0
100
AcDbLine
 10
12309.29739760426
 20
412.6042814685169
 30
0.0
 11
12309.29739760426
 21
411.4042814685126
 31
0.0
  0
LINE
  5
1A72
330
1F
100
AcDbEntity
  8
0
100
AcDbLine
 10
12193.23429675798
 20
424.0521179860224
 30
0.0
 11
12299.29739760426
 21
416.4042814685126
 31
0.0
  0
LINE
  5
1A73
330
1F
100
AcDbEntity
  8
0
100
AcDbLine
 10
12193.44909844437
 20
425.2327365762175
 30
0.0
 11
12299.88086551074
 21
417.5178698368799
 31
0.0
  0
LINE
  5
1A74
330
1F
100
AcDbEntity
  8
0
100
AcDbLine
 10
12299.29739760427
 20
416.4042814685126
 30
0.0
 11
12304.29739760426
 21
411.4042814685126
 31
0.0
  0
LINE
  5
1A75
330
1F
100
AcDbEntity
  8
0
100
AcDbLine
 10
12299.88086551075
 20
417.5178698368799
 30
0.0
 11
12304.79445387911
 21
412.6042814685169
 31
0.0
  0
LINE
  5
1A76
330
1F
100
AcDbEntity
  8
0
100
AcDbLine
 10
11915.8975595469
 20
417.6042814685096
 30
0.0
 11
11810.705579164
 21
426.4737449380263
 31
0.0
  0
LINE
  5
1A77
330
1F
100
AcDbEntity
  8
0
100
AcDbLine
 10
11915.38525397537
 20
416.4432194439105
 30
0.0
 11
11810.60475661998
 21
425.2779879331938
 31
0.0
  0
LINE
  5
1A78
330
1F
100
AcDbEntity
  8
0
100
AcDbLine
 10
12145.62329157032
 20
441.0093094208932
 30
0.0
 11
12150.1595232395
 21
606.3427960512235
 31
0.0
  0
ARC
  5
1A79
102
{ACAD_REACTORS
330
1C37
102
}
330
1F
100
AcDbEntity
  8
0
100
AcDbCircle
 10
12130.62893424426
 20
441.4207074984878
 30
0.0
 40
15.0
100
AcDbArc
 50
274.819603648939
 51
358.4283780218456
  0
ARC
  5
1A7A
330
1F
100
AcDbEntity
  8
0
100
AcDbCircle
 10
12130.62893424426
 20
441.4207074984878
 30
0.0
 40
16.2
100
AcDbArc
 50
274.819603648939
 51
358.4283780218456
  0
LINE
  5
1A7B
330
1F
100
AcDbEntity
  8
0
100
AcDbLine
 10
12146.82120251929
 20
440.9202595896386
 30
0.0
 11
12151.35918285312
 21
606.313989936003
 31
0.0
  0
LINE
  5
1A7C
330
1F
100
AcDbEntity
  8
0
100
AcDbLine
 10
12026.58991228982
 20
417.595232292686
 30
0.0
 11
12131.88921604452
 21
426.4737449380227
 31
0.0
  0
LINE
  5
1A7D
330
1F
100
AcDbEntity
  8
0
100
AcDbLine
 10
12027.10831974261
 20
416.4346847599045
 30
0.0
 11
12131.99003858854
 21
425.2779879331938
 31
0.0
  0
LINE
  5
1A7E
330
1F
100
AcDbEntity
  8
0
100
AcDbLine
 10
11925.82714378501
 20
412.6042814685097
 30
0.0
 11
11925.82714378501
 21
411.4042814685126
 31
0.0
  0
LINE
  5
1A7F
330
1F
100
AcDbEntity
  8
0
100
AcDbLine
 10
12016.77396878787
 20
412.6042814685133
 30
0.0
 11
12016.77396878787
 21
411.4042814685126
 31
0.0
  0
LINE
  5
1A80
330
1F
100
AcDbEntity
  8
0
100
AcDbLine
 10
12179.93981652375
 20
439.4954377228641
 30
0.0
 11
12175.44782932193
 21
606.3265957417898
 31
0.0
  0
ARC
  5
1A81
330
1F
100
AcDbEntity
  8
0
100
AcDbCircle
 10
12196.13224085682
 20
439.9908105296417
 30
0.0
 40
16.2
100
AcDbArc
 50
181.7522960610401
 51
259.6951535312713
  0
LINE
  5
1A82
330
1F
100
AcDbEntity
  8
0
100
AcDbLine
 10
12181.13940245794
 20
439.5318474294908
 30
0.0
 11
12176.64969974825
 21
606.2053448729129
 31
0.0
  0
ARC
  5
1A83
102
{ACAD_REACTORS
330
1C34
102
}
330
1F
100
AcDbEntity
  8
0
100
AcDbCircle
 10
12196.13238001737
 20
439.9907852277173
 30
0.0
 40
15.0
100
AcDbArc
 50
181.7532868762238
 51
259.6951535312713
  0
DIMENSION
  5
1A84
102
{ACAD_XDICTIONARY
360
1A85
102
}
102
{ACAD_REACTORS
330
1A86
102
}
330
1F
100
AcDbEntity
  8
0
100
AcDbDimension
280
     0
  2
*D39
 10
13051.74433435681
 20
611.4042814685126
 30
0.0
 11
13051.74433435681
 21
525.3841968121232
 31
0.0
 70
   160
 71
     5
 42
200.0000000000001
 73
     0
 74
     0
 75
     0
  3
N915
100
AcDbAlignedDimension
 13
12404.29739760426
 23
411.4042814685126
 33
0.0
 14
12972.29739760426
 24
611.4042814685126
 34
0.0
 50
90.0
100
AcDbRotatedDimension
  0
DIMENSION
  5
1A87
102
{ACAD_XDICTIONARY
360
1A88
102
}
102
{ACAD_REACTORS
330
1A89
102
}
330
1F
100
AcDbEntity
  8
0
100
AcDbDimension
280
     0
  2
*D40
 10
12975.29739760426
 20
817.2485403179416
 30
0.0
 11
12879.79739760426
 21
817.2485403179416
 31
0.0
 70
   160
 71
     5
 42
26.0
 73
     0
 74
     0
 75
     0
  3
N915
100
AcDbAlignedDimension
 13
12949.29739760426
 23
886.8476997058351
 33
0.0
 14
12975.29739760426
 24
845.8476997058351
 34
0.0
100
AcDbRotatedDimension
  0
DIMENSION
  5
1A8A
102
{ACAD_XDICTIONARY
360
1A8B
102
}
102
{ACAD_REACTORS
330
1A8C
102
}
330
1F
100
AcDbEntity
  8
0
100
AcDbDimension
280
     0
  2
*D41
 10
12975.29739760426
 20
788.7252291774239
 30
0.0
 11
12909.29739760425
 21
788.7252291774239
 31
0.0
 70
   160
 71
     5
 42
3.000000000003637
 73
     0
 74
     0
 75
     0
  3
N915
100
AcDbAlignedDimension
 13
12972.29739760425
 23
848.847699705835
 33
0.0
 14
12975.29739760426
 24
845.8476997058351
 34
0.0
100
AcDbRotatedDimension
  0
DIMENSION
  5
1A8D
330
1F
100
AcDbEntity
  8
0
100
AcDbDimension
280
     0
  2
*D7
 10
13022.4203601987
 20
1269.847699705835
 30
0.0
 11
13022.4203601987
 21
1365.347699705842
 31
0.0
 70
   160
 71
     5
 42
26.0
 73
     0
 74
     0
 75
     0
  3
N915
100
AcDbAlignedDimension
 13
12975.29739760426
 23
1295.847699705835
 33
0.0
 14
12926.29739760426
 24
1269.847699705835
 34
0.0
 50
90.0
100
AcDbRotatedDimension
  0
DIMENSION
  5
1A8E
102
{ACAD_XDICTIONARY
360
1A8F
102
}
102
{ACAD_REACTORS
330
1A90
102
}
330
1F
100
AcDbEntity
  8
0
100
AcDbDimension
280
     0
  2
*D42
 10
13046.12552933471
 20
1295.847699705835
 30
0.0
 11
13046.12552933471
 21
1357.847699705842
 31
0.0
 70
   160
 71
     5
 42
3.0
 73
     0
 74
     0
 75
     0
  3
N915
100
AcDbAlignedDimension
 13
12972.29739760425
 23
1292.847699705835
 33
0.0
 14
12975.29739760426
 24
1295.847699705835
 34
0.0
 50
90.0
100
AcDbRotatedDimension
  0
LINE
  5
1A91
330
1F
100
AcDbEntity
  8
0
  6
DIVIDE
 62
     2
 48
0.01
100
AcDbLine
 10
12950.11109429952
 20
598.8903118964771
 30
0.0
 11
12950.29739760426
 21
598.8950151402714
 31
0.0
  0
LINE
  5
1A92
102
{ACAD_REACTORS
330
1A95
102
}
330
1F
100
AcDbEntity
  8
0
  6
DIVIDE
 62
     2
 48
0.01
100
AcDbLine
 10
12950.29739760426
 20
598.8950151402714
 30
0.0
 11
12950.29739760426
 21
599.0851178704287
 31
0.0
  0
DIMENSION
  5
1A93
102
{ACAD_XDICTIONARY
360
1A94
102
}
102
{ACAD_REACTORS
330
1A95
102
}
330
1F
100
AcDbEntity
  8
0
100
AcDbDimension
280
     0
  2
*D43
 10
12989.77250959058
 20
611.4042814685126
 30
0.0
 11
12989.77250959058
 21
531.895015140275
 31
0.0
 70
   160
 71
     5
 42
12.50926632824121
 73
     0
 74
     0
 75
     0
  3
N915
100
AcDbAlignedDimension
 13
12950.29739760426
 23
598.8950151402714
 33
0.0
 14
12972.29739760426
 24
611.4042814685126
 34
0.0
 50
90.0
100
AcDbRotatedDimension
1001
ACAD
1000
DSTYLE
1002
{
1070
   271
1070
     1
1002
}
  0
LINE
  5
1B0C
330
1F
100
AcDbEntity
  8
0
100
AcDbLine
 10
12534.25844643984
 20
586.5066876136588
 30
0.0
 11
12949.81957396448
 21
598.8738014863193
 31
0.0
  0
ARC
  5
1B0D
330
1F
100
AcDbEntity
  8
0
100
AcDbCircle
 10
12534.36932824095
 20
584.0091477789065
 30
0.0
 40
2.5
100
AcDbArc
 50
92.54205759699987
 51
177.9908023673582
  0
LINE
  5
1B0E
330
1F
100
AcDbEntity
  8
0
100
AcDbLine
 10
12534.31161755832
 20
585.3078661778891
 30
0.0
 11
12949.87279722901
 21
597.6749823656391
 31
0.0
  0
ARC
  5
1B0F
330
1F
100
AcDbEntity
  8
0
100
AcDbCircle
 10
12534.36927609489
 20
584.0091454638131
 30
0.0
 40
1.3
100
AcDbArc
 50
92.54205759699987
 51
177.9902967673108
  0
LINE
  5
1B10
330
1F
100
AcDbEntity
  8
0
  6
DIVIDE
 62
     2
 48
0.01
100
AcDbLine
 10
12531.92024470193
 20
585.5043627588129
 30
0.0
 11
12531.95181519571
 21
586.4042814685054
 31
0.0
  0
LINE
  5
1B11
102
{ACAD_REACTORS
330
1B14
102
}
330
1F
100
AcDbEntity
  8
0
  6
DIVIDE
 62
     2
 48
0.01
100
AcDbLine
 10
12531.95181519571
 20
586.4042814685054
 30
0.0
 11
12532.85140138092
 21
586.4442198651631
 31
0.0
  0
DIMENSION
  5
1B12
102
{ACAD_XDICTIONARY
360
1B13
102
}
102
{ACAD_REACTORS
330
1B14
102
}
330
1F
100
AcDbEntity
  8
0
100
AcDbDimension
280
     0
  2
*D56
 10
12959.05075334033
 20
611.4042814685126
 30
0.0
 11
12959.05075334033
 21
516.9042814685053
 31
0.0
 70
   160
 71
     5
 42
25.00000000000739
 73
     0
 74
     0
 75
     0
  3
N915
100
AcDbAlignedDimension
 13
12531.95181519571
 23
586.4042814685054
 33
0.0
 14
12972.29739760426
 24
611.4042814685126
 34
0.0
 50
90.0
100
AcDbRotatedDimension
  0
DIMENSION
  5
1C09
102
{ACAD_XDICTIONARY
360
1C0A
102
}
102
{ACAD_REACTORS
330
1C0B
102
}
330
1F
100
AcDbEntity
  8
0
100
AcDbDimension
280
     0
  2
*D65
 10
12575.7167607881
 20
1045.847699705839
 30
0.0
 11
12575.7167607881
 21
997.5976997058387
 31
0.0
 70
   160
 71
     5
 42
50.0
 73
     0
 74
     0
 75
     0
  3
N915
100
AcDbAlignedDimension
 13
12534.29739760426
 23
1095.847699705839
 33
0.0
 14
12534.29739760426
 24
1045.847699705839
 34
0.0
 50
90.0
100
AcDbRotatedDimension
  0
LINE
  5
1C0C
330
1F
100
AcDbEntity
  8
0
  6
DIVIDE
 62
     2
 48
0.01
100
AcDbLine
 10
11805.44818222786
 20
425.712774387568
 30
0.0
 11
11796.16938118019
 21
426.4951342847089
 31
0.0
  0
LINE
  5
1C0D
102
{ACAD_REACTORS
330
1C10
102
}
330
1F
100
AcDbEntity
  8
0
  6
DIVIDE
 62
     2
 48
0.01
100
AcDbLine
 10
11796.16938118019
 20
426.4951342847089
 30
0.0
 11
11795.91392857275
 21
435.8055006859212
 31
0.0
  0
DIMENSION
  5
1C0E
102
{ACAD_XDICTIONARY
360
1C0F
102
}
102
{ACAD_REACTORS
330
1C10
102
}
330
1F
100
AcDbEntity
  8
0
100
AcDbDimension
280
     0
  2
*D66
 10
11779.01861488698
 20
411.4042814685126
 30
0.0
 11
11779.01861488698
 21
478.4951342847125
 31
0.0
 70
   160
 71
     5
 42
15.09085281619622
 73
     0
 74
     0
 75
     0
  3
N915
100
AcDbAlignedDimension
 13
11796.16938118019
 23
426.4951342847089
 33
0.0
 14
11920.82714378502
 24
411.4042814685126
 34
0.0
 50
90.0
100
AcDbRotatedDimension
1001
ACAD
1000
DSTYLE
1002
{
1070
   271
1070
     0
1002
}
  0
LINE
  5
1C11
102
{ACAD_REACTORS
330
1C14
102
}
330
1F
100
AcDbEntity
  8
0
  6
DIVIDE
 62
     2
 48
0.01
100
AcDbLine
 10
11791.09594779363
 20
611.4042814685126
 30
0.0
 11
11791.12232346654
 21
610.4429791693182
 31
0.0
  0
DIMENSION
  5
1C12
102
{ACAD_XDICTIONARY
360
1C13
102
}
102
{ACAD_REACTORS
330
1C14
102
}
330
1F
100
AcDbEntity
  8
0
100
AcDbDimension
280
     0
  2
*D67
 10
11796.16938118019
 20
361.0897968010431
 30
0.0
 11
11859.41938118019
 21
361.0897968010431
 31
0.0
 70
   160
 71
     5
 42
5.073433386558463
 73
     0
 74
     0
 75
     0
  3
N915
100
AcDbAlignedDimension
 13
11791.09594779363
 23
611.4042814685126
 33
0.0
 14
11796.16938118019
 24
426.4951342847089
 34
0.0
100
AcDbRotatedDimension
1001
ACAD
1000
DSTYLE
1002
{
1070
   271
1070
     0
1002
}
  0
LINE
  5
1C15
330
1F
100
AcDbEntity
  8
0
  6
DIVIDE
 62
     2
 48
0.01
100
AcDbLine
 10
12519.98973636142
 20
424.8937976059933
 30
0.0
 11
12528.2395064886
 21
426.393755811121
 31
0.0
  0
LINE
  5
1C16
102
{ACAD_REACTORS
330
1C19
102
}
330
1F
100
AcDbEntity
  8
0
  6
DIVIDE
 62
     2
 48
0.01
100
AcDbLine
 10
12528.2395064886
 20
426.393755811121
 30
0.0
 11
12528.53453400615
 21
434.8014144109002
 31
0.0
  0
DIMENSION
  5
1C17
102
{ACAD_XDICTIONARY
360
1C18
102
}
102
{ACAD_REACTORS
330
1C19
102
}
330
1F
100
AcDbEntity
  8
0
100
AcDbDimension
280
     0
  2
*D68
 10
12555.27776899967
 20
411.4042814685126
 30
0.0
 11
12555.27776899967
 21
478.3937558111283
 31
0.0
 70
   160
 71
     5
 42
14.9894743426085
 73
     0
 74
     0
 75
     0
  3
N915
100
AcDbAlignedDimension
 13
12528.2395064886
 23
426.393755811121
 33
0.0
 14
12404.29739760426
 24
411.4042814685126
 34
0.0
 50
90.0
100
AcDbRotatedDimension
1001
ACAD
1000
DSTYLE
1002
{
1070
   271
1070
     0
1002
}
  0
DIMENSION
  5
1C1A
330
1F
100
AcDbEntity
  8
0
100
AcDbDimension
280
     0
  2
*D11
 10
12528.2395064886
 20
350.2002039298732
 30
0.0
 11
12413.6788143778
 21
350.2002039298732
 31
0.0
 70
   160
  1
5
 71
     5
 42
3.712308707112242
 73
     0
 74
     0
 75
     0
  3
N915
100
AcDbAlignedDimension
 13
12531.95181519571
 23
586.4042814685054
 33
0.0
 14
12528.2395064886
 24
426.393755811121
 34
0.0
100
AcDbRotatedDimension
1001
ACAD
1000
DSTYLE
1002
{
1070
   271
1070
     0
1002
}
  0
LINE
  5
1C1B
330
1F
100
AcDbEntity
  8
0
  6
CENTER
 62
     1
 48
55.88
100
AcDbLine
 10
12294.79739760426
 20
1120.847699705835
 30
0.0
 11
12415.79739760426
 21
1120.847699705835
 31
0.0
  0
LINE
  5
1C1C
330
1F
100
AcDbEntity
  8
0
  6
CENTER
 62
     1
 48
55.88
100
AcDbLine
 10
12355.29739760426
 20
1060.347699705835
 30
0.0
 11
12355.29739760426
 21
1181.347699705835
 31
0.0
  0
LINE
  5
1C1D
330
1F
100
AcDbEntity
  8
0
  6
CENTER
 62
     1
 48
55.88
100
AcDbLine
 10
11911.79739760426
 20
1120.847699705835
 30
0.0
 11
12032.79739760426
 21
1120.847699705835
 31
0.0
  0
LINE
  5
1C1E
330
1F
100
AcDbEntity
  8
0
  6
CENTER
 62
     1
 48
55.88
100
AcDbLine
 10
11972.29739760426
 20
1060.347699705835
 30
0.0
 11
11972.29739760426
 21
1181.347699705835
 31
0.0
  0
ARC
  5
1C2A
330
1F
100
AcDbEntity
  8
0
100
AcDbCircle
 10
12191.29739760426
 20
1254.847699705842
 30
0.0
 40
15.0
100
AcDbArc
 50
90.0
 51
180.0
  0
ARC
  5
1C2B
102
{ACAD_REACTORS
330
1C31
102
}
330
1F
100
AcDbEntity
  8
0
100
AcDbCircle
 10
12191.29739760426
 20
886.8476997058314
 30
0.0
 40
15.0
100
AcDbArc
 50
180.0
 51
270.0
  0
DIMENSION
  5
1C2C
102
{ACAD_XDICTIONARY
360
1C2D
102
}
102
{ACAD_REACTORS
330
1C2E
102
}
330
1F
100
AcDbEntity
  8
0
100
AcDbDimension
280
     0
  2
*D71
 10
11808.29739760426
 20
1254.847699705832
 30
0.0
 11
11846.44832089563
 21
1182.424598476385
 31
0.0
 70
   164
 71
     5
 42
15.00000000001273
 73
     0
 74
     0
 75
     0
  3
N915
100
AcDbRadialDimension
 15
11801.30639421512
 25
1268.118941984288
 35
0.0
 40
0.0
1001
ACAD
1000
DSTYLE
1002
{
1070
   279
1070
     1
1002
}
  0
DIMENSION
  5
1C2F
102
{ACAD_XDICTIONARY
360
1C30
102
}
102
{ACAD_REACTORS
330
1C31
102
}
330
1F
100
AcDbEntity
  8
0
100
AcDbDimension
280
     0
  2
*D72
 10
12191.29739760426
 20
886.8476997058314
 30
0.0
 11
12242.85883026448
 21
916.5406056266492
 31
0.0
 70
   164
 71
     5
 42
15.00000000003092
 73
     0
 74
     0
 75
     0
  3
N915
100
AcDbRadialDimension
 15
12178.29871710165
 25
879.3620931711521
 35
0.0
 40
0.0
1001
ACAD
1000
DSTYLE
1002
{
1070
   279
1070
     1
1002
}
  0
DIMENSION
  5
1C32
102
{ACAD_XDICTIONARY
360
1C33
102
}
102
{ACAD_REACTORS
330
1C34
102
}
330
1F
100
AcDbEntity
  8
0
100
AcDbDimension
280
     0
  2
*D73
 10
12196.13238001737
 20
439.9907852277173
 30
0.0
 11
12249.99830688728
 21
465.2635358189018
 31
0.0
 70
   164
 71
     5
 42
15.0
 73
     0
 74
     0
 75
     0
  3
N915
100
AcDbRadialDimension
 15
12182.55273458797
 25
433.6195035660739
 35
0.0
 40
0.0
1001
ACAD
1000
DSTYLE
1002
{
1070
   279
1070
     1
1002
}
  0
DIMENSION
  5
1C35
102
{ACAD_XDICTIONARY
360
1C36
102
}
102
{ACAD_REACTORS
330
1C37
102
}
330
1F
100
AcDbEntity
  8
0
100
AcDbDimension
280
     0
  2
*D74
 10
12130.62893424426
 20
441.4207074984887
 30
0.0
 11
12074.76253649719
 21
461.894974341687
 31
0.0
 70
   164
 71
     5
 42
15.00000000000182
 73
     0
 74
     0
 75
     0
  3
N915
100
AcDbRadialDimension
 15
12144.71290006284
 25
436.2591276220528
 35
0.0
 40
0.0
  0
LINE
  5
36C2
330
1F
100
AcDbEntity
  8
0
100
AcDbLine
 10
12397.88818123898
 20
1155.647486334212
 30
0.0
 11
12519.29739760426
 21
1254.847699705842
 31
0.0
  0
LINE
  5
36C3
330
1F
100
AcDbEntity
  8
0
100
AcDbLine
 10
12191.29739760426
 20
1254.847699705842
 30
0.0
 11
12312.70661396953
 21
1155.647486334201
 31
0.0
  0
LINE
  5
36C4
330
1F
100
AcDbEntity
  8
0
100
AcDbLine
 10
12323.73113798441
 20
1075.808036589726
 30
0.0
 11
12191.29739760426
 21
886.8476997058314
 31
0.0
  0
LINE
  5
36C5
330
1F
100
AcDbEntity
  8
0
100
AcDbLine
 10
12386.8636572241
 20
1075.808036589726
 30
0.0
 11
12519.29739760426
 21
886.8476997058387
 31
0.0
  0
ARC
  5
36D2
330
1F
100
AcDbEntity
  8
0
100
AcDbCircle
 10
12155.3576780766
 20
606.2042814685119
 30
0.0
 40
4.0
100
AcDbArc
 50
90.0
 51
178.4283448714514
  0
ARC
  5
36D3
330
1F
100
AcDbEntity
  8
0
100
AcDbCircle
 10
12155.3576780766
 20
606.2042814685119
 30
0.0
 40
5.2
100
AcDbArc
 50
90.0
 51
178.4736077468713
  0
LINE
  5
36D4
330
1F
100
AcDbEntity
  8
0
100
AcDbLine
 10
12155.3576780766
 20
610.2042814685119
 30
0.0
 11
12171.44969985698
 21
610.2042814685119
 31
0.0
  0
ARC
  5
36D8
330
1F
100
AcDbEntity
  8
0
100
AcDbCircle
 10
12171.44969985698
 20
606.2042814685119
 30
0.0
 40
4.0
100
AcDbArc
 50
1.752296061040156
 51
90.0
  0
ARC
  5
36D9
330
1F
100
AcDbEntity
  8
0
100
AcDbCircle
 10
12171.44969985698
 20
606.2042814685119
 30
0.0
 40
5.2
100
AcDbArc
 50
0.0117170355650513
 51
90.0
  0
ARC
  5
3C21
330
1F
100
AcDbEntity
  8
0
100
AcDbCircle
 10
12934.29739760426
 20
886.8476997058351
 30
0.0
 40
15.0
100
AcDbArc
 50
270.0
 51
0.0
  0
ARC
  5
3C2D
330
1F
100
AcDbEntity
  8
0
100
AcDbCircle
 10
12934.29739760426
 20
1254.847699705835
 30
0.0
 40
15.0
100
AcDbArc
 50
0.0
 51
90.0
  0
VIEWPORT
  5
73
330
72
100
AcDbEntity
 67
     1
  8
0
100
AcDbViewport
 10
94.99082881936539
 20
171.4920751360736
 30
0.0
 40
327.0249719395562
 41
232.9448814899499
 68
     1
 69
     1
 12
94.99082881936539
 22
171.4920751360736
 13
0.0
 23
0.0
 14
1.0
 24
1.0
 15
10.0
 25
10.0
 16
0.0
 26
0.0
 36
1.0
 17
0.0
 27
0.0
 37
0.0
 42
50.0
 43
0.0
 44
0.0
 45
232.9448814899499
 50
0.0
 51
0.0
 72
  1000
 90
   557408
  1

281
     0
 71
     1
 74
     0
110
0.0
120
0.0
130
0.0
111
1.0
121
0.0
131
0.0
112
0.0
122
1.0
132
0.0
 79
     0
146
0.0
170
     0
 61
     5
348
2B2
292
     1
282
     1
141
0.0
142
0.0
 63
   250
421
  3355443
  0
LWPOLYLINE
  5
1E3
102
{ACAD_REACTORS
330
1E5
102
}
330
72
100
AcDbEntity
 67
     1
  8
图框_视口
100
AcDbPolyline
 90
        5
 70
     1
 43
0.0
 10
5.0
 20
287.0
 10
185.0
 20
287.0
 10
185.0
 20
56.0
 10
5.0
 20
56.0
 10
5.0
 20
287.0
  0
VIEWPORT
  5
1E5
330
72
100
AcDbEntity
 67
     1
  8
图框_视口
100
AcDbViewport
 10
95.0
 20
171.5
 30
0.0
 40
180.0
 41
231.0
 68
     2
 69
     2
 12
210.0
 22
148.5
 13
0.0
 23
0.0
 14
10.0
 24
10.0
 15
10.0
 25
10.0
 16
0.0
 26
0.0
 36
1.0
 17
0.0
 27
0.0
 37
0.0
 42
50.0
 43
0.0
 44
0.0
 45
557.693641618497
 50
0.0
 51
0.0
 72
   100
 90
    98368
340
1E3
  1

281
     0
 71
     1
 74
     0
110
0.0
120
0.0
130
0.0
111
1.0
121
0.0
131
0.0
112
0.0
122
1.0
132
0.0
 79
     0
146
0.0
170
     0
 61
     5
348
2B2
292
     1
282
     1
141
0.0
142
0.0
 63
   250
421
  3355443
  0
ENDSEC
  0
SECTION
  2
OBJECTS
  0
DICTIONARY
  5
C
330
0
100
AcDbDictionary
281
     1
  3
ACAD_CIP_PREVIOUS_PRODUCT_INFO
350
48F5
  3
ACAD_COLOR
350
24E
  3
ACAD_DETAILVIEWSTYLE
350
48E6
  3
ACAD_GROUP
350
D
  3
ACAD_LAYOUT
350
1A
  3
ACAD_MATERIAL
350
24D
  3
ACAD_MLEADERSTYLE
350
48E1
  3
ACAD_MLINESTYLE
350
17
  3
ACAD_PLOTSETTINGS
350
19
  3
ACAD_PLOTSTYLENAME
350
E
  3
ACAD_SCALELIST
350
48CF
  3
ACAD_SECTIONVIEWSTYLE
350
48E3
  3
ACAD_TABLESTYLE
350
27C
  3
ACAD_VISUALSTYLE
350
2AC
  3
ACDB_RECOMPOSE_DATA
350
4920
  3
AcDbVariableDictionary
350
23A
  3
ASE_INDEX_DICTIONARY
350
F8D
  3
lxx_dict
350
30A
  0
DICTIONARY
  5
289
330
2
100
AcDbDictionary
280
     1
281
     1
  3
ACAD_LAYERSTATES
360
28A
  0
DICTIONARY
  5
48F6
330
10
100
AcDbDictionary
280
     1
281
     1
  3
ADSK_XREC_LAYER_RECONCILED
360
48F7
  0
DICTIONARY
  5
48F8
330
194
100
AcDbDictionary
280
     1
281
     1
  3
ADSK_XREC_LAYER_RECONCILED
360
48F9
  0
DICTIONARY
  5
48FA
330
195
100
AcDbDictionary
280
     1
281
     1
  3
ADSK_XREC_LAYER_RECONCILED
360
48FB
  0
DICTIONARY
  5
48FC
330
196
100
AcDbDictionary
280
     1
281
     1
  3
ADSK_XREC_LAYER_RECONCILED
360
48FD
  0
DICTIONARY
  5
48FE
330
197
100
AcDbDictionary
280
     1
281
     1
  3
ADSK_XREC_LAYER_RECONCILED
360
48FF
  0
DICTIONARY
  5
4900
330
198
100
AcDbDictionary
280
     1
281
     1
  3
ADSK_XREC_LAYER_RECONCILED
360
4901
  0
DICTIONARY
  5
4902
330
199
100
AcDbDictionary
280
     1
281
     1
  3
ADSK_XREC_LAYER_RECONCILED
360
4903
  0
DICTIONARY
  5
F99
330
1F
100
AcDbDictionary
280
     1
281
     1
  3
ACAD_SORTENTS
360
F9A
  0
DICTIONARY
  5
1A50
330
1A4F
100
AcDbDictionary
280
     1
281
     1
  3
ACAD_DIMASSOC
360
1A51
  0
DICTIONARY
  5
1A53
330
1A52
100
AcDbDictionary
280
     1
281
     1
  3
ACAD_DIMASSOC
360
1A54
  0
DICTIONARY
  5
1A57
330
1A56
100
AcDbDictionary
280
     1
281
     1
  3
ACAD_DIMASSOC
360
1A58
  0
DICTIONARY
  5
1A5A
330
1A59
100
AcDbDictionary
280
     1
281
     1
  3
ACAD_DIMASSOC
360
1A5B
  0
DICTIONARY
  5
1A5D
330
1A5C
100
AcDbDictionary
280
     1
281
     1
  3
ACAD_DIMASSOC
360
1A5E
  0
DICTIONARY
  5
1A60
330
1A5F
100
AcDbDictionary
280
     1
281
     1
  3
ACAD_DIMASSOC
360
1A61
  0
DICTIONARY
  5
1A65
330
1A64
100
AcDbDictionary
280
     1
281
     1
  3
ACAD_DIMASSOC
360
1A66
  0
DICTIONARY
  5
1A85
330
1A84
100
AcDbDictionary
280
     1
281
     1
  3
ACAD_DIMASSOC
360
1A86
  0
DICTIONARY
  5
1A88
330
1A87
100
AcDbDictionary
280
     1
281
     1
  3
ACAD_DIMASSOC
360
1A89
  0
DICTIONARY
  5
1A8B
330
1A8A
100
AcDbDictionary
280
     1
281
     1
  3
ACAD_DIMASSOC
360
1A8C
  0
DICTIONARY
  5
1A8F
330
1A8E
100
AcDbDictionary
280
     1
281
     1
  3
ACAD_DIMASSOC
360
1A90
  0
DICTIONARY
  5
1A94
330
1A93
100
AcDbDictionary
280
     1
281
     1
  3
ACAD_DIMASSOC
360
1A95
  0
DICTIONARY
  5
1B13
330
1B12
100
AcDbDictionary
280
     1
281
     1
  3
ACAD_DIMASSOC
360
1B14
  0
DICTIONARY
  5
1C0A
330
1C09
100
AcDbDictionary
280
     1
281
     1
  3
ACAD_DIMASSOC
360
1C0B
  0
DICTIONARY
  5
1C0F
330
1C0E
100
AcDbDictionary
280
     1
281
     1
  3
ACAD_DIMASSOC
360
1C10
  0
DICTIONARY
  5
1C13
330
1C12
100
AcDbDictionary
280
     1
281
     1
  3
ACAD_DIMASSOC
360
1C14
  0
DICTIONARY
  5
1C18
330
1C17
100
AcDbDictionary
280
     1
281
     1
  3
ACAD_DIMASSOC
360
1C19
  0
DICTIONARY
  5
1C2D
330
1C2C
100
AcDbDictionary
280
     1
281
     1
  3
ACAD_DIMASSOC
360
1C2E
  0
DICTIONARY
  5
1C30
330
1C2F
100
AcDbDictionary
280
     1
281
     1
  3
ACAD_DIMASSOC
360
1C31
  0
DICTIONARY
  5
1C33
330
1C32
100
AcDbDictionary
280
     1
281
     1
  3
ACAD_DIMASSOC
360
1C34
  0
DICTIONARY
  5
1C36
330
1C35
100
AcDbDictionary
280
     1
281
     1
  3
ACAD_DIMASSOC
360
1C37
  0
XRECORD
  5
48F5
102
{ACAD_REACTORS
330
C
102
}
330
C
100
AcDbXrecord
280
     1
300
ACD
300
2017
300
ACD_F_S
  0
DICTIONARY
  5
24E
102
{ACAD_REACTORS
330
C
102
}
330
C
100
AcDbDictionary
281
     1
  0
DICTIONARY
  5
48E6
102
{ACAD_REACTORS
330
C
102
}
330
C
100
AcDbDictionary
281
     1
  3
Metric50
350
48E7
  0
DICTIONARY
  5
D
102
{ACAD_REACTORS
330
C
102
}
330
C
100
AcDbDictionary
281
     1
  0
DICTIONARY
  5
1A
102
{ACAD_REACTORS
330
C
102
}
330
C
100
AcDbDictionary
281
     1
  3
Gb A4 标题栏
350
71
  3
Model
350
22
1001
AcadStringInfo
1000
MIFCodePage
1070
     5
  0
DICTIONARY
  5
24D
102
{ACAD_REACTORS
330
C
102
}
330
C
100
AcDbDictionary
281
     1
  3
ByBlock
350
2AA
  3
ByLayer
350
2A9
  3
Global
350
2AB
  0
DICTIONARY
  5
48E1
102
{ACAD_REACTORS
330
C
102
}
330
C
100
AcDbDictionary
281
     1
  3
Standard
350
48E2
  0
DICTIONARY
  5
17
102
{ACAD_REACTORS
330
C
102
}
330
C
100
AcDbDictionary
281
     1
  3
Standard
350
18
  0
DICTIONARY
  5
19
102
{ACAD_REACTORS
330
C
102
}
330
C
100
AcDbDictionary
281
     1
  0
ACDBDICTIONARYWDFLT
  5
E
102
{ACAD_REACTORS
330
C
102
}
330
C
100
AcDbDictionary
281
     1
  3
Normal
350
F
100
AcDbDictionaryWithDefault
340
F
  0
DICTIONARY
  5
48CF
102
{ACAD_REACTORS
330
C
102
}
330
C
100
AcDbDictionary
281
     1
  3
A0
350
48D0
  3
A1
350
48D1
  3
A2
350
48D2
  3
A3
350
48D3
  3
A4
350
48D4
  3
A5
350
48D5
  3
A6
350
48D6
  3
A7
350
48D7
  3
A8
350
48D8
  3
A9
350
48D9
  3
B0
350
48DA
  3
B1
350
48DB
  3
B2
350
48DC
  3
B3
350
48DD
  3
B4
350
48DE
  3
B5
350
48DF
  3
B6
350
48E0
  0
DICTIONARY
  5
48E3
102
{ACAD_REACTORS
330
C
102
}
330
C
100
AcDbDictionary
281
     1
  3
Metric50
350
48E5
  0
DICTIONARY
  5
27C
102
{ACAD_REACTORS
330
C
102
}
330
C
100
AcDbDictionary
281
     1
  3
Standard
350
27D
  0
DICTIONARY
  5
2AC
102
{ACAD_REACTORS
330
C
102
}
330
C
100
AcDbDictionary
281
     1
  3
2dWireframe
350
2B2
  3
3D Hidden
350
2B4
  3
3dWireframe
350
2B3
  3
Basic
350
2B1
  3
Brighten
350
2B8
  3
ColorChange
350
2BC
  3
Conceptual
350
2B5
  3
Dim
350
2B7
  3
EdgeColorOff
350
48CE
  3
Facepattern
350
2BB
  3
Flat
350
2AD
  3
FlatWithEdges
350
2AE
  3
Gouraud
350
2AF
  3
GouraudWithEdges
350
2B0
  3
Hidden
350
48C6
  3
JitterOff
350
48CC
  3
Linepattern
350
2BA
  3
OverhangOff
350
48CD
  3
Realistic
350
2B6
  3
Shaded
350
48CB
  3
Shaded with edges
350
48CA
  3
Shades of Gray
350
48C7
  3
Sketchy
350
48C8
  3
Thicken
350
2B9
  3
Wireframe
350
48C5
  3
X-Ray
350
48C9
  0
XRECORD
  5
4920
102
{ACAD_REACTORS
330
C
102
}
330
C
100
AcDbXrecord
280
     1
 90
        1
330
27D
330
48E5
330
48E7
  0
DICTIONARY
  5
23A
102
{ACAD_REACTORS
330
C
102
}
330
C
100
AcDbDictionary
281
     1
  3
CANNOSCALE
350
4916
  3
CMLEADERSTYLE
350
4912
  3
CTABLESTYLE
350
290
  3
CVIEWDETAILSTYLE
350
4913
  3
CVIEWSECTIONSTYLE
350
4914
  3
DIMASSOC
350
23C
  3
HIDETEXT
350
23B
  3
LAYEREVAL
350
4918
  3
LAYERNOTIFY
350
4919
  3
LIGHTINGUNITS
350
4917
  3
MSLTSCALE
350
4915
  0
DICTIONARY
  5
F8D
102
{ACAD_REACTORS
330
C
102
}
330
C
100
AcDbDictionary
281
     1
  3
ASEBlockHierarchyIndexRecord
350
F8E
1001
DCO15
1040
1674194785.75
  0
DICTIONARY
  5
30A
102
{ACAD_REACTORS
330
C
102
}
330
C
100
AcDbDictionary
281
     1
  3
lxx_dimth
350
30B
  0
DICTIONARY
  5
28A
102
{ACAD_REACTORS
330
289
102
}
330
289
100
AcDbDictionary
281
     1
  0
XRECORD
  5
48F7
102
{ACAD_REACTORS
330
48F6
102
}
330
48F6
100
AcDbXrecord
280
     1
290
     1
  0
XRECORD
  5
48F9
102
{ACAD_REACTORS
330
48F8
102
}
330
48F8
100
AcDbXrecord
280
     1
290
     1
  0
XRECORD
  5
48FB
102
{ACAD_REACTORS
330
48FA
102
}
330
48FA
100
AcDbXrecord
280
     1
290
     1
  0
XRECORD
  5
48FD
102
{ACAD_REACTORS
330
48FC
102
}
330
48FC
100
AcDbXrecord
280
     1
290
     1
  0
XRECORD
  5
48FF
102
{ACAD_REACTORS
330
48FE
102
}
330
48FE
100
AcDbXrecord
280
     1
290
     1
  0
XRECORD
  5
4901
102
{ACAD_REACTORS
330
4900
102
}
330
4900
100
AcDbXrecord
280
     1
290
     1
  0
XRECORD
  5
4903
102
{ACAD_REACTORS
330
4902
102
}
330
4902
100
AcDbXrecord
280
     1
290
     1
  0
SORTENTSTABLE
  5
F9A
102
{ACAD_REACTORS
330
F99
102
}
330
F99
100
AcDbSortentsTable
330
1F
331
1A48
  5
1A55
331
1A44
  5
1A49
331
1A87
  5
1A92
331
1A40
  5
1A45
331
1A83
  5
1A8E
331
1C1B
  5
1C22
331
1C17
  5
1C1E
331
1A17
  5
1A19
331
1A13
  5
1A15
331
1A0F
  5
1A11
331
1A0B
  5
1A0C
331
1A7C
  5
1A81
331
1A78
  5
1A7D
331
1A74
  5
1A79
331
1A70
  5
1A75
331
1C0C
  5
1C15
331
1A04
  5
1A04
331
1A00
  5
1A00
331
1A3F
  5
1A44
331
3C2D
  5
1A0D
331
1A6C
  5
1A71
331
1A68
  5
1A6D
331
1A64
  5
1A6B
331
1A37
  5
1A41
331
1A33
  5
1A35
331
1A2F
  5
1A31
331
1A2B
  5
1A2D
331
36D8
  5
3C21
331
1B0C
  5
1B11
331
1A59
  5
1A64
331
1A55
  5
1A62
331
1C2C
  5
1C3B
331
1A24
  5
1A26
331
1A20
  5
1A22
331
1A1C
  5
1A1E
331
1A18
  5
1A1A
331
36D4
  5
1A42
331
36C4
  5
36D4
331
1A49
  5
1A56
331
1A84
  5
1A91
331
1A45
  5
1A4A
331
1A80
  5
1A87
331
1A41
  5
1A46
331
1C1C
  5
1C23
331
1A14
  5
1A16
331
1A10
  5
1A12
331
1A7D
  5
1A82
331
1A79
  5
1A7E
331
1A75
  5
1A7A
331
1A71
  5
1A76
331
1C0D
  5
1C16
331
1C09
  5
1C12
331
1A05
  5
1A05
331
1A01
  5
1A01
331
1A6D
  5
1A72
331
1A69
  5
1A6E
331
1B10
  5
1B1E
331
1A34
  5
1A36
331
1A30
  5
1A32
331
1A2C
  5
1A2E
331
1A28
  5
1A2A
331
36D9
  5
3C2D
331
1B0D
  5
1B12
331
1A56
  5
1A63
331
1A52
  5
1A5F
331
1A91
  5
1A98
331
1C35
  5
1C40
331
1A25
  5
1A27
331
1A21
  5
1A23
331
1A1D
  5
1A1F
331
1A19
  5
1A1B
331
36C5
  5
36D5
331
1A8D
  5
1A96
331
1A4A
  5
1A59
331
1A46
  5
1A4F
331
1A81
  5
1A8A
331
1A42
  5
1A47
331
1C1D
  5
1C27
331
1C15
  5
1C1C
331
1C11
  5
1C1A
331
1A15
  5
1A17
331
1A11
  5
1A13
331
1A0D
  5
1A0F
331
1A09
  5
1A0A
331
1A7E
  5
1A83
331
1A7A
  5
1A7F
331
1A76
  5
1A7B
331
1A72
  5
1A77
331
1C0E
  5
1C17
331
1A06
  5
1A06
331
1A02
  5
1A02
331
1A6E
  5
1A73
331
1A6A
  5
1A6F
331
1B11
  5
1B1F
331
1A62
  5
1A69
331
1A35
  5
1A37
331
1A31
  5
1A33
331
1A2D
  5
1A2F
331
1A29
  5
1A2B
331
1A5F
  5
1A68
331
1B0E
  5
1B15
331
1A92
  5
1A99
331
1C32
  5
1C3F
331
1C2A
  5
1C35
331
1A26
  5
1A28
331
1A22
  5
1A24
331
1A1E
  5
1A20
331
1A1A
  5
1A1C
331
36D2
  5
36D8
331
36C2
  5
36D2
331
1A8E
  5
1A97
331
1A4F
  5
1A5C
331
1A8A
  5
1A93
331
1A47
  5
1A52
331
1A82
  5
1A8D
331
1A43
  5
1A48
331
1C1E
  5
1C2A
331
1C1A
  5
1C1F
331
1C16
  5
1C1D
331
1C12
  5
1C1B
331
1A16
  5
1A18
331
1A12
  5
1A14
331
1A0E
  5
1A10
331
1A0A
  5
1A0B
331
1A7F
  5
1A84
331
1A7B
  5
1A80
331
1A77
  5
1A7C
331
1A73
  5
1A78
331
1A07
  5
1A07
331
1A03
  5
1A03
331
1A3E
  5
1A43
331
1A6F
  5
1A74
331
1A6B
  5
1A70
331
1A67
  5
1A6C
331
1B12
  5
1B20
331
1A63
  5
1A6A
331
1A36
  5
1A3F
331
1A32
  5
1A34
331
1A2E
  5
1A30
331
1A2A
  5
1A2C
331
3C21
  5
1A09
331
1A5C
  5
1A67
331
1B0F
  5
1B1B
331
1A93
  5
1A9A
331
1C2F
  5
1C3E
331
1A27
  5
1A29
331
1C2B
  5
1C38
331
1A23
  5
1A25
331
1A1F
  5
1A21
331
1A1B
  5
1A1D
331
36D3
  5
36D9
331
36C3
  5
36D3
  0
DIMASSOC
  5
1A51
102
{ACAD_REACTORS
330
1A50
102
}
330
1A50
100
AcDbDimAssoc
330
1A4F
 90
        3
 70
     0
 71
     0
  1
AcDbOsnapPointRef
 72
     1
331
1A19
 73
     2
 91
        0
 40
1.0
 10
0.0
 20
0.0
 30
2.000000000000000E+50
 75
     0
  1
AcDbOsnapPointRef
 72
     1
331
1A1C
 73
     2
 91
        0
 40
1.0
 10
0.0
 20
0.0
 30
2.000000000000000E+50
 75
     0
  0
DIMASSOC
  5
1A54
102
{ACAD_REACTORS
330
1A53
102
}
330
1A53
100
AcDbDimAssoc
330
1A52
 90
        2
 70
     0
 71
     0
  1
AcDbOsnapPointRef
 72
     1
331
1A1A
 73
     2
 91
        0
 40
1.0
 10
0.0
 20
0.0
 30
2.000000000000000E+50
 75
     0
  0
DIMASSOC
  5
1A58
102
{ACAD_REACTORS
330
1A57
102
}
330
1A57
100
AcDbDimAssoc
330
1A56
 90
        1
 70
     0
 71
     0
  1
AcDbOsnapPointRef
 72
     1
331
1A15
 73
     2
 91
        0
 40
1.0
 10
0.0
 20
0.0
 30
2.000000000000000E+50
 75
     0
  0
DIMASSOC
  5
1A5B
102
{ACAD_REACTORS
330
1A5A
102
}
330
1A5A
100
AcDbDimAssoc
330
1A59
 90
        3
 70
     0
 71
     0
  1
AcDbOsnapPointRef
 72
     1
331
1A13
 73
     2
 91
        0
 40
1.0
 10
0.0
 20
0.0
 30
2.000000000000000E+50
 75
     0
  1
AcDbOsnapPointRef
 72
     1
331
1A11
 73
     2
 91
        0
 40
1.0
 10
0.0
 20
0.0
 30
2.000000000000000E+50
 75
     0
  0
DIMASSOC
  5
1A5E
102
{ACAD_REACTORS
330
1A5D
102
}
330
1A5D
100
AcDbDimAssoc
330
1A5C
 90
        2
 70
     0
 71
     0
  1
AcDbOsnapPointRef
 72
     3
331
1A1D
 73
     2
 91
        0
 40
0.0
 10
0.0
 20
0.0
 30
0.0
 75
     0
  0
DIMASSOC
  5
1A61
102
{ACAD_REACTORS
330
1A60
102
}
330
1A60
100
AcDbDimAssoc
330
1A5F
 90
        2
 70
     0
 71
     0
  1
AcDbOsnapPointRef
 72
     3
331
1A49
 73
     2
 91
        0
 40
0.0
 10
0.0
 20
0.0
 30
0.0
 75
     0
  0
DIMASSOC
  5
1A66
102
{ACAD_REACTORS
330
1A65
102
}
330
1A65
100
AcDbDimAssoc
330
1A64
 90
        2
 70
     0
 71
     0
  1
AcDbOsnapPointRef
 72
    13
331
1A34
 73
     2
 91
        0
 40
0.0
 10
0.0
 20
0.0
 30
2.000000000000000E+50
 75
     0
  0
DIMASSOC
  5
1A86
102
{ACAD_REACTORS
330
1A85
102
}
330
1A85
100
AcDbDimAssoc
330
1A84
 90
        1
 70
     0
 71
     0
  1
AcDbOsnapPointRef
 72
    13
331
1A6F
 73
     2
 91
        0
 40
0.0
 10
0.0
 20
0.0
 30
2.000000000000000E+50
 75
     0
  0
DIMASSOC
  5
1A89
102
{ACAD_REACTORS
330
1A88
102
}
330
1A88
100
AcDbDimAssoc
330
1A87
 90
        1
 70
     0
 71
     0
  1
AcDbOsnapPointRef
 72
    13
331
1A07
 73
     2
 91
        0
 40
0.0
 10
0.0
 20
0.0
 30
2.000000000000000E+50
 75
     0
  0
DIMASSOC
  5
1A8C
102
{ACAD_REACTORS
330
1A8B
102
}
330
1A8B
100
AcDbDimAssoc
330
1A8A
 90
        1
 70
     0
 71
     0
  1
AcDbOsnapPointRef
 72
    11
331
1A09
 73
     2
 91
        0
 40
0.0
 10
0.0
 20
0.0
 30
0.0
332
1A05
 74
     2
 92
        0
 75
     0
  0
DIMASSOC
  5
1A90
102
{ACAD_REACTORS
330
1A8F
102
}
330
1A8F
100
AcDbDimAssoc
330
1A8E
 90
        1
 70
     0
 71
     0
  1
AcDbOsnapPointRef
 72
    13
331
1A0F
 73
     2
 91
        0
 40
0.0
 10
0.0
 20
0.0
 30
2.000000000000000E+50
 75
     0
  0
DIMASSOC
  5
1A95
102
{ACAD_REACTORS
330
1A94
102
}
330
1A94
100
AcDbDimAssoc
330
1A93
 90
        1
 70
     0
 71
     0
  1
AcDbOsnapPointRef
 72
    13
331
1A92
 73
     2
 91
        0
 40
0.0
 10
0.0
 20
0.0
 30
2.000000000000000E+50
 75
     0
  0
DIMASSOC
  5
1B14
102
{ACAD_REACTORS
330
1B13
102
}
330
1B13
100
AcDbDimAssoc
330
1B12
 90
        1
 70
     0
 71
     0
  1
AcDbOsnapPointRef
 72
    13
331
1B11
 73
     2
 91
        0
 40
0.0
 10
0.0
 20
0.0
 30
2.000000000000000E+50
 75
     0
  0
DIMASSOC
  5
1C0B
102
{ACAD_REACTORS
330
1C0A
102
}
330
1C0A
100
AcDbDimAssoc
330
1C09
 90
        3
 70
     0
 71
     0
  1
AcDbOsnapPointRef
 72
    13
331
1A48
 73
     2
 91
        0
 40
0.0
 10
0.0
 20
0.0
 30
2.000000000000000E+50
 75
     0
  1
AcDbOsnapPointRef
 72
     1
331
1A47
 73
     2
 91
        0
 40
1.0
 10
0.0
 20
0.0
 30
2.000000000000000E+50
 75
     0
  0
DIMASSOC
  5
1C10
102
{ACAD_REACTORS
330
1C0F
102
}
330
1C0F
100
AcDbDimAssoc
330
1C0E
 90
        1
 70
     0
 71
     0
  1
AcDbOsnapPointRef
 72
    13
331
1C0D
 73
     2
 91
        0
 40
0.0
 10
0.0
 20
0.0
 30
2.000000000000000E+50
 75
     0
  0
DIMASSOC
  5
1C14
102
{ACAD_REACTORS
330
1C13
102
}
330
1C13
100
AcDbDimAssoc
330
1C12
 90
        1
 70
     0
 71
     0
  1
AcDbOsnapPointRef
 72
    13
331
1C11
 73
     2
 91
        0
 40
0.0
 10
0.0
 20
0.0
 30
2.000000000000000E+50
 75
     0
  0
DIMASSOC
  5
1C19
102
{ACAD_REACTORS
330
1C18
102
}
330
1C18
100
AcDbDimAssoc
330
1C17
 90
        1
 70
     0
 71
     0
  1
AcDbOsnapPointRef
 72
    13
331
1C16
 73
     2
 91
        0
 40
0.0
 10
0.0
 20
0.0
 30
2.000000000000000E+50
 75
     0
  0
DIMASSOC
  5
1C2E
102
{ACAD_REACTORS
330
1C2D
102
}
330
1C2D
100
AcDbDimAssoc
330
1C2C
 90
        2
 70
     0
 71
     0
  1
AcDbOsnapPointRef
 72
     3
331
1A12
 73
     2
 91
        0
 40
0.0
 10
0.0
 20
0.0
 30
0.0
 75
     0
  0
DIMASSOC
  5
1C31
102
{ACAD_REACTORS
330
1C30
102
}
330
1C30
100
AcDbDimAssoc
330
1C2F
 90
        2
 70
     0
 71
     0
  1
AcDbOsnapPointRef
 72
     3
331
1C2B
 73
     2
 91
        0
 40
0.0
 10
0.0
 20
0.0
 30
0.0
 75
     0
  0
DIMASSOC
  5
1C34
102
{ACAD_REACTORS
330
1C33
102
}
330
1C33
100
AcDbDimAssoc
330
1C32
 90
        2
 70
     0
 71
     0
  1
AcDbOsnapPointRef
 72
     3
331
1A83
 73
     2
 91
        0
 40
0.0
 10
0.0
 20
0.0
 30
0.0
 75
     0
  0
DIMASSOC
  5
1C37
102
{ACAD_REACTORS
330
1C36
102
}
330
1C36
100
AcDbDimAssoc
330
1C35
 90
        2
 70
     0
 71
     0
  1
AcDbOsnapPointRef
 72
     3
331
1A79
 73
     2
 91
        0
 40
0.0
 10
0.0
 20
0.0
 30
0.0
 75
     0
  0
ACDBDETAILVIEWSTYLE
  5
48E7
102
{ACAD_XDICTIONARY
360
491E
102
}
102
{ACAD_REACTORS
330
48E6
102
}
330
48E6
100
AcDbModelDocViewStyle
 70
     0
  3
Metric50
290
     0
100
AcDbDetailViewStyle
 70
     0
 71
     0
 90
        3
 71
     1
340
11
 62
   256
 40
5.0
340
0
 62
   256
 40
5.0
300

 40
0.0
280
     1
 71
     2
340
16
 90
       25
 62
   256
 71
     3
340
11
 62
   256
 40
5.0
 90
        0
 40
15.0
 90
        1
300
%<\AcVar ViewDetailId>% (%<\AcVar ViewScale \f "%sn">%)
 71
     4
340
16
 90
       25
 62
   256
340
16
 90
       25
 62
   256
280
     0
  0
LAYOUT
  5
71
102
{ACAD_XDICTIONARY
360
28C
102
}
102
{ACAD_REACTORS
330
1A
102
}
330
1A
100
AcDbPlotSettings
  1

  2
none_device
  4
none_user_media
  6

 40
3.96875
 41
16.66873168945312
 42
3.175003051757812
 43
9.965972900390625
 44
210.0438842773438
 45
296.8977661132813
 46
0.0033180722678026
 47
63.39422423475372
 48
0.0
 49
0.0
140
0.0
141
0.0
142
1.0
143
1.463931392077999
 70
   692
 72
     1
 73
     1
 74
     1
  7

 75
     0
147
0.6830921212643269
 76
     0
 77
     2
 78
   300
148
20.02395427876752
149
5.011816723367587
100
AcDbLayout
  1
Gb A4 标题栏
 70
     1
 71
     1
 10
-127.4182497939359
 20
-10.82665186583117
 11
307.2197102571284
 21
296.663184041771
 12
0.0
 22
0.0
 32
0.0
 14
4.97734458046716
 24
55.97694212324916
 34
-0.0015258207003583
 15
185.0043130582636
 25
287.0072081488981
 35
0.0000000349246037
146
0.0
 13
0.0
 23
0.0
 33
0.0
 16
1.0
 26
0.0
 36
0.0
 17
0.0
 27
1.0
 37
0.0
 76
     0
330
72
331
73
1001
AcadStringInfo
1000
MIFCodePage
1070
     5
  0
LAYOUT
  5
22
102
{ACAD_REACTORS
330
1A
102
}
330
1A
100
AcDbPlotSettings
  1

  2
none_device
  4
Letter_(8.50_x_11.00_Inches)
  6

 40
6.349999904632568
 41
6.349999904632568
 42
6.350006103515625
 43
6.350006103515625
 44
215.8999938964844
 45
279.3999938964844
 46
0.0
 47
0.0
 48
0.0
 49
0.0
140
0.0
141
0.0
142
1.0
143
1.0
 70
 11956
 72
     1
 73
     1
 74
     1
  7

 75
     0
147
1.0
 76
     0
 77
     2
 78
   300
148
-76.89329353605074
149
0.0
100
AcDbLayout
  1
Model
 70
     1
 71
     0
 10
0.0
 20
0.0
 11
12.0
 21
9.0
 12
0.0
 22
0.0
 32
0.0
 14
0.0
 24
0.0
 34
0.0
 15
0.0
 25
0.0
 35
0.0
146
0.0
 13
0.0
 23
0.0
 33
0.0
 16
1.0
 26
0.0
 36
0.0
 17
0.0
 27
1.0
 37
0.0
 76
     0
330
1F
331
28F
  0
MATERIAL
  5
2AA
102
{ACAD_REACTORS
330
24D
102
}
330
24D
100
AcDbMaterial
  1
ByBlock
 73
     1
 78
     1
172
     1
176
     1
270
     1
274
     1
 94
       63
  0
MATERIAL
  5
2A9
102
{ACAD_REACTORS
330
24D
102
}
330
24D
100
AcDbMaterial
  1
ByLayer
 73
     1
 78
     1
172
     1
176
     1
270
     1
274
     1
 94
       63
  0
MATERIAL
  5
2AB
102
{ACAD_REACTORS
330
24D
102
}
330
24D
100
AcDbMaterial
  1
Global
 73
     1
 78
     1
172
     1
176
     1
270
     1
274
     1
 94
       63
  0
MLEADERSTYLE
  5
48E2
102
{ACAD_REACTORS
330
48E1
102
}
330
48E1
100
AcDbMLeaderStyle
179
     2
170
     2
171
     1
172
     0
 90
        2
 40
0.0
 41
0.0
173
     1
 91
-1056964608
340
14
 92
       -2
290
     1
 42
2.0
291
     1
 43
0.36
  3
Standard
 44
4.0
300

342
11
174
     1
178
     6
175
     1
176
     0
 93
-1056964608
 45
4.0
292
     0
297
     0
 46
4.0
 94
-1056964608
 47
1.0
 49
1.0
140
1.0
293
     1
141
0.0
294
     1
177
     0
142
1.0
295
     1
296
     0
143
0.125
271
     0
272
     9
273
     9
298
     1
  0
MLINESTYLE
  5
18
102
{ACAD_REACTORS
330
17
102
}
330
17
100
AcDbMlineStyle
  2
STANDARD
 70
     0
  3

 62
   256
 51
90.0
 52
90.0
 71
     2
 49
0.5
 62
   256
  6
BYLAYER
 49
-0.5
 62
   256
  6
BYLAYER
  0
ACDBPLACEHOLDER
  5
F
102
{ACAD_REACTORS
330
E
102
}
330
E
  0
SCALE
  5
48D0
102
{ACAD_REACTORS
330
48CF
102
}
330
48CF
100
AcDbScale
 70
     0
300
1:1
140
1.0
141
1.0
290
     1
  0
SCALE
  5
48D1
102
{ACAD_REACTORS
330
48CF
102
}
330
48CF
100
AcDbScale
 70
     0
300
1:2
140
1.0
141
2.0
290
     0
  0
SCALE
  5
48D2
102
{ACAD_REACTORS
330
48CF
102
}
330
48CF
100
AcDbScale
 70
     0
300
1:4
140
1.0
141
4.0
290
     0
  0
SCALE
  5
48D3
102
{ACAD_REACTORS
330
48CF
102
}
330
48CF
100
AcDbScale
 70
     0
300
1:5
140
1.0
141
5.0
290
     0
  0
SCALE
  5
48D4
102
{ACAD_REACTORS
330
48CF
102
}
330
48CF
100
AcDbScale
 70
     0
300
1:8
140
1.0
141
8.0
290
     0
  0
SCALE
  5
48D5
102
{ACAD_REACTORS
330
48CF
102
}
330
48CF
100
AcDbScale
 70
     0
300
1:10
140
1.0
141
10.0
290
     0
  0
SCALE
  5
48D6
102
{ACAD_REACTORS
330
48CF
102
}
330
48CF
100
AcDbScale
 70
     0
300
1:16
140
1.0
141
16.0
290
     0
  0
SCALE
  5
48D7
102
{ACAD_REACTORS
330
48CF
102
}
330
48CF
100
AcDbScale
 70
     0
300
1:20
140
1.0
141
20.0
290
     0
  0
SCALE
  5
48D8
102
{ACAD_REACTORS
330
48CF
102
}
330
48CF
100
AcDbScale
 70
     0
300
1:30
140
1.0
141
30.0
290
     0
  0
SCALE
  5
48D9
102
{ACAD_REACTORS
330
48CF
102
}
330
48CF
100
AcDbScale
 70
     0
300
1:40
140
1.0
141
40.0
290
     0
  0
SCALE
  5
48DA
102
{ACAD_REACTORS
330
48CF
102
}
330
48CF
100
AcDbScale
 70
     0
300
1:50
140
1.0
141
50.0
290
     0
  0
SCALE
  5
48DB
102
{ACAD_REACTORS
330
48CF
102
}
330
48CF
100
AcDbScale
 70
     0
300
1:100
140
1.0
141
100.0
290
     0
  0
SCALE
  5
48DC
102
{ACAD_REACTORS
330
48CF
102
}
330
48CF
100
AcDbScale
 70
     0
300
2:1
140
2.0
141
1.0
290
     0
  0
SCALE
  5
48DD
102
{ACAD_REACTORS
330
48CF
102
}
330
48CF
100
AcDbScale
 70
     0
300
4:1
140
4.0
141
1.0
290
     0
  0
SCALE
  5
48DE
102
{ACAD_REACTORS
330
48CF
102
}
330
48CF
100
AcDbScale
 70
     0
300
8:1
140
8.0
141
1.0
290
     0
  0
SCALE
  5
48DF
102
{ACAD_REACTORS
330
48CF
102
}
330
48CF
100
AcDbScale
 70
     0
300
10:1
140
10.0
141
1.0
290
     0
  0
SCALE
  5
48E0
102
{ACAD_REACTORS
330
48CF
102
}
330
48CF
100
AcDbScale
 70
     0
300
100:1
140
100.0
141
1.0
290
     0
  0
ACDBSECTIONVIEWSTYLE
  5
48E5
102
{ACAD_XDICTIONARY
360
491C
102
}
102
{ACAD_REACTORS
330
48E3
102
}
330
48E3
100
AcDbModelDocViewStyle
 70
     0
  3
Metric50
290
     0
100
AcDbSectionViewStyle
 70
     0
 71
     0
 90
      102
 71
     1
340
11
 62
   256
 40
5.0
340
0
340
0
 62
   256
 40
5.0
300
I, O, Q, S, X, Z
 40
10.0
 90
        0
 40
2.5
 90
        0
 71
     2
340
16
 90
       25
 62
   256
340
16
 90
       50
 62
   256
 40
5.0
 40
2.5
 40
5.0
 71
     3
340
11
 62
   256
 40
5.0
 90
        0
 40
15.0
 90
        1
300
%<\AcVar ViewSectionStartId>%-%<\AcVar ViewSectionEndId>% (%<\AcVar ViewScale \f "%sn">%)
 71
     4
 62
   256
 62
   257
300
ANSI31
 40
1.0
 90
        0
290
     0
290
     0
 90
        6
 40
0.0
 40
1.570796326794896
 40
0.2617993877991494
 40
1.308996938995747
 40
-0.2617993877991494
 40
1.832595714594046
  0
TABLESTYLE
  5
27D
102
{ACAD_XDICTIONARY
360
491A
102
}
102
{ACAD_REACTORS
330
27C
102
}
330
27C
100
AcDbTableStyle
280
     0
  3
Standard
 70
     0
 71
     0
 40
1.5
 41
1.5
280
     0
281
     0
  7
Standard
140
4.5
170
     2
 62
     0
 63
     7
283
     0
 90
      512
 91
        0
  1

274
    -2
284
     1
 64
     0
275
    -2
285
     1
 65
     0
276
    -2
286
     1
 66
     0
277
    -2
287
     1
 67
     0
278
    -2
288
     1
 68
     0
279
    -2
289
     1
 69
     0
  7
Standard
140
6.0
170
     5
 62
     0
 63
     7
283
     0
 90
      512
 91
        0
  1

274
    -2
284
     1
 64
     0
275
    -2
285
     1
 65
     0
276
    -2
286
     1
 66
     0
277
    -2
287
     1
 67
     0
278
    -2
288
     1
 68
     0
279
    -2
289
     1
 69
     0
  7
Standard
140
4.5
170
     5
 62
     0
 63
     7
283
     0
 90
      512
 91
        0
  1

274
    -2
284
     1
 64
     0
275
    -2
285
     1
 65
     0
276
    -2
286
     1
 66
     0
277
    -2
287
     1
 67
     0
278
    -2
288
     1
 68
     0
279
    -2
289
     1
 69
     0
  0
VISUALSTYLE
  5
2B2
102
{ACAD_REACTORS
330
2AC
102
}
330
2AC
100
AcDbVisualStyle
  2
2dWireframe
 70
     4
177
     3
291
     0
 70
    58
 90
        0
176
     1
 90
        2
176
     1
 90
        1
176
     1
 90
        0
176
     1
 40
0.6
176
     1
 40
30.0
176
     1
 62
     7
420
 16777215
176
     1
 90
        1
176
     1
 90
        4
176
     1
 62
     7
176
     1
 62
   257
176
     1
 90
        1
176
     1
 90
        1
176
     1
 40
1.0
176
     1
 90
        0
176
     1
 62
   257
176
     1
 40
1.0
176
     1
 90
        1
176
     1
 90
        6
176
     1
 90
        2
176
     1
 62
     7
176
     1
 90
        5
176
     1
 90
        0
176
     1
 90
        0
176
     1
290
     0
176
     1
 90
        1
176
     1
 40
0.0
176
     1
 90
        0
176
     1
290
     1
176
     1
290
     1
176
     1
290
     0
176
     1
290
     0
176
     1
290
     0
176
     1
290
     0
176
     1
290
     0
176
     1
290
     0
176
     1
290
     0
176
     1
 90
       50
176
     1
 40
0.0
176
     1
 40
1.0
176
     1
 90
        0
176
     1
 62
    18
420
        0
176
     1
 90
       50
176
     1
 90
        3
176
     1
 62
     5
420
      255
176
     1
290
     0
176
     1
 90
       50
176
     1
 90
       50
176
     1
 90
       50
176
     1
290
     0
176
     1
 90
       50
176
     1
 62
   256
176
     0
 40
1.0
176
     0
 90
        2
176
     1
  1
strokes_ogs.tif
176
     1
290
     0
176
     1
 40
1.0
176
     1
 40
1.0
176
     1
  0
VISUALSTYLE
  5
2B4
102
{ACAD_REACTORS
330
2AC
102
}
330
2AC
100
AcDbVisualStyle
  2
3D Hidden
 70
     6
177
     3
291
     0
 70
    58
 90
        1
176
     1
 90
        2
176
     1
 90
        2
176
     1
 90
        0
176
     1
 40
0.6
176
     1
 40
30.0
176
     1
 62
     7
420
 16777215
176
     1
 90
        2
176
     1
 90
        2
176
     1
 62
     7
176
     1
 62
   257
176
     1
 90
        2
176
     1
 90
        1
176
     1
 40
40.0
176
     1
 90
        0
176
     1
 62
   257
176
     1
 40
1.0
176
     1
 90
        1
176
     1
 90
        6
176
     1
 90
        2
176
     1
 62
     7
176
     1
 90
        3
176
     1
 90
        0
176
     1
 90
        0
176
     1
290
     0
176
     1
 90
        1
176
     1
 40
0.0
176
     1
 90
        0
176
     1
290
     0
176
     1
290
     1
176
     1
290
     1
176
     1
290
     0
176
     1
290
     0
176
     1
290
     0
176
     1
290
     0
176
     1
290
     0
176
     1
290
     0
176
     1
 90
       50
176
     1
 40
0.0
176
     1
 40
1.0
176
     1
 90
        0
176
     1
 62
    18
420
        0
176
     1
 90
       50
176
     1
 90
        3
176
     1
 62
     5
420
      255
176
     1
290
     0
176
     1
 90
       50
176
     1
 90
       50
176
     1
 90
       50
176
     1
290
     0
176
     1
 90
       50
176
     1
 62
   256
176
     0
 40
1.0
176
     0
 90
        2
176
     1
  1
strokes_ogs.tif
176
     1
290
     0
176
     1
 40
1.0
176
     1
 40
1.0
176
     1
  0
VISUALSTYLE
  5
2B3
102
{ACAD_REACTORS
330
2AC
102
}
330
2AC
100
AcDbVisualStyle
  2
3dWireframe
 70
     5
177
     3
291
     0
 70
    58
 90
        0
176
     1
 90
        2
176
     1
 90
        1
176
     1
 90
        0
176
     1
 40
0.6
176
     1
 40
30.0
176
     1
 62
     7
420
 16777215
176
     1
 90
        1
176
     1
 90
        4
176
     1
 62
     7
176
     1
 62
   257
176
     1
 90
        1
176
     1
 90
        1
176
     1
 40
1.0
176
     1
 90
        0
176
     1
 62
   257
176
     1
 40
1.0
176
     1
 90
        1
176
     1
 90
        6
176
     1
 90
        2
176
     1
 62
     7
176
     1
 90
        5
176
     1
 90
        0
176
     1
 90
        0
176
     1
290
     0
176
     1
 90
        1
176
     1
 40
0.0
176
     1
 90
        0
176
     1
290
     0
176
     1
290
     1
176
     1
290
     1
176
     1
290
     0
176
     1
290
     0
176
     1
290
     0
176
     1
290
     0
176
     1
290
     0
176
     1
290
     0
176
     1
 90
       50
176
     1
 40
0.0
176
     1
 40
1.0
176
     1
 90
        0
176
     1
 62
    18
420
        0
176
     1
 90
       50
176
     1
 90
        3
176
     1
 62
     5
420
      255
176
     1
290
     0
176
     1
 90
       50
176
     1
 90
       50
176
     1
 90
       50
176
     1
290
     0
176
     1
 90
       50
176
     1
 62
   256
176
     0
 40
1.0
176
     0
 90
        2
176
     1
  1
strokes_ogs.tif
176
     1
290
     0
176
     1
 40
1.0
176
     1
 40
1.0
176
     1
  0
VISUALSTYLE
  5
2B1
102
{ACAD_REACTORS
330
2AC
102
}
330
2AC
100
AcDbVisualStyle
  2
Basic
 70
     7
177
     3
291
     1
 70
    58
 90
        1
176
     1
 90
        0
176
     1
 90
        1
176
     1
 90
        0
176
     1
 40
0.6
176
     1
 40
30.0
176
     1
 62
     7
420
 16777215
176
     1
 90
        0
176
     1
 90
        4
176
     1
 62
     7
176
     1
 62
   257
176
     1
 90
        1
176
     1
 90
        1
176
     1
 40
1.0
176
     1
 90
        8
176
     1
 62
     7
176
     1
 40
1.0
176
     1
 90
        1
176
     1
 90
        6
176
     1
 90
        2
176
     1
 62
     7
176
     1
 90
        5
176
     1
 90
        0
176
     1
 90
        0
176
     1
290
     0
176
     1
 90
        1
176
     1
 40
0.0
176
     1
 90
        0
176
     1
290
     0
176
     1
290
     1
176
     1
290
     1
176
     1
290
     0
176
     1
290
     0
176
     1
290
     0
176
     1
290
     0
176
     1
290
     0
176
     1
290
     0
176
     1
 90
       50
176
     1
 40
0.0
176
     1
 40
1.0
176
     1
 90
        0
176
     1
 62
    18
420
        0
176
     1
 90
       50
176
     1
 90
        3
176
     1
 62
     5
420
      255
176
     1
290
     0
176
     1
 90
       50
176
     1
 90
       50
176
     1
 90
       50
176
     1
290
     0
176
     1
 90
       50
176
     1
 62
   256
176
     0
 40
1.0
176
     0
 90
        2
176
     1
  1
strokes_ogs.tif
176
     1
290
     0
176
     1
 40
1.0
176
     1
 40
1.0
176
     1
  0
VISUALSTYLE
  5
2B8
102
{ACAD_REACTORS
330
2AC
102
}
330
2AC
100
AcDbVisualStyle
  2
Brighten
 70
    12
177
     3
291
     1
 70
    58
 90
        2
176
     1
 90
        2
176
     1
 90
        1
176
     1
 90
        0
176
     1
 40
0.6
176
     1
 40
30.0
176
     1
 62
     7
420
 16777215
176
     1
 90
        1
176
     1
 90
        4
176
     1
 62
     7
176
     1
 62
   257
176
     1
 90
        1
176
     1
 90
        1
176
     1
 40
1.0
176
     1
 90
        8
176
     1
 62
     7
176
     1
 40
1.0
176
     1
 90
        1
176
     1
 90
        6
176
     1
 90
        2
176
     1
 62
     7
176
     1
 90
        5
176
     1
 90
        0
176
     1
 90
        0
176
     1
290
     0
176
     1
 90
        1
176
     1
 40
50.0
176
     1
 90
        0
176
     1
290
     0
176
     1
290
     1
176
     1
290
     1
176
     1
290
     0
176
     1
290
     0
176
     1
290
     0
176
     1
290
     0
176
     1
290
     0
176
     1
290
     0
176
     1
 90
       50
176
     1
 40
0.0
176
     1
 40
1.0
176
     1
 90
        0
176
     1
 62
    18
420
        0
176
     1
 90
       50
176
     1
 90
        3
176
     1
 62
     5
420
      255
176
     1
290
     0
176
     1
 90
       50
176
     1
 90
       50
176
     1
 90
       50
176
     1
290
     0
176
     1
 90
       50
176
     1
 62
   256
176
     0
 40
1.0
176
     0
 90
        2
176
     1
  1
strokes_ogs.tif
176
     1
290
     0
176
     1
 40
1.0
176
     1
 40
1.0
176
     1
  0
VISUALSTYLE
  5
2BC
102
{ACAD_REACTORS
330
2AC
102
}
330
2AC
100
AcDbVisualStyle
  2
ColorChange
 70
    16
177
     3
291
     1
 70
    58
 90
        2
176
     1
 90
        2
176
     1
 90
        3
176
     1
 90
        0
176
     1
 40
0.6
176
     1
 40
30.0
176
     1
 62
     8
420
  8421504
176
     1
 90
        1
176
     1
 90
        4
176
     1
 62
     7
176
     1
 62
   257
176
     1
 90
        1
176
     1
 90
        1
176
     1
 40
1.0
176
     1
 90
        8
176
     1
 62
     8
420
  8421504
176
     1
 40
1.0
176
     1
 90
        1
176
     1
 90
        6
176
     1
 90
        2
176
     1
 62
     7
176
     1
 90
        5
176
     1
 90
        0
176
     1
 90
        0
176
     1
290
     0
176
     1
 90
        1
176
     1
 40
0.0
176
     1
 90
        0
176
     1
290
     0
176
     1
290
     1
176
     1
290
     1
176
     1
290
     0
176
     1
290
     0
176
     1
290
     0
176
     1
290
     0
176
     1
290
     0
176
     1
290
     0
176
     1
 90
       50
176
     1
 40
0.0
176
     1
 40
1.0
176
     1
 90
        0
176
     1
 62
    18
420
        0
176
     1
 90
       50
176
     1
 90
        3
176
     1
 62
     5
420
      255
176
     1
290
     0
176
     1
 90
       50
176
     1
 90
       50
176
     1
 90
       50
176
     1
290
     0
176
     1
 90
       50
176
     1
 62
   256
176
     0
 40
1.0
176
     0
 90
        2
176
     1
  1
strokes_ogs.tif
176
     1
290
     0
176
     1
 40
1.0
176
     1
 40
1.0
176
     1
  0
VISUALSTYLE
  5
2B5
102
{ACAD_REACTORS
330
2AC
102
}
330
2AC
100
AcDbVisualStyle
  2
Conceptual
 70
     9
177
     3
291
     0
 70
    58
 90
        3
176
     1
 90
        2
176
     1
 90
        1
176
     1
 90
        0
176
     1
 40
0.6
176
     1
 40
30.0
176
     1
 62
     7
420
 16777215
176
     1
 90
        2
176
     1
 90
        2
176
     1
 62
     7
176
     1
 62
   257
176
     1
 90
        1
176
     1
 90
        1
176
     1
 40
40.0
176
     1
 90
        8
176
     1
 62
     7
176
     1
 40
1.0
176
     1
 90
        1
176
     1
 90
        6
176
     1
 90
        2
176
     1
 62
     7
176
     1
 90
        3
176
     1
 90
        0
176
     1
 90
        0
176
     1
290
     0
176
     1
 90
        1
176
     1
 40
0.0
176
     1
 90
        0
176
     1
290
     0
176
     1
290
     1
176
     1
290
     1
176
     1
290
     0
176
     1
290
     0
176
     1
290
     0
176
     1
290
     0
176
     1
290
     0
176
     1
290
     0
176
     1
 90
       50
176
     1
 40
0.0
176
     1
 40
1.0
176
     1
 90
        0
176
     1
 62
    18
420
        0
176
     1
 90
       50
176
     1
 90
        3
176
     1
 62
     5
420
      255
176
     1
290
     0
176
     1
 90
       50
176
     1
 90
       50
176
     1
 90
       50
176
     1
290
     0
176
     1
 90
       50
176
     1
 62
   256
176
     0
 40
1.0
176
     0
 90
        2
176
     1
  1
strokes_ogs.tif
176
     1
290
     0
176
     1
 40
1.0
176
     1
 40
1.0
176
     1
  0
VISUALSTYLE
  5
2B7
102
{ACAD_REACTORS
330
2AC
102
}
330
2AC
100
AcDbVisualStyle
  2
Dim
 70
    11
177
     3
291
     1
 70
    58
 90
        2
176
     1
 90
        2
176
     1
 90
        1
176
     1
 90
        0
176
     1
 40
0.6
176
     1
 40
30.0
176
     1
 62
     7
420
 16777215
176
     1
 90
        1
176
     1
 90
        4
176
     1
 62
     7
176
     1
 62
   257
176
     1
 90
        1
176
     1
 90
        1
176
     1
 40
1.0
176
     1
 90
        8
176
     1
 62
     7
176
     1
 40
1.0
176
     1
 90
        1
176
     1
 90
        6
176
     1
 90
        2
176
     1
 62
     7
176
     1
 90
        5
176
     1
 90
        0
176
     1
 90
        0
176
     1
290
     0
176
     1
 90
        1
176
     1
 40
-50.0
176
     1
 90
        0
176
     1
290
     0
176
     1
290
     1
176
     1
290
     1
176
     1
290
     0
176
     1
290
     0
176
     1
290
     0
176
     1
290
     0
176
     1
290
     0
176
     1
290
     0
176
     1
 90
       50
176
     1
 40
0.0
176
     1
 40
1.0
176
     1
 90
        0
176
     1
 62
    18
420
        0
176
     1
 90
       50
176
     1
 90
        3
176
     1
 62
     5
420
      255
176
     1
290
     0
176
     1
 90
       50
176
     1
 90
       50
176
     1
 90
       50
176
     1
290
     0
176
     1
 90
       50
176
     1
 62
   256
176
     0
 40
1.0
176
     0
 90
        2
176
     1
  1
strokes_ogs.tif
176
     1
290
     0
176
     1
 40
1.0
176
     1
 40
1.0
176
     1
  0
VISUALSTYLE
  5
48CE
102
{ACAD_REACTORS
330
2AC
102
}
330
2AC
100
AcDbVisualStyle
  2
EdgeColorOff
 70
    22
177
     3
291
     1
 70
    58
 90
        2
176
     0
 90
        2
176
     0
 90
        0
176
     0
 90
        0
176
     0
 40
0.6
176
     0
 40
30.0
176
     0
 62
     7
420
 16777215
176
     0
 90
        1
176
     0
 90
        4
176
     0
 62
     7
176
     0
 62
   257
176
     0
 90
        1
176
     0
 90
        1
176
     0
 40
1.0
176
     0
 90
        8
176
     2
 62
     7
176
     0
 40
1.0
176
     0
 90
        1
176
     0
 90
        6
176
     0
 90
        2
176
     0
 62
     7
176
     0
 90
        5
176
     0
 90
        0
176
     0
 90
        0
176
     0
290
     0
176
     0
 90
        1
176
     0
 40
0.0
176
     0
 90
        0
176
     0
290
     0
176
     0
290
     1
176
     0
290
     1
176
     0
290
     0
176
     0
290
     0
176
     0
290
     0
176
     0
290
     0
176
     0
290
     0
176
     0
290
     0
176
     0
 90
       50
176
     0
 40
0.0
176
     0
 40
1.0
176
     0
 90
        0
176
     0
 62
    18
420
        0
176
     0
 90
       50
176
     0
 90
        3
176
     0
 62
     5
420
      255
176
     0
290
     0
176
     0
 90
       50
176
     0
 90
       50
176
     0
 90
       50
176
     0
290
     0
176
     0
 90
       50
176
     0
 62
   256
176
     0
 40
1.0
176
     0
 90
        2
176
     0
  1
strokes_ogs.tif
176
     0
290
     0
176
     0
 40
1.0
176
     0
 40
1.0
176
     0
  0
VISUALSTYLE
  5
2BB
102
{ACAD_REACTORS
330
2AC
102
}
330
2AC
100
AcDbVisualStyle
  2
Facepattern
 70
    15
177
     3
291
     1
 70
    58
 90
        2
176
     1
 90
        2
176
     1
 90
        1
176
     1
 90
        0
176
     1
 40
0.6
176
     1
 40
30.0
176
     1
 62
     7
420
 16777215
176
     1
 90
        1
176
     1
 90
        4
176
     1
 62
     7
176
     1
 62
   257
176
     1
 90
        1
176
     1
 90
        1
176
     1
 40
1.0
176
     1
 90
        8
176
     1
 62
     7
176
     1
 40
1.0
176
     1
 90
        1
176
     1
 90
        6
176
     1
 90
        2
176
     1
 62
     7
176
     1
 90
        5
176
     1
 90
        0
176
     1
 90
        0
176
     1
290
     0
176
     1
 90
        1
176
     1
 40
0.0
176
     1
 90
        0
176
     1
290
     0
176
     1
290
     1
176
     1
290
     1
176
     1
290
     0
176
     1
290
     0
176
     1
290
     0
176
     1
290
     0
176
     1
290
     0
176
     1
290
     0
176
     1
 90
       50
176
     1
 40
0.0
176
     1
 40
1.0
176
     1
 90
        0
176
     1
 62
    18
420
        0
176
     1
 90
       50
176
     1
 90
        3
176
     1
 62
     5
420
      255
176
     1
290
     0
176
     1
 90
       50
176
     1
 90
       50
176
     1
 90
       50
176
     1
290
     0
176
     1
 90
       50
176
     1
 62
   256
176
     0
 40
1.0
176
     0
 90
        2
176
     1
  1
strokes_ogs.tif
176
     1
290
     0
176
     1
 40
1.0
176
     1
 40
1.0
176
     1
  0
VISUALSTYLE
  5
2AD
102
{ACAD_REACTORS
330
2AC
102
}
330
2AC
100
AcDbVisualStyle
  2
Flat
 70
     0
177
     3
291
     1
 70
    58
 90
        2
176
     1
 90
        1
176
     1
 90
        1
176
     1
 90
        2
176
     1
 40
0.6
176
     1
 40
30.0
176
     1
 62
     7
420
 16777215
176
     1
 90
        0
176
     1
 90
        4
176
     1
 62
     7
176
     1
 62
   257
176
     1
 90
        1
176
     1
 90
        1
176
     1
 40
1.0
176
     1
 90
        8
176
     1
 62
     7
176
     1
 40
1.0
176
     1
 90
        1
176
     1
 90
        6
176
     1
 90
        2
176
     1
 62
     7
176
     1
 90
        5
176
     1
 90
        0
176
     1
 90
        0
176
     1
290
     0
176
     1
 90
        1
176
     1
 40
0.0
176
     1
 90
        0
176
     1
290
     0
176
     1
290
     1
176
     1
290
     1
176
     1
290
     0
176
     1
290
     0
176
     1
290
     0
176
     1
290
     0
176
     1
290
     0
176
     1
290
     0
176
     1
 90
       50
176
     1
 40
0.0
176
     1
 40
1.0
176
     1
 90
        0
176
     1
 62
    18
420
        0
176
     1
 90
       50
176
     1
 90
        3
176
     1
 62
     5
420
      255
176
     1
290
     0
176
     1
 90
       50
176
     1
 90
       50
176
     1
 90
       50
176
     1
290
     0
176
     1
 90
       50
176
     1
 62
   256
176
     0
 40
1.0
176
     0
 90
        2
176
     1
  1
strokes_ogs.tif
176
     1
290
     0
176
     1
 40
1.0
176
     1
 40
1.0
176
     1
  0
VISUALSTYLE
  5
2AE
102
{ACAD_REACTORS
330
2AC
102
}
330
2AC
100
AcDbVisualStyle
  2
FlatWithEdges
 70
     1
177
     3
291
     1
 70
    58
 90
        2
176
     1
 90
        1
176
     1
 90
        1
176
     1
 90
        2
176
     1
 40
0.6
176
     1
 40
30.0
176
     1
 62
     7
420
 16777215
176
     1
 90
        1
176
     1
 90
        4
176
     1
 62
     7
176
     1
 62
   257
176
     1
 90
        1
176
     1
 90
        1
176
     1
 40
1.0
176
     1
 90
        0
176
     1
 62
   257
176
     1
 40
1.0
176
     1
 90
        1
176
     1
 90
        6
176
     1
 90
        2
176
     1
 62
     7
176
     1
 90
        5
176
     1
 90
        0
176
     1
 90
        0
176
     1
290
     0
176
     1
 90
        1
176
     1
 40
0.0
176
     1
 90
        0
176
     1
290
     0
176
     1
290
     1
176
     1
290
     1
176
     1
290
     0
176
     1
290
     0
176
     1
290
     0
176
     1
290
     0
176
     1
290
     0
176
     1
290
     0
176
     1
 90
       50
176
     1
 40
0.0
176
     1
 40
1.0
176
     1
 90
        0
176
     1
 62
    18
420
        0
176
     1
 90
       50
176
     1
 90
        3
176
     1
 62
     5
420
      255
176
     1
290
     0
176
     1
 90
       50
176
     1
 90
       50
176
     1
 90
       50
176
     1
290
     0
176
     1
 90
       50
176
     1
 62
   256
176
     0
 40
1.0
176
     0
 90
        2
176
     1
  1
strokes_ogs.tif
176
     1
290
     0
176
     1
 40
1.0
176
     1
 40
1.0
176
     1
  0
VISUALSTYLE
  5
2AF
102
{ACAD_REACTORS
330
2AC
102
}
330
2AC
100
AcDbVisualStyle
  2
Gouraud
 70
     2
177
     3
291
     1
 70
    58
 90
        2
176
     1
 90
        2
176
     1
 90
        1
176
     1
 90
        2
176
     1
 40
0.6
176
     1
 40
30.0
176
     1
 62
     7
420
 16777215
176
     1
 90
        0
176
     1
 90
        4
176
     1
 62
     7
176
     1
 62
   257
176
     1
 90
        1
176
     1
 90
        1
176
     1
 40
1.0
176
     1
 90
        0
176
     1
 62
     7
176
     1
 40
1.0
176
     1
 90
        1
176
     1
 90
        6
176
     1
 90
        2
176
     1
 62
     7
176
     1
 90
        5
176
     1
 90
        0
176
     1
 90
        0
176
     1
290
     0
176
     1
 90
        1
176
     1
 40
0.0
176
     1
 90
        0
176
     1
290
     0
176
     1
290
     1
176
     1
290
     1
176
     1
290
     0
176
     1
290
     0
176
     1
290
     0
176
     1
290
     0
176
     1
290
     0
176
     1
290
     0
176
     1
 90
       50
176
     1
 40
0.0
176
     1
 40
1.0
176
     1
 90
        0
176
     1
 62
    18
420
        0
176
     1
 90
       50
176
     1
 90
        3
176
     1
 62
     5
420
      255
176
     1
290
     0
176
     1
 90
       50
176
     1
 90
       50
176
     1
 90
       50
176
     1
290
     0
176
     1
 90
       50
176
     1
 62
   256
176
     0
 40
1.0
176
     0
 90
        2
176
     1
  1
strokes_ogs.tif
176
     1
290
     0
176
     1
 40
1.0
176
     1
 40
1.0
176
     1
  0
VISUALSTYLE
  5
2B0
102
{ACAD_REACTORS
330
2AC
102
}
330
2AC
100
AcDbVisualStyle
  2
GouraudWithEdges
 70
     3
177
     3
291
     1
 70
    58
 90
        2
176
     1
 90
        2
176
     1
 90
        1
176
     1
 90
        2
176
     1
 40
0.6
176
     1
 40
30.0
176
     1
 62
     7
420
 16777215
176
     1
 90
        1
176
     1
 90
        4
176
     1
 62
     7
176
     1
 62
   257
176
     1
 90
        1
176
     1
 90
        1
176
     1
 40
1.0
176
     1
 90
        0
176
     1
 62
   257
176
     1
 40
1.0
176
     1
 90
        1
176
     1
 90
        6
176
     1
 90
        2
176
     1
 62
     7
176
     1
 90
        5
176
     1
 90
        0
176
     1
 90
        0
176
     1
290
     0
176
     1
 90
        1
176
     1
 40
0.0
176
     1
 90
        0
176
     1
290
     0
176
     1
290
     1
176
     1
290
     1
176
     1
290
     0
176
     1
290
     0
176
     1
290
     0
176
     1
290
     0
176
     1
290
     0
176
     1
290
     0
176
     1
 90
       50
176
     1
 40
0.0
176
     1
 40
1.0
176
     1
 90
        0
176
     1
 62
    18
420
        0
176
     1
 90
       50
176
     1
 90
        3
176
     1
 62
     5
420
      255
176
     1
290
     0
176
     1
 90
       50
176
     1
 90
       50
176
     1
 90
       50
176
     1
290
     0
176
     1
 90
       50
176
     1
 62
   256
176
     0
 40
1.0
176
     0
 90
        2
176
     1
  1
strokes_ogs.tif
176
     1
290
     0
176
     1
 40
1.0
176
     1
 40
1.0
176
     1
  0
VISUALSTYLE
  5
48C6
102
{ACAD_REACTORS
330
2AC
102
}
330
2AC
100
AcDbVisualStyle
  2
Hidden
 70
     6
177
     3
291
     0
 70
    58
 90
        1
176
     1
 90
        2
176
     1
 90
        2
176
     1
 90
        0
176
     1
 40
0.6
176
     1
 40
30.0
176
     1
 62
     7
420
 16777215
176
     1
 90
        2
176
     1
 90
        2
176
     1
 62
     7
176
     1
 62
   257
176
     1
 90
        2
176
     1
 90
        1
176
     1
 40
40.0
176
     1
 90
        0
176
     1
 62
   257
176
     1
 40
1.0
176
     1
 90
        1
176
     1
 90
        6
176
     1
 90
        2
176
     1
 62
     7
176
     1
 90
        3
176
     1
 90
        0
176
     1
 90
        0
176
     1
290
     0
176
     1
 90
        1
176
     1
 40
0.0
176
     1
 90
        0
176
     1
290
     0
176
     1
290
     1
176
     1
290
     1
176
     1
290
     0
176
     1
290
     0
176
     1
290
     0
176
     1
290
     0
176
     1
290
     0
176
     1
290
     0
176
     1
 90
       50
176
     1
 40
0.0
176
     1
 40
1.0
176
     1
 90
        0
176
     1
 62
    18
420
        0
176
     1
 90
       50
176
     1
 90
        3
176
     1
 62
     5
420
      255
176
     1
290
     0
176
     1
 90
       50
176
     1
 90
       50
176
     1
 90
       50
176
     1
290
     0
176
     1
 90
       50
176
     1
 62
   256
176
     0
 40
1.0
176
     0
 90
        2
176
     1
  1
strokes_ogs.tif
176
     1
290
     0
176
     1
 40
1.0
176
     1
 40
1.0
176
     1
  0
VISUALSTYLE
  5
48CC
102
{ACAD_REACTORS
330
2AC
102
}
330
2AC
100
AcDbVisualStyle
  2
JitterOff
 70
    20
177
     3
291
     1
 70
    58
 90
        2
176
     0
 90
        2
176
     0
 90
        0
176
     0
 90
        0
176
     0
 40
0.6
176
     0
 40
30.0
176
     0
 62
     7
420
 16777215
176
     0
 90
        1
176
     0
 90
        4
176
     0
 62
     7
176
     0
 62
   257
176
     0
 90
        1
176
     0
 90
        1
176
     0
 40
1.0
176
     0
 90
       10
176
     2
 62
     7
176
     0
 40
1.0
176
     0
 90
        1
176
     0
 90
        6
176
     0
 90
        2
176
     0
 62
     7
176
     0
 90
        5
176
     0
 90
        0
176
     0
 90
        0
176
     0
290
     0
176
     0
 90
        1
176
     0
 40
0.0
176
     0
 90
        0
176
     0
290
     0
176
     0
290
     1
176
     0
290
     1
176
     0
290
     0
176
     0
290
     0
176
     0
290
     0
176
     0
290
     0
176
     0
290
     0
176
     0
290
     0
176
     0
 90
       50
176
     0
 40
0.0
176
     0
 40
1.0
176
     0
 90
        0
176
     0
 62
    18
420
        0
176
     0
 90
       50
176
     0
 90
        3
176
     0
 62
     5
420
      255
176
     0
290
     0
176
     0
 90
       50
176
     0
 90
       50
176
     0
 90
       50
176
     0
290
     0
176
     0
 90
       50
176
     0
 62
   256
176
     0
 40
1.0
176
     0
 90
        2
176
     0
  1
strokes_ogs.tif
176
     0
290
     0
176
     0
 40
1.0
176
     0
 40
1.0
176
     0
  0
VISUALSTYLE
  5
2BA
102
{ACAD_REACTORS
330
2AC
102
}
330
2AC
100
AcDbVisualStyle
  2
Linepattern
 70
    14
177
     3
291
     1
 70
    58
 90
        2
176
     1
 90
        2
176
     1
 90
        1
176
     1
 90
        0
176
     1
 40
0.6
176
     1
 40
30.0
176
     1
 62
     7
420
 16777215
176
     1
 90
        1
176
     1
 90
        4
176
     1
 62
     7
176
     1
 62
   257
176
     1
 90
        7
176
     1
 90
        7
176
     1
 40
1.0
176
     1
 90
        8
176
     1
 62
     7
176
     1
 40
1.0
176
     1
 90
        1
176
     1
 90
        6
176
     1
 90
        2
176
     1
 62
     7
176
     1
 90
        5
176
     1
 90
        0
176
     1
 90
        0
176
     1
290
     0
176
     1
 90
        1
176
     1
 40
0.0
176
     1
 90
        0
176
     1
290
     0
176
     1
290
     1
176
     1
290
     1
176
     1
290
     0
176
     1
290
     0
176
     1
290
     0
176
     1
290
     0
176
     1
290
     0
176
     1
290
     0
176
     1
 90
       50
176
     1
 40
0.0
176
     1
 40
1.0
176
     1
 90
        0
176
     1
 62
    18
420
        0
176
     1
 90
       50
176
     1
 90
        3
176
     1
 62
     5
420
      255
176
     1
290
     0
176
     1
 90
       50
176
     1
 90
       50
176
     1
 90
       50
176
     1
290
     0
176
     1
 90
       50
176
     1
 62
   256
176
     0
 40
1.0
176
     0
 90
        2
176
     1
  1
strokes_ogs.tif
176
     1
290
     0
176
     1
 40
1.0
176
     1
 40
1.0
176
     1
  0
VISUALSTYLE
  5
48CD
102
{ACAD_REACTORS
330
2AC
102
}
330
2AC
100
AcDbVisualStyle
  2
OverhangOff
 70
    21
177
     3
291
     1
 70
    58
 90
        2
176
     0
 90
        2
176
     0
 90
        0
176
     0
 90
        0
176
     0
 40
0.6
176
     0
 40
30.0
176
     0
 62
     7
420
 16777215
176
     0
 90
        1
176
     0
 90
        4
176
     0
 62
     7
176
     0
 62
   257
176
     0
 90
        1
176
     0
 90
        1
176
     0
 40
1.0
176
     0
 90
        9
176
     2
 62
     7
176
     0
 40
1.0
176
     0
 90
        1
176
     0
 90
        6
176
     0
 90
        2
176
     0
 62
     7
176
     0
 90
        5
176
     0
 90
        0
176
     0
 90
        0
176
     0
290
     0
176
     0
 90
        1
176
     0
 40
0.0
176
     0
 90
        0
176
     0
290
     0
176
     0
290
     1
176
     0
290
     1
176
     0
290
     0
176
     0
290
     0
176
     0
290
     0
176
     0
290
     0
176
     0
290
     0
176
     0
290
     0
176
     0
 90
       50
176
     0
 40
0.0
176
     0
 40
1.0
176
     0
 90
        0
176
     0
 62
    18
420
        0
176
     0
 90
       50
176
     0
 90
        3
176
     0
 62
     5
420
      255
176
     0
290
     0
176
     0
 90
       50
176
     0
 90
       50
176
     0
 90
       50
176
     0
290
     0
176
     0
 90
       50
176
     0
 62
   256
176
     0
 40
1.0
176
     0
 90
        2
176
     0
  1
strokes_ogs.tif
176
     0
290
     0
176
     0
 40
1.0
176
     0
 40
1.0
176
     0
  0
VISUALSTYLE
  5
2B6
102
{ACAD_REACTORS
330
2AC
102
}
330
2AC
100
AcDbVisualStyle
  2
Realistic
 70
     8
177
     3
291
     0
 70
    58
 90
        2
176
     1
 90
        2
176
     1
 90
        1
176
     1
 90
        0
176
     1
 40
0.6
176
     1
 40
30.0
176
     1
 62
     7
420
 16777215
176
     1
 90
        1
176
     1
 90
        0
176
     1
 62
     7
176
     1
 62
   257
176
     1
 90
        1
176
     1
 90
        1
176
     1
 40
1.0
176
     1
 90
        8
176
     1
 62
     8
420
  7895160
176
     1
 40
1.0
176
     1
 90
        1
176
     1
 90
        6
176
     1
 90
        2
176
     1
 62
     7
176
     1
 90
        5
176
     1
 90
        0
176
     1
 90
        0
176
     1
290
     0
176
     1
 90
       13
176
     1
 40
0.0
176
     1
 90
        0
176
     1
290
     0
176
     1
290
     1
176
     1
290
     1
176
     1
290
     0
176
     1
290
     0
176
     1
290
     0
176
     1
290
     0
176
     1
290
     0
176
     1
290
     0
176
     1
 90
       50
176
     1
 40
0.0
176
     1
 40
1.0
176
     1
 90
        0
176
     1
 62
    18
420
        0
176
     1
 90
       50
176
     1
 90
        3
176
     1
 62
     5
420
      255
176
     1
290
     0
176
     1
 90
       50
176
     1
 90
       50
176
     1
 90
       50
176
     1
290
     0
176
     1
 90
       50
176
     1
 62
   256
176
     0
 40
1.0
176
     0
 90
        2
176
     1
  1
strokes_ogs.tif
176
     1
290
     0
176
     1
 40
1.0
176
     1
 40
1.0
176
     1
  0
VISUALSTYLE
  5
48CB
102
{ACAD_REACTORS
330
2AC
102
}
330
2AC
100
AcDbVisualStyle
  2
Shaded
 70
    27
177
     3
291
     0
 70
    58
 90
        2
176
     1
 90
        2
176
     1
 90
        1
176
     1
 90
        2
176
     1
 40
0.6
176
     1
 40
30.0
176
     1
 62
     7
420
 16777215
176
     1
 90
        0
176
     1
 90
        4
176
     1
 62
     7
176
     1
 62
   257
176
     1
 90
        1
176
     1
 90
        1
176
     1
 40
1.0
176
     1
 90
        8
176
     1
 62
   257
176
     1
 40
1.0
176
     1
 90
        1
176
     1
 90
        6
176
     1
 90
        2
176
     1
 62
     8
420
  7895160
176
     1
 90
        3
176
     1
 90
        0
176
     1
 90
        0
176
     1
290
     0
176
     1
 90
        5
176
     1
 40
0.0
176
     1
 90
        0
176
     1
290
     0
176
     1
290
     1
176
     1
290
     1
176
     1
290
     0
176
     1
290
     0
176
     1
290
     0
176
     1
290
     0
176
     1
290
     0
176
     1
290
     0
176
     1
 90
       50
176
     1
 40
0.0
176
     1
 40
1.0
176
     1
 90
        0
176
     1
 62
    18
420
        0
176
     1
 90
       50
176
     1
 90
        3
176
     1
 62
     5
420
      255
176
     1
290
     0
176
     1
 90
       50
176
     1
 90
       50
176
     1
 90
       50
176
     1
290
     0
176
     1
 90
       50
176
     1
 62
   256
176
     0
 40
1.0
176
     0
 90
        2
176
     1
  1
strokes_ogs.tif
176
     1
290
     0
176
     1
 40
1.0
176
     1
 40
1.0
176
     1
  0
VISUALSTYLE
  5
48CA
102
{ACAD_REACTORS
330
2AC
102
}
330
2AC
100
AcDbVisualStyle
  2
Shaded with edges
 70
    26
177
     3
291
     0
 70
    58
 90
        2
176
     1
 90
        2
176
     1
 90
        1
176
     1
 90
        2
176
     1
 40
0.6
176
     1
 40
30.0
176
     1
 62
     7
420
 16777215
176
     1
 90
        1
176
     1
 90
        2
176
     1
 62
     7
176
     1
 62
   257
176
     1
 90
        2
176
     1
 90
        1
176
     1
 40
1.0
176
     1
 90
        8
176
     1
 62
   257
176
     1
 40
1.0
176
     1
 90
        1
176
     1
 90
        6
176
     1
 90
        2
176
     1
 62
     7
176
     1
 90
        3
176
     1
 90
        0
176
     1
 90
        0
176
     1
290
     0
176
     1
 90
        5
176
     1
 40
0.0
176
     1
 90
        0
176
     1
290
     0
176
     1
290
     1
176
     1
290
     1
176
     1
290
     0
176
     1
290
     0
176
     1
290
     0
176
     1
290
     0
176
     1
290
     0
176
     1
290
     0
176
     1
 90
       50
176
     1
 40
0.0
176
     1
 40
1.0
176
     1
 90
        0
176
     1
 62
    18
420
        0
176
     1
 90
       50
176
     1
 90
        3
176
     1
 62
     5
420
      255
176
     1
290
     0
176
     1
 90
       50
176
     1
 90
       50
176
     1
 90
       50
176
     1
290
     0
176
     1
 90
       50
176
     1
 62
   256
176
     0
 40
1.0
176
     0
 90
        2
176
     1
  1
strokes_ogs.tif
176
     1
290
     0
176
     1
 40
1.0
176
     1
 40
1.0
176
     1
  0
VISUALSTYLE
  5
48C7
102
{ACAD_REACTORS
330
2AC
102
}
330
2AC
100
AcDbVisualStyle
  2
Shades of Gray
 70
    23
177
     3
291
     0
 70
    58
 90
        2
176
     1
 90
        2
176
     1
 90
        3
176
     1
 90
        0
176
     1
 40
0.6
176
     1
 40
30.0
176
     1
 62
     7
420
 16777215
176
     1
 90
        2
176
     1
 90
        2
176
     1
 62
     7
176
     1
 62
     7
176
     1
 90
        1
176
     1
 90
        1
176
     1
 40
40.0
176
     1
 90
        8
176
     1
 62
     7
176
     1
 40
1.0
176
     1
 90
        1
176
     1
 90
        6
176
     1
 90
        2
176
     1
 62
     7
176
     1
 90
        3
176
     1
 90
        0
176
     1
 90
        0
176
     1
290
     0
176
     1
 90
        1
176
     1
 40
0.0
176
     1
 90
        0
176
     1
290
     0
176
     1
290
     1
176
     1
290
     1
176
     1
290
     0
176
     1
290
     0
176
     1
290
     0
176
     1
290
     0
176
     1
290
     0
176
     1
290
     0
176
     1
 90
       50
176
     1
 40
0.0
176
     1
 40
1.0
176
     1
 90
        0
176
     1
 62
    18
420
        0
176
     1
 90
       50
176
     1
 90
        3
176
     1
 62
     5
420
      255
176
     1
290
     0
176
     1
 90
       50
176
     1
 90
       50
176
     1
 90
       50
176
     1
290
     0
176
     1
 90
       50
176
     1
 62
   256
176
     0
 40
1.0
176
     0
 90
        2
176
     1
  1
strokes_ogs.tif
176
     1
290
     0
176
     1
 40
1.0
176
     1
 40
1.0
176
     1
  0
VISUALSTYLE
  5
48C8
102
{ACAD_REACTORS
330
2AC
102
}
330
2AC
100
AcDbVisualStyle
  2
Sketchy
 70
    24
177
     3
291
     0
 70
    58
 90
        1
176
     1
 90
        2
176
     1
 90
        2
176
     1
 90
        0
176
     1
 40
0.6
176
     1
 40
30.0
176
     1
 62
     7
420
 16777215
176
     1
 90
        2
176
     1
 90
        2
176
     1
 62
     7
176
     1
 62
     7
176
     1
 90
        1
176
     1
 90
        1
176
     1
 40
40.0
176
     1
 90
       11
176
     1
 62
     7
176
     1
 40
1.0
176
     1
 90
        1
176
     1
 90
        6
176
     1
 90
        2
176
     1
 62
     7
176
     1
 90
        6
176
     1
 90
        0
176
     1
 90
        0
176
     1
290
     0
176
     1
 90
        1
176
     1
 40
0.0
176
     1
 90
        0
176
     1
290
     0
176
     1
290
     1
176
     1
290
     1
176
     1
290
     0
176
     1
290
     0
176
     1
290
     0
176
     1
290
     0
176
     1
290
     0
176
     1
290
     0
176
     1
 90
       50
176
     1
 40
0.0
176
     1
 40
1.0
176
     1
 90
        0
176
     1
 62
    18
420
        0
176
     1
 90
       50
176
     1
 90
        3
176
     1
 62
     5
420
      255
176
     1
290
     0
176
     1
 90
       50
176
     1
 90
       50
176
     1
 90
       50
176
     1
290
     0
176
     1
 90
       50
176
     1
 62
   256
176
     0
 40
1.0
176
     0
 90
        2
176
     1
  1
strokes_ogs.tif
176
     1
290
     0
176
     1
 40
1.0
176
     1
 40
1.0
176
     1
  0
VISUALSTYLE
  5
2B9
102
{ACAD_REACTORS
330
2AC
102
}
330
2AC
100
AcDbVisualStyle
  2
Thicken
 70
    13
177
     3
291
     1
 70
    58
 90
        2
176
     1
 90
        2
176
     1
 90
        1
176
     1
 90
        0
176
     1
 40
0.6
176
     1
 40
30.0
176
     1
 62
     7
420
 16777215
176
     1
 90
        1
176
     1
 90
        4
176
     1
 62
     7
176
     1
 62
   257
176
     1
 90
        1
176
     1
 90
        1
176
     1
 40
1.0
176
     1
 90
       12
176
     1
 62
     7
176
     1
 40
1.0
176
     1
 90
        1
176
     1
 90
        6
176
     1
 90
        2
176
     1
 62
     7
176
     1
 90
        5
176
     1
 90
        0
176
     1
 90
        0
176
     1
290
     0
176
     1
 90
        1
176
     1
 40
0.0
176
     1
 90
        0
176
     1
290
     0
176
     1
290
     1
176
     1
290
     1
176
     1
290
     0
176
     1
290
     0
176
     1
290
     0
176
     1
290
     0
176
     1
290
     0
176
     1
290
     0
176
     1
 90
       50
176
     1
 40
0.0
176
     1
 40
1.0
176
     1
 90
        0
176
     1
 62
    18
420
        0
176
     1
 90
       50
176
     1
 90
        3
176
     1
 62
     5
420
      255
176
     1
290
     0
176
     1
 90
       50
176
     1
 90
       50
176
     1
 90
       50
176
     1
290
     0
176
     1
 90
       50
176
     1
 62
   256
176
     0
 40
1.0
176
     0
 90
        2
176
     1
  1
strokes_ogs.tif
176
     1
290
     0
176
     1
 40
1.0
176
     1
 40
1.0
176
     1
  0
VISUALSTYLE
  5
48C5
102
{ACAD_REACTORS
330
2AC
102
}
330
2AC
100
AcDbVisualStyle
  2
Wireframe
 70
     5
177
     3
291
     0
 70
    58
 90
        0
176
     1
 90
        2
176
     1
 90
        0
176
     1
 90
        0
176
     1
 40
0.6
176
     1
 40
30.0
176
     1
 62
     7
420
 16777215
176
     1
 90
        1
176
     1
 90
        4
176
     1
 62
     7
176
     1
 62
   257
176
     1
 90
        1
176
     1
 90
        1
176
     1
 40
1.0
176
     1
 90
        0
176
     1
 62
   257
176
     1
 40
1.0
176
     1
 90
        1
176
     1
 90
        6
176
     1
 90
        2
176
     1
 62
     7
176
     1
 90
        3
176
     1
 90
        0
176
     1
 90
        0
176
     1
290
     0
176
     1
 90
        1
176
     1
 40
0.0
176
     1
 90
        0
176
     1
290
     0
176
     1
290
     1
176
     1
290
     1
176
     1
290
     0
176
     1
290
     0
176
     1
290
     0
176
     1
290
     0
176
     1
290
     0
176
     1
290
     0
176
     1
 90
       50
176
     1
 40
0.0
176
     1
 40
1.0
176
     1
 90
        0
176
     1
 62
    18
420
        0
176
     1
 90
       50
176
     1
 90
        3
176
     1
 62
     5
420
      255
176
     1
290
     0
176
     1
 90
       50
176
     1
 90
       50
176
     1
 90
       50
176
     1
290
     0
176
     1
 90
       50
176
     1
 62
   256
176
     0
 40
1.0
176
     0
 90
        2
176
     1
  1
strokes_ogs.tif
176
     1
290
     0
176
     1
 40
1.0
176
     1
 40
1.0
176
     1
  0
VISUALSTYLE
  5
48C9
102
{ACAD_REACTORS
330
2AC
102
}
330
2AC
100
AcDbVisualStyle
  2
X-Ray
 70
    25
177
     3
291
     0
 70
    58
 90
        2
176
     1
 90
        2
176
     1
 90
        1
176
     1
 90
        1
176
     1
 40
0.5
176
     1
 40
30.0
176
     1
 62
     7
420
 16777215
176
     1
 90
        1
176
     1
 90
        0
176
     1
 62
     7
176
     1
 62
   257
176
     1
 90
        1
176
     1
 90
        1
176
     1
 40
1.0
176
     1
 90
        8
176
     1
 62
     7
176
     1
 40
1.0
176
     1
 90
        1
176
     1
 90
        6
176
     1
 90
        2
176
     1
 62
     7
176
     1
 90
        3
176
     1
 90
        0
176
     1
 90
        0
176
     1
290
     0
176
     1
 90
       13
176
     1
 40
0.0
176
     1
 90
        0
176
     1
290
     0
176
     1
290
     1
176
     1
290
     1
176
     1
290
     0
176
     1
290
     0
176
     1
290
     0
176
     1
290
     0
176
     1
290
     0
176
     1
290
     0
176
     1
 90
       50
176
     1
 40
0.0
176
     1
 40
1.0
176
     1
 90
        0
176
     1
 62
    18
420
        0
176
     1
 90
       50
176
     1
 90
        3
176
     1
 62
     5
420
      255
176
     1
290
     0
176
     1
 90
       50
176
     1
 90
       50
176
     1
 90
       50
176
     1
290
     0
176
     1
 90
       50
176
     1
 62
   256
176
     0
 40
1.0
176
     0
 90
        2
176
     1
  1
strokes_ogs.tif
176
     1
290
     0
176
     1
 40
1.0
176
     1
 40
1.0
176
     1
  0
DICTIONARYVAR
  5
4916
102
{ACAD_REACTORS
330
23A
102
}
330
23A
100
DictionaryVariables
280
     0
  1
1:1
  0
DICTIONARYVAR
  5
4912
102
{ACAD_REACTORS
330
23A
102
}
330
23A
100
DictionaryVariables
280
     0
  1
STANDARD
  0
DICTIONARYVAR
  5
290
102
{ACAD_REACTORS
330
23A
102
}
330
23A
100
DictionaryVariables
280
     0
  1
STANDARD
  0
DICTIONARYVAR
  5
4913
102
{ACAD_REACTORS
330
23A
102
}
330
23A
100
DictionaryVariables
280
     0
  1
Metric50
  0
DICTIONARYVAR
  5
4914
102
{ACAD_REACTORS
330
23A
102
}
330
23A
100
DictionaryVariables
280
     0
  1
Metric50
  0
DICTIONARYVAR
  5
23C
102
{ACAD_REACTORS
330
23A
102
}
330
23A
100
DictionaryVariables
280
     0
  1
2
  0
DICTIONARYVAR
  5
23B
102
{ACAD_REACTORS
330
23A
102
}
330
23A
100
DictionaryVariables
280
     0
  1
1
  0
DICTIONARYVAR
  5
4918
102
{ACAD_REACTORS
330
23A
102
}
330
23A
100
DictionaryVariables
280
     0
  1
1
  0
DICTIONARYVAR
  5
4919
102
{ACAD_REACTORS
330
23A
102
}
330
23A
100
DictionaryVariables
280
     0
  1
15
  0
DICTIONARYVAR
  5
4917
102
{ACAD_REACTORS
330
23A
102
}
330
23A
100
DictionaryVariables
280
     0
  1
0
  0
DICTIONARYVAR
  5
4915
102
{ACAD_REACTORS
330
23A
102
}
330
23A
100
DictionaryVariables
280
     0
  1
0
  0
XRECORD
  5
F8E
102
{ACAD_REACTORS
330
F8D
102
}
330
F8D
100
AcDbXrecord
280
     1
  0
VLO-VL
  5
30B
102
{ACAD_REACTORS
330
30A
102
}
330
30A
100
vlo_VL
 90
   -64512
 91
       12
 92
        1
 40
2.5
300
(&VLO-R . 0)
  0
DICTIONARY
  5
491E
330
48E7
100
AcDbDictionary
280
     1
281
     1
  3
ACAD_XREC_ROUNDTRIP
360
491F
  0
DICTIONARY
  5
28C
330
71
100
AcDbDictionary
280
     1
281
     1
  0
DICTIONARY
  5
491C
330
48E5
100
AcDbDictionary
280
     1
281
     1
  3
ACAD_XREC_ROUNDTRIP
360
491D
  0
DICTIONARY
  5
491A
330
27D
100
AcDbDictionary
280
     1
281
     1
  3
ACAD_ROUNDTRIP_2008_TABLESTYLE_CELLSTYLEMAP
360
491B
  0
XRECORD
  5
491F
102
{ACAD_REACTORS
330
491E
102
}
330
491E
100
AcDbXrecord
280
     1
102
DISPLAYNAME
  1
Metric50
102
FLAGS
 90
        0
  0
XRECORD
  5
491D
102
{ACAD_REACTORS
330
491C
102
}
330
491C
100
AcDbXrecord
280
     1
102
DISPLAYNAME
  1
Metric50
102
FLAGS
 90
        0
  0
CELLSTYLEMAP
  5
491B
102
{ACAD_REACTORS
330
491A
102
}
330
491A
100
AcDbCellStyleMap
 90
        3
300
CELLSTYLE
  1
TABLEFORMAT_BEGIN
 90
        5
170
     1
 91
        0
 92
    32768
 62
   257
 93
        1
300
CONTENTFORMAT
  1
CONTENTFORMAT_BEGIN
 90
        0
 91
        0
 92
      512
 93
        0
300

 40
0.0
140
1.0
 94
        5
 62
     0
340
11
144
6.0
309
CONTENTFORMAT_END
171
     1
301
MARGIN
  1
CELLMARGIN_BEGIN
 40
1.5
 40
1.5
 40
1.5
 40
1.5
 40
0.18
 40
0.18
309
CELLMARGIN_END
 94
        6
 95
        1
302
GRIDFORMAT
  1
GRIDFORMAT_BEGIN
 90
        0
 91
        1
 62
     0
 92
       -2
340
0
 93
        0
 40
0.045
309
GRIDFORMAT_END
 95
        2
302
GRIDFORMAT
  1
GRIDFORMAT_BEGIN
 90
        0
 91
        1
 62
     0
 92
       -2
340
0
 93
        0
 40
0.045
309
GRIDFORMAT_END
 95
        4
302
GRIDFORMAT
  1
GRIDFORMAT_BEGIN
 90
        0
 91
        1
 62
     0
 92
       -2
340
0
 93
        0
 40
0.045
309
GRIDFORMAT_END
 95
        8
302
GRIDFORMAT
  1
GRIDFORMAT_BEGIN
 90
        0
 91
        1
 62
     0
 92
       -2
340
0
 93
        0
 40
0.045
309
GRIDFORMAT_END
 95
       16
302
GRIDFORMAT
  1
GRIDFORMAT_BEGIN
 90
        0
 91
        1
 62
     0
 92
       -2
340
0
 93
        0
 40
0.045
309
GRIDFORMAT_END
 95
       32
302
GRIDFORMAT
  1
GRIDFORMAT_BEGIN
 90
        0
 91
        1
 62
     0
 92
       -2
340
0
 93
        0
 40
0.045
309
GRIDFORMAT_END
309
TABLEFORMAT_END
  1
CELLSTYLE_BEGIN
 90
        1
 91
        1
300
_TITLE
309
CELLSTYLE_END
300
CELLSTYLE
  1
TABLEFORMAT_BEGIN
 90
        5
170
     1
 91
        0
 92
        0
 62
   257
 93
        1
300
CONTENTFORMAT
  1
CONTENTFORMAT_BEGIN
 90
        0
 91
        0
 92
      512
 93
        0
300

 40
0.0
140
1.0
 94
        5
 62
     0
340
11
144
4.5
309
CONTENTFORMAT_END
171
     1
301
MARGIN
  1
CELLMARGIN_BEGIN
 40
1.5
 40
1.5
 40
1.5
 40
1.5
 40
0.18
 40
0.18
309
CELLMARGIN_END
 94
        6
 95
        1
302
GRIDFORMAT
  1
GRIDFORMAT_BEGIN
 90
        0
 91
        1
 62
     0
 92
       -2
340
0
 93
        0
 40
0.045
309
GRIDFORMAT_END
 95
        2
302
GRIDFORMAT
  1
GRIDFORMAT_BEGIN
 90
        0
 91
        1
 62
     0
 92
       -2
340
0
 93
        0
 40
0.045
309
GRIDFORMAT_END
 95
        4
302
GRIDFORMAT
  1
GRIDFORMAT_BEGIN
 90
        0
 91
        1
 62
     0
 92
       -2
340
0
 93
        0
 40
0.045
309
GRIDFORMAT_END
 95
        8
302
GRIDFORMAT
  1
GRIDFORMAT_BEGIN
 90
        0
 91
        1
 62
     0
 92
       -2
340
0
 93
        0
 40
0.045
309
GRIDFORMAT_END
 95
       16
302
GRIDFORMAT
  1
GRIDFORMAT_BEGIN
 90
        0
 91
        1
 62
     0
 92
       -2
340
0
 93
        0
 40
0.045
309
GRIDFORMAT_END
 95
       32
302
GRIDFORMAT
  1
GRIDFORMAT_BEGIN
 90
        0
 91
        1
 62
     0
 92
       -2
340
0
 93
        0
 40
0.045
309
GRIDFORMAT_END
309
TABLEFORMAT_END
  1
CELLSTYLE_BEGIN
 90
        2
 91
        1
300
_HEADER
309
CELLSTYLE_END
300
CELLSTYLE
  1
TABLEFORMAT_BEGIN
 90
        5
170
     1
 91
        0
 92
        0
 62
   257
 93
        1
300
CONTENTFORMAT
  1
CONTENTFORMAT_BEGIN
 90
        0
 91
        0
 92
      512
 93
        0
300

 40
0.0
140
1.0
 94
        2
 62
     0
340
11
144
4.5
309
CONTENTFORMAT_END
171
     1
301
MARGIN
  1
CELLMARGIN_BEGIN
 40
1.5
 40
1.5
 40
1.5
 40
1.5
 40
0.18
 40
0.18
309
CELLMARGIN_END
 94
        6
 95
        1
302
GRIDFORMAT
  1
GRIDFORMAT_BEGIN
 90
        0
 91
        1
 62
     0
 92
       -2
340
0
 93
        0
 40
0.045
309
GRIDFORMAT_END
 95
        2
302
GRIDFORMAT
  1
GRIDFORMAT_BEGIN
 90
        0
 91
        1
 62
     0
 92
       -2
340
0
 93
        0
 40
0.045
309
GRIDFORMAT_END
 95
        4
302
GRIDFORMAT
  1
GRIDFORMAT_BEGIN
 90
        0
 91
        1
 62
     0
 92
       -2
340
0
 93
        0
 40
0.045
309
GRIDFORMAT_END
 95
        8
302
GRIDFORMAT
  1
GRIDFORMAT_BEGIN
 90
        0
 91
        1
 62
     0
 92
       -2
340
0
 93
        0
 40
0.045
309
GRIDFORMAT_END
 95
       16
302
GRIDFORMAT
  1
GRIDFORMAT_BEGIN
 90
        0
 91
        1
 62
     0
 92
       -2
340
0
 93
        0
 40
0.045
309
GRIDFORMAT_END
 95
       32
302
GRIDFORMAT
  1
GRIDFORMAT_BEGIN
 90
        0
 91
        1
 62
     0
 92
       -2
340
0
 93
        0
 40
0.045
309
GRIDFORMAT_END
309
TABLEFORMAT_END
  1
CELLSTYLE_BEGIN
 90
        3
 91
        2
300
_DATA
309
CELLSTYLE_END
  0
ENDSEC
  0
SECTION
  2
ACDSDATA
 70
     2
 71
     8
  0
ACDSSCHEMA
 90
        0
  1
AcDb_Thumbnail_Schema
  2
AcDbDs::ID
280
    10
 91
        8
  2
Thumbnail_Data
280
    15
 91
        0
101
ACDSRECORD
 95
        0
 90
        1
  2
AcDbDs::TreatedAsObjectData
280
     1
291
     1
101
ACDSRECORD
 95
        0
 90
        2
  2
AcDbDs::Legacy
280
     1
291
     1
101
ACDSRECORD
  1
AcDbDs::ID
 90
        3
  2
AcDs:Indexable
280
     1
291
     1
101
ACDSRECORD
  1
AcDbDs::ID
 90
        4
  2
AcDbDs::HandleAttribute
280
     7
282
     1
  0
ACDSSCHEMA
 90
        1
  1
AcDbDs::TreatedAsObjectDataSchema
  2
AcDbDs::TreatedAsObjectData
280
     1
 91
        0
  0
ACDSSCHEMA
 90
        2
  1
AcDbDs::LegacySchema
  2
AcDbDs::Legacy
280
     1
 91
        0
  0
ACDSSCHEMA
 90
        3
  1
AcDbDs::IndexedPropertySchema
  2
AcDs:Indexable
280
     1
 91
        0
  0
ACDSSCHEMA
 90
        4
  1
AcDbDs::HandleAttributeSchema
  2
AcDbDs::HandleAttribute
280
     7
 91
        1
284
     1
  0
ACDSRECORD
 90
        0
  2
AcDbDs::ID
280
    10
320
71
  2
Thumbnail_Data
280
    15
 94
     1034
310
89504E470D0A1A0A0000000D49484452000000B40000007F0803000000713C187700000300504C5445FFFFFF000000FFFFFF0000000000000000000000000000000000000000000000000000330000660000990000CC0000FF0033000033330033660033990033CC0033FF0066000066330066660066990066CC0066FF0099
310
000099330099660099990099CC0099FF00CC0000CC3300CC6600CC9900CCCC00CCFF00FF0000FF3300FF6600FF9900FFCC00FFFF3300003300333300663300993300CC3300FF3333003333333333663333993333CC3333FF3366003366333366663366993366CC3366FF3399003399333399663399993399CC3399FF33CC00
310
33CC3333CC6633CC9933CCCC33CCFF33FF0033FF3333FF6633FF9933FFCC33FFFF6600006600336600666600996600CC6600FF6633006633336633666633996633CC6633FF6666006666336666666666996666CC6666FF6699006699336699666699996699CC6699FF66CC0066CC3366CC6666CC9966CCCC66CCFF66FF0066
310
FF3366FF6666FF9966FFCC66FFFF9900009900339900669900999900CC9900FF9933009933339933669933999933CC9933FF9966009966339966669966999966CC9966FF9999009999339999669999999999CC9999FF99CC0099CC3399CC6699CC9999CCCC99CCFF99FF0099FF3399FF6699FF9999FFCC99FFFFCC0000CC00
310
33CC0066CC0099CC00CCCC00FFCC3300CC3333CC3366CC3399CC33CCCC33FFCC6600CC6633CC6666CC6699CC66CCCC66FFCC9900CC9933CC9966CC9999CC99CCCC99FFCCCC00CCCC33CCCC66CCCC99CCCCCCCCCCFFCCFF00CCFF33CCFF66CCFF99CCFFCCCCFFFFFF0000FF0033FF0066FF0099FF00CCFF00FFFF3300FF3333
310
FF3366FF3399FF33CCFF33FFFF6600FF6633FF6666FF6699FF66CCFF66FFFF9900FF9933FF9966FF9999FF99CCFF99FFFFCC00FFCC33FFCC66FFCC99FFCCCCFFCCFFFFFF00FFFF33FFFF66FFFF99FFFFCCFFFFFF0000000D0D0D1A1A1A2828283535354343435050505D5D5D6B6B6B787878868686939393A1A1A1AEAEAEBB
310
BBBBC9C9C9D6D6D6E4E4E4F1F1F1FFFFFF000000000000000000000000000000000000000000000000000000000000790CAC0F000000C54944415478DAEDDC310A80300C05D0DEFF985EA053761114C1459052FCF4FDAD25C34384D00C693D306D0B4CDBEAC875AC338FAA7AB91F72FD567ED75DE8FA7D56458FFB4167A2C7
310
7F4068E891E8FA3FBAA0A1A1A1A1C3D0DA383434343434343434B4B987970B343434B4B987360E0D0D0D0D0D0D0D0D0DEDE5020D0D0D6DEEA1234243434343434343439B7B78B940434343437F446BE3D0D0D0B3D0890B1CE6071A1A1A7A697454A0A1A1A1A133D0DA383434F44AE8C465AC69CD2571576FEF3D0EBD031E16
310
08A9D332BAF70000000049454E44AE426082
  0
ENDSEC
  0
EOF
