  0
SECTION
  2
HEADER
  9
$ACADVER
  1
AC1015
  9
$ACADMAINTVER
 70
     6
  9
$DWGCODEPAGE
  3
ANSI_1252
  9
$INSBASE
 10
0.0
 20
0.0
 30
0.0
  9
$EXTMIN
 10
0.0
 20
0.0
 30
0.0
  9
$EXTMAX
 10
420.0
 20
297.0
 30
0.0
  9
$LIMMIN
 10
0.0
 20
0.0
  9
$LIMMAX
 10
420.0
 20
297.0
  9
$ORTHOMODE
 70
     0
  9
$REGENMODE
 70
     1
  9
$FILLMODE
 70
     1
  9
$QTEXTMODE
 70
     0
  9
$MIRRTEXT
 70
     1
  9
$LTSCALE
 40
1.0
  9
$ATTMODE
 70
     1
  9
$TEXTSIZE
 40
3.5
  9
$TRACEWID
 40
1.0
  9
$TEXTSTYLE
  7
Standard
  9
$CLAYER
  8
0
  9
$CELTYPE
  6
ByLayer
  9
$CECOLOR
 62
   256
  9
$CELTSCALE
 40
1.0
  9
$DISPSILH
 70
     0
  9
$DIMSCALE
 40
1.0
  9
$DIMASZ
 40
3.0
  9
$DIMEXO
 40
1.0
  9
$DIMDLI
 40
3.75
  9
$DIMRND
 40
0.0
  9
$DIMDLE
 40
0.0
  9
$DIMEXE
 40
1.0
  9
$DIMTP
 40
0.0
  9
$DIMTM
 40
0.0
  9
$DIMTXT
 40
3.8805555556
  9
$DIMCEN
 40
2.5
  9
$DIMTSZ
 40
0.0
  9
$DIMTOL
 70
     0
  9
$DIMLIM
 70
     0
  9
$DIMTIH
 70
     1
  9
$DIMTOH
 70
     1
  9
$DIMSE1
 70
     0
  9
$DIMSE2
 70
     0
  9
$DIMTAD
 70
     1
  9
$DIMZIN
 70
     0
  9
$DIMBLK
  1

  9
$DIMASO
 70
     1
  9
$DIMSHO
 70
     1
  9
$DIMPOST
  1

  9
$DIMAPOST
  1

  9
$DIMALT
 70
     0
  9
$DIMALTD
 70
     3
  9
$DIMALTF
 40
0.0393700787
  9
$DIMLFAC
 40
2.0
  9
$DIMTOFL
 70
     1
  9
$DIMTVP
 40
0.0
  9
$DIMTIX
 70
     0
  9
$DIMSOXD
 70
     0
  9
$DIMSAH
 70
     0
  9
$DIMBLK1
  1

  9
$DIMBLK2
  1

  9
$DIMSTYLE
  2
ISO-25
  9
$DIMCLRD
 70
     0
  9
$DIMCLRE
 70
     0
  9
$DIMCLRT
 70
     0
  9
$DIMTFAC
 40
1.0
  9
$DIMGAP
 40
1.524
  9
$DIMJUST
 70
     0
  9
$DIMSD1
 70
     0
  9
$DIMSD2
 70
     0
  9
$DIMTOLJ
 70
     0
  9
$DIMTZIN
 70
     0
  9
$DIMALTZ
 70
     0
  9
$DIMALTTZ
 70
     0
  9
$DIMUPT
 70
     0
  9
$DIMDEC
 70
     2
  9
$DIMTDEC
 70
     2
  9
$DIMALTU
 70
     2
  9
$DIMALTTD
 70
     3
  9
$DIMTXSTY
  7
Standard
  9
$DIMAUNIT
 70
     0
  9
$DIMADEC
 70
     1
  9
$DIMALTRND
 40
0.0
  9
$DIMAZIN
 70
     0
  9
$DIMDSEP
 70
    44
  9
$DIMATFIT
 70
     3
  9
$DIMFRAC
 70
     0
  9
$DIMLDRBLK
  1

  9
$DIMLUNIT
 70
     2
  9
$DIMLWD
 70
    -2
  9
$DIMLWE
 70
    -2
  9
$DIMTMOVE
 70
     0
  9
$LUNITS
 70
     2
  9
$LUPREC
 70
     2
  9
$SKETCHINC
 40
1.0
  9
$FILLETRAD
 40
10.0
  9
$AUNITS
 70
     0
  9
$AUPREC
 70
     2
  9
$MENU
  1
.
  9
$ELEVATION
 40
0.0
  9
$PELEVATION
 40
0.0
  9
$THICKNESS
 40
0.0
  9
$LIMCHECK
 70
     0
  9
$CHAMFERA
 40
10.0
  9
$CHAMFERB
 40
10.0
  9
$CHAMFERC
 40
20.0
  9
$CHAMFERD
 40
0.0
  9
$SKPOLY
 70
     0
  9
$TDCREATE
 40
2455793.435702581
  9
$TDUCREATE
 40
2455793.019035914
  9
$TDUPDATE
 40
2455793.435702593
  9
$TDUUPDATE
 40
2455793.019035926
  9
$TDINDWG
 40
0.0000000116
  9
$TDUSRTIMER
 40
0.0000000116
  9
$USRTIMER
 70
     1
  9
$ANGBASE
 50
0.0
  9
$ANGDIR
 70
     0
  9
$PDMODE
 70
     0
  9
$PDSIZE
 40
-1.0
  9
$PLINEWID
 40
0.0
  9
$SPLFRAME
 70
     0
  9
$SPLINETYPE
 70
     6
  9
$SPLINESEGS
 70
     8
  9
$HANDSEED
  5
191
  9
$SURFTAB1
 70
     6
  9
$SURFTAB2
 70
     6
  9
$SURFTYPE
 70
     6
  9
$SURFU
 70
     6
  9
$SURFV
 70
     6
  9
$UCSBASE
  2

  9
$UCSNAME
  2

  9
$UCSORG
 10
0.0
 20
0.0
 30
0.0
  9
$UCSXDIR
 10
1.0
 20
0.0
 30
0.0
  9
$UCSYDIR
 10
0.0
 20
1.0
 30
0.0
  9
$UCSORTHOREF
  2

  9
$UCSORTHOVIEW
 70
     0
  9
$UCSORGTOP
 10
0.0
 20
0.0
 30
0.0
  9
$UCSORGBOTTOM
 10
0.0
 20
0.0
 30
0.0
  9
$UCSORGLEFT
 10
0.0
 20
0.0
 30
0.0
  9
$UCSORGRIGHT
 10
0.0
 20
0.0
 30
0.0
  9
$UCSORGFRONT
 10
0.0
 20
0.0
 30
0.0
  9
$UCSORGBACK
 10
0.0
 20
0.0
 30
0.0
  9
$PUCSBASE
  2

  9
$PUCSNAME
  2

  9
$PUCSORG
 10
0.0
 20
0.0
 30
0.0
  9
$PUCSXDIR
 10
1.0
 20
0.0
 30
0.0
  9
$PUCSYDIR
 10
0.0
 20
1.0
 30
0.0
  9
$PUCSORTHOREF
  2

  9
$PUCSORTHOVIEW
 70
     0
  9
$PUCSORGTOP
 10
0.0
 20
0.0
 30
0.0
  9
$PUCSORGBOTTOM
 10
0.0
 20
0.0
 30
0.0
  9
$PUCSORGLEFT
 10
0.0
 20
0.0
 30
0.0
  9
$PUCSORGRIGHT
 10
0.0
 20
0.0
 30
0.0
  9
$PUCSORGFRONT
 10
0.0
 20
0.0
 30
0.0
  9
$PUCSORGBACK
 10
0.0
 20
0.0
 30
0.0
  9
$USERI1
 70
     0
  9
$USERI2
 70
     0
  9
$USERI3
 70
     0
  9
$USERI4
 70
     0
  9
$USERI5
 70
     0
  9
$USERR1
 40
0.0
  9
$USERR2
 40
0.0
  9
$USERR3
 40
0.0
  9
$USERR4
 40
0.0
  9
$USERR5
 40
0.0
  9
$WORLDVIEW
 70
     1
  9
$SHADEDGE
 70
     3
  9
$SHADEDIF
 70
    70
  9
$TILEMODE
 70
     1
  9
$MAXACTVP
 70
    64
  9
$PINSBASE
 10
0.0
 20
0.0
 30
0.0
  9
$PLIMCHECK
 70
     0
  9
$PEXTMIN
 10
1.0000000000E+20
 20
1.0000000000E+20
 30
1.0000000000E+20
  9
$PEXTMAX
 10
-1.0000000000E+20
 20
-1.0000000000E+20
 30
-1.0000000000E+20
  9
$PLIMMIN
 10
0.0
 20
0.0
  9
$PLIMMAX
 10
420.0
 20
297.0
  9
$UNITMODE
 70
     0
  9
$VISRETAIN
 70
     1
  9
$PLINEGEN
 70
     0
  9
$PSLTSCALE
 70
     1
  9
$TREEDEPTH
 70
  3020
  9
$CMLSTYLE
  2
Standard
  9
$CMLJUST
 70
     0
  9
$CMLSCALE
 40
20.0
  9
$PROXYGRAPHICS
 70
     1
  9
$MEASUREMENT
 70
     1
  9
$CELWEIGHT
370
    -1
  9
$ENDCAPS
280
     0
  9
$JOINSTYLE
280
     0
  9
$LWDISPLAY
290
     1
  9
$INSUNITS
 70
     4
  9
$HYPERLINKBASE
  1

  9
$STYLESHEET
  1

  9
$XEDIT
290
     1
  9
$CEPSNTYPE
380
     0
  9
$PSTYLEMODE
290
     1
  9
$FINGERPRINTGUID
  2
{EBDF75E2-BACB-4F29-AECD-6F52A0D53E70}
  9
$VERSIONGUID
  2
{FAEB1C32-E019-11D5-929B-00C0DF256EC4}
  9
$EXTNAMES
290
     1
  9
$PSVPSCALE
 40
0.0
  9
$OLESTARTUP
290
     0
  0
ENDSEC
  0
SECTION
  2
CLASSES
  0
CLASS
  1
ACDBDICTIONARYWDFLT
  2
AcDbDictionaryWithDefault
  3
ObjectDBX Classes
 90
        0
280
     0
281
     0
  0
CLASS
  1
VISUALSTYLE
  2
AcDbVisualStyle
  3
ObjectDBX Classes
 90
     4095
280
     0
281
     0
  0
CLASS
  1
MATERIAL
  2
AcDbMaterial
  3
ObjectDBX Classes
 90
     1153
280
     0
281
     0
  0
CLASS
  1
ACDBPLACEHOLDER
  2
AcDbPlaceHolder
  3
ObjectDBX Classes
 90
        0
280
     0
281
     0
  0
CLASS
  1
LAYOUT
  2
AcDbLayout
  3
ObjectDBX Classes
 90
        0
280
     0
281
     0
  0
ENDSEC
  0
SECTION
  2
TABLES
  0
TABLE
  2
VPORT
  5
8
330
0
100
AcDbSymbolTable
 70
     1
  0
VPORT
  5
29
330
8
100
AcDbSymbolTableRecord
100
AcDbViewportTableRecord
  2
*Active
 70
     0
 10
0.0
 20
0.0
 11
1.0
 21
1.0
 12
210.0
 22
148.5
 13
0.0
 23
0.0
 14
10.0
 24
10.0
 15
10.0
 25
10.0
 16
0.0
 26
0.0
 36
1.0
 17
0.0
 27
0.0
 37
0.0
 40
297.0
 41
1.4141414141
 42
50.0
 43
0.0
 44
0.0
 50
0.0
 51
0.0
 71
     0
 72
  2000
 73
     1
 74
     3
 75
     0
 76
     0
 77
     0
 78
     0
281
     0
 65
     1
110
0.0
120
0.0
130
0.0
111
1.0
121
0.0
131
0.0
112
0.0
122
1.0
132
0.0
 79
     0
146
0.0
  0
ENDTAB
  0
TABLE
  2
LTYPE
  5
5
330
0
100
AcDbSymbolTable
 70
     6
  0
LTYPE
  5
14
330
5
100
AcDbSymbolTableRecord
100
AcDbLinetypeTableRecord
  2
ByBlock
 70
     0
  3

 72
    65
 73
     0
 40
0.0
  0
LTYPE
  5
15
330
5
100
AcDbSymbolTableRecord
100
AcDbLinetypeTableRecord
  2
ByLayer
 70
     0
  3

 72
    65
 73
     0
 40
0.0
  0
LTYPE
  5
16
330
5
100
AcDbSymbolTableRecord
100
AcDbLinetypeTableRecord
  2
Continuous
 70
     0
  3
Solid line
 72
    65
 73
     0
 40
0.0
  0
LTYPE
  5
3F
330
5
100
AcDbSymbolTableRecord
100
AcDbLinetypeTableRecord
  2
HIDDEN
 70
     0
  3
Hidden __ __ __ __ __ __ __ __ __ __ __ __ __ __
 72
    65
 73
     2
 40
1.905
 49
1.27
 74
     0
 49
-0.635
 74
     0
  0
LTYPE
  5
40
330
5
100
AcDbSymbolTableRecord
100
AcDbLinetypeTableRecord
  2
PHANTOM
 70
     0
  3
Phantom ______  __  __  ______  __  __  ______
 72
    65
 73
     6
 40
12.7
 49
6.35
 74
     0
 49
-1.27
 74
     0
 49
1.27
 74
     0
 49
-1.27
 74
     0
 49
1.27
 74
     0
 49
-1.27
 74
     0
  0
LTYPE
  5
41
330
5
100
AcDbSymbolTableRecord
100
AcDbLinetypeTableRecord
  2
CENTER
 70
     0
  3
Center ____ _ ____ _ ____ _ ____ _ ____ _ ____
 72
    65
 73
     4
 40
10.16
 49
6.35
 74
     0
 49
-1.27
 74
     0
 49
1.27
 74
     0
 49
-1.27
 74
     0
  0
LTYPE
  5
42
330
5
100
AcDbSymbolTableRecord
100
AcDbLinetypeTableRecord
  2
CENTERX2
 70
     0
  3
Center (2x) ________  __  ________  __  _____
 72
    65
 73
     4
 40
20.32
 49
12.7
 74
     0
 49
-2.54
 74
     0
 49
2.54
 74
     0
 49
-2.54
 74
     0
  0
LTYPE
  5
43
330
5
100
AcDbSymbolTableRecord
100
AcDbLinetypeTableRecord
  2
DOT2
 70
     0
  3
Dot (.5x) ........................................
 72
    65
 73
     2
 40
0.635
 49
0.0
 74
     0
 49
-0.635
 74
     0
  0
ENDTAB
  0
TABLE
  2
LAYER
  5
2
330
0
100
AcDbSymbolTable
 70
     3
  0
LAYER
  5
10
330
2
100
AcDbSymbolTableRecord
100
AcDbLayerTableRecord
  2
0
 70
     0
 62
     7
  6
Continuous
370
    -3
390
F
  0
LAYER
  5
44
330
2
100
AcDbSymbolTableRecord
100
AcDbLayerTableRecord
  2
FORMAT
 70
     0
 62
     7
  6
Continuous
370
    -3
390
F
  0
LAYER
  5
45
330
2
100
AcDbSymbolTableRecord
100
AcDbLayerTableRecord
  2
DIM
 70
     0
 62
     1
  6
Continuous
370
    -3
390
F
  0
ENDTAB
  0
TABLE
  2
STYLE
  5
3
330
0
100
AcDbSymbolTable
 70
     2
  0
STYLE
  5
11
330
3
100
AcDbSymbolTableRecord
100
AcDbTextStyleTableRecord
  2
Standard
 70
     0
 40
0.0
 41
1.0
 50
0.0
 71
     0
 42
2.5
  3
txt
  4

  0
STYLE
  5
E5
330
3
100
AcDbSymbolTableRecord
100
AcDbTextStyleTableRecord
  2
SLDTEXTSTYLE0
 70
     0
 40
0.0
 41
0.75
 50
0.0
 71
     0
 42
0.2
  3
TXT
  4

  0
ENDTAB
  0
TABLE
  2
VIEW
  5
6
330
0
100
AcDbSymbolTable
 70
     0
  0
ENDTAB
  0
TABLE
  2
UCS
  5
7
330
0
100
AcDbSymbolTable
 70
     0
  0
ENDTAB
  0
TABLE
  2
APPID
  5
9
330
0
100
AcDbSymbolTable
 70
     1
  0
APPID
  5
12
330
9
100
AcDbSymbolTableRecord
100
AcDbRegAppTableRecord
  2
ACAD
 70
     0
  0
ENDTAB
  0
TABLE
  2
DIMSTYLE
  5
A
330
0
100
AcDbSymbolTable
 70
     3
100
AcDbDimStyleTable
  0
DIMSTYLE
105
27
330
A
100
AcDbSymbolTableRecord
100
AcDbDimStyleTableRecord
  2
ISO-25
 70
     0
 41
2.5
 42
0.625
 43
3.75
 44
1.25
 73
     0
 74
     0
 77
     1
 78
     8
140
2.5
141
2.5
143
0.0393700787
147
0.625
171
     3
172
     1
178
     0
271
     2
272
     2
274
     3
278
    44
283
     0
284
     8
340
11
  0
DIMSTYLE
105
E6
102
{ACAD_REACTORS
330
E4
330
F1
330
FB
330
173
330
17D
330
187
102
}
330
A
100
AcDbSymbolTableRecord
100
AcDbDimStyleTableRecord
  2
SLDDIMSTYLE0
 70
     0
 41
3.0
 44
0.0
 45
0.000000001
 73
     0
 74
     0
 77
     1
 78
    12
 79
     3
140
2.9104166667
147
0.7276041667
173
     1
178
     0
271
     2
272
     2
276
     2
284
    12
340
E5
  0
DIMSTYLE
105
106
102
{ACAD_REACTORS
330
105
102
}
330
A
100
AcDbSymbolTableRecord
100
AcDbDimStyleTableRecord
  2
SLDDIMSTYLE1
 70
     0
 41
3.0
 44
0.0
 45
0.000000001
 73
     0
 74
     0
 77
     1
 78
    12
 79
     3
140
2.9104166667
147
0.7276041667
173
     1
178
     0
271
     0
272
     0
276
     2
284
    12
340
E5
  0
ENDTAB
  0
TABLE
  2
BLOCK_RECORD
  5
1
330
0
100
AcDbSymbolTable
 70
     8
  0
BLOCK_RECORD
  5
1F
330
1
100
AcDbSymbolTableRecord
100
AcDbBlockTableRecord
  2
*Model_Space
340
22
  0
BLOCK_RECORD
  5
1B
330
1
100
AcDbSymbolTableRecord
100
AcDbBlockTableRecord
  2
*Paper_Space
340
1E
  0
BLOCK_RECORD
  5
23
330
1
100
AcDbSymbolTableRecord
100
AcDbBlockTableRecord
  2
*Paper_Space0
340
26
  0
BLOCK_RECORD
  5
E7
330
1
100
AcDbSymbolTableRecord
100
AcDbBlockTableRecord
  2
*D1
340
0
  0
BLOCK_RECORD
  5
F2
330
1
100
AcDbSymbolTableRecord
100
AcDbBlockTableRecord
  2
*D2
340
0
  0
BLOCK_RECORD
  5
FC
330
1
100
AcDbSymbolTableRecord
100
AcDbBlockTableRecord
  2
*D3
340
0
  0
BLOCK_RECORD
  5
107
330
1
100
AcDbSymbolTableRecord
100
AcDbBlockTableRecord
  2
*D4
340
0
  0
BLOCK_RECORD
  5
174
330
1
100
AcDbSymbolTableRecord
100
AcDbBlockTableRecord
  2
*D5
340
0
  0
BLOCK_RECORD
  5
17E
330
1
100
AcDbSymbolTableRecord
100
AcDbBlockTableRecord
  2
*D6
340
0
  0
BLOCK_RECORD
  5
188
330
1
100
AcDbSymbolTableRecord
100
AcDbBlockTableRecord
  2
*D7
340
0
  0
ENDTAB
  0
ENDSEC
  0
SECTION
  2
BLOCKS
  0
BLOCK
  5
20
330
1F
100
AcDbEntity
  8
0
100
AcDbBlockBegin
  2
*Model_Space
 70
     0
 10
0.0
 20
0.0
 30
0.0
  3
*Model_Space
  1

  0
ENDBLK
  5
21
330
1F
100
AcDbEntity
  8
0
100
AcDbBlockEnd
  0
BLOCK
  5
1C
330
1B
100
AcDbEntity
 67
     1
  8
0
100
AcDbBlockBegin
  2
*Paper_Space
 70
     0
 10
0.0
 20
0.0
 30
0.0
  3
*Paper_Space
  1

  0
ENDBLK
  5
1D
330
1B
100
AcDbEntity
 67
     1
  8
0
100
AcDbBlockEnd
  0
BLOCK
  5
24
330
23
100
AcDbEntity
  8
0
100
AcDbBlockBegin
  2
*Paper_Space0
 70
     0
 10
0.0
 20
0.0
 30
0.0
  3
*Paper_Space0
  1

  0
ENDBLK
  5
25
330
23
100
AcDbEntity
  8
0
100
AcDbBlockEnd
  0
BLOCK
  5
E8
330
E7
100
AcDbEntity
  8
0
100
AcDbBlockBegin
  2
*D1
 70
     1
 10
0.0
 20
0.0
 30
0.0
  3
*D1
  1

  0
SOLID
  5
EA
330
E7
100
AcDbEntity
  8
DIM
100
AcDbTrace
 10
253.8934666035
 20
218.9371771736
 30
0.0
 11
256.8934666035
 21
218.4371771736
 31
0.0
 12
256.8934666035
 22
219.4371771736
 32
0.0
 13
256.8934666035
 23
219.4371771736
 33
0.0
  0
SOLID
  5
EB
330
E7
100
AcDbEntity
  8
DIM
100
AcDbTrace
 10
317.8934666035
 20
218.9371771736
 30
0.0
 11
314.8934666035
 21
219.4371771736
 31
0.0
 12
314.8934666035
 22
218.4371771736
 32
0.0
 13
314.8934666035
 23
218.4371771736
 33
0.0
  0
LINE
  5
EC
330
E7
100
AcDbEntity
  8
DIM
100
AcDbLine
 10
253.8934666035
 20
209.9371771736
 30
0.0
 11
253.8934666035
 21
219.9371771736
 31
0.0
  0
LINE
  5
ED
330
E7
100
AcDbEntity
  8
DIM
100
AcDbLine
 10
317.8934666035
 20
206.604529883
 30
0.0
 11
317.8934666035
 21
219.9371771736
 31
0.0
  0
LINE
  5
EE
330
E7
100
AcDbEntity
  8
DIM
100
AcDbLine
 10
253.8934666035
 20
218.9371771736
 30
0.0
 11
317.8934666035
 21
218.9371771736
 31
0.0
  0
MTEXT
  5
EF
330
E7
100
AcDbEntity
  8
DIM
100
AcDbMText
 10
276.0222590081
 20
222.6889015825
 30
0.1
 40
2.9104166667
 41
0.0
 71
     1
 72
     1
  1
64
  7
SLDTEXTSTYLE0
 73
     1
 44
1.0
  0
MTEXT
  5
F0
330
E7
100
AcDbEntity
  8
DIM
100
AcDbMText
 10
283.7752857148
 20
222.6889015825
 30
0.1
 40
2.9104166667
 41
0.0
 71
     1
 72
     1
  1
REF.
  7
SLDTEXTSTYLE0
 73
     1
 44
1.0
  0
ENDBLK
  5
E9
330
E7
100
AcDbEntity
  8
0
100
AcDbBlockEnd
  0
BLOCK
  5
F3
330
F2
100
AcDbEntity
  8
0
100
AcDbBlockBegin
  2
*D2
 70
     1
 10
0.0
 20
0.0
 30
0.0
  3
*D2
  1

  0
SOLID
  5
F5
330
F2
100
AcDbEntity
  8
DIM
100
AcDbTrace
 10
266.7320634079
 20
195.9371771736
 30
0.0
 11
266.2320634079
 21
192.9371771736
 31
0.0
 12
267.2320634079
 22
192.9371771736
 32
0.0
 13
267.2320634079
 23
192.9371771736
 33
0.0
  0
SOLID
  5
F6
330
F2
100
AcDbEntity
  8
DIM
100
AcDbTrace
 10
266.7320634079
 20
156.9371771736
 30
0.0
 11
267.2320634079
 21
159.9371771736
 31
0.0
 12
266.2320634079
 22
159.9371771736
 32
0.0
 13
266.2320634079
 23
159.9371771736
 33
0.0
  0
LINE
  5
F7
330
F2
100
AcDbEntity
  8
DIM
100
AcDbLine
 10
266.7320634079
 20
195.9371771736
 30
0.0
 11
266.7320634079
 21
156.9371771736
 31
0.0
  0
LINE
  5
F8
330
F2
100
AcDbEntity
  8
DIM
100
AcDbLine
 10
266.7320634079
 20
156.9371771736
 30
0.0
 11
266.7320634079
 21
141.4587541677
 31
0.0
  0
MTEXT
  5
F9
330
F2
100
AcDbEntity
  8
DIM
100
AcDbMText
 10
262.9803388825
 20
141.4587541677
 30
0.1
 40
2.9104166667
 41
0.0
 71
     1
 72
     1
  1
%%c
  7
SLDTEXTSTYLE0
 11
-7.044195017643634E-15
 21
1.0
 31
0.0
 73
     1
 44
1.0
  0
MTEXT
  5
FA
330
F2
100
AcDbEntity
  8
DIM
100
AcDbMText
 10
262.980338999
 20
145.8518665478
 30
0.1
 40
2.9104166667
 41
0.0
 71
     1
 72
     1
  1
39
  7
SLDTEXTSTYLE0
 11
-7.044195017643634E-15
 21
1.0
 31
0.0
 73
     1
 44
1.0
  0
ENDBLK
  5
F4
330
F2
100
AcDbEntity
  8
0
100
AcDbBlockEnd
  0
BLOCK
  5
FD
330
FC
100
AcDbEntity
  8
0
100
AcDbBlockBegin
  2
*D3
 70
     1
 10
0.0
 20
0.0
 30
0.0
  3
*D3
  1

  0
SOLID
  5
FF
330
FC
100
AcDbEntity
  8
DIM
100
AcDbTrace
 10
253.8934666035
 20
218.9371771736
 30
0.0
 11
250.8934666035
 21
219.4371771736
 31
0.0
 12
250.8934666035
 22
218.4371771736
 32
0.0
 13
250.8934666035
 23
218.4371771736
 33
0.0
  0
SOLID
  5
100
330
FC
100
AcDbEntity
  8
DIM
100
AcDbTrace
 10
218.8934666035
 20
218.9371771736
 30
0.0
 11
221.8934666035
 21
218.4371771736
 31
0.0
 12
221.8934666035
 22
219.4371771736
 32
0.0
 13
221.8934666035
 23
219.4371771736
 33
0.0
  0
LINE
  5
101
330
FC
100
AcDbEntity
  8
DIM
100
AcDbLine
 10
253.8934666035
 20
209.9371771736
 30
0.0
 11
253.8934666035
 21
219.9371771736
 31
0.0
  0
LINE
  5
102
330
FC
100
AcDbEntity
  8
DIM
100
AcDbLine
 10
218.8934666035
 20
179.9371771736
 30
0.0
 11
218.8934666035
 21
219.9371771736
 31
0.0
  0
LINE
  5
103
330
FC
100
AcDbEntity
  8
DIM
100
AcDbLine
 10
253.8934666035
 20
218.9371771736
 30
0.0
 11
218.8934666035
 21
218.9371771736
 31
0.0
  0
MTEXT
  5
104
330
FC
100
AcDbEntity
  8
DIM
100
AcDbMText
 10
232.4804191378
 20
222.6889015825
 30
0.1
 40
2.9104166667
 41
0.0
 71
     1
 72
     1
  1
35
  7
SLDTEXTSTYLE0
 73
     1
 44
1.0
  0
ENDBLK
  5
FE
330
FC
100
AcDbEntity
  8
0
100
AcDbBlockEnd
  0
BLOCK
  5
108
330
107
100
AcDbEntity
  8
0
100
AcDbBlockBegin
  2
*D4
 70
     1
 10
0.0
 20
0.0
 30
0.0
  3
*D4
  1

  0
SOLID
  5
10A
330
107
100
AcDbEntity
  8
DIM
100
AcDbTrace
 10
205.1967582148
 20
195.9371771736
 30
0.0
 11
204.6967582148
 21
192.9371771736
 31
0.0
 12
205.6967582148
 22
192.9371771736
 32
0.0
 13
205.6967582148
 23
192.9371771736
 33
0.0
  0
SOLID
  5
10B
330
107
100
AcDbEntity
  8
DIM
100
AcDbTrace
 10
205.1967582148
 20
90.4371780833
 30
0.0
 11
205.6967582148
 21
93.4371780833
 31
0.0
 12
204.6967582148
 22
93.4371780833
 32
0.0
 13
204.6967582148
 23
93.4371780833
 33
0.0
  0
LINE
  5
10C
330
107
100
AcDbEntity
  8
DIM
100
AcDbLine
 10
230.8934666035
 20
195.9371771736
 30
0.0
 11
204.1967582148
 21
195.9371771736
 31
0.0
  0
LINE
  5
10D
330
107
100
AcDbEntity
  8
DIM
100
AcDbLine
 10
217.8934666035
 20
90.4371780833
 30
0.0
 11
204.1967582148
 21
90.4371780833
 31
0.0
  0
LINE
  5
10E
330
107
100
AcDbEntity
  8
DIM
100
AcDbLine
 10
205.1967582148
 20
195.9371771736
 30
0.0
 11
205.1967582148
 21
90.4371780833
 31
0.0
  0
MTEXT
  5
10F
330
107
100
AcDbEntity
  8
DIM
100
AcDbMText
 10
201.4450338059
 20
142.5800735325
 30
0.1
 40
2.9104166667
 41
0.0
 71
     1
 72
     1
  1
105
  7
SLDTEXTSTYLE0
 11
-7.044195017643634E-15
 21
1.0
 31
0.0
 73
     1
 44
1.0
  0
ENDBLK
  5
109
330
107
100
AcDbEntity
  8
0
100
AcDbBlockEnd
  0
BLOCK
  5
175
330
174
100
AcDbEntity
  8
0
100
AcDbBlockBegin
  2
*D5
 70
     1
 10
0.0
 20
0.0
 30
0.0
  3
*D5
  1

  0
SOLID
  5
177
330
174
100
AcDbEntity
  8
DIM
100
AcDbTrace
 10
165.5830977372
 20
208.9371771736
 30
0.0
 11
165.0830977372
 21
205.9371771736
 31
0.0
 12
166.0830977372
 22
205.9371771736
 32
0.0
 13
166.0830977372
 23
205.9371771736
 33
0.0
  0
SOLID
  5
178
330
174
100
AcDbEntity
  8
DIM
100
AcDbTrace
 10
165.5830977372
 20
75.9371771736
 30
0.0
 11
166.0830977372
 21
78.9371771736
 31
0.0
 12
165.0830977372
 22
78.9371771736
 32
0.0
 13
165.0830977372
 23
78.9371771736
 33
0.0
  0
LINE
  5
179
330
174
100
AcDbEntity
  8
DIM
100
AcDbLine
 10
145.5830977372
 20
208.9371771736
 30
0.0
 11
166.5830977372
 21
208.9371771736
 31
0.0
  0
LINE
  5
17A
330
174
100
AcDbEntity
  8
DIM
100
AcDbLine
 10
145.5830977372
 20
75.9371771736
 30
0.0
 11
166.5830977372
 21
75.9371771736
 31
0.0
  0
LINE
  5
17B
330
174
100
AcDbEntity
  8
DIM
100
AcDbLine
 10
165.5830977372
 20
208.9371771736
 30
0.0
 11
165.5830977372
 21
75.9371771736
 31
0.0
  0
MTEXT
  5
17C
330
174
100
AcDbEntity
  8
DIM
100
AcDbMText
 10
161.8313733283
 20
141.0556799115
 30
-16.7483541943
 40
2.9104166667
 41
0.0
 71
     1
 72
     1
  1
133
  7
SLDTEXTSTYLE0
 11
-7.044195017643634E-15
 21
1.0
 31
0.0
 73
     1
 44
1.0
  0
ENDBLK
  5
176
330
174
100
AcDbEntity
  8
0
100
AcDbBlockEnd
  0
BLOCK
  5
17F
330
17E
100
AcDbEntity
  8
0
100
AcDbBlockBegin
  2
*D6
 70
     1
 10
0.0
 20
0.0
 30
0.0
  3
*D6
  1

  0
SOLID
  5
181
330
17E
100
AcDbEntity
  8
DIM
100
AcDbTrace
 10
89.5830977372
 20
218.9371771736
 30
0.0
 11
92.5830977372
 21
218.4371771736
 31
0.0
 12
92.5830977372
 22
219.4371771736
 32
0.0
 13
92.5830977372
 23
219.4371771736
 33
0.0
  0
SOLID
  5
182
330
17E
100
AcDbEntity
  8
DIM
100
AcDbTrace
 10
149.5830977372
 20
218.9371771736
 30
0.0
 11
146.5830977372
 21
219.4371771736
 31
0.0
 12
146.5830977372
 22
218.4371771736
 32
0.0
 13
146.5830977372
 23
218.4371771736
 33
0.0
  0
LINE
  5
183
330
17E
100
AcDbEntity
  8
DIM
100
AcDbLine
 10
89.5830977372
 20
204.9371771736
 30
0.0
 11
89.5830977372
 21
219.9371771736
 31
0.0
  0
LINE
  5
184
330
17E
100
AcDbEntity
  8
DIM
100
AcDbLine
 10
149.5830977372
 20
204.9371771736
 30
0.0
 11
149.5830977372
 21
219.9371771736
 31
0.0
  0
LINE
  5
185
330
17E
100
AcDbEntity
  8
DIM
100
AcDbLine
 10
89.5830977372
 20
218.9371771736
 30
0.0
 11
149.5830977372
 21
218.9371771736
 31
0.0
  0
MTEXT
  5
186
330
17E
100
AcDbEntity
  8
DIM
100
AcDbMText
 10
117.283282446
 20
222.6889015825
 30
-16.7483541943
 40
2.9104166667
 41
0.0
 71
     1
 72
     1
  1
60
  7
SLDTEXTSTYLE0
 73
     1
 44
1.0
  0
ENDBLK
  5
180
330
17E
100
AcDbEntity
  8
0
100
AcDbBlockEnd
  0
BLOCK
  5
189
330
188
100
AcDbEntity
  8
0
100
AcDbBlockBegin
  2
*D7
 70
     1
 10
0.0
 20
0.0
 30
0.0
  3
*D7
  1

  0
SOLID
  5
18B
330
188
100
AcDbEntity
  8
DIM
100
AcDbTrace
 10
101.5830977372
 20
213.6576286717
 30
0.0
 11
104.5830977372
 21
213.1576286717
 31
0.0
 12
104.5830977372
 22
214.1576286717
 32
0.0
 13
104.5830977372
 23
214.1576286717
 33
0.0
  0
SOLID
  5
18C
330
188
100
AcDbEntity
  8
DIM
100
AcDbTrace
 10
137.5830977372
 20
213.6576286717
 30
0.0
 11
134.5830977372
 21
214.1576286717
 31
0.0
 12
134.5830977372
 22
213.1576286717
 32
0.0
 13
134.5830977372
 23
213.1576286717
 33
0.0
  0
LINE
  5
18D
330
188
100
AcDbEntity
  8
DIM
100
AcDbLine
 10
101.5830977372
 20
194.9371771736
 30
0.0
 11
101.5830977372
 21
214.6576286717
 31
0.0
  0
LINE
  5
18E
330
188
100
AcDbEntity
  8
DIM
100
AcDbLine
 10
137.5830977372
 20
194.9371771736
 30
0.0
 11
137.5830977372
 21
214.6576286717
 31
0.0
  0
LINE
  5
18F
330
188
100
AcDbEntity
  8
DIM
100
AcDbLine
 10
101.5830977372
 20
213.6576286717
 30
0.0
 11
137.5830977372
 21
213.6576286717
 31
0.0
  0
MTEXT
  5
190
330
188
100
AcDbEntity
  8
DIM
100
AcDbMText
 10
117.1619557393
 20
217.4093530807
 30
-16.7483541943
 40
2.9104166667
 41
0.0
 71
     1
 72
     1
  1
36
  7
SLDTEXTSTYLE0
 73
     1
 44
1.0
  0
ENDBLK
  5
18A
330
188
100
AcDbEntity
  8
0
100
AcDbBlockEnd
  0
ENDSEC
  0
SECTION
  2
ENTITIES
  0
LINE
  5
46
330
1F
100
AcDbEntity
  8
0
  6
Continuous
 62
     7
370
    15
100
AcDbLine
 10
218.893470001
 20
178.9371771177
 30
0.0
 11
218.893470001
 21
90.4321302099
 31
0.0
  0
LINE
  5
47
330
1F
100
AcDbEntity
  8
0
  6
Continuous
 62
     7
370
    15
100
AcDbLine
 10
234.3245798168
 20
195.9371775759
 30
0.0
 11
231.8934665439
 21
195.9371775759
 31
0.0
  0
SPLINE
  5
48
330
1F
100
AcDbEntity
  8
0
  6
Continuous
 62
     7
370
    15
100
AcDbSpline
210
0.0
220
0.0
230
1.0
 70
     8
 71
     3
 72
    15
 73
    11
 74
     0
 42
0.00000001
 43
0.00000001
 40
0.0
 40
0.0
 40
0.0
 40
0.0
 40
0.1145551041237534
 40
0.2095443476306229
 40
0.2865301940619555
 40
0.3588262072354877
 40
0.4633255997542867
 40
0.6044872694130576
 40
0.7831215656075344
 40
1.0
 40
1.0
 40
1.0
 40
1.0
 10
224.5346659240441
 20
138.4371783955043
 30
0.0
 10
224.528494595513
 20
138.8719963357091
 30
0.0
 10
224.5172059932201
 20
139.6673658857195
 30
0.0
 10
224.5496951589155
 20
140.6751220253875
 30
0.0
 10
224.5940019899258
 20
141.4305194670199
 30
0.0
 10
224.6308838282382
 20
141.9051683480674
 30
0.0
 10
224.6693198132754
 20
142.3547067192109
 30
0.0
 10
224.7204965670092
 20
142.8643320612362
 30
0.0
 10
224.7902570981657
 20
143.4366137187528
 30
0.0
 10
224.8578801604414
 20
143.8272586687471
 30
0.0
 10
224.8949611005502
 20
144.0414678676075
 30
0.0
  0
SPLINE
  5
49
330
1F
100
AcDbEntity
  8
0
  6
Continuous
 62
     7
370
    15
100
AcDbSpline
210
0.0
220
0.0
230
1.0
 70
     8
 71
     3
 72
    12
 73
     8
 74
     0
 42
0.00000001
 43
0.00000001
 40
0.0
 40
0.0
 40
0.0
 40
0.0
 40
0.1634353058300585
 40
0.3826768705745179
 40
0.5588507628329985
 40
0.7628185217144986
 40
1.0
 40
1.0
 40
1.0
 40
1.0
 10
231.1385774430947
 20
155.5837266517824
 30
0.0
 10
231.3723907645451
 20
155.7249540057543
 30
0.0
 10
231.9198547882872
 20
156.0556318943723
 30
0.0
 10
232.7825768580036
 20
156.4225275977842
 30
0.0
 10
233.7425727011763
 20
156.7092972860561
 30
0.0
 10
234.7597206191786
 20
156.89940599562
 30
0.0
 10
235.4970474535262
 20
156.9239700445257
 30
0.0
 10
235.8934671995358
 20
156.9371767712778
 30
0.0
  0
SPLINE
  5
4A
330
1F
100
AcDbEntity
  8
0
  6
Continuous
 62
     7
370
    15
100
AcDbSpline
210
0.0
220
0.0
230
1.0
 70
     8
 71
     3
 72
    11
 73
     7
 74
     0
 42
0.00000001
 43
0.00000001
 40
0.0
 40
0.0
 40
0.0
 40
0.0
 40
0.3608425583857676
 40
0.6885657273768001
 40
0.9816202194333054
 40
1.0
 40
1.0
 40
1.0
 40
1.0
 10
224.8949611005502
 20
144.0414678676075
 30
0.0
 10
225.0424222853285
 20
144.7643005199527
 30
0.0
 10
225.323810152688
 20
146.1436217210338
 30
0.0
 10
225.9164151350416
 20
148.0598742802965
 30
0.0
 10
226.3524150512496
 20
149.2951064316917
 30
0.0
 10
226.6322812305644
 20
149.8664938351395
 30
0.0
 10
226.6487979707437
 20
149.9002151561922
 30
0.0
  0
SPLINE
  5
4B
330
1F
100
AcDbEntity
  8
0
  6
Continuous
 62
     7
370
    15
100
AcDbSpline
210
0.0
220
0.0
230
1.0
 70
     8
 71
     3
 72
    34
 73
    30
 74
     0
 42
0.00000001
 43
0.00000001
 40
0.0
 40
0.0
 40
0.0
 40
0.0
 40
0.0067760436050726
 40
0.0202003541970057
 40
0.0322030376651925
 40
0.0428071501939142
 40
0.0597061406087112
 40
0.0709843492751648
 40
0.079135500233246
 40
0.0877257819723867
 40
0.097760726962148
 40
0.1223613966796631
 40
0.1528364332489708
 40
0.1885658845392632
 40
0.2242572008858797
 40
0.2586744686475567
 40
0.3225694112888098
 40
0.3815463976566376
 40
0.412859684914763
 40
0.4475998727791751
 40
0.488236237160982
 40
0.534768866751035
 40
0.5871988285324865
 40
0.6455279692849379
 40
0.7059303791522878
 40
0.7715854849051221
 40
0.8425023216011832
 40
0.9186618406750809
 40
0.9999999999999999
 40
0.9999999999999999
 40
0.9999999999999999
 40
0.9999999999999999
 10
219.5326851126866
 20
90.49810510110318
 30
0.0
 10
219.64378016722
 20
90.5128204130003
 30
0.0
 10
219.9749703988515
 20
90.55668886039616
 30
0.0
 10
220.4839707976355
 20
90.72646391484301
 30
0.0
 10
221.0150585275757
 20
91.00063156939471
 30
0.0
 10
221.5321381502534
 20
91.40501001372074
 30
0.0
 10
221.9382788073831
 20
91.91034491759329
 30
0.0
 10
222.2256213321623
 20
92.43870906706744
 30
0.0
 10
222.4053285309177
 20
92.8659461384745
 30
0.0
 10
222.5472948669183
 20
93.28550880065355
 30
0.0
 10
222.7344473590549
 20
93.97560311109831
 30
0.0
 10
222.9232646057334
 20
95.0374468017615
 30
0.0
 10
223.0689697995966
 20
96.53248819306502
 30
0.0
 10
223.1518354788916
 20
98.21537893799731
 30
0.0
 10
223.2124163816505
 20
99.96410693413213
 30
0.0
 10
223.2965617369117
 20
102.1780045403103
 30
0.0
 10
223.3914292603136
 20
104.7767360507142
 30
0.0
 10
223.4821776079902
 20
107.3242806456998
 30
0.0
 10
223.5529919722219
 20
109.3902117428453
 30
0.0
 10
223.6115204778677
 20
111.1531642672582
 30
0.0
 10
223.6757953704913
 20
113.1676921851493
 30
0.0
 10
223.7477717861302
 20
115.4745953130243
 30
0.0
 10
223.8291516857718
 20
118.0738689132917
 30
0.0
 10
223.9214157375729
 20
120.9022323361757
 30
0.0
 10
224.0291528896643
 20
123.9488422423053
 30
0.0
 10
224.1592918308426
 20
127.2029468577942
 30
0.0
 10
224.3210301124493
 20
130.7161890963477
 30
0.0
 10
224.5374785210457
 20
134.4875170473355
 30
0.0
 10
224.5355230640675
 20
137.0920779822722
 30
0.0
 10
224.5345131871419
 20
138.4371783955043
 30
0.0
  0
SPLINE
  5
4C
330
1F
100
AcDbEntity
  8
0
  6
Continuous
 62
     7
370
    15
100
AcDbSpline
210
0.0
220
0.0
230
1.0
 70
     8
 71
     3
 72
    23
 73
    19
 74
     0
 42
0.00000001
 43
0.00000001
 40
0.0
 40
0.0
 40
0.0
 40
0.0
 40
0.0560517380000582
 40
0.1124392044491573
 40
0.161771659147423
 40
0.2257885343354079
 40
0.2823988773075369
 40
0.3316570825169827
 40
0.3732755752778421
 40
0.4072555082685925
 40
0.4409485830455834
 40
0.4976298447821088
 40
0.5684329888349844
 40
0.6539348336343342
 40
0.7275399186737135
 40
0.809881009597508
 40
0.9029769548442537
 40
0.9999999999999999
 40
0.9999999999999999
 40
0.9999999999999999
 40
0.9999999999999999
 10
231.8934665438848
 20
195.9371775759405
 30
0.0
 10
231.4494768728584
 20
195.9185395856465
 30
0.0
 10
230.5588382026749
 20
195.8811519706331
 30
0.0
 10
229.2923738575126
 20
195.6613609785153
 30
0.0
 10
227.998319905715
 20
195.2858147535223
 30
0.0
 10
226.7701108055962
 20
194.7207074700137
 30
0.0
 10
225.6221455634744
 20
194.0138398461724
 30
0.0
 10
224.6952293741081
 20
193.2993202740717
 30
0.0
 10
223.9691706853528
 20
192.6261235073099
 30
0.0
 10
223.3763920897579
 20
191.9944047304348
 30
0.0
 10
222.7446630798864
 20
191.237931462323
 30
0.0
 10
221.9977548059638
 20
190.2002847380342
 30
0.0
 10
221.1450395590486
 20
188.7410845016873
 30
0.0
 10
220.3942760073873
 20
187.0779190981555
 30
0.0
 10
219.7678999358033
 20
185.2683890345396
 30
0.0
 10
219.2926372027642
 20
183.3511624255847
 30
0.0
 10
218.9683457443245
 20
181.2121829855449
 30
0.0
 10
218.918769928274
 20
179.7058837844966
 30
0.0
 10
218.8934700009542
 20
178.9371771177298
 30
0.0
  0
LINE
  5
4D
330
1F
100
AcDbEntity
  8
0
  6
Continuous
 62
     7
370
    15
100
AcDbLine
 10
241.893468183
 20
160.9371774269
 30
0.0
 11
244.3934657988
 21
160.9371774269
 31
0.0
  0
LINE
  5
4E
330
1F
100
AcDbEntity
  8
0
  6
Continuous
 62
     7
370
    15
100
AcDbLine
 10
236.29346652
 20
191.9371769203
 30
0.0
 11
236.1634017346
 21
191.8071130661
 31
0.0
  0
LINE
  5
4F
330
1F
100
AcDbEntity
  8
0
  6
Continuous
 62
     7
370
    15
100
AcDbLine
 10
244.3934657988
 20
191.9371769203
 30
0.0
 11
236.29346652
 21
191.9371769203
 31
0.0
  0
LINE
  5
50
330
1F
100
AcDbEntity
  8
0
  6
Continuous
 62
     7
370
    15
100
AcDbLine
 10
284.5934666605
 20
197.1871763838
 30
0.0
 11
283.3934666035
 21
197.1871763838
 31
0.0
  0
LINE
  5
51
330
1F
100
AcDbEntity
  8
0
  6
Continuous
 62
     7
370
    15
100
AcDbLine
 10
283.3934666035
 20
155.6871779634
 30
0.0
 11
284.5934666605
 21
155.6871779634
 31
0.0
  0
ARC
  5
52
330
1F
100
AcDbEntity
  8
0
  6
Continuous
 62
     7
370
    15
100
AcDbCircle
 10
287.0934666035
 20
156.9371771736
 30
0.0
 40
2.5
100
AcDbArc
 50
90.0
 51
180.0
  0
ARC
  5
53
330
1F
100
AcDbEntity
  8
0
  6
Continuous
 62
     7
370
    15
100
AcDbCircle
 10
287.0934666035
 20
195.9371771736
 30
0.0
 40
2.5
100
AcDbArc
 50
180.0
 51
270.0
  0
LINE
  5
54
330
1F
100
AcDbEntity
  8
0
  6
Continuous
 62
     7
370
    15
100
AcDbLine
 10
292.4307694105
 20
193.4371780975
 30
0.0
 11
287.0934666046
 21
193.4371780975
 31
0.0
  0
LINE
  5
55
330
1F
100
AcDbEntity
  8
0
  6
Continuous
 62
     7
370
    15
100
AcDbLine
 10
287.0934666046
 20
159.4371762497
 30
0.0
 11
301.8934668419
 21
159.4371762497
 31
0.0
  0
SPLINE
  5
56
330
1F
100
AcDbEntity
  8
0
  6
Continuous
 62
     7
370
    15
100
AcDbSpline
210
0.0
220
0.0
230
1.0
 70
     8
 71
     3
 72
    13
 73
     9
 74
     0
 42
0.00000001
 43
0.00000001
 40
0.0
 40
0.0
 40
0.0
 40
0.0
 40
0.0829681936145601
 40
0.2837536774673136
 40
0.4928456836973489
 40
0.6955829097152068
 40
0.8656151713332626
 40
1.0
 40
1.0
 40
1.0
 40
1.0
 10
293.3844725978689
 20
194.4077950341648
 30
0.0
 10
293.386251047299
 20
194.3659640719822
 30
0.0
 10
293.3923333969802
 20
194.2229009434
 30
0.0
 10
293.3034374228749
 20
193.983025682596
 30
0.0
 10
293.127861407725
 20
193.7264801289314
 30
0.0
 10
292.8891180464184
 20
193.5492023575939
 30
0.0
 10
292.6486288872692
 20
193.453517441508
 30
0.0
 10
292.4956444741828
 20
193.4413667065248
 30
0.0
 10
292.4281095531898
 20
193.4360027683919
 30
0.0
  0
LINE
  5
57
330
1F
100
AcDbEntity
  8
0
  6
Continuous
 62
     7
370
    15
100
AcDbLine
 10
317.3934684512
 20
206.4871773494
 30
0.0
 11
317.3934684512
 21
206.9371775163
 31
0.0
  0
LINE
  5
58
330
1F
100
AcDbEntity
  8
0
  6
Continuous
 62
     7
370
    15
100
AcDbLine
 10
293.39346638
 20
206.9371775163
 30
0.0
 11
293.39346638
 21
194.4082551075
 31
0.0
  0
ARC
  5
59
330
1F
100
AcDbEntity
  8
0
  6
Continuous
 62
     7
370
    15
100
AcDbCircle
 10
301.8934666035
 20
162.9371771736
 30
0.0
 40
3.5
100
AcDbArc
 50
270.0
 51
0.0
  0
LINE
  5
5A
330
1F
100
AcDbEntity
  8
0
  6
Continuous
 62
     7
370
    15
100
AcDbLine
 10
312.8934667823
 20
147.4371780081
 30
0.0
 11
317.8934657392
 21
147.4371780081
 31
0.0
  0
LINE
  5
5B
330
1F
100
AcDbEntity
  8
0
  6
Continuous
 62
     7
370
    15
100
AcDbLine
 10
283.3934666035
 20
195.9371775759
 30
0.0
 11
253.8934664247
 21
195.9371775759
 31
0.0
  0
LINE
  5
5C
330
1F
100
AcDbEntity
  8
0
  6
Continuous
 62
     7
370
    15
100
AcDbLine
 10
248.8934674678
 20
195.9371775759
 30
0.0
 11
244.3934657988
 21
195.9371775759
 31
0.0
  0
LINE
  5
5D
330
1F
100
AcDbEntity
  8
0
  6
Continuous
 62
     7
370
    15
100
AcDbLine
 10
244.3934657988
 20
156.9371767713
 30
0.0
 11
248.8934674678
 21
156.9371767713
 31
0.0
  0
LINE
  5
5E
330
1F
100
AcDbEntity
  8
0
  6
Continuous
 62
     7
370
    15
100
AcDbLine
 10
253.8934664247
 20
156.9371767713
 30
0.0
 11
283.3934666035
 21
156.9371767713
 31
0.0
  0
LINE
  5
5F
330
1F
100
AcDbEntity
  8
0
  6
Continuous
 62
     7
370
    15
100
AcDbLine
 10
220.299849045
 20
99.644311182
 30
0.0
 11
220.299849045
 21
100.9371731801
 31
0.0
  0
SPLINE
  5
60
330
1F
100
AcDbEntity
  8
0
  6
Continuous
 62
     7
370
    15
100
AcDbSpline
210
0.0
220
0.0
230
1.0
 70
     8
 71
     3
 72
    10
 73
     6
 74
     0
 42
0.00000001
 43
0.00000001
 40
0.0
 40
0.0
 40
0.0
 40
0.0
 40
0.344474280238174
 40
0.69217524264098
 40
0.9999999999999999
 40
0.9999999999999999
 40
0.9999999999999999
 40
0.9999999999999999
 10
220.1732040760236
 20
100.0397432966179
 30
0.0
 10
220.1903599350781
 20
100.0308833297275
 30
0.0
 10
220.2248323516997
 20
100.0130804048534
 30
0.0
 10
220.2695130859324
 20
99.8579568818153
 30
0.0
 10
220.2901556266083
 20
99.71257858548329
 30
0.0
 10
220.2998490450101
 20
99.64431118201672
 30
0.0
  0
SPLINE
  5
61
330
1F
100
AcDbEntity
  8
0
  6
Continuous
 62
     7
370
    15
100
AcDbSpline
210
0.0
220
0.0
230
1.0
 70
     8
 71
     3
 72
    12
 73
     8
 74
     0
 42
0.00000001
 43
0.00000001
 40
0.0
 40
0.0
 40
0.0
 40
0.0
 40
0.3258642864909044
 40
0.5144553256524206
 40
0.7045875813443938
 40
0.8741216188289778
 40
1.0
 40
1.0
 40
1.0
 40
1.0
 10
219.991089534493
 20
98.71391992997586
 30
0.0
 10
219.9937892433734
 20
98.92284582492874
 30
0.0
 10
219.9980513846048
 20
99.25268571159647
 30
0.0
 10
220.0317622209146
 20
99.66313260243987
 30
0.0
 10
220.0761707324241
 20
99.9017096626028
 30
0.0
 10
220.1261050047852
 20
100.0235389386113
 30
0.0
 10
220.1591312435654
 20
100.034901561753
 30
0.0
 10
220.1732040760236
 20
100.0397432966179
 30
0.0
  0
SPLINE
  5
62
330
1F
100
AcDbEntity
  8
0
  6
Continuous
 62
     7
370
    15
100
AcDbSpline
210
0.0
220
0.0
230
1.0
 70
     8
 71
     3
 72
    12
 73
     8
 74
     0
 42
0.00000001
 43
0.00000001
 40
0.0
 40
0.0
 40
0.0
 40
0.0
 40
0.1829811631135744
 40
0.3667941395162663
 40
0.5420346805335199
 40
0.7793023104452464
 40
1.0
 40
1.0
 40
1.0
 40
1.0
 10
220.1735766050534
 20
97.39230614137112
 30
0.0
 10
220.1532330865643
 20
97.40397858294477
 30
0.0
 10
220.1124535700719
 20
97.42737652779442
 30
0.0
 10
220.0612332485844
 20
97.6119774156607
 30
0.0
 10
220.020000962644
 20
97.90172308206415
 30
0.0
 10
219.9949724731803
 20
98.28355529233374
 30
0.0
 10
219.992352246009
 20
98.57396758259411
 30
0.0
 10
219.991089534493
 20
98.71391992997586
 30
0.0
  0
SPLINE
  5
63
330
1F
100
AcDbEntity
  8
0
  6
Continuous
 62
     7
370
    15
100
AcDbSpline
210
0.0
220
0.0
230
1.0
 70
     8
 71
     3
 72
    11
 73
     7
 74
     0
 42
0.00000001
 43
0.00000001
 40
0.0
 40
0.0
 40
0.0
 40
0.0
 40
0.364902633844628
 40
0.6391699006198079
 40
0.9134884210614052
 40
1.0
 40
1.0
 40
1.0
 40
1.0
 10
220.2998490450101
 20
97.8234935922569
 30
0.0
 10
220.2891202888166
 20
97.73451115238126
 30
0.0
 10
220.2703276099101
 20
97.57864793853437
 30
0.0
 10
220.2287340653327
 20
97.43570747870501
 30
0.0
 10
220.1962819569326
 20
97.39677746497212
 30
0.0
 10
220.1779676017717
 20
97.39317085235922
 30
0.0
 10
220.1735766050534
 20
97.39230614137112
 30
0.0
  0
LINE
  5
64
330
1F
100
AcDbEntity
  8
0
  6
Continuous
 62
     7
370
    15
100
AcDbLine
 10
220.299849045
 20
97.4371735377
 30
0.0
 11
220.299849045
 21
97.8234935923
 31
0.0
  0
LINE
  5
65
330
1F
100
AcDbEntity
  8
0
  6
Continuous
 62
     7
370
    15
100
AcDbLine
 10
220.3853370068
 20
97.4371735377
 30
0.0
 11
220.299849045
 21
97.4371735377
 31
0.0
  0
LINE
  5
66
330
1F
100
AcDbEntity
  8
0
  6
Continuous
 62
     7
370
    15
100
AcDbLine
 10
220.3853370068
 20
100.9371731801
 30
0.0
 11
220.3853370068
 21
97.4371735377
 31
0.0
  0
LINE
  5
67
330
1F
100
AcDbEntity
  8
0
  6
Continuous
 62
     7
370
    15
100
AcDbLine
 10
220.299849045
 20
100.9371731801
 30
0.0
 11
220.3853370068
 21
100.9371731801
 31
0.0
  0
SPLINE
  5
68
330
1F
100
AcDbEntity
  8
0
  6
Continuous
 62
     7
370
    15
100
AcDbSpline
210
0.0
220
0.0
230
1.0
 70
     8
 71
     3
 72
    10
 73
     6
 74
     0
 42
0.00000001
 43
0.00000001
 40
0.0
 40
0.0
 40
0.0
 40
0.0
 40
0.2500906511988639
 40
0.6973793162800871
 40
0.9999999999999999
 40
0.9999999999999999
 40
0.9999999999999999
 40
0.9999999999999999
 10
219.5039705750661
 20
99.75858818721234
 30
0.0
 10
219.5108780220557
 20
99.80223660723978
 30
0.0
 10
219.530139480394
 20
99.92395049446235
 30
0.0
 10
219.5647951483245
 20
100.0248629074449
 30
0.0
 10
219.59265508075
 20
100.035464926019
 30
0.0
 10
219.603897762032
 20
100.0397432966179
 30
0.0
  0
SPLINE
  5
69
330
1F
100
AcDbEntity
  8
0
  6
Continuous
 62
     7
370
    15
100
AcDbSpline
210
0.0
220
0.0
230
1.0
 70
     8
 71
     3
 72
    10
 73
     6
 74
     0
 42
0.00000001
 43
0.00000001
 40
0.0
 40
0.0
 40
0.0
 40
0.0
 40
0.2519543486552562
 40
0.7046092255768587
 40
1.0
 40
1.0
 40
1.0
 40
1.0
 10
219.4576577660756
 20
98.71602099370419
 30
0.0
 10
219.4580498604727
 20
98.81167106104962
 30
0.0
 10
219.4591463818502
 20
99.07916364547353
 30
0.0
 10
219.4710499216197
 20
99.46418773909065
 30
0.0
 10
219.4946509298286
 20
99.67524513514553
 30
0.0
 10
219.5039705750661
 20
99.75858818721234
 30
0.0
  0
SPLINE
  5
6A
330
1F
100
AcDbEntity
  8
0
  6
Continuous
 62
     7
370
    15
100
AcDbSpline
210
0.0
220
0.0
230
1.0
 70
     8
 71
     3
 72
    12
 73
     8
 74
     0
 42
0.00000001
 43
0.00000001
 40
0.0
 40
0.0
 40
0.0
 40
0.0
 40
0.2612452533285224
 40
0.4400782933611965
 40
0.6188381066739793
 40
0.8395429805288868
 40
1.0
 40
1.0
 40
1.0
 40
1.0
 10
219.603897762032
 20
97.39230614137112
 30
0.0
 10
219.5810919181592
 20
97.40904709040906
 30
0.0
 10
219.5426745432121
 20
97.43724790243529
 30
0.0
 10
219.4996774075686
 20
97.67607367783691
 30
0.0
 10
219.4716809617665
 20
97.9893232762916
 30
0.0
 10
219.4592435206516
 20
98.3556281874965
 30
0.0
 10
219.458127552944
 20
98.60925301689134
 30
0.0
 10
219.4576577660756
 20
98.71602099370419
 30
0.0
  0
SPLINE
  5
6B
330
1F
100
AcDbEntity
  8
0
  6
Continuous
 62
     7
370
    15
100
AcDbSpline
210
0.0
220
0.0
230
1.0
 70
     8
 71
     3
 72
    12
 73
     8
 74
     0
 42
0.00000001
 43
0.00000001
 40
0.0
 40
0.0
 40
0.0
 40
0.0
 40
0.2876071186653716
 40
0.4607470075998337
 40
0.6340625285090126
 40
0.8044579173915675
 40
1.0
 40
1.0
 40
1.0
 40
1.0
 10
219.7668121573644
 20
98.75177632998883
 30
0.0
 10
219.765724658905
 20
98.55500360213033
 30
0.0
 10
219.7639824848472
 20
98.2397734160391
 30
0.0
 10
219.7369521131874
 20
97.84183582750994
 30
0.0
 10
219.7007544879668
 20
97.59393551451282
 30
0.0
 10
219.6546465887912
 20
97.42497172492585
 30
0.0
 10
219.6215716580839
 20
97.40368232807512
 30
0.0
 10
219.603897762032
 20
97.39230614137111
 30
0.0
  0
SPLINE
  5
6C
330
1F
100
AcDbEntity
  8
0
  6
Continuous
 62
     7
370
    15
100
AcDbSpline
210
0.0
220
0.0
230
1.0
 70
     8
 71
     3
 72
    12
 73
     8
 74
     0
 42
0.00000001
 43
0.00000001
 40
0.0
 40
0.0
 40
0.0
 40
0.0
 40
0.2622425822515337
 40
0.4497608293328215
 40
0.6371991877412775
 40
0.8239132415850249
 40
1.0
 40
1.0
 40
1.0
 40
1.0
 10
219.603897762032
 20
100.0397432966179
 30
0.0
 10
219.627013448846
 20
100.0227628550469
 30
0.0
 10
219.6666581563636
 20
99.99364043938955
 30
0.0
 10
219.7160374899843
 20
99.74923803464652
 30
0.0
 10
219.7479629412477
 20
99.45187907008663
 30
0.0
 10
219.7645418574432
 20
99.10413283755571
 30
0.0
 10
219.7660703147696
 20
98.86691224812905
 30
0.0
 10
219.7668121573644
 20
98.75177632998883
 30
0.0
  0
SPLINE
  5
6D
330
1F
100
AcDbEntity
  8
0
  6
Continuous
 62
     7
370
    15
100
AcDbSpline
210
0.0
220
0.0
230
1.0
 70
     8
 71
     3
 72
    66
 73
    62
 74
     0
 42
0.00000001
 43
0.00000001
 40
0.0
 40
0.0
 40
0.0
 40
0.0
 40
0.0244996611763266
 40
0.0430981276789322
 40
0.0572593326127465
 40
0.0767228634792061
 40
0.0965370559048234
 40
0.1152536748952207
 40
0.1335824818355657
 40
0.1595195648969268
 40
0.1870478735967829
 40
0.2161674160473928
 40
0.2479342045751596
 40
0.2789494452794781
 40
0.3084812718507487
 40
0.3365296933455506
 40
0.3630947204973158
 40
0.3881763662757108
 40
0.411774645558902
 40
0.4338895761714492
 40
0.4520754675864257
 40
0.4701542294960683
 40
0.4881256718183001
 40
0.5061990559432678
 40
0.5278623082207526
 40
0.5423616679506941
 40
0.5544071490705729
 40
0.5648527755156508
 40
0.5758649121816443
 40
0.5871960080607507
 40
0.5966052349550905
 40
0.6060345866932946
 40
0.61510518992403
 40
0.6237187750490334
 40
0.6305194038281058
 40
0.6338886416244871
 40
0.6372760769410134
 40
0.6414128457976659
 40
0.6459203603927607
 40
0.6508535225251256
 40
0.6706512884773057
 40
0.6899287323832289
 40
0.7097580924966835
 40
0.7277608248230937
 40
0.7498762146965212
 40
0.7695605010298876
 40
0.7877904998678514
 40
0.8088819494595788
 40
0.8254701129907321
 40
0.8440786673870834
 40
0.8661486462827642
 40
0.8841221108675453
 40
0.8999894364877707
 40
0.9137506082461698
 40
0.9290064567322373
 40
0.9458667655069488
 40
0.9607673511206665
 40
0.9737082562542452
 40
0.9853890688418426
 40
0.9958944486607603
 40
1.0
 40
1.0
 40
1.0
 40
1.0
 10
220.8934666034894
 20
138.4371783955043
 30
0.0
 10
220.8934647136933
 20
137.8302739675464
 30
0.0
 10
220.8934613892933
 20
136.7626492221757
 30
0.0
 10
220.8934190175039
 20
135.3442237987133
 30
0.0
 10
220.8933003190766
 20
134.0505532150987
 30
0.0
 10
220.8930253640862
 20
132.7267671895379
 30
0.0
 10
220.8925020736623
 20
131.2901359041868
 30
0.0
 10
220.8917722510705
 20
129.8816160430293
 30
0.0
 10
220.8907693245358
 20
128.3214230424082
 30
0.0
 10
220.8893978404772
 20
126.5429514181914
 30
0.0
 10
220.887576706106
 20
124.4971782645795
 30
0.0
 10
220.8853718942036
 20
122.3069980262481
 30
0.0
 10
220.8828634601954
 20
120.030445350286
 30
0.0
 10
220.8801248172234
 20
117.7436852995563
 30
0.0
 10
220.8772310341979
 20
115.5490417650184
 30
0.0
 10
220.8742178824991
 20
113.4646443663617
 30
0.0
 10
220.8711023040527
 20
111.4904930636067
 30
0.0
 10
220.8678517045551
 20
109.6265879020964
 30
0.0
 10
220.86449026951
 20
107.8729286867882
 30
0.0
 10
220.8611276161392
 20
106.2900980109998
 30
0.0
 10
220.8577764549984
 20
104.8440037595136
 30
0.0
 10
220.8544449653232
 20
103.5005567790535
 30
0.0
 10
220.8509104674618
 20
102.1599088387732
 30
0.0
 10
220.8468968947074
 20
100.7304862247344
 30
0.0
 10
220.8428775343019
 20
99.38708285979776
 30
0.0
 10
220.8392552701959
 20
98.19299069640802
 30
0.0
 10
220.8355317555171
 20
97.27681951927075
 30
0.0
 10
220.8307468975742
 20
96.44716245308551
 30
0.0
 10
220.8240096039571
 20
95.63549052288566
 30
0.0
 10
220.8141099705887
 20
94.85017422139632
 30
0.0
 10
220.799892270164
 20
94.1055973865391
 30
0.0
 10
220.7796189033292
 20
93.42030059360953
 30
0.0
 10
220.7487578761206
 20
92.76344583035844
 30
0.0
 10
220.7035303044783
 20
92.19223796274437
 30
0.0
 10
220.650321845328
 20
91.79892986646205
 30
0.0
 10
220.6029655069441
 20
91.55496280930714
 30
0.0
 10
220.560801439691
 20
91.38274910124362
 30
0.0
 10
220.5102510514954
 20
91.22446594618282
 30
0.0
 10
220.4504600737996
 20
91.0814576427254
 30
0.0
 10
220.3189444005594
 20
90.84202399157276
 30
0.0
 10
220.1220112307803
 20
90.67095647751697
 30
0.0
 10
219.8835988336335
 20
90.5621197798221
 30
0.0
 10
219.6762879760185
 20
90.50837167423072
 30
0.0
 10
219.4839402064474
 20
90.47695394978788
 30
0.0
 10
219.3187140114364
 20
90.45865977264893
 30
0.0
 10
219.1808871816724
 20
90.44859381120037
 30
0.0
 10
219.0704335997675
 20
90.44270119322266
 30
0.0
 10
218.9903909175753
 20
90.43952458865515
 30
0.0
 10
218.933599471369
 20
90.43795639898799
 30
0.0
 10
218.8984322974704
 20
90.43725965735761
 30
0.0
 10
218.8891944596423
 20
90.4371048316769
 30
0.0
 10
218.9055063693458
 20
90.43736028503011
 30
0.0
 10
218.9374888842637
 20
90.4380882425609
 30
0.0
 10
218.9825589601887
 20
90.43932572973436
 30
0.0
 10
219.0435597389254
 20
90.44157340759284
 30
0.0
 10
219.1229762612574
 20
90.44538052779158
 30
0.0
 10
219.2144427657059
 20
90.45101981204323
 30
0.0
 10
219.3074070424728
 20
90.45816575525647
 30
0.0
 10
219.4002871832531
 20
90.46767184101569
 30
0.0
 10
219.4747747375461
 20
90.47625177910646
 30
0.0
 10
219.520738304379
 20
90.4837262730354
 30
0.0
 10
219.5336536881642
 20
90.48582654427945
 30
0.0
  0
LINE
  5
6E
330
1F
100
AcDbEntity
  8
0
  6
Continuous
 62
     7
370
    15
100
AcDbLine
 10
220.8934666035
 20
178.9371771177
 30
0.0
 11
220.8934666035
 21
138.4371783955
 31
0.0
  0
SPLINE
  5
6F
330
1F
100
AcDbEntity
  8
0
  6
Continuous
 62
     7
370
    15
100
AcDbSpline
210
0.0
220
0.0
230
1.0
 70
     8
 71
     3
 72
    11
 73
     7
 74
     0
 42
0.00000001
 43
0.00000001
 40
0.0
 40
0.0
 40
0.0
 40
0.0
 40
0.3354263815186316
 40
0.5557852460355037
 40
0.7756287356778084
 40
1.0
 40
1.0
 40
1.0
 40
1.0
 10
219.37620801899
 20
99.18717335891186
 30
0.0
 10
219.3731288232417
 20
99.27068905457223
 30
0.0
 10
219.3680267452274
 20
99.40907051177984
 30
0.0
 10
219.3520526853875
 20
99.54972446884808
 30
0.0
 10
219.3354256156723
 20
99.62461906024473
 30
0.0
 10
219.323627827395
 20
99.6321089232493
 30
0.0
 10
219.31766880724
 20
99.6358920259422
 30
0.0
  0
ELLIPSE
  5
70
330
1F
100
AcDbEntity
  8
0
  6
Continuous
 62
     7
370
    15
100
AcDbEllipse
 10
300.8934666035
 20
98.2987150287
 30
0.0
 11
81.99999999999909
 21
0.0
 31
0.0
210
0.0
220
0.0
230
1.0
 40
0.1
 41
3.027524307884627
 42
3.033030563915536
  0
SPLINE
  5
71
330
1F
100
AcDbEntity
  8
0
  6
Continuous
 62
     7
370
    15
100
AcDbSpline
210
0.0
220
0.0
230
1.0
 70
     8
 71
     3
 72
    12
 73
     8
 74
     0
 42
0.00000001
 43
0.00000001
 40
0.0
 40
0.0
 40
0.0
 40
0.0
 40
0.3177311140829056
 40
0.526291218707386
 40
0.7351043920112397
 40
0.9414522891505764
 40
1.0
 40
1.0
 40
1.0
 40
1.0
 10
219.3173856851773
 20
100.0397432966179
 30
0.0
 10
219.3330416284531
 20
100.0279170785133
 30
0.0
 10
219.358974201945
 20
100.0083280786858
 30
0.0
 10
219.3922859248038
 20
99.82435195601505
 30
0.0
 10
219.4134424786255
 20
99.59297577361524
 30
0.0
 10
219.4228317212864
 20
99.38148825635044
 30
0.0
 10
219.4257256959954
 20
99.25909892032044
 30
0.0
 10
219.4263653275685
 20
99.23204820584714
 30
0.0
  0
SPLINE
  5
72
330
1F
100
AcDbEntity
  8
0
  6
Continuous
 62
     7
370
    15
100
AcDbSpline
210
0.0
220
0.0
230
1.0
 70
     8
 71
     3
 72
    12
 73
     8
 74
     0
 42
0.00000001
 43
0.00000001
 40
0.0
 40
0.0
 40
0.0
 40
0.0
 40
0.3383722268623278
 40
0.5068691579039799
 40
0.6765715511938132
 40
0.8812906596467391
 40
1.0
 40
1.0
 40
1.0
 40
1.0
 10
219.2083687898831
 20
98.70620857905804
 30
0.0
 10
219.2098278895917
 20
98.93281979165843
 30
0.0
 10
219.2120135673213
 20
99.27227505832575
 30
0.0
 10
219.2317010126238
 20
99.67473118358959
 30
0.0
 10
219.2577198702763
 20
99.90802797526383
 30
0.0
 10
219.2878704910692
 20
100.0245906171049
 30
0.0
 10
219.309461166376
 20
100.0356749617375
 30
0.0
 10
219.3173856851773
 20
100.0397432966179
 30
0.0
  0
SPLINE
  5
73
330
1F
100
AcDbEntity
  8
0
  6
Continuous
 62
     7
370
    15
100
AcDbSpline
210
0.0
220
0.0
230
1.0
 70
     8
 71
     3
 72
    12
 73
     8
 74
     0
 42
0.00000001
 43
0.00000001
 40
0.0
 40
0.0
 40
0.0
 40
0.0
 40
0.2530152951766404
 40
0.4271429043872138
 40
0.6011120709328792
 40
0.7804964409945437
 40
1.0
 40
1.0
 40
1.0
 40
1.0
 10
219.3174527404027
 20
97.39230614137112
 30
0.0
 10
219.3006506737311
 20
97.40762149783146
 30
0.0
 10
219.2722852598821
 20
97.43347703291136
 30
0.0
 10
219.2407762851172
 20
97.65941813102947
 30
0.0
 10
219.2213590824838
 20
97.93767274167371
 30
0.0
 10
219.2100243731159
 20
98.2985421555124
 30
0.0
 10
219.2089564538773
 20
98.56150375601106
 30
0.0
 10
219.2083687898831
 20
98.70620857905804
 30
0.0
  0
SPLINE
  5
74
330
1F
100
AcDbEntity
  8
0
  6
Continuous
 62
     7
370
    15
100
AcDbSpline
210
0.0
220
0.0
230
1.0
 70
     8
 71
     3
 72
    12
 73
     8
 74
     0
 42
0.00000001
 43
0.00000001
 40
0.0
 40
0.0
 40
0.0
 40
0.0
 40
0.3028475307227387
 40
0.5174624533510063
 40
0.7317936250033641
 40
0.9445111318214703
 40
1.0
 40
1.0
 40
1.0
 40
1.0
 10
219.431513678761
 20
98.33461087178647
 30
0.0
 10
219.4272645055026
 20
98.18027019486257
 30
0.0
 10
219.4200041272729
 20
97.91655496779005
 30
0.0
 10
219.3918930241194
 20
97.62041438867722
 30
0.0
 10
219.360577237469
 20
97.44659771320674
 30
0.0
 10
219.3344706272171
 20
97.3965248176923
 30
0.0
 10
219.3203700006901
 20
97.39302932028467
 30
0.0
 10
219.3174527404027
 20
97.39230614137112
 30
0.0
  0
ELLIPSE
  5
75
330
1F
100
AcDbEntity
  8
0
  6
Continuous
 62
     7
370
    15
100
AcDbEllipse
 10
300.8934666035
 20
99.2724329774
 30
0.0
 11
81.99999999999909
 21
0.0
 31
0.0
210
0.0
220
0.0
230
1.0
 40
0.1
 41
3.250705217402852
 42
3.256211813197598
  0
SPLINE
  5
76
330
1F
100
AcDbEntity
  8
0
  6
Continuous
 62
     7
370
    15
100
AcDbSpline
210
0.0
220
0.0
230
1.0
 70
     8
 71
     3
 72
    12
 73
     8
 74
     0
 42
0.00000001
 43
0.00000001
 40
0.0
 40
0.0
 40
0.0
 40
0.0
 40
0.2442732946860064
 40
0.4499284364256073
 40
0.6561035047800317
 40
0.919682310983421
 40
1.0
 40
1.0
 40
1.0
 40
1.0
 10
219.3158806678967
 20
97.79614996146618
 30
0.0
 10
219.3237477188033
 20
97.80233271997851
 30
0.0
 10
219.3382380867259
 20
97.81372077970822
 30
0.0
 10
219.3577211341506
 20
97.91707675919372
 30
0.0
 10
219.3725021162409
 20
98.08229710220441
 30
0.0
 10
219.3787886659833
 20
98.24854686555463
 30
0.0
 10
219.3806709013311
 20
98.35469468985082
 30
0.0
 10
219.3811105010228
 20
98.37948571872174
 30
0.0
  0
SPLINE
  5
77
330
1F
100
AcDbEntity
  8
0
  6
Continuous
 62
     7
370
    15
100
AcDbSpline
210
0.0
220
0.0
230
1.0
 70
     8
 71
     3
 72
    12
 73
     8
 74
     0
 42
0.00000001
 43
0.00000001
 40
0.0
 40
0.0
 40
0.0
 40
0.0
 40
0.3907334971271718
 40
0.5545151571780178
 40
0.7186669634642225
 40
0.8845959275135759
 40
1.0
 40
1.0
 40
1.0
 40
1.0
 10
219.2490489599423
 20
98.71812950801312
 30
0.0
 10
219.2497508062928
 20
98.54629707323261
 30
0.0
 10
219.2507468418061
 20
98.30243856025344
 30
0.0
 10
219.2648032381632
 20
98.02205601794869
 30
0.0
 10
219.2805115122812
 20
97.87818706328656
 30
0.0
 10
219.2985336224612
 20
97.80536081976675
 30
0.0
 10
219.310834707629
 20
97.79882924337556
 30
0.0
 10
219.3158806678967
 20
97.79614996146618
 30
0.0
  0
SPLINE
  5
78
330
1F
100
AcDbEntity
  8
0
  6
Continuous
 62
     7
370
    15
100
AcDbSpline
210
0.0
220
0.0
230
1.0
 70
     8
 71
     3
 72
    12
 73
     8
 74
     0
 42
0.00000001
 43
0.00000001
 40
0.0
 40
0.0
 40
0.0
 40
0.0
 40
0.1921581749706768
 40
0.3558613177740618
 40
0.5194421367809309
 40
0.7243097746156093
 40
1.0
 40
1.0
 40
1.0
 40
1.0
 10
219.31766880724
 20
99.6358920259422
 30
0.0
 10
219.3091611078203
 20
99.62891397282438
 30
0.0
 10
219.2934055401627
 20
99.61599118575903
 30
0.0
 10
219.2739378991005
 20
99.4974568764907
 30
0.0
 10
219.2592272288145
 20
99.31952427917597
 30
0.0
 10
219.2502566121538
 20
99.04865867730034
 30
0.0
 10
219.2494892095316
 20
98.83862390998269
 30
0.0
 10
219.2490489599423
 20
98.71812950801312
 30
0.0
  0
LINE
  5
79
330
1F
100
AcDbEntity
  8
0
  6
Continuous
 62
     7
370
    15
100
AcDbLine
 10
219.840967786
 20
97.4371735377
 30
0.0
 11
219.840967786
 21
100.9371731801
 31
0.0
  0
LINE
  5
7A
330
1F
100
AcDbEntity
  8
0
  6
Continuous
 62
     7
370
    15
100
AcDbLine
 10
219.9110479471
 20
97.4371735377
 30
0.0
 11
219.840967786
 21
97.4371735377
 31
0.0
  0
LINE
  5
7B
330
1F
100
AcDbEntity
  8
0
  6
Continuous
 62
     7
370
    15
100
AcDbLine
 10
219.9110479471
 20
100.9371731801
 30
0.0
 11
219.9110479471
 21
97.4371735377
 31
0.0
  0
LINE
  5
7C
330
1F
100
AcDbEntity
  8
0
  6
Continuous
 62
     7
370
    15
100
AcDbLine
 10
219.840967786
 20
100.9371731801
 30
0.0
 11
219.9110479471
 21
100.9371731801
 31
0.0
  0
LINE
  5
7D
330
1F
100
AcDbEntity
  8
0
  6
Continuous
 62
     7
370
    15
100
AcDbLine
 10
235.8934671995
 20
164.9371771513
 30
0.0
 11
241.893468183
 21
164.9371771513
 31
0.0
  0
SPLINE
  5
7E
330
1F
100
AcDbEntity
  8
0
  6
Continuous
 62
     7
370
    15
100
AcDbSpline
210
0.0
220
0.0
230
1.0
 70
     8
 71
     3
 72
    24
 73
    20
 74
     0
 42
0.00000001
 43
0.00000001
 40
0.0
 40
0.0
 40
0.0
 40
0.0
 40
0.0800788987092555
 40
0.1640996902619804
 40
0.2498094991269168
 40
0.3400022838139418
 40
0.4283810008913846
 40
0.5137447107535696
 40
0.5572039517197965
 40
0.5986711799753238
 40
0.6383300634751821
 40
0.6792076974481074
 40
0.7183890323792776
 40
0.7562155210588916
 40
0.7955702965894859
 40
0.8342142087675185
 40
0.8726825738141676
 40
0.9349024560975656
 40
1.0
 40
1.0
 40
1.0
 40
1.0
 10
220.8934666034894
 20
138.4371783955043
 30
0.0
 10
220.9047961598338
 20
139.3408627292667
 30
0.0
 10
220.9280129712144
 20
141.1927153603002
 30
0.0
 10
221.121370532114
 20
144.006468269675
 30
0.0
 10
221.4582453635995
 20
146.921171684194
 30
0.0
 10
221.9761610131905
 20
149.8603406055454
 30
0.0
 10
222.7015328940338
 20
152.7518472922875
 30
0.0
 10
223.5040198437627
 20
155.0722960293346
 30
0.0
 10
224.2810422153
 20
156.8309380696664
 30
0.0
 10
224.930127546212
 20
158.0791499760287
 30
0.0
 10
225.6492408954466
 20
159.2544935161912
 30
0.0
 10
226.4436665655205
 20
160.3491879529698
 30
0.0
 10
227.3196466229265
 20
161.352844203333
 30
0.0
 10
228.2765063099448
 20
162.2552342059382
 30
0.0
 10
229.3200171455682
 20
163.046731382458
 30
0.0
 10
230.4552016090065
 20
163.7157839428863
 30
0.0
 10
231.8984531090006
 20
164.3452758287145
 30
0.0
 10
233.7190819035731
 20
164.8410024616973
 30
0.0
 10
235.1578324295395
 20
164.9046394746251
 30
0.0
 10
235.8934671995358
 20
164.9371771512574
 30
0.0
  0
SPLINE
  5
7F
330
1F
100
AcDbEntity
  8
0
  6
Continuous
 62
     7
370
    15
100
AcDbSpline
210
0.0
220
0.0
230
1.0
 70
     8
 71
     3
 72
    20
 73
    16
 74
     0
 42
0.00000001
 43
0.00000001
 40
0.0
 40
0.0
 40
0.0
 40
0.0
 40
0.138429623177235
 40
0.2758987959803337
 40
0.3656881478480994
 40
0.4529789558544335
 40
0.5368236521927475
 40
0.597840736847397
 40
0.6565429513935848
 40
0.714021539442151
 40
0.7697514525373723
 40
0.8271264735049573
 40
0.8839322477739964
 40
0.9412160399994082
 40
1.0
 40
1.0
 40
1.0
 40
1.0
 10
220.8934666034894
 20
178.9371771177298
 30
0.0
 10
220.9317641488264
 20
179.8893774404324
 30
0.0
 10
221.0080935240348
 20
181.7871715435729
 30
0.0
 10
221.5454706341158
 20
184.2560217431854
 30
0.0
 10
222.2353904875716
 20
186.3073883069934
 30
0.0
 10
222.9828678184472
 20
187.9418618353992
 30
0.0
 10
223.8052075919817
 20
189.3137735218358
 30
0.0
 10
224.651566796684
 20
190.4307463518651
 30
0.0
 10
225.483124516475
 20
191.3237752542715
 30
0.0
 10
226.3797929104453
 20
192.0974460307202
 30
0.0
 10
227.3546392977013
 20
192.7540476582701
 30
0.0
 10
228.4016584140504
 20
193.2800293897596
 30
0.0
 10
229.5206314560447
 20
193.6596487991332
 30
0.0
 10
230.6906369013333
 20
193.8952425359635
 30
0.0
 10
231.4890833743129
 20
193.9230790822442
 30
0.0
 10
231.8934665438848
 20
193.9371772481149
 30
0.0
  0
LINE
  5
80
330
1F
100
AcDbEntity
  8
0
  6
Continuous
 62
     7
370
    15
100
AcDbLine
 10
235.2150359568
 20
193.9371772481
 30
0.0
 11
231.8934665439
 21
193.9371772481
 31
0.0
  0
LINE
  5
81
330
1F
100
AcDbEntity
  8
0
  6
Continuous
 62
     7
370
    15
100
AcDbLine
 10
241.893468183
 20
178.9371771177
 30
0.0
 11
235.2150359568
 21
193.9371772481
 31
0.0
  0
LINE
  5
82
330
1F
100
AcDbEntity
  8
0
  6
Continuous
 62
     7
370
    15
100
AcDbLine
 10
241.893468183
 20
178.9371771177
 30
0.0
 11
241.893468183
 21
164.9371771513
 31
0.0
  0
LWPOLYLINE
  5
83
330
1F
100
AcDbEntity
  8
0
  6
Continuous
 62
     7
370
    15
100
AcDbPolyline
 90
        7
 70
   128
 43
0.0
 10
235.2150359568
 20
193.9371772481
 10
234.9437230644
 20
194.5465546472
 10
234.7212375519
 20
195.0462688131
 10
234.5478774426
 20
195.4356436057
 10
234.4238774297
 20
195.7141463084
 10
234.3494126019
 20
195.8814006669
 10
234.3245798168
 20
195.9371775759
  0
LINE
  5
84
330
1F
100
AcDbEntity
  8
0
  6
Continuous
 62
     7
370
    15
100
AcDbLine
 10
235.8934671995
 20
156.9371767713
 30
0.0
 11
241.893468183
 21
156.9371767713
 31
0.0
  0
SPLINE
  5
85
330
1F
100
AcDbEntity
  8
0
  6
Continuous
 62
     7
370
    15
100
AcDbSpline
210
0.0
220
0.0
230
1.0
 70
    24
 71
     3
 72
    18
 73
    14
 74
     0
 42
0.00000001
 43
0.00000001
 40
0.0
 40
0.0
 40
0.0
 40
0.0
 40
0.0623278784911928
 40
0.1246897835627239
 40
0.1871234317407351
 40
0.2496101082208893
 40
0.3329356494748115
 40
0.4163002789807807
 40
0.4996828133939529
 40
0.6247435851519102
 40
0.7498232071388712
 40
0.8749071867377768
 40
1.0
 40
1.0
 40
1.0
 40
1.0
 10
241.8934681830125
 20
164.9371771512574
 30
0.0
 10
241.8934681830125
 20
164.4918369789159
 30
0.0
 10
241.8934681830125
 20
163.6009135102326
 30
0.0
 10
241.8934681830125
 20
162.3831567208535
 30
0.0
 10
241.8934681830125
 20
161.3496404887522
 30
0.0
 10
241.8934681830125
 20
160.3957192171631
 30
0.0
 10
241.8934681830125
 20
159.5536603158437
 30
0.0
 10
241.8934681830125
 20
158.8324016431467
 30
0.0
 10
241.8934681830125
 20
158.1697779613192
 30
0.0
 10
241.8934681830125
 20
157.6172717127882
 30
0.0
 10
241.8934681830125
 20
157.2134422754108
 30
0.0
 10
241.8934681830125
 20
156.9783288428712
 30
0.0
 10
241.8934681830125
 20
156.9508944513755
 30
0.0
 10
241.8934681830125
 20
156.9371767712778
 30
0.0
  0
SPLINE
  5
86
330
1F
100
AcDbEntity
  8
0
  6
Continuous
 62
     7
370
    15
100
AcDbSpline
210
0.0
220
0.0
230
1.0
 70
     8
 71
     3
 72
    15
 73
    11
 74
     0
 42
0.00000001
 43
0.00000001
 40
0.0
 40
0.0
 40
0.0
 40
0.0
 40
0.1757620149451637
 40
0.3562078734660928
 40
0.5429428238367057
 40
0.7351549444167853
 40
0.8641152552720079
 40
0.9356247621402276
 40
0.996032114042848
 40
1.0
 40
1.0
 40
1.0
 40
1.0
 10
228.8934679147916
 20
153.6539666725343
 30
0.0
 10
228.6998667865198
 20
153.4130366161495
 30
0.0
 10
228.3075052957629
 20
152.9247560108907
 30
0.0
 10
227.7950999567462
 20
152.1433636856492
 30
0.0
 10
227.3313861182616
 20
151.3393602155603
 30
0.0
 10
226.9778443698833
 20
150.637983843767
 30
0.0
 10
226.7572315455349
 20
150.1577666356371
 30
0.0
 10
226.6673525475046
 20
149.9539990066306
 30
0.0
 10
226.6370829278065
 20
149.8844365238873
 30
0.0
 10
226.6443772145332
 20
149.9011202497855
 30
0.0
 10
226.6448268112855
 20
149.9021485818571
 30
0.0
  0
LINE
  5
87
330
1F
100
AcDbEntity
  8
0
  6
Continuous
 62
     7
370
    15
100
AcDbLine
 10
228.8146668491
 20
153.5527151449
 30
0.0
 11
229.2772547719
 21
154.0597271545
 31
0.0
  0
SPLINE
  5
88
330
1F
100
AcDbEntity
  8
0
  6
Continuous
 62
     7
370
    15
100
AcDbSpline
210
0.0
220
0.0
230
1.0
 70
     8
 71
     3
 72
    14
 73
    10
 74
     0
 42
0.00000001
 43
0.00000001
 40
0.0
 40
0.0
 40
0.0
 40
0.0
 40
0.0097331448606421
 40
0.1675629074444356
 40
0.3254687211987034
 40
0.4903883347995969
 40
0.6735829110158206
 40
0.9654756871839992
 40
1.0
 40
1.0
 40
1.0
 40
1.0
 10
231.137657296391
 20
155.5853229386753
 30
0.0
 10
231.139582357445
 20
155.5864687162037
 30
0.0
 10
231.1727236321131
 20
155.6061940790427
 30
0.0
 10
231.0520968517647
 20
155.5357739539301
 30
0.0
 10
230.7815810125806
 20
155.3674757300574
 30
0.0
 10
230.3425153428122
 20
155.0594348302954
 30
0.0
 10
229.7180044310464
 20
154.5444156943332
 30
0.0
 10
229.21759242207
 20
154.0343320471864
 30
0.0
 10
228.9244706643371
 20
153.6903489027617
 30
0.0
 10
228.8934679147916
 20
153.6539666725343
 30
0.0
  0
SPLINE
  5
89
330
1F
100
AcDbEntity
  8
0
  6
Continuous
 62
     7
370
    15
100
AcDbSpline
210
0.0
220
0.0
230
1.0
 70
     8
 71
     3
 72
    10
 73
     6
 74
     0
 42
0.00000001
 43
0.00000001
 40
0.0
 40
0.0
 40
0.0
 40
0.0
 40
0.43717427483664
 40
0.8381595332434092
 40
1.0
 40
1.0
 40
1.0
 40
1.0
 10
220.1423959252553
 20
97.76017855834422
 30
0.0
 10
220.1579916163797
 20
97.6697884228258
 30
0.0
 10
220.1878919969507
 20
97.49649059137352
 30
0.0
 10
220.2378231715305
 20
97.40134232293506
 30
0.0
 10
220.26682562083
 20
97.39432420135283
 30
0.0
 10
220.2751652714925
 20
97.39230614137112
 30
0.0
  0
SPLINE
  5
8A
330
1F
100
AcDbEntity
  8
0
  6
Continuous
 62
     7
370
    15
100
AcDbSpline
210
0.0
220
0.0
230
1.0
 70
     8
 71
     3
 72
    10
 73
     6
 74
     0
 42
0.00000001
 43
0.00000001
 40
0.0
 40
0.0
 40
0.0
 40
0.0
 40
0.4214042301181868
 40
0.8456344752952832
 40
1.0
 40
1.0
 40
1.0
 40
1.0
 10
220.2747927424626
 20
100.0397432966178
 30
0.0
 10
220.2535723206245
 20
100.0272015274081
 30
0.0
 10
220.2109891688568
 20
100.0020338815542
 30
0.0
 10
220.165261715819
 20
99.85795714240506
 30
0.0
 10
220.1487172325918
 20
99.72271278096443
 30
0.0
 10
220.1443032738881
 20
99.68663047980725
 30
0.0
  0
SPLINE
  5
8B
330
1F
100
AcDbEntity
  8
0
  6
Continuous
 62
     7
370
    15
100
AcDbSpline
210
0.0
220
0.0
230
1.0
 70
     8
 71
     3
 72
    11
 73
     7
 74
     0
 42
0.00000001
 43
0.00000001
 40
0.0
 40
0.0
 40
0.0
 40
0.0
 40
0.2187967176514866
 40
0.5368656757327149
 40
0.7938566754774402
 40
0.9999999999999999
 40
0.9999999999999999
 40
0.9999999999999999
 40
0.9999999999999999
 10
220.3853370067792
 20
98.19687198829114
 30
0.0
 10
220.381471353929
 20
98.14687602827901
 30
0.0
 10
220.3719861278623
 20
98.02419998841917
 30
0.0
 10
220.3445295782788
 20
97.8899639002236
 30
0.0
 10
220.3126674154775
 20
97.80668998659172
 30
0.0
 10
220.2923721009316
 20
97.79939638068227
 30
0.0
 10
220.2833385584073
 20
97.79614996146618
 30
0.0
  0
SPLINE
  5
8C
330
1F
100
AcDbEntity
  8
0
  6
Continuous
 62
     7
370
    15
100
AcDbSpline
210
0.0
220
0.0
230
1.0
 70
     8
 71
     3
 72
    11
 73
     7
 74
     0
 42
0.00000001
 43
0.00000001
 40
0.0
 40
0.0
 40
0.0
 40
0.0
 40
0.272573719071506
 40
0.5471103202163384
 40
0.8037809561076177
 40
0.9999999999999999
 40
0.9999999999999999
 40
0.9999999999999999
 40
0.9999999999999999
 10
220.2800677535253
 20
99.6358920259422
 30
0.0
 10
220.2926392366429
 20
99.62973547520775
 30
0.0
 10
220.3178727337589
 20
99.61737803863899
 30
0.0
 10
220.3502719886717
 20
99.50370149342369
 30
0.0
 10
220.3743485046357
 20
99.36550729027938
 30
0.0
 10
220.3820152930112
 20
99.25559569330382
 30
0.0
 10
220.3853370067792
 20
99.20797537993847
 30
0.0
  0
SPLINE
  5
8D
330
1F
100
AcDbEntity
  8
0
  6
Continuous
 62
     7
370
    15
100
AcDbSpline
210
0.0
220
0.0
230
1.0
 70
     8
 71
     3
 72
    12
 73
     8
 74
     0
 42
0.00000001
 43
0.00000001
 40
0.0
 40
0.0
 40
0.0
 40
0.0
 40
0.3974725389033835
 40
0.5706675411493164
 40
0.7441869989890166
 40
0.9189524768992158
 40
1.0
 40
1.0
 40
1.0
 40
1.0
 10
220.2998490450101
 20
98.68096601199566
 30
0.0
 10
220.2984360529754
 20
98.85715667893197
 30
0.0
 10
220.2964073626607
 20
99.11012080810531
 30
0.0
 10
220.2677842070385
 20
99.40233459638611
 30
0.0
 10
220.2366791437211
 20
99.55799894744398
 30
0.0
 10
220.2044673271269
 20
99.6292686160957
 30
0.0
 10
220.1847261133153
 20
99.6342984555351
 30
0.0
 10
220.1784716365056
 20
99.6358920259422
 30
0.0
  0
SPLINE
  5
8E
330
1F
100
AcDbEntity
  8
0
  6
Continuous
 62
     7
370
    15
100
AcDbSpline
210
0.0
220
0.0
230
1.0
 70
     8
 71
     3
 72
    12
 73
     8
 74
     0
 42
0.00000001
 43
0.00000001
 40
0.0
 40
0.0
 40
0.0
 40
0.0
 40
0.1767058538004329
 40
0.3545794993961054
 40
0.519837779725015
 40
0.7394933718744678
 40
1.0
 40
1.0
 40
1.0
 40
1.0
 10
220.1817424413877
 20
97.79614996146617
 30
0.0
 10
220.1947280136071
 20
97.80336156431802
 30
0.0
 10
220.2207849754899
 20
97.81783242917093
 30
0.0
 10
220.2540743243248
 20
97.93942331478335
 30
0.0
 10
220.2814897381234
 20
98.11872401551236
 30
0.0
 10
220.2973969059522
 20
98.37639721853299
 30
0.0
 10
220.2989865833593
 20
98.57384365955899
 30
0.0
 10
220.2998490450101
 20
98.68096601199566
 30
0.0
  0
SPLINE
  5
8F
330
1F
100
AcDbEntity
  8
0
  6
Continuous
 62
     7
370
    15
100
AcDbSpline
210
0.0
220
0.0
230
1.0
 70
     8
 71
     3
 72
    12
 73
     8
 74
     0
 42
0.00000001
 43
0.00000001
 40
0.0
 40
0.0
 40
0.0
 40
0.0
 40
0.3850135131484501
 40
0.5688409932442728
 40
0.7527406054362127
 40
0.9040190539374822
 40
1.0
 40
1.0
 40
1.0
 40
1.0
 10
220.0665341136174
 20
98.71462028455196
 30
0.0
 10
220.0679652727409
 20
98.54923672266155
 30
0.0
 10
220.0700797491152
 20
98.30488958574497
 30
0.0
 10
220.0975359434026
 20
98.02308924950027
 30
0.0
 10
220.1262020020257
 20
97.87584001414996
 30
0.0
 10
220.1561506849273
 20
97.80382969973931
 30
0.0
 10
220.1745861700939
 20
97.7982974612141
 30
0.0
 10
220.1817424413877
 20
97.79614996146618
 30
0.0
  0
SPLINE
  5
90
330
1F
100
AcDbEntity
  8
0
  6
Continuous
 62
     7
370
    15
100
AcDbSpline
210
0.0
220
0.0
230
1.0
 70
     8
 71
     3
 72
    12
 73
     8
 74
     0
 42
0.00000001
 43
0.00000001
 40
0.0
 40
0.0
 40
0.0
 40
0.0
 40
0.1679292253420102
 40
0.33758433294272
 40
0.4856313043503077
 40
0.6584500565087953
 40
1.0
 40
1.0
 40
1.0
 40
1.0
 10
220.1784716365056
 20
99.6358920259422
 30
0.0
 10
220.1659407892994
 20
99.62924398122367
 30
0.0
 10
220.1407503098773
 20
99.61587956691689
 30
0.0
 10
220.1101254376665
 20
99.50070787773207
 30
0.0
 10
220.0871054213808
 20
99.34141130600011
 30
0.0
 10
220.0690188142967
 20
99.07801373187137
 30
0.0
 10
220.067525620681
 20
98.85963057609274
 30
0.0
 10
220.0665341136174
 20
98.71462028455196
 30
0.0
  0
LINE
  5
91
330
1F
100
AcDbEntity
  8
0
  6
Continuous
 62
     7
370
    15
100
AcDbLine
 10
220.2800677535
 20
99.6358920259
 30
0.0
 11
220.1784716365
 21
99.6358920259
 31
0.0
  0
LINE
  5
92
330
1F
100
AcDbEntity
  8
0
  6
Continuous
 62
     7
370
    15
100
AcDbLine
 10
220.3853370068
 20
98.680966012
 30
0.0
 11
220.299849045
 21
98.680966012
 31
0.0
  0
LINE
  5
93
330
1F
100
AcDbEntity
  8
0
  6
Continuous
 62
     7
370
    15
100
AcDbLine
 10
220.2833385584
 20
97.7961499615
 30
0.0
 11
220.1817424414
 21
97.7961499615
 31
0.0
  0
LINE
  5
94
330
1F
100
AcDbEntity
  8
0
  6
Continuous
 62
     7
370
    15
100
AcDbLine
 10
220.3853370068
 20
99.644311182
 30
0.0
 11
220.299849045
 21
99.644311182
 31
0.0
  0
LINE
  5
95
330
1F
100
AcDbEntity
  8
0
  6
Continuous
 62
     7
370
    15
100
AcDbLine
 10
220.3853370068
 20
97.8234935923
 30
0.0
 11
220.299849045
 21
97.8234935923
 31
0.0
  0
LINE
  5
96
330
1F
100
AcDbEntity
  8
0
  6
Continuous
 62
     7
370
    15
100
AcDbLine
 10
220.0924472329
 20
98.71391993
 30
0.0
 11
219.9910895345
 21
98.71391993
 31
0.0
  0
SPLINE
  5
97
330
1F
100
AcDbEntity
  8
0
  6
Continuous
 62
     7
370
    15
100
AcDbSpline
210
0.0
220
0.0
230
1.0
 70
     8
 71
     3
 72
    11
 73
     7
 74
     0
 42
0.00000001
 43
0.00000001
 40
0.0
 40
0.0
 40
0.0
 40
0.0
 40
0.0155169821117922
 40
0.3798537525453231
 40
0.7408412683463825
 40
1.0
 40
1.0
 40
1.0
 40
1.0
 10
219.5933700916486
 20
97.77069877814709
 30
0.0
 10
219.5936896783917
 20
97.76632017423138
 30
0.0
 10
219.6015131212976
 20
97.65913250614585
 30
0.0
 10
219.6282431546869
 20
97.52025677303624
 30
0.0
 10
219.6666575911714
 20
97.40428609108885
 30
0.0
 10
219.6935431605635
 20
97.39583700796221
 30
0.0
 10
219.7047786233144
 20
97.39230614137112
 30
0.0
  0
LINE
  5
98
330
1F
100
AcDbEntity
  8
0
  6
Continuous
 62
     7
370
    15
100
AcDbLine
 10
219.6047173259
 20
99.7585881872
 30
0.0
 11
219.5970283267
 21
99.6713269873
 31
0.0
  0
SPLINE
  5
99
330
1F
100
AcDbEntity
  8
0
  6
Continuous
 62
     7
370
    15
100
AcDbSpline
210
0.0
220
0.0
230
1.0
 70
     8
 71
     3
 72
     9
 73
     5
 74
     0
 42
0.00000001
 43
0.00000001
 40
0.0
 40
0.0
 40
0.0
 40
0.0
 40
0.1115847115236588
 40
1.0
 40
1.0
 40
1.0
 40
1.0
 10
219.7302968618588
 20
97.8247005863136
 30
0.0
 10
219.7294036116335
 20
97.82167907020933
 30
0.0
 10
219.7213984807048
 20
97.7946008436046
 30
0.0
 10
219.7125975260144
 20
97.79542117050569
 30
0.0
 10
219.7047786233144
 20
97.79614996146617
 30
0.0
  0
LINE
  5
9A
330
1F
100
AcDbEntity
  8
0
  6
Continuous
 62
     7
370
    15
100
AcDbLine
 10
219.7047786233
 20
99.6358920259
 30
0.0
 11
219.7278977749
 21
99.606544189
 31
0.0
  0
SPLINE
  5
9B
330
1F
100
AcDbEntity
  8
0
  6
Continuous
 62
     7
370
    15
100
AcDbSpline
210
0.0
220
0.0
230
1.0
 70
     8
 71
     3
 72
    12
 73
     8
 74
     0
 42
0.00000001
 43
0.00000001
 40
0.0
 40
0.0
 40
0.0
 40
0.0
 40
0.1805472793440459
 40
0.3626783221915549
 40
0.5265722373230342
 40
0.7028047540262443
 40
1.0
 40
1.0
 40
1.0
 40
1.0
 10
219.603897762032
 20
97.79614996146618
 30
0.0
 10
219.614563724675
 20
97.80285023235174
 30
0.0
 10
219.6359892119487
 20
97.81630954900183
 30
0.0
 10
219.6639241777336
 20
97.94253758400511
 30
0.0
 10
219.6849547435747
 20
98.1201900852575
 30
0.0
 10
219.6997601901451
 20
98.38751318375421
 30
0.0
 10
219.7011725497604
 20
98.59837463427782
 30
0.0
 10
219.7020591613965
 20
98.73074334096371
 30
0.0
  0
LINE
  5
9C
330
1F
100
AcDbEntity
  8
0
  6
Continuous
 62
     7
370
    15
100
AcDbLine
 10
219.803059232
 20
98.730743341
 30
0.0
 11
219.7020591614
 21
98.730743341
 31
0.0
  0
LINE
  5
9D
330
1F
100
AcDbEntity
  8
0
  6
Continuous
 62
     7
370
    15
100
AcDbLine
 10
219.7047786233
 20
97.7961499615
 30
0.0
 11
219.603897762
 21
97.7961499615
 31
0.0
  0
SPLINE
  5
9E
330
1F
100
AcDbEntity
  8
0
  6
Continuous
 62
     7
370
    15
100
AcDbSpline
210
0.0
220
0.0
230
1.0
 70
     8
 71
     3
 72
    12
 73
     8
 74
     0
 42
0.00000001
 43
0.00000001
 40
0.0
 40
0.0
 40
0.0
 40
0.0
 40
0.3181483509781735
 40
0.5075184359562163
 40
0.6974305576005282
 40
0.8823457596781876
 40
1.0
 40
1.0
 40
1.0
 40
1.0
 10
219.7020591613965
 20
98.73074334096371
 30
0.0
 10
219.7010089814622
 20
98.87001709008331
 30
0.0
 10
219.6993337074081
 20
99.09219015841953
 30
0.0
 10
219.6800663465906
 20
99.36868301594481
 30
0.0
 10
219.6551795656508
 20
99.539184385833
 30
0.0
 10
219.6279899887147
 20
99.62654965871877
 30
0.0
 10
219.6106431044403
 20
99.63327634966389
 30
0.0
 10
219.603897762032
 20
99.6358920259422
 30
0.0
  0
SPLINE
  5
9F
330
1F
100
AcDbEntity
  8
0
  6
Continuous
 62
     7
370
    15
100
AcDbSpline
210
0.0
220
0.0
230
1.0
 70
     8
 71
     3
 72
    12
 73
     8
 74
     0
 42
0.00000001
 43
0.00000001
 40
0.0
 40
0.0
 40
0.0
 40
0.0
 40
0.3489389741902703
 40
0.5304033299525541
 40
0.7124450986171025
 40
0.8880361581079235
 40
1.0
 40
1.0
 40
1.0
 40
1.0
 10
219.5118234870152
 20
98.71742170285641
 30
0.0
 10
219.5128429468439
 20
98.56210925445463
 30
0.0
 10
219.5143925727895
 20
98.3260271716017
 30
0.0
 10
219.533065241154
 20
98.04367388649536
 30
0.0
 10
219.5557525178887
 20
97.88390135067347
 30
0.0
 10
219.5808958234886
 20
97.80441496802901
 30
0.0
 10
219.5974515427904
 20
97.79846620295325
 30
0.0
 10
219.603897762032
 20
97.79614996146618
 30
0.0
  0
SPLINE
  5
A0
330
1F
100
AcDbEntity
  8
0
  6
Continuous
 62
     7
370
    15
100
AcDbSpline
210
0.0
220
0.0
230
1.0
 70
     8
 71
     3
 72
    12
 73
     8
 74
     0
 42
0.00000001
 43
0.00000001
 40
0.0
 40
0.0
 40
0.0
 40
0.0
 40
0.1889897189338229
 40
0.3801641610306091
 40
0.543083383044551
 40
0.7250102651844592
 40
1.0
 40
1.0
 40
1.0
 40
1.0
 10
219.603897762032
 20
99.6358920259422
 30
0.0
 10
219.5929908391918
 20
99.62877213409178
 30
0.0
 10
219.5710509093671
 20
99.61445004436534
 30
0.0
 10
219.5446488030964
 20
99.48222302242048
 30
0.0
 10
219.5257337752089
 20
99.29911067887633
 30
0.0
 10
219.513639049769
 20
99.0398769880607
 30
0.0
 10
219.512505624995
 20
98.83857366875155
 30
0.0
 10
219.5118234870152
 20
98.71742170285641
 30
0.0
  0
LINE
  5
A1
330
1F
100
AcDbEntity
  8
0
  6
Continuous
 62
     7
370
    15
100
AcDbLine
 10
219.7047786233
 20
99.6358920259
 30
0.0
 11
219.603897762
 21
99.6358920259
 31
0.0
  0
LINE
  5
A2
330
1F
100
AcDbEntity
  8
0
  6
Continuous
 62
     7
370
    15
100
AcDbLine
 10
219.6047173259
 20
99.7585881872
 30
0.0
 11
219.5039705751
 21
99.7585881872
 31
0.0
  0
SPLINE
  5
A3
330
1F
100
AcDbEntity
  8
0
  6
Continuous
 62
     7
370
    15
100
AcDbSpline
210
0.0
220
0.0
230
1.0
 70
     8
 71
     3
 72
     9
 73
     5
 74
     0
 42
0.00000001
 43
0.00000001
 40
0.0
 40
0.0
 40
0.0
 40
0.0
 40
0.676369166406247
 40
1.0
 40
1.0
 40
1.0
 40
1.0
 10
219.3329573986249
 20
97.79614996146618
 30
0.0
 10
219.3393787414982
 20
97.71087622605802
 30
0.0
 10
219.34887258479
 20
97.58480049753061
 30
0.0
 10
219.3634058312232
 20
97.52780705004768
 30
0.0
 10
219.3681092378812
 20
97.50936221312939
 30
0.0
  0
SPLINE
  5
A4
330
1F
100
AcDbEntity
  8
0
  6
Continuous
 62
     7
370
    15
100
AcDbSpline
210
0.0
220
0.0
230
1.0
 70
     8
 71
     3
 72
     9
 73
     5
 74
     0
 42
0.00000001
 43
0.00000001
 40
0.0
 40
0.0
 40
0.0
 40
0.0
 40
0.5983196414422329
 40
1.0
 40
1.0
 40
1.0
 40
1.0
 10
219.3691970226483
 20
99.93249963950574
 30
0.0
 10
219.3605151289116
 20
99.89199906976597
 30
0.0
 10
219.3460046680553
 20
99.82430854628232
 30
0.0
 10
219.3372757477486
 20
99.68988665816083
 30
0.0
 10
219.33376951191
 20
99.6358920259422
 30
0.0
  0
LINE
  5
A5
330
1F
100
AcDbEntity
  8
0
  6
Continuous
 62
     7
370
    15
100
AcDbLine
 10
219.4164039013
 20
97.7961499615
 30
0.0
 11
219.3158806679
 21
97.7961499615
 31
0.0
  0
LINE
  5
A6
330
1F
100
AcDbEntity
  8
0
  6
Continuous
 62
     7
370
    15
100
AcDbLine
 10
219.4181920407
 20
99.6358920259
 30
0.0
 11
219.3176688072
 21
99.6358920259
 31
0.0
  0
LINE
  5
A7
330
1F
100
AcDbEntity
  8
0
  6
Continuous
 62
     7
370
    15
100
AcDbLine
 10
248.8934674678
 20
80.9371773524
 30
0.0
 11
248.8934674678
 21
203.9371770246
 31
0.0
  0
LINE
  5
A8
330
1F
100
AcDbEntity
  8
0
  6
Continuous
 62
     7
370
    15
100
AcDbLine
 10
253.8934664247
 20
80.9371773524
 30
0.0
 11
253.8934664247
 21
203.9371770246
 31
0.0
  0
LINE
  5
A9
330
1F
100
AcDbEntity
  8
0
  6
Continuous
 62
     7
370
    15
100
AcDbLine
 10
248.8934674678
 20
75.9371746702
 30
0.0
 11
253.8934664247
 21
75.9371746702
 31
0.0
  0
LINE
  5
AA
330
1F
100
AcDbEntity
  8
0
  6
Continuous
 62
     7
370
    15
100
AcDbLine
 10
248.8934674678
 20
75.9371746702
 30
0.0
 11
248.8934674678
 21
80.9371773524
 31
0.0
  0
LINE
  5
AB
330
1F
100
AcDbEntity
  8
0
  6
Continuous
 62
     7
370
    15
100
AcDbLine
 10
253.8934664247
 20
75.9371746702
 30
0.0
 11
253.8934664247
 21
80.9371773524
 31
0.0
  0
LINE
  5
AC
330
1F
100
AcDbEntity
  8
0
  6
Continuous
 62
     7
370
    15
100
AcDbLine
 10
248.8934674678
 20
208.9371759815
 30
0.0
 11
253.8934664247
 21
208.9371759815
 31
0.0
  0
LINE
  5
AD
330
1F
100
AcDbEntity
  8
0
  6
Continuous
 62
     7
370
    15
100
AcDbLine
 10
248.8934674678
 20
203.9371770246
 30
0.0
 11
248.8934674678
 21
208.9371759815
 31
0.0
  0
LINE
  5
AE
330
1F
100
AcDbEntity
  8
0
  6
Continuous
 62
     7
370
    15
100
AcDbLine
 10
253.8934664247
 20
203.9371770246
 30
0.0
 11
253.8934664247
 21
208.9371759815
 31
0.0
  0
LINE
  5
AF
330
1F
100
AcDbEntity
  8
0
  6
Continuous
 62
     7
370
    15
100
AcDbLine
 10
244.3934657988
 20
171.6740372961
 30
0.0
 11
241.893468183
 21
171.6740372961
 31
0.0
  0
LINE
  5
B0
330
1F
100
AcDbEntity
  8
0
  6
Continuous
 62
     7
370
    15
100
AcDbLine
 10
236.29346652
 20
191.9371769203
 30
0.0
 11
236.29346652
 21
191.5149832515
 31
0.0
  0
LINE
  5
B1
330
1F
100
AcDbEntity
  8
0
  6
Continuous
 62
     7
370
    15
100
AcDbLine
 10
244.3934657988
 20
181.2003170511
 30
0.0
 11
240.8858516631
 21
181.2003170511
 31
0.0
  0
CIRCLE
  5
B2
330
1F
100
AcDbEntity
  8
0
  6
Continuous
 62
     7
370
    15
100
AcDbCircle
 10
305.3934666035
 20
176.4371771736
 30
0.0
 40
9.5
  0
CIRCLE
  5
B3
330
1F
100
AcDbEntity
  8
0
  6
Continuous
 62
     7
370
    15
100
AcDbCircle
 10
305.3934666035
 20
176.4371771736
 30
0.0
 40
12.5
  0
SPLINE
  5
B4
330
1F
100
AcDbEntity
  8
0
  6
Continuous
 62
     7
370
    15
100
AcDbSpline
210
0.0
220
0.0
230
1.0
 70
    24
 71
     3
 72
    12
 73
     8
 74
     0
 42
0.00000001
 43
0.00000001
 40
0.0
 40
0.0
 40
0.0
 40
0.0
 40
0.192260460500037
 40
0.3864570396569967
 40
0.6907016271843914
 40
0.9957090408491875
 40
1.0
 40
1.0
 40
1.0
 40
1.0
 10
317.8934657392221
 20
181.5361966749674
 30
0.0
 10
317.8934657392221
 20
181.2021939671037
 30
0.0
 10
317.8934657392221
 20
180.5308250471358
 30
0.0
 10
317.8934657392221
 20
179.345409987365
 30
0.0
 10
317.893465739222
 20
177.9868496153747
 30
0.0
 10
317.8934657392222
 20
176.9613311952349
 30
0.0
 10
317.8934657392221
 20
176.4443493675145
 30
0.0
 10
317.8934657392221
 20
176.4371771736091
 30
0.0
  0
SPLINE
  5
B5
330
1F
100
AcDbEntity
  8
0
  6
Continuous
 62
     7
370
    15
100
AcDbSpline
210
0.0
220
0.0
230
1.0
 70
     8
 71
     3
 72
    13
 73
     9
 74
     0
 42
0.00000001
 43
0.00000001
 40
0.0
 40
0.0
 40
0.0
 40
0.0
 40
0.0033752636172543
 40
0.239779815887089
 40
0.5209834500753227
 40
0.7187467103819601
 40
0.859064185577793
 40
1.0
 40
1.0
 40
1.0
 40
1.0
 10
311.4119858858304
 20
187.392880618388
 30
0.0
 10
311.41326810475
 20
187.3921787102147
 30
0.0
 10
311.5043573503146
 20
187.342314927212
 30
0.0
 10
311.7194671381549
 20
187.2646555699918
 30
0.0
 10
312.0573388152108
 20
187.2605140377125
 30
0.0
 10
312.3658016829918
 20
187.3735093057497
 30
0.0
 10
312.5973273815906
 20
187.5391001867468
 30
0.0
 10
312.7000262112325
 20
187.6834102353454
 30
0.0
 10
312.7514885184484
 20
187.7557238934582
 30
0.0
  0
ARC
  5
B6
330
1F
100
AcDbEntity
  8
0
  6
Continuous
 62
     7
370
    15
100
AcDbCircle
 10
305.3934666035
 20
176.4371771736
 30
0.0
 40
13.50000000000006
100
AcDbArc
 50
22.1916065663
 51
56.9726925951
  0
LINE
  5
B7
330
1F
100
AcDbEntity
  8
0
  6
Continuous
 62
     7
370
    15
100
AcDbLine
 10
312.8934667823
 20
188.2693371175
 30
0.0
 11
312.8934667823
 21
201.9871775432
 31
0.0
  0
ARC
  5
B8
330
1F
100
AcDbEntity
  8
0
  6
Continuous
 62
     7
370
    15
100
AcDbCircle
 10
311.8934666035
 20
188.2693367398
 30
0.0
 40
1.0
100
AcDbArc
 50
329.0952439573
 51
0.0
  0
LINE
  5
B9
330
1F
100
AcDbEntity
  8
0
  6
Continuous
 62
     7
370
    15
100
AcDbLine
 10
317.8934657392
 20
181.536196675
 30
0.0
 11
317.8934657392
 21
201.9871775432
 31
0.0
  0
LINE
  5
BA
330
1F
100
AcDbEntity
  8
0
  6
Continuous
 62
     7
370
    15
100
AcDbLine
 10
312.8934667823
 20
205.4871771855
 30
0.0
 11
317.8934657392
 21
205.4871771855
 31
0.0
  0
LINE
  5
BB
330
1F
100
AcDbEntity
  8
0
  6
Continuous
 62
     7
370
    15
100
AcDbLine
 10
312.8934667823
 20
201.9871775432
 30
0.0
 11
312.8934667823
 21
205.4871771855
 31
0.0
  0
LINE
  5
BC
330
1F
100
AcDbEntity
  8
0
  6
Continuous
 62
     7
370
    15
100
AcDbLine
 10
317.8934657392
 20
205.4871771855
 30
0.0
 11
317.8934657392
 21
201.9871775432
 31
0.0
  0
SPLINE
  5
BD
330
1F
100
AcDbEntity
  8
0
  6
Continuous
 62
     7
370
    15
100
AcDbSpline
210
0.0
220
0.0
230
1.0
 70
     8
 71
     3
 72
    12
 73
     8
 74
     0
 42
0.00000001
 43
0.00000001
 40
0.0
 40
0.0
 40
0.0
 40
0.0
 40
0.2360694142269698
 40
0.4745247544682477
 40
0.6801700797172572
 40
0.8947837261813897
 40
1.0
 40
1.0
 40
1.0
 40
1.0
 10
305.6478740093427
 20
189.4346880165881
 30
0.0
 10
305.3170002538129
 20
189.4335566789815
 30
0.0
 10
304.6519086403276
 20
189.4312825694713
 30
0.0
 10
303.8218720860333
 20
189.3475162351169
 30
0.0
 10
303.2310956527636
 20
189.2587963188163
 30
0.0
 10
302.981571116105
 20
189.2114644411754
 30
0.0
 10
302.9635112092418
 20
189.2080470688808
 30
0.0
 10
302.9575699386315
 20
189.2069228364175
 30
0.0
  0
LINE
  5
BE
330
1F
100
AcDbEntity
  8
0
  6
Continuous
 62
     7
370
    15
100
AcDbLine
 10
305.6478740093
 20
189.4346880166
 30
0.0
 11
305.6478740093
 21
188.9345882831
 31
0.0
  0
LINE
  5
BF
330
1F
100
AcDbEntity
  8
0
  6
Continuous
 62
     7
370
    15
100
AcDbLine
 10
302.9575699386
 20
189.2069228364
 30
0.0
 11
302.9575699386
 21
188.6975359542
 31
0.0
  0
LINE
  5
C0
330
1F
100
AcDbEntity
  8
0
  6
Continuous
 62
     7
370
    15
100
AcDbLine
 10
307.8293648926
 20
189.2069228364
 30
0.0
 11
307.8293648926
 21
188.6975359542
 31
0.0
  0
SPLINE
  5
C1
330
1F
100
AcDbEntity
  8
0
  6
Continuous
 62
     7
370
    15
100
AcDbSpline
210
0.0
220
0.0
230
1.0
 70
     8
 71
     3
 72
    10
 73
     6
 74
     0
 42
0.00000001
 43
0.00000001
 40
0.0
 40
0.0
 40
0.0
 40
0.0
 40
0.350573811511198
 40
0.7018816092101399
 40
1.0
 40
1.0
 40
1.0
 40
1.0
 10
307.8293648925738
 20
189.2069228364175
 30
0.0
 10
307.6322837957434
 20
189.2422194638908
 30
0.0
 10
307.2377089791248
 20
189.312886618359
 30
0.0
 10
306.4420332682059
 20
189.4056793328722
 30
0.0
 10
305.8977340005881
 20
189.4255612458826
 30
0.0
 10
305.6478740093427
 20
189.4346880165881
 30
0.0
  0
LINE
  5
C2
330
1F
100
AcDbEntity
  8
0
  6
Continuous
 62
     7
370
    15
100
AcDbLine
 10
284.5934666605
 20
155.6871779634
 30
0.0
 11
284.5934666605
 21
197.1871763838
 31
0.0
  0
LINE
  5
C3
330
1F
100
AcDbEntity
  8
0
  6
Continuous
 62
     7
370
    15
100
AcDbLine
 10
283.3934666035
 20
155.6871779634
 30
0.0
 11
283.3934666035
 21
197.1871763838
 31
0.0
  0
SPLINE
  5
C4
330
1F
100
AcDbEntity
  8
0
  6
Continuous
 62
     7
370
    15
100
AcDbSpline
210
0.0
220
0.0
230
1.0
 70
     8
 71
     3
 72
    26
 73
    22
 74
     0
 42
0.00000001
 43
0.00000001
 40
0.0
 40
0.0
 40
0.0
 40
0.0
 40
0.0333157661759447
 40
0.0666414483977888
 40
0.1353375292946958
 40
0.2006429383221257
 40
0.2674660585856875
 40
0.3251633408488614
 40
0.3844430115417132
 40
0.4318451742992589
 40
0.4805573654681659
 40
0.501259061137372
 40
0.550484313189927
 40
0.6013145193743896
 40
0.6502733126869957
 40
0.7003978050171197
 40
0.7569170230247836
 40
0.8146070968389469
 40
0.8832932080993292
 40
0.9537400093621756
 40
1.0
 40
1.0
 40
1.0
 40
1.0
 10
301.893466841908
 20
164.1231285778826
 30
0.0
 10
301.5247296943652
 20
164.2260262744433
 30
0.0
 10
300.7871456490052
 20
164.4318522938536
 30
0.0
 10
299.3691630660182
 20
164.9893326469006
 30
0.0
 10
297.7367133604402
 20
165.8643638235285
 30
0.0
 10
295.9945201838823
 20
167.2048532591085
 30
0.0
 10
294.5638189462601
 20
168.734445643024
 30
0.0
 10
293.4139131606458
 20
170.4500464814542
 30
0.0
 10
292.6211861551275
 20
172.1706978343062
 30
0.0
 10
292.117069510252
 20
173.9254686616974
 30
0.0
 10
291.9241643023269
 20
175.3057448880624
 30
0.0
 10
291.8738931386702
 20
176.7192557585413
 30
0.0
 10
291.9729545350973
 20
178.162038333124
 30
0.0
 10
292.3527976873158
 20
179.8857709362366
 30
0.0
 10
292.9678534073668
 20
181.5166017808677
 30
0.0
 10
293.8147615245882
 20
183.072694490449
 30
0.0
 10
294.9115718034335
 20
184.5424583407626
 30
0.0
 10
296.3346943320716
 20
185.962672181464
 30
0.0
 10
298.0814337005456
 20
187.2253145653439
 30
0.0
 10
299.9196653480352
 20
188.1573837560993
 30
0.0
 10
301.1962505820068
 20
188.5469214005084
 30
0.0
 10
301.702260729404
 20
188.7013255057877
 30
0.0
  0
LWPOLYLINE
  5
C5
330
1F
100
AcDbEntity
  8
0
  6
Continuous
 62
     7
370
    15
100
AcDbPolyline
 90
        9
 70
   128
 43
0.0
 10
301.9756839988
 20
188.4608524291
 10
301.9478709814
 20
188.4581897778
 10
301.917580646
 20
188.4652594475
 10
301.8851184663
 20
188.4819878636
 10
301.8508104053
 20
188.5082064567
 10
301.8150047776
 20
188.5436516626
 10
301.7780610738
 20
188.5879658533
 10
301.7403536854
 20
188.6407010628
 10
301.7022607294
 20
188.7013255058
  0
LWPOLYLINE
  5
C6
330
1F
100
AcDbEntity
  8
0
  6
Continuous
 62
     7
370
    15
100
AcDbPolyline
 90
        9
 70
   128
 43
0.0
 10
301.8934668419
 20
164.1231285779
 10
301.9295071629
 20
164.1833618654
 10
301.9651917187
 20
164.2358344419
 10
302.0001666066
 20
164.2800275607
 10
302.0340872374
 20
164.3155035002
 10
302.0666146097
 20
164.3419111518
 10
302.0974320737
 20
164.3589906765
 10
302.1262304303
 20
164.3665716423
 10
302.1527265576
 20
164.3645804746
  0
LWPOLYLINE
  5
C7
330
1F
100
AcDbEntity
  8
0
  6
Continuous
 62
     7
370
    15
100
AcDbPolyline
 90
        9
 70
   128
 43
0.0
 10
301.9756839988
 20
188.4608524291
 10
302.0198305515
 20
188.4914547576
 10
302.0529465196
 20
188.5544028504
 10
302.0738826511
 20
188.6475099621
 10
302.0819125143
 20
188.7675425408
 10
302.0767567125
 20
188.9103310553
 10
302.0585940597
 20
189.0709171442
 10
302.0280541298
 20
189.2437231166
 10
301.9862004933
 20
189.4227456672
  0
SPLINE
  5
C8
330
1F
100
AcDbEntity
  8
0
  6
Continuous
 62
     7
370
    15
100
AcDbSpline
210
0.0
220
0.0
230
1.0
 70
     8
 71
     3
 72
    14
 73
    10
 74
     0
 42
0.00000001
 43
0.00000001
 40
0.0
 40
0.0
 40
0.0
 40
0.0
 40
0.1910527853872335
 40
0.3409089131981169
 40
0.4959292993910396
 40
0.6462620736373936
 40
0.8009972173001362
 40
0.8963945308931626
 40
0.9999999999999999
 40
0.9999999999999999
 40
0.9999999999999999
 40
0.9999999999999999
 10
301.9862004933076
 20
189.4227456672138
 30
0.0
 10
302.591327656332
 20
189.5798354207087
 30
0.0
 10
303.6710985849535
 20
189.8601417089941
 30
0.0
 10
305.3408568841697
 20
189.9692570585777
 30
0.0
 10
306.8685929281555
 20
189.8768378742007
 30
0.0
 10
308.3643377317705
 20
189.5811943378367
 30
0.0
 10
309.5858817376396
 20
189.1704405778952
 30
0.0
 10
310.5960804115119
 20
188.7205770434547
 30
0.0
 10
311.1204621563393
 20
188.4238303407572
 30
0.0
 10
311.3934674677568
 20
188.2693371174878
 30
0.0
  0
LWPOLYLINE
  5
C9
330
1F
100
AcDbEntity
  8
0
  6
Continuous
 62
     7
370
    15
100
AcDbPolyline
 90
        9
 70
   128
 43
0.0
 10
311.4119858858
 20
187.3928806184
 10
311.353226882
 20
187.4408353491
 10
311.3093150226
 20
187.5115562601
 10
311.2814535764
 20
187.6031006126
 10
311.270411816
 20
187.7129529042
 10
311.2764896271
 20
187.8380937872
 10
311.2995212344
 20
187.9750838874
 10
311.3388733384
 20
188.1201606615
 10
311.3934674678
 20
188.2693371175
  0
ARC
  5
CA
330
1F
100
AcDbEntity
  8
0
  6
Continuous
 62
     7
370
    15
100
AcDbCircle
 10
299.1395305774
 20
190.1265634859
 30
0.0
 40
2.932386252162283
100
AcDbArc
 50
330.9197926764
 51
346.1125515313
  0
SPLINE
  5
CB
330
1F
100
AcDbEntity
  8
0
  6
Continuous
 62
     7
370
    15
100
AcDbSpline
210
0.0
220
0.0
230
1.0
 70
     8
 71
     3
 72
    16
 73
    12
 74
     0
 42
0.00000001
 43
0.00000001
 40
0.0
 40
0.0
 40
0.0
 40
0.0
 40
0.1643052644643036
 40
0.3288032699612475
 40
0.4704212961285642
 40
0.6138076180551761
 40
0.6947076377244692
 40
0.7773698662396398
 40
0.8900162126060815
 40
0.9442013140090599
 40
1.0
 40
1.0
 40
1.0
 40
1.0
 10
305.3934664842801
 20
162.9742648823207
 30
0.0
 10
305.393451625444
 20
162.9913571209126
 30
0.0
 10
305.3934218903412
 20
163.025561648432
 30
0.0
 10
305.3509996739988
 20
163.1411458888267
 30
0.0
 10
305.1939046912345
 20
163.2737001689678
 30
0.0
 10
304.8939684296271
 20
163.3903465766789
 30
0.0
 10
304.4525571097887
 20
163.4971200040677
 30
0.0
 10
303.9038704714627
 20
163.609354322778
 30
0.0
 10
303.2183453728449
 20
163.7526882134042
 30
0.0
 10
302.4897183566384
 20
163.9378126306699
 30
0.0
 10
302.0941518139848
 20
164.060755359915
 30
0.0
 10
301.893466841908
 20
164.1231285778826
 30
0.0
  0
ARC
  5
CC
330
1F
100
AcDbEntity
  8
0
  6
Continuous
 62
     7
370
    15
100
AcDbCircle
 10
306.3934666035
 20
162.9742651558
 30
0.0
 40
1.0
100
AcDbArc
 50
94.2480226667
 51
180.0
  0
LINE
  5
CD
330
1F
100
AcDbEntity
  8
0
  6
Continuous
 62
     7
370
    15
100
AcDbLine
 10
311.3934674678
 20
188.2693371175
 30
0.0
 11
311.3934674678
 21
206.4871773494
 31
0.0
  0
LINE
  5
CE
330
1F
100
AcDbEntity
  8
0
  6
Continuous
 62
     7
370
    15
100
AcDbLine
 10
311.3934674678
 20
206.4871773494
 30
0.0
 11
317.3934684512
 21
206.4871773494
 31
0.0
  0
LINE
  5
CF
330
1F
100
AcDbEntity
  8
0
  6
Continuous
 62
     7
370
    15
100
AcDbLine
 10
293.39346638
 20
206.9371775163
 30
0.0
 11
317.3934684512
 21
206.9371775163
 31
0.0
  0
LINE
  5
D0
330
1F
100
AcDbEntity
  8
0
  6
Continuous
 62
     7
370
    15
100
AcDbLine
 10
305.3934664843
 20
162.9742648823
 30
0.0
 11
305.3934664843
 21
162.9371768234
 31
0.0
  0
LINE
  5
D1
330
1F
100
AcDbEntity
  8
0
  6
Continuous
 62
     7
370
    15
100
AcDbLine
 10
312.8934667823
 20
188.2693371175
 30
0.0
 11
311.3934674678
 21
188.2693371175
 31
0.0
  0
SPLINE
  5
D2
330
1F
100
AcDbEntity
  8
0
  6
Continuous
 62
     7
370
    15
100
AcDbSpline
210
0.0
220
0.0
230
1.0
 70
     8
 71
     3
 72
    13
 73
     9
 74
     0
 42
0.00000001
 43
0.00000001
 40
0.0
 40
0.0
 40
0.0
 40
0.0
 40
0.1409732535885016
 40
0.2813293506247915
 40
0.4791322623052575
 40
0.7606566911958929
 40
0.996623252454193
 40
0.9999999999999999
 40
0.9999999999999999
 40
0.9999999999999999
 40
0.9999999999999999
 10
312.7396197435575
 20
205.48717718553
 30
0.0
 10
312.686549101375
 20
205.4941822078617
 30
0.0
 10
312.5806401511139
 20
205.5081615857471
 30
0.0
 10
312.3455283210734
 20
205.6237987403547
 30
0.0
 10
312.0346749609096
 20
205.8375998269584
 30
0.0
 10
311.6974734160826
 20
206.1431804414398
 30
0.0
 10
311.4844266224982
 20
206.3778815771705
 30
0.0
 10
311.3947329013067
 20
206.4856568148964
 30
0.0
 10
311.3934674677568
 20
206.4871773494428
 30
0.0
  0
LINE
  5
D3
330
1F
100
AcDbEntity
  8
0
  6
Continuous
 62
     7
370
    15
100
AcDbLine
 10
312.7396197436
 20
205.4871771855
 30
0.0
 11
312.8934667823
 21
205.4871771855
 31
0.0
  0
LINE
  5
D4
330
1F
100
AcDbEntity
  8
0
  6
Continuous
 62
     7
370
    15
100
AcDbLine
 10
307.9934657929
 20
174.0829285139
 30
0.0
 11
296.1897978005
 21
174.0829285139
 31
0.0
  0
LINE
  5
D5
330
1F
100
AcDbEntity
  8
0
  6
Continuous
 62
     7
370
    15
100
AcDbLine
 10
307.9934657929
 20
174.1076949423
 30
0.0
 11
307.9934657929
 21
168.7903529404
 31
0.0
  0
LINE
  5
D6
330
1F
100
AcDbEntity
  8
0
  6
Continuous
 62
     7
370
    15
100
AcDbLine
 10
299.7549844352
 20
168.791425824
 30
0.0
 11
307.9934657929
 21
168.791425824
 31
0.0
  0
SPLINE
  5
D7
330
1F
100
AcDbEntity
  8
0
  6
Continuous
 62
     7
370
    15
100
AcDbSpline
210
0.0
220
0.0
230
1.0
 70
     8
 71
     3
 72
    13
 73
     9
 74
     0
 42
0.00000001
 43
0.00000001
 40
0.0
 40
0.0
 40
0.0
 40
0.0
 40
0.1886483689708597
 40
0.377693442639125
 40
0.557299106765329
 40
0.7237189873385879
 40
0.8937690418870434
 40
1.0
 40
1.0
 40
1.0
 40
1.0
 10
317.8934657392221
 20
205.604529417867
 30
0.0
 10
317.8853304615121
 20
205.6118866589075
 30
0.0
 10
317.8690427985874
 20
205.6266166123761
 30
0.0
 10
317.7475426041069
 20
205.7126262917909
 30
0.0
 10
317.5983883599341
 20
205.8649070644676
 30
0.0
 10
317.4707156472576
 20
206.0764862142626
 30
0.0
 10
317.4028904587644
 20
206.2924363827474
 30
0.0
 10
317.3960851246027
 20
206.4330940238046
 30
0.0
 10
317.3934684512334
 20
206.4871773494428
 30
0.0
  0
SPLINE
  5
D8
330
1F
100
AcDbEntity
  8
0
  6
Continuous
 62
     7
370
    15
100
AcDbSpline
210
0.0
220
0.0
230
1.0
 70
     8
 71
     3
 72
    13
 73
     9
 74
     0
 42
0.00000001
 43
0.00000001
 40
0.0
 40
0.0
 40
0.0
 40
0.0
 40
0.0774859019557327
 40
0.264911007053108
 40
0.4517786197787041
 40
0.6691247353276116
 40
0.8874322437159158
 40
1.0
 40
1.0
 40
1.0
 40
1.0
 10
307.9934657928662
 20
168.7914258239811
 30
0.0
 10
308.0443562483831
 20
168.9227623128982
 30
0.0
 10
308.2183419861767
 20
169.3717792393799
 30
0.0
 10
308.4609671009907
 20
170.1579628168328
 30
0.0
 10
308.6340230192172
 20
171.2260526219783
 30
0.0
 10
308.5440779218361
 20
172.3647829477044
 30
0.0
 10
308.2823599461609
 20
173.330353713253
 30
0.0
 10
308.0668014078227
 20
173.8918878328354
 30
0.0
 10
307.9934657928662
 20
174.0829285139239
 30
0.0
  0
ARC
  5
D9
330
1F
100
AcDbEntity
  8
0
  6
Continuous
 62
     7
370
    15
100
AcDbCircle
 10
305.3934666035
 20
176.9014124011
 30
0.0
 40
13.50000000000004
100
AcDbArc
 50
301.6782900155
 51
337.8083934337
  0
SPLINE
  5
DA
330
1F
100
AcDbEntity
  8
0
  6
Continuous
 62
     7
370
    15
100
AcDbSpline
210
0.0
220
0.0
230
1.0
 70
     8
 71
     3
 72
    12
 73
     8
 74
     0
 42
0.00000001
 43
0.00000001
 40
0.0
 40
0.0
 40
0.0
 40
0.0
 40
0.2648479518628777
 40
0.528002273293551
 40
0.841368635986532
 40
0.9951979026499965
 40
1.0
 40
1.0
 40
1.0
 40
1.0
 10
312.4829807696061
 20
165.4127756504363
 30
0.0
 10
312.3867284648463
 20
165.4690638467166
 30
0.0
 10
312.194839362569
 20
165.5812802916109
 30
0.0
 10
311.8722925321611
 20
165.6201883619447
 30
0.0
 10
311.6128317454267
 20
165.5758312540755
 30
0.0
 10
311.4618731228889
 20
165.5087738246511
 30
0.0
 10
311.4134517017465
 20
165.4822758761794
 30
0.0
 10
311.4119858858304
 20
165.4814737288302
 30
0.0
  0
SPLINE
  5
DB
330
1F
100
AcDbEntity
  8
0
  6
Continuous
 62
     7
370
    15
100
AcDbSpline
210
0.0
220
0.0
230
1.0
 70
    24
 71
     3
 72
    11
 73
     7
 74
     0
 42
0.00000001
 43
0.00000001
 40
0.0
 40
0.0
 40
0.0
 40
0.0
 40
0.0043491112272129
 40
0.3305053984681829
 40
0.6570517308694708
 40
1.0
 40
1.0
 40
1.0
 40
1.0
 10
317.8934657392221
 20
176.4371771736091
 30
0.0
 10
317.8934657392221
 20
176.4308312314205
 30
0.0
 10
317.8934657392223
 20
175.9485791017011
 30
0.0
 10
317.8934657392219
 20
174.9870916335862
 30
0.0
 10
317.8934657392221
 20
173.4941617836114
 30
0.0
 10
317.8934657392221
 20
172.3754517502908
 30
0.0
 10
317.8934657392221
 20
171.8023931046968
 30
0.0
  0
SPLINE
  5
DC
330
1F
100
AcDbEntity
  8
0
  6
Continuous
 62
     7
370
    15
100
AcDbSpline
210
0.0
220
0.0
230
1.0
 70
     8
 71
     3
 72
     9
 73
     5
 74
     0
 42
0.00000001
 43
0.00000001
 40
0.0
 40
0.0
 40
0.0
 40
0.0
 40
0.456344753685624
 40
1.0
 40
1.0
 40
1.0
 40
1.0
 10
306.3085467931943
 20
163.970220312292
 30
0.0
 10
306.3125982241766
 20
163.9702717597293
 30
0.0
 10
306.321476229127
 20
163.9703844978225
 30
0.0
 10
306.2344692971045
 20
163.965270556145
 30
0.0
 10
306.1871675220447
 20
163.9624903349226
 30
0.0
  0
LINE
  5
DD
330
1F
100
AcDbEntity
  8
0
  6
Continuous
 62
     7
370
    15
100
AcDbLine
 10
312.8934667823
 20
164.6050172297
 30
0.0
 11
312.8934667823
 21
151.1093195898
 31
0.0
  0
ARC
  5
DE
330
1F
100
AcDbEntity
  8
0
  6
Continuous
 62
     7
370
    15
100
AcDbCircle
 10
311.8934666035
 20
164.6050176074
 30
0.0
 40
1.0
100
AcDbArc
 50
0.0
 51
53.8774275027
  0
LINE
  5
DF
330
1F
100
AcDbEntity
  8
0
  6
Continuous
 62
     7
370
    15
100
AcDbLine
 10
317.8934657392
 20
171.8023931047
 30
0.0
 11
317.8934657392
 21
151.1093195898
 31
0.0
  0
LINE
  5
E0
330
1F
100
AcDbEntity
  8
0
  6
Continuous
 62
     7
370
    15
100
AcDbLine
 10
312.8934667823
 20
147.4371780081
 30
0.0
 11
312.8934667823
 21
151.1093195898
 31
0.0
  0
LINE
  5
E1
330
1F
100
AcDbEntity
  8
0
  6
Continuous
 62
     7
370
    15
100
AcDbLine
 10
317.8934657392
 20
151.1093195898
 30
0.0
 11
317.8934657392
 21
147.4371780081
 31
0.0
  0
LINE
  5
E2
330
1F
100
AcDbEntity
  8
0
  6
Continuous
 62
     7
370
    15
100
AcDbLine
 10
244.3934657988
 20
195.9371775759
 30
0.0
 11
244.3934657988
 21
156.9371767713
 31
0.0
  0
LINE
  5
E3
330
1F
100
AcDbEntity
  8
0
  6
Continuous
 62
     8
370
    15
100
AcDbLine
 10
287.0934666046
 20
193.4371780975
 30
0.0
 11
287.0934666046
 21
159.4371762497
 31
0.0
  0
DIMENSION
  5
E4
330
1F
100
AcDbEntity
  8
DIM
100
AcDbDimension
  2
*D1
 10
317.8934666035
 20
218.9371771736
 30
0.0
 11
283.5839524418
 21
218.9371771736
 31
0.0
 70
   160
  1
<> REF.
 71
     2
 42
-1.0
  3
SLDDIMSTYLE0
100
AcDbAlignedDimension
 13
253.8934666035
 23
208.9371771736
 33
0.0
 14
317.8934666035
 24
205.604529883
 34
0.0
100
AcDbRotatedDimension
  0
DIMENSION
  5
F1
330
1F
100
AcDbEntity
  8
DIM
100
AcDbDimension
  2
*D2
 10
266.7320634079
 20
156.9371771736
 30
0.0
 11
266.7320634079
 21
146.9861210518
 31
0.0
 70
   160
  1
%%c<>
 71
     2
 42
-1.0
  3
SLDDIMSTYLE0
100
AcDbAlignedDimension
 13
283.3934666035
 23
195.9371771736
 33
0.0
 14
283.3934666035
 24
156.9371771736
 34
0.0
 50
90.0
100
AcDbRotatedDimension
  0
DIMENSION
  5
FB
330
1F
100
AcDbEntity
  8
DIM
100
AcDbDimension
  2
*D3
 10
218.8934666035
 20
218.9371771736
 30
0.0
 11
235.8112293662
 21
218.9371771736
 31
0.0
 70
   160
 71
     2
 42
-1.0
  3
SLDDIMSTYLE0
100
AcDbAlignedDimension
 13
253.8934666035
 23
208.9371771736
 33
0.0
 14
218.8934666035
 24
178.9371771736
 34
0.0
100
AcDbRotatedDimension
  0
DIMENSION
  5
105
330
1F
100
AcDbEntity
  8
DIM
100
AcDbDimension
  2
*D4
 10
205.1967582148
 20
90.4371780833
 30
0.0
 11
205.1967582148
 21
146.9861210518
 31
0.0
 70
   160
 71
     2
 42
-1.0
  3
SLDDIMSTYLE1
100
AcDbAlignedDimension
 13
231.8934666035
 23
195.9371771736
 33
0.0
 14
218.8934666035
 24
90.4371780833
 34
0.0
 50
90.0
100
AcDbRotatedDimension
  0
LINE
  5
110
330
1F
100
AcDbEntity
  8
DIM
  6
CENTERX2
370
     0
100
AcDbLine
 10
319.9122522701
 20
176.4371771736
 30
0.0
 11
215.8379718043
 21
176.4371771736
 31
0.0
  0
ARC
  5
111
330
1F
100
AcDbEntity
  8
0
  6
Continuous
 62
     7
370
    15
100
AcDbCircle
 10
119.5830977372
 20
113.9371771736
 30
0.0
 40
82.00000000000028
100
AcDbArc
 50
77.3196165082
 51
102.6803834918
  0
SPLINE
  5
112
330
1F
100
AcDbEntity
  8
0
  6
Continuous
 62
     7
370
    15
100
AcDbSpline
210
0.0
220
0.0
230
1.0
 70
    24
 71
     3
 72
    19
 73
    15
 74
     0
 42
0.00000001
 43
0.00000001
 40
0.0
 40
0.0
 40
0.0
 40
0.0
 40
0.0588030110608663
 40
0.1160992479747853
 40
0.1729107730835689
 40
0.2302861586212263
 40
0.286049712170481
 40
0.3435125781724075
 40
0.4022493539575602
 40
0.4632508377579657
 40
0.5904635861724155
 40
0.7240574922548064
 40
0.8615484448563117
 40
1.0
 40
1.0
 40
1.0
 40
1.0
 10
101.5830985120385
 20
193.9371772481149
 30
0.0
 10
101.5830985120385
 20
193.9230809326743
 30
0.0
 10
101.5830985120385
 20
193.8952495071684
 30
0.0
 10
101.5830985120385
 20
193.6596647990388
 30
0.0
 10
101.5830985120385
 20
193.2800617307847
 30
0.0
 10
101.5830985120385
 20
192.7539145408741
 30
0.0
 10
101.5830985120385
 20
192.0973418601605
 30
0.0
 10
101.5830985120385
 20
191.3235411863848
 30
0.0
 10
101.5830985120385
 20
190.4305910524064
 30
0.0
 10
101.5830985120385
 20
189.0758788627945
 30
0.0
 10
101.5830985120385
 20
187.1327100423039
 30
0.0
 10
101.5830985120385
 20
184.5511684400188
 30
0.0
 10
101.5830985120385
 20
181.7872852183646
 30
0.0
 10
101.5830985120385
 20
179.8894154198657
 30
0.0
 10
101.5830985120385
 20
178.9371771177298
 30
0.0
  0
SPLINE
  5
113
330
1F
100
AcDbEntity
  8
0
  6
Continuous
 62
     7
370
    15
100
AcDbSpline
210
0.0
220
0.0
230
1.0
 70
    24
 71
     3
 72
    20
 73
    16
 74
     0
 42
0.00000001
 43
0.00000001
 40
0.0
 40
0.0
 40
0.0
 40
0.0
 40
0.138429623177235
 40
0.2758987959803337
 40
0.3656881478480994
 40
0.4529789558544335
 40
0.5368236521927475
 40
0.597840736847397
 40
0.6565429513935848
 40
0.714021539442151
 40
0.7697514525373723
 40
0.8271264735049573
 40
0.8839322477739964
 40
0.9412160399994082
 40
1.0
 40
1.0
 40
1.0
 40
1.0
 10
137.5830969623177
 20
178.9371771177298
 30
0.0
 10
137.5830969623177
 20
179.8893774404324
 30
0.0
 10
137.5830969623177
 20
181.7871715435729
 30
0.0
 10
137.5830969623177
 20
184.2560217431854
 30
0.0
 10
137.5830969623177
 20
186.3073883069934
 30
0.0
 10
137.5830969623177
 20
187.9418618353992
 30
0.0
 10
137.5830969623177
 20
189.3137735218358
 30
0.0
 10
137.5830969623177
 20
190.4307463518651
 30
0.0
 10
137.5830969623177
 20
191.3237752542715
 30
0.0
 10
137.5830969623177
 20
192.0974460307202
 30
0.0
 10
137.5830969623177
 20
192.7540476582701
 30
0.0
 10
137.5830969623177
 20
193.2800293897596
 30
0.0
 10
137.5830969623177
 20
193.6596487991332
 30
0.0
 10
137.5830969623177
 20
193.8952425359635
 30
0.0
 10
137.5830969623177
 20
193.9230790822442
 30
0.0
 10
137.5830969623177
 20
193.9371772481149
 30
0.0
  0
LINE
  5
114
330
1F
100
AcDbEntity
  8
0
  6
Continuous
 62
     7
370
    15
100
AcDbLine
 10
134.7048929742
 20
99.644311182
 30
0.0
 11
134.7048929742
 21
100.9371731801
 31
0.0
  0
SPLINE
  5
115
330
1F
100
AcDbEntity
  8
0
  6
Continuous
 62
     7
370
    15
100
AcDbSpline
210
0.0
220
0.0
230
1.0
 70
     8
 71
     3
 72
    10
 73
     6
 74
     0
 42
0.00000001
 43
0.00000001
 40
0.0
 40
0.0
 40
0.0
 40
0.0
 40
0.344474280238174
 40
0.69217524264098
 40
0.9999999999999999
 40
0.9999999999999999
 40
0.9999999999999999
 40
0.9999999999999999
 10
134.013586196944
 20
100.0397432966179
 30
0.0
 10
134.1089728522937
 20
100.0308833297275
 30
0.0
 10
134.3006396474627
 20
100.0130804048534
 30
0.0
 10
134.5427659811991
 20
99.8579568818153
 30
0.0
 10
134.6530876308289
 20
99.71257858548329
 30
0.0
 10
134.7048929742425
 20
99.64431118201672
 30
0.0
  0
SPLINE
  5
116
330
1F
100
AcDbEntity
  8
0
  6
Continuous
 62
     7
370
    15
100
AcDbSpline
210
0.0
220
0.0
230
1.0
 70
     8
 71
     3
 72
    12
 73
     8
 74
     0
 42
0.00000001
 43
0.00000001
 40
0.0
 40
0.0
 40
0.0
 40
0.0
 40
0.3258642864909044
 40
0.5144553256524206
 40
0.7045875813443938
 40
0.8741216188289778
 40
1.0
 40
1.0
 40
1.0
 40
1.0
 10
132.9548922217338
 20
98.71391992997586
 30
0.0
 10
132.9712976669752
 20
98.92284582492874
 30
0.0
 10
132.9971976168134
 20
99.25268571159647
 30
0.0
 10
133.1993688644056
 20
99.66313260243987
 30
0.0
 10
133.4608414887666
 20
99.9017096626028
 30
0.0
 10
133.7487829819895
 20
100.0235389386113
 30
0.0
 10
133.9344650767081
 20
100.034901561753
 30
0.0
 10
134.013586196944
 20
100.0397432966179
 30
0.0
  0
SPLINE
  5
117
330
1F
100
AcDbEntity
  8
0
  6
Continuous
 62
     7
370
    15
100
AcDbSpline
210
0.0
220
0.0
230
1.0
 70
     8
 71
     3
 72
    12
 73
     8
 74
     0
 42
0.00000001
 43
0.00000001
 40
0.0
 40
0.0
 40
0.0
 40
0.0
 40
0.1829811631135744
 40
0.3667941395162663
 40
0.5420346805335199
 40
0.7793023104452464
 40
1.0
 40
1.0
 40
1.0
 40
1.0
 10
134.0156900546401
 20
97.39230614137112
 30
0.0
 10
133.9010469972647
 20
97.40397858294477
 30
0.0
 10
133.6712397271284
 20
97.42737652779442
 30
0.0
 10
133.3733537946564
 20
97.6119774156607
 30
0.0
 10
133.1292146919635
 20
97.90172308206415
 30
0.0
 10
132.9784488281749
 20
98.28355529233374
 30
0.0
 10
132.9625527079342
 20
98.57396758259411
 30
0.0
 10
132.9548922217338
 20
98.71391992997586
 30
0.0
  0
SPLINE
  5
118
330
1F
100
AcDbEntity
  8
0
  6
Continuous
 62
     7
370
    15
100
AcDbSpline
210
0.0
220
0.0
230
1.0
 70
     8
 71
     3
 72
    11
 73
     7
 74
     0
 42
0.00000001
 43
0.00000001
 40
0.0
 40
0.0
 40
0.0
 40
0.0
 40
0.364902633844628
 40
0.6391699006198079
 40
0.9134884210614052
 40
1.0
 40
1.0
 40
1.0
 40
1.0
 10
134.7048929742425
 20
97.8234935922569
 30
0.0
 10
134.64759574161
 20
97.73451115238126
 30
0.0
 10
134.5472328965913
 20
97.57864793853437
 30
0.0
 10
134.3214026933696
 20
97.43570747870501
 30
0.0
 10
134.142473799777
 20
97.39677746497212
 30
0.0
 10
134.040208811794
 20
97.39317085235922
 30
0.0
 10
134.0156900546401
 20
97.39230614137112
 30
0.0
  0
LINE
  5
119
330
1F
100
AcDbEntity
  8
0
  6
Continuous
 62
     7
370
    15
100
AcDbLine
 10
134.7048929742
 20
97.4371735377
 30
0.0
 11
134.7048929742
 21
97.8234935923
 31
0.0
  0
LINE
  5
11A
330
1F
100
AcDbEntity
  8
0
  6
Continuous
 62
     7
370
    15
100
AcDbLine
 10
135.15361071
 20
97.4371735377
 30
0.0
 11
134.7048929742
 21
97.4371735377
 31
0.0
  0
LINE
  5
11B
330
1F
100
AcDbEntity
  8
0
  6
Continuous
 62
     7
370
    15
100
AcDbLine
 10
135.15361071
 20
100.9371731801
 30
0.0
 11
135.15361071
 21
97.4371735377
 31
0.0
  0
LINE
  5
11C
330
1F
100
AcDbEntity
  8
0
  6
Continuous
 62
     7
370
    15
100
AcDbLine
 10
134.7048929742
 20
100.9371731801
 30
0.0
 11
135.15361071
 21
100.9371731801
 31
0.0
  0
SPLINE
  5
11D
330
1F
100
AcDbEntity
  8
0
  6
Continuous
 62
     7
370
    15
100
AcDbSpline
210
0.0
220
0.0
230
1.0
 70
     8
 71
     3
 72
    10
 73
     6
 74
     0
 42
0.00000001
 43
0.00000001
 40
0.0
 40
0.0
 40
0.0
 40
0.0
 40
0.2500906511988639
 40
0.6973793162800871
 40
0.9999999999999999
 40
0.9999999999999999
 40
0.9999999999999999
 40
0.9999999999999999
 10
129.5705777442901
 20
99.75858818721234
 30
0.0
 10
129.626585953646
 20
99.80223660723978
 30
0.0
 10
129.7827651892927
 20
99.92395049446235
 30
0.0
 10
130.0564565467569
 20
100.0248629074449
 30
0.0
 10
130.2682591573465
 20
100.035464926019
 30
0.0
 10
130.3537306225746
 20
100.0397432966179
 30
0.0
  0
SPLINE
  5
11E
330
1F
100
AcDbEntity
  8
0
  6
Continuous
 62
     7
370
    15
100
AcDbSpline
210
0.0
220
0.0
230
1.0
 70
     8
 71
     3
 72
    10
 73
     6
 74
     0
 42
0.00000001
 43
0.00000001
 40
0.0
 40
0.0
 40
0.0
 40
0.0
 40
0.2519543486552562
 40
0.7046092255768587
 40
1.0
 40
1.0
 40
1.0
 40
1.0
 10
129.1856621242016
 20
98.71602099370419
 30
0.0
 10
129.1889554827586
 20
98.81167106104962
 30
0.0
 10
129.1981656068735
 20
99.07916364547353
 30
0.0
 10
129.3000477283386
 20
99.46418773909065
 30
0.0
 10
129.4939922725324
 20
99.67524513514553
 30
0.0
 10
129.5705777442901
 20
99.75858818721234
 30
0.0
  0
SPLINE
  5
11F
330
1F
100
AcDbEntity
  8
0
  6
Continuous
 62
     7
370
    15
100
AcDbSpline
210
0.0
220
0.0
230
1.0
 70
     8
 71
     3
 72
    12
 73
     8
 74
     0
 42
0.00000001
 43
0.00000001
 40
0.0
 40
0.0
 40
0.0
 40
0.0
 40
0.2612452533285224
 40
0.4400782933611965
 40
0.6188381066739793
 40
0.8395429805288868
 40
1.0
 40
1.0
 40
1.0
 40
1.0
 10
130.3537306225746
 20
97.39230614137112
 30
0.0
 10
130.1790145345013
 20
97.40904709040906
 30
0.0
 10
129.8846981521656
 20
97.43724790243529
 30
0.0
 10
129.536485929203
 20
97.67607367783691
 30
0.0
 10
129.3044635853921
 20
97.9893232762916
 30
0.0
 10
129.1990415337281
 20
98.3556281874965
 30
0.0
 10
129.1896258339691
 20
98.60925301689134
 30
0.0
 10
129.1856621242016
 20
98.71602099370419
 30
0.0
  0
SPLINE
  5
120
330
1F
100
AcDbEntity
  8
0
  6
Continuous
 62
     7
370
    15
100
AcDbSpline
210
0.0
220
0.0
230
1.0
 70
     8
 71
     3
 72
    12
 73
     8
 74
     0
 42
0.00000001
 43
0.00000001
 40
0.0
 40
0.0
 40
0.0
 40
0.0
 40
0.2876071186653716
 40
0.4607470075998337
 40
0.6340625285090126
 40
0.8044579173915675
 40
1.0
 40
1.0
 40
1.0
 40
1.0
 10
131.5189949086755
 20
98.75177632998883
 30
0.0
 10
131.5116796467636
 20
98.55500360213033
 30
0.0
 10
131.499960586918
 20
98.2397734160391
 30
0.0
 10
131.3149245973331
 20
97.84183582750994
 30
0.0
 10
131.0621487396559
 20
97.59393551451282
 30
0.0
 10
130.7325393382036
 20
97.42497172492585
 30
0.0
 10
130.48565536431
 20
97.40368232807512
 30
0.0
 10
130.3537306225746
 20
97.39230614137111
 30
0.0
  0
SPLINE
  5
121
330
1F
100
AcDbEntity
  8
0
  6
Continuous
 62
     7
370
    15
100
AcDbSpline
210
0.0
220
0.0
230
1.0
 70
     8
 71
     3
 72
    12
 73
     8
 74
     0
 42
0.00000001
 43
0.00000001
 40
0.0
 40
0.0
 40
0.0
 40
0.0
 40
0.2622425822515337
 40
0.4497608293328215
 40
0.6371991877412775
 40
0.8239132415850249
 40
1.0
 40
1.0
 40
1.0
 40
1.0
 10
130.3537306225746
 20
100.0397432966179
 30
0.0
 10
130.5256667202059
 20
100.0227628550469
 30
0.0
 10
130.8205468315858
 20
99.99364043938955
 30
0.0
 10
131.1695386467574
 20
99.74923803464652
 30
0.0
 10
131.3905871574756
 20
99.45187907008663
 30
0.0
 10
131.5036033714273
 20
99.10413283755571
 30
0.0
 10
131.5139655740822
 20
98.86691224812905
 30
0.0
 10
131.5189949086755
 20
98.75177632998883
 30
0.0
  0
LINE
  5
122
330
1F
100
AcDbEntity
  8
0
  6
Continuous
 62
     7
370
    15
100
AcDbLine
 10
110.3395079112
 20
99.5910246296
 30
0.0
 11
109.9356622285
 21
99.5910246296
 31
0.0
  0
LINE
  5
123
330
1F
100
AcDbEntity
  8
0
  6
Continuous
 62
     7
370
    15
100
AcDbLine
 10
110.3395079112
 20
99.9948684497
 30
0.0
 11
110.3395079112
 21
99.5910246296
 31
0.0
  0
LINE
  5
124
330
1F
100
AcDbEntity
  8
0
  6
Continuous
 62
     7
370
    15
100
AcDbLine
 10
109.9356622285
 20
99.9948684497
 30
0.0
 11
110.3395079112
 21
99.9948684497
 31
0.0
  0
LINE
  5
125
330
1F
100
AcDbEntity
  8
0
  6
Continuous
 62
     7
370
    15
100
AcDbLine
 10
109.9356622285
 20
100.8726735039
 30
0.0
 11
109.9356622285
 21
99.9948684497
 31
0.0
  0
LINE
  5
126
330
1F
100
AcDbEntity
  8
0
  6
Continuous
 62
     7
370
    15
100
AcDbLine
 10
109.4869435615
 20
100.6174613161
 30
0.0
 11
109.9356622285
 21
100.8726735039
 31
0.0
  0
LINE
  5
127
330
1F
100
AcDbEntity
  8
0
  6
Continuous
 62
     7
370
    15
100
AcDbLine
 10
109.4869435615
 20
99.9948684497
 30
0.0
 11
109.4869435615
 21
100.6174613161
 31
0.0
  0
LINE
  5
128
330
1F
100
AcDbEntity
  8
0
  6
Continuous
 62
     7
370
    15
100
AcDbLine
 10
109.1728410534
 20
99.9948684497
 30
0.0
 11
109.4869435615
 21
99.9948684497
 31
0.0
  0
LINE
  5
129
330
1F
100
AcDbEntity
  8
0
  6
Continuous
 62
     7
370
    15
100
AcDbLine
 10
109.1728410534
 20
99.5910246296
 30
0.0
 11
109.1728410534
 21
99.9948684497
 31
0.0
  0
LINE
  5
12A
330
1F
100
AcDbEntity
  8
0
  6
Continuous
 62
     7
370
    15
100
AcDbLine
 10
109.4869435615
 20
99.5910246296
 30
0.0
 11
109.1728410534
 21
99.5910246296
 31
0.0
  0
LINE
  5
12B
330
1F
100
AcDbEntity
  8
0
  6
Continuous
 62
     7
370
    15
100
AcDbLine
 10
109.4869435615
 20
98.1558267398
 30
0.0
 11
109.4869435615
 21
99.5910246296
 31
0.0
  0
SPLINE
  5
12C
330
1F
100
AcDbEntity
  8
0
  6
Continuous
 62
     7
370
    15
100
AcDbSpline
210
0.0
220
0.0
230
1.0
 70
     8
 71
     3
 72
    12
 73
     8
 74
     0
 42
0.00000001
 43
0.00000001
 40
0.0
 40
0.0
 40
0.0
 40
0.0
 40
0.2294541167101015
 40
0.3623821696745346
 40
0.4958712725724559
 40
0.6190559518603491
 40
1.0
 40
1.0
 40
1.0
 40
1.0
 10
110.0681735983937
 20
97.39230614137112
 30
0.0
 10
109.981094004581
 20
97.39583146876653
 30
0.0
 10
109.843567197075
 20
97.40139909949234
 30
0.0
 10
109.6723098188419
 20
97.4823434010747
 30
0.0
 10
109.5637758386945
 20
97.5873302699392
 30
0.0
 10
109.47835188175
 20
97.81763102195167
 30
0.0
 10
109.4832456178223
 20
98.0102639687083
 30
0.0
 10
109.4869435614794
 20
98.15582673978268
 30
0.0
  0
SPLINE
  5
12D
330
1F
100
AcDbEntity
  8
0
  6
Continuous
 62
     7
370
    15
100
AcDbSpline
210
0.0
220
0.0
230
1.0
 70
     8
 71
     3
 72
    10
 73
     6
 74
     0
 42
0.00000001
 43
0.00000001
 40
0.0
 40
0.0
 40
0.0
 40
0.0
 40
0.4977357346170558
 40
0.7483131337047899
 40
1.0
 40
1.0
 40
1.0
 40
1.0
 10
110.3843799642174
 20
97.4308628959602
 30
0.0
 10
110.3323577119005
 20
97.42091866309946
 30
0.0
 10
110.2541456568959
 20
97.40596815917381
 30
0.0
 10
110.1483743328038
 20
97.39359758598268
 30
0.0
 10
110.0949465159876
 20
97.39273725637793
 30
0.0
 10
110.0681735983937
 20
97.39230614137112
 30
0.0
  0
LINE
  5
12E
330
1F
100
AcDbEntity
  8
0
  6
Continuous
 62
     7
370
    15
100
AcDbLine
 10
110.3395079112
 20
97.8073705358
 30
0.0
 11
110.3843799642
 21
97.430862896
 31
0.0
  0
SPLINE
  5
12F
330
1F
100
AcDbEntity
  8
0
  6
Continuous
 62
     7
370
    15
100
AcDbSpline
210
0.0
220
0.0
230
1.0
 70
     8
 71
     3
 72
    10
 73
     6
 74
     0
 42
0.00000001
 43
0.00000001
 40
0.0
 40
0.0
 40
0.0
 40
0.0
 40
0.4994090941634581
 40
0.7496599175371603
 40
1.0
 40
1.0
 40
1.0
 40
1.0
 10
110.1635261288731
 20
97.79614996146617
 30
0.0
 10
110.1928820613759
 20
97.79697651305744
 30
0.0
 10
110.2369480709788
 20
97.79821724456394
 30
0.0
 10
110.2955640279213
 20
97.80303410292974
 30
0.0
 10
110.3248582090168
 20
97.80592488639057
 30
0.0
 10
110.3395079112499
 20
97.80737053584515
 30
0.0
  0
SPLINE
  5
130
330
1F
100
AcDbEntity
  8
0
  6
Continuous
 62
     7
370
    15
100
AcDbSpline
210
0.0
220
0.0
230
1.0
 70
     8
 71
     3
 72
    13
 73
     9
 74
     0
 42
0.00000001
 43
0.00000001
 40
0.0
 40
0.0
 40
0.0
 40
0.0
 40
0.2552721355819471
 40
0.4619799593564019
 40
0.5766783028397597
 40
0.6906518280988145
 40
0.8157278541315858
 40
0.9999999999999999
 40
0.9999999999999999
 40
0.9999999999999999
 40
0.9999999999999999
 10
109.9356622285097
 20
98.13970368337094
 30
0.0
 10
109.9362584281178
 20
98.09861114853305
 30
0.0
 10
109.9373374031891
 20
98.02424373851007
 30
0.0
 10
109.9440053922126
 20
97.92949490978961
 30
0.0
 10
109.9774517030548
 20
97.866105179206
 30
0.0
 10
110.0196826622349
 20
97.82632566944686
 30
0.0
 10
110.0837353391189
 20
97.79922950435873
 30
0.0
 10
110.1337396320065
 20
97.79729957779412
 30
0.0
 10
110.1635261288731
 20
97.79614996146618
 30
0.0
  0
LINE
  5
131
330
1F
100
AcDbEntity
  8
0
  6
Continuous
 62
     7
370
    15
100
AcDbLine
 10
109.9356622285
 20
99.5910246296
 30
0.0
 11
109.9356622285
 21
98.1397036834
 31
0.0
  0
SPLINE
  5
132
330
1F
100
AcDbEntity
  8
0
  6
Continuous
 62
     7
370
    15
100
AcDbSpline
210
0.0
220
0.0
230
1.0
 70
     8
 71
     3
 72
    12
 73
     8
 74
     0
 42
0.00000001
 43
0.00000001
 40
0.0
 40
0.0
 40
0.0
 40
0.0
 40
0.3737857027223209
 40
0.5293267751389847
 40
0.6853847465221494
 40
0.8358481698000263
 40
1.0
 40
1.0
 40
1.0
 40
1.0
 10
105.627969358012
 20
99.02662079762874
 30
0.0
 10
105.6221413353414
 20
99.14331836044546
 30
0.0
 10
105.6138881345816
 20
99.30857653951027
 30
0.0
 10
105.5040540640722
 20
99.49238299232228
 30
0.0
 10
105.3909335550908
 20
99.57958802339213
 30
0.0
 10
105.2552029654095
 20
99.62870763029971
 30
0.0
 10
105.1601406165769
 20
99.63342875782331
 30
0.0
 10
105.1105414367168
 20
99.6358920259422
 30
0.0
  0
LINE
  5
133
330
1F
100
AcDbEntity
  8
0
  6
Continuous
 62
     7
370
    15
100
AcDbLine
 10
105.627969358
 20
97.4371735377
 30
0.0
 11
105.627969358
 21
99.0266207976
 31
0.0
  0
LINE
  5
134
330
1F
100
AcDbEntity
  8
0
  6
Continuous
 62
     7
370
    15
100
AcDbLine
 10
106.0766870937
 20
97.4371735377
 30
0.0
 11
105.627969358
 21
97.4371735377
 31
0.0
  0
LINE
  5
135
330
1F
100
AcDbEntity
  8
0
  6
Continuous
 62
     7
370
    15
100
AcDbLine
 10
106.0766870937
 20
99.0497548504
 30
0.0
 11
106.0766870937
 21
97.4371735377
 31
0.0
  0
SPLINE
  5
136
330
1F
100
AcDbEntity
  8
0
  6
Continuous
 62
     7
370
    15
100
AcDbSpline
210
0.0
220
0.0
230
1.0
 70
     8
 71
     3
 72
    12
 73
     8
 74
     0
 42
0.00000001
 43
0.00000001
 40
0.0
 40
0.0
 40
0.0
 40
0.0
 40
0.2649242505618393
 40
0.4262403568758915
 40
0.5888324717510813
 40
0.7617563375054601
 40
1.0
 40
1.0
 40
1.0
 40
1.0
 10
105.2115033230632
 20
100.0397432966179
 30
0.0
 10
105.3450729177792
 20
100.0287527960447
 30
0.0
 10
105.5599749193844
 20
100.0110700249257
 30
0.0
 10
105.8215339658678
 20
99.86076060105218
 30
0.0
 10
105.987283001331
 20
99.66449756825337
 30
0.0
 10
106.0676772481348
 20
99.37891709845273
 30
0.0
 10
106.0733817324305
 20
99.17051165385749
 30
0.0
 10
106.0766870937197
 20
99.0497548503822
 30
0.0
  0
SPLINE
  5
137
330
1F
100
AcDbEntity
  8
0
  6
Continuous
 62
     7
370
    15
100
AcDbSpline
210
0.0
220
0.0
230
1.0
 70
     8
 71
     3
 72
    10
 73
     6
 74
     0
 42
0.00000001
 43
0.00000001
 40
0.0
 40
0.0
 40
0.0
 40
0.0
 40
0.2492173575344753
 40
0.6099245084512307
 40
1.0
 40
1.0
 40
1.0
 40
1.0
 10
104.4613025001137
 20
99.65903352927624
 30
0.0
 10
104.5087842263793
 20
99.7140136503748
 30
0.0
 10
104.6249890880286
 20
99.84856978108489
 30
0.0
 10
104.8796667572561
 20
100.0083125412935
 30
0.0
 10
105.0980437195754
 20
100.028996677939
 30
0.0
 10
105.2115033230632
 20
100.0397432966179
 30
0.0
  0
LINE
  5
138
330
1F
100
AcDbEntity
  8
0
  6
Continuous
 62
     7
370
    15
100
AcDbLine
 10
104.4613025001
 20
100.9371731801
 30
0.0
 11
104.4613025001
 21
99.6590335293
 31
0.0
  0
LINE
  5
139
330
1F
100
AcDbEntity
  8
0
  6
Continuous
 62
     7
370
    15
100
AcDbLine
 10
104.0125847644
 20
100.9371731801
 30
0.0
 11
104.4613025001
 21
100.9371731801
 31
0.0
  0
LINE
  5
13A
330
1F
100
AcDbEntity
  8
0
  6
Continuous
 62
     7
370
    15
100
AcDbLine
 10
104.0125847644
 20
97.4371735377
 30
0.0
 11
104.0125847644
 21
100.9371731801
 31
0.0
  0
LINE
  5
13B
330
1F
100
AcDbEntity
  8
0
  6
Continuous
 62
     7
370
    15
100
AcDbLine
 10
104.4613025001
 20
97.4371735377
 30
0.0
 11
104.0125847644
 21
97.4371735377
 31
0.0
  0
LINE
  5
13C
330
1F
100
AcDbEntity
  8
0
  6
Continuous
 62
     7
370
    15
100
AcDbLine
 10
104.4613025001
 20
98.8092724605
 30
0.0
 11
104.4613025001
 21
97.4371735377
 31
0.0
  0
SPLINE
  5
13D
330
1F
100
AcDbEntity
  8
0
  6
Continuous
 62
     7
370
    15
100
AcDbSpline
210
0.0
220
0.0
230
1.0
 70
     8
 71
     3
 72
    12
 73
     8
 74
     0
 42
0.00000001
 43
0.00000001
 40
0.0
 40
0.0
 40
0.0
 40
0.0
 40
0.2101980746037288
 40
0.4215979493872815
 40
0.5735231786952544
 40
0.7668316811404058
 40
1.0
 40
1.0
 40
1.0
 40
1.0
 10
105.1105414367168
 20
99.63589202594218
 30
0.0
 10
105.0276566084228
 20
99.62640041760689
 30
0.0
 10
104.8614130607121
 20
99.6073629329958
 30
0.0
 10
104.6627021005085
 20
99.48148052962601
 30
0.0
 10
104.5289180674683
 20
99.30080154573953
 30
0.0
 10
104.469109269839
 20
99.07278220745143
 30
0.0
 10
104.4640620010359
 20
98.90241666931719
 30
0.0
 10
104.4613025001137
 20
98.80927246045529
 30
0.0
  0
SPLINE
  5
13E
330
1F
100
AcDbEntity
  8
0
  6
Continuous
 62
     7
370
    15
100
AcDbSpline
210
0.0
220
0.0
230
1.0
 70
     8
 71
     3
 72
    10
 73
     6
 74
     0
 42
0.00000001
 43
0.00000001
 40
0.0
 40
0.0
 40
0.0
 40
0.0
 40
0.2494177446262191
 40
0.6988044785053451
 40
0.9999999999999999
 40
0.9999999999999999
 40
0.9999999999999999
 40
0.9999999999999999
 10
106.9551934338062
 20
99.75858818721234
 30
0.0
 10
107.0110391715866
 20
99.80212481753341
 30
0.0
 10
107.1675045895739
 20
99.92410327697704
 30
0.0
 10
107.4411258879992
 20
100.0249088424649
 30
0.0
 10
107.6532318871599
 20
100.0354951833253
 30
0.0
 10
107.7383463120907
 20
100.0397432966179
 30
0.0
  0
SPLINE
  5
13F
330
1F
100
AcDbEntity
  8
0
  6
Continuous
 62
     7
370
    15
100
AcDbSpline
210
0.0
220
0.0
230
1.0
 70
     8
 71
     3
 72
    10
 73
     6
 74
     0
 42
0.00000001
 43
0.00000001
 40
0.0
 40
0.0
 40
0.0
 40
0.0
 40
0.2517438340509713
 40
0.7019760963567258
 40
1.0
 40
1.0
 40
1.0
 40
1.0
 10
106.570276882395
 20
98.71602099370419
 30
0.0
 10
106.5735705640261
 20
98.81167333995118
 30
0.0
 10
106.5827548436836
 20
99.07839550567546
 30
0.0
 10
106.6844545952007
 20
99.46357669515038
 30
0.0
 10
106.8780757978175
 20
99.67455669407859
 30
0.0
 10
106.9551934338062
 20
99.75858818721234
 30
0.0
  0
SPLINE
  5
140
330
1F
100
AcDbEntity
  8
0
  6
Continuous
 62
     7
370
    15
100
AcDbSpline
210
0.0
220
0.0
230
1.0
 70
     8
 71
     3
 72
    12
 73
     8
 74
     0
 42
0.00000001
 43
0.00000001
 40
0.0
 40
0.0
 40
0.0
 40
0.0
 40
0.2607720021312762
 40
0.4402660978512717
 40
0.6197082050260654
 40
0.839559292406604
 40
1.0
 40
1.0
 40
1.0
 40
1.0
 10
107.7383463120907
 20
97.39230614137112
 30
0.0
 10
107.5641169362567
 20
97.40896567717576
 30
0.0
 10
107.2699623230214
 20
97.43709227343906
 30
0.0
 10
106.9215067511131
 20
97.67553093400326
 30
0.0
 10
106.6892402433399
 20
97.98900257501812
 30
0.0
 10
106.5836750514606
 20
98.35561863247895
 30
0.0
 10
106.5742522523148
 20
98.609086031262
 30
0.0
 10
106.570276882395
 20
98.71602099370418
 30
0.0
  0
SPLINE
  5
141
330
1F
100
AcDbEntity
  8
0
  6
Continuous
 62
     7
370
    15
100
AcDbSpline
210
0.0
220
0.0
230
1.0
 70
     8
 71
     3
 72
    12
 73
     8
 74
     0
 42
0.00000001
 43
0.00000001
 40
0.0
 40
0.0
 40
0.0
 40
0.0
 40
0.2875810176565443
 40
0.4606053060007918
 40
0.633812852367348
 40
0.8039204101880025
 40
1.0
 40
1.0
 40
1.0
 40
1.0
 10
108.9036105981915
 20
98.75177632998881
 30
0.0
 10
108.8963001004683
 20
98.55501489820703
 30
0.0
 10
108.8845912120712
 20
98.23987115112139
 30
0.0
 10
108.6996046682852
 20
97.84192535333543
 30
0.0
 10
108.4469254234205
 20
97.59407018300654
 30
0.0
 10
108.1171868612926
 20
97.42498390749822
 30
0.0
 10
107.8704595859956
 20
97.40370187679609
 30
0.0
 10
107.7383463120907
 20
97.39230614137112
 30
0.0
  0
SPLINE
  5
142
330
1F
100
AcDbEntity
  8
0
  6
Continuous
 62
     7
370
    15
100
AcDbSpline
210
0.0
220
0.0
230
1.0
 70
     8
 71
     3
 72
    12
 73
     8
 74
     0
 42
0.00000001
 43
0.00000001
 40
0.0
 40
0.0
 40
0.0
 40
0.0
 40
0.2622042058259769
 40
0.4493639211119923
 40
0.6364423672780504
 40
0.8229177929874745
 40
1.0
 40
1.0
 40
1.0
 40
1.0
 10
107.7383463120907
 20
100.0397432966179
 30
0.0
 10
107.9100531278438
 20
100.0228394755108
 30
0.0
 10
108.2043231902383
 20
99.99386981306573
 30
0.0
 10
108.5533039650238
 20
99.74999996923675
 30
0.0
 10
108.7744629375691
 20
99.45324059318075
 30
0.0
 10
108.8880973676774
 20
99.10532299048063
 30
0.0
 10
108.8985293650018
 20
98.86757767927996
 30
0.0
 10
108.9036105981915
 20
98.75177632998883
 30
0.0
  0
SPLINE
  5
143
330
1F
100
AcDbEntity
  8
0
  6
Continuous
 62
     7
370
    15
100
AcDbSpline
210
0.0
220
0.0
230
1.0
 70
     8
 71
     3
 72
    11
 73
     7
 74
     0
 42
0.00000001
 43
0.00000001
 40
0.0
 40
0.0
 40
0.0
 40
0.0
 40
0.3354263815186316
 40
0.5557852460355037
 40
0.7756287356778084
 40
1.0
 40
1.0
 40
1.0
 40
1.0
 10
128.4677130020111
 20
99.18717335891186
 30
0.0
 10
128.4394694746237
 20
99.27068905457223
 30
0.0
 10
128.3926713195507
 20
99.40907051177984
 30
0.0
 10
128.2436335096014
 20
99.54972446884808
 30
0.0
 10
128.0859270038471
 20
99.62461906024473
 30
0.0
 10
127.9711165739021
 20
99.6321089232493
 30
0.0
 10
127.9131262413113
 20
99.6358920259422
 30
0.0
  0
LINE
  5
144
330
1F
100
AcDbEntity
  8
0
  6
Continuous
 62
     7
370
    15
100
AcDbLine
 10
128.9164307377
 20
99.2320482058
 30
0.0
 11
128.467713002
 21
99.1871733589
 31
0.0
  0
SPLINE
  5
145
330
1F
100
AcDbEntity
  8
0
  6
Continuous
 62
     7
370
    15
100
AcDbSpline
210
0.0
220
0.0
230
1.0
 70
     8
 71
     3
 72
    12
 73
     8
 74
     0
 42
0.00000001
 43
0.00000001
 40
0.0
 40
0.0
 40
0.0
 40
0.0
 40
0.3177311140829056
 40
0.526291218707386
 40
0.7351043920112397
 40
0.9414522891505764
 40
1.0
 40
1.0
 40
1.0
 40
1.0
 10
127.9103210977166
 20
100.0397432966179
 30
0.0
 10
128.0612734339337
 20
100.0279170785133
 30
0.0
 10
128.311311549413
 20
100.0083280786858
 30
0.0
 10
128.6148054392562
 20
99.82435195601505
 30
0.0
 10
128.8033149140499
 20
99.59297577361524
 30
0.0
 10
128.8856530296585
 20
99.38148825635044
 30
0.0
 10
128.9108595471974
 20
99.25909892032044
 30
0.0
 10
128.9164307377189
 20
99.23204820584714
 30
0.0
  0
SPLINE
  5
146
330
1F
100
AcDbEntity
  8
0
  6
Continuous
 62
     7
370
    15
100
AcDbSpline
210
0.0
220
0.0
230
1.0
 70
     8
 71
     3
 72
    12
 73
     8
 74
     0
 42
0.00000001
 43
0.00000001
 40
0.0
 40
0.0
 40
0.0
 40
0.0
 40
0.3383722268623278
 40
0.5068691579039799
 40
0.6765715511938132
 40
0.8812906596467391
 40
1.0
 40
1.0
 40
1.0
 40
1.0
 10
126.7625847681313
 20
98.70620857905804
 30
0.0
 10
126.7794103563891
 20
98.93281979165843
 30
0.0
 10
126.8046144691219
 20
99.27227505832575
 30
0.0
 10
127.0243824076245
 20
99.67473118358959
 30
0.0
 10
127.3056587646496
 20
99.90802797526383
 30
0.0
 10
127.6187048636461
 20
100.0245906171049
 30
0.0
 10
127.8320252098021
 20
100.0356749617375
 30
0.0
 10
127.9103210977166
 20
100.0397432966179
 30
0.0
  0
SPLINE
  5
147
330
1F
100
AcDbEntity
  8
0
  6
Continuous
 62
     7
370
    15
100
AcDbSpline
210
0.0
220
0.0
230
1.0
 70
     8
 71
     3
 72
    12
 73
     8
 74
     0
 42
0.00000001
 43
0.00000001
 40
0.0
 40
0.0
 40
0.0
 40
0.0
 40
0.2530152951766404
 40
0.4271429043872138
 40
0.6011120709328792
 40
0.7804964409945437
 40
1.0
 40
1.0
 40
1.0
 40
1.0
 10
127.9110223836153
 20
97.39230614137112
 30
0.0
 10
127.7433581357132
 20
97.40762149783146
 30
0.0
 10
127.4603057069626
 20
97.43347703291136
 30
0.0
 10
127.1234035054472
 20
97.65941813102947
 30
0.0
 10
126.9095343951984
 20
97.93767274167371
 30
0.0
 10
126.7814396624572
 20
98.2985421555124
 30
0.0
 10
126.7692774805781
 20
98.56150375601106
 30
0.0
 10
126.7625847681313
 20
98.70620857905804
 30
0.0
  0
SPLINE
  5
148
330
1F
100
AcDbEntity
  8
0
  6
Continuous
 62
     7
370
    15
100
AcDbSpline
210
0.0
220
0.0
230
1.0
 70
     8
 71
     3
 72
    12
 73
     8
 74
     0
 42
0.00000001
 43
0.00000001
 40
0.0
 40
0.0
 40
0.0
 40
0.0
 40
0.3028475307227387
 40
0.5174624533510063
 40
0.7317936250033641
 40
0.9445111318214703
 40
1.0
 40
1.0
 40
1.0
 40
1.0
 10
128.9613027906864
 20
98.33461087178647
 30
0.0
 10
128.924410011502
 20
98.18027019486257
 30
0.0
 10
128.8613729182752
 20
97.91655496779005
 30
0.0
 10
128.6118231888028
 20
97.62041438867722
 30
0.0
 10
128.3249046109582
 20
97.44659771320674
 30
0.0
 10
128.0772049425824
 20
97.3965248176923
 30
0.0
 10
127.9395099264585
 20
97.39302932028467
 30
0.0
 10
127.9110223836153
 20
97.39230614137112
 30
0.0
  0
LINE
  5
149
330
1F
100
AcDbEntity
  8
0
  6
Continuous
 62
     7
370
    15
100
AcDbLine
 10
128.512585055
 20
98.3794857187
 30
0.0
 11
128.9613027907
 21
98.3346108718
 31
0.0
  0
SPLINE
  5
14A
330
1F
100
AcDbEntity
  8
0
  6
Continuous
 62
     7
370
    15
100
AcDbSpline
210
0.0
220
0.0
230
1.0
 70
     8
 71
     3
 72
    12
 73
     8
 74
     0
 42
0.00000001
 43
0.00000001
 40
0.0
 40
0.0
 40
0.0
 40
0.0
 40
0.2442732946860064
 40
0.4499284364256073
 40
0.6561035047800317
 40
0.919682310983421
 40
1.0
 40
1.0
 40
1.0
 40
1.0
 10
127.8955978191345
 20
97.79614996146618
 30
0.0
 10
127.9721848619292
 20
97.80233271997851
 30
0.0
 10
128.1132509922215
 20
97.81372077970822
 30
0.0
 10
128.2967643532732
 20
97.91707675919372
 30
0.0
 10
128.4339020386942
 20
98.08229710220441
 30
0.0
 10
128.4914131741185
 20
98.24854686555463
 30
0.0
 10
128.5085765220111
 20
98.35469468985082
 30
0.0
 10
128.5125850549786
 20
98.37948571872174
 30
0.0
  0
SPLINE
  5
14B
330
1F
100
AcDbEntity
  8
0
  6
Continuous
 62
     7
370
    15
100
AcDbSpline
210
0.0
220
0.0
230
1.0
 70
     8
 71
     3
 72
    12
 73
     8
 74
     0
 42
0.00000001
 43
0.00000001
 40
0.0
 40
0.0
 40
0.0
 40
0.0
 40
0.3907334971271718
 40
0.5545151571780178
 40
0.7186669634642225
 40
0.8845959275135759
 40
1.0
 40
1.0
 40
1.0
 40
1.0
 10
127.2113029695003
 20
98.71812950801312
 30
0.0
 10
127.2189564949524
 20
98.54629707323261
 30
0.0
 10
127.2298181075355
 20
98.30243856025344
 30
0.0
 10
127.3784645932824
 20
98.02205601794869
 30
0.0
 10
127.5414547982175
 20
97.87818706328656
 30
0.0
 10
127.7244410699649
 20
97.80536081976675
 30
0.0
 10
127.8458112339159
 20
97.79882924337556
 30
0.0
 10
127.8955978191345
 20
97.79614996146618
 30
0.0
  0
SPLINE
  5
14C
330
1F
100
AcDbEntity
  8
0
  6
Continuous
 62
     7
370
    15
100
AcDbSpline
210
0.0
220
0.0
230
1.0
 70
     8
 71
     3
 72
    12
 73
     8
 74
     0
 42
0.00000001
 43
0.00000001
 40
0.0
 40
0.0
 40
0.0
 40
0.0
 40
0.1921581749706768
 40
0.3558613177740618
 40
0.5194421367809309
 40
0.7243097746156093
 40
1.0
 40
1.0
 40
1.0
 40
1.0
 10
127.9131262413113
 20
99.6358920259422
 30
0.0
 10
127.8290375394022
 20
99.62891397282438
 30
0.0
 10
127.6733120997957
 20
99.61599118575903
 30
0.0
 10
127.4737006394353
 20
99.4974568764907
 30
0.0
 10
127.31976376769
 20
99.31952427917597
 30
0.0
 10
127.2241933132237
 20
99.04865867730034
 30
0.0
 10
127.2160021440436
 20
98.83862390998269
 30
0.0
 10
127.2113029695003
 20
98.71812950801312
 30
0.0
  0
LINE
  5
14D
330
1F
100
AcDbEntity
  8
0
  6
Continuous
 62
     7
370
    15
100
AcDbLine
 10
132.0125846974
 20
97.4371735377
 30
0.0
 11
132.0125846974
 21
100.9371731801
 31
0.0
  0
LINE
  5
14E
330
1F
100
AcDbEntity
  8
0
  6
Continuous
 62
     7
370
    15
100
AcDbLine
 10
132.4613024331
 20
97.4371735377
 30
0.0
 11
132.0125846974
 21
97.4371735377
 31
0.0
  0
LINE
  5
14F
330
1F
100
AcDbEntity
  8
0
  6
Continuous
 62
     7
370
    15
100
AcDbLine
 10
132.4613024331
 20
100.9371731801
 30
0.0
 11
132.4613024331
 21
97.4371735377
 31
0.0
  0
LINE
  5
150
330
1F
100
AcDbEntity
  8
0
  6
Continuous
 62
     7
370
    15
100
AcDbLine
 10
132.0125846974
 20
100.9371731801
 30
0.0
 11
132.4613024331
 21
100.9371731801
 31
0.0
  0
LINE
  5
151
330
1F
100
AcDbEntity
  8
0
  6
Continuous
 62
     7
370
    15
100
AcDbLine
 10
101.583098512
 20
178.9371771177
 30
0.0
 11
101.583098512
 21
138.4371783955
 31
0.0
  0
LINE
  5
152
330
1F
100
AcDbEntity
  8
0
  6
Continuous
 62
     7
370
    15
100
AcDbLine
 10
137.5830969623
 20
178.9371771177
 30
0.0
 11
137.5830969623
 21
138.4371783955
 31
0.0
  0
SPLINE
  5
153
330
1F
100
AcDbEntity
  8
0
  6
Continuous
 62
     7
370
    15
100
AcDbSpline
210
0.0
220
0.0
230
1.0
 70
     8
 71
     3
 72
   105
 73
   101
 74
     0
 42
0.00000001
 43
0.00000001
 40
0.0
 40
0.0
 40
0.0
 40
0.0
 40
0.0142088797825348
 40
0.024995289144407
 40
0.0332082540924625
 40
0.0444963681702364
 40
0.0559878527314862
 40
0.0668427860816273
 40
0.0774728030642418
 40
0.0925153333456242
 40
0.1084807145040672
 40
0.1253689512443752
 40
0.143792490901503
 40
0.1617801611563012
 40
0.1789075071424292
 40
0.1951745341123614
 40
0.2105812482910839
 40
0.2251276572005141
 40
0.2388137694694275
 40
0.2516395954353969
 40
0.2621867268015777
 40
0.2726717270937205
 40
0.2830944860713871
 40
0.2935763674511745
 40
0.3061402370122335
 40
0.3145493189927442
 40
0.321535243896903
 40
0.3275933134082804
 40
0.3339799374889079
 40
0.340551545887565
 40
0.3460085427344216
 40
0.3514772112319614
 40
0.3567378191209035
 40
0.3617333737392696
 40
0.3656774820300756
 40
0.3676315129231156
 40
0.3695960976917467
 40
0.3719952676618647
 40
0.374609456182219
 40
0.3774705042261919
 40
0.3889524620521681
 40
0.4001326527087841
 40
0.411632933957119
 40
0.4220738399574962
 40
0.4348999322774609
 40
0.4463160762029963
 40
0.4568887882115473
 40
0.469121033773287
 40
0.478741543205268
 40
0.4895338031651733
 40
0.5023335588301546
 40
0.5127574906438555
 40
0.5219599412649266
 40
0.5299409020535126
 40
0.5387887189910202
 40
0.5485670624036949
 40
0.5572088402695562
 40
0.564714077341891
 40
0.5714885082462607
 40
0.5775812324616104
 40
0.5839037593819897
 40
0.5903670724788272
 40
0.5960305861471076
 40
0.600547467069434
 40
0.6046615216422675
 40
0.6083739083805325
 40
0.6116862618352703
 40
0.6171204107670168
 40
0.6223611755739736
 40
0.6273268668619192
 40
0.631228436945864
 40
0.635139745621222
 40
0.6390405940752936
 40
0.6429387852702405
 40
0.6528671299081598
 40
0.6625537818115661
 40
0.673245087448657
 40
0.6825909614330545
 40
0.6936338927534585
 40
0.7037472921523464
 40
0.7117030210982361
 40
0.7196671804713195
 40
0.7276397146291533
 40
0.7356206846756326
 40
0.7436100347940997
 40
0.7516078257646204
 40
0.770733010819347
 40
0.7917208800286915
 40
0.8145714902084279
 40
0.8392848339025428
 40
0.865860985951323
 40
0.8920782637815473
 40
0.9129522614836451
 40
0.9322038745078589
 40
0.9515553569035672
 40
0.9612675545476146
 40
0.9702452661223561
 40
0.9775314078218114
 40
0.9874496330083519
 40
1.0
 40
1.0
 40
1.0
 40
1.0
 10
137.5830969623177
 20
138.4371783955043
 30
0.0
 10
137.5830847503439
 20
137.8302739675464
 30
0.0
 10
137.583063267875
 20
136.7626492221757
 30
0.0
 10
137.5828713723206
 20
135.3442237987133
 30
0.0
 10
137.5823748040696
 20
134.0505532150987
 30
0.0
 10
137.5811096022117
 20
132.7267671895379
 30
0.0
 10
137.578834931218
 20
131.2901359041868
 30
0.0
 10
137.5755681825697
 20
129.8816160430293
 30
0.0
 10
137.5710929615041
 20
128.3214230424082
 30
0.0
 10
137.5650112743032
 20
126.5429514181913
 30
0.0
 10
137.5568823787621
 20
124.4971782645795
 30
0.0
 10
137.5470810555216
 20
122.3069980262481
 30
0.0
 10
137.5359263422398
 20
120.0304453502861
 30
0.0
 10
137.5236786520387
 20
117.7436852995563
 30
0.0
 10
137.5107882266547
 20
115.5490417650184
 30
0.0
 10
137.4973587080956
 20
113.4646443663617
 30
0.0
 10
137.4833871623129
 20
111.4904930636067
 30
0.0
 10
137.468871651772
 20
109.6265879020964
 30
0.0
 10
137.4538255996455
 20
107.8729286867882
 30
0.0
 10
137.4387823645598
 20
106.2900980109998
 30
0.0
 10
137.4237384164236
 20
104.8440037595136
 30
0.0
 10
137.4088072283926
 20
103.5005567790535
 30
0.0
 10
137.3928945821386
 20
102.1599088387732
 30
0.0
 10
137.3748608268566
 20
100.7304862247344
 30
0.0
 10
137.3567648172833
 20
99.38708285979776
 30
0.0
 10
137.3404268144905
 20
98.192990696408
 30
0.0
 10
137.3236539991754
 20
97.27681951927073
 30
0.0
 10
137.3020571070284
 20
96.44716245308554
 30
0.0
 10
137.2715651097517
 20
95.6354905228857
 30
0.0
 10
137.2267171942318
 20
94.8501742213963
 30
0.0
 10
137.1621030580063
 20
94.1055973865391
 30
0.0
 10
137.0695684480299
 20
93.42030059360953
 30
0.0
 10
136.9276999730441
 20
92.76344583035845
 30
0.0
 10
136.7177580462873
 20
92.19223796274434
 30
0.0
 10
136.4668233002252
 20
91.79892986646207
 30
0.0
 10
136.2398097688369
 20
91.55496280930714
 30
0.0
 10
136.0354846085932
 20
91.3827491012436
 30
0.0
 10
135.786977389534
 20
91.22446594618282
 30
0.0
 10
135.4877429849372
 20
91.08145764272541
 30
0.0
 10
134.815753492229
 20
90.84202399157273
 30
0.0
 10
133.7491300814509
 20
90.67095647751694
 30
0.0
 10
132.3149754892781
 20
90.56211977982217
 30
0.0
 10
130.9158262926926
 20
90.5083716742304
 30
0.0
 10
129.4437041882134
 20
90.47695394978906
 30
0.0
 10
127.9714769139704
 20
90.45865977264346
 30
0.0
 10
126.4907889866446
 20
90.44859381121773
 30
0.0
 10
125.033225836955
 20
90.4427011931591
 30
0.0
 10
123.6504640891591
 20
90.43952458890944
 30
0.0
 10
122.2572048118668
 20
90.43795639822763
 30
0.0
 10
120.8389666878973
 20
90.43725966086797
 30
0.0
 10
119.3859694894414
 20
90.43710481715343
 30
0.0
 10
118.0009875753029
 20
90.43736032586182
 30
0.0
 10
116.8221866113545
 20
90.43808811651338
 30
0.0
 10
115.7112004768826
 20
90.43932615111572
 30
0.0
 10
114.5763334295894
 20
90.44157155445721
 30
0.0
 10
113.4143075665005
 20
90.44538785049868
 30
0.0
 10
112.3107170467607
 20
90.45099737581229
 30
0.0
 10
111.3361127362629
 20
90.45823466687334
 30
0.0
 10
110.4709001537866
 20
90.46745100386808
 30
0.0
 10
109.6568722141379
 20
90.47921614468075
 30
0.0
 10
108.8570556548141
 20
90.49498405787563
 30
0.0
 10
108.076585814128
 20
90.51644683138365
 30
0.0
 10
107.373676701556
 20
90.54312862228336
 30
0.0
 10
106.771062392302
 20
90.57426941005966
 30
0.0
 10
106.25172113503
 20
90.60919791139777
 30
0.0
 10
105.7841580526492
 20
90.64942224101691
 30
0.0
 10
105.26284898488
 20
90.70665234480009
 30
0.0
 10
104.6808733144563
 20
90.79428244887973
 30
0.0
 10
104.0401649226305
 20
90.94388023137516
 30
0.0
 10
103.4832437004737
 20
91.15522040888871
 30
0.0
 10
103.025832915198
 20
91.44624056244659
 30
0.0
 10
102.6816542734639
 20
91.80963811289307
 30
0.0
 10
102.4307637547707
 20
92.24330228108421
 30
0.0
 10
102.1717072296215
 20
92.9553292661709
 30
0.0
 10
102.0101208513991
 20
93.95249702230733
 30
0.0
 10
101.9093720863722
 20
95.24200566981193
 30
0.0
 10
101.8598959148644
 20
96.51114954094716
 30
0.0
 10
101.831085409326
 20
97.83826147309335
 30
0.0
 10
101.8129094574718
 20
99.14100593992595
 30
0.0
 10
101.7959716715038
 20
100.3843406525752
 30
0.0
 10
101.7816608999346
 20
101.4962067227736
 30
0.0
 10
101.7690770577816
 20
102.516642841172
 30
0.0
 10
101.7570637812503
 20
103.5381649739374
 30
0.0
 10
101.7456068496856
 20
104.5607696753575
 30
0.0
 10
101.7347181903842
 20
105.5844598046705
 30
0.0
 10
101.7195816279066
 20
107.084133838338
 30
0.0
 10
101.701002391287
 20
109.1390067646836
 30
0.0
 10
101.6799883236899
 20
111.8282905192485
 30
0.0
 10
101.6600689975694
 20
114.756276481722
 30
0.0
 10
101.6412581251229
 20
117.9229673475993
 30
0.0
 10
101.6240790565839
 20
121.233470577585
 30
0.0
 10
101.6096221895985
 20
124.3799956004281
 30
0.0
 10
101.59862757432
 20
127.2136797850105
 30
0.0
 10
101.590670887059
 20
129.754114353931
 30
0.0
 10
101.5862830617942
 20
131.8178029537713
 30
0.0
 10
101.584347670458
 20
133.4426652484224
 30
0.0
 10
101.5835670499856
 20
134.5521810670186
 30
0.0
 10
101.5832796250856
 20
135.6704971662396
 30
0.0
 10
101.583119170623
 20
136.9414122460298
 30
0.0
 10
101.5831059158227
 20
137.9011140876377
 30
0.0
 10
101.5830985120385
 20
138.4371783955043
 30
0.0
  0
SPLINE
  5
154
330
1F
100
AcDbEntity
  8
0
  6
Continuous
 62
     7
370
    15
100
AcDbSpline
210
0.0
220
0.0
230
1.0
 70
     8
 71
     3
 72
    12
 73
     8
 74
     0
 42
0.00000001
 43
0.00000001
 40
0.0
 40
0.0
 40
0.0
 40
0.0
 40
0.3181483509781735
 40
0.5075184359562163
 40
0.6974305576005282
 40
0.8823457596781876
 40
1.0
 40
1.0
 40
1.0
 40
1.0
 10
131.0702771729677
 20
98.73074334096371
 30
0.0
 10
131.0628867845681
 20
98.87001709008331
 30
0.0
 10
131.0510974468264
 20
99.09219015841953
 30
0.0
 10
130.9140917453093
 20
99.36868301594481
 30
0.0
 10
130.7345722274308
 20
99.539184385833
 30
0.0
 10
130.5347028667217
 20
99.62654965871877
 30
0.0
 10
130.4043992373623
 20
99.63327634966389
 30
0.0
 10
130.3537306225746
 20
99.6358920259422
 30
0.0
  0
SPLINE
  5
155
330
1F
100
AcDbEntity
  8
0
  6
Continuous
 62
     7
370
    15
100
AcDbSpline
210
0.0
220
0.0
230
1.0
 70
     8
 71
     3
 72
    12
 73
     8
 74
     0
 42
0.00000001
 43
0.00000001
 40
0.0
 40
0.0
 40
0.0
 40
0.0
 40
0.1805472793440459
 40
0.3626783221915549
 40
0.5265722373230342
 40
0.7028047540262443
 40
1.0
 40
1.0
 40
1.0
 40
1.0
 10
130.3537306225746
 20
97.79614996146618
 30
0.0
 10
130.4336638248805
 20
97.80285023235174
 30
0.0
 10
130.5942314047689
 20
97.81630954900183
 30
0.0
 10
130.7978469165636
 20
97.94253758400511
 30
0.0
 10
130.9489646326474
 20
98.1201900852575
 30
0.0
 10
131.0540842754843
 20
98.38751318375421
 30
0.0
 10
131.0640322878597
 20
98.59837463427782
 30
0.0
 10
131.0702771729677
 20
98.73074334096371
 30
0.0
  0
SPLINE
  5
156
330
1F
100
AcDbEntity
  8
0
  6
Continuous
 62
     7
370
    15
100
AcDbSpline
210
0.0
220
0.0
230
1.0
 70
     8
 71
     3
 72
    12
 73
     8
 74
     0
 42
0.00000001
 43
0.00000001
 40
0.0
 40
0.0
 40
0.0
 40
0.0
 40
0.1889897189338229
 40
0.3801641610306091
 40
0.543083383044551
 40
0.7250102651844592
 40
1.0
 40
1.0
 40
1.0
 40
1.0
 10
130.3537306225746
 20
99.6358920259422
 30
0.0
 10
130.2708150384198
 20
99.62877213409178
 30
0.0
 10
130.1040253650745
 20
99.61445004436534
 30
0.0
 10
129.8971586324543
 20
99.48222302242048
 30
0.0
 10
129.7465854910664
 20
99.29911067887633
 30
0.0
 10
129.6491618427509
 20
99.0398769880607
 30
0.0
 10
129.6399337036925
 20
98.83857366875155
 30
0.0
 10
129.6343798599093
 20
98.71742170285641
 30
0.0
  0
SPLINE
  5
157
330
1F
100
AcDbEntity
  8
0
  6
Continuous
 62
     7
370
    15
100
AcDbSpline
210
0.0
220
0.0
230
1.0
 70
     8
 71
     3
 72
    12
 73
     8
 74
     0
 42
0.00000001
 43
0.00000001
 40
0.0
 40
0.0
 40
0.0
 40
0.0
 40
0.3489389741902703
 40
0.5304033299525541
 40
0.7124450986171025
 40
0.8880361581079235
 40
1.0
 40
1.0
 40
1.0
 40
1.0
 10
129.6343798599093
 20
98.71742170285641
 30
0.0
 10
129.6427198993468
 20
98.56210925445463
 30
0.0
 10
129.6553971438415
 20
98.3260271716017
 30
0.0
 10
129.8053084826945
 20
98.04367388649536
 30
0.0
 10
129.9844948982049
 20
97.88390135067347
 30
0.0
 10
130.1793280851763
 20
97.80441496802901
 30
0.0
 10
130.3048548728093
 20
97.79846620295325
 30
0.0
 10
130.3537306225746
 20
97.79614996146618
 30
0.0
  0
SPLINE
  5
158
330
1F
100
AcDbEntity
  8
0
  6
Continuous
 62
     7
370
    15
100
AcDbSpline
210
0.0
220
0.0
230
1.0
 70
     8
 71
     3
 72
    12
 73
     8
 74
     0
 42
0.00000001
 43
0.00000001
 40
0.0
 40
0.0
 40
0.0
 40
0.0
 40
0.1808726717536704
 40
0.3633468303748437
 40
0.5272663761456987
 40
0.7032984233660994
 40
1.0
 40
1.0
 40
1.0
 40
1.0
 10
107.7383463120907
 20
97.79614996146618
 30
0.0
 10
107.8183252540067
 20
97.8028524363453
 30
0.0
 10
107.9789912891805
 20
97.81631673130703
 30
0.0
 10
108.1828295954562
 20
97.94280489459345
 30
0.0
 10
108.3338846529998
 20
98.12072783384102
 30
0.0
 10
108.4387353454674
 20
98.38793851999921
 30
0.0
 10
108.4486623692984
 20
98.59855452143306
 30
0.0
 10
108.4548928624838
 20
98.73074334096371
 30
0.0
  0
SPLINE
  5
159
330
1F
100
AcDbEntity
  8
0
  6
Continuous
 62
     7
370
    15
100
AcDbSpline
210
0.0
220
0.0
230
1.0
 70
     8
 71
     3
 72
    12
 73
     8
 74
     0
 42
0.00000001
 43
0.00000001
 40
0.0
 40
0.0
 40
0.0
 40
0.0
 40
0.3485523191281937
 40
0.5300993893168457
 40
0.7122112573543206
 40
0.8881227139905036
 40
1.0
 40
1.0
 40
1.0
 40
1.0
 10
107.0189955494254
 20
98.71742170285641
 30
0.0
 10
107.0273459512755
 20
98.56208181590335
 30
0.0
 10
107.0400457460505
 20
98.3258315467434
 30
0.0
 10
107.1900583480579
 20
98.04349934569164
 30
0.0
 10
107.3693019149988
 20
97.8837759718546
 30
0.0
 10
107.5640264406439
 20
97.80440639589506
 30
0.0
 10
107.6895494849482
 20
97.79846115984132
 30
0.0
 10
107.7383463120907
 20
97.79614996146618
 30
0.0
  0
SPLINE
  5
15A
330
1F
100
AcDbEntity
  8
0
  6
Continuous
 62
     7
370
    15
100
AcDbSpline
210
0.0
220
0.0
230
1.0
 70
     8
 71
     3
 72
    12
 73
     8
 74
     0
 42
0.00000001
 43
0.00000001
 40
0.0
 40
0.0
 40
0.0
 40
0.0
 40
0.1897958286112272
 40
0.3817842270438532
 40
0.5455134470727467
 40
0.7270803149699784
 40
0.9999999999999999
 40
0.9999999999999999
 40
0.9999999999999999
 40
0.9999999999999999
 10
107.7383463120907
 20
99.6358920259422
 30
0.0
 10
107.6551523419576
 20
99.62871977197464
 30
0.0
 10
107.4878033237291
 20
99.61429240833232
 30
0.0
 10
107.2804795455999
 20
99.48120215726524
 30
0.0
 10
107.1301107283721
 20
99.29725062290392
 30
0.0
 10
107.0336538223107
 20
99.03824535029084
 30
0.0
 10
107.0244952702281
 20
98.83779335247804
 30
0.0
 10
107.0189955494254
 20
98.71742170285641
 30
0.0
  0
SPLINE
  5
15B
330
1F
100
AcDbEntity
  8
0
  6
Continuous
 62
     7
370
    15
100
AcDbSpline
210
0.0
220
0.0
230
1.0
 70
     8
 71
     3
 72
    12
 73
     8
 74
     0
 42
0.00000001
 43
0.00000001
 40
0.0
 40
0.0
 40
0.0
 40
0.0
 40
0.3180329278048203
 40
0.5072282240916601
 40
0.69697051983201
 40
0.8817051112391981
 40
1.0
 40
1.0
 40
1.0
 40
1.0
 10
108.4548928624838
 20
98.73074334096371
 30
0.0
 10
108.4475029306471
 20
98.8700145679995
 30
0.0
 10
108.4357167862766
 20
99.09213715651272
 30
0.0
 10
108.2987699770895
 20
99.36857485771384
 30
0.0
 10
108.1194042715002
 20
99.53900586190126
 30
0.0
 10
107.9195571665218
 20
99.62650148684338
 30
0.0
 10
107.789224731304
 20
99.63325545217616
 30
0.0
 10
107.7383463120907
 20
99.63589202594218
 30
0.0
  0
SPLINE
  5
15C
330
1F
100
AcDbEntity
  8
0
  6
Continuous
 62
     7
370
    15
100
AcDbSpline
210
0.0
220
0.0
230
1.0
 70
     8
 71
     3
 72
    12
 73
     8
 74
     0
 42
0.00000001
 43
0.00000001
 40
0.0
 40
0.0
 40
0.0
 40
0.0
 40
0.3974725389033835
 40
0.5706675411493164
 40
0.7441869989890166
 40
0.9189524768992158
 40
1.0
 40
1.0
 40
1.0
 40
1.0
 10
134.7048929742425
 20
98.68096601199566
 30
0.0
 10
134.6974278332397
 20
98.85715667893197
 30
0.0
 10
134.6867098257211
 20
99.11012080810531
 30
0.0
 10
134.5332214397072
 20
99.40233459638611
 30
0.0
 10
134.3646695994169
 20
99.55799894744398
 30
0.0
 10
134.1878018874005
 20
99.6292686160957
 30
0.0
 10
134.0778644339263
 20
99.6342984555351
 30
0.0
 10
134.0430336854308
 20
99.6358920259422
 30
0.0
  0
SPLINE
  5
15D
330
1F
100
AcDbEntity
  8
0
  6
Continuous
 62
     7
370
    15
100
AcDbSpline
210
0.0
220
0.0
230
1.0
 70
     8
 71
     3
 72
    12
 73
     8
 74
     0
 42
0.00000001
 43
0.00000001
 40
0.0
 40
0.0
 40
0.0
 40
0.0
 40
0.1767058538004329
 40
0.3545794993961054
 40
0.519837779725015
 40
0.7394933718744678
 40
1.0
 40
1.0
 40
1.0
 40
1.0
 10
134.0612624621837
 20
97.79614996146617
 30
0.0
 10
134.1333114155485
 20
97.80336156431802
 30
0.0
 10
134.2778854704915
 20
97.81783242917093
 30
0.0
 10
134.4591422712298
 20
97.93942331478335
 30
0.0
 10
134.6068513673313
 20
98.11872401551236
 30
0.0
 10
134.6918708864443
 20
98.37639721853299
 30
0.0
 10
134.7003128704744
 20
98.57384365955899
 30
0.0
 10
134.7048929742425
 20
98.68096601199566
 30
0.0
  0
SPLINE
  5
15E
330
1F
100
AcDbEntity
  8
0
  6
Continuous
 62
     7
370
    15
100
AcDbSpline
210
0.0
220
0.0
230
1.0
 70
     8
 71
     3
 72
    12
 73
     8
 74
     0
 42
0.00000001
 43
0.00000001
 40
0.0
 40
0.0
 40
0.0
 40
0.0
 40
0.3850135131484501
 40
0.5688409932442728
 40
0.7527406054362127
 40
0.9040190539374822
 40
1.0
 40
1.0
 40
1.0
 40
1.0
 10
133.4036108887642
 20
98.71462028455196
 30
0.0
 10
133.412079962867
 20
98.54923672266155
 30
0.0
 10
133.4245926575128
 20
98.30488958574497
 30
0.0
 10
133.5839683920548
 20
98.02308924950027
 30
0.0
 10
133.7485694576619
 20
97.87584001414996
 30
0.0
 10
133.9182341701058
 20
97.80382969973931
 30
0.0
 10
134.0212671901761
 20
97.7982974612141
 30
0.0
 10
134.0612624621837
 20
97.79614996146618
 30
0.0
  0
SPLINE
  5
15F
330
1F
100
AcDbEntity
  8
0
  6
Continuous
 62
     7
370
    15
100
AcDbSpline
210
0.0
220
0.0
230
1.0
 70
     8
 71
     3
 72
    12
 73
     8
 74
     0
 42
0.00000001
 43
0.00000001
 40
0.0
 40
0.0
 40
0.0
 40
0.0
 40
0.1679292253420102
 40
0.33758433294272
 40
0.4856313043503077
 40
0.6584500565087953
 40
1.0
 40
1.0
 40
1.0
 40
1.0
 10
134.0430336854308
 20
99.6358920259422
 30
0.0
 10
133.9727743708184
 20
99.62924398122367
 30
0.0
 10
133.8315336558199
 20
99.61587956691689
 30
0.0
 10
133.656392885733
 20
99.50070787773207
 30
0.0
 10
133.5235848556819
 20
99.34141130600011
 30
0.0
 10
133.4181712628939
 20
99.07801373187137
 30
0.0
 10
133.4094211313898
 20
98.85963057609274
 30
0.0
 10
133.4036108887642
 20
98.71462028455196
 30
0.0
  0
ARC
  5
160
330
1F
100
AcDbEntity
  8
0
  6
Continuous
 62
     7
370
    15
100
AcDbCircle
 10
119.5830977372
 20
176.4371771736
 30
0.0
 40
19.75000000000001
100
AcDbArc
 50
0.0
 51
23.9445743038
  0
ARC
  5
161
330
1F
100
AcDbEntity
  8
0
  6
Continuous
 62
     7
370
    15
100
AcDbCircle
 10
119.5830977372
 20
176.4371771736
 30
0.0
 40
19.75
100
AcDbArc
 50
79.5353290635
 51
100.4646709365
  0
ARC
  5
162
330
1F
100
AcDbEntity
  8
0
  6
Continuous
 62
     7
370
    15
100
AcDbCircle
 10
119.5830977372
 20
176.4371771736
 30
0.0
 40
19.75
100
AcDbArc
 50
156.0549898023
 51
204.3015136215
  0
ARC
  5
163
330
1F
100
AcDbEntity
  8
0
  6
Continuous
 62
     7
370
    15
100
AcDbCircle
 10
119.5830977372
 20
176.4371771736
 30
0.0
 40
19.75000000000001
100
AcDbArc
 50
335.6984863785
 51
0.0
  0
LINE
  5
164
330
1F
100
AcDbEntity
  8
0
  6
Continuous
 62
     7
370
    15
100
AcDbLine
 10
144.5830981097
 20
208.9371759815
 30
0.0
 11
94.5830973646
 21
208.9371759815
 31
0.0
  0
LINE
  5
165
330
1F
100
AcDbEntity
  8
0
  6
Continuous
 62
     7
370
    15
100
AcDbLine
 10
149.5830970666
 20
80.9371773524
 30
0.0
 11
149.5830970666
 21
203.9371770246
 31
0.0
  0
ARC
  5
166
330
1F
100
AcDbEntity
  8
0
  6
Continuous
 62
     7
370
    15
100
AcDbCircle
 10
144.5830977372
 20
80.9371771736
 30
0.0
 40
5.000000000000014
100
AcDbArc
 50
270.0
 51
0.0
  0
LINE
  5
167
330
1F
100
AcDbEntity
  8
0
  6
Continuous
 62
     7
370
    15
100
AcDbLine
 10
89.5830984077
 20
203.9371770246
 30
0.0
 11
89.5830984077
 21
80.9371773524
 31
0.0
  0
LINE
  5
168
330
1F
100
AcDbEntity
  8
0
  6
Continuous
 62
     7
370
    15
100
AcDbLine
 10
94.5830973646
 20
75.9371746702
 30
0.0
 11
144.5830981097
 21
75.9371746702
 31
0.0
  0
ARC
  5
169
330
1F
100
AcDbEntity
  8
0
  6
Continuous
 62
     7
370
    15
100
AcDbCircle
 10
94.5830977372
 20
203.9371771736
 30
0.0
 40
5.000000000000014
100
AcDbArc
 50
90.0
 51
180.0
  0
ARC
  5
16A
330
1F
100
AcDbEntity
  8
0
  6
Continuous
 62
     7
370
    15
100
AcDbCircle
 10
144.5830977372
 20
203.9371771736
 30
0.0
 40
5.0
100
AcDbArc
 50
0.0
 51
90.0
  0
ARC
  5
16B
330
1F
100
AcDbEntity
  8
0
  6
Continuous
 62
     7
370
    15
100
AcDbCircle
 10
94.5830977372
 20
80.9371771736
 30
0.0
 40
5.000000000000014
100
AcDbArc
 50
180.0
 51
270.0
  0
ARC
  5
16C
330
1F
100
AcDbEntity
  8
0
  6
Continuous
 62
     7
370
    15
100
AcDbCircle
 10
119.5830977372
 20
176.4371771736
 30
0.0
 40
18.35000000000003
100
AcDbArc
 50
0.0
 51
10.717606036
  0
ARC
  5
16D
330
1F
100
AcDbEntity
  8
0
  6
Continuous
 62
     7
370
    15
100
AcDbCircle
 10
119.5830977372
 20
176.4371771736
 30
0.0
 40
18.35000000000002
100
AcDbArc
 50
169.2130261647
 51
191.2084701673
  0
ARC
  5
16E
330
1F
100
AcDbEntity
  8
0
  6
Continuous
 62
     7
370
    15
100
AcDbCircle
 10
119.5830977372
 20
176.4371771736
 30
0.0
 40
18.35000000000003
100
AcDbArc
 50
348.7915298327
 51
0.0
  0
ARC
  5
16F
330
1F
100
AcDbEntity
  8
0
  6
Continuous
 62
     7
370
    15
100
AcDbCircle
 10
119.5830977372
 20
176.4371771736
 30
0.0
 40
19.50000000000002
100
AcDbArc
 50
337.380135052
 51
22.1852496596
  0
ARC
  5
170
330
1F
100
AcDbEntity
  8
0
  6
Continuous
 62
     7
370
    15
100
AcDbCircle
 10
119.5830977372
 20
176.4371771736
 30
0.0
 40
19.50000000000001
100
AcDbArc
 50
157.7169726033
 51
202.619864948
  0
ARC
  5
171
330
1F
100
AcDbEntity
  8
0
  6
Continuous
 62
     7
370
    15
100
AcDbCircle
 10
119.5830977372
 20
176.4371771736
 30
0.0
 40
18.50000000000002
100
AcDbArc
 50
346.6488156678
 51
13.1003659947
  0
ARC
  5
172
330
1F
100
AcDbEntity
  8
0
  6
Continuous
 62
     7
370
    15
100
AcDbCircle
 10
119.5830977372
 20
176.4371771736
 30
0.0
 40
18.5
100
AcDbArc
 50
167.3641412569
 51
193.3511843322
  0
DIMENSION
  5
173
330
1F
100
AcDbEntity
  8
DIM
100
AcDbDimension
  2
*D5
 10
165.5830977372
 20
75.9371771736
 30
0.0
 11
165.5830977372
 21
145.4617274308
 31
0.0
 70
   160
 71
     2
 42
-1.0
  3
SLDDIMSTYLE0
100
AcDbAlignedDimension
 13
144.5830977372
 23
208.9371771736
 33
0.0
 14
144.5830977372
 24
75.9371771736
 34
0.0
 50
90.0
100
AcDbRotatedDimension
  0
DIMENSION
  5
17D
330
1F
100
AcDbEntity
  8
DIM
100
AcDbDimension
  2
*D6
 10
149.5830977372
 20
218.9371771736
 30
0.0
 11
120.6140926744
 21
218.9371771736
 31
0.0
 70
   160
 71
     2
 42
-1.0
  3
SLDDIMSTYLE0
100
AcDbAlignedDimension
 13
89.5830977372
 23
203.9371771736
 33
0.0
 14
149.5830977372
 24
203.9371771736
 34
0.0
100
AcDbRotatedDimension
  0
DIMENSION
  5
187
330
1F
100
AcDbEntity
  8
DIM
100
AcDbDimension
  2
*D7
 10
137.5830977372
 20
213.6576286717
 30
0.0
 11
120.4927659677
 21
213.6576286717
 31
0.0
 70
   160
 71
     2
 42
-1.0
  3
SLDDIMSTYLE0
100
AcDbAlignedDimension
 13
101.5830977372
 23
193.9371771736
 33
0.0
 14
137.5830977372
 24
193.9371771736
 34
0.0
100
AcDbRotatedDimension
  0
ENDSEC
  0
SECTION
  2
OBJECTS
  0
DICTIONARY
  5
C
330
0
100
AcDbDictionary
281
     1
  3
ACAD_GROUP
350
D
  3
ACAD_LAYOUT
350
1A
  3
ACAD_MLINESTYLE
350
17
  3
ACAD_PLOTSETTINGS
350
19
  3
ACAD_PLOTSTYLENAME
350
E
  0
DICTIONARY
  5
D
102
{ACAD_REACTORS
330
C
102
}
330
C
100
AcDbDictionary
281
     1
  0
DICTIONARY
  5
1A
102
{ACAD_REACTORS
330
C
102
}
330
C
100
AcDbDictionary
281
     1
  3
Layout1
350
1E
  3
Layout2
350
26
  3
Model
350
22
  0
DICTIONARY
  5
17
102
{ACAD_REACTORS
330
C
102
}
330
C
100
AcDbDictionary
281
     1
  3
Standard
350
18
  0
DICTIONARY
  5
19
102
{ACAD_REACTORS
330
C
102
}
330
C
100
AcDbDictionary
281
     1
  0
ACDBDICTIONARYWDFLT
  5
E
102
{ACAD_REACTORS
330
C
102
}
330
C
100
AcDbDictionary
281
     1
  3
Normal
350
F
100
AcDbDictionaryWithDefault
340
F
  0
LAYOUT
  5
1E
102
{ACAD_REACTORS
330
1A
102
}
330
1A
100
AcDbPlotSettings
  1

  2
none_device
  4

  6

 40
0.0
 41
0.0
 42
0.0
 43
0.0
 44
0.0
 45
0.0
 46
0.0
 47
0.0
 48
0.0
 49
0.0
140
0.0
141
0.0
142
1.0
143
1.0
 70
   688
 72
     0
 73
     0
 74
     5
  7

 75
    16
147
1.0
148
0.0
149
0.0
100
AcDbLayout
  1
Layout1
 70
     1
 71
     1
 10
0.0
 20
0.0
 11
420.0
 21
297.0
 12
0.0
 22
0.0
 32
0.0
 14
1.0000000000E+20
 24
1.0000000000E+20
 34
1.0000000000E+20
 15
-1.0000000000E+20
 25
-1.0000000000E+20
 35
-1.0000000000E+20
146
0.0
 13
0.0
 23
0.0
 33
0.0
 16
1.0
 26
0.0
 36
0.0
 17
0.0
 27
1.0
 37
0.0
 76
     0
330
1B
  0
LAYOUT
  5
26
102
{ACAD_REACTORS
330
1A
102
}
330
1A
100
AcDbPlotSettings
  1

  2
none_device
  4

  6

 40
0.0
 41
0.0
 42
0.0
 43
0.0
 44
0.0
 45
0.0
 46
0.0
 47
0.0
 48
0.0
 49
0.0
140
0.0
141
0.0
142
1.0
143
1.0
 70
   688
 72
     0
 73
     0
 74
     5
  7

 75
    16
147
1.0
148
0.0
149
0.0
100
AcDbLayout
  1
Layout2
 70
     1
 71
     2
 10
0.0
 20
0.0
 11
0.0
 21
0.0
 12
0.0
 22
0.0
 32
0.0
 14
0.0
 24
0.0
 34
0.0
 15
0.0
 25
0.0
 35
0.0
146
0.0
 13
0.0
 23
0.0
 33
0.0
 16
1.0
 26
0.0
 36
0.0
 17
0.0
 27
1.0
 37
0.0
 76
     0
330
23
  0
LAYOUT
  5
22
102
{ACAD_REACTORS
330
1A
102
}
330
1A
100
AcDbPlotSettings
  1

  2
none_device
  4

  6

 40
0.0
 41
0.0
 42
0.0
 43
0.0
 44
0.0
 45
0.0
 46
0.0
 47
0.0
 48
0.0
 49
0.0
140
0.0
141
0.0
142
1.0
143
1.0
 70
  1712
 72
     0
 73
     0
 74
     0
  7

 75
     0
147
1.0
148
0.0
149
0.0
100
AcDbLayout
  1
Model
 70
     1
 71
     0
 10
0.0
 20
0.0
 11
420.0
 21
297.0
 12
0.0
 22
0.0
 32
0.0
 14
0.0
 24
0.0
 34
0.0
 15
420.0
 25
297.0
 35
0.0
146
0.0
 13
0.0
 23
0.0
 33
0.0
 16
1.0
 26
0.0
 36
0.0
 17
0.0
 27
1.0
 37
0.0
 76
     0
330
1F
331
29
  0
MLINESTYLE
  5
18
102
{ACAD_REACTORS
330
17
102
}
330
17
100
AcDbMlineStyle
  2
Standard
 70
     0
  3

 62
   256
 51
90.0
 52
90.0
 71
     2
 49
0.5
 62
   256
  6
BYLAYER
 49
-0.5
 62
   256
  6
BYLAYER
  0
ACDBPLACEHOLDER
  5
F
102
{ACAD_REACTORS
330
E
102
}
330
E
  0
ENDSEC
  0
EOF
