  0
SECTION
  2
HEADER
  9
$ACADVER
  1
AC1027
  9
$ACADMAINTVER
 70
   125
  9
$DWGCODEPAGE
  3
ANSI_1252
  9
$LASTSAVEDBY
  1
fleminab
  9
$REQUIREDVERSIONS
160
                 0
  9
$INSBASE
 10
0.0
 20
0.0
 30
0.0
  9
$EXTMIN
 10
1358.274513491771
 20
940.9620171506967
 30
-0.0000000000000129
  9
$EXTMAX
 10
2470.556647710606
 20
1781.072440751749
 30
0.0000000000000023
  9
$LIMMIN
 10
0.0
 20
0.0
  9
$LIMMAX
 10
1188.0
 20
840.0
  9
$ORTHOMODE
 70
     0
  9
$REGENMODE
 70
     1
  9
$FILLMODE
 70
     1
  9
$QTEXTMODE
 70
     0
  9
$MIRRTEXT
 70
     0
  9
$LTSCALE
 40
65.34
  9
$ATTMODE
 70
     1
  9
$TEXTSIZE
 40
0.2
  9
$TRACEWID
 40
0.05
  9
$TEXTSTYLE
  7
STANDARD
  9
$CLAYER
  8
0
  9
$CELTYPE
  6
BYLAYER
  9
$CECOLOR
 62
   256
  9
$CELTSCALE
 40
1.0
  9
$DISPSILH
 70
     0
  9
$DIMSCALE
 40
1.0
  9
$DIMASZ
 40
8.0
  9
$DIMEXO
 40
1.0
  9
$DIMDLI
 40
45.144
  9
$DIMRND
 40
0.0
  9
$DIMDLE
 40
0.0
  9
$DIMEXE
 40
1.5
  9
$DIMTP
 40
0.01
  9
$DIMTM
 40
0.01
  9
$DIMTXT
 40
10.0
  9
$DIMCEN
 40
10.692
  9
$DIMTSZ
 40
0.0
  9
$DIMTOL
 70
     1
  9
$DIMLIM
 70
     0
  9
$DIMTIH
 70
     1
  9
$DIMTOH
 70
     1
  9
$DIMSE1
 70
     0
  9
$DIMSE2
 70
     0
  9
$DIMTAD
 70
     0
  9
$DIMZIN
 70
     0
  9
$DIMBLK
  1
_ARROW_FILLED
  9
$DIMASO
 70
     1
  9
$DIMSHO
 70
     1
  9
$DIMPOST
  1

  9
$DIMAPOST
  1

  9
$DIMALT
 70
     0
  9
$DIMALTD
 70
     2
  9
$DIMALTF
 40
25.4
  9
$DIMLFAC
 40
1.0
  9
$DIMTOFL
 70
     0
  9
$DIMTVP
 40
0.0
  9
$DIMTIX
 70
     0
  9
$DIMSOXD
 70
     0
  9
$DIMSAH
 70
     0
  9
$DIMBLK1
  1

  9
$DIMBLK2
  1

  9
$DIMSTYLE
  2
STANDARD
  9
$DIMCLRD
 70
     0
  9
$DIMCLRE
 70
     0
  9
$DIMCLRT
 70
     0
  9
$DIMTFAC
 40
1.0
  9
$DIMGAP
 40
0.625
  9
$DIMJUST
 70
     0
  9
$DIMSD1
 70
     0
  9
$DIMSD2
 70
     0
  9
$DIMTOLJ
 70
     1
  9
$DIMTZIN
 70
     0
  9
$DIMALTZ
 70
     0
  9
$DIMALTTZ
 70
     0
  9
$DIMUPT
 70
     0
  9
$DIMDEC
 70
     4
  9
$DIMTDEC
 70
     4
  9
$DIMALTU
 70
     2
  9
$DIMALTTD
 70
     2
  9
$DIMTXSTY
  7
STANDARD
  9
$DIMAUNIT
 70
     0
  9
$DIMADEC
 70
     0
  9
$DIMALTRND
 40
0.0
  9
$DIMAZIN
 70
     0
  9
$DIMDSEP
 70
    46
  9
$DIMATFIT
 70
     3
  9
$DIMFRAC
 70
     0
  9
$DIMLDRBLK
  1
_ARROW_FILLED
  9
$DIMLUNIT
 70
     2
  9
$DIMLWD
 70
    -2
  9
$DIMLWE
 70
    -2
  9
$DIMTMOVE
 70
     0
  9
$DIMFXL
 40
1.0
  9
$DIMFXLON
 70
     0
  9
$DIMJOGANG
 40
0.7853981633974483
  9
$DIMTFILL
 70
     0
  9
$DIMTFILLCLR
 70
     0
  9
$DIMARCSYM
 70
     0
  9
$DIMLTYPE
  6

  9
$DIMLTEX1
  6

  9
$DIMLTEX2
  6

  9
$DIMTXTDIRECTION
 70
     0
  9
$LUNITS
 70
     2
  9
$LUPREC
 70
     4
  9
$SKETCHINC
 40
0.1
  9
$FILLETRAD
 40
0.0
  9
$AUNITS
 70
     0
  9
$AUPREC
 70
     0
  9
$MENU
  1
.
  9
$ELEVATION
 40
0.0
  9
$PELEVATION
 40
0.0
  9
$THICKNESS
 40
0.0
  9
$LIMCHECK
 70
     0
  9
$CHAMFERA
 40
0.0
  9
$CHAMFERB
 40
0.0
  9
$CHAMFERC
 40
0.0
  9
$CHAMFERD
 40
0.0
  9
$SKPOLY
 70
     0
  9
$TDCREATE
 40
2457267.519733796
  9
$TDUCREATE
 40
2457267.103070741
  9
$TDUPDATE
 40
2458004.685162037
  9
$TDUUPDATE
 40
2458004.268495370
  9
$TDINDWG
 40
0.1168496991
  9
$TDUSRTIMER
 40
0.1168496991
  9
$USRTIMER
 70
     1
  9
$ANGBASE
 50
0.0
  9
$ANGDIR
 70
     0
  9
$PDMODE
 70
     3
  9
$PDSIZE
 40
8.0
  9
$PLINEWID
 40
0.0
  9
$SPLFRAME
 70
     0
  9
$SPLINETYPE
 70
     6
  9
$SPLINESEGS
 70
     8
  9
$HANDSEED
  5
A209
  9
$SURFTAB1
 70
     6
  9
$SURFTAB2
 70
     6
  9
$SURFTYPE
 70
     6
  9
$SURFU
 70
     6
  9
$SURFV
 70
     6
  9
$UCSBASE
  2

  9
$UCSNAME
  2

  9
$UCSORG
 10
0.0
 20
0.0
 30
0.0
  9
$UCSXDIR
 10
1.0
 20
0.0
 30
0.0
  9
$UCSYDIR
 10
0.0
 20
1.0
 30
0.0
  9
$UCSORTHOREF
  2

  9
$UCSORTHOVIEW
 70
     0
  9
$UCSORGTOP
 10
0.0
 20
0.0
 30
0.0
  9
$UCSORGBOTTOM
 10
0.0
 20
0.0
 30
0.0
  9
$UCSORGLEFT
 10
0.0
 20
0.0
 30
0.0
  9
$UCSORGRIGHT
 10
0.0
 20
0.0
 30
0.0
  9
$UCSORGFRONT
 10
0.0
 20
0.0
 30
0.0
  9
$UCSORGBACK
 10
0.0
 20
0.0
 30
0.0
  9
$PUCSBASE
  2

  9
$PUCSNAME
  2

  9
$PUCSORG
 10
0.0
 20
0.0
 30
0.0
  9
$PUCSXDIR
 10
1.0
 20
0.0
 30
0.0
  9
$PUCSYDIR
 10
0.0
 20
1.0
 30
0.0
  9
$PUCSORTHOREF
  2

  9
$PUCSORTHOVIEW
 70
     0
  9
$PUCSORGTOP
 10
0.0
 20
0.0
 30
0.0
  9
$PUCSORGBOTTOM
 10
0.0
 20
0.0
 30
0.0
  9
$PUCSORGLEFT
 10
0.0
 20
0.0
 30
0.0
  9
$PUCSORGRIGHT
 10
0.0
 20
0.0
 30
0.0
  9
$PUCSORGFRONT
 10
0.0
 20
0.0
 30
0.0
  9
$PUCSORGBACK
 10
0.0
 20
0.0
 30
0.0
  9
$USERI1
 70
     0
  9
$USERI2
 70
     0
  9
$USERI3
 70
     0
  9
$USERI4
 70
     0
  9
$USERI5
 70
     0
  9
$USERR1
 40
0.0
  9
$USERR2
 40
0.0
  9
$USERR3
 40
0.0
  9
$USERR4
 40
0.0
  9
$USERR5
 40
0.0
  9
$WORLDVIEW
 70
     1
  9
$SHADEDGE
 70
     3
  9
$SHADEDIF
 70
    70
  9
$TILEMODE
 70
     1
  9
$MAXACTVP
 70
    48
  9
$PINSBASE
 10
0.0
 20
0.0
 30
0.0
  9
$PLIMCHECK
 70
     0
  9
$PEXTMIN
 10
1.000000000000000E+20
 20
1.000000000000000E+20
 30
1.000000000000000E+20
  9
$PEXTMAX
 10
-1.000000000000000E+20
 20
-1.000000000000000E+20
 30
-1.000000000000000E+20
  9
$PLIMMIN
 10
0.0
 20
0.0
  9
$PLIMMAX
 10
12.0
 20
9.0
  9
$UNITMODE
 70
     0
  9
$VISRETAIN
 70
     1
  9
$PLINEGEN
 70
     0
  9
$PSLTSCALE
 70
     1
  9
$TREEDEPTH
 70
  3020
  9
$CMLSTYLE
  2
STANDARD
  9
$CMLJUST
 70
     0
  9
$CMLSCALE
 40
1.0
  9
$PROXYGRAPHICS
 70
     1
  9
$MEASUREMENT
 70
     1
  9
$CELWEIGHT
370
    -1
  9
$ENDCAPS
280
     0
  9
$JOINSTYLE
280
     0
  9
$LWDISPLAY
290
     0
  9
$INSUNITS
 70
     0
  9
$HYPERLINKBASE
  1

  9
$STYLESHEET
  1
monochrome.ctb
  9
$XEDIT
290
     1
  9
$CEPSNTYPE
380
     0
  9
$PSTYLEMODE
290
     1
  9
$FINGERPRINTGUID
  2
{116D14E3-8271-488E-B09E-CD8B66095561}
  9
$VERSIONGUID
  2
{A07DC5B7-24BD-9546-A477-EF44A1DE7556}
  9
$EXTNAMES
290
     1
  9
$PSVPSCALE
 40
0.0
  9
$OLESTARTUP
290
     0
  9
$SORTENTS
280
   127
  9
$INDEXCTL
280
     0
  9
$HIDETEXT
280
     0
  9
$XCLIPFRAME
280
     2
  9
$HALOGAP
280
     0
  9
$OBSCOLOR
 70
   257
  9
$OBSLTYPE
280
     0
  9
$INTERSECTIONDISPLAY
280
     0
  9
$INTERSECTIONCOLOR
 70
   257
  9
$DIMASSOC
280
     1
  9
$PROJECTNAME
  1

  9
$CAMERADISPLAY
290
     0
  9
$LENSLENGTH
 40
50.0
  9
$CAMERAHEIGHT
 40
0.0
  9
$STEPSPERSEC
 40
2.0
  9
$STEPSIZE
 40
6.0
  9
$3DDWFPREC
 40
2.0
  9
$PSOLWIDTH
 40
0.25
  9
$PSOLHEIGHT
 40
4.0
  9
$LOFTANG1
 40
1.570796326794896
  9
$LOFTANG2
 40
1.570796326794896
  9
$LOFTMAG1
 40
0.0
  9
$LOFTMAG2
 40
0.0
  9
$LOFTPARAM
 70
     7
  9
$LOFTNORMALS
280
     1
  9
$LATITUDE
 40
37.795
  9
$LONGITUDE
 40
-122.394
  9
$NORTHDIRECTION
 40
0.0
  9
$TIMEZONE
 70
 -8000
  9
$LIGHTGLYPHDISPLAY
280
     1
  9
$TILEMODELIGHTSYNCH
280
     1
  9
$CMATERIAL
347
107B
  9
$SOLIDHIST
280
     1
  9
$SHOWHIST
280
     1
  9
$DWFFRAME
280
     2
  9
$DGNFRAME
280
     0
  9
$REALWORLDSCALE
290
     1
  9
$INTERFERECOLOR
 62
     1
  9
$INTERFEREOBJVS
345
109D
  9
$INTERFEREVPVS
346
109A
  9
$CSHADOW
280
     0
  9
$SHADOWPLANELOCATION
 40
0.0
  0
ENDSEC
  0
SECTION
  2
CLASSES
  0
CLASS
  1
ACDBDICTIONARYWDFLT
  2
AcDbDictionaryWithDefault
  3
ObjectDBX Classes
 90
        0
 91
        1
280
     0
281
     0
  0
CLASS
  1
MATERIAL
  2
AcDbMaterial
  3
ObjectDBX Classes
 90
     1153
 91
        3
280
     0
281
     0
  0
CLASS
  1
VISUALSTYLE
  2
AcDbVisualStyle
  3
ObjectDBX Classes
 90
     4095
 91
       26
280
     0
281
     0
  0
CLASS
  1
TABLESTYLE
  2
AcDbTableStyle
  3
ObjectDBX Classes
 90
     4095
 91
        1
280
     0
281
     0
  0
CLASS
  1
SCALE
  2
AcDbScale
  3
ObjectDBX Classes
 90
     1153
 91
       51
280
     0
281
     0
  0
CLASS
  1
MLEADERSTYLE
  2
AcDbMLeaderStyle
  3
ACDB_MLEADERSTYLE_CLASS
 90
     4095
 91
        4
280
     0
281
     0
  0
CLASS
  1
CELLSTYLEMAP
  2
AcDbCellStyleMap
  3
ObjectDBX Classes
 90
     1152
 91
        4
280
     0
281
     0
  0
CLASS
  1
DICTIONARYVAR
  2
AcDbDictionaryVar
  3
ObjectDBX Classes
 90
        0
 91
       19
280
     0
281
     0
  0
CLASS
  1
LWPOLYLINE
  2
AcDbPolyline
  3
ObjectDBX Classes
 90
        0
 91
       87
280
     0
281
     1
  0
CLASS
  1
XRECORD
  2
AcDbXrecord
  3
ObjectDBX Classes
 90
        0
 91
       99
280
     0
281
     0
  0
CLASS
  1
ACDBPLACEHOLDER
  2
AcDbPlaceHolder
  3
ObjectDBX Classes
 90
        0
 91
        1
280
     0
281
     0
  0
CLASS
  1
LAYOUT
  2
AcDbLayout
  3
ObjectDBX Classes
 90
        0
 91
        2
280
     0
281
     0
  0
CLASS
  1
SORTENTSTABLE
  2
AcDbSortentsTable
  3
ObjectDBX Classes
 90
        0
 91
        9
280
     0
281
     0
  0
CLASS
  1
ACDBSECTIONVIEWSTYLE
  2
AcDbSectionViewStyle
  3
ObjectDBX Classes
 90
     1025
 91
        1
280
     0
281
     0
  0
CLASS
  1
ACDBDETAILVIEWSTYLE
  2
AcDbDetailViewStyle
  3
ObjectDBX Classes
 90
     1025
 91
        1
280
     0
281
     0
  0
ENDSEC
  0
SECTION
  2
TABLES
  0
TABLE
  2
VPORT
  5
8
102
{ACAD_XDICTIONARY
360
10E9
102
}
330
0
100
AcDbSymbolTable
 70
     1
1001
ACAD
1000
DbSaveVer
1071
        5
  0
VPORT
  5
1F4
330
8
100
AcDbSymbolTableRecord
100
AcDbViewportTableRecord
  2
*ACTIVE
 70
     0
 10
0.0
 20
0.0
 11
1.0
 21
1.0
 12
1995.287794328954
 22
1349.897298275811
 13
0.0
 23
0.0
 14
1.0
 24
1.0
 15
0.0
 25
0.0
 16
0.0
 26
0.0
 36
1.0
 17
0.0
 27
0.0
 37
0.0
 40
846.1255354447329
 41
2.292712066905615
 42
50.0
 43
0.0
 44
0.0
 50
0.0
 51
0.0
 71
     0
 72
 19999
 73
     1
 74
     1
 75
     0
 76
     0
 77
     0
 78
     0
281
     0
 65
     1
110
0.0
120
0.0
130
0.0
111
1.0
121
0.0
131
0.0
112
0.0
122
1.0
132
0.0
 79
     0
146
0.0
348
1099
 60
     3
 61
     5
292
     1
282
     1
141
0.0
142
0.0
 63
   250
421
  3355443
1001
ACAD_NAV_VCDISPLAY
1070
     3
  0
ENDTAB
  0
TABLE
  2
LTYPE
  5
5
330
0
100
AcDbSymbolTable
 70
     6
  0
LTYPE
  5
14
330
5
100
AcDbSymbolTableRecord
100
AcDbLinetypeTableRecord
  2
BYBLOCK
 70
     0
  3

 72
    65
 73
     0
 40
0.0
  0
LTYPE
  5
15
330
5
100
AcDbSymbolTableRecord
100
AcDbLinetypeTableRecord
  2
BYLAYER
 70
     0
  3

 72
    65
 73
     0
 40
0.0
  0
LTYPE
  5
16
330
5
100
AcDbSymbolTableRecord
100
AcDbLinetypeTableRecord
  2
CONTINUOUS
 70
     0
  3
Solid line
 72
    65
 73
     0
 40
0.0
  0
LTYPE
  5
1F5
330
5
100
AcDbSymbolTableRecord
100
AcDbLinetypeTableRecord
  2
CENTER
 70
     0
  3
____ _ ____ _ ____ _ ____ _ ____ _ ____ _ ____
 72
    65
 73
     4
 40
0.6
 49
0.375
 74
     0
 49
-0.075
 74
     0
 49
0.075
 74
     0
 49
-0.075
 74
     0
  0
LTYPE
  5
1F6
330
5
100
AcDbSymbolTableRecord
100
AcDbLinetypeTableRecord
  2
HIDDEN
 70
     0
  3
- - - - - - - - - - - - - - - - - - - -
 72
    65
 73
     2
 40
0.2
 49
0.1
 74
     0
 49
-0.1
 74
     0
  0
LTYPE
  5
1F7
330
5
100
AcDbSymbolTableRecord
100
AcDbLinetypeTableRecord
  2
PHANTOM
 70
     0
  3
_____ _ _ _____ _ _ _____ _ _ _____
 72
    65
 73
     6
 40
0.8
 49
0.45
 74
     0
 49
-0.05
 74
     0
 49
0.1
 74
     0
 49
-0.05
 74
     0
 49
0.1
 74
     0
 49
-0.05
 74
     0
  0
LTYPE
  5
1F8
330
5
100
AcDbSymbolTableRecord
100
AcDbLinetypeTableRecord
  2
DOT
 70
     0
  3
. . . . . . . . . . . . . . . . . . . .
 72
    65
 73
     2
 40
0.2
 49
0.1
 74
     0
 49
-0.1
 74
     0
  0
LTYPE
  5
1F9
330
5
100
AcDbSymbolTableRecord
100
AcDbLinetypeTableRecord
  2
DASHED
 70
     0
  3
- - - - - - - - - - - - - - - - - - - -
 72
    65
 73
     2
 40
0.2
 49
0.1
 74
     0
 49
-0.1
 74
     0
  0
ENDTAB
  0
TABLE
  2
LAYER
  5
2
102
{ACAD_XDICTIONARY
360
1265
102
}
330
0
100
AcDbSymbolTable
 70
    53
  0
LAYER
  5
10
102
{ACAD_XDICTIONARY
360
A189
102
}
330
2
100
AcDbSymbolTableRecord
100
AcDbLayerTableRecord
  2
0
 70
     0
 62
     7
  6
CONTINUOUS
370
    -3
390
1079
347
108B
348
0
  0
LAYER
  5
1FA
102
{ACAD_XDICTIONARY
360
A18B
102
}
330
2
100
AcDbSymbolTableRecord
100
AcDbLayerTableRecord
  2
DEFAULT_1
 70
     0
 62
     7
  6
CENTER
370
    -3
390
1079
347
108B
348
0
  0
LAYER
  5
1FB
102
{ACAD_XDICTIONARY
360
A18D
102
}
330
2
100
AcDbSymbolTableRecord
100
AcDbLayerTableRecord
  2
DEFAULT_2
 70
     0
 62
     8
  6
HIDDEN
370
    -3
390
1079
347
108B
348
0
  0
LAYER
  5
1FC
102
{ACAD_XDICTIONARY
360
A18F
102
}
330
2
100
AcDbSymbolTableRecord
100
AcDbLayerTableRecord
  2
DEFAULT_3
 70
     0
 62
     7
  6
PHANTOM
370
    -3
390
1079
347
108B
348
0
  0
LAYER
  5
1FD
102
{ACAD_XDICTIONARY
360
A191
102
}
330
2
100
AcDbSymbolTableRecord
100
AcDbLayerTableRecord
  2
01_ALL_DTM_PLN
 70
     0
 62
     7
  6
CONTINUOUS
370
    -3
390
1079
347
108B
348
0
  0
LAYER
  5
1FE
102
{ACAD_XDICTIONARY
360
A193
102
}
330
2
100
AcDbSymbolTableRecord
100
AcDbLayerTableRecord
  2
01__ASM_ALL_DTM_PLN
 70
     0
 62
     7
  6
CONTINUOUS
370
    -3
390
1079
347
108B
348
0
  0
LAYER
  5
1FF
102
{ACAD_XDICTIONARY
360
A195
102
}
330
2
100
AcDbSymbolTableRecord
100
AcDbLayerTableRecord
  2
01__ASM_DEF_DTM_PLN
 70
     0
 62
     7
  6
CONTINUOUS
370
    -3
390
1079
347
108B
348
0
  0
LAYER
  5
200
102
{ACAD_XDICTIONARY
360
A197
102
}
330
2
100
AcDbSymbolTableRecord
100
AcDbLayerTableRecord
  2
01___PRT_ALL_DTM_PLN
 70
     0
 62
     7
  6
CONTINUOUS
370
    -3
390
1079
347
108B
348
0
  0
LAYER
  5
201
102
{ACAD_XDICTIONARY
360
A199
102
}
330
2
100
AcDbSymbolTableRecord
100
AcDbLayerTableRecord
  2
01___PRT_DEF_DTM_PLN
 70
     0
 62
     7
  6
CONTINUOUS
370
    -3
390
1079
347
108B
348
0
  0
LAYER
  5
202
102
{ACAD_XDICTIONARY
360
A19B
102
}
330
2
100
AcDbSymbolTableRecord
100
AcDbLayerTableRecord
  2
02_ALL_AXES
 70
     0
 62
     7
  6
CONTINUOUS
370
    -3
390
1079
347
108B
348
0
  0
LAYER
  5
203
102
{ACAD_XDICTIONARY
360
A19D
102
}
330
2
100
AcDbSymbolTableRecord
100
AcDbLayerTableRecord
  2
02__ASM_ALL_AXES
 70
     0
 62
     7
  6
CONTINUOUS
370
    -3
390
1079
347
108B
348
0
  0
LAYER
  5
204
102
{ACAD_XDICTIONARY
360
A19F
102
}
330
2
100
AcDbSymbolTableRecord
100
AcDbLayerTableRecord
  2
02___PRT_ALL_AXES
 70
     0
 62
     7
  6
CONTINUOUS
370
    -3
390
1079
347
108B
348
0
  0
LAYER
  5
205
102
{ACAD_XDICTIONARY
360
A1A1
102
}
330
2
100
AcDbSymbolTableRecord
100
AcDbLayerTableRecord
  2
03_ALL_CURVES
 70
     0
 62
     7
  6
CONTINUOUS
370
    -3
390
1079
347
108B
348
0
  0
LAYER
  5
206
102
{ACAD_XDICTIONARY
360
A1A3
102
}
330
2
100
AcDbSymbolTableRecord
100
AcDbLayerTableRecord
  2
03__ASM_ALL_CURVES
 70
     0
 62
     7
  6
CONTINUOUS
370
    -3
390
1079
347
108B
348
0
  0
LAYER
  5
207
102
{ACAD_XDICTIONARY
360
A1A5
102
}
330
2
100
AcDbSymbolTableRecord
100
AcDbLayerTableRecord
  2
03___PRT_ALL_CURVES
 70
     0
 62
     7
  6
CONTINUOUS
370
    -3
390
1079
347
108B
348
0
  0
LAYER
  5
208
102
{ACAD_XDICTIONARY
360
A1A7
102
}
330
2
100
AcDbSymbolTableRecord
100
AcDbLayerTableRecord
  2
04_ALL_DTM_PNT
 70
     0
 62
     7
  6
CONTINUOUS
370
    -3
390
1079
347
108B
348
0
  0
LAYER
  5
209
102
{ACAD_XDICTIONARY
360
A1A9
102
}
330
2
100
AcDbSymbolTableRecord
100
AcDbLayerTableRecord
  2
04__ASM_ALL_DTM_PNT
 70
     0
 62
     7
  6
CONTINUOUS
370
    -3
390
1079
347
108B
348
0
  0
LAYER
  5
20A
102
{ACAD_XDICTIONARY
360
A1AB
102
}
330
2
100
AcDbSymbolTableRecord
100
AcDbLayerTableRecord
  2
04___PRT_ALL_DTM_PNT
 70
     0
 62
     7
  6
CONTINUOUS
370
    -3
390
1079
347
108B
348
0
  0
LAYER
  5
20B
102
{ACAD_XDICTIONARY
360
A1AD
102
}
330
2
100
AcDbSymbolTableRecord
100
AcDbLayerTableRecord
  2
05_ALL_DTM_CSYS
 70
     0
 62
     7
  6
CONTINUOUS
370
    -3
390
1079
347
108B
348
0
  0
LAYER
  5
20C
102
{ACAD_XDICTIONARY
360
A1AF
102
}
330
2
100
AcDbSymbolTableRecord
100
AcDbLayerTableRecord
  2
05__ASM_ALL_DTM_CSYS
 70
     0
 62
     7
  6
CONTINUOUS
370
    -3
390
1079
347
108B
348
0
  0
LAYER
  5
20D
102
{ACAD_XDICTIONARY
360
A1B1
102
}
330
2
100
AcDbSymbolTableRecord
100
AcDbLayerTableRecord
  2
05__ASM_DEF_DTM_CSYS
 70
     0
 62
     7
  6
CONTINUOUS
370
    -3
390
1079
347
108B
348
0
  0
LAYER
  5
20E
102
{ACAD_XDICTIONARY
360
A1B3
102
}
330
2
100
AcDbSymbolTableRecord
100
AcDbLayerTableRecord
  2
05___PRT_ALL_DTM_CSYS
 70
     0
 62
     7
  6
CONTINUOUS
370
    -3
390
1079
347
108B
348
0
  0
LAYER
  5
20F
102
{ACAD_XDICTIONARY
360
A1B5
102
}
330
2
100
AcDbSymbolTableRecord
100
AcDbLayerTableRecord
  2
05___PRT_DEF_DTM_CSYS
 70
     0
 62
     7
  6
CONTINUOUS
370
    -3
390
1079
347
108B
348
0
  0
LAYER
  5
210
102
{ACAD_XDICTIONARY
360
A1B7
102
}
330
2
100
AcDbSymbolTableRecord
100
AcDbLayerTableRecord
  2
06_ALL_SURFS
 70
     0
 62
     7
  6
CONTINUOUS
370
    -3
390
1079
347
108B
348
0
  0
LAYER
  5
211
102
{ACAD_XDICTIONARY
360
A1B9
102
}
330
2
100
AcDbSymbolTableRecord
100
AcDbLayerTableRecord
  2
06__ASM_ALL_SURFS
 70
     0
 62
     7
  6
CONTINUOUS
370
    -3
390
1079
347
108B
348
0
  0
LAYER
  5
212
102
{ACAD_XDICTIONARY
360
A1BB
102
}
330
2
100
AcDbSymbolTableRecord
100
AcDbLayerTableRecord
  2
06___PRT_ALL_SURFS
 70
     0
 62
     7
  6
CONTINUOUS
370
    -3
390
1079
347
108B
348
0
  0
LAYER
  5
213
102
{ACAD_XDICTIONARY
360
A1BD
102
}
330
2
100
AcDbSymbolTableRecord
100
AcDbLayerTableRecord
  2
07__ASM_ALL_SKELETONS
 70
     0
 62
     7
  6
CONTINUOUS
370
    -3
390
1079
347
108B
348
0
  0
LAYER
  5
214
102
{ACAD_XDICTIONARY
360
A1BF
102
}
330
2
100
AcDbSymbolTableRecord
100
AcDbLayerTableRecord
  2
AXIS
 70
     0
 62
     7
  6
CONTINUOUS
370
    -3
390
1079
347
108B
348
0
  0
LAYER
  5
215
102
{ACAD_XDICTIONARY
360
A1C1
102
}
330
2
100
AcDbSymbolTableRecord
100
AcDbLayerTableRecord
  2
CSYS
 70
     0
 62
     7
  6
CONTINUOUS
370
    -3
390
1079
347
108B
348
0
  0
LAYER
  5
216
102
{ACAD_XDICTIONARY
360
A1C3
102
}
330
2
100
AcDbSymbolTableRecord
100
AcDbLayerTableRecord
  2
CURVE
 70
     0
 62
     7
  6
CONTINUOUS
370
    -3
390
1079
347
108B
348
0
  0
LAYER
  5
217
102
{ACAD_XDICTIONARY
360
A1C5
102
}
330
2
100
AcDbSymbolTableRecord
100
AcDbLayerTableRecord
  2
DATUM
 70
     0
 62
     7
  6
CONTINUOUS
370
    -3
390
1079
347
108B
348
0
  0
LAYER
  5
218
102
{ACAD_XDICTIONARY
360
A1C7
102
}
330
2
100
AcDbSymbolTableRecord
100
AcDbLayerTableRecord
  2
DRIVEN_DIM
 70
     0
 62
     7
  6
CONTINUOUS
370
    -3
390
1079
347
108B
348
0
  0
LAYER
  5
219
102
{ACAD_XDICTIONARY
360
A1C9
102
}
330
2
100
AcDbSymbolTableRecord
100
AcDbLayerTableRecord
  2
LAY0001
 70
     0
 62
     7
  6
CONTINUOUS
370
    -3
390
1079
347
108B
348
0
  0
LAYER
  5
21A
102
{ACAD_XDICTIONARY
360
A1CB
102
}
330
2
100
AcDbSymbolTableRecord
100
AcDbLayerTableRecord
  2
LAY0002
 70
     0
 62
     7
  6
CONTINUOUS
370
    -3
390
1079
347
108B
348
0
  0
LAYER
  5
21B
102
{ACAD_XDICTIONARY
360
A1CD
102
}
330
2
100
AcDbSymbolTableRecord
100
AcDbLayerTableRecord
  2
PARAMETER_DIM
 70
     0
 62
     7
  6
CONTINUOUS
370
    -3
390
1079
347
108B
348
0
  0
LAYER
  5
21C
102
{ACAD_XDICTIONARY
360
A1CF
102
}
330
2
100
AcDbSymbolTableRecord
100
AcDbLayerTableRecord
  2
QUILT
 70
     0
 62
     7
  6
CONTINUOUS
370
    -3
390
1079
347
108B
348
0
  0
LAYER
  5
21D
102
{ACAD_XDICTIONARY
360
A1D1
102
}
330
2
100
AcDbSymbolTableRecord
100
AcDbLayerTableRecord
  2
SURFACE
 70
     0
 62
     7
  6
CONTINUOUS
370
    -3
390
1079
347
108B
348
0
  0
LAYER
  5
21E
102
{ACAD_XDICTIONARY
360
A1D3
102
}
330
2
100
AcDbSymbolTableRecord
100
AcDbLayerTableRecord
  2
SURFACE_FIN
 70
     0
 62
     7
  6
CONTINUOUS
370
    -3
390
1079
347
108B
348
0
  0
LAYER
  5
21F
102
{ACAD_XDICTIONARY
360
A1D5
102
}
330
2
100
AcDbSymbolTableRecord
100
AcDbLayerTableRecord
  2
TEMP_AXES
 70
     0
 62
     7
  6
CONTINUOUS
370
    -3
390
1079
347
108B
348
0
  0
LAYER
  5
220
102
{ACAD_XDICTIONARY
360
A1D7
102
}
330
2
100
AcDbSymbolTableRecord
100
AcDbLayerTableRecord
  2
TEMP_CURVES
 70
     0
 62
     7
  6
CONTINUOUS
370
    -3
390
1079
347
108B
348
0
  0
LAYER
  5
221
102
{ACAD_XDICTIONARY
360
A1D9
102
}
330
2
100
AcDbSymbolTableRecord
100
AcDbLayerTableRecord
  2
TEMP_NOTE
 70
     0
 62
     7
  6
CONTINUOUS
370
    -3
390
1079
347
108B
348
0
  0
LAYER
  5
222
102
{ACAD_XDICTIONARY
360
A1DB
102
}
330
2
100
AcDbSymbolTableRecord
100
AcDbLayerTableRecord
  2
TEMP_PLN
 70
     0
 62
     7
  6
CONTINUOUS
370
    -3
390
1079
347
108B
348
0
  0
LAYER
  5
223
102
{ACAD_XDICTIONARY
360
A1DD
102
}
330
2
100
AcDbSymbolTableRecord
100
AcDbLayerTableRecord
  2
TEMP_PNT
 70
     0
 62
     7
  6
CONTINUOUS
370
    -3
390
1079
347
108B
348
0
  0
LAYER
  5
224
102
{ACAD_XDICTIONARY
360
A1DF
102
}
330
2
100
AcDbSymbolTableRecord
100
AcDbLayerTableRecord
  2
TEMP_SURFS
 70
     0
 62
     7
  6
CONTINUOUS
370
    -3
390
1079
347
108B
348
0
  0
LAYER
  5
225
102
{ACAD_XDICTIONARY
360
A1E1
102
}
330
2
100
AcDbSymbolTableRecord
100
AcDbLayerTableRecord
  2
THREAD
 70
     0
 62
     7
  6
CONTINUOUS
370
    -3
390
1079
347
108B
348
0
  0
LAYER
  5
226
102
{ACAD_XDICTIONARY
360
A1E3
102
}
330
2
100
AcDbSymbolTableRecord
100
AcDbLayerTableRecord
  2
XSEC_DATUMS
 70
     0
 62
     7
  6
CONTINUOUS
370
    -3
390
1079
347
108B
348
0
  0
LAYER
  5
125B
102
{ACAD_XDICTIONARY
360
A1E5
102
}
330
2
100
AcDbSymbolTableRecord
100
AcDbLayerTableRecord
  2
CAXA4
 70
     0
 62
     3
  6
CONTINUOUS
370
    25
390
1079
347
108B
348
0
  0
LAYER
  5
125C
330
2
100
AcDbSymbolTableRecord
100
AcDbLayerTableRecord
  2
Defpoints
 70
     0
 62
     7
  6
CONTINUOUS
290
     0
370
    -3
390
1079
347
108B
348
0
  0
LAYER
  5
125D
102
{ACAD_XDICTIONARY
360
A1E7
102
}
330
2
100
AcDbSymbolTableRecord
100
AcDbLayerTableRecord
  2
CENTER
 70
     0
 62
     1
  6
CENTER
370
     9
390
1079
347
108B
348
0
  0
LAYER
  5
125E
102
{ACAD_XDICTIONARY
360
A1E9
102
}
330
2
100
AcDbSymbolTableRecord
100
AcDbLayerTableRecord
  2
尺寸线层
 70
     0
 62
     3
  6
CONTINUOUS
370
    18
390
1079
347
108B
348
0
1001
AcAecLayerStandard
1000

1000
尺寸线层
1001
AcadStringInfo
1000
MIFCodePage
1070
     5
  0
LAYER
  5
125F
102
{ACAD_XDICTIONARY
360
A1EB
102
}
330
2
100
AcDbSymbolTableRecord
100
AcDbLayerTableRecord
  2
EB0
 70
     0
 62
     7
  6
CONTINUOUS
370
    35
390
1079
347
108B
348
0
1001
AcAecLayerStandard
1000

1000
0层
  0
LAYER
  5
1260
102
{ACAD_XDICTIONARY
360
A1ED
102
}
330
2
100
AcDbSymbolTableRecord
100
AcDbLayerTableRecord
  2
ACAD0
 70
     0
 62
     7
  6
CONTINUOUS
370
     0
390
1079
347
108B
348
0
1001
AcAecLayerStandard
1000

1000
0
  0
LAYER
  5
1261
102
{ACAD_XDICTIONARY
360
A1EF
102
}
330
2
100
AcDbSymbolTableRecord
100
AcDbLayerTableRecord
  2
DIMENSION
 70
     0
 62
     3
  6
CONTINUOUS
370
     9
390
1079
347
108B
348
0
  0
ENDTAB
  0
TABLE
  2
STYLE
  5
3
330
0
100
AcDbSymbolTable
 70
     6
  0
STYLE
  5
11
330
3
100
AcDbSymbolTableRecord
100
AcDbTextStyleTableRecord
  2
STANDARD
 70
     0
 40
0.0
 41
1.0
 50
0.0
 71
     0
 42
0.2
  3
simfang.ttf
  4

1001
ACAD
1000
FangSong
1071
    34353
  0
STYLE
  5
227
330
3
100
AcDbSymbolTableRecord
100
AcDbTextStyleTableRecord
  2
TEXTSTYLE_1
 70
     0
 40
0.0
 41
0.8
 50
0.0
 71
     0
 42
0.2
  3
gdt_____.ttf
  4

1001
ACAD
1000
gdt
1071
        2
  0
STYLE
  5
228
330
3
100
AcDbSymbolTableRecord
100
AcDbTextStyleTableRecord
  2
TEXTSTYLE_2
 70
     0
 40
0.0
 41
1.0
 50
0.0
 71
     0
 42
0.2
  3
simfang.ttf
  4

1001
ACAD
1000
FangSong
1071
    34353
  0
STYLE
  5
229
330
3
100
AcDbSymbolTableRecord
100
AcDbTextStyleTableRecord
  2
TEXTSTYLE_3
 70
     0
 40
0.0
 41
1.0
 50
0.0
 71
     0
 42
0.2
  3
simfang.ttf
  4

1001
ACAD
1000
FangSong
1071
    34353
  0
STYLE
  5
22A
330
3
100
AcDbSymbolTableRecord
100
AcDbTextStyleTableRecord
  2
TEXTSTYLE_4
 70
     0
 40
0.0
 41
1.0
 50
0.0
 71
     0
 42
0.2
  3
shanno.ttf
  4

  0
STYLE
  5
5708
330
3
100
AcDbSymbolTableRecord
100
AcDbTextStyleTableRecord
  2
TEXTSTYLE_5
 70
     0
 40
0.0
 41
1.0
 50
0.0
 71
     0
 42
0.2
  3
shanno.ttf
  4

  0
ENDTAB
  0
TABLE
  2
VIEW
  5
6
330
0
100
AcDbSymbolTable
 70
     0
  0
ENDTAB
  0
TABLE
  2
UCS
  5
7
330
0
100
AcDbSymbolTable
 70
     0
  0
ENDTAB
  0
TABLE
  2
APPID
  5
9
330
0
100
AcDbSymbolTable
 70
     8
  0
APPID
  5
22B
330
9
100
AcDbSymbolTableRecord
100
AcDbRegAppTableRecord
  2
ACAD
 70
     0
  0
APPID
  5
1193
330
9
100
AcDbSymbolTableRecord
100
AcDbRegAppTableRecord
  2
ACAD_MLEADERVER
 70
     0
  0
APPID
  5
11C2
330
9
100
AcDbSymbolTableRecord
100
AcDbRegAppTableRecord
  2
ACAD_EXEMPT_FROM_CAD_STANDARDS
 70
     0
  0
APPID
  5
11DB
330
9
100
AcDbSymbolTableRecord
100
AcDbRegAppTableRecord
  2
ACAD_PSEXT
 70
     0
  0
APPID
  5
1263
330
9
100
AcDbSymbolTableRecord
100
AcDbRegAppTableRecord
  2
CAXA_DRAFT_TXTSCALE
 70
     0
  0
APPID
  5
1264
330
9
100
AcDbSymbolTableRecord
100
AcDbRegAppTableRecord
  2
AcAecLayerStandard
 70
     0
  0
APPID
  5
A180
330
9
100
AcDbSymbolTableRecord
100
AcDbRegAppTableRecord
  2
AcadStringInfo
 70
     0
  0
APPID
  5
A1F1
330
9
100
AcDbSymbolTableRecord
100
AcDbRegAppTableRecord
  2
ACAD_NAV_VCDISPLAY
 70
     0
  0
ENDTAB
  0
TABLE
  2
DIMSTYLE
  5
A
330
0
100
AcDbSymbolTable
 70
     3
100
AcDbDimStyleTable
 71
     2
340
23F
340
1262
  0
DIMSTYLE
105
23F
330
A
100
AcDbSymbolTableRecord
100
AcDbDimStyleTableRecord
  2
STANDARD
 70
     0
 41
8.0
 42
1.0
 44
1.5
 47
0.01
 48
0.01
 71
     1
 73
     0
 74
     0
 77
     1
 78
     8
140
10.0
147
0.625
271
     2
272
     2
284
     8
340
11
341
22C
342
22C
343
22C
344
22C
  0
DIMSTYLE
105
1262
102
{ACAD_REACTORS
330
5873
330
5874
330
5875
330
5877
330
5872
330
78C8
330
5876
330
7971
330
79F6
330
A0A7
102
}
330
A
100
AcDbSymbolTableRecord
100
AcDbDimStyleTableRecord
  2
DIMSTYLE_1
 70
     0
 41
2.0
 42
1.0
 44
1.5
 47
0.01
 48
0.01
 73
     0
 74
     0
 77
     1
 78
     8
140
2.5
147
0.625
271
     2
272
     2
284
     8
340
11
341
22C
342
22C
343
22C
344
22C
  0
DIMSTYLE
105
5709
330
A
100
AcDbSymbolTableRecord
100
AcDbDimStyleTableRecord
  2
DIMSTYLE_2
 70
     0
 41
4.0
 42
1.0
 44
1.5
 47
0.01
 48
0.01
 73
     0
 74
     0
 77
     1
 78
     8
140
5.0
147
0.625
271
     2
272
     2
284
     8
340
11
341
22C
342
22C
343
22C
344
22C
  0
ENDTAB
  0
TABLE
  2
BLOCK_RECORD
  5
1
330
0
100
AcDbSymbolTable
 70
    40
  0
BLOCK_RECORD
  5
1F
102
{ACAD_XDICTIONARY
360
10ED
102
}
330
1
100
AcDbSymbolTableRecord
100
AcDbBlockTableRecord
  2
*MODEL_SPACE
340
10C0
 70
     0
280
     1
281
     0
  0
BLOCK_RECORD
  5
1B
102
{ACAD_XDICTIONARY
360
10EB
102
}
330
1
100
AcDbSymbolTableRecord
100
AcDbBlockTableRecord
  2
*PAPER_SPACE
340
10C1
 70
     0
280
     1
281
     0
  0
BLOCK_RECORD
  5
22C
330
1
100
AcDbSymbolTableRecord
100
AcDbBlockTableRecord
  2
_ARROW_FILLED
340
0
102
{BLKREFS
331
78FE
331
78FF
331
796B
331
796C
331
798C
331
798D
331
604C
331
604D
331
6056
331
6057
331
605F
331
6060
331
6068
331
6069
331
6071
331
6072
331
A09F
331
A0A0
331
A0E8
331
A0E9
331
A066
331
A067
331
A08D
331
A08E
331
79C6
331
79C7
331
79D8
331
79D9
331
79E1
331
79E2
102
}
 70
     0
280
     1
281
     0
  0
BLOCK_RECORD
  5
22D
330
1
100
AcDbSymbolTableRecord
100
AcDbBlockTableRecord
  2
BALLOON_BL17
340
0
 70
     0
280
     1
281
     0
  0
BLOCK_RECORD
  5
22E
330
1
100
AcDbSymbolTableRecord
100
AcDbBlockTableRecord
  2
BALLOON_BL16
340
0
 70
     0
280
     1
281
     0
  0
BLOCK_RECORD
  5
22F
330
1
100
AcDbSymbolTableRecord
100
AcDbBlockTableRecord
  2
BALLOON_BL15
340
0
 70
     0
280
     1
281
     0
  0
BLOCK_RECORD
  5
230
330
1
100
AcDbSymbolTableRecord
100
AcDbBlockTableRecord
  2
BALLOON_BL14
340
0
 70
     0
280
     1
281
     0
  0
BLOCK_RECORD
  5
231
330
1
100
AcDbSymbolTableRecord
100
AcDbBlockTableRecord
  2
BALLOON_BL13
340
0
 70
     0
280
     1
281
     0
  0
BLOCK_RECORD
  5
232
330
1
100
AcDbSymbolTableRecord
100
AcDbBlockTableRecord
  2
BALLOON_BL12
340
0
 70
     0
280
     1
281
     0
  0
BLOCK_RECORD
  5
233
330
1
100
AcDbSymbolTableRecord
100
AcDbBlockTableRecord
  2
BALLOON_BL11
340
0
 70
     0
280
     1
281
     0
  0
BLOCK_RECORD
  5
234
330
1
100
AcDbSymbolTableRecord
100
AcDbBlockTableRecord
  2
BALLOON_BL10
340
0
 70
     0
280
     1
281
     0
  0
BLOCK_RECORD
  5
235
330
1
100
AcDbSymbolTableRecord
100
AcDbBlockTableRecord
  2
BALLOON_BL9
340
0
 70
     0
280
     1
281
     0
  0
BLOCK_RECORD
  5
236
330
1
100
AcDbSymbolTableRecord
100
AcDbBlockTableRecord
  2
BALLOON_BL8
340
0
 70
     0
280
     1
281
     0
  0
BLOCK_RECORD
  5
237
330
1
100
AcDbSymbolTableRecord
100
AcDbBlockTableRecord
  2
BALLOON_BL7
340
0
 70
     0
280
     1
281
     0
  0
BLOCK_RECORD
  5
238
330
1
100
AcDbSymbolTableRecord
100
AcDbBlockTableRecord
  2
BALLOON_BL6
340
0
 70
     0
280
     1
281
     0
  0
BLOCK_RECORD
  5
239
330
1
100
AcDbSymbolTableRecord
100
AcDbBlockTableRecord
  2
BALLOON_BL5
340
0
 70
     0
280
     1
281
     0
  0
BLOCK_RECORD
  5
23A
330
1
100
AcDbSymbolTableRecord
100
AcDbBlockTableRecord
  2
BALLOON_BL4
340
0
 70
     0
280
     1
281
     0
  0
BLOCK_RECORD
  5
23B
330
1
100
AcDbSymbolTableRecord
100
AcDbBlockTableRecord
  2
BALLOON_BL3
340
0
 70
     0
280
     1
281
     0
  0
BLOCK_RECORD
  5
23C
330
1
100
AcDbSymbolTableRecord
100
AcDbBlockTableRecord
  2
SYMBOL_3_BL2
340
0
 70
     0
280
     1
281
     0
  0
BLOCK_RECORD
  5
23D
330
1
100
AcDbSymbolTableRecord
100
AcDbBlockTableRecord
  2
SYMBOL_1_BL1
340
0
 70
     0
280
     1
281
     0
  0
BLOCK_RECORD
  5
23E
330
1
100
AcDbSymbolTableRecord
100
AcDbBlockTableRecord
  2
SYMBOL_0_BL0
340
0
 70
     0
280
     1
281
     0
  0
BLOCK_RECORD
  5
59AB
330
1
100
AcDbSymbolTableRecord
100
AcDbBlockTableRecord
  2
*D19
340
0
 70
     0
280
     1
281
     0
  0
BLOCK_RECORD
  5
59B7
330
1
100
AcDbSymbolTableRecord
100
AcDbBlockTableRecord
  2
*D20
340
0
 70
     0
280
     1
281
     0
  0
BLOCK_RECORD
  5
59C3
330
1
100
AcDbSymbolTableRecord
100
AcDbBlockTableRecord
  2
*D21
340
0
 70
     0
280
     1
281
     0
  0
BLOCK_RECORD
  5
59CF
330
1
100
AcDbSymbolTableRecord
100
AcDbBlockTableRecord
  2
*D22
340
0
 70
     0
280
     1
281
     0
  0
BLOCK_RECORD
  5
59DB
330
1
100
AcDbSymbolTableRecord
100
AcDbBlockTableRecord
  2
*D23
340
0
 70
     0
280
     1
281
     0
  0
BLOCK_RECORD
  5
59E7
330
1
100
AcDbSymbolTableRecord
100
AcDbBlockTableRecord
  2
*D24
340
0
 70
     0
280
     1
281
     0
  0
BLOCK_RECORD
  5
5FAC
330
1
100
AcDbSymbolTableRecord
100
AcDbBlockTableRecord
  2
*D25
340
0
 70
     0
280
     1
281
     0
  0
BLOCK_RECORD
  5
5FB8
330
1
100
AcDbSymbolTableRecord
100
AcDbBlockTableRecord
  2
*D26
340
0
 70
     0
280
     1
281
     0
  0
BLOCK_RECORD
  5
5FC5
330
1
100
AcDbSymbolTableRecord
100
AcDbBlockTableRecord
  2
*D27
340
0
 70
     0
280
     1
281
     0
  0
BLOCK_RECORD
  5
5FD2
330
1
100
AcDbSymbolTableRecord
100
AcDbBlockTableRecord
  2
*D28
340
0
 70
     0
280
     1
281
     0
  0
BLOCK_RECORD
  5
5FDE
330
1
100
AcDbSymbolTableRecord
100
AcDbBlockTableRecord
  2
*D29
340
0
 70
     0
280
     1
281
     0
  0
BLOCK_RECORD
  5
60F0
330
1
100
AcDbSymbolTableRecord
100
AcDbBlockTableRecord
  2
BALLOON_BL22
340
0
 70
     0
280
     1
281
     0
  0
BLOCK_RECORD
  5
60F5
330
1
100
AcDbSymbolTableRecord
100
AcDbBlockTableRecord
  2
BALLOON_BL21
340
0
 70
     0
280
     1
281
     0
  0
BLOCK_RECORD
  5
60FA
330
1
100
AcDbSymbolTableRecord
100
AcDbBlockTableRecord
  2
BALLOON_BL20
340
0
 70
     0
280
     1
281
     0
  0
BLOCK_RECORD
  5
60FF
330
1
100
AcDbSymbolTableRecord
100
AcDbBlockTableRecord
  2
BALLOON_BL19
340
0
 70
     0
280
     1
281
     0
  0
BLOCK_RECORD
  5
6104
330
1
100
AcDbSymbolTableRecord
100
AcDbBlockTableRecord
  2
BALLOON_BL18
340
0
 70
     0
280
     1
281
     0
  0
BLOCK_RECORD
  5
78C9
330
1
100
AcDbSymbolTableRecord
100
AcDbBlockTableRecord
  2
*D35
340
0
 70
     0
280
     1
281
     0
  0
BLOCK_RECORD
  5
7972
330
1
100
AcDbSymbolTableRecord
100
AcDbBlockTableRecord
  2
*D36
340
0
 70
     0
280
     1
281
     0
  0
BLOCK_RECORD
  5
79F7
330
1
100
AcDbSymbolTableRecord
100
AcDbBlockTableRecord
  2
*D37
340
0
 70
     0
280
     1
281
     0
  0
BLOCK_RECORD
  5
A0A8
330
1
100
AcDbSymbolTableRecord
100
AcDbBlockTableRecord
  2
*D38
340
0
 70
     0
280
     1
281
     0
  0
BLOCK_RECORD
  5
A160
102
{ACAD_XDICTIONARY
360
A165
102
}
330
1
100
AcDbSymbolTableRecord
100
AcDbBlockTableRecord
  2
A$C05D06CAD
340
0
 70
     0
280
     1
281
     0
  0
ENDTAB
  0
ENDSEC
  0
SECTION
  2
BLOCKS
  0
BLOCK
  5
20
330
1F
100
AcDbEntity
  8
0
100
AcDbBlockBegin
  2
*MODEL_SPACE
 70
     0
 10
0.0
 20
0.0
 30
0.0
  3
*MODEL_SPACE
  1

  0
ENDBLK
  5
21
330
1F
100
AcDbEntity
  8
0
100
AcDbBlockEnd
  0
BLOCK
  5
1C
330
1B
100
AcDbEntity
 67
     1
  8
0
100
AcDbBlockBegin
  2
*PAPER_SPACE
 70
     0
 10
0.0
 20
0.0
 30
0.0
  3
*PAPER_SPACE
  1

  0
ENDBLK
  5
1D
330
1B
100
AcDbEntity
 67
     1
  8
0
100
AcDbBlockEnd
  0
BLOCK
  5
3F8
330
22C
100
AcDbEntity
  8
0
100
AcDbBlockBegin
  2
_ARROW_FILLED
 70
     0
 10
0.0
 20
0.0
 30
0.0
  3
_ARROW_FILLED
  1

  0
SOLID
  5
3F9
330
22C
100
AcDbEntity
  8
0
  6
ByBlock
 62
     0
100
AcDbTrace
 10
0.0
 20
0.0
 30
0.0
 11
-1.0
 21
0.2
 31
0.0
 12
-1.0
 22
-0.2
 32
0.0
 13
-1.0
 23
-0.2
 33
0.0
  0
ENDBLK
  5
3FA
330
22C
100
AcDbEntity
  8
0
  6
ByBlock
 62
     0
100
AcDbBlockEnd
  0
BLOCK
  5
240
330
22D
100
AcDbEntity
  8
0
  6
Continuous
 62
     2
100
AcDbBlockBegin
  2
BALLOON_BL17
 70
     0
 10
419.9175437980001
 20
410.5176141783999
 30
0.0
  3
BALLOON_BL17
  1

  0
CIRCLE
  5
241
330
22D
100
AcDbEntity
  8
0
  6
Continuous
 62
     2
100
AcDbCircle
 10
419.9175437980001
 20
410.5176141783999
 30
0.0
 40
10.0
  0
MTEXT
  5
242
330
22D
100
AcDbEntity
  8
0
  6
Continuous
 62
     2
100
AcDbMText
 10
405.230043798
 20
415.5176141783999
 30
0.0
 40
10.0
 41
29.375
 46
0.0
 71
     1
 72
     1
  1
 15 
 73
     1
 44
1.0
  0
ENDBLK
  5
243
330
22D
100
AcDbEntity
  8
0
  6
ByBlock
 62
     0
100
AcDbBlockEnd
  0
BLOCK
  5
244
330
22E
100
AcDbEntity
  8
0
  6
Continuous
 62
     2
100
AcDbBlockBegin
  2
BALLOON_BL16
 70
     0
 10
419.9175437980001
 20
450.926831925
 30
0.0
  3
BALLOON_BL16
  1

  0
CIRCLE
  5
245
330
22E
100
AcDbEntity
  8
0
  6
Continuous
 62
     2
100
AcDbCircle
 10
419.9175437980001
 20
450.926831925
 30
0.0
 40
10.0
  0
MTEXT
  5
246
330
22E
100
AcDbEntity
  8
0
  6
Continuous
 62
     2
100
AcDbMText
 10
405.230043798
 20
455.926831925
 30
0.0
 40
10.0
 41
29.375
 46
0.0
 71
     1
 72
     1
  1
 14 
 73
     1
 44
1.0
  0
ENDBLK
  5
247
330
22E
100
AcDbEntity
  8
0
  6
ByBlock
 62
     0
100
AcDbBlockEnd
  0
BLOCK
  5
248
330
22F
100
AcDbEntity
  8
0
  6
Continuous
 62
     2
100
AcDbBlockBegin
  2
BALLOON_BL15
 70
     0
 10
610.3582819145
 20
186.9084475784999
 30
0.0
  3
BALLOON_BL15
  1

  0
CIRCLE
  5
249
330
22F
100
AcDbEntity
  8
0
  6
Continuous
 62
     2
100
AcDbCircle
 10
610.3582819145
 20
186.9084475784999
 30
0.0
 40
10.0
  0
MTEXT
  5
24A
330
22F
100
AcDbEntity
  8
0
  6
Continuous
 62
     2
100
AcDbMText
 10
595.6707819145
 20
191.9084475785
 30
0.0
 40
10.0
 41
29.375
 46
0.0
 71
     1
 72
     1
  1
 12 
 73
     1
 44
1.0
  0
ENDBLK
  5
24B
330
22F
100
AcDbEntity
  8
0
  6
ByBlock
 62
     0
100
AcDbBlockEnd
  0
BLOCK
  5
24C
330
230
100
AcDbEntity
  8
0
  6
Continuous
 62
     2
100
AcDbBlockBegin
  2
BALLOON_BL14
 70
     0
 10
610.3582819145
 20
232.6561776186
 30
0.0
  3
BALLOON_BL14
  1

  0
CIRCLE
  5
24D
330
230
100
AcDbEntity
  8
0
  6
Continuous
 62
     2
100
AcDbCircle
 10
610.3582819145
 20
232.6561776186
 30
0.0
 40
10.0
  0
MTEXT
  5
24E
330
230
100
AcDbEntity
  8
0
  6
Continuous
 62
     2
100
AcDbMText
 10
595.6707819145
 20
237.6561776186
 30
0.0
 40
10.0
 41
29.375
 46
0.0
 71
     1
 72
     1
  1
 11 
 73
     1
 44
1.0
  0
ENDBLK
  5
24F
330
230
100
AcDbEntity
  8
0
  6
ByBlock
 62
     0
100
AcDbBlockEnd
  0
BLOCK
  5
250
330
231
100
AcDbEntity
  8
0
  6
Continuous
 62
     2
100
AcDbBlockBegin
  2
BALLOON_BL13
 70
     0
 10
610.3582819145
 20
377.8008029122
 30
0.0
  3
BALLOON_BL13
  1

  0
CIRCLE
  5
251
330
231
100
AcDbEntity
  8
0
  6
Continuous
 62
     2
100
AcDbCircle
 10
610.3582819145
 20
377.8008029122
 30
0.0
 40
10.0
  0
MTEXT
  5
252
330
231
100
AcDbEntity
  8
0
  6
Continuous
 62
     2
100
AcDbMText
 10
599.3426569145
 20
382.8008029122
 30
0.0
 40
10.0
 41
22.03125
 46
0.0
 71
     1
 72
     1
  1
 8 
 73
     1
 44
1.0
  0
ENDBLK
  5
253
330
231
100
AcDbEntity
  8
0
  6
ByBlock
 62
     0
100
AcDbBlockEnd
  0
BLOCK
  5
254
330
232
100
AcDbEntity
  8
0
  6
Continuous
 62
     2
100
AcDbBlockBegin
  2
BALLOON_BL12
 70
     0
 10
419.9175437980001
 20
718.4235208642999
 30
0.0
  3
BALLOON_BL12
  1

  0
CIRCLE
  5
255
330
232
100
AcDbEntity
  8
0
  6
Continuous
 62
     2
100
AcDbCircle
 10
419.9175437980001
 20
718.4235208642999
 30
0.0
 40
10.0
  0
MTEXT
  5
256
330
232
100
AcDbEntity
  8
0
  6
Continuous
 62
     2
100
AcDbMText
 10
408.901918798
 20
723.4235208642999
 30
0.0
 40
10.0
 41
22.03125
 46
0.0
 71
     1
 72
     1
  1
 1 
 73
     1
 44
1.0
  0
ENDBLK
  5
257
330
232
100
AcDbEntity
  8
0
  6
ByBlock
 62
     0
100
AcDbBlockEnd
  0
BLOCK
  5
258
330
233
100
AcDbEntity
  8
0
  6
Continuous
 62
     2
100
AcDbBlockBegin
  2
BALLOON_BL11
 70
     0
 10
610.3582819145
 20
661.1796825887999
 30
0.0
  3
BALLOON_BL11
  1

  0
CIRCLE
  5
259
330
233
100
AcDbEntity
  8
0
  6
Continuous
 62
     2
100
AcDbCircle
 10
610.3582819145
 20
661.1796825887999
 30
0.0
 40
10.0
  0
MTEXT
  5
25A
330
233
100
AcDbEntity
  8
0
  6
Continuous
 62
     2
100
AcDbMText
 10
599.3426569145
 20
666.1796825888
 30
0.0
 40
10.0
 41
22.03125
 46
0.0
 71
     1
 72
     1
  1
 4 
 73
     1
 44
1.0
  0
ENDBLK
  5
25B
330
233
100
AcDbEntity
  8
0
  6
ByBlock
 62
     0
100
AcDbBlockEnd
  0
BLOCK
  5
25C
330
234
100
AcDbEntity
  8
0
  6
Continuous
 62
     2
100
AcDbBlockBegin
  2
BALLOON_BL10
 70
     0
 10
610.3582819145
 20
338.3970836232
 30
0.0
  3
BALLOON_BL10
  1

  0
CIRCLE
  5
25D
330
234
100
AcDbEntity
  8
0
  6
Continuous
 62
     2
100
AcDbCircle
 10
610.3582819145
 20
338.3970836232
 30
0.0
 40
10.0
  0
MTEXT
  5
25E
330
234
100
AcDbEntity
  8
0
  6
Continuous
 62
     2
100
AcDbMText
 10
599.3426569145
 20
343.3970836232
 30
0.0
 40
10.0
 41
22.03125
 46
0.0
 71
     1
 72
     1
  1
 9 
 73
     1
 44
1.0
  0
ENDBLK
  5
25F
330
234
100
AcDbEntity
  8
0
  6
ByBlock
 62
     0
100
AcDbBlockEnd
  0
BLOCK
  5
260
330
235
100
AcDbEntity
  8
0
  6
Continuous
 62
     2
100
AcDbBlockBegin
  2
BALLOON_BL9
 70
     0
 10
419.9175437980001
 20
676.7640631905
 30
0.0
  3
BALLOON_BL9
  1

  0
CIRCLE
  5
261
330
235
100
AcDbEntity
  8
0
  6
Continuous
 62
     2
100
AcDbCircle
 10
419.9175437980001
 20
676.7640631905
 30
0.0
 40
10.0
  0
MTEXT
  5
262
330
235
100
AcDbEntity
  8
0
  6
Continuous
 62
     2
100
AcDbMText
 10
408.901918798
 20
681.7640631905
 30
0.0
 40
10.0
 41
22.03125
 46
0.0
 71
     1
 72
     1
  1
 2 
 73
     1
 44
1.0
  0
ENDBLK
  5
263
330
235
100
AcDbEntity
  8
0
  6
ByBlock
 62
     0
100
AcDbBlockEnd
  0
BLOCK
  5
264
330
236
100
AcDbEntity
  8
0
  6
Continuous
 62
     2
100
AcDbBlockBegin
  2
BALLOON_BL8
 70
     0
 10
419.9175437980001
 20
326.7346230707
 30
0.0
  3
BALLOON_BL8
  1

  0
CIRCLE
  5
265
330
236
100
AcDbEntity
  8
0
  6
Continuous
 62
     2
100
AcDbCircle
 10
419.9175437980001
 20
326.7346230707
 30
0.0
 40
10.0
  0
MTEXT
  5
266
330
236
100
AcDbEntity
  8
0
  6
Continuous
 62
     2
100
AcDbMText
 10
405.230043798
 20
331.7346230707
 30
0.0
 40
10.0
 41
29.375
 46
0.0
 71
     1
 72
     1
  1
 13 
 73
     1
 44
1.0
  0
ENDBLK
  5
267
330
236
100
AcDbEntity
  8
0
  6
ByBlock
 62
     0
100
AcDbBlockEnd
  0
BLOCK
  5
268
330
237
100
AcDbEntity
  8
0
  6
Continuous
 62
     2
100
AcDbBlockBegin
  2
BALLOON_BL7
 70
     0
 10
610.3582819145
 20
703.7968186889998
 30
0.0
  3
BALLOON_BL7
  1

  0
CIRCLE
  5
269
330
237
100
AcDbEntity
  8
0
  6
Continuous
 62
     2
100
AcDbCircle
 10
610.3582819145
 20
703.7968186889998
 30
0.0
 40
10.0
  0
MTEXT
  5
26A
330
237
100
AcDbEntity
  8
0
  6
Continuous
 62
     2
100
AcDbMText
 10
599.3426569145
 20
708.7968186889999
 30
0.0
 40
10.0
 41
22.03125
 46
0.0
 71
     1
 72
     1
  1
 3 
 73
     1
 44
1.0
  0
ENDBLK
  5
26B
330
237
100
AcDbEntity
  8
0
  6
ByBlock
 62
     0
100
AcDbBlockEnd
  0
BLOCK
  5
26C
330
238
100
AcDbEntity
  8
0
  6
Continuous
 62
     2
100
AcDbBlockBegin
  2
BALLOON_BL6
 70
     0
 10
610.3582819145
 20
629.1661529007
 30
0.0
  3
BALLOON_BL6
  1

  0
CIRCLE
  5
26D
330
238
100
AcDbEntity
  8
0
  6
Continuous
 62
     2
100
AcDbCircle
 10
610.3582819145
 20
629.1661529007
 30
0.0
 40
10.0
  0
MTEXT
  5
26E
330
238
100
AcDbEntity
  8
0
  6
Continuous
 62
     2
100
AcDbMText
 10
599.3426569145
 20
634.1661529007
 30
0.0
 40
10.0
 41
22.03125
 46
0.0
 71
     1
 72
     1
  1
 5 
 73
     1
 44
1.0
  0
ENDBLK
  5
26F
330
238
100
AcDbEntity
  8
0
  6
ByBlock
 62
     0
100
AcDbBlockEnd
  0
BLOCK
  5
270
330
239
100
AcDbEntity
  8
0
  6
Continuous
 62
     2
100
AcDbBlockBegin
  2
BALLOON_BL5
 70
     0
 10
610.3582819145
 20
584.4871647456999
 30
0.0
  3
BALLOON_BL5
  1

  0
CIRCLE
  5
271
330
239
100
AcDbEntity
  8
0
  6
Continuous
 62
     2
100
AcDbCircle
 10
610.3582819145
 20
584.4871647456999
 30
0.0
 40
10.0
  0
MTEXT
  5
272
330
239
100
AcDbEntity
  8
0
  6
Continuous
 62
     2
100
AcDbMText
 10
599.3426569145
 20
589.4871647456999
 30
0.0
 40
10.0
 41
22.03125
 46
0.0
 71
     1
 72
     1
  1
 6 
 73
     1
 44
1.0
  0
ENDBLK
  5
273
330
239
100
AcDbEntity
  8
0
  6
ByBlock
 62
     0
100
AcDbBlockEnd
  0
BLOCK
  5
274
330
23A
100
AcDbEntity
  8
0
  6
Continuous
 62
     2
100
AcDbBlockBegin
  2
BALLOON_BL4
 70
     0
 10
610.3582819145
 20
297.4657942669
 30
0.0
  3
BALLOON_BL4
  1

  0
CIRCLE
  5
275
330
23A
100
AcDbEntity
  8
0
  6
Continuous
 62
     2
100
AcDbCircle
 10
610.3582819145
 20
297.4657942669
 30
0.0
 40
10.0
  0
MTEXT
  5
276
330
23A
100
AcDbEntity
  8
0
  6
Continuous
 62
     2
100
AcDbMText
 10
595.6707819145
 20
302.4657942669
 30
0.0
 40
10.0
 41
29.375
 46
0.0
 71
     1
 72
     1
  1
 10 
 73
     1
 44
1.0
  0
ENDBLK
  5
277
330
23A
100
AcDbEntity
  8
0
  6
ByBlock
 62
     0
100
AcDbBlockEnd
  0
BLOCK
  5
278
330
23B
100
AcDbEntity
  8
0
  6
Continuous
 62
     2
100
AcDbBlockBegin
  2
BALLOON_BL3
 70
     0
 10
610.3582819145
 20
510.0242886541
 30
0.0
  3
BALLOON_BL3
  1

  0
CIRCLE
  5
279
330
23B
100
AcDbEntity
  8
0
  6
Continuous
 62
     2
100
AcDbCircle
 10
610.3582819145
 20
510.0242886541
 30
0.0
 40
10.0
  0
MTEXT
  5
27A
330
23B
100
AcDbEntity
  8
0
  6
Continuous
 62
     2
100
AcDbMText
 10
599.3426569145
 20
515.0242886541
 30
0.0
 40
10.0
 41
22.03125
 46
0.0
 71
     1
 72
     1
  1
 7 
 73
     1
 44
1.0
  0
ENDBLK
  5
27B
330
23B
100
AcDbEntity
  8
0
  6
ByBlock
 62
     0
100
AcDbBlockEnd
  0
BLOCK
  5
27C
330
23C
100
AcDbEntity
  8
0
  6
Continuous
 62
     5
100
AcDbBlockBegin
  2
SYMBOL_3_BL2
 70
     0
 10
946.568209876
 20
123.3190137305
 30
0.0
  3
SYMBOL_3_BL2
  1

  0
LINE
  5
27D
330
23C
100
AcDbEntity
  8
0
  6
Continuous
 62
     5
100
AcDbLine
 10
929.0915685004
 20
139.3190137305
 30
0.0
 11
938.5660271146001
 21
139.3190137305
 31
0.0
  0
LINE
  5
27E
330
23C
100
AcDbEntity
  8
0
  6
Continuous
 62
     5
100
AcDbLine
 10
929.0915685004
 20
139.3190137305
 30
0.0
 11
938.5660271146001
 21
139.3190137305
 31
0.0
  0
LINE
  5
27F
330
23C
100
AcDbEntity
  8
0
  6
Continuous
 62
     5
100
AcDbLine
 10
964.0448512516
 20
139.3190137305
 30
0.0
 11
964.0448512516
 21
107.3190137305
 31
0.0
  0
LINE
  5
280
330
23C
100
AcDbEntity
  8
0
  6
Continuous
 62
     5
100
AcDbLine
 10
964.0448512516
 20
107.3190137305
 30
0.0
 11
955.0879986621
 21
107.3190137305
 31
0.0
  0
LINE
  5
281
330
23C
100
AcDbEntity
  8
0
  6
Continuous
 62
     5
100
AcDbLine
 10
929.0915685004
 20
107.3190137305
 30
0.0
 11
929.0915685004
 21
139.3190137305
 31
0.0
  0
LINE
  5
282
330
23C
100
AcDbEntity
  8
0
  6
Continuous
 62
     5
100
AcDbLine
 10
946.9218516509
 20
128.8814207494
 30
0.0
 11
955.2776761872999
 21
139.3190137305
 31
0.0
  0
CIRCLE
  5
283
330
23C
100
AcDbEntity
  8
0
  6
Continuous
 62
     5
100
AcDbCircle
 10
938.458259507
 20
129.6202362267
 30
0.0
 40
2.9853175737
  0
LINE
  5
284
330
23C
100
AcDbEntity
  8
0
  6
Continuous
 62
     5
100
AcDbLine
 10
955.0879986621
 20
123.8430081414
 30
0.0
 11
951.2236611600998
 21
123.8430081414
 31
0.0
  0
LINE
  5
285
330
23C
100
AcDbEntity
  8
0
  6
Continuous
 62
     5
100
AcDbLine
 10
955.0879986621
 20
107.3190137305
 30
0.0
 11
955.0879986621
 21
123.8430081414
 31
0.0
  0
LINE
  5
286
330
23C
100
AcDbEntity
  8
0
  6
Continuous
 62
     5
100
AcDbLine
 10
951.2236611600998
 20
107.3190137305
 30
0.0
 11
951.2236611600998
 21
123.8430081414
 31
0.0
  0
LINE
  5
287
330
23C
100
AcDbEntity
  8
0
  6
Continuous
 62
     5
100
AcDbLine
 10
938.4640572103
 20
107.3190137305
 30
0.0
 11
938.4640572103
 21
123.8430081414
 31
0.0
  0
LINE
  5
288
330
23C
100
AcDbEntity
  8
0
  6
Continuous
 62
     5
100
AcDbLine
 10
942.6200421417
 20
107.3190137305
 30
0.0
 11
942.6200421417
 21
123.8430081414
 31
0.0
  0
LINE
  5
289
330
23C
100
AcDbEntity
  8
0
  6
Continuous
 62
     5
100
AcDbLine
 10
946.9218516509
 20
123.8430081414
 30
0.0
 11
946.9218516509
 21
128.8814207494
 31
0.0
  0
LINE
  5
28A
330
23C
100
AcDbEntity
  8
0
  6
Continuous
 62
     5
100
AcDbLine
 10
946.9218516509
 20
128.8814207494
 30
0.0
 11
938.5660271146001
 21
139.3190137305
 31
0.0
  0
LINE
  5
28B
330
23C
100
AcDbEntity
  8
0
  6
Continuous
 62
     5
100
AcDbLine
 10
938.4640572103
 20
107.3190137305
 30
0.0
 11
929.0915685004
 21
107.3190137305
 31
0.0
  0
LINE
  5
28C
330
23C
100
AcDbEntity
  8
0
  6
Continuous
 62
     5
100
AcDbLine
 10
955.2776761872999
 20
139.3190137305
 30
0.0
 11
964.0448512516
 21
139.3190137305
 31
0.0
  0
LINE
  5
28D
330
23C
100
AcDbEntity
  8
0
  6
Continuous
 62
     5
100
AcDbLine
 10
946.9218516509
 20
123.8430081414
 30
0.0
 11
938.4640572103
 21
123.8430081414
 31
0.0
  0
LINE
  5
28E
330
23C
100
AcDbEntity
  8
0
  6
Continuous
 62
     5
100
AcDbLine
 10
951.2236611600998
 20
107.3190137305
 30
0.0
 11
942.6200421417
 21
107.3190137305
 31
0.0
  0
LINE
  5
28F
330
23C
100
AcDbEntity
  8
0
  6
Continuous
 62
     5
100
AcDbLine
 10
939.6839007632001
 20
137.9226332659
 30
0.0
 11
938.2875202985999
 21
139.3190137305
 31
0.0
  0
LINE
  5
290
330
23C
100
AcDbEntity
  8
0
  6
Continuous
 62
     5
100
AcDbLine
 10
940.9404644103998
 20
136.3530096044
 30
0.0
 11
937.9744602841999
 21
139.3190137305
 31
0.0
  0
LINE
  5
291
330
23C
100
AcDbEntity
  8
0
  6
Continuous
 62
     5
100
AcDbLine
 10
942.1970280574999
 20
134.7833859429
 30
0.0
 11
937.6614002698
 21
139.3190137305
 31
0.0
  0
LINE
  5
292
330
23C
100
AcDbEntity
  8
0
  6
Continuous
 62
     5
100
AcDbLine
 10
943.4535917046
 20
133.2137622812999
 30
0.0
 11
937.3483402553999
 21
139.3190137305
 31
0.0
  0
LINE
  5
293
330
23C
100
AcDbEntity
  8
0
  6
Continuous
 62
     5
100
AcDbLine
 10
944.7101553517999
 20
131.6441386198
 30
0.0
 11
937.035280241
 21
139.3190137305
 31
0.0
  0
LINE
  5
294
330
23C
100
AcDbEntity
  8
0
  6
Continuous
 62
     5
100
AcDbLine
 10
945.9667189989
 20
130.0745149583
 30
0.0
 11
936.7222202266001
 21
139.3190137305
 31
0.0
  0
LINE
  5
295
330
23C
100
AcDbEntity
  8
0
  6
Continuous
 62
     5
100
AcDbLine
 10
946.9218516509
 20
128.8063222918
 30
0.0
 11
936.4091602122
 21
139.3190137305
 31
0.0
  0
LINE
  5
296
330
23C
100
AcDbEntity
  8
0
  6
Continuous
 62
     5
100
AcDbLine
 10
946.9218516509
 20
128.4932622775
 30
0.0
 11
936.0961001977999
 21
139.3190137305
 31
0.0
  0
LINE
  5
297
330
23C
100
AcDbEntity
  8
0
  6
Continuous
 62
     5
100
AcDbLine
 10
946.9218516509
 20
128.1802022631
 30
0.0
 11
935.7830401835
 21
139.3190137305
 31
0.0
  0
LINE
  5
298
330
23C
100
AcDbEntity
  8
0
  6
Continuous
 62
     5
100
AcDbLine
 10
946.9218516509
 20
127.8671422487
 30
0.0
 11
935.4699801690999
 21
139.3190137305
 31
0.0
  0
LINE
  5
299
330
23C
100
AcDbEntity
  8
0
  6
Continuous
 62
     5
100
AcDbLine
 10
946.9218516509
 20
127.5540822343
 30
0.0
 11
935.1569201547
 21
139.3190137305
 31
0.0
  0
LINE
  5
29A
330
23C
100
AcDbEntity
  8
0
  6
Continuous
 62
     5
100
AcDbLine
 10
946.9218516509
 20
127.2410222199
 30
0.0
 11
934.8438601403
 21
139.3190137305
 31
0.0
  0
LINE
  5
29B
330
23C
100
AcDbEntity
  8
0
  6
Continuous
 62
     5
100
AcDbLine
 10
946.9218516509
 20
126.9279622055
 30
0.0
 11
934.5308001258999
 21
139.3190137305
 31
0.0
  0
LINE
  5
29C
330
23C
100
AcDbEntity
  8
0
  6
Continuous
 62
     5
100
AcDbLine
 10
946.9218516509
 20
126.6149021911
 30
0.0
 11
934.2177401114998
 21
139.3190137305
 31
0.0
  0
LINE
  5
29D
330
23C
100
AcDbEntity
  8
0
  6
Continuous
 62
     5
100
AcDbLine
 10
946.9218516509
 20
126.3018421767
 30
0.0
 11
933.9046800971001
 21
139.3190137305
 31
0.0
  0
LINE
  5
29E
330
23C
100
AcDbEntity
  8
0
  6
Continuous
 62
     5
100
AcDbLine
 10
946.9218516509
 20
125.9887821623
 30
0.0
 11
933.5916200827
 21
139.3190137305
 31
0.0
  0
LINE
  5
29F
330
23C
100
AcDbEntity
  8
0
  6
Continuous
 62
     5
100
AcDbLine
 10
946.9218516509
 20
125.6757221479
 30
0.0
 11
933.2785600683001
 21
139.3190137305
 31
0.0
  0
LINE
  5
2A0
330
23C
100
AcDbEntity
  8
0
  6
Continuous
 62
     5
100
AcDbLine
 10
946.9218516509
 20
125.3626621335
 30
0.0
 11
940.7412787412999
 21
131.5432350432
 31
0.0
  0
LINE
  5
2A1
330
23C
100
AcDbEntity
  8
0
  6
Continuous
 62
     5
100
AcDbLine
 10
940.3980673686
 20
131.8864464159
 30
0.0
 11
932.9655000539
 21
139.3190137305
 31
0.0
  0
LINE
  5
2A2
330
23C
100
AcDbEntity
  8
0
  6
Continuous
 62
     5
100
AcDbLine
 10
946.9218516509
 20
125.0496021192
 30
0.0
 11
941.2174765287
 21
130.7539772413
 31
0.0
  0
LINE
  5
2A3
330
23C
100
AcDbEntity
  8
0
  6
Continuous
 62
     5
100
AcDbLine
 10
939.5967504709
 20
132.3747032992
 30
0.0
 11
932.6524400394999
 21
139.3190137305
 31
0.0
  0
LINE
  5
2A4
330
23C
100
AcDbEntity
  8
0
  6
Continuous
 62
     5
100
AcDbLine
 10
946.9218516509
 20
124.7365421048
 30
0.0
 11
941.3616987124001
 21
130.2966950433
 31
0.0
  0
LINE
  5
2A5
330
23C
100
AcDbEntity
  8
0
  6
Continuous
 62
     5
100
AcDbLine
 10
939.1376691098999
 20
132.5207246458
 30
0.0
 11
932.3393800252
 21
139.3190137305
 31
0.0
  0
LINE
  5
2A6
330
23C
100
AcDbEntity
  8
0
  6
Continuous
 62
     5
100
AcDbLine
 10
946.9218516509
 20
124.4234820904
 30
0.0
 11
941.4287418656
 21
129.9165918757
 31
0.0
  0
LINE
  5
2A7
330
23C
100
AcDbEntity
  8
0
  6
Continuous
 62
     5
100
AcDbLine
 10
938.7581849772001
 20
132.5871487641
 30
0.0
 11
932.0263200108
 21
139.3190137305
 31
0.0
  0
LINE
  5
2A8
330
23C
100
AcDbEntity
  8
0
  6
Continuous
 62
     5
100
AcDbLine
 10
946.9218516509
 20
124.110422076
 30
0.0
 11
941.4366457783998
 21
129.5956279485
 31
0.0
  0
LINE
  5
2A9
330
23C
100
AcDbEntity
  8
0
  6
Continuous
 62
     5
100
AcDbLine
 10
938.4314139391999
 20
132.6008597877
 30
0.0
 11
931.7132599963999
 21
139.3190137305
 31
0.0
  0
LINE
  5
2AA
330
23C
100
AcDbEntity
  8
0
  6
Continuous
 62
     5
100
AcDbLine
 10
946.8762055711
 20
123.8430081414
 30
0.0
 11
941.418446742
 21
129.3007669706
 31
0.0
  0
LINE
  5
2AB
330
23C
100
AcDbEntity
  8
0
  6
Continuous
 62
     5
100
AcDbLine
 10
938.1392410547
 20
132.5799726578
 30
0.0
 11
931.400199982
 21
139.3190137305
 31
0.0
  0
LINE
  5
2AC
330
23C
100
AcDbEntity
  8
0
  6
Continuous
 62
     5
100
AcDbLine
 10
946.5631455566999
 20
123.8430081414
 30
0.0
 11
941.3831374367999
 21
129.0230162614
 31
0.0
  0
LINE
  5
2AD
330
23C
100
AcDbEntity
  8
0
  6
Continuous
 62
     5
100
AcDbLine
 10
937.8638338989
 20
132.5423197993
 30
0.0
 11
931.0871399675999
 21
139.3190137305
 31
0.0
  0
LINE
  5
2AE
330
23C
100
AcDbEntity
  8
0
  6
Continuous
 62
     5
100
AcDbLine
 10
946.2500855423
 20
123.8430081414
 30
0.0
 11
941.3139934632001
 21
128.7791002205
 31
0.0
  0
LINE
  5
2AF
330
23C
100
AcDbEntity
  8
0
  6
Continuous
 62
     5
100
AcDbLine
 10
937.6163279872001
 20
132.4767656966
 30
0.0
 11
930.7740799532
 21
139.3190137305
 31
0.0
  0
LINE
  5
2B0
330
23C
100
AcDbEntity
  8
0
  6
Continuous
 62
     5
100
AcDbLine
 10
945.9370255278999
 20
123.8430081414
 30
0.0
 11
941.2381026655999
 21
128.5419310037
 31
0.0
  0
LINE
  5
2B1
330
23C
100
AcDbEntity
  8
0
  6
Continuous
 62
     5
100
AcDbLine
 10
937.3818358577999
 20
132.3981978115
 30
0.0
 11
930.4610199388001
 21
139.3190137305
 31
0.0
  0
LINE
  5
2B2
330
23C
100
AcDbEntity
  8
0
  6
Continuous
 62
     5
100
AcDbLine
 10
945.6239655135
 20
123.8430081414
 30
0.0
 11
941.1402670716
 21
128.3267065833
 31
0.0
  0
LINE
  5
2B3
330
23C
100
AcDbEntity
  8
0
  6
Continuous
 62
     5
100
AcDbLine
 10
937.1634997138
 20
132.3034739412
 30
0.0
 11
930.1479599244
 21
139.3190137305
 31
0.0
  0
LINE
  5
2B4
330
23C
100
AcDbEntity
  8
0
  6
Continuous
 62
     5
100
AcDbLine
 10
945.3109054991001
 20
123.8430081414
 30
0.0
 11
941.0337898272999
 21
128.1201238133
 31
0.0
  0
LINE
  5
2B5
330
23C
100
AcDbEntity
  8
0
  6
Continuous
 62
     5
100
AcDbLine
 10
936.9596818572999
 20
132.1942317833
 30
0.0
 11
929.8348999099999
 21
139.3190137305
 31
0.0
  0
LINE
  5
2B6
330
23C
100
AcDbEntity
  8
0
  6
Continuous
 62
     5
100
AcDbLine
 10
944.9978454847
 20
123.8430081414
 30
0.0
 11
940.9103485558999
 21
127.9305050702
 31
0.0
  0
LINE
  5
2B7
330
23C
100
AcDbEntity
  8
0
  6
Continuous
 62
     5
100
AcDbLine
 10
936.7672211727999
 20
132.0736324534
 30
0.0
 11
929.5218398956
 21
139.3190137305
 31
0.0
  0
LINE
  5
2B8
330
23C
100
AcDbEntity
  8
0
  6
Continuous
 62
     5
100
AcDbLine
 10
944.6847854704
 20
123.8430081414
 30
0.0
 11
940.7783906886999
 21
127.7494029231
 31
0.0
  0
LINE
  5
2B9
330
23C
100
AcDbEntity
  8
0
  6
Continuous
 62
     5
100
AcDbLine
 10
936.5888983877999
 20
131.938895224
 30
0.0
 11
929.2087798812
 21
139.3190137305
 31
0.0
  0
LINE
  5
2BA
330
23C
100
AcDbEntity
  8
0
  6
Continuous
 62
     5
100
AcDbLine
 10
944.371725456
 20
123.8430081414
 30
0.0
 11
940.6309336146
 21
127.5837999828
 31
0.0
  0
LINE
  5
2BB
330
23C
100
AcDbEntity
  8
0
  6
Continuous
 62
     5
100
AcDbLine
 10
936.4205731864
 20
131.794160411
 30
0.0
 11
929.0915685004
 21
139.123165097
 31
0.0
  0
LINE
  5
2BC
330
23C
100
AcDbEntity
  8
0
  6
Continuous
 62
     5
100
AcDbLine
 10
944.0586654416
 20
123.8430081414
 30
0.0
 11
940.4756578075
 21
127.4260157755
 31
0.0
  0
LINE
  5
2BD
330
23C
100
AcDbEntity
  8
0
  6
Continuous
 62
     5
100
AcDbLine
 10
936.2640346935
 20
131.6376388895
 30
0.0
 11
929.0915685004
 21
138.8101050826
 31
0.0
  0
LINE
  5
2BE
330
23C
100
AcDbEntity
  8
0
  6
Continuous
 62
     5
100
AcDbLine
 10
943.7456054271999
 20
123.8430081414
 30
0.0
 11
940.3046032316
 21
127.284010337
 31
0.0
  0
LINE
  5
2BF
330
23C
100
AcDbEntity
  8
0
  6
Continuous
 62
     5
100
AcDbLine
 10
936.1167195594001
 20
131.4718940092
 30
0.0
 11
929.0915685004
 21
138.4970450682
 31
0.0
  0
LINE
  5
2C0
330
23C
100
AcDbEntity
  8
0
  6
Continuous
 62
     5
100
AcDbLine
 10
943.4325454128
 20
123.8430081414
 30
0.0
 11
940.1259440746999
 21
127.1496094795
 31
0.0
  0
LINE
  5
2C1
330
23C
100
AcDbEntity
  8
0
  6
Continuous
 62
     5
100
AcDbLine
 10
935.9904570758001
 20
131.2850964784
 30
0.0
 11
929.0915685004
 21
138.1839850538
 31
0.0
  0
LINE
  5
2C2
330
23C
100
AcDbEntity
  8
0
  6
Continuous
 62
     5
100
AcDbLine
 10
943.1194853983999
 20
123.8430081414
 30
0.0
 11
939.9306187667999
 21
127.031874773
 31
0.0
  0
LINE
  5
2C3
330
23C
100
AcDbEntity
  8
0
  6
Continuous
 62
     5
100
AcDbLine
 10
935.8646223958
 20
131.0978711441
 30
0.0
 11
929.0915685004
 21
137.8709250394
 31
0.0
  0
LINE
  5
2C4
330
23C
100
AcDbEntity
  8
0
  6
Continuous
 62
     5
100
AcDbLine
 10
942.8064253839998
 20
123.8430081414
 30
0.0
 11
939.7262360841999
 21
126.9231974412
 31
0.0
  0
LINE
  5
2C5
330
23C
100
AcDbEntity
  8
0
  6
Continuous
 62
     5
100
AcDbLine
 10
935.7637152256
 20
130.8857182998
 30
0.0
 11
929.0915685004
 21
137.557865025
 31
0.0
  0
LINE
  5
2C6
330
23C
100
AcDbEntity
  8
0
  6
Continuous
 62
     5
100
AcDbLine
 10
942.4933653695999
 20
123.8430081414
 30
0.0
 11
939.5047453730999
 21
126.8316281379
 31
0.0
  0
LINE
  5
2C7
330
23C
100
AcDbEntity
  8
0
  6
Continuous
 62
     5
100
AcDbLine
 10
935.6658349636999
 20
130.6705385473
 30
0.0
 11
929.0915685004
 21
137.2448050106
 31
0.0
  0
LINE
  5
2C8
330
23C
100
AcDbEntity
  8
0
  6
Continuous
 62
     5
100
AcDbLine
 10
942.1803053552
 20
123.8430081414
 30
0.0
 11
939.2691792096
 21
126.7541342871
 31
0.0
  0
LINE
  5
2C9
330
23C
100
AcDbEntity
  8
0
  6
Continuous
 62
     5
100
AcDbLine
 10
935.5931698600999
 20
130.4301436365
 30
0.0
 11
929.0915685004
 21
136.9317449963
 31
0.0
  0
LINE
  5
2CA
330
23C
100
AcDbEntity
  8
0
  6
Continuous
 62
     5
100
AcDbLine
 10
941.8672453407999
 20
123.8430081414
 30
0.0
 11
939.0180104359
 21
126.6922430463
 31
0.0
  0
LINE
  5
2CB
330
23C
100
AcDbEntity
  8
0
  6
Continuous
 62
     5
100
AcDbLine
 10
935.5311644147001
 20
130.1790890676
 30
0.0
 11
929.0915685004
 21
136.6186849819
 31
0.0
  0
LINE
  5
2CC
330
23C
100
AcDbEntity
  8
0
  6
Continuous
 62
     5
100
AcDbLine
 10
941.5541853264
 20
123.8430081414
 30
0.0
 11
938.7404509180999
 21
126.6567425498
 31
0.0
  0
LINE
  5
2CD
330
23C
100
AcDbEntity
  8
0
  6
Continuous
 62
     5
100
AcDbLine
 10
935.4917336925
 20
129.9054597754
 30
0.0
 11
929.0915685004
 21
136.3056249675
 31
0.0
  0
LINE
  5
2CE
330
23C
100
AcDbEntity
  8
0
  6
Continuous
 62
     5
100
AcDbLine
 10
941.241125312
 20
123.8430081414
 30
0.0
 11
938.4452350855999
 21
126.6388983679
 31
0.0
  0
LINE
  5
2CF
330
23C
100
AcDbEntity
  8
0
  6
Continuous
 62
     5
100
AcDbLine
 10
935.4814303522999
 20
129.6027031012
 30
0.0
 11
929.0915685004
 21
135.9925649531
 31
0.0
  0
LINE
  5
2D0
330
23C
100
AcDbEntity
  8
0
  6
Continuous
 62
     5
100
AcDbLine
 10
940.9280652977001
 20
123.8430081414
 30
0.0
 11
938.1124340148
 21
126.6586394243
 31
0.0
  0
LINE
  5
2D1
330
23C
100
AcDbEntity
  8
0
  6
Continuous
 62
     5
100
AcDbLine
 10
935.4994031525999
 20
129.2716702865
 30
0.0
 11
929.0915685004
 21
135.6795049387
 31
0.0
  0
LINE
  5
2D2
330
23C
100
AcDbEntity
  8
0
  6
Continuous
 62
     5
100
AcDbLine
 10
940.6150052833
 20
123.8430081414
 30
0.0
 11
937.7253472167
 21
126.732666208
 31
0.0
  0
LINE
  5
2D3
330
23C
100
AcDbEntity
  8
0
  6
Continuous
 62
     5
100
AcDbLine
 10
935.5660184183999
 20
128.8919950063
 30
0.0
 11
929.0915685004
 21
135.3664449243
 31
0.0
  0
LINE
  5
2D4
330
23C
100
AcDbEntity
  8
0
  6
Continuous
 62
     5
100
AcDbLine
 10
940.3019452688999
 20
123.8430081414
 30
0.0
 11
937.2510952517998
 21
126.8938581585
 31
0.0
  0
LINE
  5
2D5
330
23C
100
AcDbEntity
  8
0
  6
Continuous
 62
     5
100
AcDbLine
 10
935.7367232487
 20
128.4082301616
 30
0.0
 11
929.0915685004
 21
135.0533849099
 31
0.0
  0
LINE
  5
2D6
330
23C
100
AcDbEntity
  8
0
  6
Continuous
 62
     5
100
AcDbLine
 10
939.9888852545
 20
123.8430081414
 30
0.0
 11
929.0915685004
 21
134.7403248955
 31
0.0
  0
LINE
  5
2D7
330
23C
100
AcDbEntity
  8
0
  6
Continuous
 62
     5
100
AcDbLine
 10
939.6758252400999
 20
123.8430081414
 30
0.0
 11
929.0915685004
 21
134.4272648811
 31
0.0
  0
LINE
  5
2D8
330
23C
100
AcDbEntity
  8
0
  6
Continuous
 62
     5
100
AcDbLine
 10
939.3627652257
 20
123.8430081414
 30
0.0
 11
929.0915685004
 21
134.1142048667
 31
0.0
  0
LINE
  5
2D9
330
23C
100
AcDbEntity
  8
0
  6
Continuous
 62
     5
100
AcDbLine
 10
939.0497052113001
 20
123.8430081414
 30
0.0
 11
929.0915685004
 21
133.8011448523
 31
0.0
  0
LINE
  5
2DA
330
23C
100
AcDbEntity
  8
0
  6
Continuous
 62
     5
100
AcDbLine
 10
938.7366451968999
 20
123.8430081414
 30
0.0
 11
929.0915685004
 21
133.488084838
 31
0.0
  0
LINE
  5
2DB
330
23C
100
AcDbEntity
  8
0
  6
Continuous
 62
     5
100
AcDbLine
 10
938.4640572103
 20
123.8025361137
 30
0.0
 11
929.0915685004
 21
133.1750248236
 31
0.0
  0
LINE
  5
2DC
330
23C
100
AcDbEntity
  8
0
  6
Continuous
 62
     5
100
AcDbLine
 10
938.4640572103
 20
123.4894760993
 30
0.0
 11
929.0915685004
 21
132.8619648092
 31
0.0
  0
LINE
  5
2DD
330
23C
100
AcDbEntity
  8
0
  6
Continuous
 62
     5
100
AcDbLine
 10
938.4640572103
 20
123.1764160849
 30
0.0
 11
929.0915685004
 21
132.5489047948
 31
0.0
  0
LINE
  5
2DE
330
23C
100
AcDbEntity
  8
0
  6
Continuous
 62
     5
100
AcDbLine
 10
938.4640572103
 20
122.8633560705
 30
0.0
 11
929.0915685004
 21
132.2358447804
 31
0.0
  0
LINE
  5
2DF
330
23C
100
AcDbEntity
  8
0
  6
Continuous
 62
     5
100
AcDbLine
 10
938.4640572103
 20
122.5502960561
 30
0.0
 11
929.0915685004
 21
131.922784766
 31
0.0
  0
LINE
  5
2E0
330
23C
100
AcDbEntity
  8
0
  6
Continuous
 62
     5
100
AcDbLine
 10
938.4640572103
 20
122.2372360417
 30
0.0
 11
929.0915685004
 21
131.6097247516
 31
0.0
  0
LINE
  5
2E1
330
23C
100
AcDbEntity
  8
0
  6
Continuous
 62
     5
100
AcDbLine
 10
938.4640572103
 20
121.9241760274
 30
0.0
 11
929.0915685004
 21
131.2966647372
 31
0.0
  0
LINE
  5
2E2
330
23C
100
AcDbEntity
  8
0
  6
Continuous
 62
     5
100
AcDbLine
 10
938.4640572103
 20
121.611116013
 30
0.0
 11
929.0915685004
 21
130.9836047228
 31
0.0
  0
LINE
  5
2E3
330
23C
100
AcDbEntity
  8
0
  6
Continuous
 62
     5
100
AcDbLine
 10
938.4640572103
 20
121.2980559986
 30
0.0
 11
929.0915685004
 21
130.6705447084
 31
0.0
  0
LINE
  5
2E4
330
23C
100
AcDbEntity
  8
0
  6
Continuous
 62
     5
100
AcDbLine
 10
938.4640572103
 20
120.9849959842
 30
0.0
 11
929.0915685004
 21
130.357484694
 31
0.0
  0
LINE
  5
2E5
330
23C
100
AcDbEntity
  8
0
  6
Continuous
 62
     5
100
AcDbLine
 10
938.4640572103
 20
120.6719359698
 30
0.0
 11
929.0915685004
 21
130.0444246796
 31
0.0
  0
LINE
  5
2E6
330
23C
100
AcDbEntity
  8
0
  6
Continuous
 62
     5
100
AcDbLine
 10
938.4640572103
 20
120.3588759554
 30
0.0
 11
929.0915685004
 21
129.7313646653
 31
0.0
  0
LINE
  5
2E7
330
23C
100
AcDbEntity
  8
0
  6
Continuous
 62
     5
100
AcDbLine
 10
938.4640572103
 20
120.045815941
 30
0.0
 11
929.0915685004
 21
129.4183046509
 31
0.0
  0
LINE
  5
2E8
330
23C
100
AcDbEntity
  8
0
  6
Continuous
 62
     5
100
AcDbLine
 10
938.4640572103
 20
119.7327559266
 30
0.0
 11
929.0915685004
 21
129.1052446365
 31
0.0
  0
LINE
  5
2E9
330
23C
100
AcDbEntity
  8
0
  6
Continuous
 62
     5
100
AcDbLine
 10
938.4640572103
 20
119.4196959122
 30
0.0
 11
929.0915685004
 21
128.7921846221
 31
0.0
  0
LINE
  5
2EA
330
23C
100
AcDbEntity
  8
0
  6
Continuous
 62
     5
100
AcDbLine
 10
938.4640572103
 20
119.1066358978
 30
0.0
 11
929.0915685004
 21
128.4791246077
 31
0.0
  0
LINE
  5
2EB
330
23C
100
AcDbEntity
  8
0
  6
Continuous
 62
     5
100
AcDbLine
 10
938.4640572103
 20
118.7935758834
 30
0.0
 11
929.0915685004
 21
128.1660645933
 31
0.0
  0
LINE
  5
2EC
330
23C
100
AcDbEntity
  8
0
  6
Continuous
 62
     5
100
AcDbLine
 10
938.4640572103
 20
118.480515869
 30
0.0
 11
929.0915685004
 21
127.8530045789
 31
0.0
  0
LINE
  5
2ED
330
23C
100
AcDbEntity
  8
0
  6
Continuous
 62
     5
100
AcDbLine
 10
938.4640572103
 20
118.1674558547
 30
0.0
 11
929.0915685004
 21
127.5399445645
 31
0.0
  0
LINE
  5
2EE
330
23C
100
AcDbEntity
  8
0
  6
Continuous
 62
     5
100
AcDbLine
 10
938.4640572103
 20
117.8543958403
 30
0.0
 11
929.0915685004
 21
127.2268845501
 31
0.0
  0
LINE
  5
2EF
330
23C
100
AcDbEntity
  8
0
  6
Continuous
 62
     5
100
AcDbLine
 10
938.4640572103
 20
117.5413358259
 30
0.0
 11
929.0915685004
 21
126.9138245357
 31
0.0
  0
LINE
  5
2F0
330
23C
100
AcDbEntity
  8
0
  6
Continuous
 62
     5
100
AcDbLine
 10
938.4640572103
 20
117.2282758115
 30
0.0
 11
929.0915685004
 21
126.6007645213
 31
0.0
  0
LINE
  5
2F1
330
23C
100
AcDbEntity
  8
0
  6
Continuous
 62
     5
100
AcDbLine
 10
938.4640572103
 20
116.9152157971
 30
0.0
 11
929.0915685004
 21
126.287704507
 31
0.0
  0
LINE
  5
2F2
330
23C
100
AcDbEntity
  8
0
  6
Continuous
 62
     5
100
AcDbLine
 10
938.4640572103
 20
116.6021557827
 30
0.0
 11
929.0915685004
 21
125.9746444926
 31
0.0
  0
LINE
  5
2F3
330
23C
100
AcDbEntity
  8
0
  6
Continuous
 62
     5
100
AcDbLine
 10
938.4640572103
 20
116.2890957683
 30
0.0
 11
929.0915685004
 21
125.6615844782
 31
0.0
  0
LINE
  5
2F4
330
23C
100
AcDbEntity
  8
0
  6
Continuous
 62
     5
100
AcDbLine
 10
938.4640572103
 20
115.9760357539
 30
0.0
 11
929.0915685004
 21
125.3485244638
 31
0.0
  0
LINE
  5
2F5
330
23C
100
AcDbEntity
  8
0
  6
Continuous
 62
     5
100
AcDbLine
 10
938.4640572103
 20
115.6629757395
 30
0.0
 11
929.0915685004
 21
125.0354644494
 31
0.0
  0
LINE
  5
2F6
330
23C
100
AcDbEntity
  8
0
  6
Continuous
 62
     5
100
AcDbLine
 10
938.4640572103
 20
115.3499157251
 30
0.0
 11
929.0915685004
 21
124.722404435
 31
0.0
  0
LINE
  5
2F7
330
23C
100
AcDbEntity
  8
0
  6
Continuous
 62
     5
100
AcDbLine
 10
938.4640572103
 20
115.0368557107
 30
0.0
 11
929.0915685004
 21
124.4093444206
 31
0.0
  0
LINE
  5
2F8
330
23C
100
AcDbEntity
  8
0
  6
Continuous
 62
     5
100
AcDbLine
 10
938.4640572103
 20
114.7237956964
 30
0.0
 11
929.0915685004
 21
124.0962844062
 31
0.0
  0
LINE
  5
2F9
330
23C
100
AcDbEntity
  8
0
  6
Continuous
 62
     5
100
AcDbLine
 10
938.4640572103
 20
114.410735682
 30
0.0
 11
929.0915685004
 21
123.7832243918
 31
0.0
  0
LINE
  5
2FA
330
23C
100
AcDbEntity
  8
0
  6
Continuous
 62
     5
100
AcDbLine
 10
938.4640572103
 20
114.0976756676
 30
0.0
 11
929.0915685004
 21
123.4701643774
 31
0.0
  0
LINE
  5
2FB
330
23C
100
AcDbEntity
  8
0
  6
Continuous
 62
     5
100
AcDbLine
 10
938.4640572103
 20
113.7846156532
 30
0.0
 11
929.0915685004
 21
123.157104363
 31
0.0
  0
LINE
  5
2FC
330
23C
100
AcDbEntity
  8
0
  6
Continuous
 62
     5
100
AcDbLine
 10
938.4640572103
 20
113.4715556388
 30
0.0
 11
929.0915685004
 21
122.8440443487
 31
0.0
  0
LINE
  5
2FD
330
23C
100
AcDbEntity
  8
0
  6
Continuous
 62
     5
100
AcDbLine
 10
938.4640572103
 20
113.1584956244
 30
0.0
 11
929.0915685004
 21
122.5309843343
 31
0.0
  0
LINE
  5
2FE
330
23C
100
AcDbEntity
  8
0
  6
Continuous
 62
     5
100
AcDbLine
 10
938.4640572103
 20
112.84543561
 30
0.0
 11
929.0915685004
 21
122.2179243199
 31
0.0
  0
LINE
  5
2FF
330
23C
100
AcDbEntity
  8
0
  6
Continuous
 62
     5
100
AcDbLine
 10
938.4640572103
 20
112.5323755956
 30
0.0
 11
929.0915685004
 21
121.9048643055
 31
0.0
  0
LINE
  5
300
330
23C
100
AcDbEntity
  8
0
  6
Continuous
 62
     5
100
AcDbLine
 10
938.4640572103
 20
112.2193155812
 30
0.0
 11
929.0915685004
 21
121.5918042911
 31
0.0
  0
LINE
  5
301
330
23C
100
AcDbEntity
  8
0
  6
Continuous
 62
     5
100
AcDbLine
 10
938.4640572103
 20
111.9062555668
 30
0.0
 11
929.0915685004
 21
121.2787442767
 31
0.0
  0
LINE
  5
302
330
23C
100
AcDbEntity
  8
0
  6
Continuous
 62
     5
100
AcDbLine
 10
938.4640572103
 20
111.5931955524
 30
0.0
 11
929.0915685004
 21
120.9656842623
 31
0.0
  0
LINE
  5
303
330
23C
100
AcDbEntity
  8
0
  6
Continuous
 62
     5
100
AcDbLine
 10
938.4640572103
 20
111.2801355381
 30
0.0
 11
929.0915685004
 21
120.6526242479
 31
0.0
  0
LINE
  5
304
330
23C
100
AcDbEntity
  8
0
  6
Continuous
 62
     5
100
AcDbLine
 10
938.4640572103
 20
110.9670755237
 30
0.0
 11
929.0915685004
 21
120.3395642335
 31
0.0
  0
LINE
  5
305
330
23C
100
AcDbEntity
  8
0
  6
Continuous
 62
     5
100
AcDbLine
 10
938.4640572103
 20
110.6540155093
 30
0.0
 11
929.0915685004
 21
120.0265042191
 31
0.0
  0
LINE
  5
306
330
23C
100
AcDbEntity
  8
0
  6
Continuous
 62
     5
100
AcDbLine
 10
938.4640572103
 20
110.3409554949
 30
0.0
 11
929.0915685004
 21
119.7134442047
 31
0.0
  0
LINE
  5
307
330
23C
100
AcDbEntity
  8
0
  6
Continuous
 62
     5
100
AcDbLine
 10
938.4640572103
 20
110.0278954805
 30
0.0
 11
929.0915685004
 21
119.4003841904
 31
0.0
  0
LINE
  5
308
330
23C
100
AcDbEntity
  8
0
  6
Continuous
 62
     5
100
AcDbLine
 10
938.4640572103
 20
109.7148354661
 30
0.0
 11
929.0915685004
 21
119.087324176
 31
0.0
  0
LINE
  5
309
330
23C
100
AcDbEntity
  8
0
  6
Continuous
 62
     5
100
AcDbLine
 10
938.4640572103
 20
109.4017754517
 30
0.0
 11
929.0915685004
 21
118.7742641616
 31
0.0
  0
LINE
  5
30A
330
23C
100
AcDbEntity
  8
0
  6
Continuous
 62
     5
100
AcDbLine
 10
938.4640572103
 20
109.0887154373
 30
0.0
 11
929.0915685004
 21
118.4612041472
 31
0.0
  0
LINE
  5
30B
330
23C
100
AcDbEntity
  8
0
  6
Continuous
 62
     5
100
AcDbLine
 10
938.4640572103
 20
108.7756554229
 30
0.0
 11
929.0915685004
 21
118.1481441328
 31
0.0
  0
LINE
  5
30C
330
23C
100
AcDbEntity
  8
0
  6
Continuous
 62
     5
100
AcDbLine
 10
938.4640572103
 20
108.4625954085
 30
0.0
 11
929.0915685004
 21
117.8350841184
 31
0.0
  0
LINE
  5
30D
330
23C
100
AcDbEntity
  8
0
  6
Continuous
 62
     5
100
AcDbLine
 10
938.4640572103
 20
108.1495353941
 30
0.0
 11
929.0915685004
 21
117.522024104
 31
0.0
  0
LINE
  5
30E
330
23C
100
AcDbEntity
  8
0
  6
Continuous
 62
     5
100
AcDbLine
 10
938.4640572103
 20
107.8364753798
 30
0.0
 11
929.0915685004
 21
117.2089640896
 31
0.0
  0
LINE
  5
30F
330
23C
100
AcDbEntity
  8
0
  6
Continuous
 62
     5
100
AcDbLine
 10
938.4640572103
 20
107.5234153654
 30
0.0
 11
929.0915685004
 21
116.8959040752
 31
0.0
  0
LINE
  5
310
330
23C
100
AcDbEntity
  8
0
  6
Continuous
 62
     5
100
AcDbLine
 10
938.3553988307001
 20
107.3190137305
 30
0.0
 11
929.0915685004
 21
116.5828440608
 31
0.0
  0
LINE
  5
311
330
23C
100
AcDbEntity
  8
0
  6
Continuous
 62
     5
100
AcDbLine
 10
938.0423388163
 20
107.3190137305
 30
0.0
 11
929.0915685004
 21
116.2697840464
 31
0.0
  0
LINE
  5
312
330
23C
100
AcDbEntity
  8
0
  6
Continuous
 62
     5
100
AcDbLine
 10
937.7292788019
 20
107.3190137305
 30
0.0
 11
929.0915685004
 21
115.956724032
 31
0.0
  0
LINE
  5
313
330
23C
100
AcDbEntity
  8
0
  6
Continuous
 62
     5
100
AcDbLine
 10
937.4162187875
 20
107.3190137305
 30
0.0
 11
929.0915685004
 21
115.6436640177
 31
0.0
  0
LINE
  5
314
330
23C
100
AcDbEntity
  8
0
  6
Continuous
 62
     5
100
AcDbLine
 10
937.1031587731
 20
107.3190137305
 30
0.0
 11
929.0915685004
 21
115.3306040033
 31
0.0
  0
LINE
  5
315
330
23C
100
AcDbEntity
  8
0
  6
Continuous
 62
     5
100
AcDbLine
 10
936.7900987586999
 20
107.3190137305
 30
0.0
 11
929.0915685004
 21
115.0175439889
 31
0.0
  0
LINE
  5
316
330
23C
100
AcDbEntity
  8
0
  6
Continuous
 62
     5
100
AcDbLine
 10
936.4770387442998
 20
107.3190137305
 30
0.0
 11
929.0915685004
 21
114.7044839745
 31
0.0
  0
LINE
  5
317
330
23C
100
AcDbEntity
  8
0
  6
Continuous
 62
     5
100
AcDbLine
 10
936.1639787300001
 20
107.3190137305
 30
0.0
 11
929.0915685004
 21
114.3914239601
 31
0.0
  0
LINE
  5
318
330
23C
100
AcDbEntity
  8
0
  6
Continuous
 62
     5
100
AcDbLine
 10
935.8509187156
 20
107.3190137305
 30
0.0
 11
929.0915685004
 21
114.0783639457
 31
0.0
  0
LINE
  5
319
330
23C
100
AcDbEntity
  8
0
  6
Continuous
 62
     5
100
AcDbLine
 10
935.5378587011999
 20
107.3190137305
 30
0.0
 11
929.0915685004
 21
113.7653039313
 31
0.0
  0
LINE
  5
31A
330
23C
100
AcDbEntity
  8
0
  6
Continuous
 62
     5
100
AcDbLine
 10
935.2247986867999
 20
107.3190137305
 30
0.0
 11
929.0915685004
 21
113.4522439169
 31
0.0
  0
LINE
  5
31B
330
23C
100
AcDbEntity
  8
0
  6
Continuous
 62
     5
100
AcDbLine
 10
934.9117386724
 20
107.3190137305
 30
0.0
 11
929.0915685004
 21
113.1391839025
 31
0.0
  0
LINE
  5
31C
330
23C
100
AcDbEntity
  8
0
  6
Continuous
 62
     5
100
AcDbLine
 10
934.5986786580001
 20
107.3190137305
 30
0.0
 11
929.0915685004
 21
112.8261238881
 31
0.0
  0
LINE
  5
31D
330
23C
100
AcDbEntity
  8
0
  6
Continuous
 62
     5
100
AcDbLine
 10
934.2856186436
 20
107.3190137305
 30
0.0
 11
929.0915685004
 21
112.5130638737
 31
0.0
  0
LINE
  5
31E
330
23C
100
AcDbEntity
  8
0
  6
Continuous
 62
     5
100
AcDbLine
 10
933.9725586291999
 20
107.3190137305
 30
0.0
 11
929.0915685004
 21
112.2000038594
 31
0.0
  0
LINE
  5
31F
330
23C
100
AcDbEntity
  8
0
  6
Continuous
 62
     5
100
AcDbLine
 10
933.6594986148
 20
107.3190137305
 30
0.0
 11
929.0915685004
 21
111.886943845
 31
0.0
  0
LINE
  5
320
330
23C
100
AcDbEntity
  8
0
  6
Continuous
 62
     5
100
AcDbLine
 10
933.3464386003999
 20
107.3190137305
 30
0.0
 11
929.0915685004
 21
111.5738838306
 31
0.0
  0
LINE
  5
321
330
23C
100
AcDbEntity
  8
0
  6
Continuous
 62
     5
100
AcDbLine
 10
933.033378586
 20
107.3190137305
 30
0.0
 11
929.0915685004
 21
111.2608238162
 31
0.0
  0
LINE
  5
322
330
23C
100
AcDbEntity
  8
0
  6
Continuous
 62
     5
100
AcDbLine
 10
932.7203185716999
 20
107.3190137305
 30
0.0
 11
929.0915685004
 21
110.9477638018
 31
0.0
  0
LINE
  5
323
330
23C
100
AcDbEntity
  8
0
  6
Continuous
 62
     5
100
AcDbLine
 10
932.4072585573
 20
107.3190137305
 30
0.0
 11
929.0915685004
 21
110.6347037874
 31
0.0
  0
LINE
  5
324
330
23C
100
AcDbEntity
  8
0
  6
Continuous
 62
     5
100
AcDbLine
 10
932.0941985429
 20
107.3190137305
 30
0.0
 11
929.0915685004
 21
110.321643773
 31
0.0
  0
LINE
  5
325
330
23C
100
AcDbEntity
  8
0
  6
Continuous
 62
     5
100
AcDbLine
 10
931.7811385285001
 20
107.3190137305
 30
0.0
 11
929.0915685004
 21
110.0085837586
 31
0.0
  0
LINE
  5
326
330
23C
100
AcDbEntity
  8
0
  6
Continuous
 62
     5
100
AcDbLine
 10
931.4680785141
 20
107.3190137305
 30
0.0
 11
929.0915685004
 21
109.6955237442
 31
0.0
  0
LINE
  5
327
330
23C
100
AcDbEntity
  8
0
  6
Continuous
 62
     5
100
AcDbLine
 10
931.1550184996999
 20
107.3190137305
 30
0.0
 11
929.0915685004
 21
109.3824637298
 31
0.0
  0
LINE
  5
328
330
23C
100
AcDbEntity
  8
0
  6
Continuous
 62
     5
100
AcDbLine
 10
930.8419584853
 20
107.3190137305
 30
0.0
 11
929.0915685004
 21
109.0694037154
 31
0.0
  0
LINE
  5
329
330
23C
100
AcDbEntity
  8
0
  6
Continuous
 62
     5
100
AcDbLine
 10
930.5288984708999
 20
107.3190137305
 30
0.0
 11
929.0915685004
 21
108.7563437011
 31
0.0
  0
LINE
  5
32A
330
23C
100
AcDbEntity
  8
0
  6
Continuous
 62
     5
100
AcDbLine
 10
930.2158384564998
 20
107.3190137305
 30
0.0
 11
929.0915685004
 21
108.4432836867
 31
0.0
  0
LINE
  5
32B
330
23C
100
AcDbEntity
  8
0
  6
Continuous
 62
     5
100
AcDbLine
 10
929.9027784420999
 20
107.3190137305
 30
0.0
 11
929.0915685004
 21
108.1302236723
 31
0.0
  0
LINE
  5
32C
330
23C
100
AcDbEntity
  8
0
  6
Continuous
 62
     5
100
AcDbLine
 10
929.5897184277
 20
107.3190137305
 30
0.0
 11
929.0915685004
 21
107.8171636579
 31
0.0
  0
LINE
  5
32D
330
23C
100
AcDbEntity
  8
0
  6
Continuous
 62
     5
100
AcDbLine
 10
929.2766584134
 20
107.3190137305
 30
0.0
 11
929.0915685004
 21
107.5041036435
 31
0.0
  0
LINE
  5
32E
330
23C
100
AcDbEntity
  8
0
  6
Continuous
 62
     5
100
AcDbLine
 10
938.4585809455
 20
107.3190137305
 30
0.0
 11
938.4640572103
 21
107.3244899953
 31
0.0
  0
LINE
  5
32F
330
23C
100
AcDbEntity
  8
0
  6
Continuous
 62
     5
100
AcDbLine
 10
938.1455209310999
 20
107.3190137305
 30
0.0
 11
938.4640572103
 21
107.6375500097
 31
0.0
  0
LINE
  5
330
330
23C
100
AcDbEntity
  8
0
  6
Continuous
 62
     5
100
AcDbLine
 10
937.8324609167
 20
107.3190137305
 30
0.0
 11
938.4640572103
 21
107.9506100241
 31
0.0
  0
LINE
  5
331
330
23C
100
AcDbEntity
  8
0
  6
Continuous
 62
     5
100
AcDbLine
 10
937.5194009022999
 20
107.3190137305
 30
0.0
 11
938.4640572103
 21
108.2636700385
 31
0.0
  0
LINE
  5
332
330
23C
100
AcDbEntity
  8
0
  6
Continuous
 62
     5
100
AcDbLine
 10
937.2063408878998
 20
107.3190137305
 30
0.0
 11
938.4640572103
 21
108.5767300529
 31
0.0
  0
LINE
  5
333
330
23C
100
AcDbEntity
  8
0
  6
Continuous
 62
     5
100
AcDbLine
 10
936.8932808735001
 20
107.3190137305
 30
0.0
 11
938.4640572103
 21
108.8897900673
 31
0.0
  0
LINE
  5
334
330
23C
100
AcDbEntity
  8
0
  6
Continuous
 62
     5
100
AcDbLine
 10
936.5802208591
 20
107.3190137305
 30
0.0
 11
938.4640572103
 21
109.2028500817
 31
0.0
  0
LINE
  5
335
330
23C
100
AcDbEntity
  8
0
  6
Continuous
 62
     5
100
AcDbLine
 10
936.2671608447
 20
107.3190137305
 30
0.0
 11
938.4640572103
 21
109.5159100961
 31
0.0
  0
LINE
  5
336
330
23C
100
AcDbEntity
  8
0
  6
Continuous
 62
     5
100
AcDbLine
 10
935.9541008303999
 20
107.3190137305
 30
0.0
 11
938.4640572103
 21
109.8289701105
 31
0.0
  0
LINE
  5
337
330
23C
100
AcDbEntity
  8
0
  6
Continuous
 62
     5
100
AcDbLine
 10
935.641040816
 20
107.3190137305
 30
0.0
 11
938.4640572103
 21
110.1420301249
 31
0.0
  0
LINE
  5
338
330
23C
100
AcDbEntity
  8
0
  6
Continuous
 62
     5
100
AcDbLine
 10
935.3279808015999
 20
107.3190137305
 30
0.0
 11
938.4640572103
 21
110.4550901393
 31
0.0
  0
LINE
  5
339
330
23C
100
AcDbEntity
  8
0
  6
Continuous
 62
     5
100
AcDbLine
 10
935.0149207872
 20
107.3190137305
 30
0.0
 11
938.4640572103
 21
110.7681501536
 31
0.0
  0
LINE
  5
33A
330
23C
100
AcDbEntity
  8
0
  6
Continuous
 62
     5
100
AcDbLine
 10
934.7018607727999
 20
107.3190137305
 30
0.0
 11
938.4640572103
 21
111.081210168
 31
0.0
  0
LINE
  5
33B
330
23C
100
AcDbEntity
  8
0
  6
Continuous
 62
     5
100
AcDbLine
 10
934.3888007583998
 20
107.3190137305
 30
0.0
 11
938.4640572103
 21
111.3942701824
 31
0.0
  0
LINE
  5
33C
330
23C
100
AcDbEntity
  8
0
  6
Continuous
 62
     5
100
AcDbLine
 10
934.0757407439999
 20
107.3190137305
 30
0.0
 11
938.4640572103
 21
111.7073301968
 31
0.0
  0
LINE
  5
33D
330
23C
100
AcDbEntity
  8
0
  6
Continuous
 62
     5
100
AcDbLine
 10
933.7626807296
 20
107.3190137305
 30
0.0
 11
938.4640572103
 21
112.0203902112
 31
0.0
  0
LINE
  5
33E
330
23C
100
AcDbEntity
  8
0
  6
Continuous
 62
     5
100
AcDbLine
 10
933.4496207152
 20
107.3190137305
 30
0.0
 11
938.4640572103
 21
112.3334502256
 31
0.0
  0
LINE
  5
33F
330
23C
100
AcDbEntity
  8
0
  6
Continuous
 62
     5
100
AcDbLine
 10
933.1365607008001
 20
107.3190137305
 30
0.0
 11
938.4640572103
 21
112.64651024
 31
0.0
  0
LINE
  5
340
330
23C
100
AcDbEntity
  8
0
  6
Continuous
 62
     5
100
AcDbLine
 10
932.8235006864
 20
107.3190137305
 30
0.0
 11
938.4640572103
 21
112.9595702544
 31
0.0
  0
LINE
  5
341
330
23C
100
AcDbEntity
  8
0
  6
Continuous
 62
     5
100
AcDbLine
 10
932.5104406719999
 20
107.3190137305
 30
0.0
 11
938.4640572103
 21
113.2726302688
 31
0.0
  0
LINE
  5
342
330
23C
100
AcDbEntity
  8
0
  6
Continuous
 62
     5
100
AcDbLine
 10
932.1973806577
 20
107.3190137305
 30
0.0
 11
938.4640572103
 21
113.5856902832
 31
0.0
  0
LINE
  5
343
330
23C
100
AcDbEntity
  8
0
  6
Continuous
 62
     5
100
AcDbLine
 10
931.8843206432999
 20
107.3190137305
 30
0.0
 11
938.4640572103
 21
113.8987502976
 31
0.0
  0
LINE
  5
344
330
23C
100
AcDbEntity
  8
0
  6
Continuous
 62
     5
100
AcDbLine
 10
931.5712606288998
 20
107.3190137305
 30
0.0
 11
938.4640572103
 21
114.2118103119
 31
0.0
  0
LINE
  5
345
330
23C
100
AcDbEntity
  8
0
  6
Continuous
 62
     5
100
AcDbLine
 10
931.2582006144999
 20
107.3190137305
 30
0.0
 11
938.4640572103
 21
114.5248703263
 31
0.0
  0
LINE
  5
346
330
23C
100
AcDbEntity
  8
0
  6
Continuous
 62
     5
100
AcDbLine
 10
930.9451406001
 20
107.3190137305
 30
0.0
 11
938.4640572103
 21
114.8379303407
 31
0.0
  0
LINE
  5
347
330
23C
100
AcDbEntity
  8
0
  6
Continuous
 62
     5
100
AcDbLine
 10
930.6320805857001
 20
107.3190137305
 30
0.0
 11
938.4640572103
 21
115.1509903551
 31
0.0
  0
LINE
  5
348
330
23C
100
AcDbEntity
  8
0
  6
Continuous
 62
     5
100
AcDbLine
 10
930.3190205713001
 20
107.3190137305
 30
0.0
 11
938.4640572103
 21
115.4640503695
 31
0.0
  0
LINE
  5
349
330
23C
100
AcDbEntity
  8
0
  6
Continuous
 62
     5
100
AcDbLine
 10
946.8430149821999
 20
123.8430081414
 30
0.0
 11
946.9218516509
 21
123.9218448102
 31
0.0
  0
LINE
  5
34A
330
23C
100
AcDbEntity
  8
0
  6
Continuous
 62
     5
100
AcDbLine
 10
930.0059605569
 20
107.3190137305
 30
0.0
 11
938.4640572103
 21
115.7771103839
 31
0.0
  0
LINE
  5
34B
330
23C
100
AcDbEntity
  8
0
  6
Continuous
 62
     5
100
AcDbLine
 10
946.5299549678
 20
123.8430081414
 30
0.0
 11
946.9218516509
 21
124.2349048246
 31
0.0
  0
LINE
  5
34C
330
23C
100
AcDbEntity
  8
0
  6
Continuous
 62
     5
100
AcDbLine
 10
929.6929005424999
 20
107.3190137305
 30
0.0
 11
938.4640572103
 21
116.0901703983
 31
0.0
  0
LINE
  5
34D
330
23C
100
AcDbEntity
  8
0
  6
Continuous
 62
     5
100
AcDbLine
 10
946.2168949534
 20
123.8430081414
 30
0.0
 11
946.9218516509
 21
124.547964839
 31
0.0
  0
LINE
  5
34E
330
23C
100
AcDbEntity
  8
0
  6
Continuous
 62
     5
100
AcDbLine
 10
929.3798405281
 20
107.3190137305
 30
0.0
 11
938.4640572103
 21
116.4032304127
 31
0.0
  0
LINE
  5
34F
330
23C
100
AcDbEntity
  8
0
  6
Continuous
 62
     5
100
AcDbLine
 10
945.9038349389999
 20
123.8430081414
 30
0.0
 11
946.9218516509
 21
124.8610248534
 31
0.0
  0
LINE
  5
350
330
23C
100
AcDbEntity
  8
0
  6
Continuous
 62
     5
100
AcDbLine
 10
929.0915685004
 20
107.3438017172
 30
0.0
 11
938.4640572103
 21
116.7162904271
 31
0.0
  0
LINE
  5
351
330
23C
100
AcDbEntity
  8
0
  6
Continuous
 62
     5
100
AcDbLine
 10
945.5907749246
 20
123.8430081414
 30
0.0
 11
946.9218516509
 21
125.1740848677
 31
0.0
  0
LINE
  5
352
330
23C
100
AcDbEntity
  8
0
  6
Continuous
 62
     5
100
AcDbLine
 10
929.0915685004
 20
107.6568617316
 30
0.0
 11
938.4640572103
 21
117.0293504415
 31
0.0
  0
LINE
  5
353
330
23C
100
AcDbEntity
  8
0
  6
Continuous
 62
     5
100
AcDbLine
 10
945.2777149102001
 20
123.8430081414
 30
0.0
 11
946.9218516509
 21
125.4871448821
 31
0.0
  0
LINE
  5
354
330
23C
100
AcDbEntity
  8
0
  6
Continuous
 62
     5
100
AcDbLine
 10
929.0915685004
 20
107.969921746
 30
0.0
 11
938.4640572103
 21
117.3424104559
 31
0.0
  0
LINE
  5
355
330
23C
100
AcDbEntity
  8
0
  6
Continuous
 62
     5
100
AcDbLine
 10
944.9646548958998
 20
123.8430081414
 30
0.0
 11
946.9218516509
 21
125.8002048965
 31
0.0
  0
LINE
  5
356
330
23C
100
AcDbEntity
  8
0
  6
Continuous
 62
     5
100
AcDbLine
 10
929.0915685004
 20
108.2829817604
 30
0.0
 11
938.4640572103
 21
117.6554704702
 31
0.0
  0
LINE
  5
357
330
23C
100
AcDbEntity
  8
0
  6
Continuous
 62
     5
100
AcDbLine
 10
944.6515948814999
 20
123.8430081414
 30
0.0
 11
946.9218516509
 21
126.1132649109
 31
0.0
  0
LINE
  5
358
330
23C
100
AcDbEntity
  8
0
  6
Continuous
 62
     5
100
AcDbLine
 10
929.0915685004
 20
108.5960417748
 30
0.0
 11
938.4640572103
 21
117.9685304846
 31
0.0
  0
LINE
  5
359
330
23C
100
AcDbEntity
  8
0
  6
Continuous
 62
     5
100
AcDbLine
 10
944.3385348671
 20
123.8430081414
 30
0.0
 11
946.9218516509
 21
126.4263249253
 31
0.0
  0
LINE
  5
35A
330
23C
100
AcDbEntity
  8
0
  6
Continuous
 62
     5
100
AcDbLine
 10
929.0915685004
 20
108.9091017892
 30
0.0
 11
938.4640572103
 21
118.281590499
 31
0.0
  0
LINE
  5
35B
330
23C
100
AcDbEntity
  8
0
  6
Continuous
 62
     5
100
AcDbLine
 10
944.0254748527001
 20
123.8430081414
 30
0.0
 11
946.9218516509
 21
126.7393849397
 31
0.0
  0
LINE
  5
35C
330
23C
100
AcDbEntity
  8
0
  6
Continuous
 62
     5
100
AcDbLine
 10
929.0915685004
 20
109.2221618036
 30
0.0
 11
938.4640572103
 21
118.5946505134
 31
0.0
  0
LINE
  5
35D
330
23C
100
AcDbEntity
  8
0
  6
Continuous
 62
     5
100
AcDbLine
 10
943.7124148383
 20
123.8430081414
 30
0.0
 11
946.9218516509
 21
127.0524449541
 31
0.0
  0
LINE
  5
35E
330
23C
100
AcDbEntity
  8
0
  6
Continuous
 62
     5
100
AcDbLine
 10
929.0915685004
 20
109.535221818
 30
0.0
 11
938.4640572103
 21
118.9077105278
 31
0.0
  0
LINE
  5
35F
330
23C
100
AcDbEntity
  8
0
  6
Continuous
 62
     5
100
AcDbLine
 10
943.3993548239
 20
123.8430081414
 30
0.0
 11
946.9218516509
 21
127.3655049685
 31
0.0
  0
LINE
  5
360
330
23C
100
AcDbEntity
  8
0
  6
Continuous
 62
     5
100
AcDbLine
 10
929.0915685004
 20
109.8482818323
 30
0.0
 11
938.4640572103
 21
119.2207705422
 31
0.0
  0
LINE
  5
361
330
23C
100
AcDbEntity
  8
0
  6
Continuous
 62
     5
100
AcDbLine
 10
943.0862948094999
 20
123.8430081414
 30
0.0
 11
946.9218516509
 21
127.6785649829
 31
0.0
  0
LINE
  5
362
330
23C
100
AcDbEntity
  8
0
  6
Continuous
 62
     5
100
AcDbLine
 10
929.0915685004
 20
110.1613418467
 30
0.0
 11
938.4640572103
 21
119.5338305566
 31
0.0
  0
LINE
  5
363
330
23C
100
AcDbEntity
  8
0
  6
Continuous
 62
     5
100
AcDbLine
 10
942.7732347951
 20
123.8430081414
 30
0.0
 11
946.9218516509
 21
127.9916249973
 31
0.0
  0
LINE
  5
364
330
23C
100
AcDbEntity
  8
0
  6
Continuous
 62
     5
100
AcDbLine
 10
929.0915685004
 20
110.4744018611
 30
0.0
 11
938.4640572103
 21
119.846890571
 31
0.0
  0
LINE
  5
365
330
23C
100
AcDbEntity
  8
0
  6
Continuous
 62
     5
100
AcDbLine
 10
942.4601747807001
 20
123.8430081414
 30
0.0
 11
946.9218516509
 21
128.3046850117
 31
0.0
  0
LINE
  5
366
330
23C
100
AcDbEntity
  8
0
  6
Continuous
 62
     5
100
AcDbLine
 10
929.0915685004
 20
110.7874618755
 30
0.0
 11
938.4640572103
 21
120.1599505854
 31
0.0
  0
LINE
  5
367
330
23C
100
AcDbEntity
  8
0
  6
Continuous
 62
     5
100
AcDbLine
 10
942.1471147663
 20
123.8430081414
 30
0.0
 11
946.9218516509
 21
128.617745026
 31
0.0
  0
LINE
  5
368
330
23C
100
AcDbEntity
  8
0
  6
Continuous
 62
     5
100
AcDbLine
 10
929.0915685004
 20
111.1005218899
 30
0.0
 11
938.4640572103
 21
120.4730105998
 31
0.0
  0
LINE
  5
369
330
23C
100
AcDbEntity
  8
0
  6
Continuous
 62
     5
100
AcDbLine
 10
941.8340547518999
 20
123.8430081414
 30
0.0
 11
946.8998946826999
 21
128.9088480722
 31
0.0
  0
LINE
  5
36A
330
23C
100
AcDbEntity
  8
0
  6
Continuous
 62
     5
100
AcDbLine
 10
929.0915685004
 20
111.4135819043
 30
0.0
 11
938.4640572103
 21
120.7860706142
 31
0.0
  0
LINE
  5
36B
330
23C
100
AcDbEntity
  8
0
  6
Continuous
 62
     5
100
AcDbLine
 10
941.5209947375998
 20
123.8430081414
 30
0.0
 11
946.7607036841998
 21
129.0827170881
 31
0.0
  0
LINE
  5
36C
330
23C
100
AcDbEntity
  8
0
  6
Continuous
 62
     5
100
AcDbLine
 10
929.0915685004
 20
111.7266419187
 30
0.0
 11
938.4640572103
 21
121.0991306286
 31
0.0
  0
LINE
  5
36D
330
23C
100
AcDbEntity
  8
0
  6
Continuous
 62
     5
100
AcDbLine
 10
941.2079347232001
 20
123.8430081414
 30
0.0
 11
946.6215126857001
 21
129.256586104
 31
0.0
  0
LINE
  5
36E
330
23C
100
AcDbEntity
  8
0
  6
Continuous
 62
     5
100
AcDbLine
 10
929.0915685004
 20
112.0397019331
 30
0.0
 11
938.4640572103
 21
121.4121906429
 31
0.0
  0
LINE
  5
36F
330
23C
100
AcDbEntity
  8
0
  6
Continuous
 62
     5
100
AcDbLine
 10
940.8948747088
 20
123.8430081414
 30
0.0
 11
946.4823216872
 21
129.4304551199
 31
0.0
  0
LINE
  5
370
330
23C
100
AcDbEntity
  8
0
  6
Continuous
 62
     5
100
AcDbLine
 10
929.0915685004
 20
112.3527619475
 30
0.0
 11
938.4640572103
 21
121.7252506573
 31
0.0
  0
LINE
  5
371
330
23C
100
AcDbEntity
  8
0
  6
Continuous
 62
     5
100
AcDbLine
 10
940.5818146944
 20
123.8430081414
 30
0.0
 11
946.3431306886999
 21
129.6043241358
 31
0.0
  0
LINE
  5
372
330
23C
100
AcDbEntity
  8
0
  6
Continuous
 62
     5
100
AcDbLine
 10
929.0915685004
 20
112.6658219619
 30
0.0
 11
938.4640572103
 21
122.0383106717
 31
0.0
  0
LINE
  5
373
330
23C
100
AcDbEntity
  8
0
  6
Continuous
 62
     5
100
AcDbLine
 10
940.2687546800001
 20
123.8430081414
 30
0.0
 11
946.2039396902
 21
129.7781931517
 31
0.0
  0
LINE
  5
374
330
23C
100
AcDbEntity
  8
0
  6
Continuous
 62
     5
100
AcDbLine
 10
929.0915685004
 20
112.9788819763
 30
0.0
 11
938.4640572103
 21
122.3513706861
 31
0.0
  0
LINE
  5
375
330
23C
100
AcDbEntity
  8
0
  6
Continuous
 62
     5
100
AcDbLine
 10
939.9556946656
 20
123.8430081414
 30
0.0
 11
946.0647486916998
 21
129.9520621675
 31
0.0
  0
LINE
  5
376
330
23C
100
AcDbEntity
  8
0
  6
Continuous
 62
     5
100
AcDbLine
 10
929.0915685004
 20
113.2919419906
 30
0.0
 11
938.4640572103
 21
122.6644307005
 31
0.0
  0
LINE
  5
377
330
23C
100
AcDbEntity
  8
0
  6
Continuous
 62
     5
100
AcDbLine
 10
939.6426346511999
 20
123.8430081414
 30
0.0
 11
945.9255576932001
 21
130.1259311834
 31
0.0
  0
LINE
  5
378
330
23C
100
AcDbEntity
  8
0
  6
Continuous
 62
     5
100
AcDbLine
 10
929.0915685004
 20
113.605002005
 30
0.0
 11
938.4640572103
 21
122.9774907149
 31
0.0
  0
LINE
  5
379
330
23C
100
AcDbEntity
  8
0
  6
Continuous
 62
     5
100
AcDbLine
 10
939.3295746368
 20
123.8430081414
 30
0.0
 11
945.7863666947
 21
130.2998001993
 31
0.0
  0
LINE
  5
37A
330
23C
100
AcDbEntity
  8
0
  6
Continuous
 62
     5
100
AcDbLine
 10
929.0915685004
 20
113.9180620194
 30
0.0
 11
938.4640572103
 21
123.2905507293
 31
0.0
  0
LINE
  5
37B
330
23C
100
AcDbEntity
  8
0
  6
Continuous
 62
     5
100
AcDbLine
 10
939.0165146224001
 20
123.8430081414
 30
0.0
 11
945.6471756961999
 21
130.4736692152
 31
0.0
  0
LINE
  5
37C
330
23C
100
AcDbEntity
  8
0
  6
Continuous
 62
     5
100
AcDbLine
 10
929.0915685004
 20
114.2311220338
 30
0.0
 11
938.4640572103
 21
123.6036107437
 31
0.0
  0
LINE
  5
37D
330
23C
100
AcDbEntity
  8
0
  6
Continuous
 62
     5
100
AcDbLine
 10
938.703454608
 20
123.8430081414
 30
0.0
 11
945.5079846977
 21
130.6475382311
 31
0.0
  0
LINE
  5
37E
330
23C
100
AcDbEntity
  8
0
  6
Continuous
 62
     5
100
AcDbLine
 10
929.0915685004
 20
114.5441820482
 30
0.0
 11
945.3687936991999
 21
130.821407247
 31
0.0
  0
LINE
  5
37F
330
23C
100
AcDbEntity
  8
0
  6
Continuous
 62
     5
100
AcDbLine
 10
929.0915685004
 20
114.8572420626
 30
0.0
 11
945.2296027007001
 21
130.9952762629
 31
0.0
  0
LINE
  5
380
330
23C
100
AcDbEntity
  8
0
  6
Continuous
 62
     5
100
AcDbLine
 10
929.0915685004
 20
115.170302077
 30
0.0
 11
945.0904117022
 21
131.1691452787
 31
0.0
  0
LINE
  5
381
330
23C
100
AcDbEntity
  8
0
  6
Continuous
 62
     5
100
AcDbLine
 10
929.0915685004
 20
115.4833620914
 30
0.0
 11
944.9512207036999
 21
131.3430142946
 31
0.0
  0
LINE
  5
382
330
23C
100
AcDbEntity
  8
0
  6
Continuous
 62
     5
100
AcDbLine
 10
929.0915685004
 20
115.7964221058
 30
0.0
 11
944.8120297051
 21
131.5168833105
 31
0.0
  0
LINE
  5
383
330
23C
100
AcDbEntity
  8
0
  6
Continuous
 62
     5
100
AcDbLine
 10
929.0915685004
 20
116.1094821202
 30
0.0
 11
940.1571986986001
 21
127.1751123184
 31
0.0
  0
LINE
  5
384
330
23C
100
AcDbEntity
  8
0
  6
Continuous
 62
     5
100
AcDbLine
 10
940.9105359356001
 20
127.9284495554
 30
0.0
 11
944.6728387066
 21
131.6907523264
 31
0.0
  0
LINE
  5
385
330
23C
100
AcDbEntity
  8
0
  6
Continuous
 62
     5
100
AcDbLine
 10
929.0915685004
 20
116.4225421346
 30
0.0
 11
939.4984878654
 21
126.8294614996
 31
0.0
  0
LINE
  5
386
330
23C
100
AcDbEntity
  8
0
  6
Continuous
 62
     5
100
AcDbLine
 10
941.2471052496
 20
128.5780788838
 30
0.0
 11
944.5336477080999
 21
131.8646213423
 31
0.0
  0
LINE
  5
387
330
23C
100
AcDbEntity
  8
0
  6
Continuous
 62
     5
100
AcDbLine
 10
929.0915685004
 20
116.7356021489
 30
0.0
 11
939.0594522051999
 21
126.7034858537
 31
0.0
  0
LINE
  5
388
330
23C
100
AcDbEntity
  8
0
  6
Continuous
 62
     5
100
AcDbLine
 10
941.3737333613999
 20
129.0177670099
 30
0.0
 11
944.3944567096
 21
132.0384903582
 31
0.0
  0
LINE
  5
389
330
23C
100
AcDbEntity
  8
0
  6
Continuous
 62
     5
100
AcDbLine
 10
929.0915685004
 20
117.0486621633
 30
0.0
 11
938.6910960113999
 21
126.6481896743
 31
0.0
  0
LINE
  5
38A
330
23C
100
AcDbEntity
  8
0
  6
Continuous
 62
     5
100
AcDbLine
 10
941.4278854724001
 20
129.3849791353
 30
0.0
 11
944.2552657111001
 21
132.2123593741
 31
0.0
  0
LINE
  5
38B
330
23C
100
AcDbEntity
  8
0
  6
Continuous
 62
     5
100
AcDbLine
 10
929.0915685004
 20
117.3617221777
 30
0.0
 11
938.3701320842
 21
126.6402857615
 31
0.0
  0
LINE
  5
38C
330
23C
100
AcDbEntity
  8
0
  6
Continuous
 62
     5
100
AcDbLine
 10
941.4415964960001
 20
129.7117501733
 30
0.0
 11
944.1160747126
 21
132.3862283899
 31
0.0
  0
LINE
  5
38D
330
23C
100
AcDbEntity
  8
0
  6
Continuous
 62
     5
100
AcDbLine
 10
929.0915685004
 20
117.6747821921
 30
0.0
 11
938.0837911203
 21
126.667004812
 31
0.0
  0
LINE
  5
38E
330
23C
100
AcDbEntity
  8
0
  6
Continuous
 62
     5
100
AcDbLine
 10
941.4119107560001
 20
129.9951244477
 30
0.0
 11
943.9768837141
 21
132.5600974058
 31
0.0
  0
LINE
  5
38F
330
23C
100
AcDbEntity
  8
0
  6
Continuous
 62
     5
100
AcDbLine
 10
929.0915685004
 20
117.9878422065
 30
0.0
 11
937.8127682658
 21
126.7090419719
 31
0.0
  0
LINE
  5
390
330
23C
100
AcDbEntity
  8
0
  6
Continuous
 62
     5
100
AcDbLine
 10
941.3673698444
 20
130.2636435505
 30
0.0
 11
943.8376927155999
 21
132.7339664217
 31
0.0
  0
LINE
  5
391
330
23C
100
AcDbEntity
  8
0
  6
Continuous
 62
     5
100
AcDbLine
 10
929.0915685004
 20
118.3009022209
 30
0.0
 11
937.5688522249999
 21
126.7781859455
 31
0.0
  0
LINE
  5
392
330
23C
100
AcDbEntity
  8
0
  6
Continuous
 62
     5
100
AcDbLine
 10
941.3018157416999
 20
130.5111494621
 30
0.0
 11
943.6985017171
 21
132.9078354376
 31
0.0
  0
LINE
  5
393
330
23C
100
AcDbEntity
  8
0
  6
Continuous
 62
     5
100
AcDbLine
 10
929.0915685004
 20
118.6139622353
 30
0.0
 11
937.3373611141001
 21
126.859754849
 31
0.0
  0
LINE
  5
394
330
23C
100
AcDbEntity
  8
0
  6
Continuous
 62
     5
100
AcDbLine
 10
941.2174751248
 20
130.7398688596
 30
0.0
 11
943.5593107186001
 21
133.0817044535
 31
0.0
  0
LINE
  5
395
330
23C
100
AcDbEntity
  8
0
  6
Continuous
 62
     5
100
AcDbLine
 10
929.0915685004
 20
118.9270222497
 30
0.0
 11
937.1221366938
 21
126.957590443
 31
0.0
  0
LINE
  5
396
330
23C
100
AcDbEntity
  8
0
  6
Continuous
 62
     5
100
AcDbLine
 10
941.1227512544
 20
130.9582050037
 30
0.0
 11
943.4201197201
 21
133.2555734694
 31
0.0
  0
LINE
  5
397
330
23C
100
AcDbEntity
  8
0
  6
Continuous
 62
     5
100
AcDbLine
 10
929.0915685004
 20
119.2400822641
 30
0.0
 11
936.9206213178999
 21
127.0691350815
 31
0.0
  0
LINE
  5
398
330
23C
100
AcDbEntity
  8
0
  6
Continuous
 62
     5
100
AcDbLine
 10
941.0083883122
 20
131.1569020759
 30
0.0
 11
943.2809287216
 21
133.4294424853
 31
0.0
  0
LINE
  5
399
330
23C
100
AcDbEntity
  8
0
  6
Continuous
 62
     5
100
AcDbLine
 10
929.0915685004
 20
119.5531422785
 30
0.0
 11
936.7310025747999
 21
127.1925763528
 31
0.0
  0
LINE
  5
39A
330
23C
100
AcDbEntity
  8
0
  6
Continuous
 62
     5
100
AcDbLine
 10
940.8877889822999
 20
131.3493627603
 30
0.0
 11
943.1417377230999
 21
133.6033115011
 31
0.0
  0
LINE
  5
39B
330
23C
100
AcDbEntity
  8
0
  6
Continuous
 62
     5
100
AcDbLine
 10
929.0915685004
 20
119.8662022929
 30
0.0
 11
936.5546531836999
 21
127.3292869761
 31
0.0
  0
LINE
  5
39C
330
23C
100
AcDbEntity
  8
0
  6
Continuous
 62
     5
100
AcDbLine
 10
940.7482753118999
 20
131.5229091043
 30
0.0
 11
943.0025467246
 21
133.777180517
 31
0.0
  0
LINE
  5
39D
330
23C
100
AcDbEntity
  8
0
  6
Continuous
 62
     5
100
AcDbLine
 10
929.0915685004
 20
120.1792623072
 30
0.0
 11
936.3890502433999
 21
127.4767440503
 31
0.0
  0
LINE
  5
39E
330
23C
100
AcDbEntity
  8
0
  6
Continuous
 62
     5
100
AcDbLine
 10
940.6035404988999
 20
131.6912343058
 30
0.0
 11
942.8633557261001
 21
133.9510495329
 31
0.0
  0
LINE
  5
39F
330
23C
100
AcDbEntity
  8
0
  6
Continuous
 62
     5
100
AcDbLine
 10
929.0915685004
 20
120.4923223216
 30
0.0
 11
936.2359360099
 21
127.6366898311
 31
0.0
  0
LINE
  5
3A0
330
23C
100
AcDbEntity
  8
0
  6
Continuous
 62
     5
100
AcDbLine
 10
940.4428891501
 20
131.8436429713
 30
0.0
 11
942.7241647276
 21
134.1249185488
 31
0.0
  0
LINE
  5
3A1
330
23C
100
AcDbEntity
  8
0
  6
Continuous
 62
     5
100
AcDbLine
 10
929.0915685004
 20
120.805382336
 30
0.0
 11
936.0939305714
 21
127.807744407
 31
0.0
  0
LINE
  5
3A2
330
23C
100
AcDbEntity
  8
0
  6
Continuous
 62
     5
100
AcDbLine
 10
940.272949835
 20
131.9867636707
 30
0.0
 11
942.5849737291001
 21
134.2987875647
 31
0.0
  0
LINE
  5
3A3
330
23C
100
AcDbEntity
  8
0
  6
Continuous
 62
     5
100
AcDbLine
 10
929.0915685004
 20
121.1184423504
 30
0.0
 11
935.9643329208001
 21
127.9912067708
 31
0.0
  0
LINE
  5
3A4
330
23C
100
AcDbEntity
  8
0
  6
Continuous
 62
     5
100
AcDbLine
 10
940.0861523042999
 20
132.1130261543
 30
0.0
 11
942.4457827306
 21
134.4726565806
 31
0.0
  0
LINE
  5
3A5
330
23C
100
AcDbEntity
  8
0
  6
Continuous
 62
     5
100
AcDbLine
 10
929.0915685004
 20
121.4315023648
 30
0.0
 11
935.8465982142998
 21
128.1865320787
 31
0.0
  0
LINE
  5
3A6
330
23C
100
AcDbEntity
  8
0
  6
Continuous
 62
     5
100
AcDbLine
 10
939.8939091231
 20
132.2338429875
 30
0.0
 11
942.3065917321
 21
134.6465255965
 31
0.0
  0
LINE
  5
3A7
330
23C
100
AcDbEntity
  8
0
  6
Continuous
 62
     5
100
AcDbLine
 10
929.0915685004
 20
121.7445623792
 30
0.0
 11
935.743099047
 21
128.3960929258
 31
0.0
  0
LINE
  5
3A8
330
23C
100
AcDbEntity
  8
0
  6
Continuous
 62
     5
100
AcDbLine
 10
939.6817562788001
 20
132.3347501576
 30
0.0
 11
942.1674007334999
 21
134.8203946123
 31
0.0
  0
LINE
  5
3A9
330
23C
100
AcDbEntity
  8
0
  6
Continuous
 62
     5
100
AcDbLine
 10
929.0915685004
 20
122.0576223936
 30
0.0
 11
935.6515297436999
 21
128.6175836369
 31
0.0
  0
LINE
  5
3AA
330
23C
100
AcDbEntity
  8
0
  6
Continuous
 62
     5
100
AcDbLine
 10
939.4609873875999
 20
132.4270412808
 30
0.0
 11
942.028209735
 21
134.9942636282
 31
0.0
  0
LINE
  5
3AB
330
23C
100
AcDbEntity
  8
0
  6
Continuous
 62
     5
100
AcDbLine
 10
929.0915685004
 20
122.370682408
 30
0.0
 11
935.579909217
 21
128.8590231245
 31
0.0
  0
LINE
  5
3AC
330
23C
100
AcDbEntity
  8
0
  6
Continuous
 62
     5
100
AcDbLine
 10
939.2205924767999
 20
132.4997063844
 30
0.0
 11
941.8890187364999
 21
135.1681326441
 31
0.0
  0
LINE
  5
3AD
330
23C
100
AcDbEntity
  8
0
  6
Continuous
 62
     5
100
AcDbLine
 10
929.0915685004
 20
122.6837424224
 30
0.0
 11
935.5180179761999
 21
129.1101918982
 31
0.0
  0
LINE
  5
3AE
330
23C
100
AcDbEntity
  8
0
  6
Continuous
 62
     5
100
AcDbLine
 10
938.9629607840999
 20
132.555134706
 30
0.0
 11
941.749827738
 21
135.34200166
 31
0.0
  0
LINE
  5
3AF
330
23C
100
AcDbEntity
  8
0
  6
Continuous
 62
     5
100
AcDbLine
 10
929.0915685004
 20
122.9968024368
 30
0.0
 11
935.4895758564
 21
129.3948097927
 31
0.0
  0
LINE
  5
3B0
330
23C
100
AcDbEntity
  8
0
  6
Continuous
 62
     5
100
AcDbLine
 10
938.6893314918999
 20
132.5945654283
 30
0.0
 11
941.6106367395
 21
135.5158706759
 31
0.0
  0
LINE
  5
3B1
330
23C
100
AcDbEntity
  8
0
  6
Continuous
 62
     5
100
AcDbLine
 10
929.0915685004
 20
123.3098624512
 30
0.0
 11
935.4808284269001
 21
129.6991223776
 31
0.0
  0
LINE
  5
3B2
330
23C
100
AcDbEntity
  8
0
  6
Continuous
 62
     5
100
AcDbLine
 10
938.3783154088
 20
132.5966093595
 30
0.0
 11
941.4714457409999
 21
135.6897396918
 31
0.0
  0
LINE
  5
3B3
330
23C
100
AcDbEntity
  8
0
  6
Continuous
 62
     5
100
AcDbLine
 10
929.0915685004
 20
123.6229224656
 30
0.0
 11
935.5028093882999
 21
130.0341633535
 31
0.0
  0
LINE
  5
3B4
330
23C
100
AcDbEntity
  8
0
  6
Continuous
 62
     5
100
AcDbLine
 10
938.0360208212
 20
132.5673747864
 30
0.0
 11
941.3322547425
 21
135.8636087077
 31
0.0
  0
LINE
  5
3B5
330
23C
100
AcDbEntity
  8
0
  6
Continuous
 62
     5
100
AcDbLine
 10
929.0915685004
 20
123.9359824799
 30
0.0
 11
935.5874374909999
 21
130.4318514705
 31
0.0
  0
LINE
  5
3B6
330
23C
100
AcDbEntity
  8
0
  6
Continuous
 62
     5
100
AcDbLine
 10
937.6391360386
 20
132.4835500181
 30
0.0
 11
941.1930637439999
 21
136.0374777235
 31
0.0
  0
LINE
  5
3B7
330
23C
100
AcDbEntity
  8
0
  6
Continuous
 62
     5
100
AcDbLine
 10
929.0915685004
 20
124.2490424943
 30
0.0
 11
935.789173596
 21
130.9466475899
 31
0.0
  0
LINE
  5
3B8
330
23C
100
AcDbEntity
  8
0
  6
Continuous
 62
     5
100
AcDbLine
 10
937.1238901631
 20
132.2813641571
 30
0.0
 11
941.0538727455
 21
136.2113467394
 31
0.0
  0
LINE
  5
3B9
330
23C
100
AcDbEntity
  8
0
  6
Continuous
 62
     5
100
AcDbLine
 10
929.0915685004
 20
124.5621025087
 30
0.0
 11
940.9146817469999
 21
136.3852157553
 31
0.0
  0
LINE
  5
3BA
330
23C
100
AcDbEntity
  8
0
  6
Continuous
 62
     5
100
AcDbLine
 10
929.0915685004
 20
124.8751625231
 30
0.0
 11
940.7754907484999
 21
136.5590847712
 31
0.0
  0
LINE
  5
3BB
330
23C
100
AcDbEntity
  8
0
  6
Continuous
 62
     5
100
AcDbLine
 10
929.0915685004
 20
125.1882225375
 30
0.0
 11
940.63629975
 21
136.7329537871
 31
0.0
  0
LINE
  5
3BC
330
23C
100
AcDbEntity
  8
0
  6
Continuous
 62
     5
100
AcDbLine
 10
929.0915685004
 20
125.5012825519
 30
0.0
 11
940.4971087514999
 21
136.906822803
 31
0.0
  0
LINE
  5
3BD
330
23C
100
AcDbEntity
  8
0
  6
Continuous
 62
     5
100
AcDbLine
 10
929.0915685004
 20
125.8143425663
 30
0.0
 11
940.357917753
 21
137.0806918189
 31
0.0
  0
LINE
  5
3BE
330
23C
100
AcDbEntity
  8
0
  6
Continuous
 62
     5
100
AcDbLine
 10
929.0915685004
 20
126.1274025807
 30
0.0
 11
940.2187267544999
 21
137.2545608347
 31
0.0
  0
LINE
  5
3BF
330
23C
100
AcDbEntity
  8
0
  6
Continuous
 62
     5
100
AcDbLine
 10
929.0915685004
 20
126.4404625951
 30
0.0
 11
940.0795357559999
 21
137.4284298506
 31
0.0
  0
LINE
  5
3C0
330
23C
100
AcDbEntity
  8
0
  6
Continuous
 62
     5
100
AcDbLine
 10
929.0915685004
 20
126.7535226095
 30
0.0
 11
939.9403447575
 21
137.6022988665
 31
0.0
  0
LINE
  5
3C1
330
23C
100
AcDbEntity
  8
0
  6
Continuous
 62
     5
100
AcDbLine
 10
929.0915685004
 20
127.0665826239
 30
0.0
 11
939.8011537589999
 21
137.7761678824
 31
0.0
  0
LINE
  5
3C2
330
23C
100
AcDbEntity
  8
0
  6
Continuous
 62
     5
100
AcDbLine
 10
929.0915685004
 20
127.3796426382
 30
0.0
 11
939.6619627605
 21
137.9500368983
 31
0.0
  0
LINE
  5
3C3
330
23C
100
AcDbEntity
  8
0
  6
Continuous
 62
     5
100
AcDbLine
 10
929.0915685004
 20
127.6927026526
 30
0.0
 11
939.5227717619
 21
138.1239059142
 31
0.0
  0
LINE
  5
3C4
330
23C
100
AcDbEntity
  8
0
  6
Continuous
 62
     5
100
AcDbLine
 10
929.0915685004
 20
128.005762667
 30
0.0
 11
939.3835807633999
 21
138.2977749301
 31
0.0
  0
LINE
  5
3C5
330
23C
100
AcDbEntity
  8
0
  6
Continuous
 62
     5
100
AcDbLine
 10
929.0915685004
 20
128.3188226814
 30
0.0
 11
939.2443897649
 21
138.4716439459
 31
0.0
  0
LINE
  5
3C6
330
23C
100
AcDbEntity
  8
0
  6
Continuous
 62
     5
100
AcDbLine
 10
929.0915685004
 20
128.6318826958
 30
0.0
 11
939.1051987663999
 21
138.6455129618
 31
0.0
  0
LINE
  5
3C7
330
23C
100
AcDbEntity
  8
0
  6
Continuous
 62
     5
100
AcDbLine
 10
929.0915685004
 20
128.9449427102
 30
0.0
 11
938.9660077678998
 21
138.8193819777
 31
0.0
  0
LINE
  5
3C8
330
23C
100
AcDbEntity
  8
0
  6
Continuous
 62
     5
100
AcDbLine
 10
929.0915685004
 20
129.2580027246
 30
0.0
 11
938.8268167694
 21
138.9932509936
 31
0.0
  0
LINE
  5
3C9
330
23C
100
AcDbEntity
  8
0
  6
Continuous
 62
     5
100
AcDbLine
 10
929.0915685004
 20
129.571062739
 30
0.0
 11
938.6876257708999
 21
139.1671200095
 31
0.0
  0
LINE
  5
3CA
330
23C
100
AcDbEntity
  8
0
  6
Continuous
 62
     5
100
AcDbLine
 10
929.0915685004
 20
129.8841227534
 30
0.0
 11
938.5264594776
 21
139.3190137305
 31
0.0
  0
LINE
  5
3CB
330
23C
100
AcDbEntity
  8
0
  6
Continuous
 62
     5
100
AcDbLine
 10
929.0915685004
 20
130.1971827678
 30
0.0
 11
938.2133994632001
 21
139.3190137305
 31
0.0
  0
LINE
  5
3CC
330
23C
100
AcDbEntity
  8
0
  6
Continuous
 62
     5
100
AcDbLine
 10
929.0915685004
 20
130.5102427822
 30
0.0
 11
937.9003394488
 21
139.3190137305
 31
0.0
  0
LINE
  5
3CD
330
23C
100
AcDbEntity
  8
0
  6
Continuous
 62
     5
100
AcDbLine
 10
929.0915685004
 20
130.8233027965
 30
0.0
 11
937.5872794343999
 21
139.3190137305
 31
0.0
  0
LINE
  5
3CE
330
23C
100
AcDbEntity
  8
0
  6
Continuous
 62
     5
100
AcDbLine
 10
929.0915685004
 20
131.1363628109
 30
0.0
 11
937.27421942
 21
139.3190137305
 31
0.0
  0
LINE
  5
3CF
330
23C
100
AcDbEntity
  8
0
  6
Continuous
 62
     5
100
AcDbLine
 10
929.0915685004
 20
131.4494228253
 30
0.0
 11
936.9611594055999
 21
139.3190137305
 31
0.0
  0
LINE
  5
3D0
330
23C
100
AcDbEntity
  8
0
  6
Continuous
 62
     5
100
AcDbLine
 10
929.0915685004
 20
131.7624828397
 30
0.0
 11
936.6480993911999
 21
139.3190137305
 31
0.0
  0
LINE
  5
3D1
330
23C
100
AcDbEntity
  8
0
  6
Continuous
 62
     5
100
AcDbLine
 10
929.0915685004
 20
132.0755428541
 30
0.0
 11
936.3350393769
 21
139.3190137305
 31
0.0
  0
LINE
  5
3D2
330
23C
100
AcDbEntity
  8
0
  6
Continuous
 62
     5
100
AcDbLine
 10
929.0915685004
 20
132.3886028685
 30
0.0
 11
936.0219793625001
 21
139.3190137305
 31
0.0
  0
LINE
  5
3D3
330
23C
100
AcDbEntity
  8
0
  6
Continuous
 62
     5
100
AcDbLine
 10
929.0915685004
 20
132.7016628829
 30
0.0
 11
935.7089193481
 21
139.3190137305
 31
0.0
  0
LINE
  5
3D4
330
23C
100
AcDbEntity
  8
0
  6
Continuous
 62
     5
100
AcDbLine
 10
929.0915685004
 20
133.0147228973
 30
0.0
 11
935.3958593336999
 21
139.3190137305
 31
0.0
  0
LINE
  5
3D5
330
23C
100
AcDbEntity
  8
0
  6
Continuous
 62
     5
100
AcDbLine
 10
929.0915685004
 20
133.3277829117
 30
0.0
 11
935.0827993193
 21
139.3190137305
 31
0.0
  0
LINE
  5
3D6
330
23C
100
AcDbEntity
  8
0
  6
Continuous
 62
     5
100
AcDbLine
 10
929.0915685004
 20
133.6408429261
 30
0.0
 11
934.7697393049001
 21
139.3190137305
 31
0.0
  0
LINE
  5
3D7
330
23C
100
AcDbEntity
  8
0
  6
Continuous
 62
     5
100
AcDbLine
 10
929.0915685004
 20
133.9539029405
 30
0.0
 11
934.4566792905
 21
139.3190137305
 31
0.0
  0
LINE
  5
3D8
330
23C
100
AcDbEntity
  8
0
  6
Continuous
 62
     5
100
AcDbLine
 10
929.0915685004
 20
134.2669629548
 30
0.0
 11
934.1436192760999
 21
139.3190137305
 31
0.0
  0
LINE
  5
3D9
330
23C
100
AcDbEntity
  8
0
  6
Continuous
 62
     5
100
AcDbLine
 10
929.0915685004
 20
134.5800229692
 30
0.0
 11
933.8305592616999
 21
139.3190137305
 31
0.0
  0
LINE
  5
3DA
330
23C
100
AcDbEntity
  8
0
  6
Continuous
 62
     5
100
AcDbLine
 10
929.0915685004
 20
134.8930829836
 30
0.0
 11
933.5174992473
 21
139.3190137305
 31
0.0
  0
LINE
  5
3DB
330
23C
100
AcDbEntity
  8
0
  6
Continuous
 62
     5
100
AcDbLine
 10
929.0915685004
 20
135.206142998
 30
0.0
 11
933.2044392328999
 21
139.3190137305
 31
0.0
  0
LINE
  5
3DC
330
23C
100
AcDbEntity
  8
0
  6
Continuous
 62
     5
100
AcDbLine
 10
929.0915685004
 20
135.5192030124
 30
0.0
 11
932.8913792185002
 21
139.3190137305
 31
0.0
  0
LINE
  5
3DD
330
23C
100
AcDbEntity
  8
0
  6
Continuous
 62
     5
100
AcDbLine
 10
929.0915685004
 20
135.8322630268
 30
0.0
 11
932.5783192041999
 21
139.3190137305
 31
0.0
  0
LINE
  5
3DE
330
23C
100
AcDbEntity
  8
0
  6
Continuous
 62
     5
100
AcDbLine
 10
929.0915685004
 20
136.1453230412
 30
0.0
 11
932.2652591898
 21
139.3190137305
 31
0.0
  0
LINE
  5
3DF
330
23C
100
AcDbEntity
  8
0
  6
Continuous
 62
     5
100
AcDbLine
 10
929.0915685004
 20
136.4583830556
 30
0.0
 11
931.9521991753999
 21
139.3190137305
 31
0.0
  0
LINE
  5
3E0
330
23C
100
AcDbEntity
  8
0
  6
Continuous
 62
     5
100
AcDbLine
 10
929.0915685004
 20
136.77144307
 30
0.0
 11
931.639139161
 21
139.3190137305
 31
0.0
  0
LINE
  5
3E1
330
23C
100
AcDbEntity
  8
0
  6
Continuous
 62
     5
100
AcDbLine
 10
929.0915685004
 20
137.0845030844
 30
0.0
 11
931.3260791465999
 21
139.3190137305
 31
0.0
  0
LINE
  5
3E2
330
23C
100
AcDbEntity
  8
0
  6
Continuous
 62
     5
100
AcDbLine
 10
929.0915685004
 20
137.3975630988
 30
0.0
 11
931.0130191322
 21
139.3190137305
 31
0.0
  0
LINE
  5
3E3
330
23C
100
AcDbEntity
  8
0
  6
Continuous
 62
     5
100
AcDbLine
 10
929.0915685004
 20
137.7106231132
 30
0.0
 11
930.6999591178
 21
139.3190137305
 31
0.0
  0
LINE
  5
3E4
330
23C
100
AcDbEntity
  8
0
  6
Continuous
 62
     5
100
AcDbLine
 10
929.0915685004
 20
138.0236831275
 30
0.0
 11
930.3868991033999
 21
139.3190137305
 31
0.0
  0
LINE
  5
3E5
330
23C
100
AcDbEntity
  8
0
  6
Continuous
 62
     5
100
AcDbLine
 10
929.0915685004
 20
138.3367431419
 30
0.0
 11
930.073839089
 21
139.3190137305
 31
0.0
  0
LINE
  5
3E6
330
23C
100
AcDbEntity
  8
0
  6
Continuous
 62
     5
100
AcDbLine
 10
929.0915685004
 20
138.6498031562999
 30
0.0
 11
929.7607790746001
 21
139.3190137305
 31
0.0
  0
LINE
  5
3E7
330
23C
100
AcDbEntity
  8
0
  6
Continuous
 62
     5
100
AcDbLine
 10
929.0915685004
 20
138.9628631707
 30
0.0
 11
929.4477190602
 21
139.3190137305
 31
0.0
  0
LINE
  5
3E8
330
23C
100
AcDbEntity
  8
0
  6
Continuous
 62
     5
100
AcDbLine
 10
929.0915685004
 20
139.2759231851
 30
0.0
 11
929.1346590458999
 21
139.3190137305
 31
0.0
  0
ENDBLK
  5
3E9
330
23C
100
AcDbEntity
  8
0
  6
ByBlock
 62
     0
100
AcDbBlockEnd
  0
BLOCK
  5
3EA
330
23D
100
AcDbEntity
  8
0
  6
Continuous
 62
     2
100
AcDbBlockBegin
  2
SYMBOL_1_BL1
 70
     0
 10
78.798179058
 20
757.8584255091999
 30
0.0
  3
SYMBOL_1_BL1
  1

  0
LINE
  5
3EB
330
23D
100
AcDbEntity
  8
0
  6
Continuous
 62
     2
100
AcDbLine
 10
74.6778918161
 20
762.6161234057
 30
0.0
 11
74.6778918161
 21
753.1007276125999
 31
0.0
  0
LINE
  5
3EC
330
23D
100
AcDbEntity
  8
0
  6
Continuous
 62
     2
100
AcDbLine
 10
74.6778918161
 20
753.1007276125999
 30
0.0
 11
82.91846629990001
 21
757.8584255091999
 31
0.0
  0
LINE
  5
3ED
330
23D
100
AcDbEntity
  8
0
  6
Continuous
 62
     2
100
AcDbLine
 10
82.91846629990001
 20
757.8584255091999
 30
0.0
 11
74.6778918161
 21
762.6161234057
 31
0.0
  0
SOLID
  5
3EE
330
23D
100
AcDbEntity
  8
0
  6
Continuous
 62
     2
100
AcDbTrace
 10
74.6778918161
 20
762.6161234057
 30
0.0
 11
82.91846629990001
 21
757.8584255091999
 31
0.0
 12
74.6778918161
 22
753.1007276125999
 32
0.0
 13
74.6778918161
 23
753.1007276125999
 33
0.0
  0
ENDBLK
  5
3EF
330
23D
100
AcDbEntity
  8
0
  6
ByBlock
 62
     0
100
AcDbBlockEnd
  0
BLOCK
  5
3F0
330
23E
100
AcDbEntity
  8
0
  6
Continuous
 62
     2
100
AcDbBlockBegin
  2
SYMBOL_0_BL0
 70
     0
 10
79.11309575309999
 20
773.3143683216999
 30
0.0
  3
SYMBOL_0_BL0
  1

  0
LINE
  5
3F1
330
23E
100
AcDbEntity
  8
0
  6
Continuous
 62
     2
100
AcDbLine
 10
74.9928034867
 20
768.5565927216999
 30
0.0
 11
74.99295770899999
 21
778.0721439217
 31
0.0
  0
LINE
  5
3F2
330
23E
100
AcDbEntity
  8
0
  6
Continuous
 62
     2
100
AcDbLine
 10
83.22825361619999
 20
773.3171539125
 30
0.0
 11
79.11052855140001
 21
775.6945770157
 31
0.0
  0
LINE
  5
3F3
330
23E
100
AcDbEntity
  8
0
  6
Continuous
 62
     2
100
AcDbLine
 10
83.23338801949999
 20
773.3142964205
 30
0.0
 11
74.9928034866
 21
768.5565927221
 31
0.0
  0
LINE
  5
3F4
330
23E
100
AcDbEntity
  8
0
  6
Continuous
 62
     2
100
AcDbLine
 10
74.9928034867
 20
768.5565927216999
 30
0.0
 11
79.11052855140001
 21
775.6945770157
 31
0.0
  0
LINE
  5
3F5
330
23E
100
AcDbEntity
  8
0
  6
Continuous
 62
     2
100
AcDbLine
 10
79.11052855140001
 20
775.6945770157
 30
0.0
 11
74.9928034866
 21
778.0720001188999
 31
0.0
  0
SOLID
  5
3F6
330
23E
100
AcDbEntity
  8
0
  6
Continuous
 62
     2
100
AcDbTrace
 10
83.23338801949999
 20
773.3142964205
 30
0.0
 11
74.9928034866
 21
768.5565927221
 31
0.0
 12
79.11052855140001
 22
775.6945770157
 32
0.0
 13
79.11052855140001
 23
775.6945770157
 33
0.0
  0
ENDBLK
  5
3F7
330
23E
100
AcDbEntity
  8
0
  6
ByBlock
 62
     0
100
AcDbBlockEnd
  0
BLOCK
  5
59B5
330
59AB
100
AcDbEntity
  8
0
100
AcDbBlockBegin
  2
*D19
 70
     1
 10
0.0
 20
0.0
 30
0.0
  3
*D19
  1

  0
LINE
  5
79C3
330
59AB
100
AcDbEntity
  8
0
  6
Continuous
 62
     0
440
 16777216
370
    -2
100
AcDbLine
 10
1824.260886787525
 20
1675.416724263979
 30
0.0
 11
1784.357097123641
 21
1675.416724263979
 31
0.0
  0
LINE
  5
79C4
330
59AB
100
AcDbEntity
  8
0
  6
Continuous
 62
     0
440
 16777216
370
    -2
100
AcDbLine
 10
1814.760886787525
 20
1334.216724263979
 30
0.0
 11
1784.35709712364
 21
1334.216724263979
 31
0.0
  0
LINE
  5
79C5
330
59AB
100
AcDbEntity
  8
0
  6
Continuous
 62
     0
440
 16777216
370
    -2
100
AcDbLine
 10
1785.857097123641
 20
1665.416724263979
 30
0.0
 11
1785.85709712364
 21
1344.216724263979
 31
0.0
  0
INSERT
  5
79C6
330
59AB
100
AcDbEntity
  8
0
  6
Continuous
 62
     0
440
 16777216
370
    -2
100
AcDbBlockReference
  2
_ARROW_FILLED
 10
1785.857097123641
 20
1675.416724263979
 30
0.0
 41
10.0
 42
10.0
 43
10.0
 50
90.0
  0
INSERT
  5
79C7
330
59AB
100
AcDbEntity
  8
0
  6
Continuous
 62
     0
440
 16777216
370
    -2
100
AcDbBlockReference
  2
_ARROW_FILLED
 10
1785.85709712364
 20
1334.216724263979
 30
0.0
 41
10.0
 42
10.0
 43
10.0
 50
270.0
  0
MTEXT
  5
79C8
330
59AB
100
AcDbEntity
  8
0
  6
Continuous
 62
     0
440
 16777216
100
AcDbMText
 10
1781.186382837926
 20
1508.460773603646
 30
0.0
 40
8.0
 41
0.0
 46
0.0
 71
     5
 72
     1
  1
\A1;170
 11
0.0000000000000001
 21
1.0
 31
0.0
 73
     1
 44
1.0
  0
POINT
  5
79C9
330
59AB
100
AcDbEntity
  8
Defpoints
  6
Continuous
 62
     0
440
 16777216
100
AcDbPoint
 10
1825.260886787525
 20
1675.416724263979
 30
0.0
  0
POINT
  5
79CA
330
59AB
100
AcDbEntity
  8
Defpoints
  6
Continuous
 62
     0
440
 16777216
100
AcDbPoint
 10
1815.760886787525
 20
1334.216724263979
 30
0.0
  0
POINT
  5
79CB
330
59AB
100
AcDbEntity
  8
Defpoints
  6
Continuous
 62
     0
440
 16777216
100
AcDbPoint
 10
1785.85709712364
 20
1334.216724263979
 30
0.0
  0
ENDBLK
  5
59B6
330
59AB
100
AcDbEntity
  8
0
100
AcDbBlockEnd
  0
BLOCK
  5
59C1
330
59B7
100
AcDbEntity
  8
0
100
AcDbBlockBegin
  2
*D20
 70
     1
 10
0.0
 20
0.0
 30
0.0
  3
*D20
  1

  0
LINE
  5
A063
330
59B7
100
AcDbEntity
  8
0
  6
Continuous
 62
     0
440
 16777216
370
    -2
100
AcDbLine
 10
1867.759930396925
 20
1659.365191365979
 30
0.0
 11
1867.759930396925
 21
1684.039480440506
 31
0.0
  0
LINE
  5
A064
330
59B7
100
AcDbEntity
  8
0
  6
Continuous
 62
     0
440
 16777216
370
    -2
100
AcDbLine
 10
2146.759930396925
 20
1568.216724263979
 30
0.0
 11
2146.759930396925
 21
1684.039480440506
 31
0.0
  0
LINE
  5
A065
330
59B7
100
AcDbEntity
  8
0
  6
Continuous
 62
     0
440
 16777216
370
    -2
100
AcDbLine
 10
1877.759930396925
 20
1682.539480440506
 30
0.0
 11
2136.759930396925
 21
1682.539480440506
 31
0.0
  0
INSERT
  5
A066
330
59B7
100
AcDbEntity
  8
0
  6
Continuous
 62
     0
440
 16777216
370
    -2
100
AcDbBlockReference
  2
_ARROW_FILLED
 10
1867.759930396925
 20
1682.539480440506
 30
0.0
 41
10.0
 42
10.0
 43
10.0
 50
180.0
  0
INSERT
  5
A067
330
59B7
100
AcDbEntity
  8
0
  6
Continuous
 62
     0
440
 16777216
370
    -2
100
AcDbBlockReference
  2
_ARROW_FILLED
 10
2146.759930396925
 20
1682.539480440506
 30
0.0
 41
10.0
 42
10.0
 43
10.0
  0
MTEXT
  5
A068
330
59B7
100
AcDbEntity
  8
0
  6
Continuous
 62
     0
440
 16777216
100
AcDbMText
 10
2007.36655299357
 20
1687.233051869078
 30
0.0
 40
8.0
 41
0.0
 46
0.0
 71
     5
 72
     1
  1
\A1;139.5
 73
     1
 44
1.0
  0
POINT
  5
A069
330
59B7
100
AcDbEntity
  8
Defpoints
  6
Continuous
 62
     0
440
 16777216
100
AcDbPoint
 10
1867.759930396925
 20
1658.365191365978
 30
0.0
  0
POINT
  5
A06A
330
59B7
100
AcDbEntity
  8
Defpoints
  6
Continuous
 62
     0
440
 16777216
100
AcDbPoint
 10
2146.759930396925
 20
1567.216724263979
 30
0.0
  0
POINT
  5
A06B
330
59B7
100
AcDbEntity
  8
Defpoints
  6
Continuous
 62
     0
440
 16777216
100
AcDbPoint
 10
2146.759930396925
 20
1682.539480440506
 30
0.0
  0
ENDBLK
  5
59C2
330
59B7
100
AcDbEntity
  8
0
100
AcDbBlockEnd
  0
BLOCK
  5
59CD
330
59C3
100
AcDbEntity
  8
0
100
AcDbBlockBegin
  2
*D21
 70
     1
 10
0.0
 20
0.0
 30
0.0
  3
*D21
  1

  0
LINE
  5
79D5
330
59C3
100
AcDbEntity
  8
0
  6
Continuous
 62
     0
440
 16777216
370
    -2
100
AcDbLine
 10
1867.759930396925
 20
1438.657570980587
 30
0.0
 11
1867.759930396925
 21
1458.471514668378
 31
0.0
  0
LINE
  5
79D6
330
59C3
100
AcDbEntity
  8
0
  6
Continuous
 62
     0
440
 16777216
370
    -2
100
AcDbLine
 10
2115.759930396925
 20
1505.550837080378
 30
0.0
 11
2115.759930396925
 21
1455.471514668378
 31
0.0
  0
LINE
  5
79D7
330
59C3
100
AcDbEntity
  8
0
  6
Continuous
 62
     0
440
 16777216
370
    -2
100
AcDbLine
 10
1877.759930396925
 20
1456.971514668378
 30
0.0
 11
2105.759930396925
 21
1456.971514668378
 31
0.0
  0
INSERT
  5
79D8
330
59C3
100
AcDbEntity
  8
0
  6
Continuous
 62
     0
440
 16777216
370
    -2
100
AcDbBlockReference
  2
_ARROW_FILLED
 10
1867.759930396925
 20
1456.971514668378
 30
0.0
 41
10.0
 42
10.0
 43
10.0
 50
180.0
  0
INSERT
  5
79D9
330
59C3
100
AcDbEntity
  8
0
  6
Continuous
 62
     0
440
 16777216
370
    -2
100
AcDbBlockReference
  2
_ARROW_FILLED
 10
2115.759930396925
 20
1456.971514668378
 30
0.0
 41
10.0
 42
10.0
 43
10.0
  0
MTEXT
  5
79DA
330
59C3
100
AcDbEntity
  8
0
  6
Continuous
 62
     0
440
 16777216
100
AcDbMText
 10
1991.759930396925
 20
1461.596514668378
 30
0.0
 40
8.0
 41
0.0
 46
0.0
 71
     5
 72
     1
  1
\A1;124
 73
     1
 44
1.0
  0
POINT
  5
79DB
330
59C3
100
AcDbEntity
  8
Defpoints
  6
Continuous
 62
     0
440
 16777216
100
AcDbPoint
 10
1867.759930396925
 20
1437.657570980587
 30
0.0
  0
POINT
  5
79DC
330
59C3
100
AcDbEntity
  8
Defpoints
  6
Continuous
 62
     0
440
 16777216
100
AcDbPoint
 10
2115.759930396925
 20
1506.550837080378
 30
0.0
  0
POINT
  5
79DD
330
59C3
100
AcDbEntity
  8
Defpoints
  6
Continuous
 62
     0
440
 16777216
100
AcDbPoint
 10
2115.759930396925
 20
1456.971514668378
 30
0.0
  0
ENDBLK
  5
59CE
330
59C3
100
AcDbEntity
  8
0
100
AcDbBlockEnd
  0
BLOCK
  5
59D9
330
59CF
100
AcDbEntity
  8
0
100
AcDbBlockBegin
  2
*D22
 70
     1
 10
0.0
 20
0.0
 30
0.0
  3
*D22
  1

  0
LINE
  5
79DE
330
59CF
100
AcDbEntity
  8
0
  6
Continuous
 62
     0
440
 16777216
370
    -2
100
AcDbLine
 10
2147.759930396925
 20
1517.216724263979
 30
0.0
 11
2156.332581742726
 21
1517.216724263979
 31
0.0
  0
LINE
  5
79DF
330
59CF
100
AcDbEntity
  8
0
  6
Continuous
 62
     0
440
 16777216
370
    -2
100
AcDbLine
 10
1920.759930396925
 20
1334.216724263978
 30
0.0
 11
2156.332581742726
 21
1334.216724263978
 31
0.0
  0
LINE
  5
79E0
330
59CF
100
AcDbEntity
  8
0
  6
Continuous
 62
     0
440
 16777216
370
    -2
100
AcDbLine
 10
2154.832581742726
 20
1507.216724263979
 30
0.0
 11
2154.832581742726
 21
1344.216724263978
 31
0.0
  0
INSERT
  5
79E1
330
59CF
100
AcDbEntity
  8
0
  6
Continuous
 62
     0
440
 16777216
370
    -2
100
AcDbBlockReference
  2
_ARROW_FILLED
 10
2154.832581742726
 20
1517.216724263979
 30
0.0
 41
10.0
 42
10.0
 43
10.0
 50
90.0
  0
INSERT
  5
79E2
330
59CF
100
AcDbEntity
  8
0
  6
Continuous
 62
     0
440
 16777216
370
    -2
100
AcDbBlockReference
  2
_ARROW_FILLED
 10
2154.832581742726
 20
1334.216724263978
 30
0.0
 41
10.0
 42
10.0
 43
10.0
 50
270.0
  0
MTEXT
  5
79E3
330
59CF
100
AcDbEntity
  8
0
  6
Continuous
 62
     0
440
 16777216
100
AcDbMText
 10
2150.139010314154
 20
1425.716724263979
 30
0.0
 40
8.0
 41
0.0
 46
0.0
 71
     5
 72
     1
  1
\A1;91.5
 11
0.0000000000000001
 21
1.0
 31
0.0
 73
     1
 44
1.0
  0
POINT
  5
79E4
330
59CF
100
AcDbEntity
  8
Defpoints
  6
Continuous
 62
     0
440
 16777216
100
AcDbPoint
 10
2146.759930396925
 20
1517.216724263979
 30
0.0
  0
POINT
  5
79E5
330
59CF
100
AcDbEntity
  8
Defpoints
  6
Continuous
 62
     0
440
 16777216
100
AcDbPoint
 10
1919.759930396925
 20
1334.216724263978
 30
0.0
  0
POINT
  5
79E6
330
59CF
100
AcDbEntity
  8
Defpoints
  6
Continuous
 62
     0
440
 16777216
100
AcDbPoint
 10
2154.832581742726
 20
1334.216724263978
 30
0.0
  0
ENDBLK
  5
59DA
330
59CF
100
AcDbEntity
  8
0
100
AcDbBlockEnd
  0
BLOCK
  5
59E5
330
59DB
100
AcDbEntity
  8
0
100
AcDbBlockBegin
  2
*D23
 70
     1
 10
0.0
 20
0.0
 30
0.0
  3
*D23
  1

  0
LINE
  5
7968
330
59DB
100
AcDbEntity
  8
0
  6
Continuous
 62
     0
440
 16777216
370
    -2
100
AcDbLine
 10
1825.760886787525
 20
1345.816724263979
 30
0.0
 11
1825.760886787525
 21
1355.539328492379
 31
0.0
  0
LINE
  5
7969
330
59DB
100
AcDbEntity
  8
0
  6
Continuous
 62
     0
440
 16777216
370
    -2
100
AcDbLine
 10
1909.760886787525
 20
1345.816724263979
 30
0.0
 11
1909.760886787525
 21
1355.539328492379
 31
0.0
  0
LINE
  5
796A
330
59DB
100
AcDbEntity
  8
0
  6
Continuous
 62
     0
440
 16777216
370
    -2
100
AcDbLine
 10
1835.760886787525
 20
1354.039328492379
 30
0.0
 11
1899.760886787525
 21
1354.039328492379
 31
0.0
  0
INSERT
  5
796B
330
59DB
100
AcDbEntity
  8
0
  6
Continuous
 62
     0
440
 16777216
370
    -2
100
AcDbBlockReference
  2
_ARROW_FILLED
 10
1825.760886787525
 20
1354.039328492379
 30
0.0
 41
10.0
 42
10.0
 43
10.0
 50
180.0
  0
INSERT
  5
796C
330
59DB
100
AcDbEntity
  8
0
  6
Continuous
 62
     0
440
 16777216
370
    -2
100
AcDbBlockReference
  2
_ARROW_FILLED
 10
1909.760886787525
 20
1354.039328492379
 30
0.0
 41
10.0
 42
10.0
 43
10.0
  0
MTEXT
  5
796D
330
59DB
100
AcDbEntity
  8
0
  6
Continuous
 62
     0
440
 16777216
100
AcDbMText
 10
1867.760886787525
 20
1358.664328492379
 30
0.0
 40
8.0
 41
0.0
 46
0.0
 71
     5
 72
     1
  1
\A1;{\fSimSun|b0|i0|c134|p2;%%C}42
  7
TEXTSTYLE_2
 73
     1
 44
1.0
  0
POINT
  5
796E
330
59DB
100
AcDbEntity
  8
Defpoints
  6
Continuous
 62
     0
440
 16777216
100
AcDbPoint
 10
1825.760886787525
 20
1344.816724263979
 30
0.0
  0
POINT
  5
796F
330
59DB
100
AcDbEntity
  8
Defpoints
  6
Continuous
 62
     0
440
 16777216
100
AcDbPoint
 10
1909.760886787525
 20
1344.816724263979
 30
0.0
  0
POINT
  5
7970
330
59DB
100
AcDbEntity
  8
Defpoints
  6
Continuous
 62
     0
440
 16777216
100
AcDbPoint
 10
1909.760886787525
 20
1354.039328492379
 30
0.0
  0
ENDBLK
  5
59E6
330
59DB
100
AcDbEntity
  8
0
100
AcDbBlockEnd
  0
BLOCK
  5
59F1
330
59E7
100
AcDbEntity
  8
0
100
AcDbBlockBegin
  2
*D24
 70
     1
 10
0.0
 20
0.0
 30
0.0
  3
*D24
  1

  0
LINE
  5
A09C
330
59E7
100
AcDbEntity
  8
0
  6
Continuous
 62
     0
440
 16777216
370
    -2
100
AcDbLine
 10
1817.760886787525
 20
1325.216724263979
 30
0.0
 11
1817.760886787525
 21
1305.626556177089
 31
0.0
  0
LINE
  5
A09D
330
59E7
100
AcDbEntity
  8
0
  6
Continuous
 62
     0
440
 16777216
370
    -2
100
AcDbLine
 10
1917.760886787525
 20
1331.216724263979
 30
0.0
 11
1917.760886787525
 21
1305.626556177089
 31
0.0
  0
LINE
  5
A09E
330
59E7
100
AcDbEntity
  8
0
  6
Continuous
 62
     0
440
 16777216
370
    -2
100
AcDbLine
 10
1827.760886787525
 20
1307.126556177089
 30
0.0
 11
1907.760886787525
 21
1307.126556177089
 31
0.0
  0
INSERT
  5
A09F
330
59E7
100
AcDbEntity
  8
0
  6
Continuous
 62
     0
440
 16777216
370
    -2
100
AcDbBlockReference
  2
_ARROW_FILLED
 10
1817.760886787525
 20
1307.126556177089
 30
0.0
 41
10.0
 42
10.0
 43
10.0
 50
180.0
  0
INSERT
  5
A0A0
330
59E7
100
AcDbEntity
  8
0
  6
Continuous
 62
     0
440
 16777216
370
    -2
100
AcDbBlockReference
  2
_ARROW_FILLED
 10
1917.760886787525
 20
1307.126556177089
 30
0.0
 41
10.0
 42
10.0
 43
10.0
  0
MTEXT
  5
A0A1
330
59E7
100
AcDbEntity
  8
0
  6
Continuous
 62
     0
440
 16777216
100
AcDbMText
 10
1867.398894606164
 20
1311.797270462803
 30
0.0
 40
8.0
 41
0.0
 46
0.0
 71
     5
 72
     1
  1
\A1;{\fSimSun|b0|i0|c134|p2;%%C}50
  7
TEXTSTYLE_2
 73
     1
 44
1.0
  0
POINT
  5
A0A2
330
59E7
100
AcDbEntity
  8
Defpoints
  6
Continuous
 62
     0
440
 16777216
100
AcDbPoint
 10
1817.760886787525
 20
1326.216724263979
 30
0.0
  0
POINT
  5
A0A3
330
59E7
100
AcDbEntity
  8
Defpoints
  6
Continuous
 62
     0
440
 16777216
100
AcDbPoint
 10
1917.760886787525
 20
1332.216724263979
 30
0.0
  0
POINT
  5
A0A4
330
59E7
100
AcDbEntity
  8
Defpoints
  6
Continuous
 62
     0
440
 16777216
100
AcDbPoint
 10
1917.760886787525
 20
1307.126556177089
 30
0.0
  0
ENDBLK
  5
59F2
330
59E7
100
AcDbEntity
  8
0
100
AcDbBlockEnd
  0
BLOCK
  5
5FB6
330
5FAC
100
AcDbEntity
  8
0
100
AcDbBlockBegin
  2
*D25
 70
     1
 10
0.0
 20
0.0
 30
0.0
  3
*D25
  1

  0
LINE
  5
6049
330
5FAC
100
AcDbEntity
  8
CAXA4
  6
Continuous
 62
     0
440
 16777216
370
    -2
100
AcDbLine
 10
2888.754903674193
 20
1282.298416344161
 30
0.0
 11
2868.249565829982
 21
1282.298416344161
 31
0.0
  0
LINE
  5
604A
330
5FAC
100
AcDbEntity
  8
CAXA4
  6
Continuous
 62
     0
440
 16777216
370
    -2
100
AcDbLine
 10
2882.712848416955
 20
1410.29841634416
 30
0.0
 11
2868.249565829982
 21
1410.29841634416
 31
0.0
  0
LINE
  5
604B
330
5FAC
100
AcDbEntity
  8
CAXA4
  6
Continuous
 62
     0
440
 16777216
370
    -2
100
AcDbLine
 10
2869.749565829982
 20
1290.298416344161
 30
0.0
 11
2869.749565829982
 21
1402.29841634416
 31
0.0
  0
INSERT
  5
604C
330
5FAC
100
AcDbEntity
  8
CAXA4
  6
Continuous
 62
     0
440
 16777216
370
    -2
100
AcDbBlockReference
  2
_ARROW_FILLED
 10
2869.749565829982
 20
1282.298416344161
 30
0.0
 41
8.0
 42
8.0
 43
8.0
 50
270.0
  0
INSERT
  5
604D
330
5FAC
100
AcDbEntity
  8
CAXA4
  6
Continuous
 62
     0
440
 16777216
370
    -2
100
AcDbBlockReference
  2
_ARROW_FILLED
 10
2869.749565829982
 20
1410.29841634416
 30
0.0
 41
8.0
 42
8.0
 43
8.0
 50
90.0
  0
MTEXT
  5
604E
330
5FAC
100
AcDbEntity
  8
CAXA4
  6
Continuous
 62
     0
440
 16777216
370
     0
100
AcDbMText
 10
2864.067422972839
 20
1346.298416344161
 30
0.0
 40
10.0
 41
0.0
 46
0.0
 71
     5
 72
     1
  1
\A1;32
 11
0.0000000000000001
 21
1.0
 31
0.0
 73
     1
 44
1.0
  0
POINT
  5
604F
330
5FAC
100
AcDbEntity
  8
Defpoints
  6
Continuous
 62
     0
440
 16777216
100
AcDbPoint
 10
2889.754903674193
 20
1282.298416344161
 30
0.0
  0
POINT
  5
6050
330
5FAC
100
AcDbEntity
  8
Defpoints
  6
Continuous
 62
     0
440
 16777216
100
AcDbPoint
 10
2883.712848416955
 20
1410.29841634416
 30
0.0
  0
POINT
  5
6051
330
5FAC
100
AcDbEntity
  8
Defpoints
  6
Continuous
 62
     0
440
 16777216
100
AcDbPoint
 10
2869.749565829982
 20
1410.29841634416
 30
0.0
  0
ENDBLK
  5
5FB7
330
5FAC
100
AcDbEntity
  8
0
100
AcDbBlockEnd
  0
BLOCK
  5
5FC3
330
5FB8
100
AcDbEntity
  8
0
100
AcDbBlockBegin
  2
*D26
 70
     1
 10
0.0
 20
0.0
 30
0.0
  3
*D26
  1

  0
LINE
  5
6052
330
5FB8
100
AcDbEntity
  8
CAXA4
  6
Continuous
 62
     0
440
 16777216
370
    -2
100
AcDbLine
 10
2913.155098055396
 20
1411.722820141916
 30
0.0
 11
2913.155098055396
 21
1467.604295946174
 31
0.0
  0
LINE
  5
6053
330
5FB8
100
AcDbEntity
  8
CAXA4
  6
Continuous
 62
     0
440
 16777216
370
    -2
100
AcDbLine
 10
2929.675305352937
 20
1411.271962892779
 30
0.0
 11
2929.675305352937
 21
1467.604295946174
 31
0.0
  0
LINE
  5
6054
330
5FB8
100
AcDbEntity
  8
CAXA4
  6
Continuous
 62
     0
440
 16777216
370
    -2
100
AcDbLine
 10
2905.155098055396
 20
1466.104295946174
 30
0.0
 11
2897.155098055396
 21
1466.104295946174
 31
0.0
  0
LINE
  5
6055
330
5FB8
100
AcDbEntity
  8
CAXA4
  6
Continuous
 62
     0
440
 16777216
370
    -2
100
AcDbLine
 10
2937.675305352937
 20
1466.104295946174
 30
0.0
 11
2945.675305352937
 21
1466.104295946174
 31
0.0
  0
INSERT
  5
6056
330
5FB8
100
AcDbEntity
  8
CAXA4
  6
Continuous
 62
     0
440
 16777216
370
    -2
100
AcDbBlockReference
  2
_ARROW_FILLED
 10
2913.155098055396
 20
1466.104295946174
 30
0.0
 41
8.0
 42
8.0
 43
8.0
  0
INSERT
  5
6057
330
5FB8
100
AcDbEntity
  8
CAXA4
  6
Continuous
 62
     0
440
 16777216
370
    -2
100
AcDbBlockReference
  2
_ARROW_FILLED
 10
2929.675305352937
 20
1466.104295946174
 30
0.0
 41
8.0
 42
8.0
 43
8.0
 50
180.0
  0
MTEXT
  5
6058
330
5FB8
100
AcDbEntity
  8
CAXA4
  6
Continuous
 62
     0
440
 16777216
370
     0
100
AcDbMText
 10
2921.415201704166
 20
1471.729295946174
 30
0.0
 40
10.0
 41
0.0
 46
0.0
 71
     5
 72
     1
  1
\A1;4
 73
     1
 44
1.0
  0
POINT
  5
6059
330
5FB8
100
AcDbEntity
  8
Defpoints
  6
Continuous
 62
     0
440
 16777216
100
AcDbPoint
 10
2913.155098055396
 20
1410.722820141916
 30
0.0
  0
POINT
  5
605A
330
5FB8
100
AcDbEntity
  8
Defpoints
  6
Continuous
 62
     0
440
 16777216
100
AcDbPoint
 10
2929.675305352937
 20
1410.271962892779
 30
0.0
  0
POINT
  5
605B
330
5FB8
100
AcDbEntity
  8
Defpoints
  6
Continuous
 62
     0
440
 16777216
100
AcDbPoint
 10
2929.675305352937
 20
1466.104295946174
 30
0.0
  0
ENDBLK
  5
5FC4
330
5FB8
100
AcDbEntity
  8
0
100
AcDbBlockEnd
  0
BLOCK
  5
5FD0
330
5FC5
100
AcDbEntity
  8
0
100
AcDbBlockBegin
  2
*D27
 70
     1
 10
0.0
 20
0.0
 30
0.0
  3
*D27
  1

  0
LINE
  5
605C
330
5FC5
100
AcDbEntity
  8
CAXA4
  6
Continuous
 62
     0
440
 16777216
370
    -2
100
AcDbLine
 10
3626.823493448156
 20
1542.438070899972
 30
0.0
 11
3581.911605289208
 21
1542.438070899972
 31
0.0
  0
LINE
  5
605D
330
5FC5
100
AcDbEntity
  8
CAXA4
  6
Continuous
 62
     0
440
 16777216
370
    -2
100
AcDbLine
 10
3628.023493448156
 20
1521.238070899972
 30
0.0
 11
3581.911605289208
 21
1521.238070899973
 31
0.0
  0
LINE
  5
605E
330
5FC5
100
AcDbEntity
  8
CAXA4
  6
Continuous
 62
     0
440
 16777216
370
    -2
100
AcDbLine
 10
3583.411605289208
 20
1534.438070899972
 30
0.0
 11
3583.411605289208
 21
1529.238070899973
 31
0.0
  0
INSERT
  5
605F
330
5FC5
100
AcDbEntity
  8
CAXA4
  6
Continuous
 62
     0
440
 16777216
370
    -2
100
AcDbBlockReference
  2
_ARROW_FILLED
 10
3583.411605289208
 20
1542.438070899972
 30
0.0
 41
8.0
 42
8.0
 43
8.0
 50
90.0
  0
INSERT
  5
6060
330
5FC5
100
AcDbEntity
  8
CAXA4
  6
Continuous
 62
     0
440
 16777216
370
    -2
100
AcDbBlockReference
  2
_ARROW_FILLED
 10
3583.411605289208
 20
1521.238070899973
 30
0.0
 41
8.0
 42
8.0
 43
8.0
 50
270.0
  0
MTEXT
  5
6061
330
5FC5
100
AcDbEntity
  8
CAXA4
  6
Continuous
 62
     0
440
 16777216
370
     0
100
AcDbMText
 10
3577.729462432065
 20
1531.838070899973
 30
0.0
 40
10.0
 41
0.0
 46
0.0
 71
     5
 72
     1
  1
\A1;10
 11
0.0000000000000001
 21
1.0
 31
0.0
 73
     1
 44
1.0
  0
POINT
  5
6062
330
5FC5
100
AcDbEntity
  8
Defpoints
  6
Continuous
 62
     0
440
 16777216
100
AcDbPoint
 10
3627.823493448156
 20
1542.438070899972
 30
0.0
  0
POINT
  5
6063
330
5FC5
100
AcDbEntity
  8
Defpoints
  6
Continuous
 62
     0
440
 16777216
100
AcDbPoint
 10
3629.023493448156
 20
1521.238070899972
 30
0.0
  0
POINT
  5
6064
330
5FC5
100
AcDbEntity
  8
Defpoints
  6
Continuous
 62
     0
440
 16777216
100
AcDbPoint
 10
3583.411605289208
 20
1521.238070899973
 30
0.0
  0
ENDBLK
  5
5FD1
330
5FC5
100
AcDbEntity
  8
0
100
AcDbBlockEnd
  0
BLOCK
  5
5FDC
330
5FD2
100
AcDbEntity
  8
0
100
AcDbBlockBegin
  2
*D28
 70
     1
 10
0.0
 20
0.0
 30
0.0
  3
*D28
  1

  0
LINE
  5
6065
330
5FD2
100
AcDbEntity
  8
CAXA4
  6
Continuous
 62
     0
440
 16777216
370
    -2
100
AcDbLine
 10
3686.234621616929
 20
1560.952519522273
 30
0.0
 11
3686.234621616929
 21
1596.58301123252
 31
0.0
  0
LINE
  5
6066
330
5FD2
100
AcDbEntity
  8
CAXA4
  6
Continuous
 62
     0
440
 16777216
370
    -2
100
AcDbLine
 10
3738.220063702087
 20
1560.952519522273
 30
0.0
 11
3738.220063702087
 21
1596.58301123252
 31
0.0
  0
LINE
  5
6067
330
5FD2
100
AcDbEntity
  8
CAXA4
  6
Continuous
 62
     0
440
 16777216
370
    -2
100
AcDbLine
 10
3694.234621616929
 20
1595.08301123252
 30
0.0
 11
3730.220063702087
 21
1595.08301123252
 31
0.0
  0
INSERT
  5
6068
330
5FD2
100
AcDbEntity
  8
CAXA4
  6
Continuous
 62
     0
440
 16777216
370
    -2
100
AcDbBlockReference
  2
_ARROW_FILLED
 10
3686.234621616929
 20
1595.08301123252
 30
0.0
 41
8.0
 42
8.0
 43
8.0
 50
180.0
  0
INSERT
  5
6069
330
5FD2
100
AcDbEntity
  8
CAXA4
  6
Continuous
 62
     0
440
 16777216
370
    -2
100
AcDbBlockReference
  2
_ARROW_FILLED
 10
3738.220063702087
 20
1595.08301123252
 30
0.0
 41
8.0
 42
8.0
 43
8.0
  0
MTEXT
  5
606A
330
5FD2
100
AcDbEntity
  8
CAXA4
  6
Continuous
 62
     0
440
 16777216
370
     0
100
AcDbMText
 10
3712.227342659508
 20
1600.765154089663
 30
0.0
 40
10.0
 41
0.0
 46
0.0
 71
     5
 72
     1
  1
\A1;13
 73
     1
 44
1.0
  0
POINT
  5
606B
330
5FD2
100
AcDbEntity
  8
Defpoints
  6
Continuous
 62
     0
440
 16777216
100
AcDbPoint
 10
3686.234621616929
 20
1559.952519522273
 30
0.0
  0
POINT
  5
606C
330
5FD2
100
AcDbEntity
  8
Defpoints
  6
Continuous
 62
     0
440
 16777216
100
AcDbPoint
 10
3738.220063702087
 20
1559.952519522273
 30
0.0
  0
POINT
  5
606D
330
5FD2
100
AcDbEntity
  8
Defpoints
  6
Continuous
 62
     0
440
 16777216
100
AcDbPoint
 10
3738.220063702087
 20
1595.08301123252
 30
0.0
  0
ENDBLK
  5
5FDD
330
5FD2
100
AcDbEntity
  8
0
100
AcDbBlockEnd
  0
BLOCK
  5
5FE9
330
5FDE
100
AcDbEntity
  8
0
100
AcDbBlockBegin
  2
*D29
 70
     1
 10
0.0
 20
0.0
 30
0.0
  3
*D29
  1

  0
LINE
  5
606E
330
5FDE
100
AcDbEntity
  8
CAXA4
  6
Continuous
 62
     0
440
 16777216
370
    -2
100
AcDbLine
 10
3732.934581886904
 20
1587.530207526815
 30
0.0
 11
3776.027156439087
 21
1587.530207526815
 31
0.0
  0
LINE
  5
606F
330
5FDE
100
AcDbEntity
  8
CAXA4
  6
Continuous
 62
     0
440
 16777216
370
    -2
100
AcDbLine
 10
3763.098315891433
 20
1542.438070899972
 30
0.0
 11
3776.027156439087
 21
1542.438070899972
 31
0.0
  0
LINE
  5
6070
330
5FDE
100
AcDbEntity
  8
CAXA4
  6
Continuous
 62
     0
440
 16777216
370
    -2
100
AcDbLine
 10
3774.527156439086
 20
1579.530207526815
 30
0.0
 11
3774.527156439086
 21
1550.438070899972
 31
0.0
  0
INSERT
  5
6071
330
5FDE
100
AcDbEntity
  8
CAXA4
  6
Continuous
 62
     0
440
 16777216
370
    -2
100
AcDbBlockReference
  2
_ARROW_FILLED
 10
3774.527156439086
 20
1587.530207526815
 30
0.0
 41
8.0
 42
8.0
 43
8.0
 50
90.0
  0
INSERT
  5
6072
330
5FDE
100
AcDbEntity
  8
CAXA4
  6
Continuous
 62
     0
440
 16777216
370
    -2
100
AcDbBlockReference
  2
_ARROW_FILLED
 10
3774.527156439086
 20
1542.438070899972
 30
0.0
 41
8.0
 42
8.0
 43
8.0
 50
270.0
  0
MTEXT
  5
6073
330
5FDE
100
AcDbEntity
  8
CAXA4
  6
Continuous
 62
     0
440
 16777216
370
     0
100
AcDbMText
 10
3768.816442153371
 20
1564.984139213394
 30
0.0
 40
10.0
 41
0.0
 46
0.0
 71
     5
 72
     1
  1
\A1;11.5
 11
0.0000000000000001
 21
1.0
 31
0.0
 73
     1
 44
1.0
  0
POINT
  5
6074
330
5FDE
100
AcDbEntity
  8
Defpoints
  6
Continuous
 62
     0
440
 16777216
100
AcDbPoint
 10
3731.934581886903
 20
1587.530207526815
 30
0.0
  0
POINT
  5
6075
330
5FDE
100
AcDbEntity
  8
Defpoints
  6
Continuous
 62
     0
440
 16777216
100
AcDbPoint
 10
3762.098315891434
 20
1542.438070899972
 30
0.0
  0
POINT
  5
6076
330
5FDE
100
AcDbEntity
  8
Defpoints
  6
Continuous
 62
     0
440
 16777216
100
AcDbPoint
 10
3774.527156439086
 20
1542.438070899972
 30
0.0
  0
ENDBLK
  5
5FEA
330
5FDE
100
AcDbEntity
  8
0
100
AcDbBlockEnd
  0
BLOCK
  5
60F1
330
60F0
100
AcDbEntity
  8
0
  6
Continuous
 62
     2
100
AcDbBlockBegin
  2
BALLOON_BL22
 70
     0
 10
316.7679315735
 20
714.2189318414
 30
0.0
  3
BALLOON_BL22
  1

  0
CIRCLE
  5
60F2
330
60F0
100
AcDbEntity
  8
0
  6
Continuous
 62
     2
100
AcDbCircle
 10
316.7679315735
 20
714.2189318414
 30
0.0
 40
10.0
  0
MTEXT
  5
60F3
330
60F0
100
AcDbEntity
  8
0
  6
Continuous
 62
     2
100
AcDbMText
 10
305.7523065735
 20
719.2189318414
 30
0.0
 40
10.0
 41
22.03125
 46
0.0
 71
     1
 72
     1
  1
 1 
 73
     1
 44
1.0
  0
ENDBLK
  5
60F4
330
60F0
100
AcDbEntity
  8
0
  6
ByBlock
 62
     0
100
AcDbBlockEnd
  0
BLOCK
  5
60F6
330
60F5
100
AcDbEntity
  8
0
  6
Continuous
 62
     2
100
AcDbBlockBegin
  2
BALLOON_BL21
 70
     0
 10
333.3180559712
 20
698.6377292417999
 30
0.0
  3
BALLOON_BL21
  1

  0
CIRCLE
  5
60F7
330
60F5
100
AcDbEntity
  8
0
  6
Continuous
 62
     2
100
AcDbCircle
 10
333.3180559712
 20
698.6377292417999
 30
0.0
 40
10.0
  0
MTEXT
  5
60F8
330
60F5
100
AcDbEntity
  8
0
  6
Continuous
 62
     2
100
AcDbMText
 10
322.3024309712
 20
703.6377292417999
 30
0.0
 40
10.0
 41
22.03125
 46
0.0
 71
     1
 72
     1
  1
 2 
 73
     1
 44
1.0
  0
ENDBLK
  5
60F9
330
60F5
100
AcDbEntity
  8
0
  6
ByBlock
 62
     0
100
AcDbBlockEnd
  0
BLOCK
  5
60FB
330
60FA
100
AcDbEntity
  8
0
  6
Continuous
 62
     2
100
AcDbBlockBegin
  2
BALLOON_BL20
 70
     0
 10
539.0990277325999
 20
319.5200816047
 30
0.0
  3
BALLOON_BL20
  1

  0
CIRCLE
  5
60FC
330
60FA
100
AcDbEntity
  8
0
  6
Continuous
 62
     2
100
AcDbCircle
 10
539.0990277325999
 20
319.5200816047
 30
0.0
 40
10.0
  0
MTEXT
  5
60FD
330
60FA
100
AcDbEntity
  8
0
  6
Continuous
 62
     2
100
AcDbMText
 10
524.4115277326
 20
324.5200816047
 30
0.0
 40
10.0
 41
29.375
 46
0.0
 71
     1
 72
     1
  1
 14 
 73
     1
 44
1.0
  0
ENDBLK
  5
60FE
330
60FA
100
AcDbEntity
  8
0
  6
ByBlock
 62
     0
100
AcDbBlockEnd
  0
BLOCK
  5
6100
330
60FF
100
AcDbEntity
  8
0
  6
Continuous
 62
     2
100
AcDbBlockBegin
  2
BALLOON_BL19
 70
     0
 10
540.4337151841
 20
271.2680020618
 30
0.0
  3
BALLOON_BL19
  1

  0
CIRCLE
  5
6101
330
60FF
100
AcDbEntity
  8
0
  6
Continuous
 62
     2
100
AcDbCircle
 10
540.4337151841
 20
271.2680020618
 30
0.0
 40
10.0
  0
MTEXT
  5
6102
330
60FF
100
AcDbEntity
  8
0
  6
Continuous
 62
     2
100
AcDbMText
 10
525.7462151841
 20
276.2680020618
 30
0.0
 40
10.0
 41
29.375
 46
0.0
 71
     1
 72
     1
  1
 16 
 73
     1
 44
1.0
  0
ENDBLK
  5
6103
330
60FF
100
AcDbEntity
  8
0
  6
ByBlock
 62
     0
100
AcDbBlockEnd
  0
BLOCK
  5
6105
330
6104
100
AcDbEntity
  8
0
  6
Continuous
 62
     2
100
AcDbBlockBegin
  2
BALLOON_BL18
 70
     0
 10
540.4337151841
 20
458.6545358767
 30
0.0
  3
BALLOON_BL18
  1

  0
CIRCLE
  5
6106
330
6104
100
AcDbEntity
  8
0
  6
Continuous
 62
     2
100
AcDbCircle
 10
540.4337151841
 20
458.6545358767
 30
0.0
 40
10.0
  0
MTEXT
  5
6107
330
6104
100
AcDbEntity
  8
0
  6
Continuous
 62
     2
100
AcDbMText
 10
525.7462151841
 20
463.6545358767
 30
0.0
 40
10.0
 41
29.375
 46
0.0
 71
     1
 72
     1
  1
 11 
 73
     1
 44
1.0
  0
ENDBLK
  5
6108
330
6104
100
AcDbEntity
  8
0
  6
ByBlock
 62
     0
100
AcDbBlockEnd
  0
BLOCK
  5
78D4
330
78C9
100
AcDbEntity
  8
0
100
AcDbBlockBegin
  2
*D35
 70
     1
 10
0.0
 20
0.0
 30
0.0
  3
*D35
  1

  0
LINE
  5
78FB
330
78C9
100
AcDbEntity
  8
0
  6
Continuous
 62
     0
440
 16777216
370
    -2
100
AcDbLine
 10
1817.760886787525
 20
1150.253821264573
 30
0.0
 11
1817.760886787525
 21
1095.019264317388
 31
0.0
  0
LINE
  5
78FC
330
78C9
100
AcDbEntity
  8
0
  6
Continuous
 62
     0
440
 16777216
370
    -2
100
AcDbLine
 10
2146.760886787525
 20
1150.253821222904
 30
0.0
 11
2146.760886787525
 21
1095.019264317388
 31
0.0
  0
LINE
  5
78FD
330
78C9
100
AcDbEntity
  8
0
  6
Continuous
 62
     0
440
 16777216
370
    -2
100
AcDbLine
 10
1827.760886787525
 20
1096.519264317388
 30
0.0
 11
2136.760886787525
 21
1096.519264317388
 31
0.0
  0
INSERT
  5
78FE
330
78C9
100
AcDbEntity
  8
0
  6
Continuous
 62
     0
440
 16777216
370
    -2
100
AcDbBlockReference
  2
_ARROW_FILLED
 10
1817.760886787525
 20
1096.519264317388
 30
0.0
 41
10.0
 42
10.0
 43
10.0
 50
180.0
  0
INSERT
  5
78FF
330
78C9
100
AcDbEntity
  8
0
  6
Continuous
 62
     0
440
 16777216
370
    -2
100
AcDbBlockReference
  2
_ARROW_FILLED
 10
2146.760886787525
 20
1096.519264317388
 30
0.0
 41
10.0
 42
10.0
 43
10.0
  0
MTEXT
  5
7900
330
78C9
100
AcDbEntity
  8
0
  6
Continuous
 62
     0
440
 16777216
100
AcDbMText
 10
1982.260886787525
 20
1102.229978603102
 30
0.0
 40
10.0
 41
0.0
 46
0.0
 71
     5
 72
     1
  1
\A1;164.5
 73
     1
 44
1.0
  0
POINT
  5
7901
330
78C9
100
AcDbEntity
  8
Defpoints
  6
Continuous
 62
     0
440
 16777216
100
AcDbPoint
 10
1817.760886787525
 20
1151.253821264573
 30
0.0
  0
POINT
  5
7902
330
78C9
100
AcDbEntity
  8
Defpoints
  6
Continuous
 62
     0
440
 16777216
100
AcDbPoint
 10
2146.760886787525
 20
1151.253821222904
 30
0.0
  0
POINT
  5
7903
330
78C9
100
AcDbEntity
  8
Defpoints
  6
Continuous
 62
     0
440
 16777216
100
AcDbPoint
 10
2146.760886787525
 20
1096.519264317388
 30
0.0
  0
ENDBLK
  5
78D5
330
78C9
100
AcDbEntity
  8
0
100
AcDbBlockEnd
  0
BLOCK
  5
797E
330
7972
100
AcDbEntity
  8
0
100
AcDbBlockBegin
  2
*D36
 70
     1
 10
0.0
 20
0.0
 30
0.0
  3
*D36
  1

  0
LINE
  5
7989
330
7972
100
AcDbEntity
  8
0
  6
Continuous
 62
     0
440
 16777216
370
    -2
100
AcDbLine
 10
2133.760886787525
 20
1165.253821222904
 30
0.0
 11
2178.192036098703
 21
1165.253821222904
 31
0.0
  0
LINE
  5
798A
330
7972
100
AcDbEntity
  8
0
  6
Continuous
 62
     0
440
 16777216
370
    -2
100
AcDbLine
 10
2133.760886787525
 20
1137.253821222905
 30
0.0
 11
2178.192036098703
 21
1137.253821222905
 31
0.0
  0
LINE
  5
798B
330
7972
100
AcDbEntity
  8
0
  6
Continuous
 62
     0
440
 16777216
370
    -2
100
AcDbLine
 10
2176.692036098703
 20
1157.253821222904
 30
0.0
 11
2176.692036098703
 21
1145.253821222905
 31
0.0
  0
INSERT
  5
798C
330
7972
100
AcDbEntity
  8
0
  6
Continuous
 62
     0
440
 16777216
370
    -2
100
AcDbBlockReference
  2
_ARROW_FILLED
 10
2176.692036098703
 20
1165.253821222904
 30
0.0
 41
8.0
 42
8.0
 43
8.0
 50
90.0
  0
INSERT
  5
798D
330
7972
100
AcDbEntity
  8
0
  6
Continuous
 62
     0
440
 16777216
370
    -2
100
AcDbBlockReference
  2
_ARROW_FILLED
 10
2176.692036098703
 20
1137.253821222905
 30
0.0
 41
8.0
 42
8.0
 43
8.0
 50
270.0
  0
MTEXT
  5
798E
330
7972
100
AcDbEntity
  8
0
  6
Continuous
 62
     0
440
 16777216
100
AcDbMText
 10
2172.067036098703
 20
1151.253821222905
 30
0.0
 40
8.0
 41
0.0
 46
0.0
 71
     5
 72
     1
  1
\A1;14
 11
0.0000000000000001
 21
1.0
 31
0.0
 73
     1
 44
1.0
  0
POINT
  5
798F
330
7972
100
AcDbEntity
  8
Defpoints
  6
Continuous
 62
     0
440
 16777216
100
AcDbPoint
 10
2132.760886787525
 20
1165.253821222904
 30
0.0
  0
POINT
  5
7990
330
7972
100
AcDbEntity
  8
Defpoints
  6
Continuous
 62
     0
440
 16777216
100
AcDbPoint
 10
2132.760886787525
 20
1137.253821222905
 30
0.0
  0
POINT
  5
7991
330
7972
100
AcDbEntity
  8
Defpoints
  6
Continuous
 62
     0
440
 16777216
100
AcDbPoint
 10
2176.692036098703
 20
1137.253821222905
 30
0.0
  0
ENDBLK
  5
797F
330
7972
100
AcDbEntity
  8
0
100
AcDbBlockEnd
  0
BLOCK
  5
7A02
330
79F7
100
AcDbEntity
  8
0
100
AcDbBlockBegin
  2
*D37
 70
     1
 10
0.0
 20
0.0
 30
0.0
  3
*D37
  1

  0
LINE
  5
A089
330
79F7
100
AcDbEntity
  8
0
  6
Continuous
 62
     0
440
 16777216
370
    -2
100
AcDbLine
 10
1837.560886787525
 20
1218.216724263979
 30
0.0
 11
1837.560886787525
 21
1207.50822006438
 31
0.0
  0
LINE
  5
A08A
330
79F7
100
AcDbEntity
  8
0
  6
Continuous
 62
     0
440
 16777216
370
    -2
100
AcDbLine
 10
1849.960886787525
 20
1222.153250389182
 30
0.0
 11
1849.960886787525
 21
1207.50822006438
 31
0.0
  0
LINE
  5
A08B
330
79F7
100
AcDbEntity
  8
0
  6
Continuous
 62
     0
440
 16777216
370
    -2
100
AcDbLine
 10
1827.560886787525
 20
1209.00822006438
 30
0.0
 11
1817.560886787525
 21
1209.00822006438
 31
0.0
  0
LINE
  5
A08C
330
79F7
100
AcDbEntity
  8
0
  6
Continuous
 62
     0
440
 16777216
370
    -2
100
AcDbLine
 10
1859.960886787525
 20
1209.00822006438
 30
0.0
 11
1887.497230661508
 21
1209.00822006438
 31
0.0
  0
INSERT
  5
A08D
330
79F7
100
AcDbEntity
  8
0
  6
Continuous
 62
     0
440
 16777216
370
    -2
100
AcDbBlockReference
  2
_ARROW_FILLED
 10
1837.560886787525
 20
1209.00822006438
 30
0.0
 41
10.0
 42
10.0
 43
10.0
  0
INSERT
  5
A08E
330
79F7
100
AcDbEntity
  8
0
  6
Continuous
 62
     0
440
 16777216
370
    -2
100
AcDbBlockReference
  2
_ARROW_FILLED
 10
1849.960886787525
 20
1209.00822006438
 30
0.0
 41
10.0
 42
10.0
 43
10.0
 50
180.0
  0
MTEXT
  5
A08F
330
79F7
100
AcDbEntity
  8
0
  6
Continuous
 62
     0
440
 16777216
100
AcDbMText
 10
1881.409373518651
 20
1213.678934350094
 30
0.0
 40
8.0
 41
0.0
 46
0.0
 71
     5
 72
     1
  1
\A1;M8
  7
TEXTSTYLE_2
 73
     1
 44
1.0
  0
POINT
  5
A090
330
79F7
100
AcDbEntity
  8
Defpoints
  6
Continuous
 62
     0
440
 16777216
100
AcDbPoint
 10
1837.560886787525
 20
1219.216724263979
 30
0.0
  0
POINT
  5
A091
330
79F7
100
AcDbEntity
  8
Defpoints
  6
Continuous
 62
     0
440
 16777216
100
AcDbPoint
 10
1849.960886787525
 20
1223.153250389182
 30
0.0
  0
POINT
  5
A092
330
79F7
100
AcDbEntity
  8
Defpoints
  6
Continuous
 62
     0
440
 16777216
100
AcDbPoint
 10
1849.960886787525
 20
1209.00822006438
 30
0.0
  0
ENDBLK
  5
7A03
330
79F7
100
AcDbEntity
  8
0
100
AcDbBlockEnd
  0
BLOCK
  5
A0B3
330
A0A8
100
AcDbEntity
  8
0
100
AcDbBlockBegin
  2
*D38
 70
     1
 10
0.0
 20
0.0
 30
0.0
  3
*D38
  1

  0
LINE
  5
A0E5
330
A0A8
100
AcDbEntity
  8
0
  6
Continuous
 62
     0
440
 16777216
370
    -2
100
AcDbLine
 10
1815.760886787525
 20
1334.216724263979
 30
0.0
 11
1784.13066675964
 21
1334.216724263979
 31
0.0
  0
LINE
  5
A0E6
330
A0A8
100
AcDbEntity
  8
0
  6
Continuous
 62
     0
440
 16777216
370
    -2
100
AcDbLine
 10
1830.636684401325
 20
1262.389331155399
 30
0.0
 11
1784.13066675964
 21
1262.389331155399
 31
0.0
  0
LINE
  5
A0E7
330
A0A8
100
AcDbEntity
  8
0
  6
Continuous
 62
     0
440
 16777216
370
    -2
100
AcDbLine
 10
1785.63066675964
 20
1324.216724263979
 30
0.0
 11
1785.63066675964
 21
1272.389331155399
 31
0.0
  0
INSERT
  5
A0E8
330
A0A8
100
AcDbEntity
  8
0
  6
Continuous
 62
     0
440
 16777216
370
    -2
100
AcDbBlockReference
  2
_ARROW_FILLED
 10
1785.63066675964
 20
1334.216724263979
 30
0.0
 41
10.0
 42
10.0
 43
10.0
 50
90.0
  0
INSERT
  5
A0E9
330
A0A8
100
AcDbEntity
  8
0
  6
Continuous
 62
     0
440
 16777216
370
    -2
100
AcDbBlockReference
  2
_ARROW_FILLED
 10
1785.63066675964
 20
1262.389331155399
 30
0.0
 41
10.0
 42
10.0
 43
10.0
 50
270.0
  0
MTEXT
  5
A0EA
330
A0A8
100
AcDbEntity
  8
0
  6
Continuous
 62
     0
440
 16777216
100
AcDbMText
 10
1780.959952473926
 20
1298.303027709689
 30
0.0
 40
8.0
 41
0.0
 46
0.0
 71
     5
 72
     1
  1
\A1;MAX=40
 11
0.0000000000000001
 21
1.0
 31
0.0
 73
     1
 44
1.0
  0
POINT
  5
A0EB
330
A0A8
100
AcDbEntity
  8
Defpoints
  6
Continuous
 62
     0
440
 16777216
100
AcDbPoint
 10
1816.760886787525
 20
1334.216724263979
 30
0.0
  0
POINT
  5
A0EC
330
A0A8
100
AcDbEntity
  8
Defpoints
  6
Continuous
 62
     0
440
 16777216
100
AcDbPoint
 10
1831.636684401325
 20
1262.389331155399
 30
0.0
  0
POINT
  5
A0ED
330
A0A8
100
AcDbEntity
  8
Defpoints
  6
Continuous
 62
     0
440
 16777216
100
AcDbPoint
 10
1785.63066675964
 20
1262.389331155399
 30
0.0
  0
ENDBLK
  5
A0B4
330
A0A8
100
AcDbEntity
  8
0
100
AcDbBlockEnd
  0
BLOCK
  5
A167
330
A160
100
AcDbEntity
  8
0
100
AcDbBlockBegin
  2
A$C05D06CAD
 70
     0
 10
0.0
 20
0.0
 30
0.0
  3
A$C05D06CAD
  1

  0
MTEXT
  5
A161
330
A160
100
AcDbEntity
  8
0
  6
Continuous
 62
     2
100
AcDbMText
 10
36.58036050126975
 20
70.02220742320719
 30
0.0
 40
8.0
 41
93.90625
 46
0.0
 71
     2
 72
     1
  1
HLJ 17.04.24
  7
TEXTSTYLE_3
 73
     1
 44
1.0
  0
MTEXT
  5
A162
330
A160
100
AcDbEntity
  8
0
  6
Continuous
 62
     2
100
AcDbMText
 10
36.44434162995822
 20
49.67720514252755
 30
0.0
 40
8.0
 41
93.90625
 46
0.0
 71
     2
 72
     1
  1
LLJ 17.04.24 
  7
TEXTSTYLE_3
 73
     1
 44
1.0
  0
MTEXT
  5
A163
330
A160
100
AcDbEntity
  8
0
  6
Continuous
 62
     2
100
AcDbMText
 10
37.08525699940401
 20
30.43337548304658
 30
0.0
 40
8.0
 41
93.90625
 46
0.0
 71
     2
 72
     1
  1
T F 17.04.24
  7
TEXTSTYLE_3
 73
     1
 44
1.0
  0
MTEXT
  5
A164
330
A160
100
AcDbEntity
  8
0
  6
Continuous
 62
     2
100
AcDbMText
 10
37.31257308335444
 20
10.22146198874281
 30
0.0
 40
8.0
 41
93.90625
 46
0.0
 71
     2
 72
     1
  1
TQA 17.04.24
  7
TEXTSTYLE_3
 73
     1
 44
1.0
  0
ENDBLK
  5
A168
330
A160
100
AcDbEntity
  8
0
100
AcDbBlockEnd
  0
ENDSEC
  0
SECTION
  2
ENTITIES
  0
DIMENSION
  5
5872
330
1F
100
AcDbEntity
  8
0
  6
Continuous
 62
     2
100
AcDbDimension
280
     0
  2
*D19
 10
1785.85709712364
 20
1334.216724263979
 30
0.0
 11
1785.85709712364
 21
1508.460773603646
 31
0.0
 70
   160
  1
170
 71
     5
 42
341.2000000000003
 73
     0
 74
     0
 75
     0
  3
DIMSTYLE_1
100
AcDbAlignedDimension
 13
1825.260886787525
 23
1675.416724263979
 33
0.0
 14
1815.760886787525
 24
1334.216724263979
 34
0.0
 50
270.0
100
AcDbRotatedDimension
1001
ACAD
1000
DSTYLE
1002
{
1070
    41
1040
10.0
1070
   140
1040
8.0
1002
}
  0
DIMENSION
  5
5873
330
1F
100
AcDbEntity
  8
0
  6
Continuous
 62
     2
100
AcDbDimension
280
     0
  2
*D20
 10
2146.759930396925
 20
1682.539480440506
 30
0.0
 11
2007.36655299357
 21
1682.539480440506
 31
0.0
 70
   160
  1
139.5
 71
     5
 42
279.0
 73
     0
 74
     0
 75
     0
  3
DIMSTYLE_1
100
AcDbAlignedDimension
 13
1867.759930396925
 23
1658.365191365978
 33
0.0
 14
2146.759930396925
 24
1567.216724263979
 34
0.0
100
AcDbRotatedDimension
1001
ACAD
1000
DSTYLE
1002
{
1070
    41
1040
10.0
1070
   140
1040
8.0
1002
}
  0
DIMENSION
  5
5874
330
1F
100
AcDbEntity
  8
0
  6
Continuous
 62
     2
100
AcDbDimension
280
     0
  2
*D21
 10
2115.759930396925
 20
1456.971514668378
 30
0.0
 11
1991.759930396925
 21
1456.971514668378
 31
0.0
 70
   160
  1
124
 71
     5
 42
248.0
 73
     0
 74
     0
 75
     0
  3
DIMSTYLE_1
100
AcDbAlignedDimension
 13
1867.759930396925
 23
1437.657570980587
 33
0.0
 14
2115.759930396925
 24
1506.550837080378
 34
0.0
100
AcDbRotatedDimension
1001
ACAD
1000
DSTYLE
1002
{
1070
    41
1040
10.0
1070
   140
1040
8.0
1002
}
  0
DIMENSION
  5
5875
330
1F
100
AcDbEntity
  8
0
  6
Continuous
 62
     2
100
AcDbDimension
280
     0
  2
*D22
 10
2154.832581742726
 20
1334.216724263978
 30
0.0
 11
2154.832581742725
 21
1425.716724263979
 31
0.0
 70
   160
  1
91.5
 71
     5
 42
183.0000000000004
 73
     0
 74
     0
 75
     0
  3
DIMSTYLE_1
100
AcDbAlignedDimension
 13
2146.759930396925
 23
1517.216724263979
 33
0.0
 14
1919.759930396925
 24
1334.216724263978
 34
0.0
 50
270.0
100
AcDbRotatedDimension
1001
ACAD
1000
DSTYLE
1002
{
1070
    41
1040
10.0
1070
   140
1040
8.0
1002
}
  0
DIMENSION
  5
5876
330
1F
100
AcDbEntity
  8
0
  6
Continuous
 62
     2
100
AcDbDimension
280
     0
  2
*D23
 10
1909.760886787525
 20
1354.039328492379
 30
0.0
 11
1867.760886787525
 21
1354.039328492379
 31
0.0
 70
   160
  1
{\fSimSun|b0|i0|c134|p2;%%C}42
 71
     5
 42
84.0
 73
     0
 74
     0
 75
     0
  3
DIMSTYLE_1
100
AcDbAlignedDimension
 13
1825.760886787525
 23
1344.816724263979
 33
0.0
 14
1909.760886787525
 24
1344.816724263979
 34
0.0
100
AcDbRotatedDimension
1001
ACAD
1000
DSTYLE
1002
{
1070
    41
1040
10.0
1070
   140
1040
8.0
1070
   340
1005
228
1002
}
  0
DIMENSION
  5
5877
330
1F
100
AcDbEntity
  8
0
  6
Continuous
 62
     2
100
AcDbDimension
280
     0
  2
*D24
 10
1917.760886787525
 20
1307.126556177089
 30
0.0
 11
1867.398894606164
 21
1307.126556177089
 31
0.0
 70
   160
  1
{\fSimSun|b0|i0|c134|p2;%%C}50
 71
     5
 42
100.0
 73
     0
 74
     0
 75
     0
  3
DIMSTYLE_1
100
AcDbAlignedDimension
 13
1817.760886787525
 23
1326.216724263979
 33
0.0
 14
1917.760886787525
 24
1332.216724263979
 34
0.0
100
AcDbRotatedDimension
1001
ACAD
1000
DSTYLE
1002
{
1070
   340
1005
228
1070
    41
1040
10.0
1070
   140
1040
8.0
1002
}
  0
LINE
  5
7128
330
1F
100
AcDbEntity
  8
0
  6
Continuous
 62
     7
100
AcDbLine
 10
1838.560886787525
 20
1218.216724263979
 30
0.0
 11
1837.560886787525
 21
1219.216724263979
 31
0.0
  0
LINE
  5
7129
330
1F
100
AcDbEntity
  8
0
  6
Continuous
 62
     7
100
AcDbLine
 10
1838.560886787525
 20
1218.216724263979
 30
0.0
 11
1842.760886787525
 21
1218.216724263979
 31
0.0
  0
LINE
  5
712A
330
1F
100
AcDbEntity
  8
0
  6
Continuous
 62
     7
100
AcDbLine
 10
1844.760886787525
 20
1218.216724263979
 30
0.0
 11
1848.960886787525
 21
1218.216724263979
 31
0.0
  0
LINE
  5
712B
330
1F
100
AcDbEntity
  8
0
  6
Continuous
 62
     7
100
AcDbLine
 10
1837.560886787525
 20
1219.216724263979
 30
0.0
 11
1842.760886787525
 21
1219.216724263979
 31
0.0
  0
LINE
  5
712C
330
1F
100
AcDbEntity
  8
0
  6
Continuous
 62
     7
100
AcDbLine
 10
1844.760886787525
 20
1219.216724263979
 30
0.0
 11
1849.960886787525
 21
1219.216724263979
 31
0.0
  0
LINE
  5
712D
330
1F
100
AcDbEntity
  8
0
  6
Continuous
 62
     7
100
AcDbLine
 10
1842.760886787525
 20
1220.216724263979
 30
0.0
 11
1844.760886787525
 21
1220.216724263979
 31
0.0
  0
LINE
  5
712E
330
1F
100
AcDbEntity
  8
0
  6
Continuous
 62
     7
100
AcDbLine
 10
1829.904480326925
 20
1223.389331155399
 30
0.0
 11
1831.636531134525
 21
1222.389331155399
 31
0.0
  0
LINE
  5
712F
330
1F
100
AcDbEntity
  8
0
  6
Continuous
 62
     7
100
AcDbLine
 10
1855.885089173725
 20
1222.389331155399
 30
0.0
 11
1831.636684401325
 21
1222.389331155399
 31
0.0
  0
LINE
  5
7130
330
1F
100
AcDbEntity
  8
02___PRT_ALL_AXES
  6
Continuous
 62
     7
100
AcDbLine
 10
1855.885242440525
 20
1262.389331155399
 30
0.0
 11
1857.617293248125
 21
1261.389331155399
 31
0.0
  0
LINE
  5
7131
330
1F
100
AcDbEntity
  8
02___PRT_ALL_AXES
  6
Continuous
 62
     7
100
AcDbLine
 10
1817.760886787525
 20
1334.216724263979
 30
0.0
 11
1817.760886787525
 21
1326.216724263979
 31
0.0
  0
LINE
  5
7132
330
1F
100
AcDbEntity
  8
0
  6
Continuous
 62
     7
100
AcDbLine
 10
1817.760886787525
 20
1334.216724263979
 30
0.0
 11
1817.760886787525
 21
1343.216724263979
 31
0.0
  0
LINE
  5
7133
330
1F
100
AcDbEntity
  8
0
  6
Continuous
 62
     9
100
AcDbLine
 10
1822.904122084925
 20
1638.059581406778
 30
0.0
 11
1822.904122084925
 21
1654.773867121179
 31
0.0
  0
LINE
  5
7134
330
1F
100
AcDbEntity
  8
0
  6
Continuous
 62
     9
100
AcDbLine
 10
1823.838171858525
 20
1637.416724263979
 30
0.0
 11
1823.838171858525
 21
1655.416724263979
 31
0.0
  0
LINE
  5
7135
330
1F
100
AcDbEntity
  8
02___PRT_ALL_AXES
  6
Continuous
 62
     7
100
AcDbLine
 10
1824.760886787525
 20
1673.416724263979
 30
0.0
 11
1824.760886787525
 21
1655.416724263979
 31
0.0
  0
LINE
  5
7136
330
1F
100
AcDbEntity
  8
0
  6
Continuous
 62
     7
100
AcDbLine
 10
1824.760886787525
 20
1655.416724263979
 30
0.0
 11
1824.760886787525
 21
1637.416724263979
 31
0.0
  0
LINE
  5
7137
330
1F
100
AcDbEntity
  8
02___PRT_ALL_AXES
  6
Continuous
 62
     7
100
AcDbLine
 10
1824.760886787525
 20
1637.416724263979
 30
0.0
 11
1824.760886787525
 21
1634.561557732179
 31
0.0
  0
LINE
  5
7138
330
1F
100
AcDbEntity
  8
AXIS
  6
Continuous
 62
     7
100
AcDbLine
 10
1825.760886787525
 20
1344.216724263979
 30
0.0
 11
1825.760886787525
 21
1610.216724263979
 31
0.0
  0
LINE
  5
7139
330
1F
100
AcDbEntity
  8
02___PRT_ALL_AXES
  6
Continuous
 62
     7
100
AcDbLine
 10
1829.904480326925
 20
1261.389331155399
 30
0.0
 11
1829.904480326925
 21
1223.389331155399
 31
0.0
  0
LINE
  5
713A
330
1F
100
AcDbEntity
  8
02___PRT_ALL_AXES
  6
Continuous
 62
     7
100
AcDbLine
 10
1836.832683557125
 20
1261.389331155399
 30
0.0
 11
1836.832683557125
 21
1223.389331155399
 31
0.0
  0
LINE
  5
713B
330
1F
100
AcDbEntity
  8
0
  6
Continuous
 62
     7
100
AcDbLine
 10
1837.560886787525
 20
1219.216724263979
 30
0.0
 11
1837.560886787525
 21
1222.389331155399
 31
0.0
  0
LINE
  5
713C
330
1F
100
AcDbEntity
  8
0
  6
Continuous
 62
     7
100
AcDbLine
 10
1837.560886787525
 20
1262.389331155399
 30
0.0
 11
1837.560886787525
 21
1326.216724263979
 31
0.0
  0
LINE
  5
713D
330
1F
100
AcDbEntity
  8
0
  6
Continuous
 62
     7
100
AcDbLine
 10
1842.760886787525
 20
1218.216724263979
 30
0.0
 11
1842.760886787525
 21
1220.216724263979
 31
0.0
  0
LINE
  5
713E
330
1F
100
AcDbEntity
  8
0
  6
Continuous
 62
     7
100
AcDbLine
 10
1844.760886787525
 20
1218.216724263979
 30
0.0
 11
1844.760886787525
 21
1220.216724263979
 31
0.0
  0
LINE
  5
713F
330
1F
100
AcDbEntity
  8
0
  6
Continuous
 62
     7
100
AcDbLine
 10
1849.960886787525
 20
1219.216724263979
 30
0.0
 11
1849.960886787525
 21
1222.389331155399
 31
0.0
  0
LINE
  5
7140
330
1F
100
AcDbEntity
  8
0
  6
Continuous
 62
     7
100
AcDbLine
 10
1849.960886787525
 20
1262.389331155399
 30
0.0
 11
1849.960886787525
 21
1326.216724263979
 31
0.0
  0
LINE
  5
7141
330
1F
100
AcDbEntity
  8
02___PRT_ALL_AXES
  6
Continuous
 62
     7
100
AcDbLine
 10
1850.689090017725
 20
1261.389331155399
 30
0.0
 11
1850.689090017725
 21
1223.389331155399
 31
0.0
  0
LINE
  5
7142
330
1F
100
AcDbEntity
  8
02___PRT_ALL_AXES
  6
Continuous
 62
     7
100
AcDbLine
 10
1831.636684401325
 20
1262.389331155399
 30
0.0
 11
1855.885089173725
 21
1262.389331155399
 31
0.0
  0
LINE
  5
7143
330
1F
100
AcDbEntity
  8
02___PRT_ALL_AXES
  6
Continuous
 62
     7
100
AcDbLine
 10
1857.617293248125
 20
1261.389331155399
 30
0.0
 11
1857.617293248125
 21
1223.389331155399
 31
0.0
  0
LINE
  5
7144
330
1F
100
AcDbEntity
  8
0
  6
Continuous
 62
     7
100
AcDbLine
 10
1893.760886787525
 20
1326.216724263979
 30
0.0
 11
1817.760886787525
 21
1326.216724263979
 31
0.0
  0
LINE
  5
7145
330
1F
100
AcDbEntity
  8
0
  6
Continuous
 62
     7
100
AcDbLine
 10
1897.760886787525
 20
1330.216724263979
 30
0.0
 11
1817.760886787525
 21
1330.216724263979
 31
0.0
  0
LINE
  5
7146
330
1F
100
AcDbEntity
  8
02___PRT_ALL_AXES
  6
Continuous
 62
     7
100
AcDbLine
 10
1897.760886787525
 20
1333.216724263979
 30
0.0
 11
1911.760886787525
 21
1333.216724263979
 31
0.0
  0
LINE
  5
7147
330
1F
100
AcDbEntity
  8
02___PRT_ALL_AXES
  6
Continuous
 62
     7
100
AcDbLine
 10
1917.760886787525
 20
1334.216724263979
 30
0.0
 11
1817.760886787525
 21
1334.216724263979
 31
0.0
  0
LINE
  5
7148
330
1F
100
AcDbEntity
  8
0
  6
Continuous
 62
     7
100
AcDbLine
 10
1817.760886787525
 20
1334.216724263979
 30
0.0
 11
1896.798653696524
 21
1334.216724263979
 31
0.0
  0
LINE
  5
7149
330
1F
100
AcDbEntity
  8
0
  6
Continuous
 62
     9
100
AcDbLine
 10
1817.760886787525
 20
1343.216724263979
 30
0.0
 11
1917.760886787525
 21
1343.216724263979
 31
0.0
  0
LINE
  5
714A
330
1F
100
AcDbEntity
  8
0
  6
Continuous
 62
     7
100
AcDbLine
 10
1818.760886787525
 20
1344.216724263979
 30
0.0
 11
1916.760886787525
 21
1344.216724263979
 31
0.0
  0
LINE
  5
714B
330
1F
100
AcDbEntity
  8
0
  6
Continuous
 62
     9
100
AcDbLine
 10
1891.673930265725
 20
1326.216724263979
 30
0.0
 11
1891.673930265725
 21
1330.216724263979
 31
0.0
  0
LINE
  5
714C
330
1F
100
AcDbEntity
  8
0
  6
Continuous
 62
     7
100
AcDbLine
 10
1893.760886787525
 20
1326.216724263979
 30
0.0
 11
1893.760886787525
 21
1330.216724263979
 31
0.0
  0
LINE
  5
714D
330
1F
100
AcDbEntity
  8
0
  6
Continuous
 62
     9
100
AcDbLine
 10
1896.484291042725
 20
1330.216724263979
 30
0.0
 11
1896.484291042725
 21
1334.216724263979
 31
0.0
  0
LINE
  5
714E
330
1F
100
AcDbEntity
  8
0
  6
Continuous
 62
     7
100
AcDbLine
 10
1897.760886787525
 20
1330.216724263979
 30
0.0
 11
1897.760886787525
 21
1334.216724263979
 31
0.0
  0
LINE
  5
714F
330
1F
100
AcDbEntity
  8
0
  6
Continuous
 62
     9
100
AcDbLine
 10
1902.882332589325
 20
1497.216755061378
 30
0.0
 11
1902.882320249925
 21
1571.216724263979
 31
0.0
  0
LINE
  5
7150
330
1F
100
AcDbEntity
  8
0
  6
Continuous
 62
     9
100
AcDbLine
 10
1907.518457124325
 20
1673.416724263979
 30
0.0
 11
1907.518457124325
 21
1625.416724263979
 31
0.0
  0
LINE
  5
7151
330
1F
100
AcDbEntity
  8
AXIS
  6
Continuous
 62
     7
100
AcDbLine
 10
1909.760886787525
 20
1344.216724263979
 30
0.0
 11
1909.760886787525
 21
1497.216724263979
 31
0.0
  0
LINE
  5
7152
330
1F
100
AcDbEntity
  8
AXIS
  6
Continuous
 62
     7
100
AcDbLine
 10
1909.760886787525
 20
1571.216724263979
 30
0.0
 11
1909.760886787525
 21
1610.216724263979
 31
0.0
  0
LINE
  5
7153
330
1F
100
AcDbEntity
  8
02___PRT_ALL_AXES
  6
Continuous
 62
     7
100
AcDbLine
 10
1910.760886787525
 20
1625.416724263979
 30
0.0
 11
1910.760886787525
 21
1615.416724263979
 31
0.0
  0
LINE
  5
7154
330
1F
100
AcDbEntity
  8
02___PRT_ALL_AXES
  6
Continuous
 62
     7
100
AcDbLine
 10
1911.760886787525
 20
1333.216724263979
 30
0.0
 11
1911.760886787525
 21
1334.216724263979
 31
0.0
  0
LINE
  5
7155
330
1F
100
AcDbEntity
  8
0
  6
Continuous
 62
     7
100
AcDbLine
 10
1917.760886787525
 20
1334.216724263979
 30
0.0
 11
1917.760886787525
 21
1343.216724263979
 31
0.0
  0
LINE
  5
7156
330
1F
100
AcDbEntity
  8
0
  6
Continuous
 62
     9
100
AcDbLine
 10
1919.606812374724
 20
1567.216724263979
 30
0.0
 11
1919.606812374724
 21
1565.216724263979
 31
0.0
  0
LINE
  5
7157
330
1F
100
AcDbEntity
  8
0
  6
Continuous
 62
     9
100
AcDbLine
 10
1919.608061324525
 20
1517.387700818379
 30
0.0
 11
1919.606812374724
 21
1565.216724263979
 31
0.0
  0
LINE
  5
7158
330
1F
100
AcDbEntity
  8
0
  6
Continuous
 62
     9
100
AcDbLine
 10
1926.010350304325
 20
1675.416724263978
 30
0.0
 11
1926.010350304325
 21
1673.416724263979
 31
0.0
  0
LINE
  5
7159
330
1F
100
AcDbEntity
  8
0
  6
Continuous
 62
     9
100
AcDbLine
 10
1926.011113763525
 20
1646.905403118578
 30
0.0
 11
1926.010350304325
 21
1673.416724263979
 31
0.0
  0
LINE
  5
715A
330
1F
100
AcDbEntity
  8
0
  6
Continuous
 62
     9
100
AcDbLine
 10
1928.588512090525
 20
1517.216724263979
 30
0.0
 11
1928.588512090525
 21
1519.216724263979
 31
0.0
  0
LINE
  5
715B
330
1F
100
AcDbEntity
  8
0
  6
Continuous
 62
     9
100
AcDbLine
 10
1930.729132753125
 20
1645.416724263979
 30
0.0
 11
1930.729132753125
 21
1647.416724263979
 31
0.0
  0
LINE
  5
715C
330
1F
100
AcDbEntity
  8
0
  6
Continuous
 62
     9
100
AcDbLine
 10
1920.384779798525
 20
1515.553495529178
 30
0.0
 11
1919.606812380324
 21
1517.387267371979
 31
0.0
  0
LINE
  5
715D
330
1F
100
AcDbEntity
  8
0
  6
Continuous
 62
     9
100
AcDbLine
 10
1926.438855801925
 20
1644.951708197978
 30
0.0
 11
1926.010350306525
 21
1646.905264209578
 31
0.0
  0
LINE
  5
715E
330
1F
100
AcDbEntity
  8
02___PRT_ALL_AXES
  6
Continuous
 62
     7
100
AcDbLine
 10
1831.636531134525
 20
1262.389331155399
 30
0.0
 11
1829.904480326925
 21
1261.389331155399
 31
0.0
  0
LINE
  5
715F
330
1F
100
AcDbEntity
  8
0
  6
Continuous
 62
     9
100
AcDbLine
 10
2029.760886787525
 20
1645.416724263979
 30
0.0
 11
2029.760886787525
 21
1675.416724263978
 31
0.0
  0
LINE
  5
7160
330
1F
100
AcDbEntity
  8
0
  6
Continuous
 62
     7
100
AcDbLine
 10
2031.760886787525
 20
1673.416724263979
 30
0.0
 11
2031.760886787525
 21
1647.416724263979
 31
0.0
  0
LINE
  5
7161
330
1F
100
AcDbEntity
  8
0
  6
Continuous
 62
     9
100
AcDbLine
 10
1909.760886787525
 20
1497.216724263979
 30
0.0
 11
1902.882332589325
 21
1497.216724263979
 31
0.0
  0
LINE
  5
7162
330
1F
100
AcDbEntity
  8
0
  6
Continuous
 62
     7
100
AcDbLine
 10
1848.960886787525
 20
1218.216724263979
 30
0.0
 11
1849.960886787525
 21
1219.216724263979
 31
0.0
  0
LINE
  5
7163
330
1F
100
AcDbEntity
  8
0
  6
Continuous
 62
     7
100
AcDbLine
 10
2144.759930396925
 20
1517.216724263979
 30
0.0
 11
1928.589158240125
 21
1517.216724263979
 31
0.0
  0
LINE
  5
7164
330
1F
100
AcDbEntity
  8
0
  6
Continuous
 62
     9
100
AcDbLine
 10
2146.760886787525
 20
1519.216724263979
 30
0.0
 11
1928.588512090525
 21
1519.216724263979
 31
0.0
  0
LINE
  5
7165
330
1F
100
AcDbEntity
  8
0
  6
Continuous
 62
     7
100
AcDbLine
 10
1857.617293248125
 20
1223.389331155399
 30
0.0
 11
1855.885242440525
 21
1222.389331155399
 31
0.0
  0
LINE
  5
7167
330
1F
100
AcDbEntity
  8
0
  6
Continuous
 62
     7
100
AcDbLine
 10
1867.760886787525
 20
1615.416724263979
 30
0.0
 11
1824.760886789725
 21
1634.561557731178
 31
0.0
  0
LINE
  5
7168
330
1F
100
AcDbEntity
  8
0
  6
Continuous
 62
     9
100
AcDbLine
 10
1912.464659041925
 20
1565.216724263979
 30
0.0
 11
2146.760886787525
 21
1565.216724263979
 31
0.0
  0
LINE
  5
7169
330
1F
100
AcDbEntity
  8
0
  6
Continuous
 62
     7
100
AcDbLine
 10
1911.750110326524
 20
1567.216724263979
 30
0.0
 11
2144.759932606525
 21
1567.216724263979
 31
0.0
  0
LINE
  5
716A
330
1F
100
AcDbEntity
  8
0
  6
Continuous
 62
     9
100
AcDbLine
 10
1902.882320249925
 20
1571.216736689578
 30
0.0
 11
1909.760886787525
 21
1571.216724263979
 31
0.0
  0
LINE
  5
716B
330
1F
100
AcDbEntity
  8
0
  6
Continuous
 62
     9
100
AcDbLine
 10
2132.760886787525
 20
1517.216724263979
 30
0.0
 11
2132.760886787525
 21
1567.216724263979
 31
0.0
  0
LINE
  5
716C
330
1F
100
AcDbEntity
  8
0
  6
Continuous
 62
     7
100
AcDbLine
 10
2146.760886787525
 20
1565.216724263979
 30
0.0
 11
2146.760886787525
 21
1519.216724263979
 31
0.0
  0
LINE
  5
716D
330
1F
100
AcDbEntity
  8
AXIS
  6
Continuous
 62
     7
100
AcDbLine
 10
1825.760886787525
 20
1610.216724263979
 30
0.0
 11
1909.760886787525
 21
1610.216724263979
 31
0.0
  0
LINE
  5
716E
330
1F
100
AcDbEntity
  8
0
  6
Continuous
 62
     7
100
AcDbLine
 10
1910.760886787525
 20
1615.416724263979
 30
0.0
 11
1867.760886787525
 21
1615.416724263979
 31
0.0
  0
LINE
  5
716F
330
1F
100
AcDbEntity
  8
0
  6
Continuous
 62
     9
100
AcDbLine
 10
1907.518457124325
 20
1625.416724263979
 30
0.0
 11
1910.760886787525
 21
1625.416724263979
 31
0.0
  0
LINE
  5
7170
330
1F
100
AcDbEntity
  8
0
  6
Continuous
 62
     7
100
AcDbLine
 10
1824.760886787525
 20
1637.416724263979
 30
0.0
 11
1823.838171858525
 21
1637.416724263979
 31
0.0
  0
LINE
  5
7173
330
1F
100
AcDbEntity
  8
0
  6
Continuous
 62
     7
100
AcDbLine
 10
2029.760886787525
 20
1645.416724263979
 30
0.0
 11
1930.729231156725
 21
1645.416724263979
 31
0.0
  0
LINE
  5
7174
330
1F
100
AcDbEntity
  8
0
  6
Continuous
 62
     9
100
AcDbLine
 10
1930.729132753125
 20
1647.416724263979
 30
0.0
 11
2031.760886787525
 21
1647.416724263979
 31
0.0
  0
LINE
  5
7177
330
1F
100
AcDbEntity
  8
0
  6
Continuous
 62
     7
100
AcDbLine
 10
1824.760886787525
 20
1655.416724263979
 30
0.0
 11
1823.838171858525
 21
1655.416724263979
 31
0.0
  0
LINE
  5
7178
330
1F
100
AcDbEntity
  8
0
  6
Continuous
 62
     9
100
AcDbLine
 10
1824.760886787525
 20
1673.416724263979
 30
0.0
 11
2031.760886787525
 21
1673.416724263979
 31
0.0
  0
LINE
  5
7179
330
1F
100
AcDbEntity
  8
0
  6
Continuous
 62
     7
100
AcDbLine
 10
1826.760886787525
 20
1675.416724263978
 30
0.0
 11
2029.760886787525
 21
1675.416724263978
 31
0.0
  0
LINE
  5
717A
330
1F
100
AcDbEntity
  8
0
  6
Continuous
 62
     9
100
AcDbLine
 10
1822.904122070525
 20
1142.896678403505
 30
0.0
 11
1822.904122070525
 21
1159.610964042304
 31
0.0
  0
LINE
  5
717B
330
1F
100
AcDbEntity
  8
0
  6
Continuous
 62
     9
100
AcDbLine
 10
1823.838171855125
 20
1142.253821222904
 30
0.0
 11
1823.838171855125
 21
1160.253821222904
 31
0.0
  0
LINE
  5
717C
330
1F
100
AcDbEntity
  8
0
  6
Continuous
 62
     7
100
AcDbLine
 10
1824.760886787525
 20
1142.253859842505
 30
0.0
 11
1824.760886787525
 21
1160.253782603305
 31
0.0
  0
LINE
  5
717D
330
1F
100
AcDbEntity
  8
0
  6
Continuous
 62
     9
100
AcDbLine
 10
1911.750443708925
 20
1164.704430201304
 30
0.0
 11
1912.464659029725
 21
1166.572556661905
 31
0.0
  0
LINE
  5
717E
330
1F
100
AcDbEntity
  8
0
  6
Continuous
 62
     9
100
AcDbLine
 10
1911.750443708925
 20
1137.803212244504
 30
0.0
 11
1912.464659040925
 21
1135.935085788105
 31
0.0
  0
LINE
  5
717F
330
1F
100
AcDbEntity
  8
0
  6
Continuous
 62
     9
100
AcDbLine
 10
1919.606812374724
 20
1139.253821222904
 30
0.0
 11
1919.606812374724
 21
1137.253821222905
 31
0.0
  0
LINE
  5
7180
330
1F
100
AcDbEntity
  8
0
  6
Continuous
 62
     9
100
AcDbLine
 10
1919.606812374724
 20
1163.253821222904
 30
0.0
 11
1919.606812377125
 21
1165.253821222904
 31
0.0
  0
LINE
  5
7181
330
1F
100
AcDbEntity
  8
0
  6
Continuous
 62
     9
100
AcDbLine
 10
1926.010350304325
 20
1149.253821222904
 30
0.0
 11
1926.010350304325
 21
1147.253821222904
 31
0.0
  0
LINE
  5
7182
330
1F
100
AcDbEntity
  8
0
  6
Continuous
 62
     9
100
AcDbLine
 10
1926.010350304325
 20
1153.253821222905
 30
0.0
 11
1926.010350307124
 21
1155.253821222904
 31
0.0
  0
LINE
  5
7183
330
1F
100
AcDbEntity
  8
0
  6
Continuous
 62
     9
100
AcDbLine
 10
1905.669267806325
 20
1166.872868841905
 30
0.0
 11
1907.518457124325
 21
1167.634773603905
 31
0.0
  0
LINE
  5
7184
330
1F
100
AcDbEntity
  8
0
  6
Continuous
 62
     9
100
AcDbLine
 10
1905.669267806325
 20
1135.634773603705
 30
0.0
 11
1907.518457123725
 21
1134.872868840505
 31
0.0
  0
LINE
  5
7185
330
1F
100
AcDbEntity
  8
0
  6
Continuous
 62
     7
100
AcDbLine
 10
1919.606812374724
 20
1137.253821222905
 30
0.0
 11
2132.760886787525
 21
1137.253821222905
 31
0.0
  0
LINE
  5
7186
330
1F
100
AcDbEntity
  8
0
  6
Continuous
 62
     9
100
AcDbLine
 10
1919.606812374724
 20
1139.253821222904
 30
0.0
 11
2132.760886787525
 21
1139.253821222904
 31
0.0
  0
LINE
  5
7187
330
1F
100
AcDbEntity
  8
0
  6
Continuous
 62
     7
100
AcDbLine
 10
1823.838171858525
 20
1142.253821222904
 30
0.0
 11
1824.760886787525
 21
1142.253821222904
 31
0.0
  0
LINE
  5
7188
330
1F
100
AcDbEntity
  8
0
  6
Continuous
 62
     7
100
AcDbLine
 10
1825.432491651325
 20
1143.930056521305
 30
0.0
 11
1824.760886787525
 21
1143.930056521305
 31
0.0
  0
LINE
  5
7189
330
1F
100
AcDbEntity
  8
0
  6
Continuous
 62
     9
100
AcDbLine
 10
1825.415737922325
 20
1144.000091124105
 30
0.0
 11
1824.760886787525
 21
1144.000091124105
 31
0.0
  0
LINE
  5
718A
330
1F
100
AcDbEntity
  8
0
  6
Continuous
 62
     7
100
AcDbLine
 10
1926.010350304325
 20
1147.253821222904
 30
0.0
 11
2029.760886787525
 21
1147.253821222904
 31
0.0
  0
LINE
  5
718B
330
1F
100
AcDbEntity
  8
0
  6
Continuous
 62
     9
100
AcDbLine
 10
1926.010350304325
 20
1149.253821222904
 30
0.0
 11
2031.760886787525
 21
1149.253821222904
 31
0.0
  0
LINE
  5
718C
330
1F
100
AcDbEntity
  8
0
  6
Continuous
 62
     9
100
AcDbLine
 10
2031.760886787525
 20
1153.253821222905
 30
0.0
 11
1926.010350304325
 21
1153.253821222905
 31
0.0
  0
LINE
  5
718D
330
1F
100
AcDbEntity
  8
0
  6
Continuous
 62
     7
100
AcDbLine
 10
2029.760886787525
 20
1155.253821222904
 30
0.0
 11
1926.010350304325
 21
1155.253821222904
 31
0.0
  0
LINE
  5
718E
330
1F
100
AcDbEntity
  8
0
  6
Continuous
 62
     9
100
AcDbLine
 10
1824.760886787525
 20
1158.507551321705
 30
0.0
 11
1825.426927784724
 21
1158.507551321705
 31
0.0
  0
LINE
  5
718F
330
1F
100
AcDbEntity
  8
0
  6
Continuous
 62
     7
100
AcDbLine
 10
1824.760886787525
 20
1158.577585924305
 30
0.0
 11
1825.443384670925
 21
1158.577585924305
 31
0.0
  0
LINE
  5
7190
330
1F
100
AcDbEntity
  8
0
  6
Continuous
 62
     7
100
AcDbLine
 10
1823.838171858525
 20
1160.253821222904
 30
0.0
 11
1824.760886787525
 21
1160.253821222904
 31
0.0
  0
LINE
  5
7191
330
1F
100
AcDbEntity
  8
0
  6
Continuous
 62
     9
100
AcDbLine
 10
2132.760886787525
 20
1163.253821222904
 30
0.0
 11
1919.606812374724
 21
1163.253821222904
 31
0.0
  0
LINE
  5
7192
330
1F
100
AcDbEntity
  8
0
  6
Continuous
 62
     7
100
AcDbLine
 10
2132.760886787525
 20
1165.253821222904
 30
0.0
 11
1919.606812374724
 21
1165.253821222904
 31
0.0
  0
LINE
  5
7193
330
1F
100
AcDbEntity
  8
0
  6
Continuous
 62
     9
100
AcDbLine
 10
2029.760886787525
 20
1147.253821222904
 30
0.0
 11
2029.760886787525
 21
1155.253821222904
 31
0.0
  0
LINE
  5
7194
330
1F
100
AcDbEntity
  8
0
  6
Continuous
 62
     7
100
AcDbLine
 10
2031.760886787525
 20
1153.253821222905
 30
0.0
 11
2031.760886787525
 21
1149.253821222904
 31
0.0
  0
LINE
  5
7195
330
1F
100
AcDbEntity
  8
0
  6
Continuous
 62
     9
100
AcDbLine
 10
2132.760886787525
 20
1139.253821222904
 30
0.0
 11
2132.760886756325
 21
1137.253821222905
 31
0.0
  0
LINE
  5
7196
330
1F
100
AcDbEntity
  8
0
  6
Continuous
 62
     9
100
AcDbLine
 10
2132.760886787525
 20
1163.253821222904
 30
0.0
 11
2132.760886787525
 21
1165.253821222904
 31
0.0
  0
ARC
  5
726C
330
1F
100
AcDbEntity
  8
AXIS
  6
Continuous
 62
     7
100
AcDbCircle
 10
1889.203716937124
 20
1607.598115156778
 30
0.0
 40
60.0
100
AcDbArc
 50
157.5100267832032
 51
177.4986179842938
  0
ARC
  5
726D
330
1F
100
AcDbEntity
  8
AXIS
  6
Continuous
 62
     7
100
AcDbCircle
 10
1846.318056637924
 20
1607.598115156778
 30
0.0
 40
60.0
100
AcDbArc
 50
2.501382015706154
 51
7.490277652305603
  0
ARC
  5
726E
330
1F
100
AcDbEntity
  8
0
  6
Continuous
 62
     7
100
AcDbCircle
 10
1844.760886787525
 20
1646.416724263979
 30
0.0
 40
23.4
100
AcDbArc
 50
159.0751675724015
 51
200.9248324275984
  0
ARC
  5
726F
330
1F
100
AcDbEntity
  8
0
  6
Continuous
 62
     9
100
AcDbCircle
 10
1928.594051680725
 20
1496.228140121578
 30
0.0
 40
22.9885848098
100
AcDbArc
 50
90.0138066410013
 51
113.0098415897005
  0
ARC
  5
7270
330
1F
100
AcDbEntity
  8
0
  6
Continuous
 62
     9
100
AcDbCircle
 10
1930.736083702525
 20
1625.330074687778
 30
0.0
 40
22.0866506698
100
AcDbArc
 50
90.01803170909935
 51
102.3526879990037
  0
ARC
  5
7271
330
1F
100
AcDbEntity
  8
0
  6
Continuous
 62
     9
100
AcDbCircle
 10
1928.595311997124
 20
1496.118279768178
 30
0.0
 40
21.098445382
100
AcDbArc
 50
90.01670132240294
 51
112.9019407739048
  0
ARC
  5
7272
330
1F
100
AcDbEntity
  8
0
  6
Continuous
 62
     7
100
AcDbCircle
 10
1930.735641340925
 20
1625.330623525178
 30
0.0
 40
20.0861017614
100
AcDbArc
 50
90.01828507029776
 51
102.3521099865024
  0
ARC
  5
7273
330
1F
100
AcDbEntity
  8
0
  6
Continuous
 62
     7
100
AcDbCircle
 10
1930.760886787525
 20
1625.416724263979
 30
0.0
 40
20.0
100
AcDbArc
 50
90.0904563904009
 51
180.0
  0
ARC
  5
7274
330
1F
100
AcDbEntity
  8
0
  6
Continuous
 62
     7
100
AcDbCircle
 10
1929.760886787525
 20
1497.216724263979
 30
0.0
 40
20.0
100
AcDbArc
 50
93.34266107949821
 51
180.0
  0
ARC
  5
7275
330
1F
100
AcDbEntity
  8
0
  6
Continuous
 62
     7
100
AcDbCircle
 10
1913.760886787525
 20
1571.216724263979
 30
0.0
 40
4.0
100
AcDbArc
 50
180.0
 51
270.0
  0
ARC
  5
7276
330
1F
100
AcDbEntity
  8
0
  6
Continuous
 62
     7
100
AcDbCircle
 10
1826.760886787525
 20
1673.416724263979
 30
0.0
 40
2.0
100
AcDbArc
 50
90.0
 51
180.0
  0
ARC
  5
7277
330
1F
100
AcDbEntity
  8
0
  6
Continuous
 62
     7
100
AcDbCircle
 10
2029.760886787525
 20
1673.416724263979
 30
0.0
 40
2.0
100
AcDbArc
 50
0.0
 51
90.0
  0
ARC
  5
7278
330
1F
100
AcDbEntity
  8
0
  6
Continuous
 62
     7
100
AcDbCircle
 10
2029.760886787525
 20
1647.416724263979
 30
0.0
 40
2.0
100
AcDbArc
 50
270.0
 51
0.0
  0
ARC
  5
7279
330
1F
100
AcDbEntity
  8
0
  6
Continuous
 62
     7
100
AcDbCircle
 10
2144.760886787525
 20
1565.216724263979
 30
0.0
 40
2.0
100
AcDbArc
 50
0.0
 51
90.0
  0
ARC
  5
727A
330
1F
100
AcDbEntity
  8
0
  6
Continuous
 62
     7
100
AcDbCircle
 10
2144.760886787525
 20
1519.216724263979
 30
0.0
 40
2.0
100
AcDbArc
 50
270.0
 51
0.0
  0
ARC
  5
727B
330
1F
100
AcDbEntity
  8
0
  6
Continuous
 62
     7
100
AcDbCircle
 10
1823.838171858525
 20
1638.416724263979
 30
0.0
 40
1.0
100
AcDbArc
 50
200.9248324275984
 51
270.0
  0
ARC
  5
727C
330
1F
100
AcDbEntity
  8
0
  6
Continuous
 62
     7
100
AcDbCircle
 10
1823.838171858525
 20
1654.416724263979
 30
0.0
 40
1.0
100
AcDbArc
 50
90.0
 51
159.0751675724015
  0
ARC
  5
727D
330
1F
100
AcDbEntity
  8
0
  6
Continuous
 62
     7
100
AcDbCircle
 10
1818.760886787525
 20
1343.216724263979
 30
0.0
 40
1.0
100
AcDbArc
 50
90.0
 51
180.0
  0
ARC
  5
727E
330
1F
100
AcDbEntity
  8
0
  6
Continuous
 62
     7
100
AcDbCircle
 10
1916.760886787525
 20
1343.216724263979
 30
0.0
 40
1.0
100
AcDbArc
 50
0.0
 51
90.0
  0
ARC
  5
727F
330
1F
100
AcDbEntity
  8
0
  6
Continuous
 62
     9
100
AcDbCircle
 10
1931.356304590725
 20
1111.786677474905
 30
0.0
 40
32.721460231
100
AcDbArc
 50
135.972100893897
 51
138.7193052232001
  0
ARC
  5
7280
330
1F
100
AcDbEntity
  8
0
  6
Continuous
 62
     9
100
AcDbCircle
 10
1926.010350304325
 20
1127.253821222905
 30
0.0
 40
22.0000006412
100
AcDbArc
 50
90.0
 51
157.6073121946035
  0
ARC
  5
7281
330
1F
100
AcDbEntity
  8
0
  6
Continuous
 62
     9
100
AcDbCircle
 10
1919.606812374724
 20
1117.253821222904
 30
0.0
 40
22.0
100
AcDbArc
 50
90.0
 51
110.9235822242012
  0
ARC
  5
7282
330
1F
100
AcDbEntity
  8
0
  6
Continuous
 62
     7
100
AcDbCircle
 10
1926.010350304325
 20
1127.253821222905
 30
0.0
 40
20.0
100
AcDbArc
 50
90.0
 51
157.6073121946035
  0
ARC
  5
7283
330
1F
100
AcDbEntity
  8
0
  6
Continuous
 62
     7
100
AcDbCircle
 10
1919.606812374724
 20
1117.253821222904
 30
0.0
 40
20.0
100
AcDbArc
 50
90.0
 51
132.7605607764036
  0
ARC
  5
7284
330
1F
100
AcDbEntity
  8
0
  6
Continuous
 62
     7
100
AcDbCircle
 10
1823.838171858525
 20
1143.253821222904
 30
0.0
 40
1.0
100
AcDbArc
 50
200.9248324275985
 51
270.0
  0
ARC
  5
7285
330
1F
100
AcDbEntity
  8
0
  6
Continuous
 62
     7
100
AcDbCircle
 10
1867.760886787525
 20
1151.253821222904
 30
0.0
 40
50.0
100
AcDbArc
 50
16.81527003579969
 51
343.1847298687027
  0
ARC
  5
7286
330
1F
100
AcDbEntity
  8
0
  6
Continuous
 62
     9
100
AcDbCircle
 10
1867.760886787525
 20
1151.253821222904
 30
0.0
 40
49.0
100
AcDbArc
 50
17.49529840400442
 51
342.5047028661982
  0
ARC
  5
7287
330
1F
100
AcDbEntity
  8
0
  6
Continuous
 62
     9
100
AcDbCircle
 10
1867.760886787525
 20
1151.253821222904
 30
0.0
 40
46.0
100
AcDbArc
 50
11.4738795126983
 51
17.00221902969464
  0
ARC
  5
7288
330
1F
100
AcDbEntity
  8
0
  6
Continuous
 62
     9
100
AcDbCircle
 10
1867.760886787525
 20
1151.253821222904
 30
0.0
 40
46.0
100
AcDbArc
 50
342.9977863414044
 51
348.5676561215988
  0
ARC
  5
7289
330
1F
100
AcDbEntity
  8
0
  6
Continuous
 62
     7
100
AcDbCircle
 10
1867.760886787525
 20
1151.253821222904
 30
0.0
 40
43.0
100
AcDbArc
 50
22.39268780539647
 51
337.6073121946035
  0
ARC
  5
728A
330
1F
100
AcDbEntity
  8
0
  6
Continuous
 62
     9
100
AcDbCircle
 10
1867.760886787525
 20
1151.253821222904
 30
0.0
 40
41.0
100
AcDbArc
 50
22.39268780539647
 51
337.6073121946035
  0
ARC
  5
728B
330
1F
100
AcDbEntity
  8
0
  6
Continuous
 62
     9
100
AcDbCircle
 10
1931.355777473725
 20
1190.720433317105
 30
0.0
 40
32.7207130794
100
AcDbArc
 50
221.281346044002
 51
224.0262830959062
  0
ARC
  5
728C
330
1F
100
AcDbEntity
  8
0
  6
Continuous
 62
     7
100
AcDbCircle
 10
1844.760886787525
 20
1151.253821222904
 30
0.0
 40
23.4
100
AcDbArc
 50
159.0751675724015
 51
200.9248324275985
  0
ARC
  5
728D
330
1F
100
AcDbEntity
  8
0
  6
Continuous
 62
     9
100
AcDbCircle
 10
1926.010350304325
 20
1175.253821222904
 30
0.0
 40
22.0000006422
100
AcDbArc
 50
202.3926878053964
 51
270.0
  0
ARC
  5
728E
330
1F
100
AcDbEntity
  8
0
  6
Continuous
 62
     9
100
AcDbCircle
 10
1919.606812374724
 20
1185.253821222905
 30
0.0
 40
22.0
100
AcDbArc
 50
249.0763979568963
 51
270.0
  0
ARC
  5
728F
330
1F
100
AcDbEntity
  8
0
  6
Continuous
 62
     7
100
AcDbCircle
 10
1926.010350304325
 20
1175.253821222904
 30
0.0
 40
20.0
100
AcDbArc
 50
202.3926878053964
 51
270.0
  0
ARC
  5
7290
330
1F
100
AcDbEntity
  8
0
  6
Continuous
 62
     7
100
AcDbCircle
 10
1919.606812374724
 20
1185.253821222905
 30
0.0
 40
20.0
100
AcDbArc
 50
227.2374718116997
 51
270.0
  0
ARC
  5
7291
330
1F
100
AcDbEntity
  8
0
  6
Continuous
 62
     7
100
AcDbCircle
 10
1823.838171858525
 20
1159.253821222904
 30
0.0
 40
1.0
100
AcDbArc
 50
90.0
 51
159.0751675724015
  0
ARC
  5
7292
330
1F
100
AcDbEntity
  8
0
  6
Continuous
 62
     7
100
AcDbCircle
 10
2029.760886787525
 20
1149.253821222904
 30
0.0
 40
2.0
100
AcDbArc
 50
270.0
 51
0.0
  0
ARC
  5
7293
330
1F
100
AcDbEntity
  8
0
  6
Continuous
 62
     7
100
AcDbCircle
 10
2132.760886787525
 20
1151.253821222904
 30
0.0
 40
14.0
100
AcDbArc
 50
270.0
 51
90.0
  0
ARC
  5
7294
330
1F
100
AcDbEntity
  8
0
  6
Continuous
 62
     9
100
AcDbCircle
 10
2132.760886787525
 20
1151.253821222904
 30
0.0
 40
12.0
100
AcDbArc
 50
270.0
 51
90.0
  0
ARC
  5
7295
330
1F
100
AcDbEntity
  8
0
  6
Continuous
 62
     7
100
AcDbCircle
 10
2029.760886787525
 20
1153.253821222905
 30
0.0
 40
2.0
100
AcDbArc
 50
0.0
 51
90.0
  0
SPLINE
  5
76A1
330
1F
100
AcDbEntity
  8
02___PRT_ALL_AXES
  6
Continuous
 62
     7
100
AcDbSpline
210
0.0
220
0.0
230
1.0
 70
     8
 71
     3
 72
     9
 73
     5
 74
     0
 42
0.000000001
 43
0.0000000001
 40
0.0
 40
0.0
 40
0.0
 40
0.0
 40
0.2415766646
 40
1.0
 40
1.0
 40
1.0
 40
1.0
 10
1853.287166229125
 20
1262.389331155399
 30
0.0
 10
1853.065232219925
 20
1262.352721538199
 30
0.0
 10
1852.155421362924
 20
1262.145089304599
 30
0.0
 10
1851.300652736925
 20
1261.742417055798
 30
0.0
 10
1850.689090017725
 20
1261.389331155399
 30
0.0
  0
SPLINE
  5
76A2
330
1F
100
AcDbEntity
  8
02___PRT_ALL_AXES
  6
Continuous
 62
     7
100
AcDbSpline
210
0.0
220
0.0
230
1.0
 70
     8
 71
     3
 72
     9
 73
     5
 74
     0
 42
0.000000001
 43
0.0000000001
 40
0.0
 40
0.0
 40
0.0
 40
0.0
 40
0.5000352169
 40
1.0
 40
1.0
 40
1.0
 40
1.0
 10
1850.689090017725
 20
1261.389331155399
 30
0.0
 10
1849.840657576125
 20
1261.634252504599
 30
0.0
 10
1848.125022531725
 20
1262.062455582198
 30
0.0
 10
1846.372901687925
 20
1262.316752940198
 30
0.0
 10
1845.492937595125
 20
1262.389331155399
 30
0.0
  0
SPLINE
  5
76A3
330
1F
100
AcDbEntity
  8
0
  6
Continuous
 62
     7
100
AcDbSpline
210
0.0
220
0.0
230
1.0
 70
     8
 71
     3
 72
     9
 73
     5
 74
     0
 42
0.000000001
 43
0.0000000001
 40
0.0
 40
0.0
 40
0.0
 40
0.0
 40
0.5000352169
 40
1.0
 40
1.0
 40
1.0
 40
1.0
 10
1850.689090017725
 20
1223.389331155399
 30
0.0
 10
1849.840657576125
 20
1223.144409806199
 30
0.0
 10
1848.125022531725
 20
1222.716206728599
 30
0.0
 10
1846.372901687925
 20
1222.461909370598
 30
0.0
 10
1845.492937595125
 20
1222.389331155399
 30
0.0
  0
SPLINE
  5
76A4
330
1F
100
AcDbEntity
  8
0
  6
Continuous
 62
     7
100
AcDbSpline
210
0.0
220
0.0
230
1.0
 70
     8
 71
     3
 72
     9
 73
     5
 74
     0
 42
0.000000001
 43
0.0000000001
 40
0.0
 40
0.0
 40
0.0
 40
0.0
 40
0.4999652667000001
 40
1.0
 40
1.0
 40
1.0
 40
1.0
 10
1842.028835979925
 20
1222.389331155399
 30
0.0
 10
1841.148871032325
 20
1222.461909440998
 30
0.0
 10
1839.396750115325
 20
1222.716206471599
 30
0.0
 10
1837.681115181524
 20
1223.144410041998
 30
0.0
 10
1836.832683557125
 20
1223.389331155399
 30
0.0
  0
SPLINE
  5
76A5
330
1F
100
AcDbEntity
  8
02___PRT_ALL_AXES
  6
Continuous
 62
     7
100
AcDbSpline
210
0.0
220
0.0
230
1.0
 70
     8
 71
     3
 72
     9
 73
     5
 74
     0
 42
0.000000001
 43
0.0000000001
 40
0.0
 40
0.0
 40
0.0
 40
0.0
 40
0.4999652667000001
 40
1.0
 40
1.0
 40
1.0
 40
1.0
 10
1842.028835979925
 20
1262.389331155399
 30
0.0
 10
1841.148871032325
 20
1262.316752869798
 30
0.0
 10
1839.396750115325
 20
1262.062455839199
 30
0.0
 10
1837.681115181524
 20
1261.634252268798
 30
0.0
 10
1836.832683557125
 20
1261.389331155399
 30
0.0
  0
SPLINE
  5
76A6
330
1F
100
AcDbEntity
  8
02___PRT_ALL_AXES
  6
Continuous
 62
     7
100
AcDbSpline
210
0.0
220
0.0
230
1.0
 70
     8
 71
     3
 72
     9
 73
     5
 74
     0
 42
0.000000001
 43
0.0000000001
 40
0.0
 40
0.0
 40
0.0
 40
0.0
 40
0.2600415295
 40
1.0
 40
1.0
 40
1.0
 40
1.0
 10
1836.832683557125
 20
1261.389331155399
 30
0.0
 10
1836.623137471925
 20
1261.510312644199
 30
0.0
 10
1835.805164408525
 20
1261.951613231998
 30
0.0
 10
1834.913941966725
 20
1262.277270004999
 30
0.0
 10
1834.234607345925
 20
1262.389331155399
 30
0.0
  0
SPLINE
  5
76A7
330
1F
100
AcDbEntity
  8
0
  6
Continuous
 62
     7
100
AcDbSpline
210
0.0
220
0.0
230
1.0
 70
     8
 71
     3
 72
     9
 73
     5
 74
     0
 42
0.000000001
 43
0.0000000001
 40
0.0
 40
0.0
 40
0.0
 40
0.0
 40
0.2600415295
 40
1.0
 40
1.0
 40
1.0
 40
1.0
 10
1836.832683557125
 20
1223.389331155399
 30
0.0
 10
1836.623137471925
 20
1223.268349666598
 30
0.0
 10
1835.805164408525
 20
1222.827049078798
 30
0.0
 10
1834.913941966725
 20
1222.501392305798
 30
0.0
 10
1834.234607345925
 20
1222.389331155399
 30
0.0
  0
SPLINE
  5
76A8
330
1F
100
AcDbEntity
  8
0
  6
Continuous
 62
     7
100
AcDbSpline
210
0.0
220
0.0
230
1.0
 70
     8
 71
     3
 72
     9
 73
     5
 74
     0
 42
0.000000001
 43
0.0000000001
 40
0.0
 40
0.0
 40
0.0
 40
0.0
 40
0.2415766646
 40
1.0
 40
1.0
 40
1.0
 40
1.0
 10
1832.502556538325
 20
1222.389331155399
 30
0.0
 10
1832.280622529125
 20
1222.425940772599
 30
0.0
 10
1831.370811672124
 20
1222.633573006199
 30
0.0
 10
1830.516043045924
 20
1223.036245254998
 30
0.0
 10
1829.904480326925
 20
1223.389331155399
 30
0.0
  0
SPLINE
  5
76A9
330
1F
100
AcDbEntity
  8
02___PRT_ALL_AXES
  6
Continuous
 62
     7
100
AcDbSpline
210
0.0
220
0.0
230
1.0
 70
     8
 71
     3
 72
     9
 73
     5
 74
     0
 42
0.000000001
 43
0.0000000001
 40
0.0
 40
0.0
 40
0.0
 40
0.0
 40
0.2415766646
 40
1.0
 40
1.0
 40
1.0
 40
1.0
 10
1832.502556538325
 20
1262.389331155399
 30
0.0
 10
1832.280622529125
 20
1262.352721538199
 30
0.0
 10
1831.370811672124
 20
1262.145089304599
 30
0.0
 10
1830.516043045924
 20
1261.742417055798
 30
0.0
 10
1829.904480326925
 20
1261.389331155399
 30
0.0
  0
SPLINE
  5
76AA
330
1F
100
AcDbEntity
  8
02___PRT_ALL_AXES
  6
Continuous
 62
     7
100
AcDbSpline
210
0.0
220
0.0
230
1.0
 70
     8
 71
     3
 72
     9
 73
     5
 74
     0
 42
0.000000001
 43
0.0000000001
 40
0.0
 40
0.0
 40
0.0
 40
0.0
 40
0.2600415295
 40
1.0
 40
1.0
 40
1.0
 40
1.0
 10
1857.617293248125
 20
1261.389331155399
 30
0.0
 10
1857.407747162725
 20
1261.510312644199
 30
0.0
 10
1856.589774099325
 20
1261.951613231998
 30
0.0
 10
1855.698551657724
 20
1262.277270004999
 30
0.0
 10
1855.019217036725
 20
1262.389331155399
 30
0.0
  0
SPLINE
  5
76AB
330
1F
100
AcDbEntity
  8
0
  6
Continuous
 62
     7
100
AcDbSpline
210
0.0
220
0.0
230
1.0
 70
     8
 71
     3
 72
     9
 73
     5
 74
     0
 42
0.000000001
 43
0.0000000001
 40
0.0
 40
0.0
 40
0.0
 40
0.0
 40
0.2600415295
 40
1.0
 40
1.0
 40
1.0
 40
1.0
 10
1857.617293248125
 20
1223.389331155399
 30
0.0
 10
1857.407747162725
 20
1223.268349666598
 30
0.0
 10
1856.589774099325
 20
1222.827049078798
 30
0.0
 10
1855.698551657724
 20
1222.501392305798
 30
0.0
 10
1855.019217036725
 20
1222.389331155399
 30
0.0
  0
SPLINE
  5
76AC
330
1F
100
AcDbEntity
  8
0
  6
Continuous
 62
     7
100
AcDbSpline
210
0.0
220
0.0
230
1.0
 70
     8
 71
     3
 72
     9
 73
     5
 74
     0
 42
0.000000001
 43
0.0000000001
 40
0.0
 40
0.0
 40
0.0
 40
0.0
 40
0.2415766646
 40
1.0
 40
1.0
 40
1.0
 40
1.0
 10
1853.287166229125
 20
1222.389331155399
 30
0.0
 10
1853.065232219925
 20
1222.425940772599
 30
0.0
 10
1852.155421362924
 20
1222.633573006199
 30
0.0
 10
1851.300652736925
 20
1223.036245254998
 30
0.0
 10
1850.689090017725
 20
1223.389331155399
 30
0.0
  0
SPLINE
  5
76AD
330
1F
100
AcDbEntity
  8
0
  6
Continuous
 62
     7
100
AcDbSpline
210
0.0
220
0.0
230
1.0
 70
     8
 71
     3
 72
    23
 73
    19
 74
     0
 42
0.000000001
 43
0.0000000001
 40
0.0
 40
0.0
 40
0.0
 40
0.0
 40
0.0023847227
 40
0.0095430799
 40
0.0213810839
 40
0.0377755081
 40
0.0836271757
 40
0.1454273302
 40
0.3074468292
 40
0.4999989237
 40
0.6925506495000001
 40
0.854570277
 40
0.9163711209999998
 40
0.9622242608
 40
0.9786180258999999
 40
0.9904512737999999
 40
0.9976049556999999
 40
1.0
 40
1.0
 40
1.0
 40
1.0
 10
1824.760886787525
 20
1654.116724263978
 30
0.0
 10
1824.760886787525
 20
1654.129036602179
 30
0.0
 10
1824.775617246524
 20
1654.021158938379
 30
0.0
 10
1824.790197781925
 20
1653.969845063779
 30
0.0
 10
1824.826045652925
 20
1653.757967910978
 30
0.0
 10
1824.890943223925
 20
1653.400445085978
 30
0.0
 10
1824.997010195125
 20
1652.754858672178
 30
0.0
 10
1825.197449725925
 20
1651.385505188578
 30
0.0
 10
1825.421909786325
 20
1649.240597624179
 30
0.0
 10
1825.526517228525
 20
1646.416743380578
 30
0.0
 10
1825.421908010525
 20
1643.592886764379
 30
0.0
 10
1825.197455218325
 20
1641.447980329179
 30
0.0
 10
1824.997003919525
 20
1640.078610008379
 30
0.0
 10
1824.890960179325
 20
1639.433022908978
 30
0.0
 10
1824.826039498525
 20
1639.075507323578
 30
0.0
 10
1824.790234529525
 20
1638.863718585579
 30
0.0
 10
1824.775557124525
 20
1638.812355070178
 30
0.0
 10
1824.760886787525
 20
1638.704358635378
 30
0.0
 10
1824.760886787525
 20
1638.716724263979
 30
0.0
  0
SPLINE
  5
76AE
330
1F
100
AcDbEntity
  8
0
  6
Continuous
 62
     9
100
AcDbSpline
210
0.0
220
0.0
230
1.0
 70
     8
 71
     3
 72
    12
 73
     8
 74
     0
 42
0.000000001
 43
0.0000000001
 40
0.0
 40
0.0
 40
0.0
 40
0.0
 40
0.1364041195
 40
0.2695262307
 40
0.5233163261
 40
0.7659264565
 40
1.0
 40
1.0
 40
1.0
 40
1.0
 10
1926.011113760525
 20
1646.905506173579
 30
0.0
 10
1924.700606655125
 20
1646.589086740378
 30
0.0
 10
1922.171741444525
 20
1645.677734102379
 30
0.0
 10
1917.733159784525
 20
1642.968470905378
 30
0.0
 10
1913.360623423525
 20
1638.397793377378
 30
0.0
 10
1909.754532654525
 20
1632.095560637578
 30
0.0
 10
1908.141146453525
 20
1627.644841008378
 30
0.0
 10
1907.518457124325
 20
1625.416724263979
 30
0.0
  0
SPLINE
  5
76AF
330
1F
100
AcDbEntity
  8
0
  6
Continuous
 62
     9
100
AcDbSpline
210
0.0
220
0.0
230
1.0
 70
     8
 71
     3
 72
    12
 73
     8
 74
     0
 42
0.000000001
 43
0.0000000001
 40
0.0
 40
0.0
 40
0.0
 40
0.0
 40
0.1415695546
 40
0.2784909238
 40
0.5342855672
 40
0.7730678141
 40
1.0
 40
1.0
 40
1.0
 40
1.0
 10
1926.438844304925
 20
1644.951760576779
 30
0.0
 10
1925.131830180525
 20
1644.665011143979
 30
0.0
 10
1922.610137005525
 20
1643.841321423378
 30
0.0
 10
1918.169543112724
 20
1641.385272547179
 30
0.0
 10
1913.752239987925
 20
1637.232795054979
 30
0.0
 10
1910.009617019325
 20
1631.487592914578
 30
0.0
 10
1908.235494158125
 20
1627.438262536579
 30
0.0
 10
1907.518457124325
 20
1625.416724263979
 30
0.0
  0
SPLINE
  5
76B0
330
1F
100
AcDbEntity
  8
0
  6
Continuous
 62
     9
100
AcDbSpline
210
0.0
220
0.0
230
1.0
 70
     8
 71
     3
 72
    11
 73
     7
 74
     0
 42
0.000000001
 43
0.0000000001
 40
0.0
 40
0.0
 40
0.0
 40
0.0
 40
0.2409173929
 40
0.4872128638000001
 40
0.7409906626
 40
1.0
 40
1.0
 40
1.0
 40
1.0
 10
1905.669267806325
 20
1675.416724263978
 30
0.0
 10
1905.910577682325
 20
1675.416724263978
 30
0.0
 10
1906.404485858125
 20
1675.309606340978
 30
0.0
 10
1907.018631395525
 20
1674.858539390979
 30
0.0
 10
1907.424696427124
 20
1674.194825778579
 30
0.0
 10
1907.518457123725
 20
1673.676155558179
 30
0.0
 10
1907.518457123725
 20
1673.416724263979
 30
0.0
  0
SPLINE
  5
76B1
330
1F
100
AcDbEntity
  8
0
  6
Continuous
 62
     9
100
AcDbSpline
210
0.0
220
0.0
230
1.0
 70
     8
 71
     3
 72
    11
 73
     7
 74
     0
 42
0.000000001
 43
0.0000000001
 40
0.0
 40
0.0
 40
0.0
 40
0.0
 40
0.2698072235
 40
0.5256912717
 40
0.7684625773000001
 40
1.0
 40
1.0
 40
1.0
 40
1.0
 10
1920.384743253725
 20
1515.553581629779
 30
0.0
 10
1918.244921484125
 20
1514.650938212779
 30
0.0
 10
1914.328546971125
 20
1512.256547967578
 30
0.0
 10
1909.577999908125
 20
1507.604895796778
 30
0.0
 10
1905.824637166925
 20
1502.540151864979
 30
0.0
 10
1903.786028602124
 20
1498.993056520378
 30
0.0
 10
1902.882320249925
 20
1497.216724263979
 30
0.0
  0
SPLINE
  5
76B2
330
1F
100
AcDbEntity
  8
0
  6
Continuous
 62
     9
100
AcDbSpline
210
0.0
220
0.0
230
1.0
 70
     8
 71
     3
 72
     9
 73
     5
 74
     0
 42
0.000000001
 43
0.0000000001
 40
0.0
 40
0.0
 40
0.0
 40
0.0
 40
0.4694957964000001
 40
1.0
 40
1.0
 40
1.0
 40
1.0
 10
1902.882303758325
 20
1571.216736689778
 30
0.0
 10
1904.111763797925
 20
1570.291260658178
 30
0.0
 10
1906.789270551125
 20
1568.437017721378
 30
0.0
 10
1910.011247400325
 20
1567.216678406178
 30
0.0
 10
1911.750069339525
 20
1567.216724273579
 30
0.0
  0
SPLINE
  5
76B3
330
1F
100
AcDbEntity
  8
0
  6
Continuous
 62
     9
100
AcDbSpline
210
0.0
220
0.0
230
1.0
 70
     8
 71
     3
 72
    11
 73
     7
 74
     0
 42
0.000000001
 43
0.0000000001
 40
0.0
 40
0.0
 40
0.0
 40
0.0
 40
0.1397440334
 40
0.359317296
 40
0.6572731615000001
 40
1.0
 40
1.0
 40
1.0
 40
1.0
 10
1911.750443708925
 20
1567.216724263979
 30
0.0
 10
1911.854729798925
 20
1567.216724263779
 30
0.0
 10
1912.099459286524
 20
1567.033457952379
 30
0.0
 10
1912.289218579724
 20
1566.581024553378
 30
0.0
 10
1912.434907135525
 20
1565.951547479779
 30
0.0
 10
1912.464659040925
 20
1565.472489330179
 30
0.0
 10
1912.464659040925
 20
1565.216724263979
 30
0.0
  0
SPLINE
  5
76B4
330
1F
100
AcDbEntity
  8
0
  6
Continuous
 62
     9
100
AcDbSpline
210
0.0
220
0.0
230
1.0
 70
     8
 71
     3
 72
    11
 73
     7
 74
     0
 42
0.000000001
 43
0.0000000001
 40
0.0
 40
0.0
 40
0.0
 40
0.0
 40
0.2635264375
 40
0.5180244691000001
 40
0.7633824148999999
 40
1.0
 40
1.0
 40
1.0
 40
1.0
 10
1919.608061317525
 20
1517.387968523979
 30
0.0
 10
1917.477692616525
 20
1516.393300841979
 30
0.0
 10
1913.596598008725
 20
1513.747054577378
 30
0.0
 10
1909.012885095924
 20
1508.656687179178
 30
0.0
 10
1905.488741041725
 20
1503.083674161779
 30
0.0
 10
1903.667088267525
 20
1499.176532631179
 30
0.0
 10
1902.882332589325
 20
1497.216755061378
 30
0.0
  0
SPLINE
  5
76B5
330
1F
100
AcDbEntity
  8
0
  6
Continuous
 62
     9
100
AcDbSpline
210
0.0
220
0.0
230
1.0
 70
     8
 71
     3
 72
    11
 73
     7
 74
     0
 42
0.000000001
 43
0.0000000001
 40
0.0
 40
0.0
 40
0.0
 40
0.0
 40
0.2291623392
 40
0.4722884111
 40
0.7285465448
 40
1.0
 40
1.0
 40
1.0
 40
1.0
 10
1902.882320249925
 20
1571.216724263979
 30
0.0
 10
1903.424296491925
 20
1570.509887035379
 30
0.0
 10
1904.620944443925
 20
1569.111704563378
 30
0.0
 10
1906.749227960925
 20
1567.224680540778
 30
0.0
 10
1909.351081089925
 20
1565.693781567778
 30
0.0
 10
1911.409576377325
 20
1565.216704734778
 30
0.0
 10
1912.464659041925
 20
1565.216724263979
 30
0.0
  0
SPLINE
  5
76B6
330
1F
100
AcDbEntity
  8
0
  6
Continuous
 62
     9
100
AcDbSpline
210
0.0
220
0.0
230
1.0
 70
     8
 71
     3
 72
     9
 73
     5
 74
     0
 42
0.000000001
 43
0.0000000001
 40
0.0
 40
0.0
 40
0.0
 40
0.0
 40
0.2547528656
 40
1.0
 40
1.0
 40
1.0
 40
1.0
 10
1911.750060707525
 20
1164.704709394905
 30
0.0
 10
1911.383452306325
 20
1164.937871092504
 30
0.0
 10
1909.980580893925
 20
1165.910267337705
 30
0.0
 10
1908.712869164725
 20
1167.066677475904
 30
0.0
 10
1907.828895461325
 20
1167.979921291305
 30
0.0
  0
SPLINE
  5
76B7
330
1F
100
AcDbEntity
  8
0
  6
Continuous
 62
     9
100
AcDbSpline
210
0.0
220
0.0
230
1.0
 70
     8
 71
     3
 72
     9
 73
     5
 74
     0
 42
0.000000001
 43
0.0000000001
 40
0.0
 40
0.0
 40
0.0
 40
0.0
 40
0.2454005114
 40
1.0
 40
1.0
 40
1.0
 40
1.0
 10
1907.829526773925
 20
1134.528372337105
 30
0.0
 10
1908.120481660924
 20
1134.828942409704
 30
0.0
 10
1909.331002176525
 20
1136.028293065304
 30
0.0
 10
1910.664657144124
 20
1137.112608406704
 30
0.0
 10
1911.750069339525
 20
1137.802939046505
 30
0.0
  0
DIMENSION
  5
78C8
330
1F
100
AcDbEntity
  8
0
  6
Continuous
 62
     2
100
AcDbDimension
280
     0
  2
*D35
 10
2146.760886787525
 20
1096.519264317388
 30
0.0
 11
1982.260886787525
 21
1102.229978603102
 31
0.0
 70
    32
  1
164.5
 71
     5
 42
329.0
 73
     0
 74
     0
 75
     0
  3
DIMSTYLE_1
100
AcDbAlignedDimension
 13
1817.760886787525
 23
1151.253821264573
 33
0.0
 14
2146.760886787525
 24
1151.253821222904
 34
0.0
100
AcDbRotatedDimension
1001
ACAD
1000
DSTYLE
1002
{
1070
    41
1040
10.0
1070
   140
1040
10.0
1002
}
  0
DIMENSION
  5
7971
330
1F
100
AcDbEntity
  8
0
  6
Continuous
 62
     2
100
AcDbDimension
280
     0
  2
*D36
 10
2176.692036098703
 20
1137.253821222905
 30
0.0
 11
2172.067036098703
 21
1151.253821222905
 31
0.0
 70
    32
  1
14
 71
     5
 42
28.0
 73
     0
 74
     0
 75
     0
  3
DIMSTYLE_1
100
AcDbAlignedDimension
 13
2132.760886787525
 23
1165.253821222904
 33
0.0
 14
2132.760886787525
 24
1137.253821222905
 34
0.0
 50
90.0
100
AcDbRotatedDimension
1001
ACAD
1000
DSTYLE
1002
{
1070
    41
1040
8.0
1070
   140
1040
8.0
1002
}
  0
LINE
  5
79BC
330
1F
100
AcDbEntity
  8
0
  6
CENTER
 62
     1
100
AcDbLine
 10
1867.760886787525
 20
1380.418237130911
 30
0.0
 11
1867.760886787525
 21
1610.216724263979
 31
0.0
  0
DIMENSION
  5
79F6
330
1F
100
AcDbEntity
  8
0
  6
Continuous
 62
     2
100
AcDbDimension
280
     0
  2
*D37
 10
1849.960886787525
 20
1209.00822006438
 30
0.0
 11
1881.409373518651
 21
1209.00822006438
 31
0.0
 70
   160
  1
M8
 71
     5
 42
12.40000000000009
 73
     0
 74
     0
 75
     0
  3
DIMSTYLE_1
100
AcDbAlignedDimension
 13
1837.560886787525
 23
1219.216724263979
 33
0.0
 14
1849.960886787525
 24
1223.153250389182
 34
0.0
100
AcDbRotatedDimension
1001
ACAD
1000
DSTYLE
1002
{
1070
    41
1040
10.0
1070
   140
1040
8.0
1070
   340
1005
228
1002
}
  0
DIMENSION
  5
A0A7
330
1F
100
AcDbEntity
  8
0
  6
Continuous
 62
     2
100
AcDbDimension
280
     0
  2
*D38
 10
1785.63066675964
 20
1262.389331155399
 30
0.0
 11
1785.63066675964
 21
1298.303027709689
 31
0.0
 70
   160
  1
MAX=40
 71
     5
 42
71.82739310858005
 73
     0
 74
     0
 75
     0
  3
DIMSTYLE_1
100
AcDbAlignedDimension
 13
1816.760886787525
 23
1334.216724263979
 33
0.0
 14
1831.636684401325
 24
1262.389331155399
 34
0.0
 50
90.0
100
AcDbRotatedDimension
1001
ACAD
1000
DSTYLE
1002
{
1070
    41
1040
10.0
1070
   140
1040
8.0
1002
}
  0
ENDSEC
  0
SECTION
  2
OBJECTS
  0
DICTIONARY
  5
1072
330
0
100
AcDbDictionary
281
     1
  3
ACAD_CIP_PREVIOUS_PRODUCT_INFO
350
A188
  3
ACAD_COLOR
350
10A7
  3
ACAD_DETAILVIEWSTYLE
350
A17D
  3
ACAD_GROUP
350
1073
  3
ACAD_LAYOUT
350
10BE
  3
ACAD_MATERIAL
350
107A
  3
ACAD_MLEADERSTYLE
350
10BC
  3
ACAD_MLINESTYLE
350
1074
  3
ACAD_PLOTSETTINGS
350
10BF
  3
ACAD_PLOTSTYLENAME
350
1078
  3
ACAD_SCALELIST
350
10AA
  3
ACAD_SECTIONVIEWSTYLE
350
A17B
  3
ACAD_TABLESTYLE
350
10A8
  3
ACAD_VISUALSTYLE
350
1093
  3
ACDB_RECOMPOSE_DATA
350
A208
  3
AcDbVariableDictionary
350
119C
  0
DICTIONARY
  5
10E9
330
8
100
AcDbDictionary
280
     1
281
     1
  0
DICTIONARY
  5
1265
330
2
100
AcDbDictionary
280
     1
281
     1
  3
ACAD_LAYERSTATES
360
1266
  0
DICTIONARY
  5
A189
330
10
100
AcDbDictionary
280
     1
281
     1
  3
ADSK_XREC_LAYER_RECONCILED
360
A18A
  0
DICTIONARY
  5
A18B
330
1FA
100
AcDbDictionary
280
     1
281
     1
  3
ADSK_XREC_LAYER_RECONCILED
360
A18C
  0
DICTIONARY
  5
A18D
330
1FB
100
AcDbDictionary
280
     1
281
     1
  3
ADSK_XREC_LAYER_RECONCILED
360
A18E
  0
DICTIONARY
  5
A18F
330
1FC
100
AcDbDictionary
280
     1
281
     1
  3
ADSK_XREC_LAYER_RECONCILED
360
A190
  0
DICTIONARY
  5
A191
330
1FD
100
AcDbDictionary
280
     1
281
     1
  3
ADSK_XREC_LAYER_RECONCILED
360
A192
  0
DICTIONARY
  5
A193
330
1FE
100
AcDbDictionary
280
     1
281
     1
  3
ADSK_XREC_LAYER_RECONCILED
360
A194
  0
DICTIONARY
  5
A195
330
1FF
100
AcDbDictionary
280
     1
281
     1
  3
ADSK_XREC_LAYER_RECONCILED
360
A196
  0
DICTIONARY
  5
A197
330
200
100
AcDbDictionary
280
     1
281
     1
  3
ADSK_XREC_LAYER_RECONCILED
360
A198
  0
DICTIONARY
  5
A199
330
201
100
AcDbDictionary
280
     1
281
     1
  3
ADSK_XREC_LAYER_RECONCILED
360
A19A
  0
DICTIONARY
  5
A19B
330
202
100
AcDbDictionary
280
     1
281
     1
  3
ADSK_XREC_LAYER_RECONCILED
360
A19C
  0
DICTIONARY
  5
A19D
330
203
100
AcDbDictionary
280
     1
281
     1
  3
ADSK_XREC_LAYER_RECONCILED
360
A19E
  0
DICTIONARY
  5
A19F
330
204
100
AcDbDictionary
280
     1
281
     1
  3
ADSK_XREC_LAYER_RECONCILED
360
A1A0
  0
DICTIONARY
  5
A1A1
330
205
100
AcDbDictionary
280
     1
281
     1
  3
ADSK_XREC_LAYER_RECONCILED
360
A1A2
  0
DICTIONARY
  5
A1A3
330
206
100
AcDbDictionary
280
     1
281
     1
  3
ADSK_XREC_LAYER_RECONCILED
360
A1A4
  0
DICTIONARY
  5
A1A5
330
207
100
AcDbDictionary
280
     1
281
     1
  3
ADSK_XREC_LAYER_RECONCILED
360
A1A6
  0
DICTIONARY
  5
A1A7
330
208
100
AcDbDictionary
280
     1
281
     1
  3
ADSK_XREC_LAYER_RECONCILED
360
A1A8
  0
DICTIONARY
  5
A1A9
330
209
100
AcDbDictionary
280
     1
281
     1
  3
ADSK_XREC_LAYER_RECONCILED
360
A1AA
  0
DICTIONARY
  5
A1AB
330
20A
100
AcDbDictionary
280
     1
281
     1
  3
ADSK_XREC_LAYER_RECONCILED
360
A1AC
  0
DICTIONARY
  5
A1AD
330
20B
100
AcDbDictionary
280
     1
281
     1
  3
ADSK_XREC_LAYER_RECONCILED
360
A1AE
  0
DICTIONARY
  5
A1AF
330
20C
100
AcDbDictionary
280
     1
281
     1
  3
ADSK_XREC_LAYER_RECONCILED
360
A1B0
  0
DICTIONARY
  5
A1B1
330
20D
100
AcDbDictionary
280
     1
281
     1
  3
ADSK_XREC_LAYER_RECONCILED
360
A1B2
  0
DICTIONARY
  5
A1B3
330
20E
100
AcDbDictionary
280
     1
281
     1
  3
ADSK_XREC_LAYER_RECONCILED
360
A1B4
  0
DICTIONARY
  5
A1B5
330
20F
100
AcDbDictionary
280
     1
281
     1
  3
ADSK_XREC_LAYER_RECONCILED
360
A1B6
  0
DICTIONARY
  5
A1B7
330
210
100
AcDbDictionary
280
     1
281
     1
  3
ADSK_XREC_LAYER_RECONCILED
360
A1B8
  0
DICTIONARY
  5
A1B9
330
211
100
AcDbDictionary
280
     1
281
     1
  3
ADSK_XREC_LAYER_RECONCILED
360
A1BA
  0
DICTIONARY
  5
A1BB
330
212
100
AcDbDictionary
280
     1
281
     1
  3
ADSK_XREC_LAYER_RECONCILED
360
A1BC
  0
DICTIONARY
  5
A1BD
330
213
100
AcDbDictionary
280
     1
281
     1
  3
ADSK_XREC_LAYER_RECONCILED
360
A1BE
  0
DICTIONARY
  5
A1BF
330
214
100
AcDbDictionary
280
     1
281
     1
  3
ADSK_XREC_LAYER_RECONCILED
360
A1C0
  0
DICTIONARY
  5
A1C1
330
215
100
AcDbDictionary
280
     1
281
     1
  3
ADSK_XREC_LAYER_RECONCILED
360
A1C2
  0
DICTIONARY
  5
A1C3
330
216
100
AcDbDictionary
280
     1
281
     1
  3
ADSK_XREC_LAYER_RECONCILED
360
A1C4
  0
DICTIONARY
  5
A1C5
330
217
100
AcDbDictionary
280
     1
281
     1
  3
ADSK_XREC_LAYER_RECONCILED
360
A1C6
  0
DICTIONARY
  5
A1C7
330
218
100
AcDbDictionary
280
     1
281
     1
  3
ADSK_XREC_LAYER_RECONCILED
360
A1C8
  0
DICTIONARY
  5
A1C9
330
219
100
AcDbDictionary
280
     1
281
     1
  3
ADSK_XREC_LAYER_RECONCILED
360
A1CA
  0
DICTIONARY
  5
A1CB
330
21A
100
AcDbDictionary
280
     1
281
     1
  3
ADSK_XREC_LAYER_RECONCILED
360
A1CC
  0
DICTIONARY
  5
A1CD
330
21B
100
AcDbDictionary
280
     1
281
     1
  3
ADSK_XREC_LAYER_RECONCILED
360
A1CE
  0
DICTIONARY
  5
A1CF
330
21C
100
AcDbDictionary
280
     1
281
     1
  3
ADSK_XREC_LAYER_RECONCILED
360
A1D0
  0
DICTIONARY
  5
A1D1
330
21D
100
AcDbDictionary
280
     1
281
     1
  3
ADSK_XREC_LAYER_RECONCILED
360
A1D2
  0
DICTIONARY
  5
A1D3
330
21E
100
AcDbDictionary
280
     1
281
     1
  3
ADSK_XREC_LAYER_RECONCILED
360
A1D4
  0
DICTIONARY
  5
A1D5
330
21F
100
AcDbDictionary
280
     1
281
     1
  3
ADSK_XREC_LAYER_RECONCILED
360
A1D6
  0
DICTIONARY
  5
A1D7
330
220
100
AcDbDictionary
280
     1
281
     1
  3
ADSK_XREC_LAYER_RECONCILED
360
A1D8
  0
DICTIONARY
  5
A1D9
330
221
100
AcDbDictionary
280
     1
281
     1
  3
ADSK_XREC_LAYER_RECONCILED
360
A1DA
  0
DICTIONARY
  5
A1DB
330
222
100
AcDbDictionary
280
     1
281
     1
  3
ADSK_XREC_LAYER_RECONCILED
360
A1DC
  0
DICTIONARY
  5
A1DD
330
223
100
AcDbDictionary
280
     1
281
     1
  3
ADSK_XREC_LAYER_RECONCILED
360
A1DE
  0
DICTIONARY
  5
A1DF
330
224
100
AcDbDictionary
280
     1
281
     1
  3
ADSK_XREC_LAYER_RECONCILED
360
A1E0
  0
DICTIONARY
  5
A1E1
330
225
100
AcDbDictionary
280
     1
281
     1
  3
ADSK_XREC_LAYER_RECONCILED
360
A1E2
  0
DICTIONARY
  5
A1E3
330
226
100
AcDbDictionary
280
     1
281
     1
  3
ADSK_XREC_LAYER_RECONCILED
360
A1E4
  0
DICTIONARY
  5
A1E5
330
125B
100
AcDbDictionary
280
     1
281
     1
  3
ADSK_XREC_LAYER_RECONCILED
360
A1E6
  0
DICTIONARY
  5
A1E7
330
125D
100
AcDbDictionary
280
     1
281
     1
  3
ADSK_XREC_LAYER_RECONCILED
360
A1E8
  0
DICTIONARY
  5
A1E9
330
125E
100
AcDbDictionary
280
     1
281
     1
  3
ADSK_XREC_LAYER_RECONCILED
360
A1EA
  0
DICTIONARY
  5
A1EB
330
125F
100
AcDbDictionary
280
     1
281
     1
  3
ADSK_XREC_LAYER_RECONCILED
360
A1EC
  0
DICTIONARY
  5
A1ED
330
1260
100
AcDbDictionary
280
     1
281
     1
  3
ADSK_XREC_LAYER_RECONCILED
360
A1EE
  0
DICTIONARY
  5
A1EF
330
1261
100
AcDbDictionary
280
     1
281
     1
  3
ADSK_XREC_LAYER_RECONCILED
360
A1F0
  0
DICTIONARY
  5
10ED
330
1F
100
AcDbDictionary
280
     1
281
     1
  3
ACAD_LAYOUTSELFREF
360
10EE
  3
ACAD_SORTENTS
360
11BE
  0
DICTIONARY
  5
10EB
330
1B
100
AcDbDictionary
280
     1
281
     1
  3
ACAD_LAYOUTSELFREF
360
10EC
  0
DICTIONARY
  5
A165
330
A160
100
AcDbDictionary
280
     1
281
     1
  3
ACAD_SORTENTS
360
A166
  0
XRECORD
  5
A188
102
{ACAD_REACTORS
330
1072
102
}
330
1072
100
AcDbXrecord
280
     1
300
ACD
300
2017
300
ACD_F_S
  0
DICTIONARY
  5
10A7
102
{ACAD_REACTORS
330
1072
102
}
330
1072
100
AcDbDictionary
281
     1
  0
DICTIONARY
  5
A17D
102
{ACAD_REACTORS
330
1072
102
}
330
1072
100
AcDbDictionary
281
     1
  3
Metric50
350
A17E
  0
DICTIONARY
  5
1073
102
{ACAD_REACTORS
330
1072
102
}
330
1072
100
AcDbDictionary
281
     1
  0
DICTIONARY
  5
10BE
102
{ACAD_REACTORS
330
1072
102
}
330
1072
100
AcDbDictionary
281
     1
  3
Layout1
350
10C1
  3
Model
350
10C0
  0
DICTIONARY
  5
107A
102
{ACAD_REACTORS
330
1072
102
}
330
1072
100
AcDbDictionary
281
     1
  3
ByBlock
350
1083
  3
ByLayer
350
107B
  3
Global
350
108B
  0
DICTIONARY
  5
10BC
102
{ACAD_REACTORS
330
1072
102
}
330
1072
100
AcDbDictionary
281
     1
  3
Standard
350
10BD
  0
DICTIONARY
  5
1074
102
{ACAD_REACTORS
330
1072
102
}
330
1072
100
AcDbDictionary
281
     1
  3
STANDARD
350
1075
  0
DICTIONARY
  5
10BF
102
{ACAD_REACTORS
330
1072
102
}
330
1072
100
AcDbDictionary
281
     1
  0
ACDBDICTIONARYWDFLT
  5
1078
102
{ACAD_REACTORS
330
1072
102
}
330
1072
100
AcDbDictionary
281
     1
  3
Normal
350
1079
100
AcDbDictionaryWithDefault
340
1079
  0
DICTIONARY
  5
10AA
102
{ACAD_REACTORS
330
1072
102
}
330
1072
100
AcDbDictionary
281
     1
  3
A0
350
10AB
  3
A1
350
10AC
  3
A2
350
10AD
  3
A3
350
10AE
  3
A4
350
10AF
  3
A5
350
10B0
  3
A6
350
10B1
  3
A7
350
10B2
  3
A8
350
10B3
  3
A9
350
10B4
  3
B0
350
10B5
  3
B1
350
10B6
  3
B2
350
10B7
  3
B3
350
10B8
  3
B4
350
10B9
  3
B5
350
10BA
  3
B6
350
10BB
  0
DICTIONARY
  5
A17B
102
{ACAD_REACTORS
330
1072
102
}
330
1072
100
AcDbDictionary
281
     1
  3
Metric50
350
A17C
  0
DICTIONARY
  5
10A8
102
{ACAD_REACTORS
330
1072
102
}
330
1072
100
AcDbDictionary
281
     1
  3
Standard
350
10A9
  0
DICTIONARY
  5
1093
102
{ACAD_REACTORS
330
1072
102
}
330
1072
100
AcDbDictionary
281
     1
  3
2dWireframe
350
1099
  3
3D Hidden
350
109B
  3
3dWireframe
350
109A
  3
Basic
350
1098
  3
Brighten
350
109F
  3
ColorChange
350
10A3
  3
Conceptual
350
109C
  3
Dim
350
109E
  3
EdgeColorOff
350
10A6
  3
Facepattern
350
10A2
  3
Flat
350
1094
  3
FlatWithEdges
350
1095
  3
Gouraud
350
1096
  3
GouraudWithEdges
350
1097
  3
Hidden
350
A175
  3
JitterOff
350
10A4
  3
Linepattern
350
10A1
  3
OverhangOff
350
10A5
  3
Realistic
350
109D
  3
Shaded
350
A17A
  3
Shaded with edges
350
A179
  3
Shades of Gray
350
A176
  3
Sketchy
350
A177
  3
Thicken
350
10A0
  3
Wireframe
350
A174
  3
X-Ray
350
A178
  0
XRECORD
  5
A208
102
{ACAD_REACTORS
330
1072
102
}
330
1072
100
AcDbXrecord
280
     1
 90
        1
330
10A9
330
A17C
330
A17E
  0
DICTIONARY
  5
119C
102
{ACAD_REACTORS
330
1072
102
}
330
1072
100
AcDbDictionary
281
     1
  3
CANNOSCALE
350
119F
  3
CMLEADERSTYLE
350
119E
  3
CTABLESTYLE
350
119D
  3
CVIEWDETAILSTYLE
350
A1FD
  3
CVIEWSECTIONSTYLE
350
A1FE
  3
DIMASSOC
350
11A2
  3
INDEXCTL
350
11A1
  3
LAYEREVAL
350
A201
  3
LAYERNOTIFY
350
A202
  3
LIGHTINGUNITS
350
A200
  3
MSLTSCALE
350
A1FF
  3
SORTENTS
350
11A0
  0
DICTIONARY
  5
1266
102
{ACAD_REACTORS
330
1265
102
}
330
1265
100
AcDbDictionary
281
     1
  0
XRECORD
  5
A18A
102
{ACAD_REACTORS
330
A189
102
}
330
A189
100
AcDbXrecord
280
     1
290
     1
  0
XRECORD
  5
A18C
102
{ACAD_REACTORS
330
A18B
102
}
330
A18B
100
AcDbXrecord
280
     1
290
     1
  0
XRECORD
  5
A18E
102
{ACAD_REACTORS
330
A18D
102
}
330
A18D
100
AcDbXrecord
280
     1
290
     1
  0
XRECORD
  5
A190
102
{ACAD_REACTORS
330
A18F
102
}
330
A18F
100
AcDbXrecord
280
     1
290
     1
  0
XRECORD
  5
A192
102
{ACAD_REACTORS
330
A191
102
}
330
A191
100
AcDbXrecord
280
     1
290
     1
  0
XRECORD
  5
A194
102
{ACAD_REACTORS
330
A193
102
}
330
A193
100
AcDbXrecord
280
     1
290
     1
  0
XRECORD
  5
A196
102
{ACAD_REACTORS
330
A195
102
}
330
A195
100
AcDbXrecord
280
     1
290
     1
  0
XRECORD
  5
A198
102
{ACAD_REACTORS
330
A197
102
}
330
A197
100
AcDbXrecord
280
     1
290
     1
  0
XRECORD
  5
A19A
102
{ACAD_REACTORS
330
A199
102
}
330
A199
100
AcDbXrecord
280
     1
290
     1
  0
XRECORD
  5
A19C
102
{ACAD_REACTORS
330
A19B
102
}
330
A19B
100
AcDbXrecord
280
     1
290
     1
  0
XRECORD
  5
A19E
102
{ACAD_REACTORS
330
A19D
102
}
330
A19D
100
AcDbXrecord
280
     1
290
     1
  0
XRECORD
  5
A1A0
102
{ACAD_REACTORS
330
A19F
102
}
330
A19F
100
AcDbXrecord
280
     1
290
     1
  0
XRECORD
  5
A1A2
102
{ACAD_REACTORS
330
A1A1
102
}
330
A1A1
100
AcDbXrecord
280
     1
290
     1
  0
XRECORD
  5
A1A4
102
{ACAD_REACTORS
330
A1A3
102
}
330
A1A3
100
AcDbXrecord
280
     1
290
     1
  0
XRECORD
  5
A1A6
102
{ACAD_REACTORS
330
A1A5
102
}
330
A1A5
100
AcDbXrecord
280
     1
290
     1
  0
XRECORD
  5
A1A8
102
{ACAD_REACTORS
330
A1A7
102
}
330
A1A7
100
AcDbXrecord
280
     1
290
     1
  0
XRECORD
  5
A1AA
102
{ACAD_REACTORS
330
A1A9
102
}
330
A1A9
100
AcDbXrecord
280
     1
290
     1
  0
XRECORD
  5
A1AC
102
{ACAD_REACTORS
330
A1AB
102
}
330
A1AB
100
AcDbXrecord
280
     1
290
     1
  0
XRECORD
  5
A1AE
102
{ACAD_REACTORS
330
A1AD
102
}
330
A1AD
100
AcDbXrecord
280
     1
290
     1
  0
XRECORD
  5
A1B0
102
{ACAD_REACTORS
330
A1AF
102
}
330
A1AF
100
AcDbXrecord
280
     1
290
     1
  0
XRECORD
  5
A1B2
102
{ACAD_REACTORS
330
A1B1
102
}
330
A1B1
100
AcDbXrecord
280
     1
290
     1
  0
XRECORD
  5
A1B4
102
{ACAD_REACTORS
330
A1B3
102
}
330
A1B3
100
AcDbXrecord
280
     1
290
     1
  0
XRECORD
  5
A1B6
102
{ACAD_REACTORS
330
A1B5
102
}
330
A1B5
100
AcDbXrecord
280
     1
290
     1
  0
XRECORD
  5
A1B8
102
{ACAD_REACTORS
330
A1B7
102
}
330
A1B7
100
AcDbXrecord
280
     1
290
     1
  0
XRECORD
  5
A1BA
102
{ACAD_REACTORS
330
A1B9
102
}
330
A1B9
100
AcDbXrecord
280
     1
290
     1
  0
XRECORD
  5
A1BC
102
{ACAD_REACTORS
330
A1BB
102
}
330
A1BB
100
AcDbXrecord
280
     1
290
     1
  0
XRECORD
  5
A1BE
102
{ACAD_REACTORS
330
A1BD
102
}
330
A1BD
100
AcDbXrecord
280
     1
290
     1
  0
XRECORD
  5
A1C0
102
{ACAD_REACTORS
330
A1BF
102
}
330
A1BF
100
AcDbXrecord
280
     1
290
     1
  0
XRECORD
  5
A1C2
102
{ACAD_REACTORS
330
A1C1
102
}
330
A1C1
100
AcDbXrecord
280
     1
290
     1
  0
XRECORD
  5
A1C4
102
{ACAD_REACTORS
330
A1C3
102
}
330
A1C3
100
AcDbXrecord
280
     1
290
     1
  0
XRECORD
  5
A1C6
102
{ACAD_REACTORS
330
A1C5
102
}
330
A1C5
100
AcDbXrecord
280
     1
290
     1
  0
XRECORD
  5
A1C8
102
{ACAD_REACTORS
330
A1C7
102
}
330
A1C7
100
AcDbXrecord
280
     1
290
     1
  0
XRECORD
  5
A1CA
102
{ACAD_REACTORS
330
A1C9
102
}
330
A1C9
100
AcDbXrecord
280
     1
290
     1
  0
XRECORD
  5
A1CC
102
{ACAD_REACTORS
330
A1CB
102
}
330
A1CB
100
AcDbXrecord
280
     1
290
     1
  0
XRECORD
  5
A1CE
102
{ACAD_REACTORS
330
A1CD
102
}
330
A1CD
100
AcDbXrecord
280
     1
290
     1
  0
XRECORD
  5
A1D0
102
{ACAD_REACTORS
330
A1CF
102
}
330
A1CF
100
AcDbXrecord
280
     1
290
     1
  0
XRECORD
  5
A1D2
102
{ACAD_REACTORS
330
A1D1
102
}
330
A1D1
100
AcDbXrecord
280
     1
290
     1
  0
XRECORD
  5
A1D4
102
{ACAD_REACTORS
330
A1D3
102
}
330
A1D3
100
AcDbXrecord
280
     1
290
     1
  0
XRECORD
  5
A1D6
102
{ACAD_REACTORS
330
A1D5
102
}
330
A1D5
100
AcDbXrecord
280
     1
290
     1
  0
XRECORD
  5
A1D8
102
{ACAD_REACTORS
330
A1D7
102
}
330
A1D7
100
AcDbXrecord
280
     1
290
     1
  0
XRECORD
  5
A1DA
102
{ACAD_REACTORS
330
A1D9
102
}
330
A1D9
100
AcDbXrecord
280
     1
290
     1
  0
XRECORD
  5
A1DC
102
{ACAD_REACTORS
330
A1DB
102
}
330
A1DB
100
AcDbXrecord
280
     1
290
     1
  0
XRECORD
  5
A1DE
102
{ACAD_REACTORS
330
A1DD
102
}
330
A1DD
100
AcDbXrecord
280
     1
290
     1
  0
XRECORD
  5
A1E0
102
{ACAD_REACTORS
330
A1DF
102
}
330
A1DF
100
AcDbXrecord
280
     1
290
     1
  0
XRECORD
  5
A1E2
102
{ACAD_REACTORS
330
A1E1
102
}
330
A1E1
100
AcDbXrecord
280
     1
290
     1
  0
XRECORD
  5
A1E4
102
{ACAD_REACTORS
330
A1E3
102
}
330
A1E3
100
AcDbXrecord
280
     1
290
     1
  0
XRECORD
  5
A1E6
102
{ACAD_REACTORS
330
A1E5
102
}
330
A1E5
100
AcDbXrecord
280
     1
290
     1
  0
XRECORD
  5
A1E8
102
{ACAD_REACTORS
330
A1E7
102
}
330
A1E7
100
AcDbXrecord
280
     1
290
     1
  0
XRECORD
  5
A1EA
102
{ACAD_REACTORS
330
A1E9
102
}
330
A1E9
100
AcDbXrecord
280
     1
290
     1
  0
XRECORD
  5
A1EC
102
{ACAD_REACTORS
330
A1EB
102
}
330
A1EB
100
AcDbXrecord
280
     1
290
     1
  0
XRECORD
  5
A1EE
102
{ACAD_REACTORS
330
A1ED
102
}
330
A1ED
100
AcDbXrecord
280
     1
290
     1
  0
XRECORD
  5
A1F0
102
{ACAD_REACTORS
330
A1EF
102
}
330
A1EF
100
AcDbXrecord
280
     1
290
     1
  0
XRECORD
  5
10EE
102
{ACAD_REACTORS
330
10ED
102
}
330
10ED
100
AcDbXrecord
280
     1
340
1F
  0
SORTENTSTABLE
  5
11BE
102
{ACAD_REACTORS
330
10ED
102
}
330
10ED
100
AcDbSortentsTable
330
1F
331
7189
  5
718D
331
714C
  5
7150
331
7143
  5
7147
331
717C
  5
7180
331
7134
  5
7134
331
76AB
  5
76AF
331
712B
  5
712B
331
76A5
  5
76A9
331
7276
  5
727A
331
714F
  5
7153
331
7188
  5
718C
331
717F
  5
7183
331
7142
  5
7146
331
7137
  5
7137
331
76AA
  5
76AE
331
712A
  5
712A
331
7971
  5
8CB4
331
76A4
  5
76A8
331
718B
  5
718F
331
714E
  5
7152
331
7145
  5
7149
331
717E
  5
7182
331
7136
  5
7136
331
76AD
  5
76B1
331
712D
  5
712D
331
76A7
  5
76AB
331
7151
  5
7155
331
718A
  5
718E
331
7181
  5
7185
331
7144
  5
7148
331
76AC
  5
76B0
331
712C
  5
712C
331
76A6
  5
76AA
331
7150
  5
7154
331
718D
  5
7191
331
78C8
  5
8CB3
331
7147
  5
714B
331
7180
  5
7184
331
76AF
  5
76B3
331
712F
  5
712F
331
7159
  5
715D
331
79F6
  5
8CB6
331
7153
  5
7157
331
718C
  5
7190
331
7183
  5
7187
331
7146
  5
714A
331
76AE
  5
76B2
331
712E
  5
712E
331
7158
  5
715C
331
7152
  5
7156
331
718F
  5
7193
331
7182
  5
7186
331
76B1
  5
76B5
331
715B
  5
715F
331
7155
  5
7159
331
718E
  5
7192
331
7185
  5
7189
331
79BC
  5
8CB5
331
76B0
  5
76B4
331
715A
  5
715E
331
7281
  5
7285
331
7191
  5
7195
331
7154
  5
7158
331
7184
  5
7188
331
76B3
  5
76B7
331
715D
  5
7161
331
7280
  5
7284
331
7190
  5
7194
331
7157
  5
715B
331
A0A7
  5
A0D2
331
7187
  5
718B
331
7169
  5
716D
331
76B2
  5
76B6
331
715C
  5
7160
331
7283
  5
7287
331
7193
  5
726C
331
7156
  5
715A
331
7186
  5
718A
331
7168
  5
716C
331
76B5
  5
7971
331
715F
  5
7163
331
7282
  5
7286
331
7192
  5
7196
331
716B
  5
716F
331
76B4
  5
78C8
331
715E
  5
7162
331
7285
  5
7289
331
7195
  5
726E
331
716A
  5
716E
331
76B7
  5
79F6
331
7291
  5
7295
331
7161
  5
7165
331
7284
  5
7288
331
7194
  5
726D
331
716D
  5
7173
331
76B6
  5
79BC
331
7290
  5
7294
331
726D
  5
7271
331
5873
  5
5873
331
7160
  5
7164
331
7287
  5
728B
331
7139
  5
7139
331
716C
  5
7170
331
7279
  5
727D
331
7293
  5
76A2
331
5872
  5
5872
331
7163
  5
7168
331
726C
  5
7270
331
7286
  5
728A
331
7196
  5
726F
331
7138
  5
7138
331
7278
  5
727C
331
716F
  5
7177
331
7292
  5
76A1
331
726F
  5
7273
331
5875
  5
5875
331
7162
  5
7167
331
7289
  5
728D
331
713B
  5
713B
331
716E
  5
7174
331
727B
  5
727F
331
7295
  5
76A4
331
5874
  5
5874
331
7165
  5
716A
331
726E
  5
7272
331
7288
  5
728C
331
713A
  5
713A
331
727A
  5
727E
331
7294
  5
76A3
331
7271
  5
7275
331
7164
  5
7169
331
5877
  5
5877
331
728B
  5
728F
331
713D
  5
713F
331
727D
  5
7281
331
7170
  5
7178
331
5876
  5
5876
331
7167
  5
716B
331
7270
  5
7274
331
7149
  5
714D
331
728A
  5
728E
331
7179
  5
717D
331
713C
  5
713E
331
7131
  5
7131
331
727C
  5
7280
331
7173
  5
7179
331
7273
  5
7277
331
7148
  5
714C
331
728D
  5
7291
331
713F
  5
7142
331
7178
  5
717C
331
7130
  5
7130
331
727F
  5
7283
331
76A1
  5
76A5
331
7272
  5
7276
331
714B
  5
714F
331
728C
  5
7290
331
717B
  5
717F
331
713E
  5
7140
331
7133
  5
7133
331
727E
  5
7282
331
7275
  5
7279
331
714A
  5
714E
331
728F
  5
7293
331
7141
  5
7145
331
717A
  5
717E
331
7132
  5
7132
331
76A9
  5
76AD
331
7174
  5
717A
331
7129
  5
7129
331
76A3
  5
76A7
331
7274
  5
7278
331
714D
  5
7151
331
728E
  5
7292
331
717D
  5
7181
331
7140
  5
7144
331
7135
  5
7135
331
76A8
  5
76AC
331
7177
  5
717B
331
7128
  5
7128
331
76A2
  5
76A6
331
7277
  5
727B
  0
XRECORD
  5
10EC
102
{ACAD_REACTORS
330
10EB
102
}
330
10EB
100
AcDbXrecord
280
     1
340
1B
  0
SORTENTSTABLE
  5
A166
102
{ACAD_REACTORS
330
A165
102
}
330
A165
100
AcDbSortentsTable
330
A160
  0
ACDBDETAILVIEWSTYLE
  5
A17E
102
{ACAD_XDICTIONARY
360
A206
102
}
102
{ACAD_REACTORS
330
A17D
102
}
330
A17D
100
AcDbModelDocViewStyle
 70
     0
  3
Metric50
290
     0
100
AcDbDetailViewStyle
 70
     0
 71
     0
 90
        3
 71
     1
340
11
 62
   256
 40
5.0
340
0
 62
   256
 40
5.0
300

 40
0.0
280
     1
 71
     2
340
16
 90
       25
 62
   256
 71
     3
340
11
 62
   256
 40
5.0
 90
        0
 40
15.0
 90
        1
300
%<\AcVar ViewDetailId>% (%<\AcVar ViewScale \f "%sn">%)
 71
     4
340
16
 90
       25
 62
   256
340
16
 90
       25
 62
   256
280
     0
  0
LAYOUT
  5
10C1
102
{ACAD_REACTORS
330
10BE
102
}
330
10BE
100
AcDbPlotSettings
  1

  2

  4

  6

 40
0.0
 41
0.0
 42
0.0
 43
0.0
 44
0.0
 45
0.0
 46
0.0
 47
0.0
 48
0.0
 49
0.0
140
0.0
141
0.0
142
1.0
143
1.0
 70
   688
 72
     0
 73
     0
 74
     5
  7
monochrome.ctb
 75
    16
147
1.0
 76
     0
 77
     2
 78
   300
148
0.0
149
0.0
100
AcDbLayout
  1
Layout1
 70
     1
 71
     1
 10
0.0
 20
0.0
 11
12.0
 21
9.0
 12
0.0
 22
0.0
 32
0.0
 14
1.000000000000000E+20
 24
1.000000000000000E+20
 34
1.000000000000000E+20
 15
-1.000000000000000E+20
 25
-1.000000000000000E+20
 35
-1.000000000000000E+20
146
0.0
 13
0.0
 23
0.0
 33
0.0
 16
1.0
 26
0.0
 36
0.0
 17
0.0
 27
1.0
 37
0.0
 76
     0
330
1B
  0
LAYOUT
  5
10C0
102
{ACAD_REACTORS
330
10BE
102
}
330
10BE
100
AcDbPlotSettings
  1

  2
Kyocera FS-6025MFP KX
  4
A4
  6

 40
4.984749794006347
 41
5.154074668884277
 42
5.111740112304687
 43
4.9847412109375
 44
210.0156707763672
 45
297.0106506347656
 46
0.0
 47
0.0
 48
0.0
 49
0.0
140
0.0
141
0.0
142
1.0
143
7.370129542704467
 70
 11952
 72
     1
 73
     1
 74
     0
  7
monochrome.ctb
 75
     0
147
0.1356828254111053
 76
     0
 77
     2
 78
   300
148
463.1412838500319
149
4.794737959792598
100
AcDbLayout
  1
Model
 70
     1
 71
     0
 10
0.0
 20
0.0
 11
12.0
 21
9.0
 12
0.0
 22
0.0
 32
0.0
 14
0.0
 24
0.0
 34
0.0
 15
0.0
 25
0.0
 35
0.0
146
0.0
 13
0.0
 23
0.0
 33
0.0
 16
1.0
 26
0.0
 36
0.0
 17
0.0
 27
1.0
 37
0.0
 76
     0
330
1F
331
1F4
1001
ACAD_PSEXT
1000
Kyocera FS-6025MFP KX
1000
Kyocera FS-6025MFP KX
1000
192.168.105.5
1000

1070
     0
  0
MATERIAL
  5
1083
102
{ACAD_XDICTIONARY
360
1084
102
}
102
{ACAD_REACTORS
330
107A
102
}
330
107A
100
AcDbMaterial
  1
ByBlock
 72
     0
 43
0.0208333333333333
 43
0.0
 43
0.0
 43
0.0
 43
0.0
 43
0.0208333333333333
 43
0.0
 43
0.0
 43
0.0
 43
0.0
 43
1.0
 43
0.0
 43
0.0
 43
0.0
 43
0.0
 43
1.0
 77
     0
 47
0.0208333333333333
 47
0.0
 47
0.0
 47
0.0
 47
0.0
 47
0.0208333333333333
 47
0.0
 47
0.0
 47
0.0
 47
0.0
 47
1.0
 47
0.0
 47
0.0
 47
0.0
 47
0.0
 47
1.0
171
     0
 49
0.0208333333333333
 49
0.0
 49
0.0
 49
0.0
 49
0.0
 49
0.0208333333333333
 49
0.0
 49
0.0
 49
0.0
 49
0.0
 49
1.0
 49
0.0
 49
0.0
 49
0.0
 49
0.0
 49
1.0
175
     0
142
0.0208333333333333
142
0.0
142
0.0
142
0.0
142
0.0
142
0.0208333333333333
142
0.0
142
0.0
142
0.0
142
0.0
142
1.0
142
0.0
142
0.0
142
0.0
142
0.0
142
1.0
179
     0
144
0.0208333333333333
144
0.0
144
0.0
144
0.0
144
0.0
144
0.0208333333333333
144
0.0
144
0.0
144
0.0
144
0.0
144
1.0
144
0.0
144
0.0
144
0.0
144
0.0
144
1.0
147
0.0208333333333333
147
0.0
147
0.0
147
0.0
147
0.0
147
0.0208333333333333
147
0.0
147
0.0
147
0.0
147
0.0
147
1.0
147
0.0
147
0.0
147
0.0
147
0.0
147
1.0
  0
MATERIAL
  5
107B
102
{ACAD_XDICTIONARY
360
107C
102
}
102
{ACAD_REACTORS
330
107A
102
}
330
107A
100
AcDbMaterial
  1
ByLayer
 72
     0
 43
0.0208333333333333
 43
0.0
 43
0.0
 43
0.0
 43
0.0
 43
0.0208333333333333
 43
0.0
 43
0.0
 43
0.0
 43
0.0
 43
1.0
 43
0.0
 43
0.0
 43
0.0
 43
0.0
 43
1.0
 77
     0
 47
0.0208333333333333
 47
0.0
 47
0.0
 47
0.0
 47
0.0
 47
0.0208333333333333
 47
0.0
 47
0.0
 47
0.0
 47
0.0
 47
1.0
 47
0.0
 47
0.0
 47
0.0
 47
0.0
 47
1.0
171
     0
 49
0.0208333333333333
 49
0.0
 49
0.0
 49
0.0
 49
0.0
 49
0.0208333333333333
 49
0.0
 49
0.0
 49
0.0
 49
0.0
 49
1.0
 49
0.0
 49
0.0
 49
0.0
 49
0.0
 49
1.0
175
     0
142
0.0208333333333333
142
0.0
142
0.0
142
0.0
142
0.0
142
0.0208333333333333
142
0.0
142
0.0
142
0.0
142
0.0
142
1.0
142
0.0
142
0.0
142
0.0
142
0.0
142
1.0
179
     0
144
0.0208333333333333
144
0.0
144
0.0
144
0.0
144
0.0
144
0.0208333333333333
144
0.0
144
0.0
144
0.0
144
0.0
144
1.0
144
0.0
144
0.0
144
0.0
144
0.0
144
1.0
147
0.0208333333333333
147
0.0
147
0.0
147
0.0
147
0.0
147
0.0208333333333333
147
0.0
147
0.0
147
0.0
147
0.0
147
1.0
147
0.0
147
0.0
147
0.0
147
0.0
147
1.0
  0
MATERIAL
  5
108B
102
{ACAD_XDICTIONARY
360
108C
102
}
102
{ACAD_REACTORS
330
107A
102
}
330
107A
100
AcDbMaterial
  1
Global
 72
     0
 43
0.0208333333333333
 43
0.0
 43
0.0
 43
0.0
 43
0.0
 43
0.0208333333333333
 43
0.0
 43
0.0
 43
0.0
 43
0.0
 43
1.0
 43
0.0
 43
0.0
 43
0.0
 43
0.0
 43
1.0
 77
     0
 47
0.0208333333333333
 47
0.0
 47
0.0
 47
0.0
 47
0.0
 47
0.0208333333333333
 47
0.0
 47
0.0
 47
0.0
 47
0.0
 47
1.0
 47
0.0
 47
0.0
 47
0.0
 47
0.0
 47
1.0
171
     0
 49
0.0208333333333333
 49
0.0
 49
0.0
 49
0.0
 49
0.0
 49
0.0208333333333333
 49
0.0
 49
0.0
 49
0.0
 49
0.0
 49
1.0
 49
0.0
 49
0.0
 49
0.0
 49
0.0
 49
1.0
175
     0
142
0.0208333333333333
142
0.0
142
0.0
142
0.0
142
0.0
142
0.0208333333333333
142
0.0
142
0.0
142
0.0
142
0.0
142
1.0
142
0.0
142
0.0
142
0.0
142
0.0
142
1.0
179
     0
144
0.0208333333333333
144
0.0
144
0.0
144
0.0
144
0.0
144
0.0208333333333333
144
0.0
144
0.0
144
0.0
144
0.0
144
1.0
144
0.0
144
0.0
144
0.0
144
0.0
144
1.0
147
0.0208333333333333
147
0.0
147
0.0
147
0.0
147
0.0
147
0.0208333333333333
147
0.0
147
0.0
147
0.0
147
0.0
147
1.0
147
0.0
147
0.0
147
0.0
147
0.0
147
1.0
  0
MLEADERSTYLE
  5
10BD
102
{ACAD_REACTORS
330
10BC
102
}
330
10BC
100
AcDbMLeaderStyle
179
     2
170
     2
171
     1
172
     0
 90
        2
 40
0.0
 41
0.0
173
     1
 91
-1056964608
340
14
 92
       -2
290
     1
 42
2.0
291
     1
 43
0.36
  3
Standard
 44
4.0
300

342
11
174
     1
178
     6
175
     1
176
     0
 93
-1056964608
 45
4.0
292
     0
297
     0
 46
4.0
 94
-1056964608
 47
1.0
 49
1.0
140
1.0
293
     1
141
0.0
294
     1
177
     0
142
1.0
295
     1
296
     0
143
0.125
271
     0
272
     9
273
     9
298
     1
  0
MLINESTYLE
  5
1075
102
{ACAD_REACTORS
330
1074
102
}
330
1074
100
AcDbMlineStyle
  2
STANDARD
 70
     0
  3

 62
   256
 51
90.0
 52
90.0
 71
     2
 49
0.5
 62
   256
  6
BYLAYER
 49
-0.5
 62
   256
  6
BYLAYER
  0
ACDBPLACEHOLDER
  5
1079
102
{ACAD_REACTORS
330
1078
102
}
330
1078
  0
SCALE
  5
10AB
102
{ACAD_REACTORS
330
10AA
102
}
330
10AA
100
AcDbScale
 70
     0
300
1:1
140
1.0
141
1.0
290
     1
  0
SCALE
  5
10AC
102
{ACAD_REACTORS
330
10AA
102
}
330
10AA
100
AcDbScale
 70
     0
300
1:2
140
1.0
141
2.0
290
     0
  0
SCALE
  5
10AD
102
{ACAD_REACTORS
330
10AA
102
}
330
10AA
100
AcDbScale
 70
     0
300
1:4
140
1.0
141
4.0
290
     0
  0
SCALE
  5
10AE
102
{ACAD_REACTORS
330
10AA
102
}
330
10AA
100
AcDbScale
 70
     0
300
1:5
140
1.0
141
5.0
290
     0
  0
SCALE
  5
10AF
102
{ACAD_REACTORS
330
10AA
102
}
330
10AA
100
AcDbScale
 70
     0
300
1:8
140
1.0
141
8.0
290
     0
  0
SCALE
  5
10B0
102
{ACAD_REACTORS
330
10AA
102
}
330
10AA
100
AcDbScale
 70
     0
300
1:10
140
1.0
141
10.0
290
     0
  0
SCALE
  5
10B1
102
{ACAD_REACTORS
330
10AA
102
}
330
10AA
100
AcDbScale
 70
     0
300
1:16
140
1.0
141
16.0
290
     0
  0
SCALE
  5
10B2
102
{ACAD_REACTORS
330
10AA
102
}
330
10AA
100
AcDbScale
 70
     0
300
1:20
140
1.0
141
20.0
290
     0
  0
SCALE
  5
10B3
102
{ACAD_REACTORS
330
10AA
102
}
330
10AA
100
AcDbScale
 70
     0
300
1:30
140
1.0
141
30.0
290
     0
  0
SCALE
  5
10B4
102
{ACAD_REACTORS
330
10AA
102
}
330
10AA
100
AcDbScale
 70
     0
300
1:40
140
1.0
141
40.0
290
     0
  0
SCALE
  5
10B5
102
{ACAD_REACTORS
330
10AA
102
}
330
10AA
100
AcDbScale
 70
     0
300
1:50
140
1.0
141
50.0
290
     0
  0
SCALE
  5
10B6
102
{ACAD_REACTORS
330
10AA
102
}
330
10AA
100
AcDbScale
 70
     0
300
1:100
140
1.0
141
100.0
290
     0
  0
SCALE
  5
10B7
102
{ACAD_REACTORS
330
10AA
102
}
330
10AA
100
AcDbScale
 70
     0
300
2:1
140
2.0
141
1.0
290
     0
  0
SCALE
  5
10B8
102
{ACAD_REACTORS
330
10AA
102
}
330
10AA
100
AcDbScale
 70
     0
300
4:1
140
4.0
141
1.0
290
     0
  0
SCALE
  5
10B9
102
{ACAD_REACTORS
330
10AA
102
}
330
10AA
100
AcDbScale
 70
     0
300
8:1
140
8.0
141
1.0
290
     0
  0
SCALE
  5
10BA
102
{ACAD_REACTORS
330
10AA
102
}
330
10AA
100
AcDbScale
 70
     0
300
10:1
140
10.0
141
1.0
290
     0
  0
SCALE
  5
10BB
102
{ACAD_REACTORS
330
10AA
102
}
330
10AA
100
AcDbScale
 70
     0
300
100:1
140
100.0
141
1.0
290
     0
  0
ACDBSECTIONVIEWSTYLE
  5
A17C
102
{ACAD_XDICTIONARY
360
A204
102
}
102
{ACAD_REACTORS
330
A17B
102
}
330
A17B
100
AcDbModelDocViewStyle
 70
     0
  3
Metric50
290
     0
100
AcDbSectionViewStyle
 70
     0
 71
     0
 90
      102
 71
     1
340
11
 62
   256
 40
5.0
340
0
340
0
 62
   256
 40
5.0
300
I, O, Q, S, X, Z
 40
10.0
 90
        0
 40
2.5
 90
        0
 71
     2
340
16
 90
       25
 62
   256
340
16
 90
       50
 62
   256
 40
5.0
 40
2.5
 40
5.0
 71
     3
340
11
 62
   256
 40
5.0
 90
        0
 40
15.0
 90
        1
300
%<\AcVar ViewSectionStartId>%-%<\AcVar ViewSectionEndId>% (%<\AcVar ViewScale \f "%sn">%)
 71
     4
 62
   256
 62
   257
300
ANSI31
 40
1.0
 90
        0
290
     0
290
     0
 90
        6
 40
0.0
 40
1.570796326794896
 40
0.2617993877991494
 40
1.308996938995747
 40
-0.2617993877991494
 40
1.832595714594046
  0
TABLESTYLE
  5
10A9
102
{ACAD_XDICTIONARY
360
10C4
102
}
102
{ACAD_REACTORS
330
10A8
102
}
330
10A8
100
AcDbTableStyle
280
     0
  3
Standard
 70
     0
 71
     0
 40
1.5
 41
1.5
280
     0
281
     0
  7
STANDARD
140
4.5
170
     2
 62
     0
 63
     7
283
     0
 90
      512
 91
        0
  1

274
    -2
284
     1
 64
     0
275
    -2
285
     1
 65
     0
276
    -2
286
     1
 66
     0
277
    -2
287
     1
 67
     0
278
    -2
288
     1
 68
     0
279
    -2
289
     1
 69
     0
  7
STANDARD
140
6.0
170
     5
 62
     0
 63
     7
283
     0
 90
      512
 91
        0
  1

274
    -2
284
     1
 64
     0
275
    -2
285
     1
 65
     0
276
    -2
286
     1
 66
     0
277
    -2
287
     1
 67
     0
278
    -2
288
     1
 68
     0
279
    -2
289
     1
 69
     0
  7
STANDARD
140
4.5
170
     5
 62
     0
 63
     7
283
     0
 90
      512
 91
        0
  1

274
    -2
284
     1
 64
     0
275
    -2
285
     1
 65
     0
276
    -2
286
     1
 66
     0
277
    -2
287
     1
 67
     0
278
    -2
288
     1
 68
     0
279
    -2
289
     1
 69
     0
  0
VISUALSTYLE
  5
1099
102
{ACAD_REACTORS
330
1093
102
}
330
1093
100
AcDbVisualStyle
  2
2dWireframe
 70
     4
177
     3
291
     0
 70
    58
 90
        0
176
     1
 90
        2
176
     1
 90
        0
176
     1
 90
        0
176
     1
 40
0.6
176
     1
 40
30.0
176
     1
 62
     7
176
     1
 90
        1
176
     1
 90
        4
176
     1
 62
     7
176
     1
 62
   257
176
     1
 90
        1
176
     1
 90
        1
176
     1
 40
1.0
176
     1
 90
        0
176
     1
 62
   257
176
     1
 40
1.0
176
     1
 90
        1
176
     1
 90
        6
176
     1
 90
        2
176
     1
 62
     7
176
     1
 90
        5
176
     1
 90
        0
176
     1
 90
        0
176
     1
290
     0
176
     1
 90
        1
176
     1
 40
0.0
176
     1
 90
        0
176
     1
290
     1
176
     1
290
     1
176
     1
290
     0
176
     1
290
     0
176
     1
290
     0
176
     1
290
     0
176
     1
290
     0
176
     1
290
     0
176
     1
290
     0
176
     1
 90
       50
176
     1
 40
0.0
176
     1
 40
1.0
176
     1
 90
        0
176
     1
 62
    18
420
        0
176
     1
 90
       50
176
     1
 90
        3
176
     1
 62
     5
420
      255
176
     1
290
     0
176
     1
 90
       50
176
     1
 90
       50
176
     1
 90
       50
176
     1
290
     0
176
     1
 90
       50
176
     1
 62
   256
176
     0
 40
1.0
176
     0
 90
        2
176
     1
  1
strokes_ogs.tif
176
     1
290
     0
176
     1
 40
1.0
176
     1
 40
1.0
176
     1
  0
VISUALSTYLE
  5
109B
102
{ACAD_REACTORS
330
1093
102
}
330
1093
100
AcDbVisualStyle
  2
3D Hidden
 70
     6
177
     3
291
     0
 70
    58
 90
        1
176
     1
 90
        2
176
     1
 90
        2
176
     1
 90
        0
176
     1
 40
0.6
176
     1
 40
30.0
176
     1
 62
     7
176
     1
 90
        2
176
     1
 90
        2
176
     1
 62
     7
176
     1
 62
   257
176
     1
 90
        2
176
     1
 90
        1
176
     1
 40
179.0
176
     1
 90
        0
176
     1
 62
   257
176
     1
 40
1.0
176
     1
 90
        1
176
     1
 90
        6
176
     1
 90
        2
176
     1
 62
     7
176
     1
 90
        3
176
     1
 90
        0
176
     1
 90
        0
176
     1
290
     0
176
     1
 90
        1
176
     1
 40
0.0
176
     1
 90
        0
176
     1
290
     0
176
     1
290
     1
176
     1
290
     1
176
     1
290
     0
176
     1
290
     0
176
     1
290
     0
176
     1
290
     0
176
     1
290
     0
176
     1
290
     0
176
     1
 90
       50
176
     1
 40
0.0
176
     1
 40
1.0
176
     1
 90
        0
176
     1
 62
    18
420
        0
176
     1
 90
       50
176
     1
 90
        3
176
     1
 62
     5
420
      255
176
     1
290
     0
176
     1
 90
       50
176
     1
 90
       50
176
     1
 90
       50
176
     1
290
     0
176
     1
 90
       50
176
     1
 62
   256
176
     0
 40
1.0
176
     0
 90
        2
176
     1
  1
strokes_ogs.tif
176
     1
290
     0
176
     1
 40
1.0
176
     1
 40
1.0
176
     1
  0
VISUALSTYLE
  5
109A
102
{ACAD_REACTORS
330
1093
102
}
330
1093
100
AcDbVisualStyle
  2
3dWireframe
 70
     5
177
     3
291
     0
 70
    58
 90
        0
176
     1
 90
        2
176
     1
 90
        0
176
     1
 90
        0
176
     1
 40
0.6
176
     1
 40
30.0
176
     1
 62
     7
176
     1
 90
        1
176
     1
 90
        4
176
     1
 62
     7
176
     1
 62
   257
176
     1
 90
        1
176
     1
 90
        1
176
     1
 40
1.0
176
     1
 90
        0
176
     1
 62
   257
176
     1
 40
1.0
176
     1
 90
        1
176
     1
 90
        6
176
     1
 90
        2
176
     1
 62
     7
176
     1
 90
        5
176
     1
 90
        0
176
     1
 90
        0
176
     1
290
     0
176
     1
 90
        1
176
     1
 40
0.0
176
     1
 90
        0
176
     1
290
     0
176
     1
290
     1
176
     1
290
     1
176
     1
290
     0
176
     1
290
     0
176
     1
290
     0
176
     1
290
     0
176
     1
290
     0
176
     1
290
     0
176
     1
 90
       50
176
     1
 40
0.0
176
     1
 40
1.0
176
     1
 90
        0
176
     1
 62
    18
420
        0
176
     1
 90
       50
176
     1
 90
        3
176
     1
 62
     5
420
      255
176
     1
290
     0
176
     1
 90
       50
176
     1
 90
       50
176
     1
 90
       50
176
     1
290
     0
176
     1
 90
       50
176
     1
 62
   256
176
     0
 40
1.0
176
     0
 90
        2
176
     1
  1
strokes_ogs.tif
176
     1
290
     0
176
     1
 40
1.0
176
     1
 40
1.0
176
     1
  0
VISUALSTYLE
  5
1098
102
{ACAD_REACTORS
330
1093
102
}
330
1093
100
AcDbVisualStyle
  2
Basic
 70
     7
177
     3
291
     1
 70
    58
 90
        1
176
     1
 90
        0
176
     1
 90
        1
176
     1
 90
        0
176
     1
 40
0.6
176
     1
 40
30.0
176
     1
 62
     7
176
     1
 90
        0
176
     1
 90
        4
176
     1
 62
     7
176
     1
 62
   257
176
     1
 90
        1
176
     1
 90
        1
176
     1
 40
1.0
176
     1
 90
        8
176
     1
 62
     7
176
     1
 40
1.0
176
     1
 90
        1
176
     1
 90
        6
176
     1
 90
        2
176
     1
 62
     7
176
     1
 90
        5
176
     1
 90
        0
176
     1
 90
        0
176
     1
290
     0
176
     1
 90
        1
176
     1
 40
0.0
176
     1
 90
        0
176
     1
290
     0
176
     1
290
     1
176
     1
290
     1
176
     1
290
     0
176
     1
290
     0
176
     1
290
     0
176
     1
290
     0
176
     1
290
     0
176
     1
290
     0
176
     1
 90
       50
176
     1
 40
0.0
176
     1
 40
1.0
176
     1
 90
        0
176
     1
 62
    18
420
        0
176
     1
 90
       50
176
     1
 90
        3
176
     1
 62
     5
420
      255
176
     1
290
     0
176
     1
 90
       50
176
     1
 90
       50
176
     1
 90
       50
176
     1
290
     0
176
     1
 90
       50
176
     1
 62
   256
176
     0
 40
1.0
176
     0
 90
        2
176
     1
  1
strokes_ogs.tif
176
     1
290
     0
176
     1
 40
1.0
176
     1
 40
1.0
176
     1
  0
VISUALSTYLE
  5
109F
102
{ACAD_REACTORS
330
1093
102
}
330
1093
100
AcDbVisualStyle
  2
Brighten
 70
    12
177
     3
291
     1
 70
    58
 90
        2
176
     1
 90
        2
176
     1
 90
        0
176
     1
 90
        0
176
     1
 40
0.6
176
     1
 40
30.0
176
     1
 62
     7
176
     1
 90
        1
176
     1
 90
        4
176
     1
 62
     7
176
     1
 62
   257
176
     1
 90
        1
176
     1
 90
        1
176
     1
 40
1.0
176
     1
 90
        8
176
     1
 62
     7
176
     1
 40
1.0
176
     1
 90
        1
176
     1
 90
        6
176
     1
 90
        2
176
     1
 62
     7
176
     1
 90
        5
176
     1
 90
        0
176
     1
 90
        0
176
     1
290
     0
176
     1
 90
        1
176
     1
 40
50.0
176
     1
 90
        0
176
     1
290
     0
176
     1
290
     1
176
     1
290
     1
176
     1
290
     0
176
     1
290
     0
176
     1
290
     0
176
     1
290
     0
176
     1
290
     0
176
     1
290
     0
176
     1
 90
       50
176
     1
 40
0.0
176
     1
 40
1.0
176
     1
 90
        0
176
     1
 62
    18
420
        0
176
     1
 90
       50
176
     1
 90
        3
176
     1
 62
     5
420
      255
176
     1
290
     0
176
     1
 90
       50
176
     1
 90
       50
176
     1
 90
       50
176
     1
290
     0
176
     1
 90
       50
176
     1
 62
   256
176
     0
 40
1.0
176
     0
 90
        2
176
     1
  1
strokes_ogs.tif
176
     1
290
     0
176
     1
 40
1.0
176
     1
 40
1.0
176
     1
  0
VISUALSTYLE
  5
10A3
102
{ACAD_REACTORS
330
1093
102
}
330
1093
100
AcDbVisualStyle
  2
ColorChange
 70
    16
177
     3
291
     1
 70
    58
 90
        2
176
     1
 90
        2
176
     1
 90
        3
176
     1
 90
        0
176
     1
 40
0.6
176
     1
 40
30.0
176
     1
 62
     8
176
     1
 90
        1
176
     1
 90
        4
176
     1
 62
     7
176
     1
 62
   257
176
     1
 90
        1
176
     1
 90
        1
176
     1
 40
1.0
176
     1
 90
        8
176
     1
 62
     8
176
     1
 40
1.0
176
     1
 90
        1
176
     1
 90
        6
176
     1
 90
        2
176
     1
 62
     7
176
     1
 90
        5
176
     1
 90
        0
176
     1
 90
        0
176
     1
290
     0
176
     1
 90
        1
176
     1
 40
0.0
176
     1
 90
        0
176
     1
290
     0
176
     1
290
     1
176
     1
290
     1
176
     1
290
     0
176
     1
290
     0
176
     1
290
     0
176
     1
290
     0
176
     1
290
     0
176
     1
290
     0
176
     1
 90
       50
176
     1
 40
0.0
176
     1
 40
1.0
176
     1
 90
        0
176
     1
 62
    18
420
        0
176
     1
 90
       50
176
     1
 90
        3
176
     1
 62
     5
420
      255
176
     1
290
     0
176
     1
 90
       50
176
     1
 90
       50
176
     1
 90
       50
176
     1
290
     0
176
     1
 90
       50
176
     1
 62
   256
176
     0
 40
1.0
176
     0
 90
        2
176
     1
  1
strokes_ogs.tif
176
     1
290
     0
176
     1
 40
1.0
176
     1
 40
1.0
176
     1
  0
VISUALSTYLE
  5
109C
102
{ACAD_REACTORS
330
1093
102
}
330
1093
100
AcDbVisualStyle
  2
Conceptual
 70
     9
177
     3
291
     0
 70
    58
 90
        3
176
     1
 90
        2
176
     1
 90
        0
176
     1
 90
        0
176
     1
 40
0.6
176
     1
 40
30.0
176
     1
 62
     7
176
     1
 90
        2
176
     1
 90
        2
176
     1
 62
     7
176
     1
 62
   257
176
     1
 90
        1
176
     1
 90
        1
176
     1
 40
179.0
176
     1
 90
        8
176
     1
 62
     7
176
     1
 40
1.0
176
     1
 90
        1
176
     1
 90
        6
176
     1
 90
        2
176
     1
 62
     7
176
     1
 90
        3
176
     1
 90
        0
176
     1
 90
        0
176
     1
290
     0
176
     1
 90
        1
176
     1
 40
0.0
176
     1
 90
        0
176
     1
290
     0
176
     1
290
     1
176
     1
290
     1
176
     1
290
     0
176
     1
290
     0
176
     1
290
     0
176
     1
290
     0
176
     1
290
     0
176
     1
290
     0
176
     1
 90
       50
176
     1
 40
0.0
176
     1
 40
1.0
176
     1
 90
        0
176
     1
 62
    18
420
        0
176
     1
 90
       50
176
     1
 90
        3
176
     1
 62
     5
420
      255
176
     1
290
     0
176
     1
 90
       50
176
     1
 90
       50
176
     1
 90
       50
176
     1
290
     0
176
     1
 90
       50
176
     1
 62
   256
176
     0
 40
1.0
176
     0
 90
        2
176
     1
  1
strokes_ogs.tif
176
     1
290
     0
176
     1
 40
1.0
176
     1
 40
1.0
176
     1
  0
VISUALSTYLE
  5
109E
102
{ACAD_REACTORS
330
1093
102
}
330
1093
100
AcDbVisualStyle
  2
Dim
 70
    11
177
     3
291
     1
 70
    58
 90
        2
176
     1
 90
        2
176
     1
 90
        0
176
     1
 90
        0
176
     1
 40
0.6
176
     1
 40
30.0
176
     1
 62
     7
176
     1
 90
        1
176
     1
 90
        4
176
     1
 62
     7
176
     1
 62
   257
176
     1
 90
        1
176
     1
 90
        1
176
     1
 40
1.0
176
     1
 90
        8
176
     1
 62
     7
176
     1
 40
1.0
176
     1
 90
        1
176
     1
 90
        6
176
     1
 90
        2
176
     1
 62
     7
176
     1
 90
        5
176
     1
 90
        0
176
     1
 90
        0
176
     1
290
     0
176
     1
 90
        1
176
     1
 40
-50.0
176
     1
 90
        0
176
     1
290
     0
176
     1
290
     1
176
     1
290
     1
176
     1
290
     0
176
     1
290
     0
176
     1
290
     0
176
     1
290
     0
176
     1
290
     0
176
     1
290
     0
176
     1
 90
       50
176
     1
 40
0.0
176
     1
 40
1.0
176
     1
 90
        0
176
     1
 62
    18
420
        0
176
     1
 90
       50
176
     1
 90
        3
176
     1
 62
     5
420
      255
176
     1
290
     0
176
     1
 90
       50
176
     1
 90
       50
176
     1
 90
       50
176
     1
290
     0
176
     1
 90
       50
176
     1
 62
   256
176
     0
 40
1.0
176
     0
 90
        2
176
     1
  1
strokes_ogs.tif
176
     1
290
     0
176
     1
 40
1.0
176
     1
 40
1.0
176
     1
  0
VISUALSTYLE
  5
10A6
102
{ACAD_REACTORS
330
1093
102
}
330
1093
100
AcDbVisualStyle
  2
EdgeColorOff
 70
    22
177
     3
291
     1
 70
    58
 90
        2
176
     0
 90
        2
176
     0
 90
        0
176
     0
 90
        0
176
     0
 40
0.6
176
     0
 40
30.0
176
     0
 62
     7
176
     0
 90
        1
176
     0
 90
        4
176
     0
 62
     7
176
     0
 62
   257
176
     0
 90
        1
176
     0
 90
        1
176
     0
 40
1.0
176
     0
 90
        8
176
     2
 62
     7
176
     0
 40
1.0
176
     0
 90
        1
176
     0
 90
        6
176
     0
 90
        2
176
     0
 62
     7
176
     0
 90
        5
176
     0
 90
        0
176
     0
 90
        0
176
     0
290
     0
176
     0
 90
        1
176
     0
 40
0.0
176
     0
 90
        0
176
     0
290
     0
176
     1
290
     1
176
     1
290
     1
176
     1
290
     0
176
     1
290
     0
176
     1
290
     0
176
     1
290
     0
176
     1
290
     0
176
     1
290
     0
176
     1
 90
       50
176
     1
 40
0.0
176
     1
 40
1.0
176
     1
 90
        0
176
     1
 62
    18
420
        0
176
     1
 90
       50
176
     1
 90
        3
176
     1
 62
     5
420
      255
176
     1
290
     0
176
     1
 90
       50
176
     1
 90
       50
176
     1
 90
       50
176
     1
290
     0
176
     1
 90
       50
176
     1
 62
   256
176
     0
 40
1.0
176
     0
 90
        2
176
     1
  1
strokes_ogs.tif
176
     1
290
     0
176
     1
 40
1.0
176
     1
 40
1.0
176
     1
  0
VISUALSTYLE
  5
10A2
102
{ACAD_REACTORS
330
1093
102
}
330
1093
100
AcDbVisualStyle
  2
Facepattern
 70
    15
177
     3
291
     1
 70
    58
 90
        2
176
     1
 90
        2
176
     1
 90
        0
176
     1
 90
        0
176
     1
 40
0.6
176
     1
 40
30.0
176
     1
 62
     7
176
     1
 90
        1
176
     1
 90
        4
176
     1
 62
     7
176
     1
 62
   257
176
     1
 90
        1
176
     1
 90
        1
176
     1
 40
1.0
176
     1
 90
        8
176
     1
 62
     7
176
     1
 40
1.0
176
     1
 90
        1
176
     1
 90
        6
176
     1
 90
        2
176
     1
 62
     7
176
     1
 90
        5
176
     1
 90
        0
176
     1
 90
        0
176
     1
290
     0
176
     1
 90
        1
176
     1
 40
0.0
176
     1
 90
        0
176
     1
290
     0
176
     1
290
     1
176
     1
290
     1
176
     1
290
     0
176
     1
290
     0
176
     1
290
     0
176
     1
290
     0
176
     1
290
     0
176
     1
290
     0
176
     1
 90
       50
176
     1
 40
0.0
176
     1
 40
1.0
176
     1
 90
        0
176
     1
 62
    18
420
        0
176
     1
 90
       50
176
     1
 90
        3
176
     1
 62
     5
420
      255
176
     1
290
     0
176
     1
 90
       50
176
     1
 90
       50
176
     1
 90
       50
176
     1
290
     0
176
     1
 90
       50
176
     1
 62
   256
176
     0
 40
1.0
176
     0
 90
        2
176
     1
  1
strokes_ogs.tif
176
     1
290
     0
176
     1
 40
1.0
176
     1
 40
1.0
176
     1
  0
VISUALSTYLE
  5
1094
102
{ACAD_REACTORS
330
1093
102
}
330
1093
100
AcDbVisualStyle
  2
Flat
 70
     0
177
     3
291
     1
 70
    58
 90
        2
176
     1
 90
        1
176
     1
 90
        1
176
     1
 90
        2
176
     1
 40
0.6
176
     1
 40
30.0
176
     1
 62
     7
176
     1
 90
        0
176
     1
 90
        4
176
     1
 62
     7
176
     1
 62
   257
176
     1
 90
        1
176
     1
 90
        1
176
     1
 40
1.0
176
     1
 90
        8
176
     1
 62
     7
176
     1
 40
1.0
176
     1
 90
        1
176
     1
 90
        6
176
     1
 90
        2
176
     1
 62
     7
176
     1
 90
        5
176
     1
 90
        0
176
     1
 90
        0
176
     1
290
     0
176
     1
 90
       13
176
     1
 40
0.0
176
     1
 90
        0
176
     1
290
     0
176
     1
290
     1
176
     1
290
     1
176
     1
290
     0
176
     1
290
     0
176
     1
290
     0
176
     1
290
     0
176
     1
290
     0
176
     1
290
     0
176
     1
 90
       50
176
     1
 40
0.0
176
     1
 40
1.0
176
     1
 90
        0
176
     1
 62
    18
420
        0
176
     1
 90
       50
176
     1
 90
        3
176
     1
 62
     5
420
      255
176
     1
290
     0
176
     1
 90
       50
176
     1
 90
       50
176
     1
 90
       50
176
     1
290
     0
176
     1
 90
       50
176
     1
 62
   256
176
     0
 40
1.0
176
     0
 90
        2
176
     1
  1
strokes_ogs.tif
176
     1
290
     0
176
     1
 40
1.0
176
     1
 40
1.0
176
     1
  0
VISUALSTYLE
  5
1095
102
{ACAD_REACTORS
330
1093
102
}
330
1093
100
AcDbVisualStyle
  2
FlatWithEdges
 70
     1
177
     3
291
     1
 70
    58
 90
        2
176
     1
 90
        1
176
     1
 90
        1
176
     1
 90
        2
176
     1
 40
0.6
176
     1
 40
30.0
176
     1
 62
     7
176
     1
 90
        1
176
     1
 90
        4
176
     1
 62
     7
176
     1
 62
   257
176
     1
 90
        1
176
     1
 90
        1
176
     1
 40
1.0
176
     1
 90
        0
176
     1
 62
   257
176
     1
 40
1.0
176
     1
 90
        1
176
     1
 90
        6
176
     1
 90
        2
176
     1
 62
     7
176
     1
 90
        5
176
     1
 90
        0
176
     1
 90
        0
176
     1
290
     0
176
     1
 90
       13
176
     1
 40
0.0
176
     1
 90
        0
176
     1
290
     0
176
     1
290
     1
176
     1
290
     1
176
     1
290
     0
176
     1
290
     0
176
     1
290
     0
176
     1
290
     0
176
     1
290
     0
176
     1
290
     0
176
     1
 90
       50
176
     1
 40
0.0
176
     1
 40
1.0
176
     1
 90
        0
176
     1
 62
    18
420
        0
176
     1
 90
       50
176
     1
 90
        3
176
     1
 62
     5
420
      255
176
     1
290
     0
176
     1
 90
       50
176
     1
 90
       50
176
     1
 90
       50
176
     1
290
     0
176
     1
 90
       50
176
     1
 62
   256
176
     0
 40
1.0
176
     0
 90
        2
176
     1
  1
strokes_ogs.tif
176
     1
290
     0
176
     1
 40
1.0
176
     1
 40
1.0
176
     1
  0
VISUALSTYLE
  5
1096
102
{ACAD_REACTORS
330
1093
102
}
330
1093
100
AcDbVisualStyle
  2
Gouraud
 70
     2
177
     3
291
     1
 70
    58
 90
        2
176
     1
 90
        2
176
     1
 90
        1
176
     1
 90
        2
176
     1
 40
0.6
176
     1
 40
30.0
176
     1
 62
     7
176
     1
 90
        0
176
     1
 90
        4
176
     1
 62
     7
176
     1
 62
   257
176
     1
 90
        1
176
     1
 90
        1
176
     1
 40
1.0
176
     1
 90
        0
176
     1
 62
     7
176
     1
 40
1.0
176
     1
 90
        1
176
     1
 90
        6
176
     1
 90
        2
176
     1
 62
     7
176
     1
 90
        5
176
     1
 90
        0
176
     1
 90
        0
176
     1
290
     0
176
     1
 90
       13
176
     1
 40
0.0
176
     1
 90
        0
176
     1
290
     0
176
     1
290
     1
176
     1
290
     1
176
     1
290
     0
176
     1
290
     0
176
     1
290
     0
176
     1
290
     0
176
     1
290
     0
176
     1
290
     0
176
     1
 90
       50
176
     1
 40
0.0
176
     1
 40
1.0
176
     1
 90
        0
176
     1
 62
    18
420
        0
176
     1
 90
       50
176
     1
 90
        3
176
     1
 62
     5
420
      255
176
     1
290
     0
176
     1
 90
       50
176
     1
 90
       50
176
     1
 90
       50
176
     1
290
     0
176
     1
 90
       50
176
     1
 62
   256
176
     0
 40
1.0
176
     0
 90
        2
176
     1
  1
strokes_ogs.tif
176
     1
290
     0
176
     1
 40
1.0
176
     1
 40
1.0
176
     1
  0
VISUALSTYLE
  5
1097
102
{ACAD_REACTORS
330
1093
102
}
330
1093
100
AcDbVisualStyle
  2
GouraudWithEdges
 70
     3
177
     3
291
     1
 70
    58
 90
        2
176
     1
 90
        2
176
     1
 90
        1
176
     1
 90
        2
176
     1
 40
0.6
176
     1
 40
30.0
176
     1
 62
     7
176
     1
 90
        1
176
     1
 90
        4
176
     1
 62
     7
176
     1
 62
   257
176
     1
 90
        1
176
     1
 90
        1
176
     1
 40
1.0
176
     1
 90
        0
176
     1
 62
   257
176
     1
 40
1.0
176
     1
 90
        1
176
     1
 90
        6
176
     1
 90
        2
176
     1
 62
     7
176
     1
 90
        5
176
     1
 90
        0
176
     1
 90
        0
176
     1
290
     0
176
     1
 90
       13
176
     1
 40
0.0
176
     1
 90
        0
176
     1
290
     0
176
     1
290
     1
176
     1
290
     1
176
     1
290
     0
176
     1
290
     0
176
     1
290
     0
176
     1
290
     0
176
     1
290
     0
176
     1
290
     0
176
     1
 90
       50
176
     1
 40
0.0
176
     1
 40
1.0
176
     1
 90
        0
176
     1
 62
    18
420
        0
176
     1
 90
       50
176
     1
 90
        3
176
     1
 62
     5
420
      255
176
     1
290
     0
176
     1
 90
       50
176
     1
 90
       50
176
     1
 90
       50
176
     1
290
     0
176
     1
 90
       50
176
     1
 62
   256
176
     0
 40
1.0
176
     0
 90
        2
176
     1
  1
strokes_ogs.tif
176
     1
290
     0
176
     1
 40
1.0
176
     1
 40
1.0
176
     1
  0
VISUALSTYLE
  5
A175
102
{ACAD_REACTORS
330
1093
102
}
330
1093
100
AcDbVisualStyle
  2
Hidden
 70
     6
177
     3
291
     0
 70
    58
 90
        1
176
     1
 90
        2
176
     1
 90
        2
176
     1
 90
        0
176
     1
 40
0.6
176
     1
 40
30.0
176
     1
 62
     7
420
 16777215
176
     1
 90
        2
176
     1
 90
        2
176
     1
 62
     7
176
     1
 62
   257
176
     1
 90
        2
176
     1
 90
        1
176
     1
 40
40.0
176
     1
 90
        0
176
     1
 62
   257
176
     1
 40
1.0
176
     1
 90
        1
176
     1
 90
        6
176
     1
 90
        2
176
     1
 62
     7
176
     1
 90
        3
176
     1
 90
        0
176
     1
 90
        0
176
     1
290
     0
176
     1
 90
        1
176
     1
 40
0.0
176
     1
 90
        0
176
     1
290
     0
176
     1
290
     1
176
     1
290
     1
176
     1
290
     0
176
     1
290
     0
176
     1
290
     0
176
     1
290
     0
176
     1
290
     0
176
     1
290
     0
176
     1
 90
       50
176
     1
 40
0.0
176
     1
 40
1.0
176
     1
 90
        0
176
     1
 62
    18
420
        0
176
     1
 90
       50
176
     1
 90
        3
176
     1
 62
     5
420
      255
176
     1
290
     0
176
     1
 90
       50
176
     1
 90
       50
176
     1
 90
       50
176
     1
290
     0
176
     1
 90
       50
176
     1
 62
   256
176
     0
 40
1.0
176
     0
 90
        2
176
     1
  1
strokes_ogs.tif
176
     1
290
     0
176
     1
 40
1.0
176
     1
 40
1.0
176
     1
  0
VISUALSTYLE
  5
10A4
102
{ACAD_REACTORS
330
1093
102
}
330
1093
100
AcDbVisualStyle
  2
JitterOff
 70
    20
177
     3
291
     1
 70
    58
 90
        2
176
     0
 90
        2
176
     0
 90
        0
176
     0
 90
        0
176
     0
 40
0.6
176
     0
 40
30.0
176
     0
 62
     7
176
     0
 90
        1
176
     0
 90
        4
176
     0
 62
     7
176
     0
 62
   257
176
     0
 90
        1
176
     0
 90
        1
176
     0
 40
1.0
176
     0
 90
       10
176
     2
 62
     7
176
     0
 40
1.0
176
     0
 90
        1
176
     0
 90
        6
176
     0
 90
        2
176
     0
 62
     7
176
     0
 90
        5
176
     0
 90
        0
176
     0
 90
        0
176
     0
290
     0
176
     0
 90
        1
176
     0
 40
0.0
176
     0
 90
        0
176
     0
290
     0
176
     1
290
     1
176
     1
290
     1
176
     1
290
     0
176
     1
290
     0
176
     1
290
     0
176
     1
290
     0
176
     1
290
     0
176
     1
290
     0
176
     1
 90
       50
176
     1
 40
0.0
176
     1
 40
1.0
176
     1
 90
        0
176
     1
 62
    18
420
        0
176
     1
 90
       50
176
     1
 90
        3
176
     1
 62
     5
420
      255
176
     1
290
     0
176
     1
 90
       50
176
     1
 90
       50
176
     1
 90
       50
176
     1
290
     0
176
     1
 90
       50
176
     1
 62
   256
176
     0
 40
1.0
176
     0
 90
        2
176
     1
  1
strokes_ogs.tif
176
     1
290
     0
176
     1
 40
1.0
176
     1
 40
1.0
176
     1
  0
VISUALSTYLE
  5
10A1
102
{ACAD_REACTORS
330
1093
102
}
330
1093
100
AcDbVisualStyle
  2
Linepattern
 70
    14
177
     3
291
     1
 70
    58
 90
        2
176
     1
 90
        2
176
     1
 90
        0
176
     1
 90
        0
176
     1
 40
0.6
176
     1
 40
30.0
176
     1
 62
     7
176
     1
 90
        1
176
     1
 90
        4
176
     1
 62
     7
176
     1
 62
   257
176
     1
 90
        7
176
     1
 90
        7
176
     1
 40
1.0
176
     1
 90
        8
176
     1
 62
     7
176
     1
 40
1.0
176
     1
 90
        1
176
     1
 90
        6
176
     1
 90
        2
176
     1
 62
     7
176
     1
 90
        5
176
     1
 90
        0
176
     1
 90
        0
176
     1
290
     0
176
     1
 90
        1
176
     1
 40
0.0
176
     1
 90
        0
176
     1
290
     0
176
     1
290
     1
176
     1
290
     1
176
     1
290
     0
176
     1
290
     0
176
     1
290
     0
176
     1
290
     0
176
     1
290
     0
176
     1
290
     0
176
     1
 90
       50
176
     1
 40
0.0
176
     1
 40
1.0
176
     1
 90
        0
176
     1
 62
    18
420
        0
176
     1
 90
       50
176
     1
 90
        3
176
     1
 62
     5
420
      255
176
     1
290
     0
176
     1
 90
       50
176
     1
 90
       50
176
     1
 90
       50
176
     1
290
     0
176
     1
 90
       50
176
     1
 62
   256
176
     0
 40
1.0
176
     0
 90
        2
176
     1
  1
strokes_ogs.tif
176
     1
290
     0
176
     1
 40
1.0
176
     1
 40
1.0
176
     1
  0
VISUALSTYLE
  5
10A5
102
{ACAD_REACTORS
330
1093
102
}
330
1093
100
AcDbVisualStyle
  2
OverhangOff
 70
    21
177
     3
291
     1
 70
    58
 90
        2
176
     0
 90
        2
176
     0
 90
        0
176
     0
 90
        0
176
     0
 40
0.6
176
     0
 40
30.0
176
     0
 62
     7
176
     0
 90
        1
176
     0
 90
        4
176
     0
 62
     7
176
     0
 62
   257
176
     0
 90
        1
176
     0
 90
        1
176
     0
 40
1.0
176
     0
 90
        9
176
     2
 62
     7
176
     0
 40
1.0
176
     0
 90
        1
176
     0
 90
        6
176
     0
 90
        2
176
     0
 62
     7
176
     0
 90
        5
176
     0
 90
        0
176
     0
 90
        0
176
     0
290
     0
176
     0
 90
        1
176
     0
 40
0.0
176
     0
 90
        0
176
     0
290
     0
176
     1
290
     1
176
     1
290
     1
176
     1
290
     0
176
     1
290
     0
176
     1
290
     0
176
     1
290
     0
176
     1
290
     0
176
     1
290
     0
176
     1
 90
       50
176
     1
 40
0.0
176
     1
 40
1.0
176
     1
 90
        0
176
     1
 62
    18
420
        0
176
     1
 90
       50
176
     1
 90
        3
176
     1
 62
     5
420
      255
176
     1
290
     0
176
     1
 90
       50
176
     1
 90
       50
176
     1
 90
       50
176
     1
290
     0
176
     1
 90
       50
176
     1
 62
   256
176
     0
 40
1.0
176
     0
 90
        2
176
     1
  1
strokes_ogs.tif
176
     1
290
     0
176
     1
 40
1.0
176
     1
 40
1.0
176
     1
  0
VISUALSTYLE
  5
109D
102
{ACAD_REACTORS
330
1093
102
}
330
1093
100
AcDbVisualStyle
  2
Realistic
 70
     8
177
     3
291
     0
 70
    58
 90
        2
176
     1
 90
        2
176
     1
 90
        0
176
     1
 90
        0
176
     1
 40
0.6
176
     1
 40
30.0
176
     1
 62
     7
176
     1
 90
        1
176
     1
 90
        0
176
     1
 62
     7
176
     1
 62
   257
176
     1
 90
        1
176
     1
 90
        1
176
     1
 40
1.0
176
     1
 90
        8
176
     1
 62
     8
176
     1
 40
1.0
176
     1
 90
        1
176
     1
 90
        6
176
     1
 90
        2
176
     1
 62
     7
176
     1
 90
        5
176
     1
 90
        0
176
     1
 90
        0
176
     1
290
     0
176
     1
 90
       13
176
     1
 40
0.0
176
     1
 90
        0
176
     1
290
     0
176
     1
290
     1
176
     1
290
     1
176
     1
290
     0
176
     1
290
     0
176
     1
290
     0
176
     1
290
     0
176
     1
290
     0
176
     1
290
     0
176
     1
 90
       50
176
     1
 40
0.0
176
     1
 40
1.0
176
     1
 90
        0
176
     1
 62
    18
420
        0
176
     1
 90
       50
176
     1
 90
        3
176
     1
 62
     5
420
      255
176
     1
290
     0
176
     1
 90
       50
176
     1
 90
       50
176
     1
 90
       50
176
     1
290
     0
176
     1
 90
       50
176
     1
 62
   256
176
     0
 40
1.0
176
     0
 90
        2
176
     1
  1
strokes_ogs.tif
176
     1
290
     0
176
     1
 40
1.0
176
     1
 40
1.0
176
     1
  0
VISUALSTYLE
  5
A17A
102
{ACAD_REACTORS
330
1093
102
}
330
1093
100
AcDbVisualStyle
  2
Shaded
 70
    27
177
     3
291
     0
 70
    58
 90
        2
176
     1
 90
        2
176
     1
 90
        1
176
     1
 90
        2
176
     1
 40
0.6
176
     1
 40
30.0
176
     1
 62
     7
420
 16777215
176
     1
 90
        0
176
     1
 90
        4
176
     1
 62
     7
176
     1
 62
   257
176
     1
 90
        1
176
     1
 90
        1
176
     1
 40
1.0
176
     1
 90
        8
176
     1
 62
   257
176
     1
 40
1.0
176
     1
 90
        1
176
     1
 90
        6
176
     1
 90
        2
176
     1
 62
     8
420
  7895160
176
     1
 90
        3
176
     1
 90
        0
176
     1
 90
        0
176
     1
290
     0
176
     1
 90
        5
176
     1
 40
0.0
176
     1
 90
        0
176
     1
290
     0
176
     1
290
     1
176
     1
290
     1
176
     1
290
     0
176
     1
290
     0
176
     1
290
     0
176
     1
290
     0
176
     1
290
     0
176
     1
290
     0
176
     1
 90
       50
176
     1
 40
0.0
176
     1
 40
1.0
176
     1
 90
        0
176
     1
 62
    18
420
        0
176
     1
 90
       50
176
     1
 90
        3
176
     1
 62
     5
420
      255
176
     1
290
     0
176
     1
 90
       50
176
     1
 90
       50
176
     1
 90
       50
176
     1
290
     0
176
     1
 90
       50
176
     1
 62
   256
176
     0
 40
1.0
176
     0
 90
        2
176
     1
  1
strokes_ogs.tif
176
     1
290
     0
176
     1
 40
1.0
176
     1
 40
1.0
176
     1
  0
VISUALSTYLE
  5
A179
102
{ACAD_REACTORS
330
1093
102
}
330
1093
100
AcDbVisualStyle
  2
Shaded with edges
 70
    26
177
     3
291
     0
 70
    58
 90
        2
176
     1
 90
        2
176
     1
 90
        1
176
     1
 90
        2
176
     1
 40
0.6
176
     1
 40
30.0
176
     1
 62
     7
420
 16777215
176
     1
 90
        1
176
     1
 90
        2
176
     1
 62
     7
176
     1
 62
   257
176
     1
 90
        2
176
     1
 90
        1
176
     1
 40
1.0
176
     1
 90
        8
176
     1
 62
   257
176
     1
 40
1.0
176
     1
 90
        1
176
     1
 90
        6
176
     1
 90
        2
176
     1
 62
     7
176
     1
 90
        3
176
     1
 90
        0
176
     1
 90
        0
176
     1
290
     0
176
     1
 90
        5
176
     1
 40
0.0
176
     1
 90
        0
176
     1
290
     0
176
     1
290
     1
176
     1
290
     1
176
     1
290
     0
176
     1
290
     0
176
     1
290
     0
176
     1
290
     0
176
     1
290
     0
176
     1
290
     0
176
     1
 90
       50
176
     1
 40
0.0
176
     1
 40
1.0
176
     1
 90
        0
176
     1
 62
    18
420
        0
176
     1
 90
       50
176
     1
 90
        3
176
     1
 62
     5
420
      255
176
     1
290
     0
176
     1
 90
       50
176
     1
 90
       50
176
     1
 90
       50
176
     1
290
     0
176
     1
 90
       50
176
     1
 62
   256
176
     0
 40
1.0
176
     0
 90
        2
176
     1
  1
strokes_ogs.tif
176
     1
290
     0
176
     1
 40
1.0
176
     1
 40
1.0
176
     1
  0
VISUALSTYLE
  5
A176
102
{ACAD_REACTORS
330
1093
102
}
330
1093
100
AcDbVisualStyle
  2
Shades of Gray
 70
    23
177
     3
291
     0
 70
    58
 90
        2
176
     1
 90
        2
176
     1
 90
        3
176
     1
 90
        0
176
     1
 40
0.6
176
     1
 40
30.0
176
     1
 62
     7
420
 16777215
176
     1
 90
        2
176
     1
 90
        2
176
     1
 62
     7
176
     1
 62
     7
176
     1
 90
        1
176
     1
 90
        1
176
     1
 40
40.0
176
     1
 90
        8
176
     1
 62
     7
176
     1
 40
1.0
176
     1
 90
        1
176
     1
 90
        6
176
     1
 90
        2
176
     1
 62
     7
176
     1
 90
        3
176
     1
 90
        0
176
     1
 90
        0
176
     1
290
     0
176
     1
 90
        1
176
     1
 40
0.0
176
     1
 90
        0
176
     1
290
     0
176
     1
290
     1
176
     1
290
     1
176
     1
290
     0
176
     1
290
     0
176
     1
290
     0
176
     1
290
     0
176
     1
290
     0
176
     1
290
     0
176
     1
 90
       50
176
     1
 40
0.0
176
     1
 40
1.0
176
     1
 90
        0
176
     1
 62
    18
420
        0
176
     1
 90
       50
176
     1
 90
        3
176
     1
 62
     5
420
      255
176
     1
290
     0
176
     1
 90
       50
176
     1
 90
       50
176
     1
 90
       50
176
     1
290
     0
176
     1
 90
       50
176
     1
 62
   256
176
     0
 40
1.0
176
     0
 90
        2
176
     1
  1
strokes_ogs.tif
176
     1
290
     0
176
     1
 40
1.0
176
     1
 40
1.0
176
     1
  0
VISUALSTYLE
  5
A177
102
{ACAD_REACTORS
330
1093
102
}
330
1093
100
AcDbVisualStyle
  2
Sketchy
 70
    24
177
     3
291
     0
 70
    58
 90
        1
176
     1
 90
        2
176
     1
 90
        2
176
     1
 90
        0
176
     1
 40
0.6
176
     1
 40
30.0
176
     1
 62
     7
420
 16777215
176
     1
 90
        2
176
     1
 90
        2
176
     1
 62
     7
176
     1
 62
     7
176
     1
 90
        1
176
     1
 90
        1
176
     1
 40
40.0
176
     1
 90
       11
176
     1
 62
     7
176
     1
 40
1.0
176
     1
 90
        1
176
     1
 90
        6
176
     1
 90
        2
176
     1
 62
     7
176
     1
 90
        6
176
     1
 90
        0
176
     1
 90
        0
176
     1
290
     0
176
     1
 90
        1
176
     1
 40
0.0
176
     1
 90
        0
176
     1
290
     0
176
     1
290
     1
176
     1
290
     1
176
     1
290
     0
176
     1
290
     0
176
     1
290
     0
176
     1
290
     0
176
     1
290
     0
176
     1
290
     0
176
     1
 90
       50
176
     1
 40
0.0
176
     1
 40
1.0
176
     1
 90
        0
176
     1
 62
    18
420
        0
176
     1
 90
       50
176
     1
 90
        3
176
     1
 62
     5
420
      255
176
     1
290
     0
176
     1
 90
       50
176
     1
 90
       50
176
     1
 90
       50
176
     1
290
     0
176
     1
 90
       50
176
     1
 62
   256
176
     0
 40
1.0
176
     0
 90
        2
176
     1
  1
strokes_ogs.tif
176
     1
290
     0
176
     1
 40
1.0
176
     1
 40
1.0
176
     1
  0
VISUALSTYLE
  5
10A0
102
{ACAD_REACTORS
330
1093
102
}
330
1093
100
AcDbVisualStyle
  2
Thicken
 70
    13
177
     3
291
     1
 70
    58
 90
        2
176
     1
 90
        2
176
     1
 90
        0
176
     1
 90
        0
176
     1
 40
0.6
176
     1
 40
30.0
176
     1
 62
     7
176
     1
 90
        1
176
     1
 90
        4
176
     1
 62
     7
176
     1
 62
   257
176
     1
 90
        1
176
     1
 90
        1
176
     1
 40
1.0
176
     1
 90
       12
176
     1
 62
     7
176
     1
 40
1.0
176
     1
 90
        1
176
     1
 90
        6
176
     1
 90
        2
176
     1
 62
     7
176
     1
 90
        5
176
     1
 90
        0
176
     1
 90
        0
176
     1
290
     0
176
     1
 90
        1
176
     1
 40
0.0
176
     1
 90
        0
176
     1
290
     0
176
     1
290
     1
176
     1
290
     1
176
     1
290
     0
176
     1
290
     0
176
     1
290
     0
176
     1
290
     0
176
     1
290
     0
176
     1
290
     0
176
     1
 90
       50
176
     1
 40
0.0
176
     1
 40
1.0
176
     1
 90
        0
176
     1
 62
    18
420
        0
176
     1
 90
       50
176
     1
 90
        3
176
     1
 62
     5
420
      255
176
     1
290
     0
176
     1
 90
       50
176
     1
 90
       50
176
     1
 90
       50
176
     1
290
     0
176
     1
 90
       50
176
     1
 62
   256
176
     0
 40
1.0
176
     0
 90
        2
176
     1
  1
strokes_ogs.tif
176
     1
290
     0
176
     1
 40
1.0
176
     1
 40
1.0
176
     1
  0
VISUALSTYLE
  5
A174
102
{ACAD_REACTORS
330
1093
102
}
330
1093
100
AcDbVisualStyle
  2
Wireframe
 70
     5
177
     3
291
     0
 70
    58
 90
        0
176
     1
 90
        2
176
     1
 90
        0
176
     1
 90
        0
176
     1
 40
0.6
176
     1
 40
30.0
176
     1
 62
     7
420
 16777215
176
     1
 90
        1
176
     1
 90
        4
176
     1
 62
     7
176
     1
 62
   257
176
     1
 90
        1
176
     1
 90
        1
176
     1
 40
1.0
176
     1
 90
        0
176
     1
 62
   257
176
     1
 40
1.0
176
     1
 90
        1
176
     1
 90
        6
176
     1
 90
        2
176
     1
 62
     7
176
     1
 90
        3
176
     1
 90
        0
176
     1
 90
        0
176
     1
290
     0
176
     1
 90
        1
176
     1
 40
0.0
176
     1
 90
        0
176
     1
290
     0
176
     1
290
     1
176
     1
290
     1
176
     1
290
     0
176
     1
290
     0
176
     1
290
     0
176
     1
290
     0
176
     1
290
     0
176
     1
290
     0
176
     1
 90
       50
176
     1
 40
0.0
176
     1
 40
1.0
176
     1
 90
        0
176
     1
 62
    18
420
        0
176
     1
 90
       50
176
     1
 90
        3
176
     1
 62
     5
420
      255
176
     1
290
     0
176
     1
 90
       50
176
     1
 90
       50
176
     1
 90
       50
176
     1
290
     0
176
     1
 90
       50
176
     1
 62
   256
176
     0
 40
1.0
176
     0
 90
        2
176
     1
  1
strokes_ogs.tif
176
     1
290
     0
176
     1
 40
1.0
176
     1
 40
1.0
176
     1
  0
VISUALSTYLE
  5
A178
102
{ACAD_REACTORS
330
1093
102
}
330
1093
100
AcDbVisualStyle
  2
X-Ray
 70
    25
177
     3
291
     0
 70
    58
 90
        2
176
     1
 90
        2
176
     1
 90
        1
176
     1
 90
        1
176
     1
 40
0.5
176
     1
 40
30.0
176
     1
 62
     7
420
 16777215
176
     1
 90
        1
176
     1
 90
        0
176
     1
 62
     7
176
     1
 62
   257
176
     1
 90
        1
176
     1
 90
        1
176
     1
 40
1.0
176
     1
 90
        8
176
     1
 62
     7
176
     1
 40
1.0
176
     1
 90
        1
176
     1
 90
        6
176
     1
 90
        2
176
     1
 62
     7
176
     1
 90
        3
176
     1
 90
        0
176
     1
 90
        0
176
     1
290
     0
176
     1
 90
       13
176
     1
 40
0.0
176
     1
 90
        0
176
     1
290
     0
176
     1
290
     1
176
     1
290
     1
176
     1
290
     0
176
     1
290
     0
176
     1
290
     0
176
     1
290
     0
176
     1
290
     0
176
     1
290
     0
176
     1
 90
       50
176
     1
 40
0.0
176
     1
 40
1.0
176
     1
 90
        0
176
     1
 62
    18
420
        0
176
     1
 90
       50
176
     1
 90
        3
176
     1
 62
     5
420
      255
176
     1
290
     0
176
     1
 90
       50
176
     1
 90
       50
176
     1
 90
       50
176
     1
290
     0
176
     1
 90
       50
176
     1
 62
   256
176
     0
 40
1.0
176
     0
 90
        2
176
     1
  1
strokes_ogs.tif
176
     1
290
     0
176
     1
 40
1.0
176
     1
 40
1.0
176
     1
  0
DICTIONARYVAR
  5
119F
102
{ACAD_REACTORS
330
119C
102
}
330
119C
100
DictionaryVariables
280
     0
  1
1:1
  0
DICTIONARYVAR
  5
119E
102
{ACAD_REACTORS
330
119C
102
}
330
119C
100
DictionaryVariables
280
     0
  1
STANDARD
  0
DICTIONARYVAR
  5
119D
102
{ACAD_REACTORS
330
119C
102
}
330
119C
100
DictionaryVariables
280
     0
  1
STANDARD
  0
DICTIONARYVAR
  5
A1FD
102
{ACAD_REACTORS
330
119C
102
}
330
119C
100
DictionaryVariables
280
     0
  1
Metric50
  0
DICTIONARYVAR
  5
A1FE
102
{ACAD_REACTORS
330
119C
102
}
330
119C
100
DictionaryVariables
280
     0
  1
Metric50
  0
DICTIONARYVAR
  5
11A2
102
{ACAD_REACTORS
330
119C
102
}
330
119C
100
DictionaryVariables
280
     0
  1
1
  0
DICTIONARYVAR
  5
11A1
102
{ACAD_REACTORS
330
119C
102
}
330
119C
100
DictionaryVariables
280
     0
  1
0
  0
DICTIONARYVAR
  5
A201
102
{ACAD_REACTORS
330
119C
102
}
330
119C
100
DictionaryVariables
280
     0
  1
1
  0
DICTIONARYVAR
  5
A202
102
{ACAD_REACTORS
330
119C
102
}
330
119C
100
DictionaryVariables
280
     0
  1
15
  0
DICTIONARYVAR
  5
A200
102
{ACAD_REACTORS
330
119C
102
}
330
119C
100
DictionaryVariables
280
     0
  1
0
  0
DICTIONARYVAR
  5
A1FF
102
{ACAD_REACTORS
330
119C
102
}
330
119C
100
DictionaryVariables
280
     0
  1
0
  0
DICTIONARYVAR
  5
11A0
102
{ACAD_REACTORS
330
119C
102
}
330
119C
100
DictionaryVariables
280
     0
  1
127
  0
DICTIONARY
  5
A206
330
A17E
100
AcDbDictionary
280
     1
281
     1
  3
ACAD_XREC_ROUNDTRIP
360
A207
  0
DICTIONARY
  5
1084
330
1083
100
AcDbDictionary
280
     1
281
     1
  3
BUMPTILE
360
1086
  3
DIFFUSETILE
360
1085
  3
OPACITYTILE
360
1089
  3
REFLECTIONTILE
360
1088
  3
REFRACTIONTILE
360
108A
  3
SPECULARTILE
360
1087
  0
DICTIONARY
  5
107C
330
107B
100
AcDbDictionary
280
     1
281
     1
  3
BUMPTILE
360
107E
  3
DIFFUSETILE
360
107D
  3
OPACITYTILE
360
1081
  3
REFLECTIONTILE
360
1080
  3
REFRACTIONTILE
360
1082
  3
SPECULARTILE
360
107F
  0
DICTIONARY
  5
108C
330
108B
100
AcDbDictionary
280
     1
281
     1
  3
BUMPTILE
360
108E
  3
DIFFUSETILE
360
108D
  3
OPACITYTILE
360
1091
  3
REFLECTIONTILE
360
1090
  3
REFRACTIONTILE
360
1092
  3
SPECULARTILE
360
108F
  0
DICTIONARY
  5
A204
330
A17C
100
AcDbDictionary
280
     1
281
     1
  3
ACAD_XREC_ROUNDTRIP
360
A205
  0
DICTIONARY
  5
10C4
330
10A9
100
AcDbDictionary
280
     1
281
     1
  3
ACAD_ROUNDTRIP_2008_TABLESTYLE_CELLSTYLEMAP
360
A203
  0
XRECORD
  5
A207
102
{ACAD_REACTORS
330
A206
102
}
330
A206
100
AcDbXrecord
280
     1
102
DISPLAYNAME
  1
Metric50
102
FLAGS
 90
        0
  0
XRECORD
  5
1086
102
{ACAD_REACTORS
330
1084
102
}
330
1084
100
AcDbXrecord
280
     1
270
     1
271
     1
  0
XRECORD
  5
1085
102
{ACAD_REACTORS
330
1084
102
}
330
1084
100
AcDbXrecord
280
     1
270
     1
271
     1
  0
XRECORD
  5
1089
102
{ACAD_REACTORS
330
1084
102
}
330
1084
100
AcDbXrecord
280
     1
270
     1
271
     1
  0
XRECORD
  5
1088
102
{ACAD_REACTORS
330
1084
102
}
330
1084
100
AcDbXrecord
280
     1
270
     1
271
     1
  0
XRECORD
  5
108A
102
{ACAD_REACTORS
330
1084
102
}
330
1084
100
AcDbXrecord
280
     1
270
     1
271
     1
  0
XRECORD
  5
1087
102
{ACAD_REACTORS
330
1084
102
}
330
1084
100
AcDbXrecord
280
     1
270
     1
271
     1
  0
XRECORD
  5
107E
102
{ACAD_REACTORS
330
107C
102
}
330
107C
100
AcDbXrecord
280
     1
270
     1
271
     1
  0
XRECORD
  5
107D
102
{ACAD_REACTORS
330
107C
102
}
330
107C
100
AcDbXrecord
280
     1
270
     1
271
     1
  0
XRECORD
  5
1081
102
{ACAD_REACTORS
330
107C
102
}
330
107C
100
AcDbXrecord
280
     1
270
     1
271
     1
  0
XRECORD
  5
1080
102
{ACAD_REACTORS
330
107C
102
}
330
107C
100
AcDbXrecord
280
     1
270
     1
271
     1
  0
XRECORD
  5
1082
102
{ACAD_REACTORS
330
107C
102
}
330
107C
100
AcDbXrecord
280
     1
270
     1
271
     1
  0
XRECORD
  5
107F
102
{ACAD_REACTORS
330
107C
102
}
330
107C
100
AcDbXrecord
280
     1
270
     1
271
     1
  0
XRECORD
  5
108E
102
{ACAD_REACTORS
330
108C
102
}
330
108C
100
AcDbXrecord
280
     1
270
     1
271
     1
  0
XRECORD
  5
108D
102
{ACAD_REACTORS
330
108C
102
}
330
108C
100
AcDbXrecord
280
     1
270
     1
271
     1
  0
XRECORD
  5
1091
102
{ACAD_REACTORS
330
108C
102
}
330
108C
100
AcDbXrecord
280
     1
270
     1
271
     1
  0
XRECORD
  5
1090
102
{ACAD_REACTORS
330
108C
102
}
330
108C
100
AcDbXrecord
280
     1
270
     1
271
     1
  0
XRECORD
  5
1092
102
{ACAD_REACTORS
330
108C
102
}
330
108C
100
AcDbXrecord
280
     1
270
     1
271
     1
  0
XRECORD
  5
108F
102
{ACAD_REACTORS
330
108C
102
}
330
108C
100
AcDbXrecord
280
     1
270
     1
271
     1
  0
XRECORD
  5
A205
102
{ACAD_REACTORS
330
A204
102
}
330
A204
100
AcDbXrecord
280
     1
102
DISPLAYNAME
  1
Metric50
102
FLAGS
 90
        0
  0
CELLSTYLEMAP
  5
A203
102
{ACAD_REACTORS
330
10C4
102
}
330
10C4
100
AcDbCellStyleMap
 90
        3
300
CELLSTYLE
  1
TABLEFORMAT_BEGIN
 90
        5
170
     1
 91
        0
 92
    32768
 62
   257
 93
        1
300
CONTENTFORMAT
  1
CONTENTFORMAT_BEGIN
 90
        0
 91
        0
 92
      512
 93
        0
300

 40
0.0
140
1.0
 94
        5
 62
     0
340
11
144
6.0
309
CONTENTFORMAT_END
171
     1
301
MARGIN
  1
CELLMARGIN_BEGIN
 40
1.5
 40
1.5
 40
1.5
 40
1.5
 40
0.18
 40
0.18
309
CELLMARGIN_END
 94
        6
 95
        1
302
GRIDFORMAT
  1
GRIDFORMAT_BEGIN
 90
        0
 91
        1
 62
     0
 92
       -2
340
0
 93
        0
 40
1.125
309
GRIDFORMAT_END
 95
        2
302
GRIDFORMAT
  1
GRIDFORMAT_BEGIN
 90
        0
 91
        1
 62
     0
 92
       -2
340
0
 93
        0
 40
1.125
309
GRIDFORMAT_END
 95
        4
302
GRIDFORMAT
  1
GRIDFORMAT_BEGIN
 90
        0
 91
        1
 62
     0
 92
       -2
340
0
 93
        0
 40
1.125
309
GRIDFORMAT_END
 95
        8
302
GRIDFORMAT
  1
GRIDFORMAT_BEGIN
 90
        0
 91
        1
 62
     0
 92
       -2
340
0
 93
        0
 40
1.125
309
GRIDFORMAT_END
 95
       16
302
GRIDFORMAT
  1
GRIDFORMAT_BEGIN
 90
        0
 91
        1
 62
     0
 92
       -2
340
0
 93
        0
 40
1.125
309
GRIDFORMAT_END
 95
       32
302
GRIDFORMAT
  1
GRIDFORMAT_BEGIN
 90
        0
 91
        1
 62
     0
 92
       -2
340
0
 93
        0
 40
1.125
309
GRIDFORMAT_END
309
TABLEFORMAT_END
  1
CELLSTYLE_BEGIN
 90
        1
 91
        1
300
_TITLE
309
CELLSTYLE_END
300
CELLSTYLE
  1
TABLEFORMAT_BEGIN
 90
        5
170
     1
 91
        0
 92
        0
 62
   257
 93
        1
300
CONTENTFORMAT
  1
CONTENTFORMAT_BEGIN
 90
        0
 91
        0
 92
      512
 93
        0
300

 40
0.0
140
1.0
 94
        5
 62
     0
340
11
144
4.5
309
CONTENTFORMAT_END
171
     1
301
MARGIN
  1
CELLMARGIN_BEGIN
 40
1.5
 40
1.5
 40
1.5
 40
1.5
 40
0.18
 40
0.18
309
CELLMARGIN_END
 94
        6
 95
        1
302
GRIDFORMAT
  1
GRIDFORMAT_BEGIN
 90
        0
 91
        1
 62
     0
 92
       -2
340
0
 93
        0
 40
1.125
309
GRIDFORMAT_END
 95
        2
302
GRIDFORMAT
  1
GRIDFORMAT_BEGIN
 90
        0
 91
        1
 62
     0
 92
       -2
340
0
 93
        0
 40
1.125
309
GRIDFORMAT_END
 95
        4
302
GRIDFORMAT
  1
GRIDFORMAT_BEGIN
 90
        0
 91
        1
 62
     0
 92
       -2
340
0
 93
        0
 40
1.125
309
GRIDFORMAT_END
 95
        8
302
GRIDFORMAT
  1
GRIDFORMAT_BEGIN
 90
        0
 91
        1
 62
     0
 92
       -2
340
0
 93
        0
 40
1.125
309
GRIDFORMAT_END
 95
       16
302
GRIDFORMAT
  1
GRIDFORMAT_BEGIN
 90
        0
 91
        1
 62
     0
 92
       -2
340
0
 93
        0
 40
1.125
309
GRIDFORMAT_END
 95
       32
302
GRIDFORMAT
  1
GRIDFORMAT_BEGIN
 90
        0
 91
        1
 62
     0
 92
       -2
340
0
 93
        0
 40
1.125
309
GRIDFORMAT_END
309
TABLEFORMAT_END
  1
CELLSTYLE_BEGIN
 90
        2
 91
        1
300
_HEADER
309
CELLSTYLE_END
300
CELLSTYLE
  1
TABLEFORMAT_BEGIN
 90
        5
170
     1
 91
        0
 92
        0
 62
   257
 93
        1
300
CONTENTFORMAT
  1
CONTENTFORMAT_BEGIN
 90
        0
 91
        0
 92
      512
 93
        0
300

 40
0.0
140
1.0
 94
        2
 62
     0
340
11
144
4.5
309
CONTENTFORMAT_END
171
     1
301
MARGIN
  1
CELLMARGIN_BEGIN
 40
1.5
 40
1.5
 40
1.5
 40
1.5
 40
0.18
 40
0.18
309
CELLMARGIN_END
 94
        6
 95
        1
302
GRIDFORMAT
  1
GRIDFORMAT_BEGIN
 90
        0
 91
        1
 62
     0
 92
       -2
340
0
 93
        0
 40
1.125
309
GRIDFORMAT_END
 95
        2
302
GRIDFORMAT
  1
GRIDFORMAT_BEGIN
 90
        0
 91
        1
 62
     0
 92
       -2
340
0
 93
        0
 40
1.125
309
GRIDFORMAT_END
 95
        4
302
GRIDFORMAT
  1
GRIDFORMAT_BEGIN
 90
        0
 91
        1
 62
     0
 92
       -2
340
0
 93
        0
 40
1.125
309
GRIDFORMAT_END
 95
        8
302
GRIDFORMAT
  1
GRIDFORMAT_BEGIN
 90
        0
 91
        1
 62
     0
 92
       -2
340
0
 93
        0
 40
1.125
309
GRIDFORMAT_END
 95
       16
302
GRIDFORMAT
  1
GRIDFORMAT_BEGIN
 90
        0
 91
        1
 62
     0
 92
       -2
340
0
 93
        0
 40
1.125
309
GRIDFORMAT_END
 95
       32
302
GRIDFORMAT
  1
GRIDFORMAT_BEGIN
 90
        0
 91
        1
 62
     0
 92
       -2
340
0
 93
        0
 40
1.125
309
GRIDFORMAT_END
309
TABLEFORMAT_END
  1
CELLSTYLE_BEGIN
 90
        3
 91
        2
300
_DATA
309
CELLSTYLE_END
  0
ENDSEC
  0
EOF
