  0
SECTION
  2
HEADER
  9
$ACADVER
  1
AC1027
  9
$ACADMAINTVER
 70
   125
  9
$DWGCODEPAGE
  3
ANSI_1252
  9
$LASTSAVEDBY
  1
fleminab
  9
$REQUIREDVERSIONS
160
                 0
  9
$INSBASE
 10
0.0
 20
0.0
 30
0.0
  9
$EXTMIN
 10
2266.497592608399
 20
89.31705892320668
 30
-0.000000000000013
  9
$EXTMAX
 10
2701.70135101508
 20
341.796933980869
 30
0.0000000000000023
  9
$LIMMIN
 10
0.0
 20
0.0
  9
$LIMMAX
 10
420.0
 20
297.0
  9
$ORTHOMODE
 70
     0
  9
$REGENMODE
 70
     1
  9
$FILLMODE
 70
     1
  9
$QTEXTMODE
 70
     0
  9
$MIRRTEXT
 70
     1
  9
$LTSCALE
 40
0.3
  9
$ATTMODE
 70
     1
  9
$TEXTSIZE
 40
2.5
  9
$TRACEWID
 40
1.0
  9
$TEXTSTYLE
  7
Standard
  9
$CLAYER
  8
轮廓线
  9
$CELTYPE
  6
ByLayer
  9
$CECOLOR
 62
   256
  9
$CELTSCALE
 40
1.0
  9
$DISPSILH
 70
     0
  9
$DIMSCALE
 40
3.0
  9
$DIMASZ
 40
2.5
  9
$DIMEXO
 40
0.625
  9
$DIMDLI
 40
3.75
  9
$DIMRND
 40
0.0
  9
$DIMDLE
 40
0.0
  9
$DIMEXE
 40
1.25
  9
$DIMTP
 40
0.0
  9
$DIMTM
 40
0.0
  9
$DIMTXT
 40
3.0
  9
$DIMCEN
 40
2.5
  9
$DIMTSZ
 40
0.0
  9
$DIMTOL
 70
     0
  9
$DIMLIM
 70
     0
  9
$DIMTIH
 70
     0
  9
$DIMTOH
 70
     0
  9
$DIMSE1
 70
     0
  9
$DIMSE2
 70
     0
  9
$DIMTAD
 70
     1
  9
$DIMZIN
 70
     8
  9
$DIMBLK
  1

  9
$DIMASO
 70
     1
  9
$DIMSHO
 70
     1
  9
$DIMPOST
  1

  9
$DIMAPOST
  1

  9
$DIMALT
 70
     0
  9
$DIMALTD
 70
     3
  9
$DIMALTF
 40
0.03937007874016
  9
$DIMLFAC
 40
1.0
  9
$DIMTOFL
 70
     1
  9
$DIMTVP
 40
0.0
  9
$DIMTIX
 70
     0
  9
$DIMSOXD
 70
     0
  9
$DIMSAH
 70
     0
  9
$DIMBLK1
  1

  9
$DIMBLK2
  1

  9
$DIMSTYLE
  2
ISO-25
  9
$DIMCLRD
 70
   256
  9
$DIMCLRE
 70
   256
  9
$DIMCLRT
 70
   256
  9
$DIMTFAC
 40
1.0
  9
$DIMGAP
 40
0.625
  9
$DIMJUST
 70
     0
  9
$DIMSD1
 70
     0
  9
$DIMSD2
 70
     0
  9
$DIMTOLJ
 70
     0
  9
$DIMTZIN
 70
     8
  9
$DIMALTZ
 70
     0
  9
$DIMALTTZ
 70
     0
  9
$DIMUPT
 70
     0
  9
$DIMDEC
 70
     1
  9
$DIMTDEC
 70
     1
  9
$DIMALTU
 70
     2
  9
$DIMALTTD
 70
     3
  9
$DIMTXSTY
  7
Standard
  9
$DIMAUNIT
 70
     0
  9
$DIMADEC
 70
     0
  9
$DIMALTRND
 40
0.0
  9
$DIMAZIN
 70
     0
  9
$DIMDSEP
 70
    46
  9
$DIMATFIT
 70
     3
  9
$DIMFRAC
 70
     0
  9
$DIMLDRBLK
  1

  9
$DIMLUNIT
 70
     2
  9
$DIMLWD
 70
    -1
  9
$DIMLWE
 70
    -1
  9
$DIMTMOVE
 70
     0
  9
$DIMFXL
 40
1.25
  9
$DIMFXLON
 70
     0
  9
$DIMJOGANG
 40
0.7853981633974483
  9
$DIMTFILL
 70
     0
  9
$DIMTFILLCLR
 70
     0
  9
$DIMARCSYM
 70
     0
  9
$DIMLTYPE
  6

  9
$DIMLTEX1
  6

  9
$DIMLTEX2
  6

  9
$DIMTXTDIRECTION
 70
     0
  9
$LUNITS
 70
     2
  9
$LUPREC
 70
     4
  9
$SKETCHINC
 40
1.0
  9
$FILLETRAD
 40
0.0
  9
$AUNITS
 70
     0
  9
$AUPREC
 70
     0
  9
$MENU
  1
.
  9
$ELEVATION
 40
0.0
  9
$PELEVATION
 40
0.0
  9
$THICKNESS
 40
0.0
  9
$LIMCHECK
 70
     0
  9
$CHAMFERA
 40
10.0
  9
$CHAMFERB
 40
10.0
  9
$CHAMFERC
 40
20.0
  9
$CHAMFERD
 40
0.0
  9
$SKPOLY
 70
     0
  9
$TDCREATE
 40
2452341.882372685
  9
$TDUCREATE
 40
2452341.424046528
  9
$TDUPDATE
 40
2458032.454247685
  9
$TDUUPDATE
 40
2458031.995914352
  9
$TDINDWG
 40
1.9804436690
  9
$TDUSRTIMER
 40
1.9804436690
  9
$USRTIMER
 70
     1
  9
$ANGBASE
 50
0.0
  9
$ANGDIR
 70
     0
  9
$PDMODE
 70
     0
  9
$PDSIZE
 40
0.0
  9
$PLINEWID
 40
0.0
  9
$SPLFRAME
 70
     0
  9
$SPLINETYPE
 70
     6
  9
$SPLINESEGS
 70
     8
  9
$HANDSEED
  5
35F2
  9
$SURFTAB1
 70
     6
  9
$SURFTAB2
 70
     6
  9
$SURFTYPE
 70
     6
  9
$SURFU
 70
     6
  9
$SURFV
 70
     6
  9
$UCSBASE
  2

  9
$UCSNAME
  2

  9
$UCSORG
 10
0.0
 20
0.0
 30
0.0
  9
$UCSXDIR
 10
1.0
 20
0.0
 30
0.0
  9
$UCSYDIR
 10
0.0
 20
1.0
 30
0.0
  9
$UCSORTHOREF
  2

  9
$UCSORTHOVIEW
 70
     0
  9
$UCSORGTOP
 10
0.0
 20
0.0
 30
0.0
  9
$UCSORGBOTTOM
 10
0.0
 20
0.0
 30
0.0
  9
$UCSORGLEFT
 10
0.0
 20
0.0
 30
0.0
  9
$UCSORGRIGHT
 10
0.0
 20
0.0
 30
0.0
  9
$UCSORGFRONT
 10
0.0
 20
0.0
 30
0.0
  9
$UCSORGBACK
 10
0.0
 20
0.0
 30
0.0
  9
$PUCSBASE
  2

  9
$PUCSNAME
  2

  9
$PUCSORG
 10
0.0
 20
0.0
 30
0.0
  9
$PUCSXDIR
 10
1.0
 20
0.0
 30
0.0
  9
$PUCSYDIR
 10
0.0
 20
1.0
 30
0.0
  9
$PUCSORTHOREF
  2

  9
$PUCSORTHOVIEW
 70
     0
  9
$PUCSORGTOP
 10
0.0
 20
0.0
 30
0.0
  9
$PUCSORGBOTTOM
 10
0.0
 20
0.0
 30
0.0
  9
$PUCSORGLEFT
 10
0.0
 20
0.0
 30
0.0
  9
$PUCSORGRIGHT
 10
0.0
 20
0.0
 30
0.0
  9
$PUCSORGFRONT
 10
0.0
 20
0.0
 30
0.0
  9
$PUCSORGBACK
 10
0.0
 20
0.0
 30
0.0
  9
$USERI1
 70
     0
  9
$USERI2
 70
     0
  9
$USERI3
 70
     0
  9
$USERI4
 70
     0
  9
$USERI5
 70
     0
  9
$USERR1
 40
0.0
  9
$USERR2
 40
0.0
  9
$USERR3
 40
0.0
  9
$USERR4
 40
0.0
  9
$USERR5
 40
0.0
  9
$WORLDVIEW
 70
     1
  9
$SHADEDGE
 70
     3
  9
$SHADEDIF
 70
    70
  9
$TILEMODE
 70
     1
  9
$MAXACTVP
 70
    64
  9
$PINSBASE
 10
0.0
 20
0.0
 30
0.0
  9
$PLIMCHECK
 70
     0
  9
$PEXTMIN
 10
1.000000000000000E+20
 20
1.000000000000000E+20
 30
1.000000000000000E+20
  9
$PEXTMAX
 10
-1.000000000000000E+20
 20
-1.000000000000000E+20
 30
-1.000000000000000E+20
  9
$PLIMMIN
 10
0.0
 20
0.0
  9
$PLIMMAX
 10
420.0
 20
297.0
  9
$UNITMODE
 70
     0
  9
$VISRETAIN
 70
     1
  9
$PLINEGEN
 70
     0
  9
$PSLTSCALE
 70
     1
  9
$TREEDEPTH
 70
  3020
  9
$CMLSTYLE
  2
Standard
  9
$CMLJUST
 70
     0
  9
$CMLSCALE
 40
20.0
  9
$PROXYGRAPHICS
 70
     1
  9
$MEASUREMENT
 70
     0
  9
$CELWEIGHT
370
    -1
  9
$ENDCAPS
280
     0
  9
$JOINSTYLE
280
     0
  9
$LWDISPLAY
290
     1
  9
$INSUNITS
 70
     4
  9
$HYPERLINKBASE
  1

  9
$STYLESHEET
  1

  9
$XEDIT
290
     1
  9
$CEPSNTYPE
380
     0
  9
$PSTYLEMODE
290
     1
  9
$FINGERPRINTGUID
  2
{76D08062-31F6-11D6-AFE6-00E04C3D640A}
  9
$VERSIONGUID
  2
{6EC303D3-A34C-F145-BCE6-1E6A475B7481}
  9
$EXTNAMES
290
     1
  9
$PSVPSCALE
 40
0.0
  9
$OLESTARTUP
290
     0
  9
$SORTENTS
280
    96
  9
$INDEXCTL
280
     0
  9
$HIDETEXT
280
     0
  9
$XCLIPFRAME
280
     0
  9
$HALOGAP
280
     0
  9
$OBSCOLOR
 70
   257
  9
$OBSLTYPE
280
     0
  9
$INTERSECTIONDISPLAY
280
     0
  9
$INTERSECTIONCOLOR
 70
   257
  9
$DIMASSOC
280
     1
  9
$PROJECTNAME
  1

  9
$CAMERADISPLAY
290
     0
  9
$LENSLENGTH
 40
50.0
  9
$CAMERAHEIGHT
 40
0.0
  9
$STEPSPERSEC
 40
2.0
  9
$STEPSIZE
 40
6.0
  9
$3DDWFPREC
 40
2.0
  9
$PSOLWIDTH
 40
0.25
  9
$PSOLHEIGHT
 40
4.0
  9
$LOFTANG1
 40
1.570796326794896
  9
$LOFTANG2
 40
1.570796326794896
  9
$LOFTMAG1
 40
0.0
  9
$LOFTMAG2
 40
0.0
  9
$LOFTPARAM
 70
     7
  9
$LOFTNORMALS
280
     1
  9
$LATITUDE
 40
37.795
  9
$LONGITUDE
 40
-122.394
  9
$NORTHDIRECTION
 40
0.0
  9
$TIMEZONE
 70
 -8000
  9
$LIGHTGLYPHDISPLAY
280
     1
  9
$TILEMODELIGHTSYNCH
280
     1
  9
$CMATERIAL
347
3580
  9
$SOLIDHIST
280
     0
  9
$SHOWHIST
280
     1
  9
$DWFFRAME
280
     2
  9
$DGNFRAME
280
     0
  9
$REALWORLDSCALE
290
     1
  9
$INTERFERECOLOR
 62
     1
  9
$INTERFEREOBJVS
345
35A2
  9
$INTERFEREVPVS
346
359F
  9
$CSHADOW
280
     0
  9
$SHADOWPLANELOCATION
 40
0.0
  0
ENDSEC
  0
SECTION
  2
CLASSES
  0
CLASS
  1
ACDBDICTIONARYWDFLT
  2
AcDbDictionaryWithDefault
  3
ObjectDBX Classes
 90
        0
 91
        1
280
     0
281
     0
  0
CLASS
  1
DICTIONARYVAR
  2
AcDbDictionaryVar
  3
ObjectDBX Classes
 90
        0
 91
       20
280
     0
281
     0
  0
CLASS
  1
TABLESTYLE
  2
AcDbTableStyle
  3
ObjectDBX Classes
 90
     4095
 91
        1
280
     0
281
     0
  0
CLASS
  1
SORTENTSTABLE
  2
AcDbSortentsTable
  3
ObjectDBX Classes
 90
        0
 91
        1
280
     0
281
     0
  0
CLASS
  1
DIMASSOC
  2
AcDbDimAssoc
  3
"AcDbDimAssoc|Product Desc:     AcDim ARX App For Dimension|Company:          Autodesk, Inc.|WEB Address:      www.autodesk.com"
 90
        0
 91
        0
280
     0
281
     0
  0
CLASS
  1
ARC_DIMENSION
  2
AcDbArcDimension
  3
ObjectDBX Classes
 90
     1025
 91
        0
280
     0
281
     1
  0
CLASS
  1
MATERIAL
  2
AcDbMaterial
  3
ObjectDBX Classes
 90
     1153
 91
        3
280
     0
281
     0
  0
CLASS
  1
VISUALSTYLE
  2
AcDbVisualStyle
  3
ObjectDBX Classes
 90
     4095
 91
       24
280
     0
281
     0
  0
CLASS
  1
SCALE
  2
AcDbScale
  3
ObjectDBX Classes
 90
     1153
 91
       17
280
     0
281
     0
  0
CLASS
  1
MLEADERSTYLE
  2
AcDbMLeaderStyle
  3
ACDB_MLEADERSTYLE_CLASS
 90
     4095
 91
        1
280
     0
281
     0
  0
CLASS
  1
ACDBSECTIONVIEWSTYLE
  2
AcDbSectionViewStyle
  3
ObjectDBX Classes
 90
     1025
 91
        1
280
     0
281
     0
  0
CLASS
  1
ACDBDETAILVIEWSTYLE
  2
AcDbDetailViewStyle
  3
ObjectDBX Classes
 90
     1025
 91
        1
280
     0
281
     0
  0
CLASS
  1
CELLSTYLEMAP
  2
AcDbCellStyleMap
  3
ObjectDBX Classes
 90
     1152
 91
        1
280
     0
281
     0
  0
ENDSEC
  0
SECTION
  2
TABLES
  0
TABLE
  2
VPORT
  5
8
330
0
100
AcDbSymbolTable
 70
     1
1001
ACAD
1000
DbSaveVer
1071
        5
  0
VPORT
  5
357E
330
8
100
AcDbSymbolTableRecord
100
AcDbViewportTableRecord
  2
*Active
 70
     0
 10
0.0
 20
0.0
 11
1.0
 21
1.0
 12
2484.099471811739
 22
215.5569964520378
 13
0.0
 23
0.0
 14
10.0
 24
10.0
 15
10.0
 25
10.0
 16
0.0
 26
0.0
 36
1.0
 17
0.0
 27
0.0
 37
0.0
 40
254.2876068599845
 41
2.292712066905615
 42
50.0
 43
0.0
 44
0.0
 50
0.0
 51
0.0
 71
     0
 72
 20000
 73
     1
 74
     3
 75
     0
 76
     0
 77
     0
 78
     0
281
     0
 65
     1
110
0.0
120
0.0
130
0.0
111
1.0
121
0.0
131
0.0
112
0.0
122
1.0
132
0.0
 79
     0
146
0.0
348
359E
 60
     3
 61
     5
292
     1
282
     1
141
0.0
142
0.0
 63
   250
421
  3355443
1001
ACAD_NAV_VCDISPLAY
1070
     3
  0
ENDTAB
  0
TABLE
  2
LTYPE
  5
5
330
0
100
AcDbSymbolTable
 70
     1
  0
LTYPE
  5
14
330
5
100
AcDbSymbolTableRecord
100
AcDbLinetypeTableRecord
  2
ByBlock
 70
     0
  3

 72
    65
 73
     0
 40
0.0
  0
LTYPE
  5
15
330
5
100
AcDbSymbolTableRecord
100
AcDbLinetypeTableRecord
  2
ByLayer
 70
     0
  3

 72
    65
 73
     0
 40
0.0
  0
LTYPE
  5
16
330
5
100
AcDbSymbolTableRecord
100
AcDbLinetypeTableRecord
  2
Continuous
 70
     0
  3
Solid line
 72
    65
 73
     0
 40
0.0
  0
ENDTAB
  0
TABLE
  2
LAYER
  5
2
102
{ACAD_XDICTIONARY
360
2B9E
102
}
330
0
100
AcDbSymbolTable
 70
     3
  0
LAYER
  5
10
102
{ACAD_XDICTIONARY
360
35D1
102
}
330
2
100
AcDbSymbolTableRecord
100
AcDbLayerTableRecord
  2
0
 70
     0
 62
     7
  6
Continuous
370
    -3
390
F
347
3590
348
0
  0
LAYER
  5
978
330
2
100
AcDbSymbolTableRecord
100
AcDbLayerTableRecord
  2
Defpoints
 70
     0
 62
     7
  6
Continuous
290
     0
370
    -3
390
F
347
3590
348
0
  0
LAYER
  5
C19
102
{ACAD_XDICTIONARY
360
35D3
102
}
330
2
100
AcDbSymbolTableRecord
100
AcDbLayerTableRecord
  2
轮廓线
 70
     0
 62
     7
  6
Continuous
370
    -3
390
F
347
3590
348
0
1001
AcadStringInfo
1000
MIFCodePage
1070
     5
  0
ENDTAB
  0
TABLE
  2
STYLE
  5
3
330
0
100
AcDbSymbolTable
 70
     3
  0
STYLE
  5
11
330
3
100
AcDbSymbolTableRecord
100
AcDbTextStyleTableRecord
  2
Standard
 70
     0
 40
0.0
 41
1.0
 50
0.0
 71
     0
 42
2.5
  3
ARIAL.TTF
  4

1001
ACAD
1000
Arial
1071
       34
  0
STYLE
  5
3474
330
3
100
AcDbSymbolTableRecord
100
AcDbTextStyleTableRecord
  2
GN3
 70
     0
 40
0.156
 41
1.0
 50
0.0
 71
     0
 42
0.2
  3
ARIAL.TTF
  4

1001
ACAD
1000
Arial
1071
       34
  0
STYLE
  5
3475
330
3
100
AcDbSymbolTableRecord
100
AcDbTextStyleTableRecord
  2
GN4
 70
     0
 40
0.188
 41
1.0
 50
0.0
 71
     0
 42
0.2
  3
ROMAND
  4

  0
ENDTAB
  0
TABLE
  2
VIEW
  5
6
330
0
100
AcDbSymbolTable
 70
     0
  0
ENDTAB
  0
TABLE
  2
UCS
  5
7
330
0
100
AcDbSymbolTable
 70
     0
  0
ENDTAB
  0
TABLE
  2
APPID
  5
9
330
0
100
AcDbSymbolTable
 70
    13
  0
APPID
  5
12
330
9
100
AcDbSymbolTableRecord
100
AcDbRegAppTableRecord
  2
ACAD
 70
     0
  0
APPID
  5
14AB
330
9
100
AcDbSymbolTableRecord
100
AcDbRegAppTableRecord
  2
ACAD_EXEMPT_FROM_CAD_STANDARDS
 70
     0
  0
APPID
  5
1738
330
9
100
AcDbSymbolTableRecord
100
AcDbRegAppTableRecord
  2
ACAD_DSTYLE_DIMTEXT_FILL
 70
     0
  0
APPID
  5
1739
330
9
100
AcDbSymbolTableRecord
100
AcDbRegAppTableRecord
  2
ACAD_DSTYLE_DIMEXT_LENGTH
 70
     0
  0
APPID
  5
173A
330
9
100
AcDbSymbolTableRecord
100
AcDbRegAppTableRecord
  2
ACAD_DSTYLE_DIMEXT_ENABLED
 70
     0
  0
APPID
  5
173B
330
9
100
AcDbSymbolTableRecord
100
AcDbRegAppTableRecord
  2
ACAD_DSTYLE_DIM_LINETYPE
 70
     0
  0
APPID
  5
173C
330
9
100
AcDbSymbolTableRecord
100
AcDbRegAppTableRecord
  2
ACAD_DSTYLE_DIM_EXT1_LINETYPE
 70
     0
  0
APPID
  5
173D
330
9
100
AcDbSymbolTableRecord
100
AcDbRegAppTableRecord
  2
ACAD_DSTYLE_DIM_EXT2_LINETYPE
 70
     0
  0
APPID
  5
2FE2
330
9
100
AcDbSymbolTableRecord
100
AcDbRegAppTableRecord
  2
ACAD_DSTYLE_DIMJOGGED_JOGANGLE_SYMBOL
 70
     0
  0
APPID
  5
3046
330
9
100
AcDbSymbolTableRecord
100
AcDbRegAppTableRecord
  2
ACAD_DSTYLE_DIMARC_LENGTH_SYMBOL
 70
     0
  0
APPID
  5
3476
330
9
100
AcDbSymbolTableRecord
100
AcDbRegAppTableRecord
  2
PSP
 70
     0
  0
APPID
  5
35C9
330
9
100
AcDbSymbolTableRecord
100
AcDbRegAppTableRecord
  2
AcadStringInfo
 70
     0
  0
APPID
  5
35D5
330
9
100
AcDbSymbolTableRecord
100
AcDbRegAppTableRecord
  2
ACAD_NAV_VCDISPLAY
 70
     0
  0
ENDTAB
  0
TABLE
  2
DIMSTYLE
  5
A
330
0
100
AcDbSymbolTable
 70
     1
100
AcDbDimStyleTable
 71
     1
340
27
  0
DIMSTYLE
105
27
102
{ACAD_REACTORS
330
322E
330
33E0
330
33ED
330
345D
102
}
330
A
100
AcDbSymbolTableRecord
100
AcDbDimStyleTableRecord
  2
ISO-25
 70
     0
 40
3.0
 41
2.5
 42
0.625
 43
3.75
 44
1.25
 49
1.25
 73
     0
 74
     0
 77
     1
 78
     8
140
3.0
141
2.5
143
0.03937007874016
147
0.625
171
     3
172
     1
176
   256
177
   256
178
   256
271
     1
272
     1
274
     3
283
     0
284
     8
340
11
371
    -1
372
    -1
1001
ACAD_DSTYLE_DIMJOGGED_JOGANGLE_SYMBOL
1070
   384
1040
0.7853981633974483
  0
ENDTAB
  0
TABLE
  2
BLOCK_RECORD
  5
1
330
0
100
AcDbSymbolTable
 70
     5
  0
BLOCK_RECORD
  5
1F
102
{ACAD_XDICTIONARY
360
AC9
102
}
330
1
100
AcDbSymbolTableRecord
100
AcDbBlockTableRecord
  2
*Model_Space
340
22
 70
     0
280
     1
281
     0
  0
BLOCK_RECORD
  5
1B
330
1
100
AcDbSymbolTableRecord
100
AcDbBlockTableRecord
  2
*Paper_Space
340
1E
 70
     0
280
     1
281
     0
  0
BLOCK_RECORD
  5
23
330
1
100
AcDbSymbolTableRecord
100
AcDbBlockTableRecord
  2
*Paper_Space0
340
26
 70
     0
280
     1
281
     0
  0
BLOCK_RECORD
  5
322F
330
1
100
AcDbSymbolTableRecord
100
AcDbBlockTableRecord
  2
*D1
340
0
 70
     0
280
     1
281
     0
  0
BLOCK_RECORD
  5
33E1
330
1
100
AcDbSymbolTableRecord
100
AcDbBlockTableRecord
  2
*D2
340
0
 70
     0
280
     1
281
     0
  0
BLOCK_RECORD
  5
33EE
330
1
100
AcDbSymbolTableRecord
100
AcDbBlockTableRecord
  2
*D3
340
0
 70
     0
280
     1
281
     0
  0
BLOCK_RECORD
  5
345E
330
1
100
AcDbSymbolTableRecord
100
AcDbBlockTableRecord
  2
*D4
340
0
 70
     0
280
     1
281
     0
  0
ENDTAB
  0
ENDSEC
  0
SECTION
  2
BLOCKS
  0
BLOCK
  5
20
330
1F
100
AcDbEntity
  8
0
100
AcDbBlockBegin
  2
*Model_Space
 70
     0
 10
0.0
 20
0.0
 30
0.0
  3
*Model_Space
  1

  0
ENDBLK
  5
21
330
1F
100
AcDbEntity
  8
0
100
AcDbBlockEnd
  0
BLOCK
  5
1C
330
1B
100
AcDbEntity
 67
     1
  8
0
100
AcDbBlockBegin
  2
*Paper_Space
 70
     0
 10
0.0
 20
0.0
 30
0.0
  3
*Paper_Space
  1

  0
ENDBLK
  5
1D
330
1B
100
AcDbEntity
 67
     1
  8
0
100
AcDbBlockEnd
  0
BLOCK
  5
24
330
23
100
AcDbEntity
 67
     1
  8
0
100
AcDbBlockBegin
  2
*Paper_Space0
 70
     0
 10
0.0
 20
0.0
 30
0.0
  3
*Paper_Space0
  1

  0
ENDBLK
  5
25
330
23
100
AcDbEntity
 67
     1
  8
0
100
AcDbBlockEnd
  0
BLOCK
  5
3239
330
322F
100
AcDbEntity
  8
0
100
AcDbBlockBegin
  2
*D1
 70
     1
 10
0.0
 20
0.0
 30
0.0
  3
*D1
  1

  0
LINE
  5
355A
330
322F
100
AcDbEntity
  8
0
440
 16777216
100
AcDbLine
 10
2683.832377600137
 20
305.0765074266564
 30
0.0
 11
2701.62824409153
 21
305.0765074266563
 31
0.0
  0
LINE
  5
355B
330
322F
100
AcDbEntity
  8
0
440
 16777216
100
AcDbLine
 10
2683.832377600136
 20
229.3865297380804
 30
0.0
 11
2701.62824409153
 21
229.3865297380804
 31
0.0
  0
LINE
  5
355C
330
322F
100
AcDbEntity
  8
0
440
 16777216
100
AcDbLine
 10
2697.87824409153
 20
297.5765074266563
 30
0.0
 11
2697.87824409153
 21
236.8865297380804
 31
0.0
  0
SOLID
  5
355D
330
322F
100
AcDbEntity
  8
0
440
 16777216
100
AcDbTrace
 10
2696.628244091531
 20
297.5765074266563
 30
0.0
 11
2699.12824409153
 21
297.5765074266563
 31
0.0
 12
2697.87824409153
 22
305.0765074266563
 32
0.0
 13
2697.87824409153
 23
305.0765074266563
 33
0.0
  0
SOLID
  5
355E
330
322F
100
AcDbEntity
  8
0
440
 16777216
100
AcDbTrace
 10
2696.628244091531
 20
236.8865297380804
 30
0.0
 11
2699.12824409153
 21
236.8865297380804
 31
0.0
 12
2697.87824409153
 22
229.3865297380804
 32
0.0
 13
2697.87824409153
 23
229.3865297380804
 33
0.0
  0
MTEXT
  5
355F
330
322F
100
AcDbEntity
  8
0
440
 16777216
100
AcDbMText
 10
2691.426504664518
 20
267.2315185823688
 30
0.0
 40
9.0
 41
0.0
 46
0.0
 71
     5
 72
     1
  1
75.7
 11
0.0000000000000001
 21
1.0
 31
0.0
 73
     1
 44
1.0
  0
POINT
  5
3560
330
322F
100
AcDbEntity
  8
Defpoints
 62
     0
440
 16777216
100
AcDbPoint
 10
2681.957377600137
 20
305.0765074266564
 30
0.0
  0
POINT
  5
3561
330
322F
100
AcDbEntity
  8
Defpoints
 62
     0
440
 16777216
100
AcDbPoint
 10
2681.957377600136
 20
229.3865297380804
 30
0.0
  0
POINT
  5
3562
330
322F
100
AcDbEntity
  8
Defpoints
 62
     0
440
 16777216
100
AcDbPoint
 10
2697.87824409153
 20
229.3865297380804
 30
0.0
  0
ENDBLK
  5
323A
330
322F
100
AcDbEntity
  8
0
100
AcDbBlockEnd
  0
BLOCK
  5
33EB
330
33E1
100
AcDbEntity
  8
0
100
AcDbBlockBegin
  2
*D2
 70
     1
 10
0.0
 20
0.0
 30
0.0
  3
*D2
  1

  0
LINE
  5
3563
330
33E1
100
AcDbEntity
  8
0
440
 16777216
100
AcDbLine
 10
2654.973329588553
 20
198.215663402896
 30
0.0
 11
2654.973329588553
 21
214.4163102029251
 31
0.0
  0
LINE
  5
3564
330
33E1
100
AcDbEntity
  8
0
440
 16777216
100
AcDbLine
 10
2449.973329588553
 20
198.215663402896
 30
0.0
 11
2449.973329588553
 21
214.4163102029251
 31
0.0
  0
LINE
  5
3565
330
33E1
100
AcDbEntity
  8
0
440
 16777216
100
AcDbLine
 10
2647.473329588553
 20
210.6663102029251
 30
0.0
 11
2457.473329588553
 21
210.6663102029251
 31
0.0
  0
SOLID
  5
3566
330
33E1
100
AcDbEntity
  8
0
440
 16777216
100
AcDbTrace
 10
2647.473329588553
 20
211.9163102029252
 30
0.0
 11
2647.473329588553
 21
209.4163102029252
 31
0.0
 12
2654.973329588553
 22
210.6663102029251
 32
0.0
 13
2654.973329588553
 23
210.6663102029251
 33
0.0
  0
SOLID
  5
3567
330
33E1
100
AcDbEntity
  8
0
440
 16777216
100
AcDbTrace
 10
2457.473329588553
 20
211.9163102029252
 30
0.0
 11
2457.473329588553
 21
209.4163102029252
 31
0.0
 12
2449.973329588553
 22
210.6663102029251
 32
0.0
 13
2449.973329588553
 23
210.6663102029251
 33
0.0
  0
MTEXT
  5
3568
330
33E1
100
AcDbEntity
  8
0
440
 16777216
100
AcDbMText
 10
2552.473329588553
 20
217.1364670924204
 30
0.0
 40
9.0
 41
0.0
 46
0.0
 71
     5
 72
     1
  1
205
 73
     1
 44
1.0
  0
POINT
  5
3569
330
33E1
100
AcDbEntity
  8
Defpoints
 62
     0
440
 16777216
100
AcDbPoint
 10
2654.973329588553
 20
196.340663402896
 30
0.0
  0
POINT
  5
356A
330
33E1
100
AcDbEntity
  8
Defpoints
 62
     0
440
 16777216
100
AcDbPoint
 10
2449.973329588553
 20
196.340663402896
 30
0.0
  0
POINT
  5
356B
330
33E1
100
AcDbEntity
  8
Defpoints
 62
     0
440
 16777216
100
AcDbPoint
 10
2449.973329588553
 20
210.6663102029251
 30
0.0
  0
ENDBLK
  5
33EC
330
33E1
100
AcDbEntity
  8
0
100
AcDbBlockEnd
  0
BLOCK
  5
33F8
330
33EE
100
AcDbEntity
  8
0
100
AcDbBlockBegin
  2
*D3
 70
     1
 10
0.0
 20
0.0
 30
0.0
  3
*D3
  1

  0
LINE
  5
356C
330
33EE
100
AcDbEntity
  8
0
440
 16777216
100
AcDbLine
 10
2674.951771873117
 20
311.6650217273232
 30
0.0
 11
2674.951771873117
 21
332.1127600702655
 31
0.0
  0
LINE
  5
356D
330
33EE
100
AcDbEntity
  8
0
440
 16777216
100
AcDbLine
 10
2429.973329588553
 20
312.5933771993119
 30
0.0
 11
2429.973329588553
 21
332.1127600702655
 31
0.0
  0
LINE
  5
356E
330
33EE
100
AcDbEntity
  8
0
440
 16777216
100
AcDbLine
 10
2667.451771873116
 20
328.3627600702655
 30
0.0
 11
2437.473329588553
 21
328.3627600702655
 31
0.0
  0
SOLID
  5
356F
330
33EE
100
AcDbEntity
  8
0
440
 16777216
100
AcDbTrace
 10
2667.451771873116
 20
329.6127600702655
 30
0.0
 11
2667.451771873116
 21
327.1127600702655
 31
0.0
 12
2674.951771873117
 22
328.3627600702655
 32
0.0
 13
2674.951771873117
 23
328.3627600702655
 33
0.0
  0
SOLID
  5
3570
330
33EE
100
AcDbEntity
  8
0
440
 16777216
100
AcDbTrace
 10
2437.473329588553
 20
329.6127600702655
 30
0.0
 11
2437.473329588553
 21
327.1127600702655
 31
0.0
 12
2429.973329588553
 22
328.3627600702655
 32
0.0
 13
2429.973329588553
 23
328.3627600702655
 33
0.0
  0
MTEXT
  5
3571
330
33EE
100
AcDbEntity
  8
0
440
 16777216
100
AcDbMText
 10
2552.462550730835
 20
334.8329169597607
 30
0.0
 40
9.0
 41
0.0
 46
0.0
 71
     5
 72
     1
  1
245
 73
     1
 44
1.0
  0
POINT
  5
3572
330
33EE
100
AcDbEntity
  8
Defpoints
 62
     0
440
 16777216
100
AcDbPoint
 10
2674.951771873117
 20
309.7900217273231
 30
0.0
  0
POINT
  5
3573
330
33EE
100
AcDbEntity
  8
Defpoints
 62
     0
440
 16777216
100
AcDbPoint
 10
2429.973329588553
 20
310.7183771993119
 30
0.0
  0
POINT
  5
3574
330
33EE
100
AcDbEntity
  8
Defpoints
 62
     0
440
 16777216
100
AcDbPoint
 10
2429.973329588553
 20
328.3627600702655
 30
0.0
  0
ENDBLK
  5
33F9
330
33EE
100
AcDbEntity
  8
0
100
AcDbBlockEnd
  0
BLOCK
  5
3468
330
345E
100
AcDbEntity
  8
0
100
AcDbBlockBegin
  2
*D4
 70
     1
 10
0.0
 20
0.0
 30
0.0
  3
*D4
  1

  0
LINE
  5
3551
330
345E
100
AcDbEntity
  8
0
440
 16777216
100
AcDbLine
 10
2681.789921986956
 20
196.340663402896
 30
0.0
 11
2701.488211435856
 21
196.340663402896
 31
0.0
  0
LINE
  5
3552
330
345E
100
AcDbEntity
  8
0
440
 16777216
100
AcDbLine
 10
2681.789921986956
 20
89.34066340289604
 30
0.0
 11
2701.488211435856
 21
89.34066340289604
 31
0.0
  0
LINE
  5
3553
330
345E
100
AcDbEntity
  8
0
440
 16777216
100
AcDbLine
 10
2697.738211435856
 20
188.840663402896
 30
0.0
 11
2697.738211435856
 21
96.84066340289604
 31
0.0
  0
SOLID
  5
3554
330
345E
100
AcDbEntity
  8
0
440
 16777216
100
AcDbTrace
 10
2696.488211435856
 20
188.840663402896
 30
0.0
 11
2698.988211435856
 21
188.840663402896
 31
0.0
 12
2697.738211435856
 22
196.340663402896
 32
0.0
 13
2697.738211435856
 23
196.340663402896
 33
0.0
  0
SOLID
  5
3555
330
345E
100
AcDbEntity
  8
0
440
 16777216
100
AcDbTrace
 10
2696.488211435856
 20
96.84066340289604
 30
0.0
 11
2698.988211435856
 21
96.84066340289604
 31
0.0
 12
2697.738211435856
 22
89.34066340289604
 32
0.0
 13
2697.738211435856
 23
89.34066340289604
 33
0.0
  0
MTEXT
  5
3556
330
345E
100
AcDbEntity
  8
0
440
 16777216
100
AcDbMText
 10
2691.268054546361
 20
142.8406634028964
 30
0.0
 40
9.0
 41
0.0
 46
0.0
 71
     5
 72
     1
  1
107
 11
0.0000000000000001
 21
1.0
 31
0.0
 73
     1
 44
1.0
  0
POINT
  5
3557
330
345E
100
AcDbEntity
  8
Defpoints
 62
     0
440
 16777216
100
AcDbPoint
 10
2679.914921986956
 20
196.340663402896
 30
0.0
  0
POINT
  5
3558
330
345E
100
AcDbEntity
  8
Defpoints
 62
     0
440
 16777216
100
AcDbPoint
 10
2679.914921986956
 20
89.34066340289604
 30
0.0
  0
POINT
  5
3559
330
345E
100
AcDbEntity
  8
Defpoints
 62
     0
440
 16777216
100
AcDbPoint
 10
2697.738211435856
 20
89.34066340289604
 30
0.0
  0
ENDBLK
  5
3469
330
345E
100
AcDbEntity
  8
0
100
AcDbBlockEnd
  0
ENDSEC
  0
SECTION
  2
ENTITIES
  0
ARC
  5
2C53
330
1F
100
AcDbEntity
  8
0
100
AcDbCircle
 10
2449.973329588553
 20
250.8034451025904
 30
0.0
 40
20.0
100
AcDbArc
 50
16.85795602249988
 51
348.4630409671843
  0
ARC
  5
2C54
330
1F
100
AcDbEntity
  8
0
100
AcDbCircle
 10
2654.973329588553
 20
250.8034451025904
 30
0.0
 40
20.0
100
AcDbArc
 50
191.5369590328157
 51
163.1420439775016
  0
ARC
  5
2C56
330
1F
100
AcDbEntity
  8
0
100
AcDbCircle
 10
2449.973329588553
 20
250.8034451025904
 30
0.0
 40
10.0
100
AcDbArc
 50
23.57817847820342
 51
335.1654125103016
  0
ARC
  5
2C57
330
1F
100
AcDbEntity
  8
0
100
AcDbCircle
 10
2654.973329588553
 20
250.8034451025904
 30
0.0
 40
10.0
100
AcDbArc
 50
203.5781784782034
 51
156.4218215217966
  0
LINE
  5
2C5B
330
1F
100
AcDbEntity
  8
0
100
AcDbLine
 10
2660.973329588553
 20
254.8034451025904
 30
0.0
 11
2660.973329588553
 21
246.8034451025904
 31
0.0
  0
LINE
  5
2C8B
330
1F
100
AcDbEntity
  8
0
100
AcDbLine
 10
2468.873329588553
 20
196.340663402896
 30
0.0
 11
2431.073329588553
 21
196.340663402896
 31
0.0
  0
LINE
  5
2C96
330
1F
100
AcDbEntity
  8
0
100
AcDbLine
 10
2429.973329588553
 20
196.340663402896
 30
0.0
 11
2469.973329588553
 21
196.340663402896
 31
0.0
  0
LINE
  5
2C97
330
1F
100
AcDbEntity
  8
0
100
AcDbLine
 10
2469.973329588553
 20
196.340663402896
 30
0.0
 11
2469.973329588553
 21
191.340663402896
 31
0.0
  0
LINE
  5
2C99
330
1F
100
AcDbEntity
  8
0
100
AcDbLine
 10
2429.973329588553
 20
196.340663402896
 30
0.0
 11
2429.973329588553
 21
191.340663402896
 31
0.0
  0
ARC
  5
2CA1
330
1F
100
AcDbEntity
  8
0
100
AcDbCircle
 10
2431.973329588553
 20
191.340663402896
 30
0.0
 40
2.0
100
AcDbArc
 50
180.0
 51
270.0
  0
ARC
  5
2CA2
330
1F
100
AcDbEntity
  8
0
100
AcDbCircle
 10
2467.973329588553
 20
191.340663402896
 30
0.0
 40
2.0
100
AcDbArc
 50
270.0
 51
0.0
  0
LINE
  5
2CA8
330
1F
100
AcDbEntity
  8
0
100
AcDbLine
 10
2439.973329588553
 20
189.340663402896
 30
0.0
 11
2439.973329588553
 21
89.34066340289604
 31
0.0
  0
LINE
  5
2CA9
330
1F
100
AcDbEntity
  8
0
100
AcDbLine
 10
2459.973329588553
 20
189.3406634028961
 30
0.0
 11
2459.973329588553
 21
89.34066340289604
 31
0.0
  0
LINE
  5
2CB6
330
1F
100
AcDbEntity
  8
0
100
AcDbLine
 10
2439.973329588553
 20
89.34066340289604
 30
0.0
 11
2664.973329588554
 21
89.34066340289604
 31
0.0
  0
LINE
  5
2CB7
330
1F
100
AcDbEntity
  8
0
100
AcDbLine
 10
2459.973329588553
 20
97.34066340289604
 30
0.0
 11
2644.973329588553
 21
97.34066340289604
 31
0.0
  0
LINE
  5
2CB8
330
1F
100
AcDbEntity
  8
0
100
AcDbLine
 10
2664.973329588554
 20
189.340663402896
 30
0.0
 11
2664.973329588554
 21
89.34066340289604
 31
0.0
  0
LINE
  5
2CBA
330
1F
100
AcDbEntity
  8
0
100
AcDbLine
 10
2644.973329588553
 20
189.340663402896
 30
0.0
 11
2644.973329588553
 21
89.34066340289604
 31
0.0
  0
ARC
  5
2CBD
330
1F
100
AcDbEntity
  8
0
100
AcDbCircle
 10
2636.973329588553
 20
191.340663402896
 30
0.0
 40
2.0
100
AcDbArc
 50
180.0
 51
270.0
  0
LINE
  5
2CBE
330
1F
100
AcDbEntity
  8
0
100
AcDbLine
 10
2674.973329588553
 20
196.340663402896
 30
0.0
 11
2634.973329588553
 21
196.340663402896
 31
0.0
  0
LINE
  5
2CC1
330
1F
100
AcDbEntity
  8
0
100
AcDbLine
 10
2636.073329588553
 20
196.340663402896
 30
0.0
 11
2673.873329588553
 21
196.340663402896
 31
0.0
  0
LINE
  5
2CC4
330
1F
100
AcDbEntity
  8
0
100
AcDbLine
 10
2674.973329588553
 20
196.340663402896
 30
0.0
 11
2674.973329588553
 21
191.340663402896
 31
0.0
  0
ARC
  5
2CC6
330
1F
100
AcDbEntity
  8
0
100
AcDbCircle
 10
2672.973329588553
 20
191.340663402896
 30
0.0
 40
2.0
100
AcDbArc
 50
270.0
 51
0.0
  0
LINE
  5
2CD5
330
1F
100
AcDbEntity
  8
0
100
AcDbLine
 10
2634.973329588553
 20
196.340663402896
 30
0.0
 11
2634.973329588553
 21
191.340663402896
 31
0.0
  0
ARC
  5
2D54
330
1F
100
AcDbEntity
  8
0
100
AcDbCircle
 10
2467.723329588553
 20
254.6034451025905
 30
0.0
 40
2.0
100
AcDbArc
 50
90.0
 51
127.8828365662035
  0
LINE
  5
2D55
330
1F
100
AcDbEntity
  8
0
100
AcDbLine
 10
2464.723329588553
 20
254.8034451025904
 30
0.0
 11
2466.495231997051
 21
256.1819812300668
 31
0.0
  0
LINE
  5
2D59
330
1F
100
AcDbEntity
  8
0
100
AcDbLine
 10
2535.223329588553
 20
254.8034451025904
 30
0.0
 11
2540.973329588553
 21
254.8034451025904
 31
0.0
  0
LINE
  5
2D5C
330
1F
100
AcDbEntity
  8
0
100
AcDbLine
 10
2535.223329588553
 20
254.8034451025904
 30
0.0
 11
2533.451427180054
 21
256.1819812300668
 31
0.0
  0
ARC
  5
2D5D
330
1F
100
AcDbEntity
  8
0
100
AcDbCircle
 10
2532.223329588553
 20
254.6034451025905
 30
0.0
 40
2.0
100
AcDbArc
 50
52.11716343379643
 51
90.0
  0
LINE
  5
2D63
330
1F
100
AcDbEntity
  8
0
100
AcDbLine
 10
2532.223329588553
 20
256.6034451025904
 30
0.0
 11
2467.723329588553
 21
256.6034451025905
 31
0.0
  0
LINE
  5
2D65
330
1F
100
AcDbEntity
  8
0
100
AcDbLine
 10
2540.973329588553
 20
254.8034451025904
 30
0.0
 11
2542.745231997051
 21
256.1819812300667
 31
0.0
  0
ARC
  5
2D66
330
1F
100
AcDbEntity
  8
0
100
AcDbCircle
 10
2543.973329588553
 20
254.6034451025905
 30
0.0
 40
2.0
100
AcDbArc
 50
90.0
 51
127.8828365662035
  0
ARC
  5
2D6D
330
1F
100
AcDbEntity
  8
0
100
AcDbCircle
 10
2560.973329588553
 20
254.6034451025905
 30
0.0
 40
2.0
100
AcDbArc
 50
52.11716343379643
 51
90.0
  0
LINE
  5
2D6F
330
1F
100
AcDbEntity
  8
0
100
AcDbLine
 10
2563.973329588553
 20
254.8034451025904
 30
0.0
 11
2562.201427180055
 21
256.1819812300667
 31
0.0
  0
LINE
  5
2D74
330
1F
100
AcDbEntity
  8
0
100
AcDbLine
 10
2543.973329588553
 20
256.6034451025904
 30
0.0
 11
2560.973329588553
 21
256.6034451025904
 31
0.0
  0
ARC
  5
2D78
330
1F
100
AcDbEntity
  8
0
100
AcDbCircle
 10
2572.723329588553
 20
254.6034451025905
 30
0.0
 40
2.0
100
AcDbArc
 50
90.0
 51
127.8828365662035
  0
LINE
  5
2D7A
330
1F
100
AcDbEntity
  8
0
100
AcDbLine
 10
2569.723329588553
 20
254.8034451025904
 30
0.0
 11
2571.495231997051
 21
256.1819812300668
 31
0.0
  0
LINE
  5
2D7D
330
1F
100
AcDbEntity
  8
0
100
AcDbLine
 10
2572.723329588553
 20
256.6034451025904
 30
0.0
 11
2637.223329588553
 21
256.6034451025905
 31
0.0
  0
LINE
  5
2D7F
330
1F
100
AcDbEntity
  8
0
100
AcDbLine
 10
2640.223329588553
 20
254.8034451025904
 30
0.0
 11
2638.451427180055
 21
256.1819812300668
 31
0.0
  0
ARC
  5
2D80
330
1F
100
AcDbEntity
  8
0
100
AcDbCircle
 10
2637.223329588553
 20
254.6034451025905
 30
0.0
 40
2.0
100
AcDbArc
 50
52.11716343379643
 51
90.0
  0
LINE
  5
2D85
330
1F
100
AcDbEntity
  8
0
100
AcDbLine
 10
2563.973329588553
 20
254.8034451025904
 30
0.0
 11
2569.723329588553
 21
254.8034451025904
 31
0.0
  0
CIRCLE
  5
2D8E
330
1F
100
AcDbEntity
  8
0
100
AcDbCircle
 10
2499.973329588553
 20
141.340663402896
 30
0.0
 40
30.25
  0
CIRCLE
  5
2D8F
330
1F
100
AcDbEntity
  8
0
100
AcDbCircle
 10
2604.973329588553
 20
141.340663402896
 30
0.0
 40
30.25
  0
CIRCLE
  5
2D90
330
1F
100
AcDbEntity
  8
0
100
AcDbCircle
 10
2604.973329588553
 20
141.340663402896
 30
0.0
 40
35.25
  0
CIRCLE
  5
2D91
330
1F
100
AcDbEntity
  8
0
100
AcDbCircle
 10
2499.973329588553
 20
141.340663402896
 30
0.0
 40
35.25
  0
ARC
  5
2D92
330
1F
100
AcDbEntity
  8
0
100
AcDbCircle
 10
2554.773329588553
 20
165.340663402896
 30
0.0
 40
4.2
100
AcDbArc
 50
270.0
 51
90.0
  0
ARC
  5
2D93
330
1F
100
AcDbEntity
  8
0
100
AcDbCircle
 10
2550.173329588553
 20
165.340663402896
 30
0.0
 40
4.2
100
AcDbArc
 50
90.0
 51
270.0
  0
LINE
  5
2D94
330
1F
100
AcDbEntity
  8
0
100
AcDbLine
 10
2550.173329588553
 20
169.540663402896
 30
0.0
 11
2554.773329588553
 21
169.540663402896
 31
0.0
  0
LINE
  5
2D95
330
1F
100
AcDbEntity
  8
0
100
AcDbLine
 10
2550.173329588553
 20
161.140663402896
 30
0.0
 11
2554.773329588553
 21
161.140663402896
 31
0.0
  0
ARC
  5
2D96
330
1F
100
AcDbEntity
  8
0
100
AcDbCircle
 10
2550.173329588553
 20
165.340663402896
 30
0.0
 40
9.199999999999999
100
AcDbArc
 50
90.0
 51
270.0
  0
LINE
  5
2D97
330
1F
100
AcDbEntity
  8
0
100
AcDbLine
 10
2550.173329588553
 20
174.540663402896
 30
0.0
 11
2554.773329588553
 21
174.540663402896
 31
0.0
  0
ARC
  5
2D98
330
1F
100
AcDbEntity
  8
0
100
AcDbCircle
 10
2554.773329588553
 20
165.340663402896
 30
0.0
 40
9.199999999999999
100
AcDbArc
 50
270.0
 51
90.0
  0
LINE
  5
2D99
330
1F
100
AcDbEntity
  8
0
100
AcDbLine
 10
2550.173329588553
 20
156.140663402896
 30
0.0
 11
2554.773329588553
 21
156.140663402896
 31
0.0
  0
ARC
  5
2D9A
330
1F
100
AcDbEntity
  8
0
100
AcDbCircle
 10
2554.773329588553
 20
141.340663402896
 30
0.0
 40
9.199999999999999
100
AcDbArc
 50
270.0
 51
90.0
  0
ARC
  5
2D9B
330
1F
100
AcDbEntity
  8
0
100
AcDbCircle
 10
2550.173329588553
 20
141.340663402896
 30
0.0
 40
9.199999999999999
100
AcDbArc
 50
90.0
 51
270.0
  0
LINE
  5
2D9C
330
1F
100
AcDbEntity
  8
0
100
AcDbLine
 10
2550.173329588553
 20
132.140663402896
 30
0.0
 11
2554.773329588553
 21
132.140663402896
 31
0.0
  0
ARC
  5
2D9D
330
1F
100
AcDbEntity
  8
0
100
AcDbCircle
 10
2550.173329588553
 20
141.340663402896
 30
0.0
 40
4.2
100
AcDbArc
 50
90.0
 51
270.0
  0
ARC
  5
2D9E
330
1F
100
AcDbEntity
  8
0
100
AcDbCircle
 10
2554.773329588553
 20
141.340663402896
 30
0.0
 40
4.2
100
AcDbArc
 50
270.0
 51
90.0
  0
LINE
  5
2D9F
330
1F
100
AcDbEntity
  8
0
100
AcDbLine
 10
2550.173329588553
 20
137.140663402896
 30
0.0
 11
2554.773329588553
 21
137.140663402896
 31
0.0
  0
LINE
  5
2DA0
330
1F
100
AcDbEntity
  8
0
100
AcDbLine
 10
2550.173329588553
 20
145.540663402896
 30
0.0
 11
2554.773329588553
 21
145.540663402896
 31
0.0
  0
LINE
  5
2DA1
330
1F
100
AcDbEntity
  8
0
100
AcDbLine
 10
2550.173329588553
 20
150.540663402896
 30
0.0
 11
2554.773329588553
 21
150.540663402896
 31
0.0
  0
ARC
  5
2DA2
330
1F
100
AcDbEntity
  8
0
100
AcDbCircle
 10
2550.173329588553
 20
117.340663402896
 30
0.0
 40
4.2
100
AcDbArc
 50
90.0
 51
270.0
  0
ARC
  5
2DA3
330
1F
100
AcDbEntity
  8
0
100
AcDbCircle
 10
2550.173329588553
 20
117.340663402896
 30
0.0
 40
9.199999999999999
100
AcDbArc
 50
90.0
 51
270.0
  0
ARC
  5
2DA4
330
1F
100
AcDbEntity
  8
0
100
AcDbCircle
 10
2554.773329588553
 20
117.340663402896
 30
0.0
 40
9.199999999999999
100
AcDbArc
 50
270.0
 51
90.0
  0
LINE
  5
2DA5
330
1F
100
AcDbEntity
  8
0
100
AcDbLine
 10
2550.173329588553
 20
108.140663402896
 30
0.0
 11
2554.773329588553
 21
108.140663402896
 31
0.0
  0
ARC
  5
2DA6
330
1F
100
AcDbEntity
  8
0
100
AcDbCircle
 10
2554.773329588553
 20
117.340663402896
 30
0.0
 40
4.2
100
AcDbArc
 50
270.0
 51
90.0
  0
LINE
  5
2DA7
330
1F
100
AcDbEntity
  8
0
100
AcDbLine
 10
2550.173329588553
 20
113.1406634028961
 30
0.0
 11
2554.773329588553
 21
113.1406634028961
 31
0.0
  0
LINE
  5
2DA8
330
1F
100
AcDbEntity
  8
0
100
AcDbLine
 10
2550.173329588553
 20
121.540663402896
 30
0.0
 11
2554.773329588553
 21
121.540663402896
 31
0.0
  0
LINE
  5
2DA9
330
1F
100
AcDbEntity
  8
0
100
AcDbLine
 10
2550.173329588553
 20
126.540663402896
 30
0.0
 11
2554.773329588553
 21
126.540663402896
 31
0.0
  0
LINE
  5
2DF8
330
1F
100
AcDbEntity
  8
0
100
AcDbLine
 10
2585.370368261153
 20
229.3869020939526
 30
0.0
 11
2585.641822738817
 21
229.3955509829286
 31
0.0
  0
LINE
  5
2DF9
330
1F
100
AcDbEntity
  8
0
100
AcDbLine
 10
2585.641822738817
 20
229.3865297380804
 30
0.0
 11
2624.304836438288
 21
229.3865297380804
 31
0.0
  0
LINE
  5
2DFA
330
1F
100
AcDbEntity
  8
0
100
AcDbLine
 10
2624.304836438288
 20
229.3955509829286
 30
0.0
 11
2585.641822738817
 21
229.3955509829286
 31
0.0
  0
LINE
  5
2DFB
330
1F
100
AcDbEntity
  8
0
100
AcDbLine
 10
2624.576290915952
 20
229.3869020939526
 30
0.0
 11
2624.304836438288
 21
229.3955509829286
 31
0.0
  0
LINE
  5
2DFD
330
1F
100
AcDbEntity
  8
0
100
AcDbLine
 10
2578.827139202363
 20
257.8939770268142
 30
0.0
 11
2579.463600072182
 21
256.6034451025905
 31
0.0
  0
LINE
  5
2DFF
330
1F
100
AcDbEntity
  8
0
100
AcDbLine
 10
2578.373329587746
 20
304.1565074276963
 30
0.0
 11
2578.373329587746
 21
259.8401479955685
 31
0.0
  0
LINE
  5
2E01
330
1F
100
AcDbEntity
  8
0
100
AcDbLine
 10
2581.373329588241
 20
246.8034451025904
 30
0.0
 11
2581.373329588241
 21
233.3865297380644
 31
0.0
  0
LINE
  5
2E02
330
1F
100
AcDbEntity
  8
0
100
AcDbLine
 10
2628.573329588864
 20
246.8034451025904
 30
0.0
 11
2628.573329588864
 21
233.3865297380644
 31
0.0
  0
LINE
  5
2E03
330
1F
100
AcDbEntity
  8
0
100
AcDbLine
 10
2631.573329587328
 20
304.1565074276963
 30
0.0
 11
2631.573329587328
 21
259.8401479955685
 31
0.0
  0
LINE
  5
2E04
330
1F
100
AcDbEntity
  8
0
100
AcDbLine
 10
2631.119519973232
 20
257.8939770278727
 30
0.0
 11
2630.48305910351
 21
256.6034451025904
 31
0.0
  0
LINE
  5
2E05
330
1F
100
AcDbEntity
  8
0
100
AcDbLine
 10
2579.293329588737
 20
305.0765074266563
 30
0.0
 11
2630.653329588369
 21
305.0765074266563
 31
0.0
  0
ARC
  5
2E06
330
1F
100
AcDbEntity
  8
0
100
AcDbCircle
 10
2624.573329588881
 20
233.3865297380644
 30
0.0
 40
3.999999999983999
100
AcDbArc
 50
270.0
 51
0.0
  0
ARC
  5
2E07
330
1F
100
AcDbEntity
  8
0
100
AcDbCircle
 10
2627.17332958877
 20
259.8401479955685
 30
0.0
 40
4.400000000592
100
AcDbArc
 50
333.7485374592043
 51
0.0
  0
ARC
  5
2E09
330
1F
100
AcDbEntity
  8
0
100
AcDbCircle
 10
2585.373329588226
 20
233.3865297380644
 30
0.0
 40
3.999999999983999
100
AcDbArc
 50
180.0
 51
269.9575781647016
  0
ARC
  5
2E0A
330
1F
100
AcDbEntity
  8
0
100
AcDbCircle
 10
2630.653329588369
 20
304.1565074276963
 30
0.0
 40
0.9200000009919998
100
AcDbArc
 50
0.0
 51
90.00380805874687
  0
ARC
  5
2E0B
330
1F
100
AcDbEntity
  8
0
100
AcDbCircle
 10
2579.293329588737
 20
304.1565074276963
 30
0.0
 40
0.9200000009919998
100
AcDbArc
 50
89.99619194125314
 51
180.0
  0
ARC
  5
2E0C
330
1F
100
AcDbEntity
  8
0
100
AcDbCircle
 10
2582.773329588337
 20
259.8401479955685
 30
0.0
 40
4.400000000592
100
AcDbArc
 50
180.0
 51
206.2514625407957
  0
LINE
  5
2E0D
330
1F
100
AcDbEntity
  8
0
100
AcDbLine
 10
2480.370368261153
 20
229.3869020939526
 30
0.0
 11
2480.641822738817
 21
229.3955509829286
 31
0.0
  0
LINE
  5
2E0E
330
1F
100
AcDbEntity
  8
0
100
AcDbLine
 10
2480.641822738817
 20
229.3865297380804
 30
0.0
 11
2519.304836438289
 21
229.3865297380804
 31
0.0
  0
LINE
  5
2E0F
330
1F
100
AcDbEntity
  8
0
100
AcDbLine
 10
2519.304836438289
 20
229.3955509829286
 30
0.0
 11
2480.641822738817
 21
229.3955509829286
 31
0.0
  0
LINE
  5
2E10
330
1F
100
AcDbEntity
  8
0
100
AcDbLine
 10
2519.576290915952
 20
229.3869020939526
 30
0.0
 11
2519.304836438289
 21
229.3955509829286
 31
0.0
  0
LINE
  5
2E11
330
1F
100
AcDbEntity
  8
0
100
AcDbLine
 10
2473.827114050108
 20
257.8940280272608
 30
0.0
 11
2474.463600072182
 21
256.6034451025905
 31
0.0
  0
LINE
  5
2E12
330
1F
100
AcDbEntity
  8
0
100
AcDbLine
 10
2473.373329587746
 20
304.1565074276963
 30
0.0
 11
2473.373329587746
 21
259.8401479955685
 31
0.0
  0
LINE
  5
2E13
330
1F
100
AcDbEntity
  8
0
100
AcDbLine
 10
2476.373329588242
 20
246.8034451025904
 30
0.0
 11
2476.373329588242
 21
233.3865297380644
 31
0.0
  0
LINE
  5
2E14
330
1F
100
AcDbEntity
  8
0
100
AcDbLine
 10
2523.573329588865
 20
246.8034451025904
 30
0.0
 11
2523.573329588865
 21
233.3865297380644
 31
0.0
  0
LINE
  5
2E15
330
1F
100
AcDbEntity
  8
0
100
AcDbLine
 10
2526.573329587329
 20
304.1565074276963
 30
0.0
 11
2526.573329587329
 21
259.8401479955685
 31
0.0
  0
LINE
  5
2E16
330
1F
100
AcDbEntity
  8
0
100
AcDbLine
 10
2526.119519973232
 20
257.8939770278727
 30
0.0
 11
2525.48305910351
 21
256.6034451025904
 31
0.0
  0
LINE
  5
2E17
330
1F
100
AcDbEntity
  8
0
100
AcDbLine
 10
2474.293329588737
 20
305.0765074266563
 30
0.0
 11
2525.653329588369
 21
305.0765074266563
 31
0.0
  0
ARC
  5
2E19
330
1F
100
AcDbEntity
  8
0
100
AcDbCircle
 10
2519.57332958888
 20
233.3865297380644
 30
0.0
 40
3.999999999983999
100
AcDbArc
 50
270.0
 51
0.0
  0
ARC
  5
2E1A
330
1F
100
AcDbEntity
  8
0
100
AcDbCircle
 10
2522.173329588769
 20
259.8401479955685
 30
0.0
 40
4.400000000592
100
AcDbArc
 50
333.7485374592043
 51
0.0
  0
ARC
  5
2E1B
330
1F
100
AcDbEntity
  8
0
100
AcDbCircle
 10
2480.373329588226
 20
233.3865297380644
 30
0.0
 40
3.999999999983999
100
AcDbArc
 50
180.0
 51
269.9575781647016
  0
ARC
  5
2E1C
330
1F
100
AcDbEntity
  8
0
100
AcDbCircle
 10
2525.653329588369
 20
304.1565074276963
 30
0.0
 40
0.9200000009919998
100
AcDbArc
 50
0.0
 51
90.00380805874687
  0
ARC
  5
2E1D
330
1F
100
AcDbEntity
  8
0
100
AcDbCircle
 10
2474.293329588737
 20
304.1565074276963
 30
0.0
 40
0.9200000009919998
100
AcDbArc
 50
89.99619194125314
 51
180.0
  0
ARC
  5
2E1E
330
1F
100
AcDbEntity
  8
0
100
AcDbCircle
 10
2477.773329588337
 20
259.8401479955685
 30
0.0
 40
4.400000000592
100
AcDbArc
 50
180.0
 51
206.2514625407957
  0
CIRCLE
  5
2E1F
330
1F
100
AcDbEntity
  8
0
100
AcDbCircle
 10
2604.973329588553
 20
141.340663402896
 30
0.0
 40
26.60000000080777
  0
CIRCLE
  5
2E20
330
1F
100
AcDbEntity
  8
0
100
AcDbCircle
 10
2604.973329588553
 20
141.340663402896
 30
0.0
 40
23.41973157344796
  0
CIRCLE
  5
2E21
330
1F
100
AcDbEntity
  8
0
100
AcDbCircle
 10
2499.973329588553
 20
141.3771336131096
 30
0.0
 40
26.60000000080777
  0
CIRCLE
  5
2E22
330
1F
100
AcDbEntity
  8
0
100
AcDbCircle
 10
2499.973329588553
 20
141.3771336131096
 30
0.0
 40
23.41973157344796
  0
LINE
  5
2EDF
330
1F
100
AcDbEntity
  8
0
100
AcDbLine
 10
2431.973329588553
 20
189.340663402896
 30
0.0
 11
2672.973329588553
 21
189.340663402896
 31
0.0
  0
LINE
  5
2EEA
330
1F
100
AcDbEntity
  8
0
100
AcDbLine
 10
2443.973329588553
 20
254.8034451025904
 30
0.0
 11
2443.973329588553
 21
246.8034451025904
 31
0.0
  0
LINE
  5
2EEB
330
1F
100
AcDbEntity
  8
0
100
AcDbLine
 10
2443.973329588553
 20
246.8034451025904
 30
0.0
 11
2660.973329588553
 21
246.8034451025904
 31
0.0
  0
LINE
  5
2EEC
330
1F
100
AcDbEntity
  8
0
100
AcDbLine
 10
2660.973329588553
 20
254.8034451025904
 30
0.0
 11
2443.973329588553
 21
254.8034451025904
 31
0.0
  0
LINE
  5
2EFB
330
1F
100
AcDbEntity
  8
0
100
AcDbLine
 10
2373.335560485318
 20
230.8034451025904
 30
0.0
 11
2368.335560485318
 21
230.8034451025904
 31
0.0
  0
ARC
  5
2EFC
330
1F
100
AcDbEntity
  8
0
100
AcDbCircle
 10
2368.335560485318
 20
232.8034451025904
 30
0.0
 40
1.999999999999999
100
AcDbArc
 50
180.0
 51
270.0
  0
LINE
  5
2EFD
330
1F
100
AcDbEntity
  8
0
100
AcDbLine
 10
2373.335560485318
 20
270.8034451025905
 30
0.0
 11
2368.335560485318
 21
270.8034451025905
 31
0.0
  0
ARC
  5
2EFE
330
1F
100
AcDbEntity
  8
0
100
AcDbCircle
 10
2368.335560485318
 20
268.8034451025905
 30
0.0
 40
1.999999999999999
100
AcDbArc
 50
90.0
 51
180.0
  0
LINE
  5
2EFF
330
1F
100
AcDbEntity
  8
0
100
AcDbLine
 10
2366.335560485318
 20
259.8034451025904
 30
0.0
 11
2266.635560485318
 21
259.8034451025904
 31
0.0
  0
LINE
  5
2F00
330
1F
100
AcDbEntity
  8
0
100
AcDbLine
 10
2366.335560485318
 20
239.8034451025905
 30
0.0
 11
2266.635560485318
 21
239.8034451025905
 31
0.0
  0
LINE
  5
2F01
330
1F
100
AcDbEntity
  8
0
100
AcDbLine
 10
2266.635560485318
 20
259.8034451025904
 30
0.0
 11
2266.635560485318
 21
239.8034451025905
 31
0.0
  0
LINE
  5
2F02
330
1F
100
AcDbEntity
  8
0
100
AcDbLine
 10
2337.938521812718
 20
229.3869862526229
 30
0.0
 11
2337.667067335054
 21
229.3956351415988
 31
0.0
  0
LINE
  5
2F03
330
1F
100
AcDbEntity
  8
0
100
AcDbLine
 10
2337.667067335054
 20
229.3866138967506
 30
0.0
 11
2299.004053635582
 21
229.3866138967506
 31
0.0
  0
LINE
  5
2F04
330
1F
100
AcDbEntity
  8
0
100
AcDbLine
 10
2299.004053635582
 20
229.3956351415988
 30
0.0
 11
2337.667067335054
 21
229.3956351415988
 31
0.0
  0
LINE
  5
2F05
330
1F
100
AcDbEntity
  8
0
100
AcDbLine
 10
2298.732599157919
 20
229.3869862526229
 30
0.0
 11
2299.004053635582
 21
229.3956351415988
 31
0.0
  0
LINE
  5
2F06
330
1F
100
AcDbEntity
  8
0
100
AcDbLine
 10
2344.935560486125
 20
304.1565915863666
 30
0.0
 11
2344.935560486125
 21
259.8402321542387
 31
0.0
  0
LINE
  5
2F07
330
1F
100
AcDbEntity
  8
0
100
AcDbLine
 10
2341.935560485629
 20
239.8034451025905
 30
0.0
 11
2341.935560485629
 21
233.3866138967346
 31
0.0
  0
LINE
  5
2F08
330
1F
100
AcDbEntity
  8
0
100
AcDbLine
 10
2294.776058108862
 20
259.8034451025904
 30
0.0
 11
2341.895062861774
 21
259.8034451025904
 31
0.0
  0
LINE
  5
2F09
330
1F
100
AcDbEntity
  8
0
100
AcDbLine
 10
2294.735560485006
 20
239.8034451025905
 30
0.0
 11
2294.735560485006
 21
233.3866138967346
 31
0.0
  0
LINE
  5
2F0A
330
1F
100
AcDbEntity
  8
0
100
AcDbLine
 10
2291.735560486542
 20
304.1565915863666
 30
0.0
 11
2291.735560486542
 21
259.8402321542387
 31
0.0
  0
LINE
  5
2F0B
330
1F
100
AcDbEntity
  8
0
100
AcDbLine
 10
2344.015560485134
 20
305.0765915853265
 30
0.0
 11
2292.655560485502
 21
305.0765915853265
 31
0.0
  0
ARC
  5
2F0C
330
1F
100
AcDbEntity
  8
0
100
AcDbCircle
 10
2298.73556048499
 20
233.3866138967346
 30
0.0
 40
3.999999999983998
100
AcDbArc
 50
180.0
 51
270.0
  0
ARC
  5
2F0D
330
1F
100
AcDbEntity
  8
0
100
AcDbCircle
 10
2337.935560485645
 20
233.3866138967346
 30
0.0
 40
3.999999999983998
100
AcDbArc
 50
270.0424218353115
 51
0.0
  0
ARC
  5
2F0E
330
1F
100
AcDbEntity
  8
0
100
AcDbCircle
 10
2292.655560485502
 20
304.1565915863666
 30
0.0
 40
0.9200000009919996
100
AcDbArc
 50
89.99619190609177
 51
180.0
  0
ARC
  5
2F0F
330
1F
100
AcDbEntity
  8
0
100
AcDbCircle
 10
2344.015560485134
 20
304.1565915863666
 30
0.0
 40
0.9200000009919996
100
AcDbArc
 50
0.0
 51
90.00380809390822
  0
LINE
  5
2F10
330
1F
100
AcDbEntity
  8
0
100
AcDbLine
 10
2366.335560485318
 20
259.8034451025904
 30
0.0
 11
2274.335560485318
 21
259.8034451025904
 31
0.0
  0
LINE
  5
2F11
330
1F
100
AcDbEntity
  8
0
100
AcDbLine
 10
2366.335560485318
 20
268.8034451025905
 30
0.0
 11
2366.335560485318
 21
232.8034451025904
 31
0.0
  0
LINE
  5
2F12
330
1F
100
AcDbEntity
  8
0
100
AcDbLine
 10
2373.335560485318
 20
270.8034451025905
 30
0.0
 11
2373.335560485318
 21
230.8034451025904
 31
0.0
  0
DIMENSION
  5
322E
330
1F
100
AcDbEntity
  8
0
100
AcDbDimension
280
     0
  2
*D1
 10
2697.87824409153
 20
229.3865297380804
 30
0.0
 11
2691.426504664518
 21
267.2315185823688
 31
0.0
 70
    32
 71
     5
 42
75.68997768857591
 73
     0
 74
     0
 75
     0
  3
ISO-25
100
AcDbAlignedDimension
 13
2681.957377600137
 23
305.0765074266564
 33
0.0
 14
2681.957377600136
 24
229.3865297380804
 34
0.0
 50
90.0
100
AcDbRotatedDimension
  0
DIMENSION
  5
33E0
330
1F
100
AcDbEntity
  8
0
100
AcDbDimension
280
     0
  2
*D2
 10
2449.973329588553
 20
210.6663102029251
 30
0.0
 11
2552.473329588553
 21
217.1364670924204
 31
0.0
 70
    32
 71
     5
 42
205.0
 73
     0
 74
     0
 75
     0
  3
ISO-25
100
AcDbAlignedDimension
 13
2654.973329588553
 23
196.340663402896
 33
0.0
 14
2449.973329588553
 24
196.340663402896
 34
0.0
100
AcDbRotatedDimension
  0
DIMENSION
  5
33ED
330
1F
100
AcDbEntity
  8
0
100
AcDbDimension
280
     0
  2
*D3
 10
2429.973329588553
 20
328.3627600702655
 30
0.0
 11
2552.462550730835
 21
328.3627600702655
 31
0.0
 70
   160
 71
     5
 42
244.9784422845637
 73
     0
 74
     0
 75
     0
  3
ISO-25
100
AcDbAlignedDimension
 13
2674.951771873117
 23
309.7900217273231
 33
0.0
 14
2429.973329588553
 24
310.7183771993119
 34
0.0
100
AcDbRotatedDimension
  0
DIMENSION
  5
345D
330
1F
100
AcDbEntity
  8
0
100
AcDbDimension
280
     0
  2
*D4
 10
2697.738211435856
 20
89.34066340289604
 30
0.0
 11
2691.268054546361
 21
142.8406634028964
 31
0.0
 70
    32
 71
     5
 42
107.0
 73
     0
 74
     0
 75
     0
  3
ISO-25
100
AcDbAlignedDimension
 13
2679.914921986956
 23
196.340663402896
 33
0.0
 14
2679.914921986956
 24
89.34066340289604
 34
0.0
 50
90.0
100
AcDbRotatedDimension
  0
ENDSEC
  0
SECTION
  2
OBJECTS
  0
DICTIONARY
  5
C
330
0
100
AcDbDictionary
281
     1
  3
ACAD_CIP_PREVIOUS_PRODUCT_INFO
350
35D0
  3
ACAD_COLOR
350
970
  3
ACAD_DETAILVIEWSTYLE
350
35C7
  3
ACAD_GROUP
350
D
  3
ACAD_LAYOUT
350
1A
  3
ACAD_MATERIAL
350
96F
  3
ACAD_MLEADERSTYLE
350
35C3
  3
ACAD_MLINESTYLE
350
17
  3
ACAD_PLOTSETTINGS
350
19
  3
ACAD_PLOTSTYLENAME
350
E
  3
ACAD_SCALELIST
350
35B1
  3
ACAD_SECTIONVIEWSTYLE
350
35C5
  3
ACAD_TABLESTYLE
350
971
  3
ACAD_VISUALSTYLE
350
3598
  3
AcadDim
350
2B08
  3
ACDB_RECOMPOSE_DATA
350
35F1
  3
AcDbVariableDictionary
350
7B
  0
DICTIONARY
  5
2B9E
330
2
100
AcDbDictionary
280
     1
281
     1
  3
ACAD_LAYERFILTERS
360
340E
  3
ACLYDICTIONARY
360
340D
  0
DICTIONARY
  5
35D1
330
10
100
AcDbDictionary
280
     1
281
     1
  3
ADSK_XREC_LAYER_RECONCILED
360
35D2
  0
DICTIONARY
  5
35D3
330
C19
100
AcDbDictionary
280
     1
281
     1
  3
ADSK_XREC_LAYER_RECONCILED
360
35D4
  0
DICTIONARY
  5
AC9
330
1F
100
AcDbDictionary
280
     1
281
     1
  3
ACAD_SORTENTS
360
ACA
  0
XRECORD
  5
35D0
102
{ACAD_REACTORS
330
C
102
}
330
C
100
AcDbXrecord
280
     1
300
ACD
300
2017
300
ACD_F_S
  0
DICTIONARY
  5
970
102
{ACAD_REACTORS
330
C
102
}
330
C
100
AcDbDictionary
281
     1
  0
DICTIONARY
  5
35C7
102
{ACAD_REACTORS
330
C
102
}
330
C
100
AcDbDictionary
281
     1
  3
Imperial24
350
35C8
  0
DICTIONARY
  5
D
102
{ACAD_REACTORS
330
C
102
}
330
C
100
AcDbDictionary
281
     1
  0
DICTIONARY
  5
1A
102
{ACAD_REACTORS
330
C
102
}
330
C
100
AcDbDictionary
281
     1
  3
Model
350
22
  3
布局1
350
1E
  3
布局2
350
26
1001
AcadStringInfo
1000
MIFCodePage
1070
     5
  0
DICTIONARY
  5
96F
102
{ACAD_REACTORS
330
C
102
}
330
C
100
AcDbDictionary
281
     1
  3
ByBlock
350
3588
  3
ByLayer
350
3580
  3
Global
350
3590
  0
DICTIONARY
  5
35C3
102
{ACAD_REACTORS
330
C
102
}
330
C
100
AcDbDictionary
281
     1
  3
Standard
350
35C4
  0
DICTIONARY
  5
17
102
{ACAD_REACTORS
330
C
102
}
330
C
100
AcDbDictionary
281
     1
  3
Standard
350
18
  0
DICTIONARY
  5
19
102
{ACAD_REACTORS
330
C
102
}
330
C
100
AcDbDictionary
281
     1
  0
ACDBDICTIONARYWDFLT
  5
E
102
{ACAD_REACTORS
330
C
102
}
330
C
100
AcDbDictionary
281
     1
  3
Normal
350
F
100
AcDbDictionaryWithDefault
340
F
  0
DICTIONARY
  5
35B1
102
{ACAD_REACTORS
330
C
102
}
330
C
100
AcDbDictionary
281
     1
  3
A0
350
35B2
  3
A1
350
35B3
  3
A2
350
35B4
  3
A3
350
35B5
  3
A4
350
35B6
  3
A5
350
35B7
  3
A6
350
35B8
  3
A7
350
35B9
  3
A8
350
35BA
  3
A9
350
35BB
  3
B0
350
35BC
  3
B1
350
35BD
  3
B2
350
35BE
  3
B3
350
35BF
  3
B4
350
35C0
  3
B5
350
35C1
  3
B6
350
35C2
  0
DICTIONARY
  5
35C5
102
{ACAD_REACTORS
330
C
102
}
330
C
100
AcDbDictionary
281
     1
  3
Imperial24
350
35C6
  0
DICTIONARY
  5
971
102
{ACAD_REACTORS
330
C
102
}
330
C
100
AcDbDictionary
281
     1
  3
Standard
350
972
  0
DICTIONARY
  5
3598
102
{ACAD_REACTORS
330
C
102
}
330
C
100
AcDbDictionary
281
     1
  3
2dWireframe
350
359E
  3
Basic
350
359D
  3
Brighten
350
35A4
  3
ColorChange
350
35A8
  3
Conceptual
350
35A1
  3
Dim
350
35A3
  3
EdgeColorOff
350
35B0
  3
Facepattern
350
35A7
  3
Flat
350
3599
  3
FlatWithEdges
350
359A
  3
Gouraud
350
359B
  3
GouraudWithEdges
350
359C
  3
Hidden
350
35A0
  3
JitterOff
350
35AE
  3
Linepattern
350
35A6
  3
OverhangOff
350
35AF
  3
Realistic
350
35A2
  3
Shaded
350
35AD
  3
Shaded with edges
350
35AC
  3
Shades of Gray
350
35A9
  3
Sketchy
350
35AA
  3
Thicken
350
35A5
  3
Wireframe
350
359F
  3
X-Ray
350
35AB
  0
XRECORD
  5
2B08
102
{ACAD_REACTORS
330
C
102
}
330
C
100
AcDbXrecord
280
     1
 90
   990106
  3

 60
     0
 61
     0
 62
     1
 63
     3
 64
     0
 65
     0
 66
     0
 67
     3
 68
     1
 69
     0
 70
     0
 71
     0
 72
     0
 40
0.0
170
     0
  0
XRECORD
  5
35F1
102
{ACAD_REACTORS
330
C
102
}
330
C
100
AcDbXrecord
280
     1
 90
        1
330
972
330
35C6
330
35C8
  0
DICTIONARY
  5
7B
102
{ACAD_REACTORS
330
C
102
}
330
C
100
AcDbDictionary
281
     1
  3
CANNOSCALE
350
35E7
  3
CMLEADERSTYLE
350
35E3
  3
CTABLESTYLE
350
A60
  3
CVIEWDETAILSTYLE
350
35E4
  3
CVIEWSECTIONSTYLE
350
35E5
  3
DIMASSOC
350
ADC
  3
LAYEREVAL
350
35E9
  3
LAYERNOTIFY
350
35EA
  3
LIGHTINGUNITS
350
35E8
  3
MSLTSCALE
350
35E6
  3
PROJECTNAME
350
ADD
  3
SORTENTS
350
7C
  0
DICTIONARY
  5
340E
102
{ACAD_REACTORS
330
2B9E
102
}
330
2B9E
100
AcDbDictionary
281
     1
  0
DICTIONARY
  5
340D
102
{ACAD_REACTORS
330
2B9E
102
}
330
2B9E
100
AcDbDictionary
281
     1
1001
ACAD
1000
<All
  0
XRECORD
  5
35D2
102
{ACAD_REACTORS
330
35D1
102
}
330
35D1
100
AcDbXrecord
280
     1
290
     1
  0
XRECORD
  5
35D4
102
{ACAD_REACTORS
330
35D3
102
}
330
35D3
100
AcDbXrecord
280
     1
290
     1
  0
SORTENTSTABLE
  5
ACA
102
{ACAD_REACTORS
330
AC9
102
}
330
AC9
100
AcDbSortentsTable
330
1F
  0
ACDBDETAILVIEWSTYLE
  5
35C8
102
{ACAD_XDICTIONARY
360
35EF
102
}
102
{ACAD_REACTORS
330
35C7
102
}
330
35C7
100
AcDbModelDocViewStyle
 70
     0
  3
Imperial24
290
     0
100
AcDbDetailViewStyle
 70
     0
 71
     0
 90
        3
 71
     1
340
11
 62
   256
 40
0.24
340
0
 62
   256
 40
0.24
300

 40
0.36
280
     3
 71
     2
340
16
 90
       25
 62
   256
 71
     3
340
11
 62
   256
 40
0.24
 90
        1
 40
0.75
 90
        1
300
%<\AcVar ViewType \f "%tc1">% %<\AcVar ViewDetailId>%\PSCALE %<\AcVar ViewScale \f "%sn">%
 71
     4
340
16
 90
       25
 62
   256
340
16
 90
       25
 62
   256
280
     0
  0
LAYOUT
  5
22
102
{ACAD_REACTORS
330
1A
102
}
330
1A
100
AcDbPlotSettings
  1

  2
EPSON Stylus Photo EX3
  4
A3
  6

 40
3.757083177566528
 41
14.76376056671142
 42
3.757080078125
 43
3.757080078125
 44
296.9683227539062
 45
420.0172119140624
 46
0.0
 47
0.0
 48
-2.01420720382157
 49
-1.687121371913349
140
421.216483444302
141
291.759802880008
142
1.0
143
1.054133289698709
 70
 11952
 72
     1
 73
     1
 74
     4
  7

 75
     0
147
0.9486466367889953
 76
     0
 77
     2
 78
   300
148
2.01420720382157
149
1.687121371913349
100
AcDbLayout
  1
Model
 70
     1
 71
     0
 10
0.0
 20
0.0
 11
12.0
 21
9.0
 12
0.0
 22
0.0
 32
0.0
 14
0.0
 24
0.0
 34
0.0
 15
0.0
 25
0.0
 35
0.0
146
0.0
 13
0.0
 23
0.0
 33
0.0
 16
1.0
 26
0.0
 36
0.0
 17
0.0
 27
1.0
 37
0.0
 76
     0
330
1F
331
357E
  0
LAYOUT
  5
1E
102
{ACAD_REACTORS
330
1A
102
}
330
1A
100
AcDbPlotSettings
  1

  2
Star AR-3200+
  4

  6

 40
0.0
 41
0.0
 42
0.0
 43
0.0
 44
0.0
 45
0.0
 46
0.0
 47
0.0
 48
0.0
 49
0.0
140
0.0
141
0.0
142
1.0
143
1.0
 70
   688
 72
     0
 73
     0
 74
     5
  7

 75
    16
147
1.0
 76
     0
 77
     2
 78
   300
148
0.0
149
0.0
100
AcDbLayout
  1
布局1
 70
     1
 71
     1
 10
0.0
 20
0.0
 11
420.0
 21
297.0
 12
0.0
 22
0.0
 32
0.0
 14
1.000000000000000E+20
 24
1.000000000000000E+20
 34
1.000000000000000E+20
 15
-1.000000000000000E+20
 25
-1.000000000000000E+20
 35
-1.000000000000000E+20
146
0.0
 13
0.0
 23
0.0
 33
0.0
 16
1.0
 26
0.0
 36
0.0
 17
0.0
 27
1.0
 37
0.0
 76
     0
330
1B
1001
AcadStringInfo
1000
MIFCodePage
1070
     5
  0
LAYOUT
  5
26
102
{ACAD_REACTORS
330
1A
102
}
330
1A
100
AcDbPlotSettings
  1

  2
Star AR-3200+
  4

  6

 40
0.0
 41
0.0
 42
0.0
 43
0.0
 44
0.0
 45
0.0
 46
0.0
 47
0.0
 48
0.0
 49
0.0
140
0.0
141
0.0
142
1.0
143
1.0
 70
   688
 72
     0
 73
     0
 74
     5
  7

 75
    16
147
1.0
 76
     0
 77
     2
 78
   300
148
0.0
149
0.0
100
AcDbLayout
  1
布局2
 70
     1
 71
     2
 10
0.0
 20
0.0
 11
12.0
 21
9.0
 12
0.0
 22
0.0
 32
0.0
 14
0.0
 24
0.0
 34
0.0
 15
0.0
 25
0.0
 35
0.0
146
0.0
 13
0.0
 23
0.0
 33
0.0
 16
1.0
 26
0.0
 36
0.0
 17
0.0
 27
1.0
 37
0.0
 76
     0
330
23
1001
AcadStringInfo
1000
MIFCodePage
1070
     5
  0
MATERIAL
  5
3588
102
{ACAD_XDICTIONARY
360
3589
102
}
102
{ACAD_REACTORS
330
96F
102
}
330
96F
100
AcDbMaterial
  1
ByBlock
 72
     0
 43
0.0008202099737533
 43
0.0
 43
0.0
 43
0.0
 43
0.0
 43
0.0008202099737533
 43
0.0
 43
0.0
 43
0.0
 43
0.0
 43
1.0
 43
0.0
 43
0.0
 43
0.0
 43
0.0
 43
1.0
 77
     0
 47
0.0008202099737533
 47
0.0
 47
0.0
 47
0.0
 47
0.0
 47
0.0008202099737533
 47
0.0
 47
0.0
 47
0.0
 47
0.0
 47
1.0
 47
0.0
 47
0.0
 47
0.0
 47
0.0
 47
1.0
171
     0
 49
0.0008202099737533
 49
0.0
 49
0.0
 49
0.0
 49
0.0
 49
0.0008202099737533
 49
0.0
 49
0.0
 49
0.0
 49
0.0
 49
1.0
 49
0.0
 49
0.0
 49
0.0
 49
0.0
 49
1.0
175
     0
142
0.0008202099737533
142
0.0
142
0.0
142
0.0
142
0.0
142
0.0008202099737533
142
0.0
142
0.0
142
0.0
142
0.0
142
1.0
142
0.0
142
0.0
142
0.0
142
0.0
142
1.0
179
     0
144
0.0008202099737533
144
0.0
144
0.0
144
0.0
144
0.0
144
0.0008202099737533
144
0.0
144
0.0
144
0.0
144
0.0
144
1.0
144
0.0
144
0.0
144
0.0
144
0.0
144
1.0
147
0.0008202099737533
147
0.0
147
0.0
147
0.0
147
0.0
147
0.0008202099737533
147
0.0
147
0.0
147
0.0
147
0.0
147
1.0
147
0.0
147
0.0
147
0.0
147
0.0
147
1.0
  0
MATERIAL
  5
3580
102
{ACAD_XDICTIONARY
360
3581
102
}
102
{ACAD_REACTORS
330
96F
102
}
330
96F
100
AcDbMaterial
  1
ByLayer
 72
     0
 43
0.0008202099737533
 43
0.0
 43
0.0
 43
0.0
 43
0.0
 43
0.0008202099737533
 43
0.0
 43
0.0
 43
0.0
 43
0.0
 43
1.0
 43
0.0
 43
0.0
 43
0.0
 43
0.0
 43
1.0
 77
     0
 47
0.0008202099737533
 47
0.0
 47
0.0
 47
0.0
 47
0.0
 47
0.0008202099737533
 47
0.0
 47
0.0
 47
0.0
 47
0.0
 47
1.0
 47
0.0
 47
0.0
 47
0.0
 47
0.0
 47
1.0
171
     0
 49
0.0008202099737533
 49
0.0
 49
0.0
 49
0.0
 49
0.0
 49
0.0008202099737533
 49
0.0
 49
0.0
 49
0.0
 49
0.0
 49
1.0
 49
0.0
 49
0.0
 49
0.0
 49
0.0
 49
1.0
175
     0
142
0.0008202099737533
142
0.0
142
0.0
142
0.0
142
0.0
142
0.0008202099737533
142
0.0
142
0.0
142
0.0
142
0.0
142
1.0
142
0.0
142
0.0
142
0.0
142
0.0
142
1.0
179
     0
144
0.0008202099737533
144
0.0
144
0.0
144
0.0
144
0.0
144
0.0008202099737533
144
0.0
144
0.0
144
0.0
144
0.0
144
1.0
144
0.0
144
0.0
144
0.0
144
0.0
144
1.0
147
0.0008202099737533
147
0.0
147
0.0
147
0.0
147
0.0
147
0.0008202099737533
147
0.0
147
0.0
147
0.0
147
0.0
147
1.0
147
0.0
147
0.0
147
0.0
147
0.0
147
1.0
  0
MATERIAL
  5
3590
102
{ACAD_XDICTIONARY
360
3591
102
}
102
{ACAD_REACTORS
330
96F
102
}
330
96F
100
AcDbMaterial
  1
Global
 72
     0
 43
0.0008202099737533
 43
0.0
 43
0.0
 43
0.0
 43
0.0
 43
0.0008202099737533
 43
0.0
 43
0.0
 43
0.0
 43
0.0
 43
1.0
 43
0.0
 43
0.0
 43
0.0
 43
0.0
 43
1.0
 77
     0
 47
0.0008202099737533
 47
0.0
 47
0.0
 47
0.0
 47
0.0
 47
0.0008202099737533
 47
0.0
 47
0.0
 47
0.0
 47
0.0
 47
1.0
 47
0.0
 47
0.0
 47
0.0
 47
0.0
 47
1.0
171
     0
 49
0.0008202099737533
 49
0.0
 49
0.0
 49
0.0
 49
0.0
 49
0.0008202099737533
 49
0.0
 49
0.0
 49
0.0
 49
0.0
 49
1.0
 49
0.0
 49
0.0
 49
0.0
 49
0.0
 49
1.0
175
     0
142
0.0008202099737533
142
0.0
142
0.0
142
0.0
142
0.0
142
0.0008202099737533
142
0.0
142
0.0
142
0.0
142
0.0
142
1.0
142
0.0
142
0.0
142
0.0
142
0.0
142
1.0
179
     0
144
0.0008202099737533
144
0.0
144
0.0
144
0.0
144
0.0
144
0.0008202099737533
144
0.0
144
0.0
144
0.0
144
0.0
144
1.0
144
0.0
144
0.0
144
0.0
144
0.0
144
1.0
147
0.0008202099737533
147
0.0
147
0.0
147
0.0
147
0.0
147
0.0008202099737533
147
0.0
147
0.0
147
0.0
147
0.0
147
1.0
147
0.0
147
0.0
147
0.0
147
0.0
147
1.0
  0
MLEADERSTYLE
  5
35C4
102
{ACAD_REACTORS
330
35C3
102
}
330
35C3
100
AcDbMLeaderStyle
179
     2
170
     2
171
     1
172
     0
 90
        2
 40
0.0
 41
0.0
173
     1
 91
-1056964608
340
14
 92
       -2
290
     1
 42
0.09
291
     1
 43
0.36
  3
Standard
 44
0.18
300

342
11
174
     1
178
     6
175
     1
176
     0
 93
-1056964608
 45
0.18
292
     0
297
     0
 46
0.18
 94
-1056964608
 47
1.0
 49
1.0
140
1.0
293
     1
141
0.0
294
     1
177
     0
142
1.0
295
     1
296
     0
143
0.125
271
     0
272
     9
273
     9
298
     1
  0
MLINESTYLE
  5
18
102
{ACAD_REACTORS
330
17
102
}
330
17
100
AcDbMlineStyle
  2
STANDARD
 70
     0
  3

 62
   256
 51
90.0
 52
90.0
 71
     2
 49
0.5
 62
   256
  6
BYLAYER
 49
-0.5
 62
   256
  6
BYLAYER
  0
ACDBPLACEHOLDER
  5
F
102
{ACAD_REACTORS
330
E
102
}
330
E
  0
SCALE
  5
35B2
102
{ACAD_REACTORS
330
35B1
102
}
330
35B1
100
AcDbScale
 70
     0
300
1:1
140
1.0
141
1.0
290
     1
  0
SCALE
  5
35B3
102
{ACAD_REACTORS
330
35B1
102
}
330
35B1
100
AcDbScale
 70
     0
300
1/128" = 1'-0"
140
0.0078125
141
12.0
290
     0
  0
SCALE
  5
35B4
102
{ACAD_REACTORS
330
35B1
102
}
330
35B1
100
AcDbScale
 70
     0
300
1/64" = 1'-0"
140
0.015625
141
12.0
290
     0
  0
SCALE
  5
35B5
102
{ACAD_REACTORS
330
35B1
102
}
330
35B1
100
AcDbScale
 70
     0
300
1/32" = 1'-0"
140
0.03125
141
12.0
290
     0
  0
SCALE
  5
35B6
102
{ACAD_REACTORS
330
35B1
102
}
330
35B1
100
AcDbScale
 70
     0
300
1/16" = 1'-0"
140
0.0625
141
12.0
290
     0
  0
SCALE
  5
35B7
102
{ACAD_REACTORS
330
35B1
102
}
330
35B1
100
AcDbScale
 70
     0
300
3/32" = 1'-0"
140
0.09375
141
12.0
290
     0
  0
SCALE
  5
35B8
102
{ACAD_REACTORS
330
35B1
102
}
330
35B1
100
AcDbScale
 70
     0
300
1/8" = 1'-0"
140
0.125
141
12.0
290
     0
  0
SCALE
  5
35B9
102
{ACAD_REACTORS
330
35B1
102
}
330
35B1
100
AcDbScale
 70
     0
300
3/16" = 1'-0"
140
0.1875
141
12.0
290
     0
  0
SCALE
  5
35BA
102
{ACAD_REACTORS
330
35B1
102
}
330
35B1
100
AcDbScale
 70
     0
300
1/4" = 1'-0"
140
0.25
141
12.0
290
     0
  0
SCALE
  5
35BB
102
{ACAD_REACTORS
330
35B1
102
}
330
35B1
100
AcDbScale
 70
     0
300
3/8" = 1'-0"
140
0.375
141
12.0
290
     0
  0
SCALE
  5
35BC
102
{ACAD_REACTORS
330
35B1
102
}
330
35B1
100
AcDbScale
 70
     0
300
1/2" = 1'-0"
140
0.5
141
12.0
290
     0
  0
SCALE
  5
35BD
102
{ACAD_REACTORS
330
35B1
102
}
330
35B1
100
AcDbScale
 70
     0
300
3/4" = 1'-0"
140
0.75
141
12.0
290
     0
  0
SCALE
  5
35BE
102
{ACAD_REACTORS
330
35B1
102
}
330
35B1
100
AcDbScale
 70
     0
300
1" = 1'-0"
140
1.0
141
12.0
290
     0
  0
SCALE
  5
35BF
102
{ACAD_REACTORS
330
35B1
102
}
330
35B1
100
AcDbScale
 70
     0
300
1-1/2" = 1'-0"
140
1.5
141
12.0
290
     0
  0
SCALE
  5
35C0
102
{ACAD_REACTORS
330
35B1
102
}
330
35B1
100
AcDbScale
 70
     0
300
3" = 1'-0"
140
3.0
141
12.0
290
     0
  0
SCALE
  5
35C1
102
{ACAD_REACTORS
330
35B1
102
}
330
35B1
100
AcDbScale
 70
     0
300
6" = 1'-0"
140
6.0
141
12.0
290
     0
  0
SCALE
  5
35C2
102
{ACAD_REACTORS
330
35B1
102
}
330
35B1
100
AcDbScale
 70
     0
300
1'-0" = 1'-0"
140
12.0
141
12.0
290
     0
  0
ACDBSECTIONVIEWSTYLE
  5
35C6
102
{ACAD_XDICTIONARY
360
35ED
102
}
102
{ACAD_REACTORS
330
35C5
102
}
330
35C5
100
AcDbModelDocViewStyle
 70
     0
  3
Imperial24
290
     0
100
AcDbSectionViewStyle
 70
     0
 71
     0
 90
       78
 71
     1
340
11
 62
   256
 40
0.24
340
0
340
0
 62
   256
 40
0.24
300
I, O, Q, S, X, Z
 40
0.48
 90
        3
 40
0.18
 90
        1
 71
     2
340
16
 90
       25
 62
   256
340
16
 90
       50
 62
   256
 40
0.24
 40
0.0
 40
0.24
 71
     3
340
11
 62
   256
 40
0.24
 90
        1
 40
0.75
 90
        1
300
%<\AcVar ViewType \f "%tc1">% %<\AcVar ViewSectionStartId>%-%<\AcVar ViewSectionEndId>%\PSCALE %<\AcVar ViewScale \f "%sn">%
 71
     4
 62
   256
 62
   257
300
ANSI31
 40
1.0
 90
        0
290
     0
290
     0
 90
        6
 40
0.0
 40
1.570796326794896
 40
0.2617993877991494
 40
1.308996938995747
 40
-0.2617993877991494
 40
1.832595714594046
  0
TABLESTYLE
  5
972
102
{ACAD_XDICTIONARY
360
35EB
102
}
102
{ACAD_REACTORS
330
971
102
}
330
971
100
AcDbTableStyle
280
     0
  3
Standard
 70
     0
 71
     0
 40
0.06
 41
0.06
280
     0
281
     0
  7
Standard
140
0.18
170
     2
 62
     0
 63
     7
283
     0
 90
        4
 91
        0
  1

274
    -2
284
     1
 64
     0
275
    -2
285
     1
 65
     0
276
    -2
286
     1
 66
     0
277
    -2
287
     1
 67
     0
278
    -2
288
     1
 68
     0
279
    -2
289
     1
 69
     0
  7
Standard
140
0.25
170
     5
 62
     0
 63
     7
283
     0
 90
        4
 91
        0
  1

274
    -2
284
     1
 64
     0
275
    -2
285
     1
 65
     0
276
    -2
286
     1
 66
     0
277
    -2
287
     1
 67
     0
278
    -2
288
     1
 68
     0
279
    -2
289
     1
 69
     0
  7
Standard
140
0.18
170
     5
 62
     0
 63
     7
283
     0
 90
        4
 91
        0
  1

274
    -2
284
     1
 64
     0
275
    -2
285
     1
 65
     0
276
    -2
286
     1
 66
     0
277
    -2
287
     1
 67
     0
278
    -2
288
     1
 68
     0
279
    -2
289
     1
 69
     0
  0
VISUALSTYLE
  5
359E
102
{ACAD_REACTORS
330
3598
102
}
330
3598
100
AcDbVisualStyle
  2
2dWireframe
 70
     4
177
     3
291
     0
 70
    58
 90
        0
176
     1
 90
        2
176
     1
 90
        0
176
     1
 90
        0
176
     1
 40
0.6
176
     1
 40
30.0
176
     1
 62
     7
420
 16777215
176
     1
 90
        1
176
     1
 90
        4
176
     1
 62
     7
176
     1
 62
   257
176
     1
 90
        1
176
     1
 90
        1
176
     1
 40
1.0
176
     1
 90
        0
176
     1
 62
   257
176
     1
 40
1.0
176
     1
 90
        1
176
     1
 90
        6
176
     1
 90
        2
176
     1
 62
     7
176
     1
 90
        5
176
     1
 90
        0
176
     1
 90
        0
176
     1
290
     0
176
     1
 90
        1
176
     1
 40
0.0
176
     1
 90
        0
176
     1
290
     1
176
     1
290
     1
176
     1
290
     0
176
     1
290
     0
176
     1
290
     0
176
     1
290
     0
176
     1
290
     0
176
     1
290
     0
176
     1
290
     0
176
     1
 90
       50
176
     1
 40
0.0
176
     1
 40
1.0
176
     1
 90
        0
176
     1
 62
    18
420
        0
176
     1
 90
       50
176
     1
 90
        3
176
     1
 62
     5
420
      255
176
     1
290
     0
176
     1
 90
       50
176
     1
 90
       50
176
     1
 90
       50
176
     1
290
     0
176
     1
 90
       50
176
     1
 62
   256
176
     0
 40
1.0
176
     0
 90
        2
176
     1
  1
strokes_ogs.tif
176
     1
290
     0
176
     1
 40
1.0
176
     1
 40
1.0
176
     1
  0
VISUALSTYLE
  5
359D
102
{ACAD_REACTORS
330
3598
102
}
330
3598
100
AcDbVisualStyle
  2
Basic
 70
     7
177
     3
291
     1
 70
    58
 90
        1
176
     1
 90
        0
176
     1
 90
        1
176
     1
 90
        0
176
     1
 40
0.6
176
     1
 40
30.0
176
     1
 62
     7
420
 16777215
176
     1
 90
        0
176
     1
 90
        4
176
     1
 62
     7
176
     1
 62
   257
176
     1
 90
        1
176
     1
 90
        1
176
     1
 40
1.0
176
     1
 90
        8
176
     1
 62
     7
176
     1
 40
1.0
176
     1
 90
        1
176
     1
 90
        6
176
     1
 90
        2
176
     1
 62
     7
176
     1
 90
        5
176
     1
 90
        0
176
     1
 90
        0
176
     1
290
     0
176
     1
 90
        1
176
     1
 40
0.0
176
     1
 90
        0
176
     1
290
     0
176
     1
290
     1
176
     1
290
     1
176
     1
290
     0
176
     1
290
     0
176
     1
290
     0
176
     1
290
     0
176
     1
290
     0
176
     1
290
     0
176
     1
 90
       50
176
     1
 40
0.0
176
     1
 40
1.0
176
     1
 90
        0
176
     1
 62
    18
420
        0
176
     1
 90
       50
176
     1
 90
        3
176
     1
 62
     5
420
      255
176
     1
290
     0
176
     1
 90
       50
176
     1
 90
       50
176
     1
 90
       50
176
     1
290
     0
176
     1
 90
       50
176
     1
 62
   256
176
     0
 40
1.0
176
     0
 90
        2
176
     1
  1
strokes_ogs.tif
176
     1
290
     0
176
     1
 40
1.0
176
     1
 40
1.0
176
     1
  0
VISUALSTYLE
  5
35A4
102
{ACAD_REACTORS
330
3598
102
}
330
3598
100
AcDbVisualStyle
  2
Brighten
 70
    12
177
     3
291
     1
 70
    58
 90
        2
176
     1
 90
        2
176
     1
 90
        0
176
     1
 90
        0
176
     1
 40
0.6
176
     1
 40
30.0
176
     1
 62
     7
420
 16777215
176
     1
 90
        1
176
     1
 90
        4
176
     1
 62
     7
176
     1
 62
   257
176
     1
 90
        1
176
     1
 90
        1
176
     1
 40
1.0
176
     1
 90
        8
176
     1
 62
     7
176
     1
 40
1.0
176
     1
 90
        1
176
     1
 90
        6
176
     1
 90
        2
176
     1
 62
     7
176
     1
 90
        5
176
     1
 90
        0
176
     1
 90
        0
176
     1
290
     0
176
     1
 90
        1
176
     1
 40
50.0
176
     1
 90
        0
176
     1
290
     0
176
     1
290
     1
176
     1
290
     1
176
     1
290
     0
176
     1
290
     0
176
     1
290
     0
176
     1
290
     0
176
     1
290
     0
176
     1
290
     0
176
     1
 90
       50
176
     1
 40
0.0
176
     1
 40
1.0
176
     1
 90
        0
176
     1
 62
    18
420
        0
176
     1
 90
       50
176
     1
 90
        3
176
     1
 62
     5
420
      255
176
     1
290
     0
176
     1
 90
       50
176
     1
 90
       50
176
     1
 90
       50
176
     1
290
     0
176
     1
 90
       50
176
     1
 62
   256
176
     0
 40
1.0
176
     0
 90
        2
176
     1
  1
strokes_ogs.tif
176
     1
290
     0
176
     1
 40
1.0
176
     1
 40
1.0
176
     1
  0
VISUALSTYLE
  5
35A8
102
{ACAD_REACTORS
330
3598
102
}
330
3598
100
AcDbVisualStyle
  2
ColorChange
 70
    16
177
     3
291
     1
 70
    58
 90
        2
176
     1
 90
        2
176
     1
 90
        3
176
     1
 90
        0
176
     1
 40
0.6
176
     1
 40
30.0
176
     1
 62
     8
420
  8421504
176
     1
 90
        1
176
     1
 90
        4
176
     1
 62
     7
176
     1
 62
   257
176
     1
 90
        1
176
     1
 90
        1
176
     1
 40
1.0
176
     1
 90
        8
176
     1
 62
     8
420
  8421504
176
     1
 40
1.0
176
     1
 90
        1
176
     1
 90
        6
176
     1
 90
        2
176
     1
 62
     7
176
     1
 90
        5
176
     1
 90
        0
176
     1
 90
        0
176
     1
290
     0
176
     1
 90
        1
176
     1
 40
0.0
176
     1
 90
        0
176
     1
290
     0
176
     1
290
     1
176
     1
290
     1
176
     1
290
     0
176
     1
290
     0
176
     1
290
     0
176
     1
290
     0
176
     1
290
     0
176
     1
290
     0
176
     1
 90
       50
176
     1
 40
0.0
176
     1
 40
1.0
176
     1
 90
        0
176
     1
 62
    18
420
        0
176
     1
 90
       50
176
     1
 90
        3
176
     1
 62
     5
420
      255
176
     1
290
     0
176
     1
 90
       50
176
     1
 90
       50
176
     1
 90
       50
176
     1
290
     0
176
     1
 90
       50
176
     1
 62
   256
176
     0
 40
1.0
176
     0
 90
        2
176
     1
  1
strokes_ogs.tif
176
     1
290
     0
176
     1
 40
1.0
176
     1
 40
1.0
176
     1
  0
VISUALSTYLE
  5
35A1
102
{ACAD_REACTORS
330
3598
102
}
330
3598
100
AcDbVisualStyle
  2
Conceptual
 70
     9
177
     3
291
     0
 70
    58
 90
        3
176
     1
 90
        2
176
     1
 90
        0
176
     1
 90
        0
176
     1
 40
0.6
176
     1
 40
30.0
176
     1
 62
     7
420
 16777215
176
     1
 90
        2
176
     1
 90
        2
176
     1
 62
     7
176
     1
 62
   257
176
     1
 90
        1
176
     1
 90
        1
176
     1
 40
179.0
176
     1
 90
        8
176
     1
 62
     7
176
     1
 40
1.0
176
     1
 90
        1
176
     1
 90
        6
176
     1
 90
        2
176
     1
 62
     7
176
     1
 90
        3
176
     1
 90
        0
176
     1
 90
        0
176
     1
290
     0
176
     1
 90
        1
176
     1
 40
0.0
176
     1
 90
        0
176
     1
290
     0
176
     1
290
     1
176
     1
290
     1
176
     1
290
     0
176
     1
290
     0
176
     1
290
     0
176
     1
290
     0
176
     1
290
     0
176
     1
290
     0
176
     1
 90
       50
176
     1
 40
0.0
176
     1
 40
1.0
176
     1
 90
        0
176
     1
 62
    18
420
        0
176
     1
 90
       50
176
     1
 90
        3
176
     1
 62
     5
420
      255
176
     1
290
     0
176
     1
 90
       50
176
     1
 90
       50
176
     1
 90
       50
176
     1
290
     0
176
     1
 90
       50
176
     1
 62
   256
176
     0
 40
1.0
176
     0
 90
        2
176
     1
  1
strokes_ogs.tif
176
     1
290
     0
176
     1
 40
1.0
176
     1
 40
1.0
176
     1
  0
VISUALSTYLE
  5
35A3
102
{ACAD_REACTORS
330
3598
102
}
330
3598
100
AcDbVisualStyle
  2
Dim
 70
    11
177
     3
291
     1
 70
    58
 90
        2
176
     1
 90
        2
176
     1
 90
        0
176
     1
 90
        0
176
     1
 40
0.6
176
     1
 40
30.0
176
     1
 62
     7
420
 16777215
176
     1
 90
        1
176
     1
 90
        4
176
     1
 62
     7
176
     1
 62
   257
176
     1
 90
        1
176
     1
 90
        1
176
     1
 40
1.0
176
     1
 90
        8
176
     1
 62
     7
176
     1
 40
1.0
176
     1
 90
        1
176
     1
 90
        6
176
     1
 90
        2
176
     1
 62
     7
176
     1
 90
        5
176
     1
 90
        0
176
     1
 90
        0
176
     1
290
     0
176
     1
 90
        1
176
     1
 40
-50.0
176
     1
 90
        0
176
     1
290
     0
176
     1
290
     1
176
     1
290
     1
176
     1
290
     0
176
     1
290
     0
176
     1
290
     0
176
     1
290
     0
176
     1
290
     0
176
     1
290
     0
176
     1
 90
       50
176
     1
 40
0.0
176
     1
 40
1.0
176
     1
 90
        0
176
     1
 62
    18
420
        0
176
     1
 90
       50
176
     1
 90
        3
176
     1
 62
     5
420
      255
176
     1
290
     0
176
     1
 90
       50
176
     1
 90
       50
176
     1
 90
       50
176
     1
290
     0
176
     1
 90
       50
176
     1
 62
   256
176
     0
 40
1.0
176
     0
 90
        2
176
     1
  1
strokes_ogs.tif
176
     1
290
     0
176
     1
 40
1.0
176
     1
 40
1.0
176
     1
  0
VISUALSTYLE
  5
35B0
102
{ACAD_REACTORS
330
3598
102
}
330
3598
100
AcDbVisualStyle
  2
EdgeColorOff
 70
    22
177
     3
291
     1
 70
    58
 90
        2
176
     0
 90
        2
176
     0
 90
        0
176
     0
 90
        0
176
     0
 40
0.6
176
     0
 40
30.0
176
     0
 62
     7
420
 16777215
176
     0
 90
        1
176
     0
 90
        4
176
     0
 62
     7
176
     0
 62
   257
176
     0
 90
        1
176
     0
 90
        1
176
     0
 40
1.0
176
     0
 90
        8
176
     2
 62
     7
176
     0
 40
1.0
176
     0
 90
        1
176
     0
 90
        6
176
     0
 90
        2
176
     0
 62
     7
176
     0
 90
        5
176
     0
 90
        0
176
     0
 90
        0
176
     0
290
     0
176
     0
 90
        1
176
     0
 40
0.0
176
     0
 90
        0
176
     0
290
     0
176
     0
290
     1
176
     0
290
     1
176
     0
290
     0
176
     0
290
     0
176
     0
290
     0
176
     0
290
     0
176
     0
290
     0
176
     0
290
     0
176
     0
 90
       50
176
     0
 40
0.0
176
     0
 40
1.0
176
     0
 90
        0
176
     0
 62
    18
420
        0
176
     0
 90
       50
176
     0
 90
        3
176
     0
 62
     5
420
      255
176
     0
290
     0
176
     0
 90
       50
176
     0
 90
       50
176
     0
 90
       50
176
     0
290
     0
176
     0
 90
       50
176
     0
 62
   256
176
     0
 40
1.0
176
     0
 90
        2
176
     0
  1
strokes_ogs.tif
176
     0
290
     0
176
     0
 40
1.0
176
     0
 40
1.0
176
     0
  0
VISUALSTYLE
  5
35A7
102
{ACAD_REACTORS
330
3598
102
}
330
3598
100
AcDbVisualStyle
  2
Facepattern
 70
    15
177
     3
291
     1
 70
    58
 90
        2
176
     1
 90
        2
176
     1
 90
        0
176
     1
 90
        0
176
     1
 40
0.6
176
     1
 40
30.0
176
     1
 62
     7
420
 16777215
176
     1
 90
        1
176
     1
 90
        4
176
     1
 62
     7
176
     1
 62
   257
176
     1
 90
        1
176
     1
 90
        1
176
     1
 40
1.0
176
     1
 90
        8
176
     1
 62
     7
176
     1
 40
1.0
176
     1
 90
        1
176
     1
 90
        6
176
     1
 90
        2
176
     1
 62
     7
176
     1
 90
        5
176
     1
 90
        0
176
     1
 90
        0
176
     1
290
     0
176
     1
 90
        1
176
     1
 40
0.0
176
     1
 90
        0
176
     1
290
     0
176
     1
290
     1
176
     1
290
     1
176
     1
290
     0
176
     1
290
     0
176
     1
290
     0
176
     1
290
     0
176
     1
290
     0
176
     1
290
     0
176
     1
 90
       50
176
     1
 40
0.0
176
     1
 40
1.0
176
     1
 90
        0
176
     1
 62
    18
420
        0
176
     1
 90
       50
176
     1
 90
        3
176
     1
 62
     5
420
      255
176
     1
290
     0
176
     1
 90
       50
176
     1
 90
       50
176
     1
 90
       50
176
     1
290
     0
176
     1
 90
       50
176
     1
 62
   256
176
     0
 40
1.0
176
     0
 90
        2
176
     1
  1
strokes_ogs.tif
176
     1
290
     0
176
     1
 40
1.0
176
     1
 40
1.0
176
     1
  0
VISUALSTYLE
  5
3599
102
{ACAD_REACTORS
330
3598
102
}
330
3598
100
AcDbVisualStyle
  2
Flat
 70
     0
177
     3
291
     1
 70
    58
 90
        2
176
     1
 90
        1
176
     1
 90
        1
176
     1
 90
        2
176
     1
 40
0.6
176
     1
 40
30.0
176
     1
 62
     7
420
 16777215
176
     1
 90
        0
176
     1
 90
        0
176
     1
 62
     7
176
     1
 62
   257
176
     1
 90
        1
176
     1
 90
        1
176
     1
 40
1.0
176
     1
 90
        8
176
     1
 62
     7
176
     1
 40
1.0
176
     1
 90
        1
176
     1
 90
        6
176
     1
 90
        2
176
     1
 62
     7
176
     1
 90
        5
176
     1
 90
        0
176
     1
 90
        0
176
     1
290
     0
176
     1
 90
       13
176
     1
 40
0.0
176
     1
 90
        0
176
     1
290
     0
176
     1
290
     1
176
     1
290
     1
176
     1
290
     0
176
     1
290
     0
176
     1
290
     0
176
     1
290
     0
176
     1
290
     0
176
     1
290
     0
176
     1
 90
       50
176
     1
 40
0.0
176
     1
 40
1.0
176
     1
 90
        0
176
     1
 62
    18
420
        0
176
     1
 90
       50
176
     1
 90
        3
176
     1
 62
     5
420
      255
176
     1
290
     0
176
     1
 90
       50
176
     1
 90
       50
176
     1
 90
       50
176
     1
290
     0
176
     1
 90
       50
176
     1
 62
   256
176
     0
 40
1.0
176
     0
 90
        2
176
     1
  1
strokes_ogs.tif
176
     1
290
     0
176
     1
 40
1.0
176
     1
 40
1.0
176
     1
  0
VISUALSTYLE
  5
359A
102
{ACAD_REACTORS
330
3598
102
}
330
3598
100
AcDbVisualStyle
  2
FlatWithEdges
 70
     1
177
     3
291
     1
 70
    58
 90
        2
176
     1
 90
        1
176
     1
 90
        1
176
     1
 90
        2
176
     1
 40
0.6
176
     1
 40
30.0
176
     1
 62
     7
420
 16777215
176
     1
 90
        1
176
     1
 90
        0
176
     1
 62
     7
176
     1
 62
   257
176
     1
 90
        1
176
     1
 90
        1
176
     1
 40
1.0
176
     1
 90
        0
176
     1
 62
   257
176
     1
 40
1.0
176
     1
 90
        1
176
     1
 90
        6
176
     1
 90
        2
176
     1
 62
     7
176
     1
 90
        5
176
     1
 90
        0
176
     1
 90
        0
176
     1
290
     0
176
     1
 90
       13
176
     1
 40
0.0
176
     1
 90
        0
176
     1
290
     0
176
     1
290
     1
176
     1
290
     1
176
     1
290
     0
176
     1
290
     0
176
     1
290
     0
176
     1
290
     0
176
     1
290
     0
176
     1
290
     0
176
     1
 90
       50
176
     1
 40
0.0
176
     1
 40
1.0
176
     1
 90
        0
176
     1
 62
    18
420
        0
176
     1
 90
       50
176
     1
 90
        3
176
     1
 62
     5
420
      255
176
     1
290
     0
176
     1
 90
       50
176
     1
 90
       50
176
     1
 90
       50
176
     1
290
     0
176
     1
 90
       50
176
     1
 62
   256
176
     0
 40
1.0
176
     0
 90
        2
176
     1
  1
strokes_ogs.tif
176
     1
290
     0
176
     1
 40
1.0
176
     1
 40
1.0
176
     1
  0
VISUALSTYLE
  5
359B
102
{ACAD_REACTORS
330
3598
102
}
330
3598
100
AcDbVisualStyle
  2
Gouraud
 70
     2
177
     3
291
     1
 70
    58
 90
        2
176
     1
 90
        2
176
     1
 90
        1
176
     1
 90
        2
176
     1
 40
0.6
176
     1
 40
30.0
176
     1
 62
     7
420
 16777215
176
     1
 90
        0
176
     1
 90
        0
176
     1
 62
     7
176
     1
 62
   257
176
     1
 90
        1
176
     1
 90
        1
176
     1
 40
1.0
176
     1
 90
        0
176
     1
 62
     7
176
     1
 40
1.0
176
     1
 90
        1
176
     1
 90
        6
176
     1
 90
        2
176
     1
 62
     7
176
     1
 90
        5
176
     1
 90
        0
176
     1
 90
        0
176
     1
290
     0
176
     1
 90
       13
176
     1
 40
0.0
176
     1
 90
        0
176
     1
290
     0
176
     1
290
     1
176
     1
290
     1
176
     1
290
     0
176
     1
290
     0
176
     1
290
     0
176
     1
290
     0
176
     1
290
     0
176
     1
290
     0
176
     1
 90
       50
176
     1
 40
0.0
176
     1
 40
1.0
176
     1
 90
        0
176
     1
 62
    18
420
        0
176
     1
 90
       50
176
     1
 90
        3
176
     1
 62
     5
420
      255
176
     1
290
     0
176
     1
 90
       50
176
     1
 90
       50
176
     1
 90
       50
176
     1
290
     0
176
     1
 90
       50
176
     1
 62
   256
176
     0
 40
1.0
176
     0
 90
        2
176
     1
  1
strokes_ogs.tif
176
     1
290
     0
176
     1
 40
1.0
176
     1
 40
1.0
176
     1
  0
VISUALSTYLE
  5
359C
102
{ACAD_REACTORS
330
3598
102
}
330
3598
100
AcDbVisualStyle
  2
GouraudWithEdges
 70
     3
177
     3
291
     1
 70
    58
 90
        2
176
     1
 90
        2
176
     1
 90
        1
176
     1
 90
        2
176
     1
 40
0.6
176
     1
 40
30.0
176
     1
 62
     7
420
 16777215
176
     1
 90
        1
176
     1
 90
        0
176
     1
 62
     7
176
     1
 62
   257
176
     1
 90
        1
176
     1
 90
        1
176
     1
 40
1.0
176
     1
 90
        0
176
     1
 62
   257
176
     1
 40
1.0
176
     1
 90
        1
176
     1
 90
        6
176
     1
 90
        2
176
     1
 62
     7
176
     1
 90
        5
176
     1
 90
        0
176
     1
 90
        0
176
     1
290
     0
176
     1
 90
       13
176
     1
 40
0.0
176
     1
 90
        0
176
     1
290
     0
176
     1
290
     1
176
     1
290
     1
176
     1
290
     0
176
     1
290
     0
176
     1
290
     0
176
     1
290
     0
176
     1
290
     0
176
     1
290
     0
176
     1
 90
       50
176
     1
 40
0.0
176
     1
 40
1.0
176
     1
 90
        0
176
     1
 62
    18
420
        0
176
     1
 90
       50
176
     1
 90
        3
176
     1
 62
     5
420
      255
176
     1
290
     0
176
     1
 90
       50
176
     1
 90
       50
176
     1
 90
       50
176
     1
290
     0
176
     1
 90
       50
176
     1
 62
   256
176
     0
 40
1.0
176
     0
 90
        2
176
     1
  1
strokes_ogs.tif
176
     1
290
     0
176
     1
 40
1.0
176
     1
 40
1.0
176
     1
  0
VISUALSTYLE
  5
35A0
102
{ACAD_REACTORS
330
3598
102
}
330
3598
100
AcDbVisualStyle
  2
Hidden
 70
     6
177
     3
291
     0
 70
    58
 90
        1
176
     1
 90
        2
176
     1
 90
        2
176
     1
 90
        0
176
     1
 40
0.6
176
     1
 40
30.0
176
     1
 62
     7
420
 16777215
176
     1
 90
        2
176
     1
 90
        2
176
     1
 62
     7
176
     1
 62
   257
176
     1
 90
        2
176
     1
 90
        1
176
     1
 40
40.0
176
     1
 90
        0
176
     1
 62
   257
176
     1
 40
1.0
176
     1
 90
        1
176
     1
 90
        6
176
     1
 90
        2
176
     1
 62
     7
176
     1
 90
        3
176
     1
 90
        0
176
     1
 90
        0
176
     1
290
     0
176
     1
 90
        1
176
     1
 40
0.0
176
     1
 90
        0
176
     1
290
     0
176
     1
290
     1
176
     1
290
     1
176
     1
290
     0
176
     1
290
     0
176
     1
290
     0
176
     1
290
     0
176
     1
290
     0
176
     1
290
     0
176
     1
 90
       50
176
     1
 40
0.0
176
     1
 40
1.0
176
     1
 90
        0
176
     1
 62
    18
420
        0
176
     1
 90
       50
176
     1
 90
        3
176
     1
 62
     5
420
      255
176
     1
290
     0
176
     1
 90
       50
176
     1
 90
       50
176
     1
 90
       50
176
     1
290
     0
176
     1
 90
       50
176
     1
 62
   256
176
     0
 40
1.0
176
     0
 90
        2
176
     1
  1
strokes_ogs.tif
176
     1
290
     0
176
     1
 40
1.0
176
     1
 40
1.0
176
     1
  0
VISUALSTYLE
  5
35AE
102
{ACAD_REACTORS
330
3598
102
}
330
3598
100
AcDbVisualStyle
  2
JitterOff
 70
    20
177
     3
291
     1
 70
    58
 90
        2
176
     0
 90
        2
176
     0
 90
        0
176
     0
 90
        0
176
     0
 40
0.6
176
     0
 40
30.0
176
     0
 62
     7
420
 16777215
176
     0
 90
        1
176
     0
 90
        4
176
     0
 62
     7
176
     0
 62
   257
176
     0
 90
        1
176
     0
 90
        1
176
     0
 40
1.0
176
     0
 90
       10
176
     2
 62
     7
176
     0
 40
1.0
176
     0
 90
        1
176
     0
 90
        6
176
     0
 90
        2
176
     0
 62
     7
176
     0
 90
        5
176
     0
 90
        0
176
     0
 90
        0
176
     0
290
     0
176
     0
 90
        1
176
     0
 40
0.0
176
     0
 90
        0
176
     0
290
     0
176
     0
290
     1
176
     0
290
     1
176
     0
290
     0
176
     0
290
     0
176
     0
290
     0
176
     0
290
     0
176
     0
290
     0
176
     0
290
     0
176
     0
 90
       50
176
     0
 40
0.0
176
     0
 40
1.0
176
     0
 90
        0
176
     0
 62
    18
420
        0
176
     0
 90
       50
176
     0
 90
        3
176
     0
 62
     5
420
      255
176
     0
290
     0
176
     0
 90
       50
176
     0
 90
       50
176
     0
 90
       50
176
     0
290
     0
176
     0
 90
       50
176
     0
 62
   256
176
     0
 40
1.0
176
     0
 90
        2
176
     0
  1
strokes_ogs.tif
176
     0
290
     0
176
     0
 40
1.0
176
     0
 40
1.0
176
     0
  0
VISUALSTYLE
  5
35A6
102
{ACAD_REACTORS
330
3598
102
}
330
3598
100
AcDbVisualStyle
  2
Linepattern
 70
    14
177
     3
291
     1
 70
    58
 90
        2
176
     1
 90
        2
176
     1
 90
        0
176
     1
 90
        0
176
     1
 40
0.6
176
     1
 40
30.0
176
     1
 62
     7
420
 16777215
176
     1
 90
        1
176
     1
 90
        4
176
     1
 62
     7
176
     1
 62
   257
176
     1
 90
        7
176
     1
 90
        7
176
     1
 40
1.0
176
     1
 90
        8
176
     1
 62
     7
176
     1
 40
1.0
176
     1
 90
        1
176
     1
 90
        6
176
     1
 90
        2
176
     1
 62
     7
176
     1
 90
        5
176
     1
 90
        0
176
     1
 90
        0
176
     1
290
     0
176
     1
 90
        1
176
     1
 40
0.0
176
     1
 90
        0
176
     1
290
     0
176
     1
290
     1
176
     1
290
     1
176
     1
290
     0
176
     1
290
     0
176
     1
290
     0
176
     1
290
     0
176
     1
290
     0
176
     1
290
     0
176
     1
 90
       50
176
     1
 40
0.0
176
     1
 40
1.0
176
     1
 90
        0
176
     1
 62
    18
420
        0
176
     1
 90
       50
176
     1
 90
        3
176
     1
 62
     5
420
      255
176
     1
290
     0
176
     1
 90
       50
176
     1
 90
       50
176
     1
 90
       50
176
     1
290
     0
176
     1
 90
       50
176
     1
 62
   256
176
     0
 40
1.0
176
     0
 90
        2
176
     1
  1
strokes_ogs.tif
176
     1
290
     0
176
     1
 40
1.0
176
     1
 40
1.0
176
     1
  0
VISUALSTYLE
  5
35AF
102
{ACAD_REACTORS
330
3598
102
}
330
3598
100
AcDbVisualStyle
  2
OverhangOff
 70
    21
177
     3
291
     1
 70
    58
 90
        2
176
     0
 90
        2
176
     0
 90
        0
176
     0
 90
        0
176
     0
 40
0.6
176
     0
 40
30.0
176
     0
 62
     7
420
 16777215
176
     0
 90
        1
176
     0
 90
        4
176
     0
 62
     7
176
     0
 62
   257
176
     0
 90
        1
176
     0
 90
        1
176
     0
 40
1.0
176
     0
 90
        9
176
     2
 62
     7
176
     0
 40
1.0
176
     0
 90
        1
176
     0
 90
        6
176
     0
 90
        2
176
     0
 62
     7
176
     0
 90
        5
176
     0
 90
        0
176
     0
 90
        0
176
     0
290
     0
176
     0
 90
        1
176
     0
 40
0.0
176
     0
 90
        0
176
     0
290
     0
176
     0
290
     1
176
     0
290
     1
176
     0
290
     0
176
     0
290
     0
176
     0
290
     0
176
     0
290
     0
176
     0
290
     0
176
     0
290
     0
176
     0
 90
       50
176
     0
 40
0.0
176
     0
 40
1.0
176
     0
 90
        0
176
     0
 62
    18
420
        0
176
     0
 90
       50
176
     0
 90
        3
176
     0
 62
     5
420
      255
176
     0
290
     0
176
     0
 90
       50
176
     0
 90
       50
176
     0
 90
       50
176
     0
290
     0
176
     0
 90
       50
176
     0
 62
   256
176
     0
 40
1.0
176
     0
 90
        2
176
     0
  1
strokes_ogs.tif
176
     0
290
     0
176
     0
 40
1.0
176
     0
 40
1.0
176
     0
  0
VISUALSTYLE
  5
35A2
102
{ACAD_REACTORS
330
3598
102
}
330
3598
100
AcDbVisualStyle
  2
Realistic
 70
     8
177
     3
291
     0
 70
    58
 90
        2
176
     1
 90
        3
176
     1
 90
        0
176
     1
 90
        2
176
     1
 40
0.6
176
     1
 40
30.0
176
     1
 62
     7
420
 16777215
176
     1
 90
        0
176
     1
 90
        0
176
     1
 62
     7
176
     1
 62
   257
176
     1
 90
        1
176
     1
 90
        1
176
     1
 40
1.0
176
     1
 90
        8
176
     1
 62
   257
176
     1
 40
1.0
176
     1
 90
        1
176
     1
 90
        6
176
     1
 90
        2
176
     1
 62
     7
176
     1
 90
        3
176
     1
 90
        0
176
     1
 90
        0
176
     1
290
     0
176
     1
 90
       13
176
     1
 40
0.0
176
     1
 90
        0
176
     1
290
     0
176
     1
290
     1
176
     1
290
     1
176
     1
290
     0
176
     1
290
     0
176
     1
290
     0
176
     1
290
     0
176
     1
290
     0
176
     1
290
     0
176
     1
 90
       50
176
     1
 40
0.0
176
     1
 40
1.0
176
     1
 90
        0
176
     1
 62
    18
420
        0
176
     1
 90
       50
176
     1
 90
        3
176
     1
 62
     5
420
      255
176
     1
290
     0
176
     1
 90
       50
176
     1
 90
       50
176
     1
 90
       50
176
     1
290
     0
176
     1
 90
       50
176
     1
 62
   256
176
     0
 40
1.0
176
     0
 90
        2
176
     1
  1
strokes_ogs.tif
176
     1
290
     0
176
     1
 40
1.0
176
     1
 40
1.0
176
     1
  0
VISUALSTYLE
  5
35AD
102
{ACAD_REACTORS
330
3598
102
}
330
3598
100
AcDbVisualStyle
  2
Shaded
 70
    27
177
     3
291
     0
 70
    58
 90
        2
176
     1
 90
        2
176
     1
 90
        1
176
     1
 90
        2
176
     1
 40
0.6
176
     1
 40
30.0
176
     1
 62
     7
420
 16777215
176
     1
 90
        0
176
     1
 90
        4
176
     1
 62
     7
176
     1
 62
   257
176
     1
 90
        1
176
     1
 90
        1
176
     1
 40
1.0
176
     1
 90
        8
176
     1
 62
   257
176
     1
 40
1.0
176
     1
 90
        1
176
     1
 90
        6
176
     1
 90
        2
176
     1
 62
     8
420
  7895160
176
     1
 90
        3
176
     1
 90
        0
176
     1
 90
        0
176
     1
290
     0
176
     1
 90
        5
176
     1
 40
0.0
176
     1
 90
        0
176
     1
290
     0
176
     1
290
     1
176
     1
290
     1
176
     1
290
     0
176
     1
290
     0
176
     1
290
     0
176
     1
290
     0
176
     1
290
     0
176
     1
290
     0
176
     1
 90
       50
176
     1
 40
0.0
176
     1
 40
1.0
176
     1
 90
        0
176
     1
 62
    18
420
        0
176
     1
 90
       50
176
     1
 90
        3
176
     1
 62
     5
420
      255
176
     1
290
     0
176
     1
 90
       50
176
     1
 90
       50
176
     1
 90
       50
176
     1
290
     0
176
     1
 90
       50
176
     1
 62
   256
176
     0
 40
1.0
176
     0
 90
        2
176
     1
  1
strokes_ogs.tif
176
     1
290
     0
176
     1
 40
1.0
176
     1
 40
1.0
176
     1
  0
VISUALSTYLE
  5
35AC
102
{ACAD_REACTORS
330
3598
102
}
330
3598
100
AcDbVisualStyle
  2
Shaded with edges
 70
    26
177
     3
291
     0
 70
    58
 90
        2
176
     1
 90
        2
176
     1
 90
        1
176
     1
 90
        2
176
     1
 40
0.6
176
     1
 40
30.0
176
     1
 62
     7
420
 16777215
176
     1
 90
        1
176
     1
 90
        2
176
     1
 62
     7
176
     1
 62
   257
176
     1
 90
        2
176
     1
 90
        1
176
     1
 40
1.0
176
     1
 90
        8
176
     1
 62
   257
176
     1
 40
1.0
176
     1
 90
        1
176
     1
 90
        6
176
     1
 90
        2
176
     1
 62
     7
176
     1
 90
        3
176
     1
 90
        0
176
     1
 90
        0
176
     1
290
     0
176
     1
 90
        5
176
     1
 40
0.0
176
     1
 90
        0
176
     1
290
     0
176
     1
290
     1
176
     1
290
     1
176
     1
290
     0
176
     1
290
     0
176
     1
290
     0
176
     1
290
     0
176
     1
290
     0
176
     1
290
     0
176
     1
 90
       50
176
     1
 40
0.0
176
     1
 40
1.0
176
     1
 90
        0
176
     1
 62
    18
420
        0
176
     1
 90
       50
176
     1
 90
        3
176
     1
 62
     5
420
      255
176
     1
290
     0
176
     1
 90
       50
176
     1
 90
       50
176
     1
 90
       50
176
     1
290
     0
176
     1
 90
       50
176
     1
 62
   256
176
     0
 40
1.0
176
     0
 90
        2
176
     1
  1
strokes_ogs.tif
176
     1
290
     0
176
     1
 40
1.0
176
     1
 40
1.0
176
     1
  0
VISUALSTYLE
  5
35A9
102
{ACAD_REACTORS
330
3598
102
}
330
3598
100
AcDbVisualStyle
  2
Shades of Gray
 70
    23
177
     3
291
     0
 70
    58
 90
        2
176
     1
 90
        2
176
     1
 90
        3
176
     1
 90
        0
176
     1
 40
0.6
176
     1
 40
30.0
176
     1
 62
     7
420
 16777215
176
     1
 90
        2
176
     1
 90
        2
176
     1
 62
     7
176
     1
 62
     7
176
     1
 90
        1
176
     1
 90
        1
176
     1
 40
40.0
176
     1
 90
        8
176
     1
 62
     7
176
     1
 40
1.0
176
     1
 90
        1
176
     1
 90
        6
176
     1
 90
        2
176
     1
 62
     7
176
     1
 90
        3
176
     1
 90
        0
176
     1
 90
        0
176
     1
290
     0
176
     1
 90
        1
176
     1
 40
0.0
176
     1
 90
        0
176
     1
290
     0
176
     1
290
     1
176
     1
290
     1
176
     1
290
     0
176
     1
290
     0
176
     1
290
     0
176
     1
290
     0
176
     1
290
     0
176
     1
290
     0
176
     1
 90
       50
176
     1
 40
0.0
176
     1
 40
1.0
176
     1
 90
        0
176
     1
 62
    18
420
        0
176
     1
 90
       50
176
     1
 90
        3
176
     1
 62
     5
420
      255
176
     1
290
     0
176
     1
 90
       50
176
     1
 90
       50
176
     1
 90
       50
176
     1
290
     0
176
     1
 90
       50
176
     1
 62
   256
176
     0
 40
1.0
176
     0
 90
        2
176
     1
  1
strokes_ogs.tif
176
     1
290
     0
176
     1
 40
1.0
176
     1
 40
1.0
176
     1
  0
VISUALSTYLE
  5
35AA
102
{ACAD_REACTORS
330
3598
102
}
330
3598
100
AcDbVisualStyle
  2
Sketchy
 70
    24
177
     3
291
     0
 70
    58
 90
        1
176
     1
 90
        2
176
     1
 90
        2
176
     1
 90
        0
176
     1
 40
0.6
176
     1
 40
30.0
176
     1
 62
     7
420
 16777215
176
     1
 90
        2
176
     1
 90
        2
176
     1
 62
     7
176
     1
 62
     7
176
     1
 90
        1
176
     1
 90
        1
176
     1
 40
40.0
176
     1
 90
       11
176
     1
 62
     7
176
     1
 40
1.0
176
     1
 90
        1
176
     1
 90
        6
176
     1
 90
        2
176
     1
 62
     7
176
     1
 90
        6
176
     1
 90
        0
176
     1
 90
        0
176
     1
290
     0
176
     1
 90
        1
176
     1
 40
0.0
176
     1
 90
        0
176
     1
290
     0
176
     1
290
     1
176
     1
290
     1
176
     1
290
     0
176
     1
290
     0
176
     1
290
     0
176
     1
290
     0
176
     1
290
     0
176
     1
290
     0
176
     1
 90
       50
176
     1
 40
0.0
176
     1
 40
1.0
176
     1
 90
        0
176
     1
 62
    18
420
        0
176
     1
 90
       50
176
     1
 90
        3
176
     1
 62
     5
420
      255
176
     1
290
     0
176
     1
 90
       50
176
     1
 90
       50
176
     1
 90
       50
176
     1
290
     0
176
     1
 90
       50
176
     1
 62
   256
176
     0
 40
1.0
176
     0
 90
        2
176
     1
  1
strokes_ogs.tif
176
     1
290
     0
176
     1
 40
1.0
176
     1
 40
1.0
176
     1
  0
VISUALSTYLE
  5
35A5
102
{ACAD_REACTORS
330
3598
102
}
330
3598
100
AcDbVisualStyle
  2
Thicken
 70
    13
177
     3
291
     1
 70
    58
 90
        2
176
     1
 90
        2
176
     1
 90
        0
176
     1
 90
        0
176
     1
 40
0.6
176
     1
 40
30.0
176
     1
 62
     7
420
 16777215
176
     1
 90
        1
176
     1
 90
        4
176
     1
 62
     7
176
     1
 62
   257
176
     1
 90
        1
176
     1
 90
        1
176
     1
 40
1.0
176
     1
 90
       12
176
     1
 62
     7
176
     1
 40
1.0
176
     1
 90
        1
176
     1
 90
        6
176
     1
 90
        2
176
     1
 62
     7
176
     1
 90
        5
176
     1
 90
        0
176
     1
 90
        0
176
     1
290
     0
176
     1
 90
        1
176
     1
 40
0.0
176
     1
 90
        0
176
     1
290
     0
176
     1
290
     1
176
     1
290
     1
176
     1
290
     0
176
     1
290
     0
176
     1
290
     0
176
     1
290
     0
176
     1
290
     0
176
     1
290
     0
176
     1
 90
       50
176
     1
 40
0.0
176
     1
 40
1.0
176
     1
 90
        0
176
     1
 62
    18
420
        0
176
     1
 90
       50
176
     1
 90
        3
176
     1
 62
     5
420
      255
176
     1
290
     0
176
     1
 90
       50
176
     1
 90
       50
176
     1
 90
       50
176
     1
290
     0
176
     1
 90
       50
176
     1
 62
   256
176
     0
 40
1.0
176
     0
 90
        2
176
     1
  1
strokes_ogs.tif
176
     1
290
     0
176
     1
 40
1.0
176
     1
 40
1.0
176
     1
  0
VISUALSTYLE
  5
359F
102
{ACAD_REACTORS
330
3598
102
}
330
3598
100
AcDbVisualStyle
  2
Wireframe
 70
     5
177
     3
291
     0
 70
    58
 90
        0
176
     1
 90
        2
176
     1
 90
        0
176
     1
 90
        0
176
     1
 40
0.6
176
     1
 40
30.0
176
     1
 62
     7
420
 16777215
176
     1
 90
        1
176
     1
 90
        4
176
     1
 62
     7
176
     1
 62
   257
176
     1
 90
        1
176
     1
 90
        1
176
     1
 40
1.0
176
     1
 90
        0
176
     1
 62
   257
176
     1
 40
1.0
176
     1
 90
        1
176
     1
 90
        6
176
     1
 90
        2
176
     1
 62
     7
176
     1
 90
        3
176
     1
 90
        0
176
     1
 90
        0
176
     1
290
     0
176
     1
 90
        1
176
     1
 40
0.0
176
     1
 90
        0
176
     1
290
     0
176
     1
290
     1
176
     1
290
     1
176
     1
290
     0
176
     1
290
     0
176
     1
290
     0
176
     1
290
     0
176
     1
290
     0
176
     1
290
     0
176
     1
 90
       50
176
     1
 40
0.0
176
     1
 40
1.0
176
     1
 90
        0
176
     1
 62
    18
420
        0
176
     1
 90
       50
176
     1
 90
        3
176
     1
 62
     5
420
      255
176
     1
290
     0
176
     1
 90
       50
176
     1
 90
       50
176
     1
 90
       50
176
     1
290
     0
176
     1
 90
       50
176
     1
 62
   256
176
     0
 40
1.0
176
     0
 90
        2
176
     1
  1
strokes_ogs.tif
176
     1
290
     0
176
     1
 40
1.0
176
     1
 40
1.0
176
     1
  0
VISUALSTYLE
  5
35AB
102
{ACAD_REACTORS
330
3598
102
}
330
3598
100
AcDbVisualStyle
  2
X-Ray
 70
    25
177
     3
291
     0
 70
    58
 90
        2
176
     1
 90
        2
176
     1
 90
        1
176
     1
 90
        1
176
     1
 40
0.5
176
     1
 40
30.0
176
     1
 62
     7
420
 16777215
176
     1
 90
        1
176
     1
 90
        0
176
     1
 62
     7
176
     1
 62
   257
176
     1
 90
        1
176
     1
 90
        1
176
     1
 40
1.0
176
     1
 90
        8
176
     1
 62
     7
176
     1
 40
1.0
176
     1
 90
        1
176
     1
 90
        6
176
     1
 90
        2
176
     1
 62
     7
176
     1
 90
        3
176
     1
 90
        0
176
     1
 90
        0
176
     1
290
     0
176
     1
 90
       13
176
     1
 40
0.0
176
     1
 90
        0
176
     1
290
     0
176
     1
290
     1
176
     1
290
     1
176
     1
290
     0
176
     1
290
     0
176
     1
290
     0
176
     1
290
     0
176
     1
290
     0
176
     1
290
     0
176
     1
 90
       50
176
     1
 40
0.0
176
     1
 40
1.0
176
     1
 90
        0
176
     1
 62
    18
420
        0
176
     1
 90
       50
176
     1
 90
        3
176
     1
 62
     5
420
      255
176
     1
290
     0
176
     1
 90
       50
176
     1
 90
       50
176
     1
 90
       50
176
     1
290
     0
176
     1
 90
       50
176
     1
 62
   256
176
     0
 40
1.0
176
     0
 90
        2
176
     1
  1
strokes_ogs.tif
176
     1
290
     0
176
     1
 40
1.0
176
     1
 40
1.0
176
     1
  0
DICTIONARYVAR
  5
35E7
102
{ACAD_REACTORS
330
7B
102
}
330
7B
100
DictionaryVariables
280
     0
  1
1:1
  0
DICTIONARYVAR
  5
35E3
102
{ACAD_REACTORS
330
7B
102
}
330
7B
100
DictionaryVariables
280
     0
  1
STANDARD
  0
DICTIONARYVAR
  5
A60
102
{ACAD_REACTORS
330
7B
102
}
330
7B
100
DictionaryVariables
280
     0
  1
STANDARD
  0
DICTIONARYVAR
  5
35E4
102
{ACAD_REACTORS
330
7B
102
}
330
7B
100
DictionaryVariables
280
     0
  1
Imperial24
  0
DICTIONARYVAR
  5
35E5
102
{ACAD_REACTORS
330
7B
102
}
330
7B
100
DictionaryVariables
280
     0
  1
Imperial24
  0
DICTIONARYVAR
  5
ADC
102
{ACAD_REACTORS
330
7B
102
}
330
7B
100
DictionaryVariables
280
     0
  1
1
  0
DICTIONARYVAR
  5
35E9
102
{ACAD_REACTORS
330
7B
102
}
330
7B
100
DictionaryVariables
280
     0
  1
1
  0
DICTIONARYVAR
  5
35EA
102
{ACAD_REACTORS
330
7B
102
}
330
7B
100
DictionaryVariables
280
     0
  1
15
  0
DICTIONARYVAR
  5
35E8
102
{ACAD_REACTORS
330
7B
102
}
330
7B
100
DictionaryVariables
280
     0
  1
0
  0
DICTIONARYVAR
  5
35E6
102
{ACAD_REACTORS
330
7B
102
}
330
7B
100
DictionaryVariables
280
     0
  1
0
  0
DICTIONARYVAR
  5
ADD
102
{ACAD_REACTORS
330
7B
102
}
330
7B
100
DictionaryVariables
280
     0
  1

  0
DICTIONARYVAR
  5
7C
102
{ACAD_REACTORS
330
7B
102
}
330
7B
100
DictionaryVariables
280
     0
  1
96
  0
DICTIONARY
  5
35EF
330
35C8
100
AcDbDictionary
280
     1
281
     1
  3
ACAD_XREC_ROUNDTRIP
360
35F0
  0
DICTIONARY
  5
3589
330
3588
100
AcDbDictionary
280
     1
281
     1
  3
BUMPTILE
360
358B
  3
DIFFUSETILE
360
358A
  3
OPACITYTILE
360
358E
  3
REFLECTIONTILE
360
358D
  3
REFRACTIONTILE
360
358F
  3
SPECULARTILE
360
358C
  0
DICTIONARY
  5
3581
330
3580
100
AcDbDictionary
280
     1
281
     1
  3
BUMPTILE
360
3583
  3
DIFFUSETILE
360
3582
  3
OPACITYTILE
360
3586
  3
REFLECTIONTILE
360
3585
  3
REFRACTIONTILE
360
3587
  3
SPECULARTILE
360
3584
  0
DICTIONARY
  5
3591
330
3590
100
AcDbDictionary
280
     1
281
     1
  3
BUMPTILE
360
3593
  3
DIFFUSETILE
360
3592
  3
OPACITYTILE
360
3596
  3
REFLECTIONTILE
360
3595
  3
REFRACTIONTILE
360
3597
  3
SPECULARTILE
360
3594
  0
DICTIONARY
  5
35ED
330
35C6
100
AcDbDictionary
280
     1
281
     1
  3
ACAD_XREC_ROUNDTRIP
360
35EE
  0
DICTIONARY
  5
35EB
330
972
100
AcDbDictionary
280
     1
281
     1
  3
ACAD_ROUNDTRIP_2008_TABLESTYLE_CELLSTYLEMAP
360
35EC
  0
XRECORD
  5
35F0
102
{ACAD_REACTORS
330
35EF
102
}
330
35EF
100
AcDbXrecord
280
     1
102
DISPLAYNAME
  1
Imperial24
102
FLAGS
 90
        0
  0
XRECORD
  5
358B
102
{ACAD_REACTORS
330
3589
102
}
330
3589
100
AcDbXrecord
280
     1
270
     1
271
     1
  0
XRECORD
  5
358A
102
{ACAD_REACTORS
330
3589
102
}
330
3589
100
AcDbXrecord
280
     1
270
     1
271
     1
  0
XRECORD
  5
358E
102
{ACAD_REACTORS
330
3589
102
}
330
3589
100
AcDbXrecord
280
     1
270
     1
271
     1
  0
XRECORD
  5
358D
102
{ACAD_REACTORS
330
3589
102
}
330
3589
100
AcDbXrecord
280
     1
270
     1
271
     1
  0
XRECORD
  5
358F
102
{ACAD_REACTORS
330
3589
102
}
330
3589
100
AcDbXrecord
280
     1
270
     1
271
     1
  0
XRECORD
  5
358C
102
{ACAD_REACTORS
330
3589
102
}
330
3589
100
AcDbXrecord
280
     1
270
     1
271
     1
  0
XRECORD
  5
3583
102
{ACAD_REACTORS
330
3581
102
}
330
3581
100
AcDbXrecord
280
     1
270
     1
271
     1
  0
XRECORD
  5
3582
102
{ACAD_REACTORS
330
3581
102
}
330
3581
100
AcDbXrecord
280
     1
270
     1
271
     1
  0
XRECORD
  5
3586
102
{ACAD_REACTORS
330
3581
102
}
330
3581
100
AcDbXrecord
280
     1
270
     1
271
     1
  0
XRECORD
  5
3585
102
{ACAD_REACTORS
330
3581
102
}
330
3581
100
AcDbXrecord
280
     1
270
     1
271
     1
  0
XRECORD
  5
3587
102
{ACAD_REACTORS
330
3581
102
}
330
3581
100
AcDbXrecord
280
     1
270
     1
271
     1
  0
XRECORD
  5
3584
102
{ACAD_REACTORS
330
3581
102
}
330
3581
100
AcDbXrecord
280
     1
270
     1
271
     1
  0
XRECORD
  5
3593
102
{ACAD_REACTORS
330
3591
102
}
330
3591
100
AcDbXrecord
280
     1
270
     1
271
     1
  0
XRECORD
  5
3592
102
{ACAD_REACTORS
330
3591
102
}
330
3591
100
AcDbXrecord
280
     1
270
     1
271
     1
  0
XRECORD
  5
3596
102
{ACAD_REACTORS
330
3591
102
}
330
3591
100
AcDbXrecord
280
     1
270
     1
271
     1
  0
XRECORD
  5
3595
102
{ACAD_REACTORS
330
3591
102
}
330
3591
100
AcDbXrecord
280
     1
270
     1
271
     1
  0
XRECORD
  5
3597
102
{ACAD_REACTORS
330
3591
102
}
330
3591
100
AcDbXrecord
280
     1
270
     1
271
     1
  0
XRECORD
  5
3594
102
{ACAD_REACTORS
330
3591
102
}
330
3591
100
AcDbXrecord
280
     1
270
     1
271
     1
  0
XRECORD
  5
35EE
102
{ACAD_REACTORS
330
35ED
102
}
330
35ED
100
AcDbXrecord
280
     1
102
DISPLAYNAME
  1
Imperial24
102
FLAGS
 90
        0
  0
CELLSTYLEMAP
  5
35EC
102
{ACAD_REACTORS
330
35EB
102
}
330
35EB
100
AcDbCellStyleMap
 90
        3
300
CELLSTYLE
  1
TABLEFORMAT_BEGIN
 90
        5
170
     1
 91
        0
 92
    32768
 62
   257
 93
        1
300
CONTENTFORMAT
  1
CONTENTFORMAT_BEGIN
 90
        0
 91
        0
 92
        4
 93
        0
300

 40
0.0
140
1.0
 94
        5
 62
     0
340
11
144
0.25
309
CONTENTFORMAT_END
171
     0
 94
        6
 95
        1
302
GRIDFORMAT
  1
GRIDFORMAT_BEGIN
 90
        0
 91
        1
 62
     0
 92
       -2
340
0
 93
        0
 40
0.045
309
GRIDFORMAT_END
 95
        2
302
GRIDFORMAT
  1
GRIDFORMAT_BEGIN
 90
        0
 91
        1
 62
     0
 92
       -2
340
0
 93
        0
 40
0.045
309
GRIDFORMAT_END
 95
        4
302
GRIDFORMAT
  1
GRIDFORMAT_BEGIN
 90
        0
 91
        1
 62
     0
 92
       -2
340
0
 93
        0
 40
0.045
309
GRIDFORMAT_END
 95
        8
302
GRIDFORMAT
  1
GRIDFORMAT_BEGIN
 90
        0
 91
        1
 62
     0
 92
       -2
340
0
 93
        0
 40
0.045
309
GRIDFORMAT_END
 95
       16
302
GRIDFORMAT
  1
GRIDFORMAT_BEGIN
 90
        0
 91
        1
 62
     0
 92
       -2
340
0
 93
        0
 40
0.045
309
GRIDFORMAT_END
 95
       32
302
GRIDFORMAT
  1
GRIDFORMAT_BEGIN
 90
        0
 91
        1
 62
     0
 92
       -2
340
0
 93
        0
 40
0.045
309
GRIDFORMAT_END
309
TABLEFORMAT_END
  1
CELLSTYLE_BEGIN
 90
        1
 91
        1
300
_TITLE
309
CELLSTYLE_END
300
CELLSTYLE
  1
TABLEFORMAT_BEGIN
 90
        5
170
     1
 91
        0
 92
        0
 62
   257
 93
        1
300
CONTENTFORMAT
  1
CONTENTFORMAT_BEGIN
 90
        0
 91
        0
 92
        4
 93
        0
300

 40
0.0
140
1.0
 94
        5
 62
     0
340
11
144
0.18
309
CONTENTFORMAT_END
171
     0
 94
        6
 95
        1
302
GRIDFORMAT
  1
GRIDFORMAT_BEGIN
 90
        0
 91
        1
 62
     0
 92
       -2
340
0
 93
        0
 40
0.045
309
GRIDFORMAT_END
 95
        2
302
GRIDFORMAT
  1
GRIDFORMAT_BEGIN
 90
        0
 91
        1
 62
     0
 92
       -2
340
0
 93
        0
 40
0.045
309
GRIDFORMAT_END
 95
        4
302
GRIDFORMAT
  1
GRIDFORMAT_BEGIN
 90
        0
 91
        1
 62
     0
 92
       -2
340
0
 93
        0
 40
0.045
309
GRIDFORMAT_END
 95
        8
302
GRIDFORMAT
  1
GRIDFORMAT_BEGIN
 90
        0
 91
        1
 62
     0
 92
       -2
340
0
 93
        0
 40
0.045
309
GRIDFORMAT_END
 95
       16
302
GRIDFORMAT
  1
GRIDFORMAT_BEGIN
 90
        0
 91
        1
 62
     0
 92
       -2
340
0
 93
        0
 40
0.045
309
GRIDFORMAT_END
 95
       32
302
GRIDFORMAT
  1
GRIDFORMAT_BEGIN
 90
        0
 91
        1
 62
     0
 92
       -2
340
0
 93
        0
 40
0.045
309
GRIDFORMAT_END
309
TABLEFORMAT_END
  1
CELLSTYLE_BEGIN
 90
        2
 91
        1
300
_HEADER
309
CELLSTYLE_END
300
CELLSTYLE
  1
TABLEFORMAT_BEGIN
 90
        5
170
     1
 91
        0
 92
        0
 62
   257
 93
        1
300
CONTENTFORMAT
  1
CONTENTFORMAT_BEGIN
 90
        0
 91
        0
 92
        4
 93
        0
300

 40
0.0
140
1.0
 94
        2
 62
     0
340
11
144
0.18
309
CONTENTFORMAT_END
171
     0
 94
        6
 95
        1
302
GRIDFORMAT
  1
GRIDFORMAT_BEGIN
 90
        0
 91
        1
 62
     0
 92
       -2
340
0
 93
        0
 40
0.045
309
GRIDFORMAT_END
 95
        2
302
GRIDFORMAT
  1
GRIDFORMAT_BEGIN
 90
        0
 91
        1
 62
     0
 92
       -2
340
0
 93
        0
 40
0.045
309
GRIDFORMAT_END
 95
        4
302
GRIDFORMAT
  1
GRIDFORMAT_BEGIN
 90
        0
 91
        1
 62
     0
 92
       -2
340
0
 93
        0
 40
0.045
309
GRIDFORMAT_END
 95
        8
302
GRIDFORMAT
  1
GRIDFORMAT_BEGIN
 90
        0
 91
        1
 62
     0
 92
       -2
340
0
 93
        0
 40
0.045
309
GRIDFORMAT_END
 95
       16
302
GRIDFORMAT
  1
GRIDFORMAT_BEGIN
 90
        0
 91
        1
 62
     0
 92
       -2
340
0
 93
        0
 40
0.045
309
GRIDFORMAT_END
 95
       32
302
GRIDFORMAT
  1
GRIDFORMAT_BEGIN
 90
        0
 91
        1
 62
     0
 92
       -2
340
0
 93
        0
 40
0.045
309
GRIDFORMAT_END
309
TABLEFORMAT_END
  1
CELLSTYLE_BEGIN
 90
        3
 91
        2
300
_DATA
309
CELLSTYLE_END
  0
ENDSEC
  0
EOF
