  0
SECTION
  2
HEADER
  9
$ACADVER
  1
AC1027
  9
$ACADMAINTVER
 70
   125
  9
$DWGCODEPAGE
  3
ANSI_1252
  9
$LASTSAVEDBY
  1
fleminab
  9
$REQUIREDVERSIONS
160
                 0
  9
$INSBASE
 10
0.0
 20
0.0
 30
0.0
  9
$EXTMIN
 10
-8652.644638776953
 20
-133.3342943218631
 30
0.0
  9
$EXTMAX
 10
3599.70913965055
 20
2515.796808427153
 30
0.0
  9
$LIMMIN
 10
0.0
 20
0.0
  9
$LIMMAX
 10
420.0
 20
297.0
  9
$ORTHOMODE
 70
     0
  9
$REGENMODE
 70
     1
  9
$FILLMODE
 70
     1
  9
$QTEXTMODE
 70
     0
  9
$MIRRTEXT
 70
     0
  9
$LTSCALE
 40
1.0
  9
$ATTMODE
 70
     1
  9
$TEXTSIZE
 40
2.5
  9
$TRACEWID
 40
1.0
  9
$TEXTSTYLE
  7
Standard
  9
$CLAYER
  8
0
  9
$CELTYPE
  6
ByLayer
  9
$CECOLOR
 62
   256
  9
$CELTSCALE
 40
1.0
  9
$DISPSILH
 70
     0
  9
$DIMSCALE
 40
1.0
  9
$DIMASZ
 40
12.0
  9
$DIMEXO
 40
0.625
  9
$DIMDLI
 40
3.75
  9
$DIMRND
 40
0.0
  9
$DIMDLE
 40
0.0
  9
$DIMEXE
 40
8.0
  9
$DIMTP
 40
0.0
  9
$DIMTM
 40
0.0
  9
$DIMTXT
 40
30.0
  9
$DIMCEN
 40
2.5
  9
$DIMTSZ
 40
0.0
  9
$DIMTOL
 70
     0
  9
$DIMLIM
 70
     0
  9
$DIMTIH
 70
     0
  9
$DIMTOH
 70
     0
  9
$DIMSE1
 70
     0
  9
$DIMSE2
 70
     0
  9
$DIMTAD
 70
     1
  9
$DIMZIN
 70
     8
  9
$DIMBLK
  1
ClosedBlank
  9
$DIMASO
 70
     1
  9
$DIMSHO
 70
     1
  9
$DIMPOST
  1

  9
$DIMAPOST
  1

  9
$DIMALT
 70
     0
  9
$DIMALTD
 70
     3
  9
$DIMALTF
 40
0.03937007874016
  9
$DIMLFAC
 40
1.0
  9
$DIMTOFL
 70
     1
  9
$DIMTVP
 40
0.0
  9
$DIMTIX
 70
     0
  9
$DIMSOXD
 70
     0
  9
$DIMSAH
 70
     0
  9
$DIMBLK1
  1

  9
$DIMBLK2
  1

  9
$DIMSTYLE
  2
线性标注
  9
$DIMCLRD
 70
     0
  9
$DIMCLRE
 70
     0
  9
$DIMCLRT
 70
     0
  9
$DIMTFAC
 40
1.0
  9
$DIMGAP
 40
0.625
  9
$DIMJUST
 70
     0
  9
$DIMSD1
 70
     0
  9
$DIMSD2
 70
     0
  9
$DIMTOLJ
 70
     0
  9
$DIMTZIN
 70
     8
  9
$DIMALTZ
 70
     0
  9
$DIMALTTZ
 70
     0
  9
$DIMUPT
 70
     0
  9
$DIMDEC
 70
     1
  9
$DIMTDEC
 70
     1
  9
$DIMALTU
 70
     2
  9
$DIMALTTD
 70
     3
  9
$DIMTXSTY
  7
样式 1
  9
$DIMAUNIT
 70
     0
  9
$DIMADEC
 70
     0
  9
$DIMALTRND
 40
0.0
  9
$DIMAZIN
 70
     0
  9
$DIMDSEP
 70
    46
  9
$DIMATFIT
 70
     3
  9
$DIMFRAC
 70
     0
  9
$DIMLDRBLK
  1

  9
$DIMLUNIT
 70
     2
  9
$DIMLWD
 70
    -2
  9
$DIMLWE
 70
    -2
  9
$DIMTMOVE
 70
     0
  9
$DIMFXL
 40
1.25
  9
$DIMFXLON
 70
     0
  9
$DIMJOGANG
 40
1.570796326794896
  9
$DIMTFILL
 70
     0
  9
$DIMTFILLCLR
 70
     0
  9
$DIMARCSYM
 70
     0
  9
$DIMLTYPE
  6

  9
$DIMLTEX1
  6

  9
$DIMLTEX2
  6

  9
$DIMTXTDIRECTION
 70
     0
  9
$LUNITS
 70
     2
  9
$LUPREC
 70
     4
  9
$SKETCHINC
 40
1.0
  9
$FILLETRAD
 40
0.0
  9
$AUNITS
 70
     0
  9
$AUPREC
 70
     0
  9
$MENU
  1
.
  9
$ELEVATION
 40
0.0
  9
$PELEVATION
 40
0.0
  9
$THICKNESS
 40
0.0
  9
$LIMCHECK
 70
     0
  9
$CHAMFERA
 40
0.0
  9
$CHAMFERB
 40
0.0
  9
$CHAMFERC
 40
0.0
  9
$CHAMFERD
 40
0.0
  9
$SKPOLY
 70
     0
  9
$TDCREATE
 40
2455186.694780093
  9
$TDUCREATE
 40
2455186.236449109
  9
$TDUPDATE
 40
2458015.625127315
  9
$TDUUPDATE
 40
2458015.208460648
  9
$TDINDWG
 40
0.0244402662
  9
$TDUSRTIMER
 40
0.0244402662
  9
$USRTIMER
 70
     1
  9
$ANGBASE
 50
0.0
  9
$ANGDIR
 70
     0
  9
$PDMODE
 70
     0
  9
$PDSIZE
 40
0.0
  9
$PLINEWID
 40
0.0
  9
$SPLFRAME
 70
     0
  9
$SPLINETYPE
 70
     6
  9
$SPLINESEGS
 70
     8
  9
$HANDSEED
  5
F97
  9
$SURFTAB1
 70
     6
  9
$SURFTAB2
 70
     6
  9
$SURFTYPE
 70
     6
  9
$SURFU
 70
     6
  9
$SURFV
 70
     6
  9
$UCSBASE
  2

  9
$UCSNAME
  2

  9
$UCSORG
 10
0.0
 20
0.0
 30
0.0
  9
$UCSXDIR
 10
1.0
 20
0.0
 30
0.0
  9
$UCSYDIR
 10
0.0
 20
1.0
 30
0.0
  9
$UCSORTHOREF
  2

  9
$UCSORTHOVIEW
 70
     0
  9
$UCSORGTOP
 10
0.0
 20
0.0
 30
0.0
  9
$UCSORGBOTTOM
 10
0.0
 20
0.0
 30
0.0
  9
$UCSORGLEFT
 10
0.0
 20
0.0
 30
0.0
  9
$UCSORGRIGHT
 10
0.0
 20
0.0
 30
0.0
  9
$UCSORGFRONT
 10
0.0
 20
0.0
 30
0.0
  9
$UCSORGBACK
 10
0.0
 20
0.0
 30
0.0
  9
$PUCSBASE
  2

  9
$PUCSNAME
  2

  9
$PUCSORG
 10
0.0
 20
0.0
 30
0.0
  9
$PUCSXDIR
 10
1.0
 20
0.0
 30
0.0
  9
$PUCSYDIR
 10
0.0
 20
1.0
 30
0.0
  9
$PUCSORTHOREF
  2

  9
$PUCSORTHOVIEW
 70
     0
  9
$PUCSORGTOP
 10
0.0
 20
0.0
 30
0.0
  9
$PUCSORGBOTTOM
 10
0.0
 20
0.0
 30
0.0
  9
$PUCSORGLEFT
 10
0.0
 20
0.0
 30
0.0
  9
$PUCSORGRIGHT
 10
0.0
 20
0.0
 30
0.0
  9
$PUCSORGFRONT
 10
0.0
 20
0.0
 30
0.0
  9
$PUCSORGBACK
 10
0.0
 20
0.0
 30
0.0
  9
$USERI1
 70
     0
  9
$USERI2
 70
     0
  9
$USERI3
 70
     0
  9
$USERI4
 70
     0
  9
$USERI5
 70
     0
  9
$USERR1
 40
0.0
  9
$USERR2
 40
0.0
  9
$USERR3
 40
0.0
  9
$USERR4
 40
0.0
  9
$USERR5
 40
0.0
  9
$WORLDVIEW
 70
     1
  9
$SHADEDGE
 70
     3
  9
$SHADEDIF
 70
    70
  9
$TILEMODE
 70
     1
  9
$MAXACTVP
 70
    64
  9
$PINSBASE
 10
0.0
 20
0.0
 30
0.0
  9
$PLIMCHECK
 70
     0
  9
$PEXTMIN
 10
0.0
 20
0.0
 30
0.0
  9
$PEXTMAX
 10
0.0
 20
0.0
 30
0.0
  9
$PLIMMIN
 10
0.0
 20
0.0
  9
$PLIMMAX
 10
12.0
 20
9.0
  9
$UNITMODE
 70
     0
  9
$VISRETAIN
 70
     1
  9
$PLINEGEN
 70
     0
  9
$PSLTSCALE
 70
     1
  9
$TREEDEPTH
 70
  3020
  9
$CMLSTYLE
  2
Standard
  9
$CMLJUST
 70
     0
  9
$CMLSCALE
 40
20.0
  9
$PROXYGRAPHICS
 70
     1
  9
$MEASUREMENT
 70
     1
  9
$CELWEIGHT
370
    -1
  9
$ENDCAPS
280
     0
  9
$JOINSTYLE
280
     0
  9
$LWDISPLAY
290
     0
  9
$INSUNITS
 70
     4
  9
$HYPERLINKBASE
  1

  9
$STYLESHEET
  1
acad.ctb
  9
$XEDIT
290
     1
  9
$CEPSNTYPE
380
     0
  9
$PSTYLEMODE
290
     1
  9
$FINGERPRINTGUID
  2
{ED63F838-4ED2-4942-9285-01FAB7163B8A}
  9
$VERSIONGUID
  2
{CF64AD37-797B-AF43-848B-229E07406D19}
  9
$EXTNAMES
290
     1
  9
$PSVPSCALE
 40
0.0
  9
$OLESTARTUP
290
     0
  9
$SORTENTS
280
   127
  9
$INDEXCTL
280
     0
  9
$HIDETEXT
280
     1
  9
$XCLIPFRAME
280
     2
  9
$HALOGAP
280
     0
  9
$OBSCOLOR
 70
   257
  9
$OBSLTYPE
280
     0
  9
$INTERSECTIONDISPLAY
280
     0
  9
$INTERSECTIONCOLOR
 70
   257
  9
$DIMASSOC
280
     2
  9
$PROJECTNAME
  1

  9
$CAMERADISPLAY
290
     0
  9
$LENSLENGTH
 40
50.0
  9
$CAMERAHEIGHT
 40
0.0
  9
$STEPSPERSEC
 40
2.0
  9
$STEPSIZE
 40
6.0
  9
$3DDWFPREC
 40
2.0
  9
$PSOLWIDTH
 40
0.25
  9
$PSOLHEIGHT
 40
4.0
  9
$LOFTANG1
 40
1.570796326794896
  9
$LOFTANG2
 40
1.570796326794896
  9
$LOFTMAG1
 40
0.0
  9
$LOFTMAG2
 40
0.0
  9
$LOFTPARAM
 70
     7
  9
$LOFTNORMALS
280
     1
  9
$LATITUDE
 40
37.795
  9
$LONGITUDE
 40
-122.394
  9
$NORTHDIRECTION
 40
0.0
  9
$TIMEZONE
 70
 -8000
  9
$LIGHTGLYPHDISPLAY
280
     1
  9
$TILEMODELIGHTSYNCH
280
     1
  9
$CMATERIAL
347
F30
  9
$SOLIDHIST
280
     0
  9
$SHOWHIST
280
     1
  9
$DWFFRAME
280
     2
  9
$DGNFRAME
280
     0
  9
$REALWORLDSCALE
290
     1
  9
$INTERFERECOLOR
 62
     1
  9
$INTERFEREOBJVS
345
F4A
  9
$INTERFEREVPVS
346
F47
  9
$CSHADOW
280
     0
  9
$SHADOWPLANELOCATION
 40
0.0
  0
ENDSEC
  0
SECTION
  2
CLASSES
  0
CLASS
  1
ACDBDICTIONARYWDFLT
  2
AcDbDictionaryWithDefault
  3
ObjectDBX Classes
 90
        0
 91
        1
280
     0
281
     0
  0
CLASS
  1
DICTIONARYVAR
  2
AcDbDictionaryVar
  3
ObjectDBX Classes
 90
        0
 91
       20
280
     0
281
     0
  0
CLASS
  1
TABLESTYLE
  2
AcDbTableStyle
  3
ObjectDBX Classes
 90
     4095
 91
        1
280
     0
281
     0
  0
CLASS
  1
MATERIAL
  2
AcDbMaterial
  3
ObjectDBX Classes
 90
     1153
 91
        3
280
     0
281
     0
  0
CLASS
  1
SORTENTSTABLE
  2
AcDbSortentsTable
  3
ObjectDBX Classes
 90
        0
 91
        0
280
     0
281
     0
  0
CLASS
  1
DIMASSOC
  2
AcDbDimAssoc
  3
"AcDbDimAssoc|Product Desc:     AcDim ARX App For Dimension|Company:          Autodesk, Inc.|WEB Address:      www.autodesk.com"
 90
        0
 91
        1
280
     0
281
     0
  0
CLASS
  1
VISUALSTYLE
  2
AcDbVisualStyle
  3
ObjectDBX Classes
 90
     4095
 91
       24
280
     0
281
     0
  0
CLASS
  1
SCALE
  2
AcDbScale
  3
ObjectDBX Classes
 90
     1153
 91
       17
280
     0
281
     0
  0
CLASS
  1
MLEADERSTYLE
  2
AcDbMLeaderStyle
  3
ACDB_MLEADERSTYLE_CLASS
 90
     4095
 91
        1
280
     0
281
     0
  0
CLASS
  1
ACDBSECTIONVIEWSTYLE
  2
AcDbSectionViewStyle
  3
ObjectDBX Classes
 90
     1025
 91
        1
280
     0
281
     0
  0
CLASS
  1
ACDBDETAILVIEWSTYLE
  2
AcDbDetailViewStyle
  3
ObjectDBX Classes
 90
     1025
 91
        1
280
     0
281
     0
  0
CLASS
  1
CELLSTYLEMAP
  2
AcDbCellStyleMap
  3
ObjectDBX Classes
 90
     1152
 91
        1
280
     0
281
     0
  0
ENDSEC
  0
SECTION
  2
TABLES
  0
TABLE
  2
VPORT
  5
8
330
0
100
AcDbSymbolTable
 70
     1
1001
ACAD
1000
DbSaveVer
1071
        5
  0
VPORT
  5
F26
330
8
100
AcDbSymbolTableRecord
100
AcDbViewportTableRecord
  2
*Active
 70
     0
 10
0.0
 20
0.0
 11
1.0
 21
1.0
 12
2253.893671510796
 22
1407.214255055272
 13
0.0
 23
0.0
 14
10.0
 24
10.0
 15
10.0
 25
10.0
 16
0.0
 26
0.0
 36
1.0
 17
0.0
 27
0.0
 37
0.0
 40
1670.514815243401
 41
2.292712066905615
 42
50.0
 43
0.0
 44
0.0
 50
0.0
 51
0.0
 71
     0
 72
 20000
 73
     1
 74
     3
 75
     0
 76
     0
 77
     0
 78
     0
281
     0
 65
     1
110
0.0
120
0.0
130
0.0
111
1.0
121
0.0
131
0.0
112
0.0
122
1.0
132
0.0
 79
     0
146
0.0
348
F46
 60
     3
 61
     5
292
     1
282
     1
141
0.0
142
0.0
 63
   250
421
  3355443
1001
ACAD_NAV_VCDISPLAY
1070
     3
  0
ENDTAB
  0
TABLE
  2
LTYPE
  5
5
330
0
100
AcDbSymbolTable
 70
     2
  0
LTYPE
  5
14
330
5
100
AcDbSymbolTableRecord
100
AcDbLinetypeTableRecord
  2
ByBlock
 70
     0
  3

 72
    65
 73
     0
 40
0.0
  0
LTYPE
  5
15
330
5
100
AcDbSymbolTableRecord
100
AcDbLinetypeTableRecord
  2
ByLayer
 70
     0
  3

 72
    65
 73
     0
 40
0.0
  0
LTYPE
  5
16
330
5
100
AcDbSymbolTableRecord
100
AcDbLinetypeTableRecord
  2
Continuous
 70
     0
  3
Solid line
 72
    65
 73
     0
 40
0.0
  0
LTYPE
  5
1DA
330
5
100
AcDbSymbolTableRecord
100
AcDbLinetypeTableRecord
  2
CENTER
 70
     0
  3
Center ____ _ ____ _ ____ _ ____ _ ____ _ ____
 72
    65
 73
     4
 40
50.8
 49
31.75
 74
     0
 49
-6.349999999999998
 74
     0
 49
6.349999999999998
 74
     0
 49
-6.349999999999998
 74
     0
  0
ENDTAB
  0
TABLE
  2
LAYER
  5
2
102
{ACAD_XDICTIONARY
360
1FE
102
}
330
0
100
AcDbSymbolTable
 70
     5
  0
LAYER
  5
10
102
{ACAD_XDICTIONARY
360
F78
102
}
330
2
100
AcDbSymbolTableRecord
100
AcDbLayerTableRecord
  2
0
 70
     0
 62
     7
  6
Continuous
370
    35
390
F
347
1F5
348
0
  0
LAYER
  5
1DB
102
{ACAD_XDICTIONARY
360
1DC
102
}
330
2
100
AcDbSymbolTableRecord
100
AcDbLayerTableRecord
  2
标注
 70
     0
 62
   221
  6
Continuous
370
     9
390
F
347
1F5
348
0
1001
AcadStringInfo
1000
MIFCodePage
1070
     5
  0
LAYER
  5
1DF
330
2
100
AcDbSymbolTableRecord
100
AcDbLayerTableRecord
  2
Defpoints
 70
     0
 62
     7
  6
Continuous
290
     0
370
    -3
390
F
347
1F5
348
0
  0
LAYER
  5
1E2
102
{ACAD_XDICTIONARY
360
1E3
102
}
330
2
100
AcDbSymbolTableRecord
100
AcDbLayerTableRecord
  2
中心线
 70
     0
 62
     1
  6
CENTER
370
     9
390
F
347
1F5
348
0
1001
AcadStringInfo
1000
MIFCodePage
1070
     5
  0
LAYER
  5
1E6
102
{ACAD_XDICTIONARY
360
1E7
102
}
330
2
100
AcDbSymbolTableRecord
100
AcDbLayerTableRecord
  2
图层1
 70
     0
 62
     7
  6
Continuous
370
    13
390
F
347
1F5
348
0
1001
AcadStringInfo
1000
MIFCodePage
1070
     5
  0
ENDTAB
  0
TABLE
  2
STYLE
  5
3
330
0
100
AcDbSymbolTable
 70
     5
  0
STYLE
  5
11
330
3
100
AcDbSymbolTableRecord
100
AcDbTextStyleTableRecord
  2
Standard
 70
     0
 40
0.0
 41
1.0
 50
0.0
 71
     0
 42
2.5
  3
txt
  4
gbcbig.shx
  0
STYLE
  5
1EA
330
3
100
AcDbSymbolTableRecord
100
AcDbTextStyleTableRecord
  2
样式 1
 70
     0
 40
0.0
 41
1.0
 50
0.0
 71
     0
 42
4.5
  3

  4

1001
ACAD
1000
LiSu
1071
    34353
1001
AcadStringInfo
1000
MIFCodePage
1070
     5
  0
STYLE
  5
1EB
330
3
100
AcDbSymbolTableRecord
100
AcDbTextStyleTableRecord
  2
黑体
 70
     0
 40
0.0
 41
1.0
 50
0.0
 71
     0
 42
6.0
  3
SIMHEI.TTF
  4

1001
ACAD
1000
SimHei
1071
    34306
1001
AcadStringInfo
1000
MIFCodePage
1070
     5
  0
STYLE
  5
E42
330
3
100
AcDbSymbolTableRecord
100
AcDbTextStyleTableRecord
  2
GN3
 70
     0
 40
0.156
 41
1.0
 50
0.0
 71
     0
 42
0.2
  3
ROMANK
  4

  0
STYLE
  5
E43
330
3
100
AcDbSymbolTableRecord
100
AcDbTextStyleTableRecord
  2
GN4
 70
     0
 40
0.188
 41
1.0
 50
0.0
 71
     0
 42
0.2
  3
ROMAND
  4

  0
ENDTAB
  0
TABLE
  2
VIEW
  5
6
330
0
100
AcDbSymbolTable
 70
     0
  0
ENDTAB
  0
TABLE
  2
UCS
  5
7
330
0
100
AcDbSymbolTable
 70
     0
  0
ENDTAB
  0
TABLE
  2
APPID
  5
9
330
0
100
AcDbSymbolTable
 70
    17
  0
APPID
  5
12
330
9
100
AcDbSymbolTableRecord
100
AcDbRegAppTableRecord
  2
ACAD
 70
     0
  0
APPID
  5
9E
330
9
100
AcDbSymbolTableRecord
100
AcDbRegAppTableRecord
  2
ACAD_PSEXT
 70
     0
  0
APPID
  5
1ED
330
9
100
AcDbSymbolTableRecord
100
AcDbRegAppTableRecord
  2
ACAD_DSTYLE_DIMRADIAL_EXTENSION
 70
     0
  0
APPID
  5
1EE
330
9
100
AcDbSymbolTableRecord
100
AcDbRegAppTableRecord
  2
ACAD_DSTYLE_DIMJAG
 70
     0
  0
APPID
  5
1EF
330
9
100
AcDbSymbolTableRecord
100
AcDbRegAppTableRecord
  2
ACAD_DSTYLE_DIMTALN
 70
     0
  0
APPID
  5
1F0
330
9
100
AcDbSymbolTableRecord
100
AcDbRegAppTableRecord
  2
ACAD_DSTYLE_DIMEXT_LENGTH
 70
     0
  0
APPID
  5
1F1
330
9
100
AcDbSymbolTableRecord
100
AcDbRegAppTableRecord
  2
ACAD_DSTYLE_DIMEXT_ENABLED
 70
     0
  0
APPID
  5
1F2
330
9
100
AcDbSymbolTableRecord
100
AcDbRegAppTableRecord
  2
ACAD_DSTYLE_DIMJOGGED_JOGANGLE_SYMBOL
 70
     0
  0
APPID
  5
1F3
330
9
100
AcDbSymbolTableRecord
100
AcDbRegAppTableRecord
  2
ACAD_DSTYLE_DIMARC_LENGTH_SYMBOL
 70
     0
  0
APPID
  5
1F4
330
9
100
AcDbSymbolTableRecord
100
AcDbRegAppTableRecord
  2
DCO15
 70
     0
  0
APPID
  5
9C2
330
9
100
AcDbSymbolTableRecord
100
AcDbRegAppTableRecord
  2
ACAD_DSTYLE_DIMTEXT_FILL
 70
     0
  0
APPID
  5
9C5
330
9
100
AcDbSymbolTableRecord
100
AcDbRegAppTableRecord
  2
ACAD_DSTYLE_DIM_LINETYPE
 70
     0
  0
APPID
  5
9C6
330
9
100
AcDbSymbolTableRecord
100
AcDbRegAppTableRecord
  2
ACAD_DSTYLE_DIM_EXT1_LINETYPE
 70
     0
  0
APPID
  5
9C7
330
9
100
AcDbSymbolTableRecord
100
AcDbRegAppTableRecord
  2
ACAD_DSTYLE_DIM_EXT2_LINETYPE
 70
     0
  0
APPID
  5
E44
330
9
100
AcDbSymbolTableRecord
100
AcDbRegAppTableRecord
  2
PSP
 70
     0
  0
APPID
  5
F6E
330
9
100
AcDbSymbolTableRecord
100
AcDbRegAppTableRecord
  2
AcadStringInfo
 70
     0
  0
APPID
  5
F7A
330
9
100
AcDbSymbolTableRecord
100
AcDbRegAppTableRecord
  2
ACAD_NAV_VCDISPLAY
 70
     0
  0
ENDTAB
  0
TABLE
  2
DIMSTYLE
  5
A
330
0
100
AcDbSymbolTable
 70
     2
100
AcDbDimStyleTable
 71
     2
340
1EC
340
27
  0
DIMSTYLE
105
27
330
A
100
AcDbSymbolTableRecord
100
AcDbDimStyleTableRecord
  2
ISO-25
 70
     0
 41
2.5
 42
0.625
 43
3.75
 44
1.25
 73
     0
 74
     0
 77
     1
 78
     8
140
2.5
141
2.5
143
0.03937007874016
147
0.625
171
     3
172
     1
271
     2
272
     2
274
     3
278
    44
283
     0
284
     8
340
11
  0
DIMSTYLE
105
1EC
102
{ACAD_REACTORS
330
681
330
682
330
683
330
684
330
685
330
686
330
687
330
688
330
689
330
68A
330
68B
330
69B
330
69C
330
6AB
330
6AC
330
6B5
330
709
330
70A
330
70B
330
70C
330
DBD
102
}
330
A
100
AcDbSymbolTableRecord
100
AcDbDimStyleTableRecord
  2
线性标注
 70
     0
 41
12.0
 42
0.625
 43
3.75
 44
8.0
 49
1.25
 50
90.0
 73
     0
 74
     0
 77
     1
 78
     8
140
30.0
141
2.5
143
0.03937007874016
147
0.625
171
     3
172
     1
271
     1
272
     1
274
     3
283
     0
284
     8
340
1EA
342
F1
1001
ACAD_DSTYLE_DIMJAG
1070
   388
1040
1.5
1001
ACAD_DSTYLE_DIMTALN
1070
   392
1070
     0
1001
ACAD_DSTYLE_DIMJOGGED_JOGANGLE_SYMBOL
1070
   384
1040
1.570796326794896
1001
AcadStringInfo
1000
MIFCodePage
1070
     5
  0
ENDTAB
  0
TABLE
  2
BLOCK_RECORD
  5
1
330
0
100
AcDbSymbolTable
 70
    23
  0
BLOCK_RECORD
  5
1F
330
1
100
AcDbSymbolTableRecord
100
AcDbBlockTableRecord
  2
*Model_Space
340
22
 70
     0
280
     1
281
     0
  0
BLOCK_RECORD
  5
D2
330
1
100
AcDbSymbolTableRecord
100
AcDbBlockTableRecord
  2
*Paper_Space
340
D3
 70
     0
280
     1
281
     0
  0
BLOCK_RECORD
  5
D6
330
1
100
AcDbSymbolTableRecord
100
AcDbBlockTableRecord
  2
*Paper_Space0
340
D7
 70
     0
280
     1
281
     0
  0
BLOCK_RECORD
  5
F1
330
1
100
AcDbSymbolTableRecord
100
AcDbBlockTableRecord
  2
_ClosedBlank
340
0
102
{BLKREFS
331
DD6
331
DD7
331
DF4
331
DF5
331
CE7
331
CE8
331
CF2
331
CF3
331
CFC
331
CFD
331
D04
331
D05
331
D0C
331
D0D
331
D13
331
D14
331
D1E
331
D1F
331
D27
331
D2D
331
D31
331
D32
331
D3B
331
D41
331
D42
331
D4B
331
D4C
331
D54
331
D5A
331
D5B
331
D64
331
D65
331
D6B
331
D6C
331
D74
331
D75
331
D7D
331
D7E
102
}
 70
     0
280
     1
281
     0
  0
BLOCK_RECORD
  5
70D
330
1
100
AcDbSymbolTableRecord
100
AcDbBlockTableRecord
  2
*D2
340
0
 70
     0
280
     1
281
     0
  0
BLOCK_RECORD
  5
719
330
1
100
AcDbSymbolTableRecord
100
AcDbBlockTableRecord
  2
*D3
340
0
 70
     0
280
     1
281
     0
  0
BLOCK_RECORD
  5
726
330
1
100
AcDbSymbolTableRecord
100
AcDbBlockTableRecord
  2
*D4
340
0
 70
     0
280
     1
281
     0
  0
BLOCK_RECORD
  5
731
330
1
100
AcDbSymbolTableRecord
100
AcDbBlockTableRecord
  2
*D5
340
0
 70
     0
280
     1
281
     0
  0
BLOCK_RECORD
  5
73C
330
1
100
AcDbSymbolTableRecord
100
AcDbBlockTableRecord
  2
*D6
340
0
 70
     0
280
     1
281
     0
  0
BLOCK_RECORD
  5
747
330
1
100
AcDbSymbolTableRecord
100
AcDbBlockTableRecord
  2
*D7
340
0
 70
     0
280
     1
281
     0
  0
BLOCK_RECORD
  5
753
330
1
100
AcDbSymbolTableRecord
100
AcDbBlockTableRecord
  2
*D8
340
0
 70
     0
280
     1
281
     0
  0
BLOCK_RECORD
  5
760
330
1
100
AcDbSymbolTableRecord
100
AcDbBlockTableRecord
  2
*D9
340
0
 70
     0
280
     1
281
     0
  0
BLOCK_RECORD
  5
769
330
1
100
AcDbSymbolTableRecord
100
AcDbBlockTableRecord
  2
*D10
340
0
 70
     0
280
     1
281
     0
  0
BLOCK_RECORD
  5
772
330
1
100
AcDbSymbolTableRecord
100
AcDbBlockTableRecord
  2
*D11
340
0
 70
     0
280
     1
281
     0
  0
BLOCK_RECORD
  5
77E
330
1
100
AcDbSymbolTableRecord
100
AcDbBlockTableRecord
  2
*D12
340
0
 70
     0
280
     1
281
     0
  0
BLOCK_RECORD
  5
786
330
1
100
AcDbSymbolTableRecord
100
AcDbBlockTableRecord
  2
*D13
340
0
 70
     0
280
     1
281
     0
  0
BLOCK_RECORD
  5
792
330
1
100
AcDbSymbolTableRecord
100
AcDbBlockTableRecord
  2
*D14
340
0
 70
     0
280
     1
281
     0
  0
BLOCK_RECORD
  5
79F
330
1
100
AcDbSymbolTableRecord
100
AcDbBlockTableRecord
  2
*D15
340
0
 70
     0
280
     1
281
     0
  0
BLOCK_RECORD
  5
7A8
330
1
100
AcDbSymbolTableRecord
100
AcDbBlockTableRecord
  2
*D16
340
0
 70
     0
280
     1
281
     0
  0
BLOCK_RECORD
  5
7B4
330
1
100
AcDbSymbolTableRecord
100
AcDbBlockTableRecord
  2
*D17
340
0
 70
     0
280
     1
281
     0
  0
BLOCK_RECORD
  5
7BF
330
1
100
AcDbSymbolTableRecord
100
AcDbBlockTableRecord
  2
*D18
340
0
 70
     0
280
     1
281
     0
  0
BLOCK_RECORD
  5
7CB
330
1
100
AcDbSymbolTableRecord
100
AcDbBlockTableRecord
  2
*D19
340
0
 70
     0
280
     1
281
     0
  0
BLOCK_RECORD
  5
7D7
330
1
100
AcDbSymbolTableRecord
100
AcDbBlockTableRecord
  2
*D20
340
0
 70
     0
280
     1
281
     0
  0
BLOCK_RECORD
  5
7E3
330
1
100
AcDbSymbolTableRecord
100
AcDbBlockTableRecord
  2
*D21
340
0
 70
     0
280
     1
281
     0
  0
BLOCK_RECORD
  5
DBE
330
1
100
AcDbSymbolTableRecord
100
AcDbBlockTableRecord
  2
*D22
340
0
 70
     0
280
     1
281
     0
  0
ENDTAB
  0
ENDSEC
  0
SECTION
  2
BLOCKS
  0
BLOCK
  5
20
330
1F
100
AcDbEntity
  8
0
100
AcDbBlockBegin
  2
*Model_Space
 70
     0
 10
0.0
 20
0.0
 30
0.0
  3
*Model_Space
  1

  0
ENDBLK
  5
21
330
1F
100
AcDbEntity
  8
0
100
AcDbBlockEnd
  0
BLOCK
  5
D4
330
D2
100
AcDbEntity
 67
     1
  8
0
100
AcDbBlockBegin
  2
*Paper_Space
 70
     0
 10
0.0
 20
0.0
 30
0.0
  3
*Paper_Space
  1

  0
ENDBLK
  5
D5
330
D2
100
AcDbEntity
 67
     1
  8
0
100
AcDbBlockEnd
  0
BLOCK
  5
D8
330
D6
100
AcDbEntity
 67
     1
  8
0
100
AcDbBlockBegin
  2
*Paper_Space0
 70
     0
 10
0.0
 20
0.0
 30
0.0
  3
*Paper_Space0
  1

  0
ENDBLK
  5
D9
330
D6
100
AcDbEntity
 67
     1
  8
0
100
AcDbBlockEnd
  0
BLOCK
  5
F2
330
F1
100
AcDbEntity
  8
0
 48
0.2
100
AcDbBlockBegin
  2
_ClosedBlank
 70
     0
 10
0.0
 20
0.0
 30
0.0
  3
_ClosedBlank
  1

  0
LINE
  5
F3
330
F1
100
AcDbEntity
  8
0
  6
ByBlock
 62
     0
370
    -2
100
AcDbLine
 10
-1.0
 20
0.1666666666666666
 30
0.0
 11
0.0
 21
0.0
 31
0.0
  0
LINE
  5
F4
330
F1
100
AcDbEntity
  8
0
  6
ByBlock
 62
     0
370
    -2
100
AcDbLine
 10
0.0
 20
0.0
 30
0.0
 11
-1.0
 21
-0.1666666666666666
 31
0.0
  0
LINE
  5
F5
330
F1
100
AcDbEntity
  8
0
  6
ByBlock
 62
     0
370
    -2
100
AcDbLine
 10
-1.0
 20
0.1666666666666666
 30
0.0
 11
-1.0
 21
-0.1666666666666666
 31
0.0
  0
ENDBLK
  5
F6
330
F1
100
AcDbEntity
  8
0
 48
0.2
100
AcDbBlockEnd
  0
BLOCK
  5
717
330
70D
100
AcDbEntity
  8
0
100
AcDbBlockBegin
  2
*D2
 70
     1
 10
0.0
 20
0.0
 30
0.0
  3
*D2
  1

  0
LINE
  5
CE4
330
70D
100
AcDbEntity
  8
标注
 62
     0
440
 16777216
370
    -2
100
AcDbLine
 10
2198.058473319024
 20
1401.917845262303
 30
0.0
 11
2253.984440997815
 21
1401.917845262303
 31
0.0
  0
LINE
  5
CE5
330
70D
100
AcDbEntity
  8
标注
 62
     0
440
 16777216
370
    -2
100
AcDbLine
 10
2143.058473319024
 20
1299.117845262303
 30
0.0
 11
2253.984440997815
 21
1299.117845262303
 31
0.0
  0
LINE
  5
CE6
330
70D
100
AcDbEntity
  8
标注
 62
     0
440
 16777216
370
    -2
100
AcDbLine
 10
2245.984440997815
 20
1389.917845262304
 30
0.0
 11
2245.984440997815
 21
1311.117845262303
 31
0.0
  0
INSERT
  5
CE7
330
70D
100
AcDbEntity
  8
标注
 62
     0
440
 16777216
370
    -2
100
AcDbBlockReference
  2
_ClosedBlank
 10
2245.984440997815
 20
1401.917845262303
 30
0.0
 41
12.0
 42
12.0
 43
12.0
 50
90.0
  0
INSERT
  5
CE8
330
70D
100
AcDbEntity
  8
标注
 62
     0
440
 16777216
370
    -2
100
AcDbBlockReference
  2
_ClosedBlank
 10
2245.984440997815
 20
1299.117845262303
 30
0.0
 41
12.0
 42
12.0
 43
12.0
 50
270.0
  0
MTEXT
  5
CE9
330
70D
100
AcDbEntity
  8
标注
 62
     0
440
 16777216
100
AcDbMText
 10
2230.359440997815
 20
1350.517845262304
 30
0.0
 40
30.0
 41
0.0
 46
0.0
 71
     5
 72
     1
  1
88
  7
样式 1
 11
0.0000000000000001
 21
1.0
 31
0.0
 73
     1
 44
1.0
  0
POINT
  5
CEA
330
70D
100
AcDbEntity
  8
Defpoints
 62
     0
440
 16777216
100
AcDbPoint
 10
2197.433473319024
 20
1401.917845262303
 30
0.0
  0
POINT
  5
CEB
330
70D
100
AcDbEntity
  8
Defpoints
 62
     0
440
 16777216
100
AcDbPoint
 10
2142.433473319024
 20
1299.117845262303
 30
0.0
  0
POINT
  5
CEC
330
70D
100
AcDbEntity
  8
Defpoints
 62
     0
440
 16777216
100
AcDbPoint
 10
2245.984440997815
 20
1299.117845262303
 30
0.0
  0
ENDBLK
  5
718
330
70D
100
AcDbEntity
  8
0
100
AcDbBlockEnd
  0
BLOCK
  5
724
330
719
100
AcDbEntity
  8
0
100
AcDbBlockBegin
  2
*D3
 70
     1
 10
0.0
 20
0.0
 30
0.0
  3
*D3
  1

  0
LINE
  5
CED
330
719
100
AcDbEntity
  8
标注
 62
     0
440
 16777216
370
    -2
100
AcDbLine
 10
2439.848144727924
 20
1657.441382345973
 30
0.0
 11
2439.848144727924
 21
1682.328948815433
 31
0.0
  0
LINE
  5
CEE
330
719
100
AcDbEntity
  8
标注
 62
     0
440
 16777216
370
    -2
100
AcDbLine
 10
2426.848144727925
 20
1657.441382345973
 30
0.0
 11
2426.848144727925
 21
1682.328948815433
 31
0.0
  0
LINE
  5
CEF
330
719
100
AcDbEntity
  8
标注
 62
     0
440
 16777216
370
    -2
100
AcDbLine
 10
2451.848144727924
 20
1674.328948815433
 30
0.0
 11
2463.848144727924
 21
1674.328948815433
 31
0.0
  0
LINE
  5
CF0
330
719
100
AcDbEntity
  8
标注
 62
     0
440
 16777216
370
    -2
100
AcDbLine
 10
2414.848144727925
 20
1674.328948815433
 30
0.0
 11
2358.741001870782
 21
1674.328948815433
 31
0.0
  0
LINE
  5
CF1
330
719
100
AcDbEntity
  8
标注
 62
     0
440
 16777216
370
    -2
100
AcDbLine
 10
2439.848144727924
 20
1674.328948815433
 30
0.0
 11
2426.848144727925
 21
1674.328948815433
 31
0.0
  0
INSERT
  5
CF2
330
719
100
AcDbEntity
  8
标注
 62
     0
440
 16777216
370
    -2
100
AcDbBlockReference
  2
_ClosedBlank
 10
2439.848144727924
 20
1674.328948815433
 30
0.0
 41
12.0
 42
12.0
 43
12.0
 50
180.0
  0
INSERT
  5
CF3
330
719
100
AcDbEntity
  8
标注
 62
     0
440
 16777216
370
    -2
100
AcDbBlockReference
  2
_ClosedBlank
 10
2426.848144727925
 20
1674.328948815433
 30
0.0
 41
12.0
 42
12.0
 43
12.0
  0
MTEXT
  5
CF4
330
719
100
AcDbEntity
  8
标注
 62
     0
440
 16777216
100
AcDbMText
 10
2380.794573299353
 20
1689.953948815433
 30
0.0
 40
30.0
 41
0.0
 46
0.0
 71
     5
 72
     1
  1
13
  7
样式 1
 73
     1
 44
1.0
  0
POINT
  5
CF5
330
719
100
AcDbEntity
  8
Defpoints
 62
     0
440
 16777216
100
AcDbPoint
 10
2439.848144727924
 20
1656.816382345973
 30
0.0
  0
POINT
  5
CF6
330
719
100
AcDbEntity
  8
Defpoints
 62
     0
440
 16777216
100
AcDbPoint
 10
2426.848144727925
 20
1656.816382345973
 30
0.0
  0
POINT
  5
CF7
330
719
100
AcDbEntity
  8
Defpoints
 62
     0
440
 16777216
100
AcDbPoint
 10
2426.848144727925
 20
1674.328948815433
 30
0.0
  0
ENDBLK
  5
725
330
719
100
AcDbEntity
  8
0
100
AcDbBlockEnd
  0
BLOCK
  5
72F
330
726
100
AcDbEntity
  8
0
100
AcDbBlockBegin
  2
*D4
 70
     1
 10
0.0
 20
0.0
 30
0.0
  3
*D4
  1

  0
LINE
  5
CF8
330
726
100
AcDbEntity
  8
标注
 62
     0
440
 16777216
370
    -2
100
AcDbLine
 10
2632.979199999593
 20
1704.170691872746
 30
0.0
 11
2523.229268140158
 21
1642.058181567325
 31
0.0
  0
LINE
  5
CF9
330
726
100
AcDbEntity
  8
标注
 62
     0
440
 16777216
370
    -2
100
AcDbLine
 10
2474.667021315692
 20
1614.574583124619
 30
0.0
 11
2464.223527374947
 21
1608.664131846618
 31
0.0
  0
MTEXT
  5
CFA
330
726
100
AcDbEntity
  8
标注
 62
     0
440
 16777216
100
AcDbMText
 10
2575.630080938684
 20
1689.667961761047
 30
0.0
 40
30.0
 41
0.0
 46
0.0
 71
     5
 72
     1
  1
∅31.8
  7
样式 1
 11
0.8702911617287448
 21
0.4925376065000847
 31
0.0
 73
     1
 44
1.0
  0
LINE
  5
CFB
330
726
100
AcDbEntity
  8
标注
 62
     0
440
 16777216
370
    -2
100
AcDbLine
 10
2485.110515256437
 20
1620.485034402619
 30
0.0
 11
2512.785774199412
 21
1636.147730289323
 31
0.0
  0
INSERT
  5
CFC
330
726
100
AcDbEntity
  8
标注
 62
     0
440
 16777216
370
    -2
100
AcDbBlockReference
  2
_ClosedBlank
 10
2485.110515256437
 20
1620.485034402619
 30
0.0
 41
12.0
 42
12.0
 43
12.0
 50
29.50750798722527
  0
INSERT
  5
CFD
330
726
100
AcDbEntity
  8
标注
 62
     0
440
 16777216
370
    -2
100
AcDbBlockReference
  2
_ClosedBlank
 10
2512.785774199412
 20
1636.147730289323
 30
0.0
 41
12.0
 42
12.0
 43
12.0
 50
209.5075079872252
  0
POINT
  5
CFE
330
726
100
AcDbEntity
  8
Defpoints
 62
     0
440
 16777216
100
AcDbPoint
 10
2512.785774199412
 20
1636.147730289323
 30
0.0
  0
POINT
  5
CFF
330
726
100
AcDbEntity
  8
Defpoints
 62
     0
440
 16777216
100
AcDbPoint
 10
2485.110515256437
 20
1620.485034402619
 30
0.0
  0
ENDBLK
  5
730
330
726
100
AcDbEntity
  8
0
100
AcDbBlockEnd
  0
BLOCK
  5
73A
330
731
100
AcDbEntity
  8
0
100
AcDbBlockBegin
  2
*D5
 70
     1
 10
0.0
 20
0.0
 30
0.0
  3
*D5
  1

  0
LINE
  5
D00
330
731
100
AcDbEntity
  8
标注
 62
     0
440
 16777216
370
    -2
100
AcDbLine
 10
2634.806618080849
 20
1549.246352910368
 30
0.0
 11
2522.110819877657
 21
1614.835637562839
 31
0.0
  0
LINE
  5
D01
330
731
100
AcDbEntity
  8
标注
 62
     0
440
 16777216
370
    -2
100
AcDbLine
 10
2475.785469578193
 20
1641.797127129103
 30
0.0
 11
2465.414122496222
 21
1647.833281509609
 31
0.0
  0
MTEXT
  5
D02
330
731
100
AcDbEntity
  8
标注
 62
     0
440
 16777216
100
AcDbMText
 10
2591.503968536524
 20
1592.527276225999
 30
0.0
 40
30.0
 41
0.0
 46
0.0
 71
     5
 72
     1
  1
∅29.6
  7
样式 1
 11
0.8642789234975012
 21
-0.5030128650422378
 31
0.0
 73
     1
 44
1.0
  0
LINE
  5
D03
330
731
100
AcDbEntity
  8
标注
 62
     0
440
 16777216
370
    -2
100
AcDbLine
 10
2486.156816660163
 20
1635.760972748595
 30
0.0
 11
2511.739472795687
 21
1620.871791943346
 31
0.0
  0
INSERT
  5
D04
330
731
100
AcDbEntity
  8
标注
 62
     0
440
 16777216
370
    -2
100
AcDbBlockReference
  2
_ClosedBlank
 10
2486.156816660163
 20
1635.760972748595
 30
0.0
 41
12.0
 42
12.0
 43
12.0
 50
329.8004694619537
  0
INSERT
  5
D05
330
731
100
AcDbEntity
  8
标注
 62
     0
440
 16777216
370
    -2
100
AcDbBlockReference
  2
_ClosedBlank
 10
2511.739472795687
 20
1620.871791943346
 30
0.0
 41
12.0
 42
12.0
 43
12.0
 50
149.8004694619536
  0
POINT
  5
D06
330
731
100
AcDbEntity
  8
Defpoints
 62
     0
440
 16777216
100
AcDbPoint
 10
2511.739472795687
 20
1620.871791943346
 30
0.0
  0
POINT
  5
D07
330
731
100
AcDbEntity
  8
Defpoints
 62
     0
440
 16777216
100
AcDbPoint
 10
2486.156816660163
 20
1635.760972748595
 30
0.0
  0
ENDBLK
  5
73B
330
731
100
AcDbEntity
  8
0
100
AcDbBlockEnd
  0
BLOCK
  5
745
330
73C
100
AcDbEntity
  8
0
100
AcDbBlockBegin
  2
*D6
 70
     1
 10
0.0
 20
0.0
 30
0.0
  3
*D6
  1

  0
LINE
  5
D08
330
73C
100
AcDbEntity
  8
标注
 62
     0
440
 16777216
370
    -2
100
AcDbLine
 10
2071.655969105747
 20
1754.190254054931
 30
0.0
 11
2168.80661736191
 21
1656.965171465419
 31
0.0
  0
LINE
  5
D09
330
73C
100
AcDbEntity
  8
标注
 62
     0
440
 16777216
370
    -2
100
AcDbLine
 10
2226.060329276139
 20
1599.667593226524
 30
0.0
 11
2234.542360670839
 21
1591.179063117058
 31
0.0
  0
MTEXT
  5
D0A
330
73C
100
AcDbEntity
  8
标注
 62
     0
440
 16777216
100
AcDbMText
 10
2127.848387694807
 20
1721.671009549224
 30
0.0
 40
30.0
 41
0.0
 46
0.0
 71
     5
 72
     1
  1
{\fGulim|b0|i0|c129|p34;3-∅57}
  7
样式 1
 11
0.7068359495583855
 21
-0.707377509122177
 31
0.0
 73
     1
 44
1.0
  0
LINE
  5
D0B
330
73C
100
AcDbEntity
  8
标注
 62
     0
440
 16777216
370
    -2
100
AcDbLine
 10
2217.578297881438
 20
1608.15612333599
 30
0.0
 11
2177.288648756611
 21
1648.476641355953
 31
0.0
  0
INSERT
  5
D0C
330
73C
100
AcDbEntity
  8
标注
 62
     0
440
 16777216
370
    -2
100
AcDbBlockReference
  2
_ClosedBlank
 10
2217.578297881438
 20
1608.15612333599
 30
0.0
 41
12.0
 42
12.0
 43
12.0
 50
134.9780591284484
  0
INSERT
  5
D0D
330
73C
100
AcDbEntity
  8
标注
 62
     0
440
 16777216
370
    -2
100
AcDbBlockReference
  2
_ClosedBlank
 10
2177.288648756611
 20
1648.476641355953
 30
0.0
 41
12.0
 42
12.0
 43
12.0
 50
314.9780591284484
  0
POINT
  5
D0E
330
73C
100
AcDbEntity
  8
Defpoints
 62
     0
440
 16777216
100
AcDbPoint
 10
2177.288648756611
 20
1648.476641355953
 30
0.0
  0
POINT
  5
D0F
330
73C
100
AcDbEntity
  8
Defpoints
 62
     0
440
 16777216
100
AcDbPoint
 10
2217.578297881438
 20
1608.15612333599
 30
0.0
  0
ENDBLK
  5
746
330
73C
100
AcDbEntity
  8
0
100
AcDbBlockEnd
  0
BLOCK
  5
751
330
747
100
AcDbEntity
  8
0
100
AcDbBlockBegin
  2
*D7
 70
     1
 10
0.0
 20
0.0
 30
0.0
  3
*D7
  1

  0
LINE
  5
D10
330
747
100
AcDbEntity
  8
标注
 62
     0
440
 16777216
370
    -2
100
AcDbLine
 10
1693.179629787632
 20
1631.419938224913
 30
0.0
 11
1632.982707921604
 21
1558.903352281541
 31
0.0
  0
LINE
  5
D11
330
747
100
AcDbEntity
  8
标注
 62
     0
440
 16777216
370
    -2
100
AcDbLine
 10
1151.28990610048
 20
2081.249352178186
 30
0.0
 11
1091.092984234452
 21
2008.732766234815
 31
0.0
  0
LINE
  5
D12
330
747
100
AcDbEntity
  8
标注
 62
     0
440
 16777216
370
    -2
100
AcDbLine
 10
1628.859208742
 20
1572.723509824631
 30
0.0
 11
1105.43601395869
 21
2007.223627960954
 31
0.0
  0
INSERT
  5
D13
330
747
100
AcDbEntity
  8
标注
 62
     0
440
 16777216
370
    -2
100
AcDbBlockReference
  2
_ClosedBlank
 10
1638.092473193921
 20
1565.058861916156
 30
0.0
 41
12.0
 42
12.0
 43
12.0
 50
320.303511716224
  0
INSERT
  5
D14
330
747
100
AcDbEntity
  8
标注
 62
     0
440
 16777216
370
    -2
100
AcDbBlockReference
  2
_ClosedBlank
 10
1096.202749506769
 20
2014.888275869429
 30
0.0
 41
12.0
 42
12.0
 43
12.0
 50
140.3035117162239
  0
MTEXT
  5
D15
330
747
100
AcDbEntity
  8
标注
 62
     0
440
 16777216
100
AcDbMText
 10
1377.127621647839
 20
1801.996048647897
 30
0.0
 40
30.0
 41
0.0
 46
0.0
 71
     5
 72
     1
  1
700
  7
样式 1
 11
0.7694387043267249
 21
-0.6387206590396235
 31
0.0
 73
     1
 44
1.0
  0
POINT
  5
D16
330
747
100
AcDbEntity
  8
Defpoints
 62
     0
440
 16777216
100
AcDbPoint
 10
1693.578830199532
 20
1631.900837415117
 30
0.0
  0
POINT
  5
D17
330
747
100
AcDbEntity
  8
Defpoints
 62
     0
440
 16777216
100
AcDbPoint
 10
1151.689106512379
 20
2081.73025136839
 30
0.0
  0
POINT
  5
D18
330
747
100
AcDbEntity
  8
Defpoints
 62
     0
440
 16777216
100
AcDbPoint
 10
1096.202749506769
 20
2014.888275869429
 30
0.0
  0
ENDBLK
  5
752
330
747
100
AcDbEntity
  8
0
100
AcDbBlockEnd
  0
BLOCK
  5
75E
330
753
100
AcDbEntity
  8
0
100
AcDbBlockBegin
  2
*D8
 70
     1
 10
0.0
 20
0.0
 30
0.0
  3
*D8
  1

  0
LINE
  5
D19
330
753
100
AcDbEntity
  8
标注
 62
     0
440
 16777216
370
    -2
100
AcDbLine
 10
2168.308473319024
 20
1401.917845262303
 30
0.0
 11
2150.701505794213
 21
1401.917845262303
 31
0.0
  0
LINE
  5
D1A
330
753
100
AcDbEntity
  8
标注
 62
     0
440
 16777216
370
    -2
100
AcDbLine
 10
2168.308473319024
 20
1388.917845262304
 30
0.0
 11
2150.701505794213
 21
1388.917845262304
 31
0.0
  0
LINE
  5
D1B
330
753
100
AcDbEntity
  8
标注
 62
     0
440
 16777216
370
    -2
100
AcDbLine
 10
2158.701505794213
 20
1376.917845262304
 30
0.0
 11
2158.701505794213
 21
1364.917845262304
 31
0.0
  0
LINE
  5
D1C
330
753
100
AcDbEntity
  8
标注
 62
     0
440
 16777216
370
    -2
100
AcDbLine
 10
2158.701505794213
 20
1413.917845262304
 30
0.0
 11
2158.701505794213
 21
1470.024988119446
 31
0.0
  0
LINE
  5
D1D
330
753
100
AcDbEntity
  8
标注
 62
     0
440
 16777216
370
    -2
100
AcDbLine
 10
2158.701505794213
 20
1388.917845262304
 30
0.0
 11
2158.701505794213
 21
1401.917845262303
 31
0.0
  0
INSERT
  5
D1E
330
753
100
AcDbEntity
  8
标注
 62
     0
440
 16777216
370
    -2
100
AcDbBlockReference
  2
_ClosedBlank
 10
2158.701505794213
 20
1388.917845262304
 30
0.0
 41
12.0
 42
12.0
 43
12.0
 50
90.0
  0
INSERT
  5
D1F
330
753
100
AcDbEntity
  8
标注
 62
     0
440
 16777216
370
    -2
100
AcDbBlockReference
  2
_ClosedBlank
 10
2158.701505794213
 20
1401.917845262303
 30
0.0
 41
12.0
 42
12.0
 43
12.0
 50
270.0
  0
MTEXT
  5
D20
330
753
100
AcDbEntity
  8
标注
 62
     0
440
 16777216
100
AcDbMText
 10
2143.076505794212
 20
1447.971416690875
 30
0.0
 40
30.0
 41
0.0
 46
0.0
 71
     5
 72
     1
  1
13
  7
样式 1
 11
0.0000000000000001
 21
1.0
 31
0.0
 73
     1
 44
1.0
  0
POINT
  5
D21
330
753
100
AcDbEntity
  8
Defpoints
 62
     0
440
 16777216
100
AcDbPoint
 10
2168.933473319023
 20
1401.917845262303
 30
0.0
  0
POINT
  5
D22
330
753
100
AcDbEntity
  8
Defpoints
 62
     0
440
 16777216
100
AcDbPoint
 10
2168.933473319023
 20
1388.917845262304
 30
0.0
  0
POINT
  5
D23
330
753
100
AcDbEntity
  8
Defpoints
 62
     0
440
 16777216
100
AcDbPoint
 10
2158.701505794213
 20
1388.917845262304
 30
0.0
  0
ENDBLK
  5
75F
330
753
100
AcDbEntity
  8
0
100
AcDbBlockEnd
  0
BLOCK
  5
767
330
760
100
AcDbEntity
  8
0
100
AcDbBlockBegin
  2
*D9
 70
     1
 10
0.0
 20
0.0
 30
0.0
  3
*D9
  1

  0
LINE
  5
D24
330
760
100
AcDbEntity
  8
标注
 62
     0
440
 16777216
370
    -2
100
AcDbLine
 10
2238.857612355463
 20
1242.71708621327
 30
0.0
 11
2183.110712993493
 21
1315.679117136376
 31
0.0
  0
MTEXT
  5
D25
330
760
100
AcDbEntity
  8
标注
 62
     0
440
 16777216
100
AcDbMText
 10
2227.042648719468
 20
1283.916750945838
 30
0.0
 40
30.0
 41
0.0
 46
0.0
 71
     5
 72
     1
  1
R55
  7
样式 1
 11
0.6071229802159261
 21
-0.7946078824764654
 31
0.0
 73
     1
 44
1.0
  0
LINE
  5
D26
330
760
100
AcDbEntity
  8
标注
 62
     0
440
 16777216
370
    -2
100
AcDbLine
 10
2142.433473319022
 20
1368.917845262306
 30
0.0
 11
2175.825237230902
 21
1325.214411726094
 31
0.0
  0
INSERT
  5
D27
330
760
100
AcDbEntity
  8
标注
 62
     0
440
 16777216
370
    -2
100
AcDbBlockReference
  2
_ClosedBlank
 10
2175.825237230902
 20
1325.214411726094
 30
0.0
 41
12.0
 42
12.0
 43
12.0
 50
127.3817651638894
  0
POINT
  5
D28
330
760
100
AcDbEntity
  8
Defpoints
 62
     0
440
 16777216
100
AcDbPoint
 10
2175.825237230902
 20
1325.214411726094
 30
0.0
  0
POINT
  5
D29
330
760
100
AcDbEntity
  8
Defpoints
 62
     0
440
 16777216
100
AcDbPoint
 10
2142.433473319022
 20
1368.917845262306
 30
0.0
  0
ENDBLK
  5
768
330
760
100
AcDbEntity
  8
0
100
AcDbBlockEnd
  0
BLOCK
  5
770
330
769
100
AcDbEntity
  8
0
100
AcDbBlockBegin
  2
*D10
 70
     1
 10
0.0
 20
0.0
 30
0.0
  3
*D10
  1

  0
LINE
  5
D2A
330
769
100
AcDbEntity
  8
标注
 62
     0
440
 16777216
370
    -2
100
AcDbLine
 10
850.6678643772508
 20
1849.820205488573
 30
0.0
 11
941.2889829071515
 21
1835.021975145466
 31
0.0
  0
MTEXT
  5
D2B
330
769
100
AcDbEntity
  8
标注
 62
     0
440
 16777216
100
AcDbMText
 10
892.5750311342609
 20
1858.808815736885
 30
0.0
 40
30.0
 41
0.0
 46
0.0
 71
     5
 72
     1
  1
R55
  7
样式 1
 11
0.986927778622023
 21
-0.1611631464826848
 31
0.0
 73
     1
 44
1.0
  0
LINE
  5
D2C
330
769
100
AcDbEntity
  8
标注
 62
     0
440
 16777216
370
    -2
100
AcDbLine
 10
1007.413144074828
 20
1824.224044331126
 30
0.0
 11
953.1321162506158
 21
1833.088017387674
 31
0.0
  0
INSERT
  5
D2D
330
769
100
AcDbEntity
  8
标注
 62
     0
440
 16777216
370
    -2
100
AcDbBlockReference
  2
_ClosedBlank
 10
953.1321162506158
 20
1833.088017387674
 30
0.0
 41
12.0
 42
12.0
 43
12.0
 50
350.7255841591009
  0
POINT
  5
D2E
330
769
100
AcDbEntity
  8
Defpoints
 62
     0
440
 16777216
100
AcDbPoint
 10
953.1321162506158
 20
1833.088017387674
 30
0.0
  0
POINT
  5
D2F
330
769
100
AcDbEntity
  8
Defpoints
 62
     0
440
 16777216
100
AcDbPoint
 10
1007.413144074828
 20
1824.224044331126
 30
0.0
  0
ENDBLK
  5
771
330
769
100
AcDbEntity
  8
0
100
AcDbBlockEnd
  0
BLOCK
  5
77C
330
772
100
AcDbEntity
  8
0
100
AcDbBlockBegin
  2
*D11
 70
     1
 10
0.0
 20
0.0
 30
0.0
  3
*D11
  1

  0
ARC
  5
D30
330
772
100
AcDbEntity
  8
标注
 62
     0
440
 16777216
370
    -2
100
AcDbCircle
 10
1692.046713851883
 20
1628.316382345974
 30
0.0
 40
159.8243262316341
100
AcDbArc
 50
4.302917908088507
 51
135.6970820919113
  0
INSERT
  5
D31
330
772
100
AcDbEntity
  8
标注
 62
     0
440
 16777216
370
    -2
100
AcDbBlockReference
  2
_ClosedBlank
 10
1851.871040083518
 20
1628.316382345973
 30
0.0
 41
12.0
 42
12.0
 43
12.0
 50
272.1514589540442
  0
INSERT
  5
D32
330
772
100
AcDbEntity
  8
标注
 62
     0
440
 16777216
370
    -2
100
AcDbBlockReference
  2
_ClosedBlank
 10
1569.614176866906
 20
1731.049478974168
 30
0.0
 41
12.0
 42
12.0
 43
12.0
 50
227.8485410459556
  0
MTEXT
  5
D33
330
772
100
AcDbEntity
  8
标注
 62
     0
440
 16777216
100
AcDbMText
 10
1756.090974071209
 20
1792.547160542671
 30
0.0
 40
30.0
 41
0.0
 46
0.0
 71
     5
 72
     1
  1
140°
  7
样式 1
 11
0.9316655837686889
 21
-0.3633169966034455
 31
0.0
 73
     1
 44
1.0
  0
POINT
  5
D34
330
772
100
AcDbEntity
  8
Defpoints
 62
     0
440
 16777216
100
AcDbPoint
 10
1682.753755747413
 20
1787.870311113223
 30
0.0
  0
POINT
  5
D35
330
772
100
AcDbEntity
  8
Defpoints
 62
     0
440
 16777216
100
AcDbPoint
 10
2234.324869825004
 20
1628.316382345973
 30
0.0
  0
POINT
  5
D36
330
772
100
AcDbEntity
  8
Defpoints
 62
     0
440
 16777216
100
AcDbPoint
 10
1672.585261047544
 20
1644.646480216269
 30
0.0
  0
POINT
  5
D37
330
772
100
AcDbEntity
  8
Defpoints
 62
     0
440
 16777216
100
AcDbPoint
 10
1123.277324976661
 20
2105.570566776102
 30
0.0
  0
POINT
  5
D38
330
772
100
AcDbEntity
  8
Defpoints
 62
     0
440
 16777216
100
AcDbPoint
 10
1717.451836203665
 20
1628.316382345973
 30
0.0
  0
ENDBLK
  5
77D
330
772
100
AcDbEntity
  8
0
100
AcDbBlockEnd
  0
BLOCK
  5
784
330
77E
100
AcDbEntity
  8
0
100
AcDbBlockBegin
  2
*D12
 70
     1
 10
0.0
 20
0.0
 30
0.0
  3
*D12
  1

  0
LINE
  5
D39
330
77E
100
AcDbEntity
  8
标注
 62
     0
440
 16777216
370
    -2
100
AcDbLine
 10
1727.789164429431
 20
1730.529300252165
 30
0.0
 11
1699.889446952616
 21
1643.049128158074
 31
0.0
  0
MTEXT
  5
D3A
330
77E
100
AcDbEntity
  8
标注
 62
     0
440
 16777216
100
AcDbMText
 10
1700.776130757122
 20
1697.253156370781
 30
0.0
 40
30.0
 41
0.0
 46
0.0
 71
     5
 72
     1
  1
R55
  7
样式 1
 11
0.3038475648972462
 21
0.9527206606902222
 31
0.0
 73
     1
 44
1.0
  0
INSERT
  5
D3B
330
77E
100
AcDbEntity
  8
标注
 62
     0
440
 16777216
370
    -2
100
AcDbBlockReference
  2
_ClosedBlank
 10
1696.243276173849
 20
1631.616480229791
 30
0.0
 41
12.0
 42
12.0
 43
12.0
 50
252.3111559138372
  0
POINT
  5
D3C
330
77E
100
AcDbEntity
  8
Defpoints
 62
     0
440
 16777216
100
AcDbPoint
 10
1696.243276173849
 20
1631.616480229791
 30
0.0
  0
POINT
  5
D3D
330
77E
100
AcDbEntity
  8
Defpoints
 62
     0
440
 16777216
100
AcDbPoint
 10
1717.451836203678
 20
1698.116382345971
 30
0.0
  0
ENDBLK
  5
785
330
77E
100
AcDbEntity
  8
0
100
AcDbBlockEnd
  0
BLOCK
  5
790
330
786
100
AcDbEntity
  8
0
100
AcDbBlockBegin
  2
*D13
 70
     1
 10
0.0
 20
0.0
 30
0.0
  3
*D13
  1

  0
LINE
  5
D3E
330
786
100
AcDbEntity
  8
标注
 62
     0
440
 16777216
370
    -2
100
AcDbLine
 10
2197.433473319024
 20
1585.969755166412
 30
0.0
 11
2197.433473319024
 21
1496.077497379372
 31
0.0
  0
LINE
  5
D3F
330
786
100
AcDbEntity
  8
标注
 62
     0
440
 16777216
370
    -2
100
AcDbLine
 10
1750.148350188557
 20
1585.969755166412
 30
0.0
 11
1750.148350188557
 21
1496.077497379372
 31
0.0
  0
LINE
  5
D40
330
786
100
AcDbEntity
  8
标注
 62
     0
440
 16777216
370
    -2
100
AcDbLine
 10
2185.433473319024
 20
1504.077497379372
 30
0.0
 11
1762.148350188557
 21
1504.077497379372
 31
0.0
  0
INSERT
  5
D41
330
786
100
AcDbEntity
  8
标注
 62
     0
440
 16777216
370
    -2
100
AcDbBlockReference
  2
_ClosedBlank
 10
2197.433473319024
 20
1504.077497379372
 30
0.0
 41
12.0
 42
12.0
 43
12.0
  0
INSERT
  5
D42
330
786
100
AcDbEntity
  8
标注
 62
     0
440
 16777216
370
    -2
100
AcDbBlockReference
  2
_ClosedBlank
 10
1750.148350188557
 20
1504.077497379372
 30
0.0
 41
12.0
 42
12.0
 43
12.0
 50
180.0
  0
MTEXT
  5
D43
330
786
100
AcDbEntity
  8
标注
 62
     0
440
 16777216
100
AcDbMText
 10
1973.79091175379
 20
1519.702497379372
 30
0.0
 40
30.0
 41
0.0
 46
0.0
 71
     5
 72
     1
  1
740
  7
样式 1
 73
     1
 44
1.0
  0
POINT
  5
D44
330
786
100
AcDbEntity
  8
Defpoints
 62
     0
440
 16777216
100
AcDbPoint
 10
2197.433473319024
 20
1586.594755166412
 30
0.0
  0
POINT
  5
D45
330
786
100
AcDbEntity
  8
Defpoints
 62
     0
440
 16777216
100
AcDbPoint
 10
1750.148350188557
 20
1586.594755166412
 30
0.0
  0
POINT
  5
D46
330
786
100
AcDbEntity
  8
Defpoints
 62
     0
440
 16777216
100
AcDbPoint
 10
1750.148350188557
 20
1504.077497379372
 30
0.0
  0
ENDBLK
  5
791
330
786
100
AcDbEntity
  8
0
100
AcDbBlockEnd
  0
BLOCK
  5
79D
330
792
100
AcDbEntity
  8
0
100
AcDbBlockBegin
  2
*D14
 70
     1
 10
0.0
 20
0.0
 30
0.0
  3
*D14
  1

  0
LINE
  5
D47
330
792
100
AcDbEntity
  8
标注
 62
     0
440
 16777216
370
    -2
100
AcDbLine
 10
1750.148350188557
 20
1503.452497379371
 30
0.0
 11
1750.148350188557
 21
1495.856563051993
 31
0.0
  0
LINE
  5
D48
330
792
100
AcDbEntity
  8
标注
 62
     0
440
 16777216
370
    -2
100
AcDbLine
 10
1696.243276173846
 20
1630.991480229792
 30
0.0
 11
1696.243276173846
 21
1495.856563051993
 31
0.0
  0
LINE
  5
D49
330
792
100
AcDbEntity
  8
标注
 62
     0
440
 16777216
370
    -2
100
AcDbLine
 10
1738.148350188557
 20
1503.856563051992
 30
0.0
 11
1708.243276173846
 21
1503.856563051992
 31
0.0
  0
LINE
  5
D4A
330
792
100
AcDbEntity
  8
标注
 62
     0
440
 16777216
370
    -2
100
AcDbLine
 10
1696.243276173846
 20
1503.856563051992
 30
0.0
 11
1611.564704745275
 21
1503.856563051992
 31
0.0
  0
INSERT
  5
D4B
330
792
100
AcDbEntity
  8
标注
 62
     0
440
 16777216
370
    -2
100
AcDbBlockReference
  2
_ClosedBlank
 10
1750.148350188557
 20
1503.856563051992
 30
0.0
 41
12.0
 42
12.0
 43
12.0
  0
INSERT
  5
D4C
330
792
100
AcDbEntity
  8
标注
 62
     0
440
 16777216
370
    -2
100
AcDbBlockReference
  2
_ClosedBlank
 10
1696.243276173846
 20
1503.856563051992
 30
0.0
 41
12.0
 42
12.0
 43
12.0
 50
180.0
  0
MTEXT
  5
D4D
330
792
100
AcDbEntity
  8
标注
 62
     0
440
 16777216
100
AcDbMText
 10
1647.90399045956
 20
1519.481563051992
 30
0.0
 40
30.0
 41
0.0
 46
0.0
 71
     5
 72
     1
  1
100
  7
样式 1
 73
     1
 44
1.0
  0
POINT
  5
D4E
330
792
100
AcDbEntity
  8
Defpoints
 62
     0
440
 16777216
100
AcDbPoint
 10
1750.148350188557
 20
1504.077497379372
 30
0.0
  0
POINT
  5
D4F
330
792
100
AcDbEntity
  8
Defpoints
 62
     0
440
 16777216
100
AcDbPoint
 10
1696.243276173846
 20
1631.616480229792
 30
0.0
  0
POINT
  5
D50
330
792
100
AcDbEntity
  8
Defpoints
 62
     0
440
 16777216
100
AcDbPoint
 10
1696.243276173846
 20
1503.856563051992
 30
0.0
  0
ENDBLK
  5
79E
330
792
100
AcDbEntity
  8
0
100
AcDbBlockEnd
  0
BLOCK
  5
7A6
330
79F
100
AcDbEntity
  8
0
100
AcDbBlockBegin
  2
*D15
 70
     1
 10
0.0
 20
0.0
 30
0.0
  3
*D15
  1

  0
LINE
  5
D51
330
79F
100
AcDbEntity
  8
标注
 62
     0
440
 16777216
370
    -2
100
AcDbLine
 10
2592.472456041623
 20
1543.7851385115
 30
0.0
 11
2507.4818346373
 21
1574.566023744967
 31
0.0
  0
MTEXT
  5
D52
330
79F
100
AcDbEntity
  8
标注
 62
     0
440
 16777216
100
AcDbMText
 10
2560.93924003941
 20
1571.82362859768
 30
0.0
 40
30.0
 41
0.0
 46
0.0
 71
     5
 72
     1
  1
R46
  7
样式 1
 11
0.9402360329202165
 21
-0.3405234241553042
 31
0.0
 73
     1
 44
1.0
  0
LINE
  5
D53
330
79F
100
AcDbEntity
  8
标注
 62
     0
440
 16777216
370
    -2
100
AcDbLine
 10
2452.948144727931
 20
1594.316382345973
 30
0.0
 11
2496.199002242257
 21
1578.65230483483
 31
0.0
  0
INSERT
  5
D54
330
79F
100
AcDbEntity
  8
标注
 62
     0
440
 16777216
370
    -2
100
AcDbBlockReference
  2
_ClosedBlank
 10
2496.199002242257
 20
1578.65230483483
 30
0.0
 41
12.0
 42
12.0
 43
12.0
 50
160.0912329021529
  0
POINT
  5
D55
330
79F
100
AcDbEntity
  8
Defpoints
 62
     0
440
 16777216
100
AcDbPoint
 10
2496.199002242257
 20
1578.65230483483
 30
0.0
  0
POINT
  5
D56
330
79F
100
AcDbEntity
  8
Defpoints
 62
     0
440
 16777216
100
AcDbPoint
 10
2452.948144727931
 20
1594.316382345973
 30
0.0
  0
ENDBLK
  5
7A7
330
79F
100
AcDbEntity
  8
0
100
AcDbBlockEnd
  0
BLOCK
  5
7B2
330
7A8
100
AcDbEntity
  8
0
100
AcDbBlockBegin
  2
*D16
 70
     1
 10
0.0
 20
0.0
 30
0.0
  3
*D16
  1

  0
LINE
  5
D57
330
7A8
100
AcDbEntity
  8
标注
 62
     0
440
 16777216
370
    -2
100
AcDbLine
 10
2426.223144727924
 20
1628.316382345974
 30
0.0
 11
2379.444744771943
 21
1628.316382345974
 31
0.0
  0
LINE
  5
D58
330
7A8
100
AcDbEntity
  8
标注
 62
     0
440
 16777216
370
    -2
100
AcDbLine
 10
2426.223144727924
 20
1548.316382345973
 30
0.0
 11
2379.444744771943
 21
1548.316382345973
 31
0.0
  0
LINE
  5
D59
330
7A8
100
AcDbEntity
  8
标注
 62
     0
440
 16777216
370
    -2
100
AcDbLine
 10
2387.444744771943
 20
1616.316382345974
 30
0.0
 11
2387.444744771943
 21
1560.316382345973
 31
0.0
  0
INSERT
  5
D5A
330
7A8
100
AcDbEntity
  8
标注
 62
     0
440
 16777216
370
    -2
100
AcDbBlockReference
  2
_ClosedBlank
 10
2387.444744771943
 20
1628.316382345974
 30
0.0
 41
12.0
 42
12.0
 43
12.0
 50
90.0
  0
INSERT
  5
D5B
330
7A8
100
AcDbEntity
  8
标注
 62
     0
440
 16777216
370
    -2
100
AcDbBlockReference
  2
_ClosedBlank
 10
2387.444744771943
 20
1548.316382345973
 30
0.0
 41
12.0
 42
12.0
 43
12.0
 50
270.0
  0
MTEXT
  5
D5C
330
7A8
100
AcDbEntity
  8
标注
 62
     0
440
 16777216
100
AcDbMText
 10
2371.819744771943
 20
1588.316382345974
 30
0.0
 40
30.0
 41
0.0
 46
0.0
 71
     5
 72
     1
  1
80
  7
样式 1
 11
0.0000000000000001
 21
1.0
 31
0.0
 73
     1
 44
1.0
  0
POINT
  5
D5D
330
7A8
100
AcDbEntity
  8
Defpoints
 62
     0
440
 16777216
100
AcDbPoint
 10
2426.848144727924
 20
1628.316382345974
 30
0.0
  0
POINT
  5
D5E
330
7A8
100
AcDbEntity
  8
Defpoints
 62
     0
440
 16777216
100
AcDbPoint
 10
2426.848144727924
 20
1548.316382345973
 30
0.0
  0
POINT
  5
D5F
330
7A8
100
AcDbEntity
  8
Defpoints
 62
     0
440
 16777216
100
AcDbPoint
 10
2387.444744771943
 20
1548.316382345973
 30
0.0
  0
ENDBLK
  5
7B3
330
7A8
100
AcDbEntity
  8
0
100
AcDbBlockEnd
  0
BLOCK
  5
7BD
330
7B4
100
AcDbEntity
  8
0
100
AcDbBlockBegin
  2
*D17
 70
     1
 10
0.0
 20
0.0
 30
0.0
  3
*D17
  1

  0
LINE
  5
D60
330
7B4
100
AcDbEntity
  8
标注
 62
     0
440
 16777216
370
    -2
100
AcDbLine
 10
1886.083978441778
 20
1551.31009085868
 30
0.0
 11
1772.143016997172
 21
1548.800770597275
 31
0.0
  0
LINE
  5
D61
330
7B4
100
AcDbEntity
  8
标注
 62
     0
440
 16777216
370
    -2
100
AcDbLine
 10
1728.15368337994
 20
1547.831994094672
 30
0.0
 11
1716.156592393422
 21
1547.567782321235
 31
0.0
  0
MTEXT
  5
D62
330
7B4
100
AcDbEntity
  8
标注
 62
     0
440
 16777216
100
AcDbMText
 10
1847.267138594007
 20
1566.084016813213
 30
0.0
 40
30.0
 41
0.0
 46
0.0
 71
     5
 72
     1
  1
∅20
  7
样式 1
 11
0.9997575822097843
 21
0.0220176477864112
 31
0.0
 73
     1
 44
1.0
  0
LINE
  5
D63
330
7B4
100
AcDbEntity
  8
标注
 62
     0
440
 16777216
370
    -2
100
AcDbLine
 10
1740.150774366457
 20
1548.096205868109
 30
0.0
 11
1760.145926010655
 21
1548.536558823838
 31
0.0
  0
INSERT
  5
D64
330
7B4
100
AcDbEntity
  8
标注
 62
     0
440
 16777216
370
    -2
100
AcDbBlockReference
  2
_ClosedBlank
 10
1740.150774366457
 20
1548.096205868109
 30
0.0
 41
12.0
 42
12.0
 43
12.0
 50
1.261620241011538
  0
INSERT
  5
D65
330
7B4
100
AcDbEntity
  8
标注
 62
     0
440
 16777216
370
    -2
100
AcDbBlockReference
  2
_ClosedBlank
 10
1760.145926010655
 20
1548.536558823838
 30
0.0
 41
12.0
 42
12.0
 43
12.0
 50
181.2616202410116
  0
POINT
  5
D66
330
7B4
100
AcDbEntity
  8
Defpoints
 62
     0
440
 16777216
100
AcDbPoint
 10
1760.145926010655
 20
1548.536558823838
 30
0.0
  0
POINT
  5
D67
330
7B4
100
AcDbEntity
  8
Defpoints
 62
     0
440
 16777216
100
AcDbPoint
 10
1740.150774366457
 20
1548.096205868109
 30
0.0
  0
ENDBLK
  5
7BE
330
7B4
100
AcDbEntity
  8
0
100
AcDbBlockEnd
  0
BLOCK
  5
7C9
330
7BF
100
AcDbEntity
  8
0
100
AcDbBlockBegin
  2
*D18
 70
     1
 10
0.0
 20
0.0
 30
0.0
  3
*D18
  1

  0
LINE
  5
D68
330
7BF
100
AcDbEntity
  8
标注
 62
     0
440
 16777216
370
    -2
100
AcDbLine
 10
3127.3022844974
 20
947.5984098911348
 30
0.0
 11
3210.841481692994
 21
895.285127180929
 31
0.0
  0
LINE
  5
D69
330
7BF
100
AcDbEntity
  8
标注
 62
     0
440
 16777216
370
    -2
100
AcDbLine
 10
2738.522716724899
 20
886.888003585201
 30
0.0
 11
2822.061913920493
 21
834.574720874995
 31
0.0
  0
LINE
  5
D6A
330
7BF
100
AcDbEntity
  8
标注
 62
     0
440
 16777216
370
    -2
100
AcDbLine
 10
3188.635890436033
 20
899.914534411557
 30
0.0
 11
2823.568950012712
 21
842.9070059322487
 31
0.0
  0
INSERT
  5
D6B
330
7BF
100
AcDbEntity
  8
标注
 62
     0
440
 16777216
370
    -2
100
AcDbBlockReference
  2
_ClosedBlank
 10
3200.492204110623
 20
901.7659733248699
 30
0.0
 41
12.0
 42
12.0
 43
12.0
 50
8.8754223615273
  0
INSERT
  5
D6C
330
7BF
100
AcDbEntity
  8
标注
 62
     0
440
 16777216
370
    -2
100
AcDbBlockReference
  2
_ClosedBlank
 10
2811.712636338122
 20
841.0555670189358
 30
0.0
 41
12.0
 42
12.0
 43
12.0
 50
188.8754223615273
  0
MTEXT
  5
D6D
330
7BF
100
AcDbEntity
  8
标注
 62
     0
440
 16777216
100
AcDbMText
 10
3031.148874279401
 20
891.1362924629678
 30
0.0
 40
30.0
 41
0.0
 46
0.0
 71
     5
 72
     1
  1
740
  7
样式 1
 11
0.9880261395491704
 21
0.154286576109405
 31
0.0
 73
     1
 44
1.0
  0
POINT
  5
D6E
330
7BF
100
AcDbEntity
  8
Defpoints
 62
     0
440
 16777216
100
AcDbPoint
 10
3126.493747186277
 20
948.1047259961304
 30
0.0
  0
POINT
  5
D6F
330
7BF
100
AcDbEntity
  8
Defpoints
 62
     0
440
 16777216
100
AcDbPoint
 10
2737.714179413776
 20
887.3943196901963
 30
0.0
  0
POINT
  5
D70
330
7BF
100
AcDbEntity
  8
Defpoints
 62
     0
440
 16777216
100
AcDbPoint
 10
2811.712636338122
 20
841.0555670189358
 30
0.0
  0
ENDBLK
  5
7CA
330
7BF
100
AcDbEntity
  8
0
100
AcDbBlockEnd
  0
BLOCK
  5
7D5
330
7CB
100
AcDbEntity
  8
0
100
AcDbBlockBegin
  2
*D19
 70
     1
 10
0.0
 20
0.0
 30
0.0
  3
*D19
  1

  0
LINE
  5
D71
330
7CB
100
AcDbEntity
  8
标注
 62
     0
440
 16777216
370
    -2
100
AcDbLine
 10
2738.508594600773
 20
886.8968470347033
 30
0.0
 11
2821.881150731682
 21
834.6879170286234
 31
0.0
  0
LINE
  5
D72
330
7CB
100
AcDbEntity
  8
标注
 62
     0
440
 16777216
370
    -2
100
AcDbLine
 10
2652.00935195584
 20
872.0107413529074
 30
0.0
 11
2735.381908086748
 21
819.8018113468274
 31
0.0
  0
LINE
  5
D73
330
7CB
100
AcDbEntity
  8
标注
 62
     0
440
 16777216
370
    -2
100
AcDbLine
 10
2799.886484687563
 20
839.0203429187446
 30
0.0
 11
2737.039545343746
 21
828.2046854373286
 31
0.0
  0
INSERT
  5
D74
330
7CB
100
AcDbEntity
  8
标注
 62
     0
440
 16777216
370
    -2
100
AcDbBlockReference
  2
_ClosedBlank
 10
2811.712636338122
 20
841.0555670189346
 30
0.0
 41
12.0
 42
12.0
 43
12.0
 50
9.764679794887278
  0
INSERT
  5
D75
330
7CB
100
AcDbEntity
  8
标注
 62
     0
440
 16777216
370
    -2
100
AcDbBlockReference
  2
_ClosedBlank
 10
2725.213393693187
 20
826.1694613371385
 30
0.0
 41
12.0
 42
12.0
 43
12.0
 50
189.7646797948873
  0
MTEXT
  5
D76
330
7CB
100
AcDbEntity
  8
标注
 62
     0
440
 16777216
100
AcDbMText
 10
2765.812983635199
 20
849.0111491397012
 30
0.0
 40
30.0
 41
0.0
 46
0.0
 71
     5
 72
     1
  1
100
  7
样式 1
 11
0.9855126375465344
 21
0.1696020083491736
 31
0.0
 73
     1
 44
1.0
  0
POINT
  5
D77
330
7CB
100
AcDbEntity
  8
Defpoints
 62
     0
440
 16777216
100
AcDbPoint
 10
2737.714179413776
 20
887.3943196901963
 30
0.0
  0
POINT
  5
D78
330
7CB
100
AcDbEntity
  8
Defpoints
 62
     0
440
 16777216
100
AcDbPoint
 10
2651.214936768843
 20
872.5082140084005
 30
0.0
  0
POINT
  5
D79
330
7CB
100
AcDbEntity
  8
Defpoints
 62
     0
440
 16777216
100
AcDbPoint
 10
2725.213393693187
 20
826.1694613371385
 30
0.0
  0
ENDBLK
  5
7D6
330
7CB
100
AcDbEntity
  8
0
100
AcDbBlockEnd
  0
BLOCK
  5
7E1
330
7D7
100
AcDbEntity
  8
0
100
AcDbBlockBegin
  2
*D20
 70
     1
 10
0.0
 20
0.0
 30
0.0
  3
*D20
  1

  0
LINE
  5
D7A
330
7D7
100
AcDbEntity
  8
标注
 62
     0
440
 16777216
370
    -2
100
AcDbLine
 10
2154.14328697064
 20
1149.930368442515
 30
0.0
 11
2014.477178186968
 21
1127.405647882235
 31
0.0
  0
LINE
  5
D7B
330
7D7
100
AcDbEntity
  8
标注
 62
     0
440
 16777216
370
    -2
100
AcDbLine
 10
2599.896460260407
 20
883.5568980882229
 30
0.0
 11
2460.230351476735
 21
861.0321775279423
 31
0.0
  0
LINE
  5
D7C
330
7D7
100
AcDbEntity
  8
标注
 62
     0
440
 16777216
370
    -2
100
AcDbLine
 10
2037.05916078802
 20
1123.230671916586
 30
0.0
 11
2462.210546950369
 21
869.1684308736396
 31
0.0
  0
INSERT
  5
D7D
330
7D7
100
AcDbEntity
  8
标注
 62
     0
440
 16777216
370
    -2
100
AcDbBlockReference
  2
_ClosedBlank
 10
2026.758267224311
 20
1129.386286572259
 30
0.0
 41
12.0
 42
12.0
 43
12.0
 50
149.1382777319373
  0
INSERT
  5
D7E
330
7D7
100
AcDbEntity
  8
标注
 62
     0
440
 16777216
370
    -2
100
AcDbBlockReference
  2
_ClosedBlank
 10
2472.511440514078
 20
863.0128162179664
 30
0.0
 41
12.0
 42
12.0
 43
12.0
 50
329.1382777319374
  0
MTEXT
  5
D7F
330
7D7
100
AcDbEntity
  8
标注
 62
     0
440
 16777216
100
AcDbMText
 10
2218.869700206095
 20
1032.786516248375
 30
0.0
 40
30.0
 41
0.0
 46
0.0
 71
     5
 72
     1
  1
700
  7
样式 1
 11
0.8584077969757462
 21
-0.5129678879727717
 31
0.0
 73
     1
 44
1.0
  0
POINT
  5
D80
330
7D7
100
AcDbEntity
  8
Defpoints
 62
     0
440
 16777216
100
AcDbPoint
 10
2155.102747051682
 20
1150.085105840173
 30
0.0
  0
POINT
  5
D81
330
7D7
100
AcDbEntity
  8
Defpoints
 62
     0
440
 16777216
100
AcDbPoint
 10
2600.855920341448
 20
883.7116354858812
 30
0.0
  0
POINT
  5
D82
330
7D7
100
AcDbEntity
  8
Defpoints
 62
     0
440
 16777216
100
AcDbPoint
 10
2472.511440514078
 20
863.0128162179664
 30
0.0
  0
ENDBLK
  5
7E2
330
7D7
100
AcDbEntity
  8
0
100
AcDbBlockEnd
  0
BLOCK
  5
7EE
330
7E3
100
AcDbEntity
  8
0
100
AcDbBlockBegin
  2
*D21
 70
     1
 10
0.0
 20
0.0
 30
0.0
  3
*D21
  1

  0
LINE
  5
DF1
330
7E3
100
AcDbEntity
  8
标注
 62
     0
440
 16777216
370
    -2
100
AcDbLine
 10
2205.893281958247
 20
1164.034867699514
 30
0.0
 11
2151.607372606089
 21
1196.394341161774
 31
0.0
  0
LINE
  5
DF2
330
7E3
100
AcDbEntity
  8
标注
 62
     0
440
 16777216
370
    -2
100
AcDbLine
 10
2166.175135667039
 20
1163.238145606433
 30
0.0
 11
2111.889226314881
 21
1195.597619068692
 31
0.0
  0
LINE
  5
DF3
330
7E3
100
AcDbEntity
  8
标注
 62
     0
440
 16777216
370
    -2
100
AcDbLine
 10
2152.59619001743
 20
1188.412566887628
 30
0.0
 11
2136.873216629674
 21
1188.097173511132
 31
0.0
  0
INSERT
  5
DF4
330
7E3
100
AcDbEntity
  8
标注
 62
     0
440
 16777216
370
    -2
100
AcDbBlockReference
  2
_ClosedBlank
 10
2164.593776469156
 20
1188.65323124592
 30
0.0
 41
12.0
 42
12.0
 43
12.0
 50
1.14916471194066
  0
INSERT
  5
DF5
330
7E3
100
AcDbEntity
  8
标注
 62
     0
440
 16777216
370
    -2
100
AcDbBlockReference
  2
_ClosedBlank
 10
2124.875630177948
 20
1187.856509152839
 30
0.0
 41
12.0
 42
12.0
 43
12.0
 50
181.1491647119407
  0
MTEXT
  5
DF6
330
7E3
100
AcDbEntity
  8
标注
 62
     0
440
 16777216
100
AcDbMText
 10
2135.862243600612
 20
1203.705037274244
 30
0.0
 40
30.0
 41
0.0
 46
0.0
 71
     5
 72
     1
  1
88
  7
样式 1
 11
0.9997988709771956
 21
0.020055363191048
 31
0.0
 73
     1
 44
1.0
  0
POINT
  5
DF7
330
7E3
100
AcDbEntity
  8
Defpoints
 62
     0
440
 16777216
100
AcDbPoint
 10
2206.90784476005
 20
1163.430093487338
 30
0.0
  0
POINT
  5
DF8
330
7E3
100
AcDbEntity
  8
Defpoints
 62
     0
440
 16777216
100
AcDbPoint
 10
2167.189698468842
 20
1162.633371394257
 30
0.0
  0
POINT
  5
DF9
330
7E3
100
AcDbEntity
  8
Defpoints
 62
     0
440
 16777216
100
AcDbPoint
 10
2124.875630177948
 20
1187.856509152839
 30
0.0
  0
ENDBLK
  5
7EF
330
7E3
100
AcDbEntity
  8
0
100
AcDbBlockEnd
  0
BLOCK
  5
DC8
330
DBE
100
AcDbEntity
  8
0
100
AcDbBlockBegin
  2
*D22
 70
     1
 10
0.0
 20
0.0
 30
0.0
  3
*D22
  1

  0
ARC
  5
DD5
330
DBE
100
AcDbEntity
  8
标注
 62
     0
440
 16777216
370
    -2
100
AcDbCircle
 10
2629.420679875211
 20
899.2699855065589
 30
0.0
 40
155.752048165295
100
AcDbArc
 50
13.57699550653055
 51
143.5292140132402
  0
INSERT
  5
DD6
330
DBE
100
AcDbEntity
  8
标注
 62
     0
440
 16777216
370
    -2
100
AcDbBlockReference
  2
_ClosedBlank
 10
2783.185864902076
 20
924.0685415398939
 30
0.0
 41
12.0
 42
12.0
 43
12.0
 50
281.3692572128374
  0
INSERT
  5
DD7
330
DBE
100
AcDbEntity
  8
标注
 62
     0
440
 16777216
370
    -2
100
AcDbBlockReference
  2
_ClosedBlank
 10
2497.415188066775
 20
981.9334637789943
 30
0.0
 41
12.0
 42
12.0
 43
12.0
 50
235.7369523069333
  0
MTEXT
  5
DD8
330
DBE
100
AcDbEntity
  8
标注
 62
     0
440
 16777216
100
AcDbMText
 10
2663.432100791792
 20
1067.238184535676
 30
0.0
 40
30.0
 41
0.0
 46
0.0
 71
     5
 72
     1
  1
140%%D
  7
样式 1
 11
0.9801090684390231
 21
-0.1984596028505306
 31
0.0
 73
     1
 44
1.0
  0
POINT
  5
DD9
330
DBE
100
AcDbEntity
  8
Defpoints
 62
     0
440
 16777216
100
AcDbPoint
 10
2717.812982900883
 20
1027.509999829321
 30
0.0
  0
POINT
  5
DDA
330
DBE
100
AcDbEntity
  8
Defpoints
 62
     0
440
 16777216
100
AcDbPoint
 10
2222.565253506255
 20
1154.047906007616
 30
0.0
  0
POINT
  5
DDB
330
DBE
100
AcDbEntity
  8
Defpoints
 62
     0
440
 16777216
100
AcDbPoint
 10
2636.125402117173
 20
900.3512928920779
 30
0.0
  0
POINT
  5
DDC
330
DBE
100
AcDbEntity
  8
Defpoints
 62
     0
440
 16777216
100
AcDbPoint
 10
3088.015911887984
 20
973.2301576723322
 30
0.0
  0
POINT
  5
DDD
330
DBE
100
AcDbEntity
  8
Defpoints
 62
     0
440
 16777216
100
AcDbPoint
 10
2623.375649524505
 20
903.0554585820047
 30
0.0
  0
ENDBLK
  5
DC9
330
DBE
100
AcDbEntity
  8
0
100
AcDbBlockEnd
  0
ENDSEC
  0
SECTION
  2
ENTITIES
  0
LINE
  5
64B
330
1F
100
AcDbEntity
  8
0
100
AcDbLine
 10
2197.433473319024
 20
1643.116382345974
 30
0.0
 11
1717.451836203662
 21
1643.116382345974
 31
0.0
  0
LINE
  5
64C
330
1F
100
AcDbEntity
  8
中心线
100
AcDbLine
 10
2234.324869825001
 20
1628.316382345974
 30
0.0
 11
1717.451836203662
 21
1628.316382345974
 31
0.0
  0
LINE
  5
64D
330
1F
100
AcDbEntity
  8
0
100
AcDbLine
 10
2197.433473319024
 20
1613.516382345974
 30
0.0
 11
1760.148350188557
 21
1613.516382345974
 31
0.0
  0
LINE
  5
64E
330
1F
100
AcDbEntity
  8
0
100
AcDbLine
 10
1740.148350188557
 20
1613.516382345974
 30
0.0
 11
1717.451836203662
 21
1613.516382345974
 31
0.0
  0
LINE
  5
64F
330
1F
100
AcDbEntity
  8
0
100
AcDbLine
 10
1682.098517670905
 20
1655.98393797443
 30
0.0
 11
1161.202363135739
 21
2093.067709126552
 31
0.0
  0
LINE
  5
650
330
1F
100
AcDbEntity
  8
中心线
100
AcDbLine
 10
1672.585261047544
 20
1644.646480216269
 30
0.0
 11
1123.277324976661
 21
2105.570566776102
 31
0.0
  0
LINE
  5
651
330
1F
100
AcDbEntity
  8
0
100
AcDbLine
 10
1663.072004424183
 20
1633.309022458108
 30
0.0
 11
1142.175849889017
 21
2070.39279361023
 31
0.0
  0
ARC
  5
652
330
1F
100
AcDbEntity
  8
0
100
AcDbCircle
 10
1717.451836203662
 20
1698.116382345974
 30
0.0
 40
55.0
100
AcDbArc
 50
230.0000000000378
 51
270.0
  0
ARC
  5
653
330
1F
100
AcDbEntity
  8
中心线
100
AcDbCircle
 10
1717.451836203662
 20
1698.116382345974
 30
0.0
 40
69.8
100
AcDbArc
 50
230.0000000000378
 51
270.0
  0
ARC
  5
654
330
1F
100
AcDbEntity
  8
0
100
AcDbCircle
 10
1717.451836203662
 20
1698.116382345974
 30
0.0
 40
84.59999999999999
100
AcDbArc
 50
230.0000000000378
 51
270.0
  0
ARC
  5
655
330
1F
100
AcDbEntity
  8
0
100
AcDbCircle
 10
2197.433473319024
 20
1628.316382345974
 30
0.0
 40
14.79999999999995
100
AcDbArc
 50
270.0
 51
90.0
  0
ARC
  5
656
330
1F
100
AcDbEntity
  8
0
100
AcDbCircle
 10
1151.68910651238
 20
2081.730251368391
 30
0.0
 40
14.79999999999962
100
AcDbArc
 50
50.00000000003782
 51
230.0000000000378
  0
ARC
  5
657
330
1F
100
AcDbEntity
  8
0
100
AcDbCircle
 10
2197.433473319024
 20
1628.316382345974
 30
0.0
 40
28.5
100
AcDbArc
 50
211.2851909649835
 51
148.7148090350165
  0
ARC
  5
658
330
1F
100
AcDbEntity
  8
0
100
AcDbCircle
 10
1151.689106512382
 20
2081.73025136839
 30
0.0
 40
28.5
100
AcDbArc
 50
351.2851909649878
 51
288.7148090349477
  0
LINE
  5
659
330
1F
100
AcDbEntity
  8
中心线
100
AcDbLine
 10
2197.433473319023
 20
1667.793195049988
 30
0.0
 11
2197.433473319024
 21
1586.594755166412
 31
0.0
  0
LINE
  5
65A
330
1F
100
AcDbEntity
  8
0
100
AcDbLine
 10
2225.933473319024
 20
1388.917845262304
 30
0.0
 11
2168.933473319023
 21
1388.917845262304
 31
0.0
  0
LINE
  5
65B
330
1F
100
AcDbEntity
  8
0
100
AcDbLine
 10
2225.933473319024
 20
1401.917845262303
 30
0.0
 11
2168.933473319023
 21
1401.917845262303
 31
0.0
  0
LINE
  5
65C
330
1F
100
AcDbEntity
  8
0
100
AcDbLine
 10
2225.933473319024
 20
1401.917845262303
 30
0.0
 11
2225.933473319024
 21
1388.917845262304
 31
0.0
  0
LINE
  5
65D
330
1F
100
AcDbEntity
  8
0
100
AcDbLine
 10
2168.933473319023
 20
1401.917845262303
 30
0.0
 11
2168.933473319023
 21
1388.917845262304
 31
0.0
  0
LINE
  5
65E
330
1F
100
AcDbEntity
  8
中心线
100
AcDbLine
 10
2197.433473319024
 20
1403.778409112846
 30
0.0
 11
2197.433473319024
 21
1368.917845262304
 31
0.0
  0
LINE
  5
65F
330
1F
100
AcDbEntity
  8
0
100
AcDbLine
 10
2212.233473319024
 20
1388.917845262304
 30
0.0
 11
2212.233473319024
 21
1368.917845262304
 31
0.0
  0
LINE
  5
660
330
1F
100
AcDbEntity
  8
0
100
AcDbLine
 10
2182.633473319024
 20
1388.917845262304
 30
0.0
 11
2182.633473319024
 21
1368.917845262304
 31
0.0
  0
LINE
  5
661
330
1F
100
AcDbEntity
  8
中心线
100
AcDbLine
 10
2142.433473319024
 20
1313.917845262303
 30
0.0
 11
1675.070412226157
 21
1313.917845262304
 31
0.0
  0
LINE
  5
662
330
1F
100
AcDbEntity
  8
0
100
AcDbLine
 10
2142.433473319024
 20
1299.117845262303
 30
0.0
 11
1678.806823098382
 21
1299.117845262304
 31
0.0
  0
LINE
  5
663
330
1F
100
AcDbEntity
  8
0
100
AcDbLine
 10
2142.433473319024
 20
1328.717845262304
 30
0.0
 11
1760.148350188557
 21
1328.717845262304
 31
0.0
  0
LINE
  5
664
330
1F
100
AcDbEntity
  8
0
100
AcDbLine
 10
1740.148350188553
 20
1328.717845262303
 30
0.0
 11
1678.806823098382
 21
1328.717845262304
 31
0.0
  0
ARC
  5
665
330
1F
100
AcDbEntity
  8
中心线
100
AcDbCircle
 10
2142.433473319024
 20
1368.917845262304
 30
0.0
 40
55.0
100
AcDbArc
 50
270.0
 51
0.0
  0
ARC
  5
666
330
1F
100
AcDbEntity
  8
0
100
AcDbCircle
 10
2142.433473319024
 20
1368.917845262304
 30
0.0
 40
69.8
100
AcDbArc
 50
270.0
 51
0.0
  0
ARC
  5
667
330
1F
100
AcDbEntity
  8
0
100
AcDbCircle
 10
2142.433473319024
 20
1368.917845262304
 30
0.0
 40
40.2
100
AcDbArc
 50
270.0
 51
0.0
  0
SPLINE
  5
668
330
1F
100
AcDbEntity
  8
0
100
AcDbSpline
210
0.0
220
0.0
230
1.0
 70
  1064
 71
     3
 72
     9
 73
     5
 74
     3
 42
0.000000001
 43
0.0000000001
 44
0.0000000001
 40
0.0
 40
0.0
 40
0.0
 40
0.0
 40
15.66579547199628
 40
31.3315909439917
 40
31.3315909439917
 40
31.3315909439917
 40
31.3315909439917
 10
1678.806823098382
 20
1328.717845262304
 30
0.0
 10
1681.374757471102
 20
1323.78451192897
 30
0.0
 10
1686.510626216543
 20
1313.917845262303
 30
0.0
 10
1681.374757471102
 20
1304.051178595637
 30
0.0
 10
1678.806823098382
 20
1299.117845262304
 30
0.0
 11
1678.806823098382
 21
1328.717845262304
 31
0.0
 11
1683.942691843823
 21
1313.917845262303
 31
0.0
 11
1678.806823098382
 21
1299.117845262304
 31
0.0
  0
LINE
  5
669
330
1F
100
AcDbEntity
  8
0
100
AcDbLine
 10
956.3041852681218
 20
1893.217698602335
 30
0.0
 11
999.9687185259045
 21
1856.578804850202
 31
0.0
  0
LINE
  5
66A
330
1F
100
AcDbEntity
  8
0
100
AcDbLine
 10
964.6604241940476
 20
1903.176276362881
 30
0.0
 11
1008.324957451828
 21
1866.537382610749
 31
0.0
  0
LINE
  5
66B
330
1F
100
AcDbEntity
  8
0
100
AcDbLine
 10
964.6604241940476
 20
1903.176276362881
 30
0.0
 11
956.3041852681218
 21
1893.217698602335
 31
0.0
  0
LINE
  5
66C
330
1F
100
AcDbEntity
  8
0
100
AcDbLine
 10
1008.324957451828
 20
1866.537382610749
 30
0.0
 11
999.9687185259045
 21
1856.578804850202
 31
0.0
  0
LINE
  5
66D
330
1F
100
AcDbEntity
  8
中心线
100
AcDbLine
 10
993.2926120802093
 20
1892.960660074527
 30
0.0
 11
965.2806997032822
 21
1859.577362863889
 31
0.0
  0
LINE
  5
66E
330
1F
100
AcDbEntity
  8
0
100
AcDbLine
 10
966.7989941388531
 20
1884.41150834963
 30
0.0
 11
953.9432419451204
 21
1869.09061948725
 31
0.0
  0
LINE
  5
66F
330
1F
100
AcDbEntity
  8
0
100
AcDbLine
 10
989.4739096551729
 20
1865.384995102907
 30
0.0
 11
976.6181574614439
 21
1850.064106240527
 31
0.0
  0
LINE
  5
670
330
1F
100
AcDbEntity
  8
中心线
100
AcDbLine
 10
972.0598255420654
 20
1782.091599959584
 30
0.0
 11
1273.353937789591
 21
1529.2758214968
 31
0.0
  0
LINE
  5
671
330
1F
100
AcDbEntity
  8
0
100
AcDbLine
 10
962.5465689187048
 20
1770.754142201424
 30
0.0
 11
1263.840681166229
 21
1517.938363738639
 31
0.0
  0
LINE
  5
672
330
1F
100
AcDbEntity
  8
0
100
AcDbLine
 10
981.5730821654261
 20
1793.429057717746
 30
0.0
 11
1282.86719441295
 21
1540.613279254961
 31
0.0
  0
ARC
  5
673
330
1F
100
AcDbEntity
  8
中心线
100
AcDbCircle
 10
1007.413144074826
 20
1824.224044331128
 30
0.0
 40
55.0
100
AcDbArc
 50
139.9999999999607
 51
230.0000000000462
  0
ARC
  5
674
330
1F
100
AcDbEntity
  8
0
100
AcDbCircle
 10
1007.413144074826
 20
1824.224044331128
 30
0.0
 40
69.79999999999998
100
AcDbArc
 50
139.9999999999607
 51
230.0000000000462
  0
ARC
  5
675
330
1F
100
AcDbEntity
  8
0
100
AcDbCircle
 10
1007.413144074826
 20
1824.224044331128
 30
0.0
 40
40.19999999999999
100
AcDbArc
 50
139.9999999999607
 51
230.0000000000462
  0
SPLINE
  5
676
330
1F
100
AcDbEntity
  8
0
100
AcDbSpline
210
0.0
220
0.0
230
1.0
 70
  1064
 71
     3
 72
     9
 73
     5
 74
     3
 42
0.000000001
 43
0.0000000001
 44
0.0000000001
 40
0.0
 40
0.0
 40
0.0
 40
0.0
 40
15.66579547199473
 40
31.33159094399148
 40
31.33159094399148
 40
31.33159094399148
 40
31.33159094399148
 10
1282.86719441295
 20
1540.613279254961
 30
0.0
 10
1277.728957015313
 20
1538.48476306618
 30
0.0
 10
1267.452482220039
 20
1534.227730688619
 30
0.0
 10
1265.044614850832
 20
1523.368152721965
 30
0.0
 10
1263.840681166229
 20
1517.938363738639
 30
0.0
 11
1282.86719441295
 21
1540.613279254961
 31
0.0
 11
1269.419634076556
 21
1532.577094291346
 31
0.0
 11
1263.840681166229
 21
1517.938363738639
 31
0.0
  0
LINE
  5
677
330
1F
100
AcDbEntity
  8
中心线
100
AcDbLine
 10
1174.410289380128
 20
2108.808302679019
 30
0.0
 11
1123.552166536614
 21
2048.197952067665
 31
0.0
  0
LINE
  5
678
330
1F
100
AcDbEntity
  8
0
100
AcDbLine
 10
2426.848144727924
 20
1599.816382345973
 30
0.0
 11
2426.848144727924
 21
1656.816382345973
 31
0.0
  0
LINE
  5
679
330
1F
100
AcDbEntity
  8
0
100
AcDbLine
 10
2439.848144727924
 20
1599.816382345973
 30
0.0
 11
2439.848144727924
 21
1656.816382345973
 31
0.0
  0
LINE
  5
67A
330
1F
100
AcDbEntity
  8
中心线
100
AcDbLine
 10
2426.848144727924
 20
1628.316382345974
 30
0.0
 11
2514.848144727924
 21
1628.316382345973
 31
0.0
  0
ARC
  5
67B
330
1F
100
AcDbEntity
  8
0
100
AcDbCircle
 10
2498.948144727924
 20
1628.316382345973
 30
0.0
 40
14.8
100
AcDbArc
 50
312.5066423027762
 51
227.4933576973402
  0
ARC
  5
67C
330
1F
100
AcDbEntity
  8
0
100
AcDbCircle
 10
2498.948144727924
 20
1628.316382345973
 30
0.0
 40
15.9
100
AcDbArc
 50
308.9712841765561
 51
231.0287158234438
  0
LINE
  5
67D
330
1F
100
AcDbEntity
  8
0
100
AcDbLine
 10
2498.948144727924
 20
1644.216382345973
 30
0.0
 11
2439.848144727925
 21
1644.216382345973
 31
0.0
  0
LINE
  5
67E
330
1F
100
AcDbEntity
  8
0
100
AcDbLine
 10
2488.948144727925
 20
1612.416382345973
 30
0.0
 11
2439.848144727924
 21
1612.416382345973
 31
0.0
  0
LINE
  5
67F
330
1F
100
AcDbEntity
  8
0
100
AcDbLine
 10
2439.848144727924
 20
1656.816382345973
 30
0.0
 11
2426.848144727925
 21
1656.816382345973
 31
0.0
  0
LINE
  5
680
330
1F
100
AcDbEntity
  8
0
100
AcDbLine
 10
2439.848144727924
 20
1599.816382345973
 30
0.0
 11
2426.848144727925
 21
1599.816382345973
 31
0.0
  0
DIMENSION
  5
681
330
1F
100
AcDbEntity
  8
标注
100
AcDbDimension
280
     0
  2
*D2
 10
2245.984440997815
 20
1299.117845262303
 30
0.0
 11
2230.359440997815
 21
1350.517845262304
 31
0.0
 70
    32
  1
88
 71
     5
 42
102.8000000000002
 73
     0
 74
     0
 75
     0
  3
线性标注
100
AcDbAlignedDimension
 13
2197.433473319024
 23
1401.917845262303
 33
0.0
 14
2142.433473319024
 24
1299.117845262303
 34
0.0
 50
90.0
100
AcDbRotatedDimension
  0
DIMENSION
  5
682
330
1F
100
AcDbEntity
  8
标注
100
AcDbDimension
280
     0
  2
*D3
 10
2426.848144727925
 20
1674.328948815433
 30
0.0
 11
2380.794573299353
 21
1689.953948815433
 31
0.0
 70
    32
 71
     5
 42
12.99999999999909
 73
     0
 74
     0
 75
     0
  3
线性标注
100
AcDbAlignedDimension
 13
2439.848144727924
 23
1656.816382345973
 33
0.0
 14
2426.848144727925
 24
1656.816382345973
 34
0.0
 50
180.0
100
AcDbRotatedDimension
  0
DIMENSION
  5
683
330
1F
100
AcDbEntity
  8
标注
100
AcDbDimension
280
     0
  2
*D4
 10
2485.110515256437
 20
1620.485034402619
 30
0.0
 11
2575.630080938684
 21
1689.667961761047
 31
0.0
 70
    35
 71
     5
 42
31.800000000002
 73
     0
 74
     0
 75
     0
  3
线性标注
100
AcDbDiametricDimension
 15
2512.785774199412
 25
1636.147730289323
 35
0.0
 40
0.0
1001
ACAD
1000
DSTYLE
1002
{
1070
   288
1070
     1
1002
}
1001
ACAD_DSTYLE_DIMRADIAL_EXTENSION
1070
   387
1070
     1
1070
   388
1040
0.0
1070
   390
1040
0.0
  0
DIMENSION
  5
684
330
1F
100
AcDbEntity
  8
标注
100
AcDbDimension
280
     0
  2
*D5
 10
2486.156816660163
 20
1635.760972748595
 30
0.0
 11
2591.503968536524
 21
1592.527276225999
 31
0.0
 70
    35
 71
     5
 42
29.59999999999809
 73
     0
 74
     0
 75
     0
  3
线性标注
100
AcDbDiametricDimension
 15
2511.739472795687
 25
1620.871791943346
 35
0.0
 40
0.0
1001
ACAD
1000
DSTYLE
1002
{
1070
   288
1070
     1
1002
}
1001
ACAD_DSTYLE_DIMRADIAL_EXTENSION
1070
   387
1070
     1
1070
   388
1040
0.0
1070
   390
1040
0.0
  0
DIMENSION
  5
685
330
1F
100
AcDbEntity
  8
标注
100
AcDbDimension
280
     0
  2
*D6
 10
2217.578297881438
 20
1608.15612333599
 30
0.0
 11
2127.848387694807
 21
1721.671009549224
 31
0.0
 70
    35
  1
{\fGulim|b0|i0|c129|p34;3-<>}
 71
     5
 42
56.99999999999886
 73
     0
 74
     0
 75
     0
  3
线性标注
100
AcDbDiametricDimension
 15
2177.288648756611
 25
1648.476641355953
 35
0.0
 40
0.0
1001
ACAD
1000
DSTYLE
1002
{
1070
   288
1070
     1
1002
}
1001
ACAD_DSTYLE_DIMRADIAL_EXTENSION
1070
   387
1070
     1
1070
   388
1040
0.5460295894543931
1070
   390
1040
5.737155717725193
  0
DIMENSION
  5
686
330
1F
100
AcDbEntity
  8
标注
100
AcDbDimension
280
     0
  2
*D7
 10
1096.202749506769
 20
2014.888275869429
 30
0.0
 11
1377.127621647839
 21
1801.996048647897
 31
0.0
 70
    33
  1
700
 71
     5
 42
704.2662666174514
 73
     0
 74
     0
 75
     0
  3
线性标注
100
AcDbAlignedDimension
 13
1693.578830199531
 23
1631.900837415117
 33
0.0
 14
1151.68910651238
 24
2081.730251368391
 34
0.0
  0
DIMENSION
  5
687
330
1F
100
AcDbEntity
  8
标注
100
AcDbDimension
280
     0
  2
*D8
 10
2158.701505794213
 20
1388.917845262304
 30
0.0
 11
2158.701505794212
 21
1447.971416690875
 31
0.0
 70
   160
 71
     5
 42
13.0
 73
     0
 74
     0
 75
     0
  3
线性标注
100
AcDbAlignedDimension
 13
2168.933473319023
 23
1401.917845262303
 33
0.0
 14
2168.933473319023
 24
1388.917845262304
 34
0.0
 50
90.0
100
AcDbRotatedDimension
  0
DIMENSION
  5
688
330
1F
100
AcDbEntity
  8
标注
100
AcDbDimension
280
     0
  2
*D9
 10
2142.433473319022
 20
1368.917845262306
 30
0.0
 11
2214.626900555773
 21
1274.430454379964
 31
0.0
 70
    36
 71
     5
 42
55.00000000000728
 73
     0
 74
     0
 75
     0
  3
线性标注
100
AcDbRadialDimension
 15
2175.825237230902
 25
1325.214411726094
 35
0.0
 40
0.0
1001
ACAD
1000
DSTYLE
1002
{
1070
   288
1070
     1
1002
}
1001
ACAD_DSTYLE_DIMRADIAL_EXTENSION
1070
   387
1070
     1
1070
   388
1040
3.141592653589793
1070
   390
1040
4.712388980384689
  0
DIMENSION
  5
689
330
1F
100
AcDbEntity
  8
标注
100
AcDbDimension
280
     0
  2
*D10
 10
1007.413144074828
 20
1824.224044331126
 30
0.0
 11
890.056856970469
 21
1843.388069195915
 31
0.0
 70
    36
 71
     5
 42
55.00000000000091
 73
     0
 74
     0
 75
     0
  3
线性标注
100
AcDbRadialDimension
 15
953.1321162506158
 25
1833.088017387674
 35
0.0
 40
0.0
1001
ACAD
1000
DSTYLE
1002
{
1070
   288
1070
     1
1002
}
1001
ACAD_DSTYLE_DIMRADIAL_EXTENSION
1070
   387
1070
     1
1070
   388
1040
5.410520681181646
1070
   390
1040
0.6981317007982393
  0
DIMENSION
  5
68A
330
1F
100
AcDbEntity
  8
标注
100
AcDbDimension
280
     0
  2
*D11
 10
1717.451836203664
 20
1628.316382345973
 30
0.0
 11
1750.11360804253
 21
1777.219206545006
 31
0.0
 70
   162
 71
     5
 42
2.443460952792059
 73
     0
 74
     0
 75
     0
  3
线性标注
100
AcDb2LineAngularDimension
 13
1672.585261047544
 23
1644.646480216269
 33
0.0
 14
1123.277324976661
 24
2105.570566776102
 34
0.0
 15
2234.324869825003
 25
1628.316382345973
 35
0.0
 16
1682.753755747413
 26
1787.870311113223
 36
0.0
  0
DIMENSION
  5
68B
330
1F
100
AcDbEntity
  8
标注
100
AcDbDimension
280
     0
  2
*D12
 10
1717.451836203678
 20
1698.116382345971
 30
0.0
 11
1715.662391080407
 21
1692.505538169261
 31
0.0
 70
   164
  1
R55
 71
     5
 42
69.800000000002
 73
     0
 74
     0
 75
     0
  3
线性标注
100
AcDbRadialDimension
 15
1696.243276173849
 25
1631.616480229791
 35
0.0
 40
0.0
1001
ACAD
1000
DSTYLE
1002
{
1070
   288
1070
     1
1002
}
1001
ACAD_DSTYLE_DIMRADIAL_EXTENSION
1070
   387
1070
     1
1070
   388
1040
4.712388980384689
1070
   390
1040
5.410520681182421
  0
LINE
  5
68C
330
1F
100
AcDbEntity
  8
中心线
100
AcDbLine
 10
1750.148350188557
 20
1661.631527739989
 30
0.0
 11
1750.148350188557
 21
1514.36556087525
 31
0.0
  0
LINE
  5
68D
330
1F
100
AcDbEntity
  8
0
100
AcDbLine
 10
1740.148350188557
 20
1613.516382345974
 30
0.0
 11
1740.148350188557
 21
1548.316382345974
 31
0.0
  0
LINE
  5
68E
330
1F
100
AcDbEntity
  8
0
100
AcDbLine
 10
1760.148350188557
 20
1613.516382345974
 30
0.0
 11
1760.148350188557
 21
1548.316382345974
 31
0.0
  0
ARC
  5
68F
330
1F
100
AcDbEntity
  8
0
100
AcDbCircle
 10
1750.148350188557
 20
1548.316382345974
 30
0.0
 40
10.00000000000091
100
AcDbArc
 50
180.0
 51
0.0
  0
ARC
  5
690
330
1F
100
AcDbEntity
  8
0
100
AcDbCircle
 10
1750.148350188557
 20
1548.316382345974
 30
0.0
 40
28.5
100
AcDbArc
 50
110.5409775375683
 51
69.4590224624317
  0
LINE
  5
691
330
1F
100
AcDbEntity
  8
中心线
100
AcDbLine
 10
1750.148350188557
 20
1407.854389569778
 30
0.0
 11
1750.148350188557
 21
1269.41791232742
 31
0.0
  0
ARC
  5
692
330
1F
100
AcDbEntity
  8
0
100
AcDbCircle
 10
1750.148350188557
 20
1581.823355993546
 30
0.0
 40
33.23323516264469
100
AcDbArc
 50
72.48811667166231
 51
107.5118833283377
  0
LINE
  5
693
330
1F
100
AcDbEntity
  8
0
100
AcDbLine
 10
1760.148350188555
 20
1375.917845262304
 30
0.0
 11
1760.148350188557
 21
1328.717845262304
 31
0.0
  0
LINE
  5
694
330
1F
100
AcDbEntity
  8
0
100
AcDbLine
 10
1740.148350188557
 20
1375.917845262304
 30
0.0
 11
1740.148350188557
 21
1328.717845262304
 31
0.0
  0
ARC
  5
695
330
1F
100
AcDbEntity
  8
0
100
AcDbCircle
 10
1750.148350188557
 20
1362.877287733346
 30
0.0
 40
35.59308233256089
100
AcDbArc
 50
253.6828809708783
 51
286.3171190291217
  0
LINE
  5
696
330
1F
100
AcDbEntity
  8
0
100
AcDbLine
 10
1778.648350188557
 20
1388.917845262304
 30
0.0
 11
1721.648350188557
 21
1388.917845262304
 31
0.0
  0
LINE
  5
697
330
1F
100
AcDbEntity
  8
0
100
AcDbLine
 10
1778.648350188557
 20
1388.917845262304
 30
0.0
 11
1721.648350188557
 21
1388.917845262304
 31
0.0
  0
LINE
  5
698
330
1F
100
AcDbEntity
  8
0
100
AcDbLine
 10
1778.648350188557
 20
1375.917845262304
 30
0.0
 11
1721.648350188557
 21
1375.917845262304
 31
0.0
  0
LINE
  5
699
330
1F
100
AcDbEntity
  8
0
100
AcDbLine
 10
1778.648350188557
 20
1388.917845262304
 30
0.0
 11
1778.648350188557
 21
1375.917845262304
 31
0.0
  0
LINE
  5
69A
330
1F
100
AcDbEntity
  8
0
100
AcDbLine
 10
1721.648350188557
 20
1388.917845262304
 30
0.0
 11
1721.648350188557
 21
1375.917845262304
 31
0.0
  0
DIMENSION
  5
69B
330
1F
100
AcDbEntity
  8
标注
100
AcDbDimension
280
     0
  2
*D13
 10
1750.148350188557
 20
1504.077497379372
 30
0.0
 11
1973.79091175379
 21
1519.702497379372
 31
0.0
 70
    32
  1
740
 71
     5
 42
447.2851231304666
 73
     0
 74
     0
 75
     0
  3
线性标注
100
AcDbAlignedDimension
 13
2197.433473319024
 23
1586.594755166412
 33
0.0
 14
1750.148350188557
 24
1586.594755166412
 34
0.0
 50
180.0
100
AcDbRotatedDimension
  0
DIMENSION
  5
69C
330
1F
100
AcDbEntity
  8
标注
100
AcDbDimension
280
     0
  2
*D14
 10
1696.243276173846
 20
1503.856563051992
 30
0.0
 11
1647.90399045956
 21
1519.481563051992
 31
0.0
 70
    32
  1
100
 71
     5
 42
53.9050740147104
 73
     0
 74
     0
 75
     0
  3
线性标注
100
AcDbAlignedDimension
 13
1750.148350188557
 23
1504.077497379372
 33
0.0
 14
1696.243276173846
 24
1631.616480229792
 34
0.0
 50
180.0
100
AcDbRotatedDimension
  0
ARC
  5
69D
330
1F
100
AcDbEntity
  8
中心线
100
AcDbCircle
 10
2452.948144727926
 20
1594.316382345974
 30
0.0
 40
46.0
100
AcDbArc
 50
270.0
 51
0.0
  0
ARC
  5
69E
330
1F
100
AcDbEntity
  8
0
100
AcDbCircle
 10
2452.948144727926
 20
1594.316382345974
 30
0.0
 40
36.0
100
AcDbArc
 50
270.0
 51
0.0
  0
ARC
  5
69F
330
1F
100
AcDbEntity
  8
0
100
AcDbCircle
 10
2452.948144727926
 20
1594.316382345974
 30
0.0
 40
56.0
100
AcDbArc
 50
270.0
 51
0.0
  0
LINE
  5
6A0
330
1F
100
AcDbEntity
  8
0
100
AcDbLine
 10
2426.848144727924
 20
1519.816382345974
 30
0.0
 11
2426.848144727924
 21
1576.816382345973
 31
0.0
  0
LINE
  5
6A1
330
1F
100
AcDbEntity
  8
0
100
AcDbLine
 10
2439.848144727924
 20
1519.816382345974
 30
0.0
 11
2439.848144727924
 21
1576.816382345973
 31
0.0
  0
LINE
  5
6A2
330
1F
100
AcDbEntity
  8
0
100
AcDbLine
 10
2439.848144727924
 20
1576.816382345973
 30
0.0
 11
2426.848144727924
 21
1576.816382345973
 31
0.0
  0
LINE
  5
6A3
330
1F
100
AcDbEntity
  8
0
100
AcDbLine
 10
2439.848144727924
 20
1519.816382345974
 30
0.0
 11
2426.848144727924
 21
1519.816382345973
 31
0.0
  0
LINE
  5
6A4
330
1F
100
AcDbEntity
  8
中心线
100
AcDbLine
 10
2498.948144727926
 20
1631.183406915205
 30
0.0
 11
2498.948144727926
 21
1594.316382345974
 31
0.0
  0
LINE
  5
6A5
330
1F
100
AcDbEntity
  8
0
100
AcDbLine
 10
2488.948144727925
 20
1639.226927703562
 30
0.0
 11
2488.948144727926
 21
1594.316382345974
 31
0.0
  0
LINE
  5
6A6
330
1F
100
AcDbEntity
  8
0
100
AcDbLine
 10
2508.948144727925
 20
1639.226927703561
 30
0.0
 11
2508.948144727926
 21
1594.316382345974
 31
0.0
  0
LINE
  5
6A7
330
1F
100
AcDbEntity
  8
中心线
100
AcDbLine
 10
2452.948144727926
 20
1548.316382345974
 30
0.0
 11
2417.450697893233
 21
1548.316382345974
 31
0.0
  0
LINE
  5
6A8
330
1F
100
AcDbEntity
  8
0
100
AcDbLine
 10
2452.948144727926
 20
1558.316382345974
 30
0.0
 11
2439.848144727924
 21
1558.316382345974
 31
0.0
  0
LINE
  5
6A9
330
1F
100
AcDbEntity
  8
0
100
AcDbLine
 10
2452.948144727926
 20
1538.316382345974
 30
0.0
 11
2439.848144727924
 21
1538.316382345974
 31
0.0
  0
LINE
  5
6AA
330
1F
100
AcDbEntity
  8
0
100
AcDbLine
 10
2508.948144727925
 20
1639.226927703561
 30
0.0
 11
2488.948144727925
 21
1639.226927703561
 31
0.0
  0
DIMENSION
  5
6AB
330
1F
100
AcDbEntity
  8
标注
100
AcDbDimension
280
     0
  2
*D15
 10
2452.948144727931
 20
1594.316382345973
 30
0.0
 11
2555.618561536983
 21
1557.132440583301
 31
0.0
 70
    36
 71
     5
 42
45.99999999999636
 73
     0
 74
     0
 75
     0
  3
线性标注
100
AcDbRadialDimension
 15
2496.199002242257
 25
1578.65230483483
 35
0.0
 40
0.0
1001
ACAD
1000
DSTYLE
1002
{
1070
   288
1070
     1
1002
}
1001
ACAD_DSTYLE_DIMRADIAL_EXTENSION
1070
   387
1070
     1
1070
   388
1040
3.141592653589793
1070
   390
1040
4.712388980384689
  0
DIMENSION
  5
6AC
330
1F
100
AcDbEntity
  8
标注
100
AcDbDimension
280
     0
  2
*D16
 10
2387.444744771943
 20
1548.316382345973
 30
0.0
 11
2371.819744771943
 21
1588.316382345974
 31
0.0
 70
    32
 71
     5
 42
80.0
 73
     0
 74
     0
 75
     0
  3
线性标注
100
AcDbAlignedDimension
 13
2426.848144727924
 23
1628.316382345974
 33
0.0
 14
2426.848144727924
 24
1548.316382345973
 34
0.0
 50
90.0
100
AcDbRotatedDimension
  0
LINE
  5
6AD
330
1F
100
AcDbEntity
  8
0
100
AcDbLine
 10
1750.148350188557
 20
1661.631527739989
 30
0.0
 11
1750.148350188557
 21
1678.678111915173
 31
0.0
  0
LWPOLYLINE
  5
6AE
330
1F
100
AcDbEntity
  8
0
100
AcDbPolyline
 90
        2
 70
     0
 10
1750.148350188557
 20
1678.678111915173
 40
2.0
 41
0.0
 10
1786.231753873217
 20
1678.678111915173
 40
0.0
 41
0.0
  0
LINE
  5
6AF
330
1F
100
AcDbEntity
  8
0
100
AcDbLine
 10
1750.148350188557
 20
1502.606563051992
 30
0.0
 11
1750.148350188557
 21
1490.53311909774
 31
0.0
  0
LWPOLYLINE
  5
6B0
330
1F
100
AcDbEntity
  8
0
100
AcDbPolyline
 90
        3
 70
     0
 10
1750.148350188557
 20
1490.53311909774
 40
0.0
 41
0.0
 10
1752.148350188557
 20
1490.53311909774
 40
2.0
 41
0.0
 10
1771.647499472645
 20
1490.53311909774
 40
0.0
 41
0.0
  0
MTEXT
  5
6B1
330
1F
100
AcDbEntity
  8
0
100
AcDbMText
 10
1768.732264240752
 20
1484.899260901703
 30
0.0
 40
25.0
 41
78.15922592658899
 46
0.0
 71
     3
 72
     5
  1
A
  7
黑体
 73
     1
 44
1.0
  0
MTEXT
  5
6B2
330
1F
100
AcDbEntity
  8
0
100
AcDbMText
 10
1768.732264240752
 20
1713.710947976654
 30
0.0
 40
25.0
 41
78.15922592658899
 46
0.0
 71
     3
 72
     5
  1
A
  7
黑体
 73
     1
 44
1.0
  0
MTEXT
  5
6B3
330
1F
100
AcDbEntity
  8
0
100
AcDbMText
 10
2520.411918948361
 20
1476.679886384396
 30
0.0
 40
25.0
 41
173.5631402998115
 46
0.0
 71
     3
 72
     5
  1
A-A
  7
黑体
 73
     1
 44
1.0
  0
MTEXT
  5
6B4
330
1F
100
AcDbEntity
  8
0
100
AcDbMText
 10
-8631.216067348381
 20
2515.796808427153
 30
0.0
 40
30.0
 41
212.374942900904
 46
0.0
 71
     3
 72
     5
  1
4
  7
黑体
 73
     1
 44
1.0
  0
DIMENSION
  5
6B5
330
1F
100
AcDbEntity
  8
标注
100
AcDbDimension
280
     0
  2
*D17
 10
1740.150774366457
 20
1548.096205868109
 30
0.0
 11
1847.611164340669
 21
1550.462804591185
 31
0.0
 70
   163
 71
     5
 42
20.00000000000205
 73
     0
 74
     0
 75
     0
  3
线性标注
100
AcDbDiametricDimension
 15
1760.145926010655
 25
1548.536558823838
 35
0.0
 40
0.0
1001
ACAD
1000
DSTYLE
1002
{
1070
   288
1070
     1
1002
}
1001
ACAD_DSTYLE_DIMRADIAL_EXTENSION
1070
   387
1070
     1
1070
   388
1040
3.141592653589793
1070
   390
1040
0.0
  0
LINE
  5
6B6
330
1F
100
AcDbEntity
  8
0
  6
Continuous
 62
     7
100
AcDbLine
 10
3100.463633516829
 20
946.1545564349719
 30
0.0
 11
3100.084242899368
 21
946.0344405682738
 31
0.0
  0
LINE
  5
6B7
330
1F
100
AcDbEntity
  8
0
  6
Continuous
 62
     7
100
AcDbLine
 10
3097.920680844064
 20
945.5205168283521
 30
0.0
 11
3100.112935458894
 21
946.0481755926251
 31
0.0
  0
LINE
  5
6B8
330
1F
100
AcDbEntity
  8
0
  6
Continuous
 62
     7
100
AcDbLine
 10
3100.414408309783
 20
946.310036165172
 30
0.0
 11
3102.606662924614
 21
946.8376949293517
 31
0.0
  0
LINE
  5
6B9
330
1F
100
AcDbEntity
  8
0
  6
Continuous
 62
     7
100
AcDbLine
 10
2706.777038507561
 20
852.1276262549664
 30
0.0
 11
2708.969293147723
 21
852.6552850192393
 31
0.0
  0
LINE
  5
6BA
330
1F
100
AcDbEntity
  8
0
  6
Continuous
 62
     7
100
AcDbLine
 10
2709.270765973281
 20
852.917145591693
 30
0.0
 11
2711.463020587738
 21
853.4448043560592
 31
0.0
  0
LINE
  5
6BB
330
1F
100
AcDbEntity
  8
0
  6
Continuous
 62
     7
100
AcDbLine
 10
2709.098716570835
 20
860.8649469478036
 30
0.0
 11
2707.90643773454
 21
860.5779746356402
 31
0.0
  0
LINE
  5
6BC
330
1F
100
AcDbEntity
  8
0
  6
Continuous
 62
     7
100
AcDbLine
 10
3106.94063580523
 20
956.3759965694487
 30
0.0
 11
3100.226754168819
 21
954.2503676194677
 31
0.0
  0
LINE
  5
6BD
330
1F
100
AcDbEntity
  8
0
  6
Continuous
 62
     7
100
AcDbLine
 10
2709.319991180326
 20
852.7616658616793
 30
0.0
 11
2708.940600588571
 21
852.6415499947948
 31
0.0
  0
LINE
  5
6BE
330
1F
100
AcDbEntity
  8
0
  6
Continuous
 62
     7
100
AcDbLine
 10
2709.083111831944
 20
860.8574770204704
 30
0.0
 11
2717.715245357181
 21
863.5904285568726
 31
0.0
  0
LINE
  5
6BF
330
1F
100
AcDbEntity
  8
0
  6
Continuous
 62
     7
100
AcDbLine
 10
2717.715245357181
 20
863.5904285568726
 30
0.0
 11
2716.538571259777
 21
863.3109261720424
 31
0.0
  0
LINE
  5
6C0
330
1F
100
AcDbEntity
  8
0
  6
Continuous
 62
     7
100
AcDbLine
 10
3094.432353677999
 20
979.8998251149408
 30
0.0
 11
3092.240099063541
 21
979.3721663506678
 31
0.0
  0
LINE
  5
6C1
330
1F
100
AcDbEntity
  8
0
  6
Continuous
 62
     7
100
AcDbLine
 10
2703.288711366828
 20
886.506934541555
 30
0.0
 11
2701.096456752371
 21
885.9792757515775
 31
0.0
  0
LINE
  5
6C2
330
1F
100
AcDbEntity
  8
0
  6
Continuous
 62
     7
100
AcDbLine
 10
2703.476365507793
 20
878.5666030871661
 30
0.0
 11
2708.867572735648
 21
880.2734705728457
 31
0.0
  0
LINE
  5
6C3
330
1F
100
AcDbEntity
  8
0
  6
Continuous
 62
     7
100
AcDbLine
 10
2639.082957288276
 20
882.0127646729329
 30
0.0
 11
2708.306563821833
 21
893.176835944781
 31
0.0
  0
LINE
  5
6C4
330
1F
100
AcDbEntity
  8
0
  6
Continuous
 62
     7
100
AcDbLine
 10
2726.206887339454
 20
896.0637194486317
 30
0.0
 11
3090.973467084419
 21
954.8916294530943
 31
0.0
  0
LINE
  5
6C5
102
{ACAD_REACTORS
330
DD4
102
}
330
1F
100
AcDbEntity
  8
0
  6
Continuous
 62
     7
100
AcDbLine
 10
2636.125402117174
 20
900.3512928920777
 30
0.0
 11
3088.015911887984
 21
973.2301576723322
 31
0.0
  0
LINE
  5
6C6
330
1F
100
AcDbEntity
  8
0
  6
Continuous
 62
     7
100
AcDbLine
 10
2726.662047835092
 20
893.5742406799441
 30
0.0
 11
2726.093664507221
 21
896.7657656088453
 31
0.0
  0
LINE
  5
6C7
330
1F
100
AcDbEntity
  8
0
  6
Continuous
 62
     7
100
AcDbLine
 10
2708.374308346983
 20
890.3173504132761
 30
0.0
 11
2707.878630945112
 21
893.1006247551163
 31
0.0
  0
LINE
  5
6C8
102
{ACAD_REACTORS
330
DD4
102
}
330
1F
100
AcDbEntity
  8
0
  6
Continuous
 62
     7
100
AcDbLine
 10
2222.565253506255
 20
1154.047906007616
 30
0.0
 11
2623.375649524505
 21
903.0554585820045
 31
0.0
  0
LINE
  5
6C9
330
1F
100
AcDbEntity
  8
0
  6
Continuous
 62
     7
100
AcDbLine
 10
2212.70654243643
 20
1138.304508473257
 30
0.0
 11
2613.51693848076
 21
887.3120610219407
 31
0.0
  0
LINE
  5
6CA
330
1F
100
AcDbEntity
  8
0
  6
Continuous
 62
     7
100
AcDbLine
 10
2183.953202620174
 20
1136.431563003546
 30
0.0
 11
2186.145457235005
 21
1136.959221767726
 31
0.0
  0
LINE
  5
6CB
330
1F
100
AcDbEntity
  8
0
  6
Continuous
 62
     7
100
AcDbLine
 10
2186.446930085893
 20
1137.221082314567
 30
0.0
 11
2188.639184700722
 21
1137.74874107884
 31
0.0
  0
LINE
  5
6CC
330
1F
100
AcDbEntity
  8
0
  6
Continuous
 62
     7
100
AcDbLine
 10
2180.464875479813
 20
1170.810871264523
 30
0.0
 11
2178.272620839651
 21
1170.283212500157
 31
0.0
  0
LINE
  5
6CD
330
1F
100
AcDbEntity
  8
0
  6
Continuous
 62
     7
100
AcDbLine
 10
2186.496155292938
 20
1137.065602584554
 30
0.0
 11
2186.116764675478
 21
1136.945486743374
 31
0.0
  0
LINE
  5
6CE
330
1F
100
AcDbEntity
  8
0
  6
Continuous
 62
     7
100
AcDbLine
 10
2186.259275944929
 20
1145.161413768956
 30
0.0
 11
2192.28415958288
 21
1147.068904521594
 31
0.0
  0
LINE
  5
6CF
330
1F
100
AcDbEntity
  8
0
  6
Continuous
 62
     7
100
AcDbLine
 10
2180.652529620777
 20
1162.870539835652
 30
0.0
 11
2187.366411257188
 21
1164.996168785727
 31
0.0
  0
SPLINE
  5
6D0
330
1F
100
AcDbEntity
  8
0
  6
Continuous
 62
     7
100
AcDbSpline
210
0.0
220
0.0
230
1.0
 70
  1064
 71
     3
 72
    17
 73
    13
 74
    11
 42
0.000000001
 43
0.0000000001
 44
0.0000000001
 12
-0.9526394026901837
 22
-0.3041022335368321
 32
0.0
 13
0.9872434221165725
 23
0.1592181694642893
 33
0.0
 40
0.0
 40
0.0
 40
0.0
 40
0.0
 40
2.794919213622416
 40
7.861732960998628
 40
13.00942269102316
 40
18.25277222791006
 40
23.57019073050157
 40
28.91309272053696
 40
34.22383049231612
 40
39.45621306770052
 40
44.59273164018369
 40
49.65253376169735
 40
49.65253376169735
 40
49.65253376169735
 40
49.65253376169735
 10
2698.601771235864
 20
885.1927575780992
 30
0.0
 10
2697.714254512453
 20
884.9094438529599
 30
0.0
 10
2695.286187049789
 20
883.8844193188327
 30
0.0
 10
2691.794579563573
 20
881.1720007227052
 30
0.0
 10
2688.901945088058
 20
876.8037874869317
 30
0.0
 10
2687.470545257709
 20
871.6808021214996
 30
0.0
 10
2687.626706041954
 20
866.3030462722273
 30
0.0
 10
2689.347328171329
 20
861.1831095487623
 30
0.0
 10
2692.468862685378
 20
856.8081708385127
 30
0.0
 10
2696.702085253732
 20
853.6014360187394
 30
0.0
 10
2701.63969177492
 20
851.8840934657843
 30
0.0
 10
2705.111953053669
 20
851.8590887777534
 30
0.0
 10
2706.777038507561
 20
852.1276262549664
 30
0.0
 11
2698.601771235864
 21
885.1927575780992
 31
0.0
 11
2696.028050934549
 21
884.1030157640558
 31
0.0
 11
2692.020521178122
 21
881.0026437215487
 31
0.0
 11
2689.164679587658
 21
876.7197850539329
 31
0.0
 11
2687.740075778986
 21
871.6736758246065
 31
0.0
 11
2687.886159935992
 21
866.3582643682117
 31
0.0
 11
2689.588632320266
 21
861.2938602121525
 31
0.0
 11
2692.68084306943
 21
856.9762024717388
 31
0.0
 11
2696.860105035479
 21
853.8279336086457
 31
0.0
 11
2701.71732297803
 21
852.1572280977833
 31
0.0
 11
2706.777038507561
 21
852.1276262549664
 31
0.0
  0
SPLINE
  5
6D1
330
1F
100
AcDbEntity
  8
0
  6
Continuous
 62
     7
100
AcDbSpline
210
0.0
220
0.0
230
1.0
 70
  1064
 71
     3
 72
    11
 73
     7
 74
     5
 42
0.000000001
 43
0.0000000001
 44
0.0000000001
 12
0.9526394026711868
 22
0.3041022335963427
 32
0.0
 13
0.1543972730524219
 23
0.9880088471638174
 33
0.0
 40
0.0
 40
0.0
 40
0.0
 40
0.0
 40
2.794919223301105
 40
7.861732970383101
 40
13.00942270074331
 40
17.69657430011715
 40
17.69657430011715
 40
17.69657430011715
 40
17.69657430011715
 10
2711.463978638898
 20
853.4418031927179
 30
0.0
 10
2712.351495365365
 20
853.7251169188937
 30
0.0
 10
2714.779558852557
 20
854.7500871577108
 30
0.0
 10
2718.271196673909
 20
857.4629216560024
 30
0.0
 10
2721.059629151795
 20
861.6723075891659
 30
0.0
 10
2722.006626593127
 20
864.860621360126
 30
0.0
 10
2722.247854401569
 20
866.4042704428524
 30
0.0
 11
2711.463978638898
 21
853.4418031927179
 31
0.0
 11
2714.03769893984
 21
854.5315450324656
 31
0.0
 11
2718.045228695894
 21
857.6319170749725
 31
0.0
 11
2720.901070287104
 21
861.9147757424952
 31
0.0
 11
2722.247854401569
 21
866.4042704428524
 31
0.0
  0
SPLINE
  5
6D2
330
1F
100
AcDbEntity
  8
0
  6
Continuous
 62
     7
100
AcDbSpline
210
0.0
220
0.0
230
1.0
 70
  1064
 71
     3
 72
     9
 73
     5
 74
     3
 42
0.000000001
 43
0.0000000001
 44
0.0000000001
 12
-0.9787560221299884
 22
0.2050284105783429
 32
0.0
 13
-0.9872434223144066
 23
-0.1592181682376055
 33
0.0
 40
0.0
 40
0.0
 40
0.0
 40
0.0
 40
0.5798345574916425
 40
5.639636679156041
 40
5.639636679156041
 40
5.639636679156041
 40
5.639636679156041
 10
2708.918052563841
 20
886.3690057927724
 30
0.0
 10
2708.728880375514
 20
886.4086333120127
 30
0.0
 10
2706.882959989906
 20
886.7599949746198
 30
0.0
 10
2704.953796821103
 20
886.775472016707
 30
0.0
 10
2703.288711366828
 20
886.506934541555
 30
0.0
 11
2708.918052563841
 21
886.3690057927724
 31
0.0
 11
2708.34842689636
 21
886.4773326731269
 31
0.0
 11
2703.288711366828
 21
886.506934541555
 31
0.0
  0
SPLINE
  5
6D3
330
1F
100
AcDbEntity
  8
0
  6
Continuous
 62
     7
100
AcDbSpline
210
0.0
220
0.0
230
1.0
 70
  1064
 71
     3
 72
    13
 73
     9
 74
     7
 42
0.000000001
 43
0.0000000001
 44
0.0000000001
 12
0.9533599423370247
 22
0.301835750611396
 32
0.0
 13
0.8475361533692026
 23
-0.5307376647008725
 33
0.0
 40
0.0
 40
0.0
 40
0.0
 40
0.0
 40
4.302663289137247
 40
9.051331485944043
 40
14.95997560516375
 40
22.29435166183069
 40
29.97242686651324
 40
37.70198390117729
 40
37.70198390117729
 40
37.70198390117729
 40
37.70198390117729
 10
2187.366411257188
 20
1164.996168785727
 30
0.0
 10
2188.73374019893
 20
1165.429067986895
 30
0.0
 10
2191.772311091879
 20
1165.849213648016
 30
0.0
 10
2196.756467179677
 20
1165.318734280056
 30
0.0
 10
2202.567921691134
 20
1163.773062361304
 30
0.0
 10
2209.086171173203
 20
1161.265956073001
 30
0.0
 10
2215.922025976119
 20
1157.974004420486
 30
0.0
 10
2220.381560494119
 20
1155.415361690866
 30
0.0
 10
2222.565253506255
 20
1154.047906007616
 30
0.0
 11
2187.366411257188
 21
1164.996168785727
 31
0.0
 11
2191.617393798034
 21
1165.66104382444
 31
0.0
 11
2196.348508540937
 21
1165.253118668495
 31
0.0
 11
2202.077229213741
 21
1163.806109760234
 31
0.0
 11
2208.939740454058
 21
1161.217864868974
 31
0.0
 11
2215.863904468741
 21
1157.899914967826
 31
0.0
 11
2222.565253506255
 21
1154.047906007616
 31
0.0
  0
SPLINE
  5
6D4
330
1F
100
AcDbEntity
  8
0
  6
Continuous
 62
     7
100
AcDbSpline
210
0.0
220
0.0
230
1.0
 70
  1064
 71
     3
 72
     9
 73
     5
 74
     3
 42
0.000000001
 43
0.0000000001
 44
0.0000000001
 12
-0.9526394019051666
 22
-0.3041022359959991
 32
0.0
 13
-0.8136684081250987
 23
-0.5813292712561169
 33
0.0
 40
0.0
 40
0.0
 40
0.0
 40
0.0
 40
2.79491922330212
 40
4.739918760547464
 40
4.739918760547464
 40
4.739918760547464
 40
4.739918760547464
 10
3089.745413572367
 20
978.5856481770963
 30
0.0
 10
3088.857896846613
 20
978.3023344486847
 30
0.0
 10
3087.392342381983
 20
977.6830040419721
 30
0.0
 10
3086.047989338045
 20
976.8449611530657
 30
0.0
 10
3085.520461112287
 20
976.4680660985389
 30
0.0
 11
3089.745413572367
 21
978.5856481770963
 31
0.0
 11
3087.171693271424
 21
977.4959063373483
 31
0.0
 11
3085.520461112287
 21
976.4680660985389
 31
0.0
  0
SPLINE
  5
6D5
330
1F
100
AcDbEntity
  8
0
  6
Continuous
 62
     7
100
AcDbSpline
210
0.0
220
0.0
230
1.0
 70
  1064
 71
     3
 72
     9
 73
     5
 74
     3
 42
0.000000001
 43
0.0000000001
 44
0.0000000001
 12
-0.8136684083769784
 22
-0.5813292709035687
 32
0.0
 13
-0.5515882447985734
 23
-0.8341165435357515
 33
0.0
 40
0.0
 40
0.0
 40
0.0
 40
0.0
 40
3.138076870243177
 40
5.770117170229614
 40
5.770117170229614
 40
5.770117170229614
 40
5.770117170229614
 10
3085.520461112287
 20
976.4680660985389
 30
0.0
 10
3084.669343108161
 20
975.8599807855329
 30
0.0
 10
3083.21385138493
 20
974.5788819813663
 30
0.0
 10
3082.021934043815
 20
973.05774765763
 30
0.0
 10
3081.537999880712
 20
972.3259382051393
 30
0.0
 11
3085.520461112287
 21
976.4680660985389
 31
0.0
 11
3083.164163514997
 21
974.3955342950277
 31
0.0
 11
3081.537999880712
 21
972.3259382051393
 31
0.0
  0
SPLINE
  5
6D6
330
1F
100
AcDbEntity
  8
0
  6
Continuous
 62
     7
100
AcDbSpline
210
0.0
220
0.0
230
1.0
 70
  1064
 71
     3
 72
    11
 73
     7
 74
     5
 42
0.000000001
 43
0.0000000001
 44
0.0000000001
 12
0.5322141787520081
 22
-0.8466097494922474
 32
0.0
 13
0.9872434221420412
 23
0.1592181693063693
 33
0.0
 40
0.0
 40
0.0
 40
0.0
 40
0.0
 40
3.729230694742176
 40
8.961613275360077
 40
14.09813182350646
 40
19.15793397050167
 40
19.15793397050167
 40
19.15793397050167
 40
19.15793397050167
 10
3081.519877712454
 20
953.3009772636908
 30
0.0
 10
3082.181460862981
 20
952.2485762422659
 30
0.0
 10
3084.038372727163
 20
949.8787730359028
 30
0.0
 10
3087.846061412074
 20
946.9939795995745
 30
0.0
 10
3092.783240992972
 20
945.2770808588098
 30
0.0
 10
3096.255595381744
 20
945.2519793500531
 30
0.0
 10
3097.920680844064
 20
945.5205168283521
 30
0.0
 11
3081.519877712454
 21
953.3009772636908
 31
0.0
 11
3083.8244853806
 21
950.3690930452178
 31
0.0
 11
3088.003747372355
 21
947.2208242075495
 31
0.0
 11
3092.860965289201
 21
945.5501186967806
 31
0.0
 11
3097.920680844064
 21
945.5205168283521
 31
0.0
  0
SPLINE
  5
6D7
330
1F
100
AcDbEntity
  8
0
  6
Continuous
 62
     7
100
AcDbSpline
210
0.0
220
0.0
230
1.0
 70
  1064
 71
     3
 72
    12
 73
     8
 74
     6
 42
0.000000001
 43
0.0000000001
 44
0.0000000001
 12
0.9526394027627835
 22
0.3041022333094041
 32
0.0
 13
0.0661080533953734
 23
0.9978124699943744
 33
0.0
 40
0.0
 40
0.0
 40
0.0
 40
0.0
 40
2.794919213658586
 40
7.861732960626776
 40
13.00942270519554
 40
18.25277224217216
 40
19.24764323500411
 40
19.24764323500411
 40
19.24764323500411
 40
19.24764323500411
 10
3102.607620949696
 20
946.8346937918083
 30
0.0
 10
3103.495137673186
 20
947.1180075167394
 30
0.0
 10
3105.923194664786
 20
948.1429337193254
 30
0.0
 10
3109.414882304017
 20
950.8561050063866
 30
0.0
 10
3112.307186535135
 20
955.2212168848866
 30
0.0
 10
3113.345614500164
 20
958.94304893141
 30
0.0
 10
3113.541194755482
 20
961.0133164149504
 30
0.0
 10
3113.563117750386
 20
961.3442146425116
 30
0.0
 11
3102.607620949696
 21
946.8346937918083
 31
0.0
 11
3105.181341251011
 21
947.9244356059446
 31
0.0
 11
3109.188871007065
 21
951.0248076482655
 31
0.0
 11
3112.044712623607
 21
955.3076663159743
 31
0.0
 11
3113.469316432278
 21
960.3537755453938
 31
0.0
 11
3113.563117750386
 21
961.3442146425116
 31
0.0
  0
SPLINE
  5
6D8
330
1F
100
AcDbEntity
  8
0
  6
Continuous
 62
     7
100
AcDbSpline
210
0.0
220
0.0
230
1.0
 70
  1064
 71
     3
 72
    11
 73
     7
 74
     5
 42
0.000000001
 43
0.0000000001
 44
0.0000000001
 12
-0.6667770278099271
 22
0.7452572677840585
 32
0.0
 13
-0.9872434220821187
 23
-0.159218169677922
 33
0.0
 40
0.0
 40
0.0
 40
0.0
 40
0.0
 40
0.7400794529174841
 40
5.97246204883329
 40
11.10898059733143
 40
16.16878274417735
 40
16.16878274417735
 40
16.16878274417735
 40
16.16878274417735
 10
3109.033596427764
 20
974.5102823228556
 30
0.0
 10
3108.869107101777
 20
974.6941321865303
 30
0.0
 10
3107.510910693888
 20
976.1493661685912
 30
0.0
 10
3104.505490867563
 20
978.427959675478
 30
0.0
 10
3099.570206944138
 20
980.1428156144346
 30
0.0
 10
3096.097439140169
 20
980.1683625938585
 30
0.0
 10
3094.432353677999
 20
979.8998251149408
 30
0.0
 11
3109.033596427764
 21
974.5102823228556
 31
0.0
 11
3108.528549141835
 21
975.0512488981687
 31
0.0
 11
3104.349287150081
 21
978.1995177612618
 31
0.0
 11
3099.492069232862
 21
979.8702232720309
 31
0.0
 11
3094.432353677999
 21
979.8998251149408
 31
0.0
  0
SPLINE
  5
6D9
330
1F
100
AcDbEntity
  8
0
  6
Continuous
 62
     7
100
AcDbSpline
210
0.0
220
0.0
230
1.0
 70
  1064
 71
     3
 72
     8
 73
     4
 74
     2
 42
0.000000001
 43
0.0000000001
 44
0.0000000001
 12
0.0643168680113913
 22
-0.9979295268149977
 32
0.0
 13
0.9632629531483312
 23
-0.268560017671946
 33
0.0
 40
0.0
 40
0.0
 40
0.0
 40
0.0
 40
0.6501614385517505
 40
0.6501614385517505
 40
0.6501614385517505
 40
0.6501614385517505
 10
2192.763349776367
 20
1147.141080685144
 30
0.0
 10
2192.777288558844
 20
1146.924808919568
 30
0.0
 10
2193.13945057798
 20
1146.915295232888
 30
0.0
 10
2193.348209387088
 20
1146.857092777079
 30
0.0
 11
2192.763349776367
 21
1147.141080685144
 31
0.0
 11
2193.348209387088
 21
1146.857092777079
 31
0.0
  0
SPLINE
  5
6DA
330
1F
100
AcDbEntity
  8
0
  6
Continuous
 62
     7
100
AcDbSpline
210
0.0
220
0.0
230
1.0
 70
  1064
 71
     3
 72
    12
 73
     8
 74
     6
 42
0.000000001
 43
0.0000000001
 44
0.0000000001
 12
0.9632629519251821
 22
-0.2685600220591001
 32
0.0
 13
0.8475361537988662
 23
-0.5307376640147416
 33
0.0
 40
0.0
 40
0.0
 40
0.0
 40
0.0
 40
2.303839271123318
 40
5.74514170619358
 40
10.35921502506526
 40
15.78581901690899
 40
21.26375645378894
 40
21.26375645378894
 40
21.26375645378894
 40
21.26375645378894
 10
2193.348209387088
 20
1146.857092777079
 30
0.0
 10
2194.087943726109
 20
1146.650853068588
 30
0.0
 10
2195.993037836984
 20
1146.374833092636
 30
0.0
 10
2199.233054121581
 20
1145.132271606977
 30
0.0
 10
2203.386591510462
 20
1143.428441636172
 30
0.0
 10
2208.011461152196
 20
1141.095223270003
 30
0.0
 10
2211.158959094429
 20
1139.273624379546
 30
0.0
 10
2212.70654243643
 20
1138.304508473257
 30
0.0
 11
2193.348209387088
 21
1146.857092777079
 31
0.0
 11
2195.598453876028
 21
1146.363053176271
 31
0.0
 11
2198.85936161692
 21
1145.26348819183
 31
0.0
 11
2203.114936094384
 21
1143.480300467925
 31
0.0
 11
2207.970832405265
 21
1141.057842645327
 31
0.0
 11
2212.70654243643
 21
1138.304508473257
 31
0.0
  0
SPLINE
  5
6DB
330
1F
100
AcDbEntity
  8
0
  6
Continuous
 62
     7
100
AcDbSpline
210
0.0
220
0.0
230
1.0
 70
  1064
 71
     3
 72
    17
 73
    13
 74
    11
 42
0.000000001
 43
0.0000000001
 44
0.0000000001
 12
-0.9526394026901837
 22
-0.3041022335368321
 32
0.0
 13
0.9872434221165725
 23
0.1592181694642893
 33
0.0
 40
0.0
 40
0.0
 40
0.0
 40
0.0
 40
2.794919213659424
 40
7.861732976299154
 40
13.00942272086691
 40
18.25277222621234
 40
23.57019072871068
 40
28.91309274302275
 40
34.22383049419615
 40
39.45621306952519
 40
44.59273164200921
 40
49.65253376314999
 40
49.65253376314999
 40
49.65253376314999
 40
49.65253376314999
 10
2175.777935348477
 20
1169.496694326585
 30
0.0
 10
2174.890418625054
 20
1169.213380601442
 30
0.0
 10
2172.46235115393
 20
1168.188356069112
 30
0.0
 10
2168.970743689741
 20
1165.475937434744
 30
0.0
 10
2166.078109167591
 20
1161.10772423189
 30
0.0
 10
2164.646709376864
 20
1155.984738855398
 30
0.0
 10
2164.802870157699
 20
1150.60698301546
 30
0.0
 10
2166.52349227025
 20
1145.487046280448
 30
0.0
 10
2169.645026808272
 20
1141.112107585776
 30
0.0
 10
2173.878249365604
 20
1137.905372766548
 30
0.0
 10
2178.815855888101
 20
1136.18803021461
 30
0.0
 10
2182.288117166405
 20
1136.163025526353
 30
0.0
 10
2183.953202620174
 20
1136.431563003546
 30
0.0
 11
2175.777935348477
 21
1169.496694326585
 31
0.0
 11
2173.204215047161
 21
1168.406952512449
 31
0.0
 11
2169.196685291106
 21
1165.306580444516
 31
0.0
 11
2166.340843674567
 21
1161.023721776808
 31
0.0
 11
2164.916239891598
 21
1155.977612573
 31
0.0
 11
2165.062324048604
 21
1150.662201116698
 31
0.0
 11
2166.764796432879
 21
1145.597796935027
 31
0.0
 11
2169.857007182415
 21
1141.280139220224
 31
0.0
 11
2174.036269148464
 21
1138.131870357225
 31
0.0
 11
2178.893487091016
 21
1136.461164846362
 31
0.0
 11
2183.953202620174
 21
1136.431563003546
 31
0.0
  0
SPLINE
  5
6DC
330
1F
100
AcDbEntity
  8
0
  6
Continuous
 62
     7
100
AcDbSpline
210
0.0
220
0.0
230
1.0
 70
  1064
 71
     3
 72
    10
 73
     6
 74
     4
 42
0.000000001
 43
0.0000000001
 44
0.0000000001
 12
0.9526394028148763
 22
0.3041022331462167
 32
0.0
 13
0.4538768972282064
 23
0.8910643984373386
 33
0.0
 40
0.0
 40
0.0
 40
0.0
 40
0.0
 40
2.79491921331622
 40
7.861732976249168
 40
12.34266554175749
 40
12.34266554175749
 40
12.34266554175749
 40
12.34266554175749
 10
2188.64014275151
 20
1137.745739941297
 30
0.0
 10
2189.52765947494
 20
1138.029053666041
 30
0.0
 10
2191.955724440068
 20
1139.054220681098
 30
0.0
 10
2195.268398706155
 20
1141.626588062601
 30
0.0
 10
2197.105671937713
 20
1144.281037910122
 30
0.0
 10
2197.783602527554
 20
1145.611971070429
 30
0.0
 11
2188.64014275151
 21
1137.745739941297
 31
0.0
 11
2191.213863052453
 21
1138.835481755434
 31
0.0
 11
2195.221392808878
 21
1141.935853823365
 31
0.0
 11
2197.783602527554
 21
1145.611971070429
 31
0.0
  0
SPLINE
  5
6DD
330
1F
100
AcDbEntity
  8
0
  6
Continuous
 62
     7
100
AcDbSpline
210
0.0
220
0.0
230
1.0
 70
  1064
 71
     3
 72
    11
 73
     7
 74
     5
 42
0.000000001
 43
0.0000000001
 44
0.0000000001
 12
-0.6674837110750134
 22
0.7446243989082873
 32
0.0
 13
-0.9872434221669749
 23
-0.1592181691517654
 33
0.0
 40
0.0
 40
0.0
 40
0.0
 40
0.0
 40
0.7234710433423601
 40
5.955853619081426
 40
11.09237219150309
 40
16.15217431264676
 40
16.15217431264676
 40
16.15217431264676
 40
16.15217431264676
 10
2195.055035806845
 20
1165.433703485968
 30
0.0
 10
2194.89406742789
 20
1165.613274882893
 30
0.0
 10
2193.538959259794
 20
1167.063801811157
 30
0.0
 10
2190.538004337902
 20
1169.339012948784
 30
0.0
 10
2185.602731055637
 20
1171.05385977375
 30
0.0
 10
2182.129960933668
 20
1171.079408741189
 30
0.0
 10
2180.464875479813
 20
1170.810871264523
 30
0.0
 11
2195.055035806845
 21
1165.433703485968
 31
0.0
 11
2194.561070917945
 21
1165.962295047657
 31
0.0
 11
2190.381808951523
 21
1169.110563910844
 31
0.0
 11
2185.524591008972
 21
1170.78126942152
 31
0.0
 11
2180.464875479813
 21
1170.810871264523
 31
0.0
  0
SPLINE
  5
6DE
330
1F
100
AcDbEntity
  8
0
  6
Continuous
 62
     7
100
AcDbSpline
210
0.0
220
0.0
230
1.0
 70
  1064
 71
     3
 72
    10
 73
     6
 74
     4
 42
0.000000001
 43
0.0000000001
 44
0.0000000001
 12
0.8475361529628971
 22
-0.5307376653497024
 32
0.0
 13
0.9872434222037686
 23
0.159218168923624
 33
0.0
 40
0.0
 40
0.0
 40
0.0
 40
0.0
 40
4.462092686880405
 40
8.884677230300743
 40
13.28777997935096
 40
13.28777997935096
 40
13.28777997935096
 40
13.28777997935096
 10
2623.375649524505
 20
903.0554585820045
 30
0.0
 10
2624.636244481173
 20
902.2660583636016
 30
0.0
 10
2627.33256250054
 20
900.9682509482834
 30
0.0
 10
2631.699097503356
 20
900.0199039279031
 30
0.0
 10
2634.676424041745
 20
900.1176082396488
 30
0.0
 10
2636.125402117174
 20
900.3512928920777
 30
0.0
 11
2623.375649524505
 21
903.0554585820045
 31
0.0
 11
2627.400875233512
 21
901.1298861637692
 31
0.0
 11
2631.724857763599
 21
900.2012155422921
 31
0.0
 11
2636.125402117174
 21
900.3512928920777
 31
0.0
  0
SPLINE
  5
6DF
330
1F
100
AcDbEntity
  8
0
  6
Continuous
 62
     7
100
AcDbSpline
210
0.0
220
0.0
230
1.0
 70
  1064
 71
     3
 72
    10
 73
     6
 74
     4
 42
0.000000001
 43
0.0000000001
 44
0.0000000001
 12
0.8475361532774071
 22
-0.5307376648474609
 32
0.0
 13
0.9872434221258927
 23
0.1592181694064987
 33
0.0
 40
0.0
 40
0.0
 40
0.0
 40
0.0
 40
8.978582214168731
 40
17.84040242550062
 40
26.61845852696021
 40
26.61845852696021
 40
26.61845852696021
 40
26.61845852696021
 10
2613.51693848076
 20
887.3120610219407
 30
0.0
 10
2616.053496157988
 20
885.7236371026111
 30
0.0
 10
2621.485210647635
 20
883.1442148508982
 30
0.0
 10
2630.248941067828
 20
881.323519673289
 30
0.0
 10
2636.194264573203
 20
881.5468893317923
 30
0.0
 10
2639.082957288276
 20
882.0127646729329
 30
0.0
 11
2613.51693848076
 21
887.3120610219407
 31
0.0
 11
2621.63270419168
 21
883.4715811688434
 31
0.0
 11
2630.311261102955
 21
881.6786764319035
 31
0.0
 11
2639.082957288276
 21
882.0127646729329
 31
0.0
  0
SPLINE
  5
6E0
330
1F
100
AcDbEntity
  8
0
  6
Continuous
 62
     7
100
AcDbSpline
210
0.0
220
0.0
230
1.0
 70
  1064
 71
     3
 72
    11
 73
     7
 74
     5
 42
0.000000001
 43
0.0000000001
 44
0.0000000001
 12
-0.8406997208193965
 22
0.5415015968713192
 32
0.0
 13
-0.1753326909719511
 23
0.9845092419457191
 33
0.0
 40
0.0
 40
0.0
 40
0.0
 40
0.0
 40
1.286735267668747
 40
3.79757418999522
 40
7.30127009350104
 40
11.32622126563218
 40
11.32622126563218
 40
11.32622126563218
 40
11.32622126563218
 10
2708.826957809205
 20
879.0338983673581
 30
0.0
 10
2708.466371815773
 20
879.2661547680893
 30
0.0
 10
2709.2223136996
 20
880.9091277780831
 30
0.0
 10
2708.953991972898
 20
883.0659886424438
 30
0.0
 10
2708.9892062824
 20
886.5389065419451
 30
0.0
 10
2708.60954352033
 20
888.9964832041615
 30
0.0
 10
2708.374308346983
 20
890.3173504132761
 30
0.0
 11
2708.826957809205
 21
879.0338983673581
 31
0.0
 11
2708.875835273441
 21
880.3197049790041
 31
0.0
 11
2709.0326766521
 21
882.8256405080651
 31
0.0
 11
2708.899431156765
 21
886.3268018328566
 31
0.0
 11
2708.374308346983
 21
890.3173504132761
 31
0.0
  0
SPLINE
  5
6E1
330
1F
100
AcDbEntity
  8
0
  6
Continuous
 62
     7
100
AcDbSpline
210
0.0
220
0.0
230
1.0
 70
  1064
 71
     3
 72
    13
 73
     9
 74
     7
 42
0.000000001
 43
0.0000000001
 44
0.0000000001
 12
0.9533599421704447
 22
0.3018357511375453
 32
0.0
 13
-0.1753326900713339
 23
0.9845092421061114
 33
0.0
 40
0.0
 40
0.0
 40
0.0
 40
0.0
 40
4.253459805523081
 40
8.881284652371064
 40
13.98040606694334
 40
20.1114984214924
 40
27.00032469726334
 40
33.89708297201347
 40
33.89708297201347
 40
33.89708297201347
 40
33.89708297201347
 10
2717.715245357181
 20
863.5904285568726
 30
0.0
 10
2719.066938088587
 20
864.0183773019838
 30
0.0
 10
2721.742228440557
 20
865.4649129676371
 30
0.0
 10
2724.813305346559
 20
869.0968901078731
 30
0.0
 10
2726.787055439485
 20
874.0734703635723
 30
0.0
 10
2727.672476987576
 20
880.0832296439359
 30
0.0
 10
2727.628861275948
 20
886.7397313219072
 30
0.0
 10
2727.065123562121
 20
891.3109332592563
 30
0.0
 10
2726.662047835092
 20
893.5742406799441
 30
0.0
 11
2717.715245357181
 21
863.5904285568726
 31
0.0
 11
2721.463319237928
 21
865.601364284752
 31
0.0
 11
2724.500150446246
 21
869.0934151184723
 31
0.0
 11
2726.483585140134
 21
873.7909704417901
 31
0.0
 11
2727.488040812711
 21
879.8392232689989
 31
0.0
 11
2727.495644965421
 21
886.7280453478898
 31
0.0
 11
2726.662047835092
 21
893.5742406799441
 31
0.0
  0
SPLINE
  5
6E2
330
1F
100
AcDbEntity
  8
0
  6
Continuous
 62
     7
100
AcDbSpline
210
0.0
220
0.0
230
1.0
 70
  1064
 71
     3
 72
    20
 73
    16
 74
    14
 42
0.000000001
 43
0.0000000001
 44
0.0000000001
 12
0.9872434220496769
 22
0.1592181698790799
 32
0.0
 13
0.1754450593030516
 23
-0.9844892234890886
 33
0.0
 40
0.0
 40
0.0
 40
0.0
 40
0.0
 40
4.312270674589848
 40
7.781815644628041
 40
10.52232512812185
 40
12.66254135256933
 40
14.33543546845664
 40
15.68086287685185
 40
18.09961965656973
 40
19.55506943104518
 40
21.28883554714537
 40
23.53217142646837
 40
25.70795758634502
 40
28.61448041900865
 40
30.49604431018217
 40
30.49604431018217
 40
30.49604431018217
 40
30.49604431018217
 10
3088.015911887984
 20
973.2301576723322
 30
0.0
 10
3089.434998840513
 20
973.4590216206095
 30
0.0
 10
3091.997854475378
 20
973.859799728719
 30
0.0
 10
3095.469095984111
 20
974.362857726453
 30
0.0
 10
3098.228714424303
 20
974.727089170619
 30
0.0
 10
3100.398592770511
 20
974.979767013283
 30
0.0
 10
3102.1105705412
 20
975.1449757084939
 30
0.0
 10
3103.917969122629
 20
975.2696727183204
 30
0.0
 10
3105.665326009325
 20
975.2810483801923
 30
0.0
 10
3107.516613358379
 20
974.9808930781808
 30
0.0
 10
3109.244161811726
 20
974.4078786581413
 30
0.0
 10
3111.03262576143
 20
973.3626774317977
 30
0.0
 10
3112.810494776582
 20
971.6595000669373
 30
0.0
 10
3114.013994390117
 20
969.6261922913027
 30
0.0
 10
3114.452483904805
 20
968.0799966025633
 30
0.0
 10
3114.562520934294
 20
967.4625368111744
 30
0.0
 11
3088.015911887984
 21
973.2301576723322
 31
0.0
 11
3092.27672074626
 21
973.8943761937301
 31
0.0
 11
3095.71074240471
 21
974.3895908425541
 31
0.0
 11
3098.428045117508
 21
974.7454815506914
 31
0.0
 11
3100.554254132907
 21
974.9899415887869
 31
0.0
 11
3102.219756119724
 21
975.1470334564313
 31
0.0
 11
3103.562299801807
 21
975.2350753382758
 31
0.0
 11
3105.980788021933
 21
975.1990324673222
 31
0.0
 11
3107.416687667767
 21
974.9612799634203
 31
0.0
 11
3109.06146344694
 21
974.4129574473925
 31
0.0
 11
3110.99762076291
 21
973.2798860836753
 31
0.0
 11
3112.568068652998
 21
971.7739847462601
 31
0.0
 11
3114.047790152978
 21
969.2723254450577
 31
0.0
 11
3114.562520934294
 21
967.4625368111744
 31
0.0
  0
SPLINE
  5
6E3
330
1F
100
AcDbEntity
  8
0
  6
Continuous
 62
     7
100
AcDbSpline
210
0.0
220
0.0
230
1.0
 70
  1064
 71
     3
 72
    14
 73
    10
 74
     8
 42
0.000000001
 43
0.0000000001
 44
0.0000000001
 12
0.1754450595630413
 22
-0.9844892234427561
 32
0.0
 13
-0.9533599422534663
 23
-0.3018357508753188
 33
0.0
 40
0.0
 40
0.0
 40
0.0
 40
0.0
 40
1.049490152198738
 40
4.144979743893138
 40
7.283433711376637
 40
9.86851786460644
 40
11.92315948968941
 40
13.42325026093575
 40
14.78412497215465
 40
14.78412497215465
 40
14.78412497215465
 40
14.78412497215465
 10
3114.562520934294
 20
967.4625368111744
 30
0.0
 10
3114.623896888382
 20
967.1181328961914
 30
0.0
 10
3114.790316300004
 20
965.7443620128766
 30
0.0
 10
3114.538001085661
 20
963.2795102756182
 30
0.0
 10
3113.267388989601
 20
960.5666370425574
 30
0.0
 10
3111.491739557506
 20
958.6331197833708
 30
0.0
 10
3109.775179991525
 20
957.4921230156519
 30
0.0
 10
3108.276266175598
 20
956.8212960080824
 30
0.0
 10
3107.373103617264
 20
956.5129167828848
 30
0.0
 10
3106.94063580523
 20
956.3759965694487
 30
0.0
 11
3114.562520934294
 21
967.4625368111744
 31
0.0
 11
3114.688295990254
 21
966.4206106070407
 31
0.0
 11
3114.371281112383
 21
963.3413968470856
 31
0.0
 11
3113.042741186943
 21
960.4980053910033
 31
0.0
 11
3111.29676992337
 21
958.5916359551232
 31
0.0
 11
3109.590032825272
 21
957.4476950976043
 31
0.0
 11
3108.225355820756
 21
956.8248556356854
 31
0.0
 11
3106.94063580523
 21
956.3759965694487
 31
0.0
  0
SPLINE
  5
6E4
330
1F
100
AcDbEntity
  8
0
  6
Continuous
 62
     7
100
AcDbSpline
210
0.0
220
0.0
230
1.0
 70
  1064
 71
     3
 72
    13
 73
     9
 74
     7
 42
0.000000001
 43
0.0000000001
 44
0.0000000001
 12
0.9872434222055009
 22
0.1592181689128818
 32
0.0
 13
0.9926121987088784
 23
0.121330222839678
 33
0.0
 40
0.0
 40
0.0
 40
0.0
 40
0.0
 40
3.823810546662066
 40
6.890455932878184
 40
9.284914573838262
 40
11.09594559281272
 40
12.40225428488977
 40
13.61706773156025
 40
13.61706773156025
 40
13.61706773156025
 40
13.61706773156025
 10
3090.973467084419
 20
954.8916294530943
 30
0.0
 10
3092.231811021069
 20
955.0945694909307
 30
0.0
 10
3094.50092481064
 20
955.4507969990179
 30
0.0
 10
3097.563535094
 20
955.8967161274336
 30
0.0
 10
3099.965527356144
 20
956.2253630315536
 30
0.0
 10
3101.790506562362
 20
956.4342028008878
 30
0.0
 10
3103.224156899916
 20
956.6163580924797
 30
0.0
 10
3104.067464835486
 20
956.6165913026182
 30
0.0
 10
3104.469411050926
 20
956.665722498016
 30
0.0
 11
3090.973467084419
 21
954.8916294530943
 31
0.0
 11
3094.751404938872
 21
955.4821484321708
 31
0.0
 11
3097.78603437471
 21
955.924119146073
 31
0.0
 11
3100.159329139467
 21
956.2417732706274
 31
0.0
 11
3101.957441647376
 21
956.4577009450625
 31
0.0
 11
3103.256848341624
 21
956.5918077753833
 31
0.0
 11
3104.469411050926
 21
956.665722498016
 31
0.0
  0
SPLINE
  5
6E5
330
1F
100
AcDbEntity
  8
0
  6
Continuous
 62
     7
100
AcDbSpline
210
0.0
220
0.0
230
1.0
 70
  1064
 71
     3
 72
     8
 73
     4
 74
     2
 42
0.000000001
 43
0.0000000001
 44
0.0000000001
 12
0.9569864843396224
 22
-0.2901325021284062
 32
0.0
 13
0.9997119039141219
 23
-0.0240022743172763
 33
0.0
 40
0.0
 40
0.0
 40
0.0
 40
0.0
 40
2.302844267739329
 40
2.302844267739329
 40
2.302844267739329
 40
2.302844267739329
 10
3101.964391483392
 20
956.3609636320709
 30
0.0
 10
3102.69898842998
 20
956.1382536422671
 30
0.0
 10
3103.47026915742
 20
956.011516694232
 30
0.0
 10
3104.237662766526
 20
955.9930921942907
 30
0.0
 11
3101.964391483392
 21
956.3609636320709
 31
0.0
 11
3104.237662766526
 21
955.9930921942907
 31
0.0
  0
SPLINE
  5
6E6
330
1F
100
AcDbEntity
  8
0
  6
Continuous
 62
     7
100
AcDbSpline
210
0.0
220
0.0
230
1.0
 70
  1064
 71
     3
 72
     8
 73
     4
 74
     2
 42
0.000000001
 43
0.0000000001
 44
0.0000000001
 12
0.9997119039768158
 22
-0.024002271706033
 32
0.0
 13
0.9535080870251494
 23
0.3013674301872051
 33
0.0
 40
0.0
 40
0.0
 40
0.0
 40
0.0
 40
2.729943992241753
 40
2.729943992241753
 40
2.729943992241753
 40
2.729943992241753
 10
3104.237662766526
 20
955.9930921942907
 30
0.0
 10
3105.147381935271
 20
955.9712505751427
 30
0.0
 10
3106.07293282112
 20
956.1018477443509
 30
0.0
 10
3106.94060737903
 20
956.3760864795165
 30
0.0
 11
3104.237662766526
 21
955.9930921942907
 31
0.0
 11
3106.94060737903
 21
956.3760864795165
 31
0.0
  0
SPLINE
  5
6E7
330
1F
100
AcDbEntity
  8
0
  6
Continuous
 62
     7
100
AcDbSpline
210
0.0
220
0.0
230
1.0
 70
  1064
 71
     3
 72
    10
 73
     6
 74
     4
 42
0.000000001
 43
0.0000000001
 44
0.0000000001
 12
0.4794247749010051
 22
0.8775829791028998
 32
0.0
 13
0.9533497001144812
 23
0.3018680991619168
 33
0.0
 40
0.0
 40
0.0
 40
0.0
 40
0.0
 40
2.788441585189211
 40
5.537303809220743
 40
6.461345263233667
 40
6.461345263233667
 40
6.461345263233667
 40
6.461345263233667
 10
2175.786074202533
 20
1158.818918699769
 30
0.0
 10
2176.231690195635
 20
1159.634614990898
 30
0.0
 10
2177.379109155826
 20
1161.126786389743
 30
0.0
 10
2179.209023810693
 20
1162.341685738728
 30
0.0
 10
2180.355852668235
 20
1162.776164509582
 30
0.0
 10
2180.649497549261
 20
1162.869144055338
 30
0.0
 11
2175.786074202533
 21
1158.818918699769
 31
0.0
 11
2177.494019482681
 21
1161.023080534579
 31
0.0
 11
2179.785555449525
 21
1162.541338233182
 31
0.0
 11
2180.649497549261
 21
1162.869144055338
 31
0.0
  0
SPLINE
  5
6E8
330
1F
100
AcDbEntity
  8
0
  6
Continuous
 62
     7
100
AcDbSpline
210
0.0
220
0.0
230
1.0
 70
  1064
 71
     3
 72
    10
 73
     6
 74
     4
 42
0.000000001
 43
0.0000000001
 44
0.0000000001
 12
0.4794247739488255
 22
0.8775829796230768
 32
0.0
 13
0.9535521707932824
 23
0.301227916328183
 33
0.0
 40
0.0
 40
0.0
 40
0.0
 40
0.0
 40
3.092273068516465
 40
6.139019576569374
 40
6.455888610992414
 40
6.455888610992414
 40
6.455888610992414
 40
6.455888610992414
 10
2182.499955838572
 20
1160.94454764975
 30
0.0
 10
2182.994126610859
 20
1161.849123054176
 30
0.0
 10
2184.299583251039
 20
1163.489104153342
 30
0.0
 10
2186.203421490738
 20
1164.606006437512
 30
0.0
 10
2187.265739236993
 20
1164.964209619483
 30
0.0
 10
2187.36645628887
 20
1164.996026219146
 30
0.0
 11
2182.499955838572
 21
1160.94454764975
 31
0.0
 11
2184.437377933809
 21
1163.354640667697
 31
0.0
 11
2187.066212856421
 21
1164.894735221284
 31
0.0
 11
2187.36645628887
 21
1164.996026219146
 31
0.0
  0
SPLINE
  5
6E9
330
1F
100
AcDbEntity
  8
0
  6
Continuous
 62
     7
100
AcDbSpline
210
0.0
220
0.0
230
1.0
 70
  1064
 71
     3
 72
    15
 73
    11
 74
     9
 42
0.000000001
 43
0.0000000001
 44
0.0000000001
 12
-0.9533496997627974
 22
-0.3018681002725931
 32
0.0
 13
0.4794247734136185
 23
0.877582979915461
 33
0.0
 40
0.0
 40
0.0
 40
0.0
 40
0.0
 40
1.821977328826478
 40
4.581194125294153
 40
7.386134227008139
 40
10.24277115691469
 40
13.13751422716636
 40
16.04293422948856
 40
18.9278091941323
 40
21.76824787016282
 40
21.76824787016282
 40
21.76824787016282
 40
21.76824787016282
 10
2186.262308016445
 20
1145.162809523752
 30
0.0
 10
2185.683314169974
 20
1144.979477245421
 30
0.0
 10
2184.172797685013
 20
1144.67732339394
 30
0.0
 10
2181.672295336943
 20
1144.880657161216
 30
0.0
 10
2179.049515317829
 20
1146.006056350218
 30
0.0
 10
2176.865026324888
 20
1147.908744393352
 30
0.0
 10
2175.325114076164
 20
1150.39939228437
 30
0.0
 10
2174.573697741193
 20
1153.239359340133
 30
0.0
 10
2174.681173753249
 20
1156.155468923498
 30
0.0
 10
2175.332148646316
 20
1157.988011820576
 30
0.0
 10
2175.786074202533
 20
1158.818918699769
 30
0.0
 11
2186.262308016445
 21
1145.162809523752
 31
0.0
 11
2184.47543500441
 21
1144.806879438458
 31
0.0
 11
2181.72482095624
 21
1145.024594132321
 31
0.0
 11
2179.143657286491
 21
1146.122447986061
 31
0.0
 11
2176.984606212402
 21
1147.992975454124
 31
0.0
 11
2175.459010764982
 21
1150.453076259697
 31
0.0
 11
2174.716206804315
 21
1153.261938603407
 31
0.0
 11
2174.828905195769
 21
1156.144611431563
 31
0.0
 11
2175.786074202533
 21
1158.818918699769
 31
0.0
  0
SPLINE
  5
6EA
330
1F
100
AcDbEntity
  8
0
  6
Continuous
 62
     7
100
AcDbSpline
210
0.0
220
0.0
230
1.0
 70
  1064
 71
     3
 72
    14
 73
    10
 74
     8
 42
0.000000001
 43
0.0000000001
 44
0.0000000001
 12
-0.9792883859889844
 22
-0.20247038565452
 32
0.0
 13
0.4794247736685695
 23
0.877582979776181
 33
0.0
 40
0.0
 40
0.0
 40
0.0
 40
0.0
 40
1.89443189460727
 40
4.974791473085439
 40
8.117670390471889
 40
11.31748111048994
 40
14.54284222834438
 40
17.75117050151342
 40
20.90732504894919
 40
20.90732504894919
 40
20.90732504894919
 40
20.90732504894919
 10
2192.156931330661
 20
1147.074604648908
 30
0.0
 10
2191.538532946516
 20
1146.946749196809
 30
0.0
 10
2189.871867885406
 20
1146.794811202387
 30
0.0
 10
2187.163574089993
 20
1147.369520270266
 30
0.0
 10
2184.455294831954
 20
1149.080372404148
 30
0.0
 10
2182.439792060032
 20
1151.628440716215
 30
0.0
 10
2181.348627842129
 20
1154.710475375953
 30
0.0
 10
2181.305037140335
 20
1157.962905820297
 30
0.0
 10
2181.995576278716
 20
1160.021285145626
 30
0.0
 10
2182.499955838572
 20
1160.94454764975
 30
0.0
 11
2192.156931330661
 21
1147.074604648908
 31
0.0
 11
2190.270184542637
 21
1146.904138343779
 31
0.0
 11
2187.254903367932
 21
1147.533975283148
 31
0.0
 11
2184.59119985516
 21
1149.202019492814
 31
0.0
 11
2182.600355974983
 21
1151.707080228346
 31
0.0
 11
2181.522496895517
 21
1154.747010185661
 31
0.0
 11
2181.487628279279
 21
1157.955148974432
 31
0.0
 11
2182.499955838572
 21
1160.94454764975
 31
0.0
  0
SPLINE
  5
6EB
330
1F
100
AcDbEntity
  8
0
  6
Continuous
 62
     7
100
AcDbSpline
210
0.0
220
0.0
230
1.0
 70
  1064
 71
     3
 72
    17
 73
    13
 74
    11
 42
0.000000001
 43
0.0000000001
 44
0.0000000001
 12
-0.9872434220073106
 22
-0.1592181701417741
 32
0.0
 13
0.952639402589663
 23
0.3041022338517261
 33
0.0
 40
0.0
 40
0.0
 40
0.0
 40
0.0
 40
2.751822219797217
 40
5.545367386741492
 40
8.39104914298748
 40
11.27934511058473
 40
14.18513391865182
 40
17.07706327580354
 40
19.92870951619323
 40
22.72833025058285
 40
25.48396581015079
 40
27.00400960085877
 40
27.00400960085877
 40
27.00400960085877
 40
27.00400960085877
 10
2707.90643773454
 20
860.5779746356402
 30
0.0
 10
2707.00086493953
 20
860.4319279361762
 30
0.0
 10
2705.112442140598
 20
860.4455270070292
 30
0.0
 10
2702.427077195324
 20
861.379520316745
 30
0.0
 10
2700.124798250758
 20
863.1235339708604
 30
0.0
 10
2698.427121579073
 20
865.5028865987455
 30
0.0
 10
2697.491344643971
 20
868.287413591692
 30
0.0
 10
2697.406415099318
 20
871.2121579947604
 30
0.0
 10
2698.184895659924
 20
873.9983430402213
 30
0.0
 10
2699.758082886326
 20
876.3740379230796
 30
0.0
 10
2701.6570272778
 20
877.8492130048567
 30
0.0
 10
2702.977555220648
 20
878.4066824529318
 30
0.0
 10
2703.460239756878
 20
878.5607653570341
 30
0.0
 11
2707.90643773454
 21
860.5779746356402
 31
0.0
 11
2705.154662608753
 21
860.5940739049556
 31
0.0
 11
2702.513017783339
 21
861.5027032111752
 31
0.0
 11
2700.240085824605
 21
863.2149196019376
 31
0.0
 11
2698.55835717472
 21
865.5631194112801
 31
0.0
 11
2697.632451146122
 21
868.3174444871006
 31
0.0
 11
2697.553001864652
 21
871.2082822927255
 31
0.0
 11
2698.327786369275
 21
873.9526574951579
 31
0.0
 11
2699.880963395934
 21
876.2819314979928
 31
0.0
 11
2702.060497121911
 21
877.9680987715702
 31
0.0
 11
2703.460239756878
 21
878.5607653570341
 31
0.0
  0
SPLINE
  5
6EC
330
1F
100
AcDbEntity
  8
0
  6
Continuous
 62
     7
100
AcDbSpline
210
0.0
220
0.0
230
1.0
 70
  1064
 71
     3
 72
     8
 73
     4
 74
     2
 42
0.000000001
 43
0.0000000001
 44
0.0000000001
 12
-0.9526394017325579
 22
-0.3041022365367182
 32
0.0
 13
-0.8810921578382309
 23
-0.4729446155692758
 33
0.0
 40
0.0
 40
0.0
 40
0.0
 40
0.0
 40
2.794919213658764
 40
2.794919213658764
 40
2.794919213658764
 40
2.794919213658764
 10
3092.239141038085
 20
979.3751674882116
 30
0.0
 10
3091.351624315555
 20
979.091853760274
 30
0.0
 10
3090.486281203753
 20
978.7260396717586
 30
0.0
 10
3089.66542073677
 20
978.2854256740749
 30
0.0
 11
3092.239141038085
 21
979.3751674882116
 31
0.0
 11
3089.66542073677
 21
978.2854256740749
 31
0.0
  0
SPLINE
  5
6ED
330
1F
100
AcDbEntity
  8
0
  6
Continuous
 62
     7
100
AcDbSpline
210
0.0
220
0.0
230
1.0
 70
  1064
 71
     3
 72
     8
 73
     4
 74
     2
 42
0.000000001
 43
0.0000000001
 44
0.0000000001
 12
-0.8810921587515373
 22
-0.4729446138677926
 32
0.0
 13
-0.7112273745966114
 23
-0.7029620342695697
 33
0.0
 40
0.0
 40
0.0
 40
0.0
 40
0.0
 40
4.410431419617073
 40
4.410431419617073
 40
4.410431419617073
 40
4.410431419617073
 10
3089.66542073677
 20
978.2854256740749
 30
0.0
 10
3088.370088556592
 20
977.5901290791612
 30
0.0
 10
3087.165820248973
 20
976.6952551088744
 30
0.0
 10
3086.120213729169
 20
975.661799827961
 30
0.0
 11
3089.66542073677
 21
978.2854256740749
 31
0.0
 11
3086.120213729169
 21
975.661799827961
 31
0.0
  0
SPLINE
  5
6EE
330
1F
100
AcDbEntity
  8
0
  6
Continuous
 62
     7
100
AcDbSpline
210
0.0
220
0.0
230
1.0
 70
  1064
 71
     3
 72
     9
 73
     5
 74
     3
 42
0.000000001
 43
0.0000000001
 44
0.0000000001
 12
-0.7112273822193877
 22
-0.7029620265571656
 32
0.0
 13
-0.6659519507691561
 23
-0.7459946375589813
 33
0.0
 40
0.0
 40
0.0
 40
0.0
 40
0.0
 40
0.6641003383029686
 40
0.979252727382204
 40
0.979252727382204
 40
0.979252727382204
 40
0.979252727382204
 10
3086.120213729169
 20
975.661799827961
 30
0.0
 10
3085.962771614121
 20
975.5061873880773
 30
0.0
 10
3085.735440984509
 20
975.2717652974942
 30
0.0
 10
3085.515627462267
 20
975.0304344324071
 30
0.0
 10
3085.445668679501
 20
974.9520671016513
 30
0.0
 11
3086.120213729169
 21
975.661799827961
 31
0.0
 11
3085.657890980716
 21
975.1850536317546
 31
0.0
 11
3085.445668679501
 21
974.9520671016513
 31
0.0
  0
SPLINE
  5
6EF
330
1F
100
AcDbEntity
  8
0
  6
Continuous
 62
     7
100
AcDbSpline
210
0.0
220
0.0
230
1.0
 70
  1064
 71
     3
 72
     8
 73
     4
 74
     2
 42
0.000000001
 43
0.0000000001
 44
0.0000000001
 12
-0.6659519624486175
 22
-0.745994627132686
 32
0.0
 13
-0.5243815712987442
 23
-0.8514833924876398
 33
0.0
 40
0.0
 40
0.0
 40
0.0
 40
0.0
 40
2.844166584721068
 40
2.844166584721068
 40
2.844166584721068
 40
2.844166584721068
 10
3085.445668679501
 20
974.9520671016513
 30
0.0
 10
3084.81430923996
 20
974.2448227713607
 30
0.0
 10
3084.244786542256
 20
973.4776557398335
 30
0.0
 10
3083.747643694679
 20
972.6704022023808
 30
0.0
 11
3085.445668679501
 21
974.9520671016513
 31
0.0
 11
3083.747643694679
 21
972.6704022023808
 31
0.0
  0
SPLINE
  5
6F0
330
1F
100
AcDbEntity
  8
0
  6
Continuous
 62
     7
100
AcDbSpline
210
0.0
220
0.0
230
1.0
 70
  1064
 71
     3
 72
    10
 73
     6
 74
     4
 42
0.000000001
 43
0.0000000001
 44
0.0000000001
 12
0.5524099075482773
 22
-0.8335726087405367
 32
0.0
 13
0.9857029018270717
 23
-0.168492698149476
 33
0.0
 40
0.0
 40
0.0
 40
0.0
 40
0.0
 40
3.300470090157645
 40
8.532852686073452
 40
13.66937123421897
 40
13.66937123421897
 40
13.66937123421897
 40
13.66937123421897
 10
3084.24728279228
 20
953.7285056728849
 30
0.0
 10
3084.855020251403
 20
952.8114451851772
 30
0.0
 10
3086.648036743012
 20
950.5812678798875
 30
0.0
 10
3090.335570343248
 20
947.7839575666992
 30
0.0
 10
3093.666999008855
 20
946.6281266310794
 30
0.0
 10
3095.35469275492
 20
946.3396380079887
 30
0.0
 11
3084.24728279228
 21
953.7285056728849
 31
0.0
 11
3086.31821284632
 21
951.1586123818508
 31
0.0
 11
3090.497474838074
 21
948.0103435187578
 31
0.0
 11
3095.35469275492
 21
946.3396380079887
 31
0.0
  0
SPLINE
  5
6F1
330
1F
100
AcDbEntity
  8
0
  6
Continuous
 62
     7
100
AcDbSpline
210
0.0
220
0.0
230
1.0
 70
  1064
 71
     3
 72
     8
 73
     4
 74
     2
 42
0.000000001
 43
0.0000000001
 44
0.0000000001
 12
0.9857029021609587
 22
-0.1684926961961953
 32
0.0
 13
0.9904727566591352
 23
0.1377088171325767
 33
0.0
 40
0.0
 40
0.0
 40
0.0
 40
0.0
 40
4.738792548385249
 40
4.738792548385249
 40
4.738792548385249
 40
4.738792548385249
 10
3095.35469275492
 20
946.3396380079887
 30
0.0
 10
3096.911706610814
 20
946.0734873635914
 30
0.0
 10
3098.52829706965
 20
946.0442382349693
 30
0.0
 10
3100.092845375862
 20
946.2617627404609
 30
0.0
 11
3095.35469275492
 21
946.3396380079887
 31
0.0
 11
3100.092845375862
 21
946.2617627404609
 31
0.0
  0
SPLINE
  5
6F2
330
1F
100
AcDbEntity
  8
0
  6
Continuous
 62
     7
100
AcDbSpline
210
0.0
220
0.0
230
1.0
 70
  1064
 71
     3
 72
     8
 73
     4
 74
     2
 42
0.000000001
 43
0.0000000001
 44
0.0000000001
 12
0.9904727602512501
 22
0.137708791296234
 32
0.0
 13
0.9872434267790865
 23
0.1592181405540415
 33
0.0
 40
0.0
 40
0.0
 40
0.0
 40
0.0
 40
0.3251661790612331
 40
0.3251661790612331
 40
0.3251661790612331
 40
0.3251661790612331
 10
3100.092845375862
 20
946.2617627404609
 30
0.0
 10
3100.200201456833
 20
946.2766888209571
 30
0.0
 10
3100.307402252153
 20
946.2927787137049
 30
0.0
 10
3100.414408309783
 20
946.310036165172
 30
0.0
 11
3100.092845375862
 21
946.2617627404609
 31
0.0
 11
3100.414408309783
 21
946.310036165172
 31
0.0
  0
SPLINE
  5
6F3
330
1F
100
AcDbEntity
  8
0
  6
Continuous
 62
     7
100
AcDbSpline
210
0.0
220
0.0
230
1.0
 70
  1064
 71
     3
 72
    11
 73
     7
 74
     5
 42
0.000000001
 43
0.0000000001
 44
0.0000000001
 12
0.4794247739378995
 22
0.8775829796290457
 32
0.0
 13
-0.9419833753572554
 23
0.3356595307012037
 33
0.0
 40
0.0
 40
0.0
 40
0.0
 40
0.0
 40
2.943434080438954
 40
5.287883396315064
 40
6.809288100385516
 40
7.290363908959847
 40
7.290363908959847
 40
7.290363908959847
 40
7.290363908959847
 10
2220.609188409175
 20
1147.117557211032
 30
0.0
 10
2221.079573482047
 20
1147.978593094583
 30
0.0
 10
2221.943647127279
 20
1149.600566534336
 30
0.0
 10
2222.487899558741
 20
1151.590448381937
 30
0.0
 10
2223.23813170075
 20
1153.289452270316
 30
0.0
 10
2222.612515772707
 20
1153.702799361164
 30
0.0
 10
2222.461460634718
 20
1153.756625254543
 30
0.0
 11
2220.609188409175
 21
1147.117557211032
 31
0.0
 11
2221.904751897255
 21
1149.760532699803
 31
0.0
 11
2222.685428579549
 21
1151.971185660453
 31
0.0
 11
2222.857057344194
 21
1153.482878698314
 31
0.0
 11
2222.461460634718
 21
1153.756625254543
 31
0.0
  0
SPLINE
  5
6F4
330
1F
100
AcDbEntity
  8
0
  6
Continuous
 62
     7
100
AcDbSpline
210
0.0
220
0.0
230
1.0
 70
  1064
 71
     3
 72
    12
 73
     8
 74
     6
 42
0.000000001
 43
0.0000000001
 44
0.0000000001
 12
0.9419833753501604
 22
-0.3356595307211141
 32
0.0
 13
0.47942477398955
 23
0.877582979600829
 33
0.0
 40
0.0
 40
0.0
 40
0.0
 40
0.0
 40
1.095539693420172
 40
3.031401576185118
 40
5.700832925215673
 40
8.819700239552298
 40
12.0344651547756
 40
12.0344651547756
 40
12.0344651547756
 40
12.0344651547756
 10
2212.810335333299
 20
1138.595789226329
 30
0.0
 10
2213.154328726045
 20
1138.473213113202
 30
0.0
 10
2214.272523155194
 20
1138.440209991201
 30
0.0
 10
2215.553488307026
 20
1140.058538121623
 30
0.0
 10
2217.283132339605
 20
1141.877160364266
 30
0.0
 10
2219.000933378073
 20
1144.378042398805
 30
0.0
 10
2220.095442428204
 20
1146.177149553359
 30
0.0
 10
2220.609188409175
 20
1147.117557211032
 30
0.0
 11
2212.810335333299
 21
1138.595789226329
 31
0.0
 11
2213.905471647183
 21
1138.566062573807
 31
0.0
 11
2215.388029048991
 21
1139.810885765867
 31
0.0
 11
2217.141712618271
 21
1141.823460650442
 31
0.0
 11
2218.955002242352
 21
1144.361041006537
 31
0.0
 11
2220.609188409175
 21
1147.117557211032
 31
0.0
  0
SPLINE
  5
6F5
330
1F
100
AcDbEntity
  8
0
  6
Continuous
 62
     7
100
AcDbSpline
210
0.0
220
0.0
230
1.0
 70
  1064
 71
     3
 72
     8
 73
     4
 74
     2
 42
0.000000001
 43
0.0000000001
 44
0.0000000001
 12
-0.9526394017325579
 22
-0.3041022365367182
 32
0.0
 13
-0.8810921578382309
 23
-0.4729446155692758
 33
0.0
 40
0.0
 40
0.0
 40
0.0
 40
0.0
 40
2.794919213621579
 40
2.794919213621579
 40
2.794919213621579
 40
2.794919213621579
 10
2178.271662814195
 20
1170.2862136377
 30
0.0
 10
2177.384146091677
 20
1170.002899909766
 30
0.0
 10
2176.518802979853
 20
1169.637085821334
 30
0.0
 10
2175.697942512881
 20
1169.196471823657
 30
0.0
 11
2178.271662814195
 21
1170.2862136377
 31
0.0
 11
2175.697942512881
 21
1169.196471823657
 31
0.0
  0
SPLINE
  5
6F6
330
1F
100
AcDbEntity
  8
0
  6
Continuous
 62
     7
100
AcDbSpline
210
0.0
220
0.0
230
1.0
 70
  1064
 71
     3
 72
    15
 73
    11
 74
     9
 42
0.000000001
 43
0.0000000001
 44
0.0000000001
 12
-0.8810921583413458
 22
-0.4729446146319764
 32
0.0
 13
0.9857029018425439
 23
-0.1684926980589614
 33
0.0
 40
0.0
 40
0.0
 40
0.0
 40
0.0
 40
5.066813747024953
 40
10.21450349159472
 40
15.45785302140811
 40
20.77527149849062
 40
26.11817351271418
 40
31.42891128456912
 40
36.6612938602521
 40
41.79781242440404
 40
41.79781242440404
 40
41.79781242440404
 40
41.79781242440404
 10
2175.697942512881
 20
1169.196471823657
 30
0.0
 10
2174.209832559454
 20
1168.39769773199
 30
0.0
 10
2171.462638226499
 20
1166.264253341641
 30
0.0
 10
2168.572346576068
 20
1161.8975737892
 30
0.0
 10
2167.140275772386
 20
1156.77417124936
 30
0.0
 10
2167.296721874445
 20
1151.396512130727
 30
0.0
 10
2169.016885108953
 20
1146.27661453056
 30
0.0
 10
2172.139952611671
 20
1141.901424257986
 30
0.0
 10
2176.367620025574
 20
1138.695636163321
 30
0.0
 10
2179.699520805382
 20
1137.53917280683
 30
0.0
 10
2181.387214556733
 20
1137.250684182996
 30
0.0
 11
2175.697942512881
 21
1169.196471823657
 31
0.0
 11
2171.690412756827
 21
1166.096099781243
 31
0.0
 11
2168.834571140283
 21
1161.813241113534
 31
0.0
 11
2167.409967357318
 21
1156.767131884301
 31
0.0
 11
2167.556051514322
 21
1151.451720453424
 31
0.0
 11
2169.258523898596
 21
1146.387316271847
 31
0.0
 11
2172.35073464776
 21
1142.06965853134
 31
0.0
 11
2176.529996614183
 21
1138.921389668247
 31
0.0
 11
2181.387214556733
 21
1137.250684182996
 31
0.0
  0
SPLINE
  5
6F7
330
1F
100
AcDbEntity
  8
0
  6
Continuous
 62
     7
100
AcDbSpline
210
0.0
220
0.0
230
1.0
 70
  1064
 71
     3
 72
     8
 73
     4
 74
     2
 42
0.000000001
 43
0.0000000001
 44
0.0000000001
 12
0.9857029021609587
 22
-0.1684926961961953
 32
0.0
 13
0.9904727566591352
 23
0.1377088171325767
 33
0.0
 40
0.0
 40
0.0
 40
0.0
 40
0.0
 40
4.7387925231015
 40
4.7387925231015
 40
4.7387925231015
 40
4.7387925231015
 10
2181.387214556733
 20
1137.250684182996
 30
0.0
 10
2182.944228404319
 20
1136.984533540019
 30
0.0
 10
2184.560818854106
 20
1136.955284385712
 30
0.0
 10
2186.12536715197
 20
1137.172808890043
 30
0.0
 11
2181.387214556733
 21
1137.250684182996
 31
0.0
 11
2186.12536715197
 21
1137.172808890043
 31
0.0
  0
SPLINE
  5
6F8
330
1F
100
AcDbEntity
  8
0
  6
Continuous
 62
     7
100
AcDbSpline
210
0.0
220
0.0
230
1.0
 70
  1064
 71
     3
 72
     8
 73
     4
 74
     2
 42
0.000000001
 43
0.0000000001
 44
0.0000000001
 12
0.9904727602512501
 22
0.137708791296234
 32
0.0
 13
0.9872434267790865
 23
0.1592181405540415
 33
0.0
 40
0.0
 40
0.0
 40
0.0
 40
0.0
 40
0.3251661790353525
 40
0.3251661790353525
 40
0.3251661790353525
 40
0.3251661790353525
 10
2186.12536715197
 20
1137.172808890043
 30
0.0
 10
2186.232723232933
 20
1137.187734970538
 30
0.0
 10
2186.339924028271
 20
1137.203824863102
 30
0.0
 10
2186.446930085893
 20
1137.221082314567
 30
0.0
 11
2186.12536715197
 21
1137.172808890043
 31
0.0
 11
2186.446930085893
 21
1137.221082314567
 31
0.0
  0
SPLINE
  5
6F9
330
1F
100
AcDbEntity
  8
0
  6
Continuous
 62
     7
100
AcDbSpline
210
0.0
220
0.0
230
1.0
 70
  1064
 71
     3
 72
    11
 73
     7
 74
     5
 42
0.000000001
 43
0.0000000001
 44
0.0000000001
 12
0.4794247739378995
 22
0.8775829796290457
 32
0.0
 13
-0.9419833753572554
 23
0.3356595307012037
 33
0.0
 40
0.0
 40
0.0
 40
0.0
 40
0.0
 40
2.943434092038899
 40
5.287883383852435
 40
6.809288090915082
 40
7.290363920319722
 40
7.290363920319722
 40
7.290363920319722
 40
7.290363920319722
 10
2621.419584453132
 20
896.1251097597164
 30
0.0
 10
2621.889969527857
 20
896.9861456466608
 30
0.0
 10
2622.754043134557
 20
898.6081191081899
 30
0.0
 10
2623.298295562662
 20
900.5980009309345
 30
0.0
 10
2624.048527760432
 20
902.2970048429581
 30
0.0
 10
2623.422911797872
 20
902.7103519076108
 30
0.0
 10
2623.271856653343
 20
902.7641778033208
 30
0.0
 11
2621.419584453132
 21
896.1251097597164
 31
0.0
 11
2622.715147915509
 21
898.7680852740053
 31
0.0
 11
2623.495824597802
 21
900.9787382091376
 31
0.0
 11
2623.66745338815
 21
902.4904312470907
 31
0.0
 11
2623.271856653343
 21
902.7641778033208
 31
0.0
  0
SPLINE
  5
6FA
330
1F
100
AcDbEntity
  8
0
  6
Continuous
 62
     7
100
AcDbSpline
210
0.0
220
0.0
230
1.0
 70
  1064
 71
     3
 72
     8
 73
     4
 74
     2
 42
0.000000001
 43
0.0000000001
 44
0.0000000001
 12
-0.9526394017325579
 22
-0.3041022365367182
 32
0.0
 13
-0.8810921578382309
 23
-0.4729446155692758
 33
0.0
 40
0.0
 40
0.0
 40
0.0
 40
0.0
 40
2.794919214038315
 40
2.794919214038315
 40
2.794919214038315
 40
2.794919214038315
 10
2701.095498701583
 20
885.9822769149186
 30
0.0
 10
2700.207981978933
 20
885.6989631869424
 30
0.0
 10
2699.342638866989
 20
885.3331490984327
 30
0.0
 10
2698.521778399895
 20
884.8925351006892
 30
0.0
 11
2701.095498701583
 21
885.9822769149186
 31
0.0
 11
2698.521778399895
 21
884.8925351006892
 31
0.0
  0
SPLINE
  5
6FB
330
1F
100
AcDbEntity
  8
0
  6
Continuous
 62
     7
100
AcDbSpline
210
0.0
220
0.0
230
1.0
 70
  1064
 71
     3
 72
    15
 73
    11
 74
     9
 42
0.000000001
 43
0.0000000001
 44
0.0000000001
 12
-0.8810921583413458
 22
-0.4729446146319764
 32
0.0
 13
0.9857029018425439
 23
-0.1684926980589614
 33
0.0
 40
0.0
 40
0.0
 40
0.0
 40
0.0
 40
5.066813762696495
 40
10.21450349264346
 40
15.45785300497215
 40
20.77527150747046
 40
26.11817352175179
 40
31.42891127292625
 40
36.66129384831138
 40
41.79781242079369
 40
41.79781242079369
 40
41.79781242079369
 40
41.79781242079369
 10
2698.521778399895
 20
884.8925351006892
 30
0.0
 10
2697.033668441866
 20
884.0937610065523
 30
0.0
 10
2694.286474116327
 20
881.9603165984492
 30
0.0
 10
2691.396182506088
 20
877.5936370359655
 30
0.0
 10
2689.964111645084
 20
872.470234515851
 30
0.0
 10
2690.120557764667
 20
867.092575390288
 30
0.0
 10
2691.84072098761
 20
861.9726777860236
 30
0.0
 10
2694.963788507896
 20
857.5974875307382
 30
0.0
 10
2699.191455917497
 20
854.3916994488816
 30
0.0
 10
2702.523356689661
 20
853.2352360588122
 30
0.0
 10
2704.211050443749
 20
852.9467474345096
 30
0.0
 11
2698.521778399895
 21
884.8925351006892
 31
0.0
 11
2694.514248643841
 21
881.792163032664
 31
0.0
 11
2691.658407053376
 21
877.5093043651413
 31
0.0
 11
2690.233803244705
 21
872.4631951613332
 31
0.0
 11
2690.37988740171
 21
867.1477837050316
 31
0.0
 11
2692.082359785612
 21
862.0833795232679
 31
0.0
 11
2695.174570535149
 21
857.7657218084651
 31
0.0
 11
2699.353832501199
 21
854.617452945372
 31
0.0
 11
2704.211050443749
 21
852.9467474345096
 31
0.0
  0
SPLINE
  5
6FC
330
1F
100
AcDbEntity
  8
0
  6
Continuous
 62
     7
100
AcDbSpline
210
0.0
220
0.0
230
1.0
 70
  1064
 71
     3
 72
     8
 73
     4
 74
     2
 42
0.000000001
 43
0.0000000001
 44
0.0000000001
 12
0.9857029021609587
 22
-0.1684926961961953
 32
0.0
 13
0.9904727566591352
 23
0.1377088171325767
 33
0.0
 40
0.0
 40
0.0
 40
0.0
 40
0.0
 40
4.738792548754117
 40
4.738792548754117
 40
4.738792548754117
 40
4.738792548754117
 10
2704.211050443749
 20
852.9467474345096
 30
0.0
 10
2705.768064299764
 20
852.6805967900918
 30
0.0
 10
2707.384654758729
 20
852.6513476616598
 30
0.0
 10
2708.949203065063
 20
852.8688721671683
 30
0.0
 11
2704.211050443749
 21
852.9467474345096
 31
0.0
 11
2708.949203065063
 21
852.8688721671683
 31
0.0
  0
SPLINE
  5
6FD
330
1F
100
AcDbEntity
  8
0
  6
Continuous
 62
     7
100
AcDbSpline
210
0.0
220
0.0
230
1.0
 70
  1064
 71
     3
 72
     8
 73
     4
 74
     2
 42
0.000000001
 43
0.0000000001
 44
0.0000000001
 12
0.9904727602512501
 22
0.137708791296234
 32
0.0
 13
0.9872434267790865
 23
0.1592181405540415
 33
0.0
 40
0.0
 40
0.0
 40
0.0
 40
0.0
 40
0.3251661536151476
 40
0.3251661536151476
 40
0.3251661536151476
 40
0.3251661536151476
 10
2708.949203065063
 20
852.8688721671683
 30
0.0
 10
2709.056559137633
 20
852.8837982464965
 30
0.0
 10
2709.163759924025
 20
852.8998881415764
 30
0.0
 10
2709.270765973281
 20
852.917145591693
 30
0.0
 11
2708.949203065063
 21
852.8688721671683
 31
0.0
 11
2709.270765973281
 21
852.917145591693
 31
0.0
  0
SPLINE
  5
6FE
330
1F
100
AcDbEntity
  8
0
  6
Continuous
 62
     7
100
AcDbSpline
210
0.0
220
0.0
230
1.0
 70
  1064
 71
     3
 72
    12
 73
     8
 74
     6
 42
0.000000001
 43
0.0000000001
 44
0.0000000001
 12
0.9419833753501604
 22
-0.3356595307211141
 32
0.0
 13
0.47942477398955
 23
0.877582979600829
 33
0.0
 40
0.0
 40
0.0
 40
0.0
 40
0.0
 40
1.095539692726136
 40
3.031401559081372
 40
5.700832908042241
 40
8.819700222378866
 40
12.03446515063745
 40
12.03446515063745
 40
12.03446515063745
 40
12.03446515063745
 10
2613.620731351923
 20
887.6033417750132
 30
0.0
 10
2613.96472474445
 20
887.4807656619642
 30
0.0
 10
2615.082919166426
 20
887.4477625892664
 30
0.0
 10
2616.363884335898
 20
889.0660906560873
 30
0.0
 10
2618.09352835767
 20
890.8847129184378
 30
0.0
 10
2619.811329391479
 20
893.3855949541113
 30
0.0
 10
2620.905838470078
 20
895.1847020982306
 30
0.0
 10
2621.419584453132
 20
896.1251097597164
 30
0.0
 11
2613.620731351923
 21
887.6033417750132
 31
0.0
 11
2614.715867665808
 21
887.5736151481028
 31
0.0
 11
2616.198425067614
 21
888.8184383146445
 31
0.0
 11
2617.952108636896
 21
890.831013199126
 31
0.0
 11
2619.765398260977
 21
893.3685935552212
 31
0.0
 11
2621.419584453132
 21
896.1251097597164
 31
0.0
  0
SPLINE
  5
6FF
330
1F
100
AcDbEntity
  8
0
  6
Continuous
 62
     7
100
AcDbSpline
210
0.0
220
0.0
230
1.0
 70
  1064
 71
     3
 72
    12
 73
     8
 74
     6
 42
0.000000001
 43
0.0000000001
 44
0.0000000001
 12
-0.1753326890151991
 22
0.9845092422941998
 32
0.0
 13
-0.9475795646803021
 23
-0.3195199032928766
 33
0.0
 40
0.0
 40
0.0
 40
0.0
 40
0.0
 40
3.154255306493817
 40
5.92680053149875
 40
8.055483937867837
 40
9.455047536902215
 40
9.832071905960807
 40
9.832071905960807
 40
9.832071905960807
 40
9.832071905960807
 10
2640.577470140929
 20
892.1233787403421
 30
0.0
 10
2640.393122119353
 20
893.1585099076084
 30
0.0
 10
2639.941673438061
 20
895.0786338872889
 30
0.0
 10
2638.988321474039
 20
897.6324662047257
 30
0.0
 10
2637.937750136778
 20
899.3802029719322
 30
0.0
 10
2636.878775804771
 20
900.4044320958023
 30
0.0
 10
2636.263287981027
 20
900.3356974865173
 30
0.0
 10
2636.144201118525
 20
900.2955418898705
 30
0.0
 11
2640.577470140929
 21
892.1233787403421
 31
0.0
 11
2639.841794940855
 21
895.1906427554767
 31
0.0
 11
2638.83623033541
 21
897.7744087760315
 31
0.0
 11
2637.682062223951
 21
899.5630364664812
 31
0.0
 11
2636.518500330697
 21
900.3407909189332
 31
0.0
 11
2636.144201118525
 21
900.2955418898705
 31
0.0
  0
SPLINE
  5
700
330
1F
100
AcDbEntity
  8
0
  6
Continuous
 62
     7
100
AcDbSpline
210
0.0
220
0.0
230
1.0
 70
  1064
 71
     3
 72
    12
 73
     8
 74
     6
 42
0.000000001
 43
0.0000000001
 44
0.0000000001
 12
0.8069389995291146
 22
-0.5906347865127414
 32
0.0
 13
-0.3101622697613122
 23
-0.9506836310868674
 33
0.0
 40
0.0
 40
0.0
 40
0.0
 40
0.0
 40
3.997557067971346
 40
7.272742338545215
 40
9.664059557982842
 40
11.10845948167771
 40
11.15909566053876
 40
11.15909566053876
 40
11.15909566053876
 40
11.15909566053876
 10
2718.392501985307
 20
904.6730363706105
 30
0.0
 10
2719.467763552303
 20
903.8860042821394
 30
0.0
 10
2721.314054848768
 20
902.350361302783
 30
0.0
 10
2723.798131532058
 20
900.1599873860255
 30
0.0
 10
2725.112097060789
 20
898.3923326738054
 30
0.0
 10
2726.207498506779
 20
897.2555551306768
 30
0.0
 10
2726.07755157012
 20
896.7707882612442
 30
0.0
 10
2726.072316426064
 20
896.7547419324496
 30
0.0
 11
2718.392501985307
 21
904.6730363706105
 31
0.0
 11
2721.504423015217
 21
902.1637715349884
 31
0.0
 11
2723.888531547066
 21
899.9181390929015
 31
0.0
 11
2725.431794776793
 21
898.0914654362928
 31
0.0
 11
2726.085721593003
 21
896.8035714738052
 31
0.0
 11
2726.072316426064
 21
896.7547419324496
 31
0.0
  0
SPLINE
  5
701
330
1F
100
AcDbEntity
  8
0
  6
Continuous
 62
     7
100
AcDbSpline
210
0.0
220
0.0
230
1.0
 70
  1064
 71
     3
 72
    15
 73
    11
 74
     9
 42
0.000000001
 43
0.0000000001
 44
0.0000000001
 12
-0.987243421991266
 22
-0.1592181702412601
 32
0.0
 13
0.6588336342506456
 23
0.7522886695810902
 33
0.0
 40
0.0
 40
0.0
 40
0.0
 40
0.0
 40
3.056541289921523
 40
6.166927624335794
 40
9.340830918318467
 40
12.55846215950101
 40
15.78060317335
 40
18.96607012271594
 40
22.08987021672692
 40
22.4533105488404
 40
22.4533105488404
 40
22.4533105488404
 40
22.4533105488404
 10
2716.538571259777
 20
863.3109261720424
 30
0.0
 10
2715.532721165604
 20
863.1487072015596
 30
0.0
 10
2713.422917860956
 20
863.2033803415522
 30
0.0
 10
2710.483671385941
 20
864.4077311362964
 30
0.0
 10
2708.086071584322
 20
866.5705372421534
 30
0.0
 10
2706.510237436076
 20
869.4274260197619
 30
0.0
 10
2705.935049822652
 20
872.6432798086511
 30
0.0
 10
2706.427999814402
 20
875.8405139339773
 30
0.0
 10
2707.513944649705
 20
877.8426200893122
 30
0.0
 10
2708.261181235108
 20
878.7329347155537
 30
0.0
 10
2708.340996806722
 20
878.8240720635263
 30
0.0
 11
2716.538571259777
 21
863.3109261720424
 31
0.0
 11
2713.482922782029
 21
863.3847979354655
 31
0.0
 11
2710.599626698743
 21
864.5514627739768
 31
0.0
 11
2708.23645106035
 21
866.6702036787738
 31
0.0
 11
2706.678429714988
 21
869.4854692597855
 31
0.0
 11
2706.113483078804
 21
872.6576968700605
 31
0.0
 11
2706.609751983012
 21
875.8042691098507
 31
0.0
 11
2708.107379141103
 21
878.545662901828
 31
0.0
 11
2708.340996806722
 21
878.8240720635263
 31
0.0
  0
SPLINE
  5
702
330
1F
100
AcDbEntity
  8
0
  6
Continuous
 62
     7
100
AcDbSpline
210
0.0
220
0.0
230
1.0
 70
  1064
 71
     3
 72
     8
 73
     4
 74
     2
 42
0.000000001
 43
0.0000000001
 44
0.0000000001
 12
0.658833628547531
 22
0.7522886745757204
 32
0.0
 13
0.68805698229909
 23
0.7256566606250301
 33
0.0
 40
0.0
 40
0.0
 40
0.0
 40
0.0
 40
0.339894402875796
 40
0.339894402875796
 40
0.339894402875796
 40
0.339894402875796
 10
2708.340996806722
 20
878.8240720635263
 30
0.0
 10
2708.415641427645
 20
878.9093049668046
 30
0.0
 10
2708.491985036757
 20
878.9930794077042
 30
0.0
 10
2708.569940609138
 20
879.0752949534894
 30
0.0
 11
2708.340996806722
 21
878.8240720635263
 31
0.0
 11
2708.569940609138
 21
879.0752949534894
 31
0.0
  0
SPLINE
  5
703
330
1F
100
AcDbEntity
  8
0
  6
Continuous
 62
     7
100
AcDbSpline
210
0.0
220
0.0
230
1.0
 70
  1064
 71
     3
 72
    11
 73
     7
 74
     5
 42
0.000000001
 43
0.0000000001
 44
0.0000000001
 12
0.9475795648143529
 22
0.3195199028953306
 32
0.0
 13
-0.1753326901520466
 23
0.9845092420917371
 33
0.0
 40
0.0
 40
0.0
 40
0.0
 40
0.0
 40
2.205050867335278
 40
4.534201129310109
 40
7.445020219025446
 40
10.64809486036202
 40
10.64809486036202
 40
10.64809486036202
 40
10.64809486036202
 10
2639.064158287297
 20
882.0685156751405
 30
0.0
 10
2639.760645334385
 20
882.3033682214772
 30
0.0
 10
2640.711738496677
 20
883.7829777101537
 30
0.0
 10
2640.981227498075
 20
886.2116858865151
 30
0.0
 10
2641.020181475426
 20
889.0470817960851
 30
0.0
 10
2640.764671372137
 20
891.072226544507
 30
0.0
 10
2640.577470140929
 20
892.1233787403421
 30
0.0
 11
2639.064158287297
 21
882.0685156751405
 31
0.0
 11
2640.499587632368
 21
883.7423710819317
 31
0.0
 11
2640.92747432592
 21
886.0318806190026
 31
0.0
 11
2640.954522636558
 21
888.942574035002
 31
0.0
 11
2640.577470140929
 21
892.1233787403421
 31
0.0
  0
SPLINE
  5
704
330
1F
100
AcDbEntity
  8
0
  6
Continuous
 62
     7
100
AcDbSpline
210
0.0
220
0.0
230
1.0
 70
  1064
 71
     3
 72
    12
 73
     8
 74
     6
 42
0.000000001
 43
0.0000000001
 44
0.0000000001
 12
0.9265763231941855
 22
0.3761067897498584
 32
0.0
 13
0.5659894848647157
 23
0.8244124592839277
 33
0.0
 40
0.0
 40
0.0
 40
0.0
 40
0.0
 40
2.988801182110078
 40
5.71421210926112
 40
8.980659471566703
 40
12.3450466413078
 40
15.39167427040558
 40
15.39167427040558
 40
15.39167427040558
 40
15.39167427040558
 10
2708.306563821833
 20
893.176835944781
 30
0.0
 10
2709.229681291859
 20
893.5515387507157
 30
0.0
 10
2710.682866386024
 20
894.8865641247092
 30
0.0
 10
2712.698892991257
 20
897.0680319620326
 30
0.0
 10
2714.675490535566
 20
899.4922411744642
 30
0.0
 10
2716.616582663702
 20
902.0672470028083
 30
0.0
 10
2717.817715584518
 20
903.8358104452017
 30
0.0
 10
2718.392501985307
 20
904.6730363706105
 30
0.0
 11
2708.306563821833
 21
893.176835944781
 31
0.0
 11
2710.703223937403
 21
894.9625998700016
 31
0.0
 11
2712.561042901154
 21
896.9566844769733
 31
0.0
 11
2714.637612903516
 21
899.4780998326818
 31
0.0
 11
2716.656970417897
 21
902.1690655063817
 31
0.0
 11
2718.392501985307
 21
904.6730363706105
 31
0.0
  0
SPLINE
  5
705
330
1F
100
AcDbEntity
  8
0
  6
Continuous
 62
     7
100
AcDbSpline
210
0.0
220
0.0
230
1.0
 70
  1064
 71
     3
 72
    12
 73
     8
 74
     6
 42
0.000000001
 43
0.0000000001
 44
0.0000000001
 12
-0.1753326890151991
 22
0.9845092422941998
 32
0.0
 13
-0.9475795655458853
 23
-0.3195199007258723
 33
0.0
 40
0.0
 40
0.0
 40
0.0
 40
0.0
 40
3.154255312402315
 40
5.926800537493794
 40
8.055483922342908
 40
9.455047535661641
 40
9.832071904720233
 40
9.832071904720233
 40
9.832071904720233
 40
9.832071904720233
 10
3092.4679799367
 20
965.0022435204103
 30
0.0
 10
3092.283631914778
 20
966.0373746896155
 30
0.0
 10
3091.832183195658
 20
967.9574986597339
 30
0.0
 10
3090.878831258903
 20
970.5113309878516
 30
0.0
 10
3089.828259888227
 20
972.2590677219489
 30
0.0
 10
3088.769285581091
 20
973.2832968784942
 30
0.0
 10
3088.153797751574
 20
973.2145622664495
 30
0.0
 10
3088.034710888963
 20
973.1744066701251
 30
0.0
 11
3092.4679799367
 21
965.0022435204103
 31
0.0
 11
3091.732304711293
 21
968.0695075355449
 31
0.0
 11
3090.726740105848
 21
970.653273556193
 31
0.0
 11
3089.57257199439
 21
972.4419012210312
 31
0.0
 11
3088.409010101135
 21
973.2196556991878
 31
0.0
 11
3088.034710888963
 21
973.1744066701251
 31
0.0
  0
SPLINE
  5
706
330
1F
100
AcDbEntity
  8
0
  6
Continuous
 62
     7
100
AcDbSpline
210
0.0
220
0.0
230
1.0
 70
  1064
 71
     3
 72
     8
 73
     4
 74
     2
 42
0.000000001
 43
0.0000000001
 44
0.0000000001
 12
0.8509224641524507
 22
-0.5252913096565761
 32
0.0
 13
0.8823935846909369
 23
-0.4705120207776611
 33
0.0
 40
0.0
 40
0.0
 40
0.0
 40
0.0
 40
0.569641153516375
 40
0.569641153516375
 40
0.569641153516375
 40
0.569641153516375
 10
3093.162756868105
 20
955.1794082434827
 30
0.0
 10
3093.324330352782
 20
955.0796657276279
 30
0.0
 10
3093.489110860991
 20
954.9849347879806
 30
0.0
 10
3093.656660094138
 20
954.895593784561
 30
0.0
 11
3093.162756868105
 21
955.1794082434827
 31
0.0
 11
3093.656660094138
 21
954.895593784561
 31
0.0
  0
SPLINE
  5
707
330
1F
100
AcDbEntity
  8
0
  6
Continuous
 62
     7
100
AcDbSpline
210
0.0
220
0.0
230
1.0
 70
  1064
 71
     3
 72
    10
 73
     6
 74
     4
 42
0.000000001
 43
0.0000000001
 44
0.0000000001
 12
0.8823935885555147
 22
-0.4705120135300703
 32
0.0
 13
0.9533658565401921
 23
0.3018170697349404
 33
0.0
 40
0.0
 40
0.0
 40
0.0
 40
0.0
 40
2.793545191220417
 40
5.545367411241231
 40
6.753412287526871
 40
6.753412287526871
 40
6.753412287526871
 40
6.753412287526871
 10
3093.656660094138
 20
954.895593784561
 30
0.0
 10
3094.478328882829
 20
954.4574615936248
 30
0.0
 10
3096.258528518928
 20
953.8376790829873
 30
0.0
 10
3098.553146616322
 20
953.8216632033805
 30
0.0
 10
3099.841448925681
 20
954.1288083780305
 30
0.0
 10
3100.225351838421
 20
954.2503445662534
 30
0.0
 11
3093.656660094138
 21
954.895593784561
 31
0.0
 11
3096.298304945256
 21
953.9869644784346
 31
0.0
 11
3099.050080071416
 21
953.9708652346373
 31
0.0
 11
3100.225351838421
 21
954.2503445662534
 31
0.0
  0
SPLINE
  5
708
330
1F
100
AcDbEntity
  8
0
  6
Continuous
 62
     7
100
AcDbSpline
210
0.0
220
0.0
230
1.0
 70
  1064
 71
     3
 72
    11
 73
     7
 74
     5
 42
0.000000001
 43
0.0000000001
 44
0.0000000001
 12
0.9475795648143529
 22
0.3195199028953306
 32
0.0
 13
-0.1753326901520466
 23
0.9845092420917371
 33
0.0
 40
0.0
 40
0.0
 40
0.0
 40
0.0
 40
2.20505086733434
 40
4.534201124587528
 40
7.445020214209645
 40
10.64809485256422
 40
10.64809485256422
 40
10.64809485256422
 40
10.64809485256422
 10
3090.95466808344
 20
954.947380455302
 30
0.0
 10
3091.651155130528
 20
955.1822330016387
 30
0.0
 10
3092.602248300464
 20
956.661842487041
 30
0.0
 10
3092.871737258901
 20
959.0905506706903
 30
0.0
 10
3092.910691239354
 20
961.9259465731671
 30
0.0
 10
3092.655181167733
 20
963.9510913255536
 30
0.0
 10
3092.4679799367
 20
965.0022435204103
 30
0.0
 11
3090.95466808344
 21
954.947380455302
 31
0.0
 11
3092.390097428511
 21
956.6212358620926
 31
0.0
 11
3092.817984096359
 21
958.9107453991639
 31
0.0
 11
3092.845032406997
 21
961.8214388150702
 31
0.0
 11
3092.4679799367
 21
965.0022435204103
 31
0.0
  0
DIMENSION
  5
709
330
1F
100
AcDbEntity
  8
标注
100
AcDbDimension
280
     0
  2
*D18
 10
2811.712636338122
 20
841.0555670189358
 30
0.0
 11
3033.559602031111
 21
875.6983840325119
 31
0.0
 70
   161
  1
740
 71
     5
 42
393.4911762050128
 73
     0
 74
     0
 75
     0
  3
线性标注
100
AcDbAlignedDimension
 13
3126.493747186277
 23
948.1047259961304
 33
0.0
 14
2737.714179413776
 24
887.3943196901963
 34
0.0
  0
DIMENSION
  5
70A
330
1F
100
AcDbEntity
  8
标注
100
AcDbDimension
280
     0
  2
*D19
 10
2725.213393693187
 20
826.1694613371385
 30
0.0
 11
2765.812983635199
 21
849.0111491397012
 31
0.0
 70
    33
  1
100
 71
     5
 42
87.77081018491708
 73
     0
 74
     0
 75
     0
  3
线性标注
100
AcDbAlignedDimension
 13
2737.714179413776
 23
887.3943196901963
 33
0.0
 14
2651.214936768843
 24
872.5082140084005
 34
0.0
  0
DIMENSION
  5
70B
330
1F
100
AcDbEntity
  8
标注
100
AcDbDimension
280
     0
  2
*D20
 10
2472.511440514078
 20
863.0128162179664
 30
0.0
 11
2210.854576956521
 21
1019.373894420628
 31
0.0
 70
   161
  1
700
 71
     5
 42
519.2790359782359
 73
     0
 74
     0
 75
     0
  3
线性标注
100
AcDbAlignedDimension
 13
2155.102747051682
 23
1150.085105840173
 33
0.0
 14
2600.855920341449
 24
883.7116354858812
 34
0.0
  0
DIMENSION
  5
70C
330
1F
100
AcDbEntity
  8
标注
100
AcDbDimension
280
     0
  2
*D21
 10
2124.875630177948
 20
1187.856509152839
 30
0.0
 11
2136.175608650472
 21
1188.083179915225
 31
0.0
 70
   161
  1
88
 71
     5
 42
39.7261363701964
 73
     0
 74
     0
 75
     0
  3
线性标注
100
AcDbAlignedDimension
 13
2206.90784476005
 23
1163.430093487338
 33
0.0
 14
2167.189698468841
 24
1162.633371394257
 34
0.0
  0
DIMENSION
  5
DBD
102
{ACAD_XDICTIONARY
360
DCA
102
}
102
{ACAD_REACTORS
330
DD4
102
}
330
1F
100
AcDbEntity
  8
标注
100
AcDbDimension
280
     0
  2
*D22
 10
2623.375649524505
 20
903.0554585820045
 30
0.0
 11
2663.432100791792
 21
1067.238184535676
 31
0.0
 70
    34
  1
140%%D
 71
     5
 42
2.422223292202421
 73
     0
 74
     0
 75
     0
  3
线性标注
100
AcDb2LineAngularDimension
 13
2636.125402117174
 23
900.3512928920777
 33
0.0
 14
3088.015911887984
 24
973.2301576723322
 34
0.0
 15
2222.565253506255
 25
1154.047906007616
 35
0.0
 16
2717.812982900883
 26
1027.509999829321
 36
0.0
  0
ENDSEC
  0
SECTION
  2
OBJECTS
  0
DICTIONARY
  5
C
330
0
100
AcDbDictionary
281
     1
  3
ACAD_CIP_PREVIOUS_PRODUCT_INFO
350
F77
  3
ACAD_COLOR
350
6B
  3
ACAD_DETAILVIEWSTYLE
350
F70
  3
ACAD_GROUP
350
D
  3
ACAD_LAYOUT
350
1A
  3
ACAD_MATERIAL
350
6A
  3
ACAD_MLEADERSTYLE
350
F6B
  3
ACAD_MLINESTYLE
350
17
  3
ACAD_PLOTSETTINGS
350
19
  3
ACAD_PLOTSTYLENAME
350
E
  3
ACAD_SCALELIST
350
F59
  3
ACAD_SECTIONVIEWSTYLE
350
F6D
  3
ACAD_TABLESTYLE
350
7E
  3
ACAD_VISUALSTYLE
350
F40
  3
ACDB_RECOMPOSE_DATA
350
F96
  3
AcDbVariableDictionary
350
5E
  0
DICTIONARY
  5
1FE
330
2
100
AcDbDictionary
280
     1
281
     1
  3
ACAD_LAYERFILTERS
360
E17
  3
ACAD_LAYERSTATES
360
1FF
  3
ACLYDICTIONARY
360
E16
  0
DICTIONARY
  5
F78
330
10
100
AcDbDictionary
280
     1
281
     1
  3
ADSK_XREC_LAYER_RECONCILED
360
F79
  0
DICTIONARY
  5
1DC
330
1DB
100
AcDbDictionary
280
     1
281
     1
  3
ADSK_XREC_LAYER_RECONCILED
360
1DE
  0
DICTIONARY
  5
1E3
330
1E2
100
AcDbDictionary
280
     1
281
     1
  3
ADSK_XREC_LAYER_RECONCILED
360
1E5
  0
DICTIONARY
  5
1E7
330
1E6
100
AcDbDictionary
280
     1
281
     1
  3
ADSK_XREC_LAYER_RECONCILED
360
1E9
  0
DICTIONARY
  5
DCA
330
DBD
100
AcDbDictionary
280
     1
281
     1
  3
ACAD_DIMASSOC
360
DD4
  0
XRECORD
  5
F77
102
{ACAD_REACTORS
330
C
102
}
330
C
100
AcDbXrecord
280
     1
300
ACD
300
2017
300
ACD_F_S
  0
DICTIONARY
  5
6B
102
{ACAD_REACTORS
330
C
102
}
330
C
100
AcDbDictionary
281
     1
  0
DICTIONARY
  5
F70
102
{ACAD_REACTORS
330
C
102
}
330
C
100
AcDbDictionary
281
     1
  3
Metric50
350
F71
  0
DICTIONARY
  5
D
102
{ACAD_REACTORS
330
C
102
}
330
C
100
AcDbDictionary
281
     1
  0
DICTIONARY
  5
1A
102
{ACAD_REACTORS
330
C
102
}
330
C
100
AcDbDictionary
281
     1
  3
Model
350
22
  3
布局1
350
D3
  3
布局2
350
D7
1001
AcadStringInfo
1000
MIFCodePage
1070
     5
  0
DICTIONARY
  5
6A
102
{ACAD_REACTORS
330
C
102
}
330
C
100
AcDbDictionary
281
     1
  3
ByBlock
350
F38
  3
ByLayer
350
F30
  3
Global
350
1F5
  0
DICTIONARY
  5
F6B
102
{ACAD_REACTORS
330
C
102
}
330
C
100
AcDbDictionary
281
     1
  3
Standard
350
F6C
  0
DICTIONARY
  5
17
102
{ACAD_REACTORS
330
C
102
}
330
C
100
AcDbDictionary
281
     1
  3
Standard
350
18
  0
DICTIONARY
  5
19
102
{ACAD_REACTORS
330
C
102
}
330
C
100
AcDbDictionary
281
     1
  0
ACDBDICTIONARYWDFLT
  5
E
102
{ACAD_REACTORS
330
C
102
}
330
C
100
AcDbDictionary
281
     1
  3
Normal
350
F
100
AcDbDictionaryWithDefault
340
F
  0
DICTIONARY
  5
F59
102
{ACAD_REACTORS
330
C
102
}
330
C
100
AcDbDictionary
281
     1
  3
A0
350
F5A
  3
A1
350
F5B
  3
A2
350
F5C
  3
A3
350
F5D
  3
A4
350
F5E
  3
A5
350
F5F
  3
A6
350
F60
  3
A7
350
F61
  3
A8
350
F62
  3
A9
350
F63
  3
B0
350
F64
  3
B1
350
F65
  3
B2
350
F66
  3
B3
350
F67
  3
B4
350
F68
  3
B5
350
F69
  3
B6
350
F6A
  0
DICTIONARY
  5
F6D
102
{ACAD_REACTORS
330
C
102
}
330
C
100
AcDbDictionary
281
     1
  3
Metric50
350
F6F
  0
DICTIONARY
  5
7E
102
{ACAD_REACTORS
330
C
102
}
330
C
100
AcDbDictionary
281
     1
  3
Standard
350
7F
  0
DICTIONARY
  5
F40
102
{ACAD_REACTORS
330
C
102
}
330
C
100
AcDbDictionary
281
     1
  3
2dWireframe
350
F46
  3
Basic
350
F45
  3
Brighten
350
F4C
  3
ColorChange
350
F50
  3
Conceptual
350
F49
  3
Dim
350
F4B
  3
EdgeColorOff
350
F58
  3
Facepattern
350
F4F
  3
Flat
350
F41
  3
FlatWithEdges
350
F42
  3
Gouraud
350
F43
  3
GouraudWithEdges
350
F44
  3
Hidden
350
F48
  3
JitterOff
350
F56
  3
Linepattern
350
F4E
  3
OverhangOff
350
F57
  3
Realistic
350
F4A
  3
Shaded
350
F55
  3
Shaded with edges
350
F54
  3
Shades of Gray
350
F51
  3
Sketchy
350
F52
  3
Thicken
350
F4D
  3
Wireframe
350
F47
  3
X-Ray
350
F53
  0
XRECORD
  5
F96
102
{ACAD_REACTORS
330
C
102
}
330
C
100
AcDbXrecord
280
     1
 90
        1
330
7F
330
F6F
330
F71
  0
DICTIONARY
  5
5E
102
{ACAD_REACTORS
330
C
102
}
330
C
100
AcDbDictionary
281
     1
  3
CANNOSCALE
350
F8C
  3
CMLEADERSTYLE
350
F88
  3
CTABLESTYLE
350
84
  3
CVIEWDETAILSTYLE
350
F89
  3
CVIEWSECTIONSTYLE
350
F8A
  3
DIMASSOC
350
5F
  3
HIDETEXT
350
63
  3
LAYEREVAL
350
F8E
  3
LAYERNOTIFY
350
F8F
  3
LIGHTINGUNITS
350
F8D
  3
MSLTSCALE
350
F8B
  3
PROJECTNAME
350
E0D
  0
DICTIONARY
  5
E17
102
{ACAD_REACTORS
330
1FE
102
}
330
1FE
100
AcDbDictionary
281
     1
  0
DICTIONARY
  5
1FF
102
{ACAD_REACTORS
330
1FE
102
}
330
1FE
100
AcDbDictionary
281
     1
  0
DICTIONARY
  5
E16
102
{ACAD_REACTORS
330
1FE
102
}
330
1FE
100
AcDbDictionary
281
     1
1001
ACAD
1000
<All
  0
XRECORD
  5
F79
102
{ACAD_REACTORS
330
F78
102
}
330
F78
100
AcDbXrecord
280
     1
290
     1
  0
XRECORD
  5
1DE
102
{ACAD_REACTORS
330
1DC
102
}
330
1DC
100
AcDbXrecord
280
     1
290
     1
  0
XRECORD
  5
1E5
102
{ACAD_REACTORS
330
1E3
102
}
330
1E3
100
AcDbXrecord
280
     1
290
     1
  0
XRECORD
  5
1E9
102
{ACAD_REACTORS
330
1E7
102
}
330
1E7
100
AcDbXrecord
280
     1
290
     1
  0
DIMASSOC
  5
DD4
102
{ACAD_REACTORS
330
DCA
102
}
330
DCA
100
AcDbDimAssoc
330
DBD
 90
       15
 70
     0
 71
     0
  1
AcDbOsnapPointRef
 72
    13
331
6C5
 73
     2
 91
        0
 40
0.0
 10
0.0
 20
0.0
 30
2.000000000000000E+50
 75
     0
  1
AcDbOsnapPointRef
 72
     1
331
6C5
 73
     2
 91
        0
 40
0.9999999999999998
 10
0.0
 20
0.0
 30
2.000000000000000E+50
 75
     0
  1
AcDbOsnapPointRef
 72
    13
331
6C8
 73
     2
 91
        0
 40
0.0
 10
0.0
 20
0.0
 30
2.000000000000000E+50
 75
     0
  1
AcDbOsnapPointRef
 72
     1
331
6C8
 73
     2
 91
        0
 40
0.9999999999999998
 10
0.0
 20
0.0
 30
2.000000000000000E+50
 75
     0
  0
ACDBDETAILVIEWSTYLE
  5
F71
102
{ACAD_XDICTIONARY
360
F94
102
}
102
{ACAD_REACTORS
330
F70
102
}
330
F70
100
AcDbModelDocViewStyle
 70
     0
  3
Metric50
290
     0
100
AcDbDetailViewStyle
 70
     0
 71
     0
 90
        3
 71
     1
340
11
 62
   256
 40
5.0
340
0
 62
   256
 40
5.0
300

 40
0.0
280
     1
 71
     2
340
16
 90
       25
 62
   256
 71
     3
340
11
 62
   256
 40
5.0
 90
        0
 40
15.0
 90
        1
300
%<\AcVar ViewDetailId>% (%<\AcVar ViewScale \f "%sn">%)
 71
     4
340
16
 90
       25
 62
   256
340
16
 90
       25
 62
   256
280
     0
  0
LAYOUT
  5
22
102
{ACAD_REACTORS
330
1A
102
}
330
1A
100
AcDbPlotSettings
  1

  2
none_device
  4
ISO_A4_(210.00_x_297.00_MM)
  6

 40
7.5
 41
20.0
 42
7.5
 43
20.0
 44
210.0
 45
297.0
 46
11.54999923706054
 47
-13.65000009536743
 48
0.0
 49
0.0
140
0.0
141
0.0
142
1.0
143
8.704084754739808
 70
 11952
 72
     1
 73
     0
 74
     0
  7

 75
     0
147
0.1148885871608098
 76
     0
 77
     2
 78
   300
148
0.0
149
0.0
100
AcDbLayout
  1
Model
 70
     1
 71
     0
 10
0.0
 20
0.0
 11
12.0
 21
9.0
 12
0.0
 22
0.0
 32
0.0
 14
0.0
 24
0.0
 34
0.0
 15
0.0
 25
0.0
 35
0.0
146
0.0
 13
0.0
 23
0.0
 33
0.0
 16
1.0
 26
0.0
 36
0.0
 17
0.0
 27
1.0
 37
0.0
 76
     0
330
1F
331
F26
1001
ACAD_PSEXT
1000
None
1000
None
1000
Not applicable
1000
The layout will not be plotted unless a new plotter configuration name is selected.
1070
     0
  0
LAYOUT
  5
D3
102
{ACAD_REACTORS
330
1A
102
}
330
1A
100
AcDbPlotSettings
  1

  2
C:\Documents and Settings\basas\Application Data\Autodesk\AutoCAD 2005\R16.1\enu\plotters\Default Windows System Printer.pc3
  4

  6

 40
0.0
 41
0.0
 42
0.0
 43
0.0
 44
0.0
 45
0.0
 46
0.0
 47
0.0
 48
0.0
 49
0.0
140
0.0
141
0.0
142
1.0
143
1.0
 70
   688
 72
     0
 73
     0
 74
     5
  7

 75
    16
147
1.0
 76
     0
 77
     2
 78
   300
148
0.0
149
0.0
100
AcDbLayout
  1
布局1
 70
     1
 71
     1
 10
0.0
 20
0.0
 11
12.0
 21
9.0
 12
0.0
 22
0.0
 32
0.0
 14
0.0
 24
0.0
 34
0.0
 15
0.0
 25
0.0
 35
0.0
146
0.0
 13
0.0
 23
0.0
 33
0.0
 16
1.0
 26
0.0
 36
0.0
 17
0.0
 27
1.0
 37
0.0
 76
     0
330
D2
1001
AcadStringInfo
1000
MIFCodePage
1070
     5
  0
LAYOUT
  5
D7
102
{ACAD_REACTORS
330
1A
102
}
330
1A
100
AcDbPlotSettings
  1

  2
C:\Documents and Settings\basas\Application Data\Autodesk\AutoCAD 2005\R16.1\enu\plotters\Default Windows System Printer.pc3
  4

  6

 40
0.0
 41
0.0
 42
0.0
 43
0.0
 44
0.0
 45
0.0
 46
0.0
 47
0.0
 48
0.0
 49
0.0
140
0.0
141
0.0
142
1.0
143
1.0
 70
   688
 72
     0
 73
     0
 74
     5
  7

 75
    16
147
1.0
 76
     0
 77
     2
 78
   300
148
0.0
149
0.0
100
AcDbLayout
  1
布局2
 70
     1
 71
     2
 10
0.0
 20
0.0
 11
12.0
 21
9.0
 12
0.0
 22
0.0
 32
0.0
 14
0.0
 24
0.0
 34
0.0
 15
0.0
 25
0.0
 35
0.0
146
0.0
 13
0.0
 23
0.0
 33
0.0
 16
1.0
 26
0.0
 36
0.0
 17
0.0
 27
1.0
 37
0.0
 76
     0
330
D6
1001
AcadStringInfo
1000
MIFCodePage
1070
     5
  0
MATERIAL
  5
F38
102
{ACAD_XDICTIONARY
360
F39
102
}
102
{ACAD_REACTORS
330
6A
102
}
330
6A
100
AcDbMaterial
  1
ByBlock
 72
     0
 43
0.0008202099737533
 43
0.0
 43
0.0
 43
0.0
 43
0.0
 43
0.0008202099737533
 43
0.0
 43
0.0
 43
0.0
 43
0.0
 43
1.0
 43
0.0
 43
0.0
 43
0.0
 43
0.0
 43
1.0
 77
     0
 47
0.0008202099737533
 47
0.0
 47
0.0
 47
0.0
 47
0.0
 47
0.0008202099737533
 47
0.0
 47
0.0
 47
0.0
 47
0.0
 47
1.0
 47
0.0
 47
0.0
 47
0.0
 47
0.0
 47
1.0
171
     0
 49
0.0008202099737533
 49
0.0
 49
0.0
 49
0.0
 49
0.0
 49
0.0008202099737533
 49
0.0
 49
0.0
 49
0.0
 49
0.0
 49
1.0
 49
0.0
 49
0.0
 49
0.0
 49
0.0
 49
1.0
175
     0
142
0.0008202099737533
142
0.0
142
0.0
142
0.0
142
0.0
142
0.0008202099737533
142
0.0
142
0.0
142
0.0
142
0.0
142
1.0
142
0.0
142
0.0
142
0.0
142
0.0
142
1.0
179
     0
144
0.0008202099737533
144
0.0
144
0.0
144
0.0
144
0.0
144
0.0008202099737533
144
0.0
144
0.0
144
0.0
144
0.0
144
1.0
144
0.0
144
0.0
144
0.0
144
0.0
144
1.0
147
0.0008202099737533
147
0.0
147
0.0
147
0.0
147
0.0
147
0.0008202099737533
147
0.0
147
0.0
147
0.0
147
0.0
147
1.0
147
0.0
147
0.0
147
0.0
147
0.0
147
1.0
  0
MATERIAL
  5
F30
102
{ACAD_XDICTIONARY
360
F31
102
}
102
{ACAD_REACTORS
330
6A
102
}
330
6A
100
AcDbMaterial
  1
ByLayer
 72
     0
 43
0.0008202099737533
 43
0.0
 43
0.0
 43
0.0
 43
0.0
 43
0.0008202099737533
 43
0.0
 43
0.0
 43
0.0
 43
0.0
 43
1.0
 43
0.0
 43
0.0
 43
0.0
 43
0.0
 43
1.0
 77
     0
 47
0.0008202099737533
 47
0.0
 47
0.0
 47
0.0
 47
0.0
 47
0.0008202099737533
 47
0.0
 47
0.0
 47
0.0
 47
0.0
 47
1.0
 47
0.0
 47
0.0
 47
0.0
 47
0.0
 47
1.0
171
     0
 49
0.0008202099737533
 49
0.0
 49
0.0
 49
0.0
 49
0.0
 49
0.0008202099737533
 49
0.0
 49
0.0
 49
0.0
 49
0.0
 49
1.0
 49
0.0
 49
0.0
 49
0.0
 49
0.0
 49
1.0
175
     0
142
0.0008202099737533
142
0.0
142
0.0
142
0.0
142
0.0
142
0.0008202099737533
142
0.0
142
0.0
142
0.0
142
0.0
142
1.0
142
0.0
142
0.0
142
0.0
142
0.0
142
1.0
179
     0
144
0.0008202099737533
144
0.0
144
0.0
144
0.0
144
0.0
144
0.0008202099737533
144
0.0
144
0.0
144
0.0
144
0.0
144
1.0
144
0.0
144
0.0
144
0.0
144
0.0
144
1.0
147
0.0008202099737533
147
0.0
147
0.0
147
0.0
147
0.0
147
0.0008202099737533
147
0.0
147
0.0
147
0.0
147
0.0
147
1.0
147
0.0
147
0.0
147
0.0
147
0.0
147
1.0
  0
MATERIAL
  5
1F5
102
{ACAD_XDICTIONARY
360
1F6
102
}
102
{ACAD_REACTORS
330
6A
102
}
330
6A
100
AcDbMaterial
  1
Global
 72
     0
 43
0.0008202099737533
 43
0.0
 43
0.0
 43
0.0
 43
0.0
 43
0.0008202099737533
 43
0.0
 43
0.0
 43
0.0
 43
0.0
 43
1.0
 43
0.0
 43
0.0
 43
0.0
 43
0.0
 43
1.0
 77
     0
 47
0.0008202099737533
 47
0.0
 47
0.0
 47
0.0
 47
0.0
 47
0.0008202099737533
 47
0.0
 47
0.0
 47
0.0
 47
0.0
 47
1.0
 47
0.0
 47
0.0
 47
0.0
 47
0.0
 47
1.0
171
     0
 49
0.0008202099737533
 49
0.0
 49
0.0
 49
0.0
 49
0.0
 49
0.0008202099737533
 49
0.0
 49
0.0
 49
0.0
 49
0.0
 49
1.0
 49
0.0
 49
0.0
 49
0.0
 49
0.0
 49
1.0
175
     0
142
0.0008202099737533
142
0.0
142
0.0
142
0.0
142
0.0
142
0.0008202099737533
142
0.0
142
0.0
142
0.0
142
0.0
142
1.0
142
0.0
142
0.0
142
0.0
142
0.0
142
1.0
179
     0
144
0.0008202099737533
144
0.0
144
0.0
144
0.0
144
0.0
144
0.0008202099737533
144
0.0
144
0.0
144
0.0
144
0.0
144
1.0
144
0.0
144
0.0
144
0.0
144
0.0
144
1.0
147
0.0008202099737533
147
0.0
147
0.0
147
0.0
147
0.0
147
0.0008202099737533
147
0.0
147
0.0
147
0.0
147
0.0
147
1.0
147
0.0
147
0.0
147
0.0
147
0.0
147
1.0
  0
MLEADERSTYLE
  5
F6C
102
{ACAD_REACTORS
330
F6B
102
}
330
F6B
100
AcDbMLeaderStyle
179
     2
170
     2
171
     1
172
     0
 90
        2
 40
0.0
 41
0.0
173
     1
 91
-1056964608
340
14
 92
       -2
290
     1
 42
2.0
291
     1
 43
0.36
  3
Standard
 44
4.0
300

342
11
174
     1
178
     6
175
     1
176
     0
 93
-1056964608
 45
4.0
292
     0
297
     0
 46
4.0
 94
-1056964608
 47
1.0
 49
1.0
140
1.0
293
     1
141
0.0
294
     1
177
     0
142
1.0
295
     1
296
     0
143
0.125
271
     0
272
     9
273
     9
298
     1
  0
MLINESTYLE
  5
18
102
{ACAD_REACTORS
330
17
102
}
330
17
100
AcDbMlineStyle
  2
STANDARD
 70
     0
  3

 62
   256
 51
90.0
 52
90.0
 71
     2
 49
0.5
 62
   256
  6
BYLAYER
 49
-0.5
 62
   256
  6
BYLAYER
  0
ACDBPLACEHOLDER
  5
F
102
{ACAD_REACTORS
330
E
102
}
330
E
  0
SCALE
  5
F5A
102
{ACAD_REACTORS
330
F59
102
}
330
F59
100
AcDbScale
 70
     0
300
1:1
140
1.0
141
1.0
290
     1
  0
SCALE
  5
F5B
102
{ACAD_REACTORS
330
F59
102
}
330
F59
100
AcDbScale
 70
     0
300
1:2
140
1.0
141
2.0
290
     0
  0
SCALE
  5
F5C
102
{ACAD_REACTORS
330
F59
102
}
330
F59
100
AcDbScale
 70
     0
300
1:4
140
1.0
141
4.0
290
     0
  0
SCALE
  5
F5D
102
{ACAD_REACTORS
330
F59
102
}
330
F59
100
AcDbScale
 70
     0
300
1:5
140
1.0
141
5.0
290
     0
  0
SCALE
  5
F5E
102
{ACAD_REACTORS
330
F59
102
}
330
F59
100
AcDbScale
 70
     0
300
1:8
140
1.0
141
8.0
290
     0
  0
SCALE
  5
F5F
102
{ACAD_REACTORS
330
F59
102
}
330
F59
100
AcDbScale
 70
     0
300
1:10
140
1.0
141
10.0
290
     0
  0
SCALE
  5
F60
102
{ACAD_REACTORS
330
F59
102
}
330
F59
100
AcDbScale
 70
     0
300
1:16
140
1.0
141
16.0
290
     0
  0
SCALE
  5
F61
102
{ACAD_REACTORS
330
F59
102
}
330
F59
100
AcDbScale
 70
     0
300
1:20
140
1.0
141
20.0
290
     0
  0
SCALE
  5
F62
102
{ACAD_REACTORS
330
F59
102
}
330
F59
100
AcDbScale
 70
     0
300
1:30
140
1.0
141
30.0
290
     0
  0
SCALE
  5
F63
102
{ACAD_REACTORS
330
F59
102
}
330
F59
100
AcDbScale
 70
     0
300
1:40
140
1.0
141
40.0
290
     0
  0
SCALE
  5
F64
102
{ACAD_REACTORS
330
F59
102
}
330
F59
100
AcDbScale
 70
     0
300
1:50
140
1.0
141
50.0
290
     0
  0
SCALE
  5
F65
102
{ACAD_REACTORS
330
F59
102
}
330
F59
100
AcDbScale
 70
     0
300
1:100
140
1.0
141
100.0
290
     0
  0
SCALE
  5
F66
102
{ACAD_REACTORS
330
F59
102
}
330
F59
100
AcDbScale
 70
     0
300
2:1
140
2.0
141
1.0
290
     0
  0
SCALE
  5
F67
102
{ACAD_REACTORS
330
F59
102
}
330
F59
100
AcDbScale
 70
     0
300
4:1
140
4.0
141
1.0
290
     0
  0
SCALE
  5
F68
102
{ACAD_REACTORS
330
F59
102
}
330
F59
100
AcDbScale
 70
     0
300
8:1
140
8.0
141
1.0
290
     0
  0
SCALE
  5
F69
102
{ACAD_REACTORS
330
F59
102
}
330
F59
100
AcDbScale
 70
     0
300
10:1
140
10.0
141
1.0
290
     0
  0
SCALE
  5
F6A
102
{ACAD_REACTORS
330
F59
102
}
330
F59
100
AcDbScale
 70
     0
300
100:1
140
100.0
141
1.0
290
     0
  0
ACDBSECTIONVIEWSTYLE
  5
F6F
102
{ACAD_XDICTIONARY
360
F92
102
}
102
{ACAD_REACTORS
330
F6D
102
}
330
F6D
100
AcDbModelDocViewStyle
 70
     0
  3
Metric50
290
     0
100
AcDbSectionViewStyle
 70
     0
 71
     0
 90
      102
 71
     1
340
11
 62
   256
 40
5.0
340
0
340
0
 62
   256
 40
5.0
300
I, O, Q, S, X, Z
 40
10.0
 90
        0
 40
2.5
 90
        0
 71
     2
340
16
 90
       25
 62
   256
340
16
 90
       50
 62
   256
 40
5.0
 40
2.5
 40
5.0
 71
     3
340
11
 62
   256
 40
5.0
 90
        0
 40
15.0
 90
        1
300
%<\AcVar ViewSectionStartId>%-%<\AcVar ViewSectionEndId>% (%<\AcVar ViewScale \f "%sn">%)
 71
     4
 62
   256
 62
   257
300
ANSI31
 40
1.0
 90
        0
290
     0
290
     0
 90
        6
 40
0.0
 40
1.570796326794896
 40
0.2617993877991494
 40
1.308996938995747
 40
-0.2617993877991494
 40
1.832595714594046
  0
TABLESTYLE
  5
7F
102
{ACAD_XDICTIONARY
360
F90
102
}
102
{ACAD_REACTORS
330
7E
102
}
330
7E
100
AcDbTableStyle
280
     0
  3
Standard
 70
     0
 71
     0
 40
1.5
 41
1.5
280
     0
281
     0
  7
Standard
140
4.5
170
     2
 62
     0
 63
     7
283
     0
 90
        4
 91
        0
  1

274
    -2
284
     1
 64
     0
275
    -2
285
     1
 65
     0
276
    -2
286
     1
 66
     0
277
    -2
287
     1
 67
     0
278
    -2
288
     1
 68
     0
279
    -2
289
     1
 69
     0
  7
Standard
140
6.0
170
     5
 62
     0
 63
     7
283
     0
 90
        4
 91
        0
  1

274
    -2
284
     1
 64
     0
275
    -2
285
     1
 65
     0
276
    -2
286
     1
 66
     0
277
    -2
287
     1
 67
     0
278
    -2
288
     1
 68
     0
279
    -2
289
     1
 69
     0
  7
Standard
140
4.5
170
     5
 62
     0
 63
     7
283
     0
 90
        4
 91
        0
  1

274
    -2
284
     1
 64
     0
275
    -2
285
     1
 65
     0
276
    -2
286
     1
 66
     0
277
    -2
287
     1
 67
     0
278
    -2
288
     1
 68
     0
279
    -2
289
     1
 69
     0
  0
VISUALSTYLE
  5
F46
102
{ACAD_REACTORS
330
F40
102
}
330
F40
100
AcDbVisualStyle
  2
2dWireframe
 70
     4
177
     3
291
     0
 70
    58
 90
        0
176
     1
 90
        2
176
     1
 90
        0
176
     1
 90
        0
176
     1
 40
0.6
176
     1
 40
30.0
176
     1
 62
     7
420
 16777215
176
     1
 90
        1
176
     1
 90
        4
176
     1
 62
     7
176
     1
 62
   257
176
     1
 90
        1
176
     1
 90
        1
176
     1
 40
1.0
176
     1
 90
        0
176
     1
 62
   257
176
     1
 40
1.0
176
     1
 90
        1
176
     1
 90
        6
176
     1
 90
        2
176
     1
 62
     7
176
     1
 90
        5
176
     1
 90
        0
176
     1
 90
        0
176
     1
290
     0
176
     1
 90
        1
176
     1
 40
0.0
176
     1
 90
        0
176
     1
290
     1
176
     1
290
     1
176
     1
290
     0
176
     1
290
     0
176
     1
290
     0
176
     1
290
     0
176
     1
290
     0
176
     1
290
     0
176
     1
290
     0
176
     1
 90
       50
176
     1
 40
0.0
176
     1
 40
1.0
176
     1
 90
        0
176
     1
 62
    18
420
        0
176
     1
 90
       50
176
     1
 90
        3
176
     1
 62
     5
420
      255
176
     1
290
     0
176
     1
 90
       50
176
     1
 90
       50
176
     1
 90
       50
176
     1
290
     0
176
     1
 90
       50
176
     1
 62
   256
176
     0
 40
1.0
176
     0
 90
        2
176
     1
  1
strokes_ogs.tif
176
     1
290
     0
176
     1
 40
1.0
176
     1
 40
1.0
176
     1
  0
VISUALSTYLE
  5
F45
102
{ACAD_REACTORS
330
F40
102
}
330
F40
100
AcDbVisualStyle
  2
Basic
 70
     7
177
     3
291
     1
 70
    58
 90
        1
176
     1
 90
        0
176
     1
 90
        1
176
     1
 90
        0
176
     1
 40
0.6
176
     1
 40
30.0
176
     1
 62
     7
420
 16777215
176
     1
 90
        0
176
     1
 90
        4
176
     1
 62
     7
176
     1
 62
   257
176
     1
 90
        1
176
     1
 90
        1
176
     1
 40
1.0
176
     1
 90
        8
176
     1
 62
     7
176
     1
 40
1.0
176
     1
 90
        1
176
     1
 90
        6
176
     1
 90
        2
176
     1
 62
     7
176
     1
 90
        5
176
     1
 90
        0
176
     1
 90
        0
176
     1
290
     0
176
     1
 90
        1
176
     1
 40
0.0
176
     1
 90
        0
176
     1
290
     0
176
     1
290
     1
176
     1
290
     1
176
     1
290
     0
176
     1
290
     0
176
     1
290
     0
176
     1
290
     0
176
     1
290
     0
176
     1
290
     0
176
     1
 90
       50
176
     1
 40
0.0
176
     1
 40
1.0
176
     1
 90
        0
176
     1
 62
    18
420
        0
176
     1
 90
       50
176
     1
 90
        3
176
     1
 62
     5
420
      255
176
     1
290
     0
176
     1
 90
       50
176
     1
 90
       50
176
     1
 90
       50
176
     1
290
     0
176
     1
 90
       50
176
     1
 62
   256
176
     0
 40
1.0
176
     0
 90
        2
176
     1
  1
strokes_ogs.tif
176
     1
290
     0
176
     1
 40
1.0
176
     1
 40
1.0
176
     1
  0
VISUALSTYLE
  5
F4C
102
{ACAD_REACTORS
330
F40
102
}
330
F40
100
AcDbVisualStyle
  2
Brighten
 70
    12
177
     3
291
     1
 70
    58
 90
        2
176
     1
 90
        2
176
     1
 90
        0
176
     1
 90
        0
176
     1
 40
0.6
176
     1
 40
30.0
176
     1
 62
     7
420
 16777215
176
     1
 90
        1
176
     1
 90
        4
176
     1
 62
     7
176
     1
 62
   257
176
     1
 90
        1
176
     1
 90
        1
176
     1
 40
1.0
176
     1
 90
        8
176
     1
 62
     7
176
     1
 40
1.0
176
     1
 90
        1
176
     1
 90
        6
176
     1
 90
        2
176
     1
 62
     7
176
     1
 90
        5
176
     1
 90
        0
176
     1
 90
        0
176
     1
290
     0
176
     1
 90
        1
176
     1
 40
50.0
176
     1
 90
        0
176
     1
290
     0
176
     1
290
     1
176
     1
290
     1
176
     1
290
     0
176
     1
290
     0
176
     1
290
     0
176
     1
290
     0
176
     1
290
     0
176
     1
290
     0
176
     1
 90
       50
176
     1
 40
0.0
176
     1
 40
1.0
176
     1
 90
        0
176
     1
 62
    18
420
        0
176
     1
 90
       50
176
     1
 90
        3
176
     1
 62
     5
420
      255
176
     1
290
     0
176
     1
 90
       50
176
     1
 90
       50
176
     1
 90
       50
176
     1
290
     0
176
     1
 90
       50
176
     1
 62
   256
176
     0
 40
1.0
176
     0
 90
        2
176
     1
  1
strokes_ogs.tif
176
     1
290
     0
176
     1
 40
1.0
176
     1
 40
1.0
176
     1
  0
VISUALSTYLE
  5
F50
102
{ACAD_REACTORS
330
F40
102
}
330
F40
100
AcDbVisualStyle
  2
ColorChange
 70
    16
177
     3
291
     1
 70
    58
 90
        2
176
     1
 90
        2
176
     1
 90
        3
176
     1
 90
        0
176
     1
 40
0.6
176
     1
 40
30.0
176
     1
 62
     8
420
  8421504
176
     1
 90
        1
176
     1
 90
        4
176
     1
 62
     7
176
     1
 62
   257
176
     1
 90
        1
176
     1
 90
        1
176
     1
 40
1.0
176
     1
 90
        8
176
     1
 62
     8
420
  8421504
176
     1
 40
1.0
176
     1
 90
        1
176
     1
 90
        6
176
     1
 90
        2
176
     1
 62
     7
176
     1
 90
        5
176
     1
 90
        0
176
     1
 90
        0
176
     1
290
     0
176
     1
 90
        1
176
     1
 40
0.0
176
     1
 90
        0
176
     1
290
     0
176
     1
290
     1
176
     1
290
     1
176
     1
290
     0
176
     1
290
     0
176
     1
290
     0
176
     1
290
     0
176
     1
290
     0
176
     1
290
     0
176
     1
 90
       50
176
     1
 40
0.0
176
     1
 40
1.0
176
     1
 90
        0
176
     1
 62
    18
420
        0
176
     1
 90
       50
176
     1
 90
        3
176
     1
 62
     5
420
      255
176
     1
290
     0
176
     1
 90
       50
176
     1
 90
       50
176
     1
 90
       50
176
     1
290
     0
176
     1
 90
       50
176
     1
 62
   256
176
     0
 40
1.0
176
     0
 90
        2
176
     1
  1
strokes_ogs.tif
176
     1
290
     0
176
     1
 40
1.0
176
     1
 40
1.0
176
     1
  0
VISUALSTYLE
  5
F49
102
{ACAD_REACTORS
330
F40
102
}
330
F40
100
AcDbVisualStyle
  2
Conceptual
 70
     9
177
     3
291
     0
 70
    58
 90
        3
176
     1
 90
        2
176
     1
 90
        0
176
     1
 90
        0
176
     1
 40
0.6
176
     1
 40
30.0
176
     1
 62
     7
420
 16777215
176
     1
 90
        2
176
     1
 90
        2
176
     1
 62
     7
176
     1
 62
   257
176
     1
 90
        1
176
     1
 90
        1
176
     1
 40
179.0
176
     1
 90
        8
176
     1
 62
     7
176
     1
 40
1.0
176
     1
 90
        1
176
     1
 90
        6
176
     1
 90
        2
176
     1
 62
     7
176
     1
 90
        3
176
     1
 90
        0
176
     1
 90
        0
176
     1
290
     0
176
     1
 90
        1
176
     1
 40
0.0
176
     1
 90
        0
176
     1
290
     0
176
     1
290
     1
176
     1
290
     1
176
     1
290
     0
176
     1
290
     0
176
     1
290
     0
176
     1
290
     0
176
     1
290
     0
176
     1
290
     0
176
     1
 90
       50
176
     1
 40
0.0
176
     1
 40
1.0
176
     1
 90
        0
176
     1
 62
    18
420
        0
176
     1
 90
       50
176
     1
 90
        3
176
     1
 62
     5
420
      255
176
     1
290
     0
176
     1
 90
       50
176
     1
 90
       50
176
     1
 90
       50
176
     1
290
     0
176
     1
 90
       50
176
     1
 62
   256
176
     0
 40
1.0
176
     0
 90
        2
176
     1
  1
strokes_ogs.tif
176
     1
290
     0
176
     1
 40
1.0
176
     1
 40
1.0
176
     1
  0
VISUALSTYLE
  5
F4B
102
{ACAD_REACTORS
330
F40
102
}
330
F40
100
AcDbVisualStyle
  2
Dim
 70
    11
177
     3
291
     1
 70
    58
 90
        2
176
     1
 90
        2
176
     1
 90
        0
176
     1
 90
        0
176
     1
 40
0.6
176
     1
 40
30.0
176
     1
 62
     7
420
 16777215
176
     1
 90
        1
176
     1
 90
        4
176
     1
 62
     7
176
     1
 62
   257
176
     1
 90
        1
176
     1
 90
        1
176
     1
 40
1.0
176
     1
 90
        8
176
     1
 62
     7
176
     1
 40
1.0
176
     1
 90
        1
176
     1
 90
        6
176
     1
 90
        2
176
     1
 62
     7
176
     1
 90
        5
176
     1
 90
        0
176
     1
 90
        0
176
     1
290
     0
176
     1
 90
        1
176
     1
 40
-50.0
176
     1
 90
        0
176
     1
290
     0
176
     1
290
     1
176
     1
290
     1
176
     1
290
     0
176
     1
290
     0
176
     1
290
     0
176
     1
290
     0
176
     1
290
     0
176
     1
290
     0
176
     1
 90
       50
176
     1
 40
0.0
176
     1
 40
1.0
176
     1
 90
        0
176
     1
 62
    18
420
        0
176
     1
 90
       50
176
     1
 90
        3
176
     1
 62
     5
420
      255
176
     1
290
     0
176
     1
 90
       50
176
     1
 90
       50
176
     1
 90
       50
176
     1
290
     0
176
     1
 90
       50
176
     1
 62
   256
176
     0
 40
1.0
176
     0
 90
        2
176
     1
  1
strokes_ogs.tif
176
     1
290
     0
176
     1
 40
1.0
176
     1
 40
1.0
176
     1
  0
VISUALSTYLE
  5
F58
102
{ACAD_REACTORS
330
F40
102
}
330
F40
100
AcDbVisualStyle
  2
EdgeColorOff
 70
    22
177
     3
291
     1
 70
    58
 90
        2
176
     0
 90
        2
176
     0
 90
        0
176
     0
 90
        0
176
     0
 40
0.6
176
     0
 40
30.0
176
     0
 62
     7
420
 16777215
176
     0
 90
        1
176
     0
 90
        4
176
     0
 62
     7
176
     0
 62
   257
176
     0
 90
        1
176
     0
 90
        1
176
     0
 40
1.0
176
     0
 90
        8
176
     2
 62
     7
176
     0
 40
1.0
176
     0
 90
        1
176
     0
 90
        6
176
     0
 90
        2
176
     0
 62
     7
176
     0
 90
        5
176
     0
 90
        0
176
     0
 90
        0
176
     0
290
     0
176
     0
 90
        1
176
     0
 40
0.0
176
     0
 90
        0
176
     0
290
     0
176
     0
290
     1
176
     0
290
     1
176
     0
290
     0
176
     0
290
     0
176
     0
290
     0
176
     0
290
     0
176
     0
290
     0
176
     0
290
     0
176
     0
 90
       50
176
     0
 40
0.0
176
     0
 40
1.0
176
     0
 90
        0
176
     0
 62
    18
420
        0
176
     0
 90
       50
176
     0
 90
        3
176
     0
 62
     5
420
      255
176
     0
290
     0
176
     0
 90
       50
176
     0
 90
       50
176
     0
 90
       50
176
     0
290
     0
176
     0
 90
       50
176
     0
 62
   256
176
     0
 40
1.0
176
     0
 90
        2
176
     0
  1
strokes_ogs.tif
176
     0
290
     0
176
     0
 40
1.0
176
     0
 40
1.0
176
     0
  0
VISUALSTYLE
  5
F4F
102
{ACAD_REACTORS
330
F40
102
}
330
F40
100
AcDbVisualStyle
  2
Facepattern
 70
    15
177
     3
291
     1
 70
    58
 90
        2
176
     1
 90
        2
176
     1
 90
        0
176
     1
 90
        0
176
     1
 40
0.6
176
     1
 40
30.0
176
     1
 62
     7
420
 16777215
176
     1
 90
        1
176
     1
 90
        4
176
     1
 62
     7
176
     1
 62
   257
176
     1
 90
        1
176
     1
 90
        1
176
     1
 40
1.0
176
     1
 90
        8
176
     1
 62
     7
176
     1
 40
1.0
176
     1
 90
        1
176
     1
 90
        6
176
     1
 90
        2
176
     1
 62
     7
176
     1
 90
        5
176
     1
 90
        0
176
     1
 90
        0
176
     1
290
     0
176
     1
 90
        1
176
     1
 40
0.0
176
     1
 90
        0
176
     1
290
     0
176
     1
290
     1
176
     1
290
     1
176
     1
290
     0
176
     1
290
     0
176
     1
290
     0
176
     1
290
     0
176
     1
290
     0
176
     1
290
     0
176
     1
 90
       50
176
     1
 40
0.0
176
     1
 40
1.0
176
     1
 90
        0
176
     1
 62
    18
420
        0
176
     1
 90
       50
176
     1
 90
        3
176
     1
 62
     5
420
      255
176
     1
290
     0
176
     1
 90
       50
176
     1
 90
       50
176
     1
 90
       50
176
     1
290
     0
176
     1
 90
       50
176
     1
 62
   256
176
     0
 40
1.0
176
     0
 90
        2
176
     1
  1
strokes_ogs.tif
176
     1
290
     0
176
     1
 40
1.0
176
     1
 40
1.0
176
     1
  0
VISUALSTYLE
  5
F41
102
{ACAD_REACTORS
330
F40
102
}
330
F40
100
AcDbVisualStyle
  2
Flat
 70
     0
177
     3
291
     1
 70
    58
 90
        2
176
     1
 90
        1
176
     1
 90
        1
176
     1
 90
        2
176
     1
 40
0.6
176
     1
 40
30.0
176
     1
 62
     7
420
 16777215
176
     1
 90
        0
176
     1
 90
        0
176
     1
 62
     7
176
     1
 62
   257
176
     1
 90
        1
176
     1
 90
        1
176
     1
 40
1.0
176
     1
 90
        8
176
     1
 62
     7
176
     1
 40
1.0
176
     1
 90
        1
176
     1
 90
        6
176
     1
 90
        2
176
     1
 62
     7
176
     1
 90
        5
176
     1
 90
        0
176
     1
 90
        0
176
     1
290
     0
176
     1
 90
       13
176
     1
 40
0.0
176
     1
 90
        0
176
     1
290
     0
176
     1
290
     1
176
     1
290
     1
176
     1
290
     0
176
     1
290
     0
176
     1
290
     0
176
     1
290
     0
176
     1
290
     0
176
     1
290
     0
176
     1
 90
       50
176
     1
 40
0.0
176
     1
 40
1.0
176
     1
 90
        0
176
     1
 62
    18
420
        0
176
     1
 90
       50
176
     1
 90
        3
176
     1
 62
     5
420
      255
176
     1
290
     0
176
     1
 90
       50
176
     1
 90
       50
176
     1
 90
       50
176
     1
290
     0
176
     1
 90
       50
176
     1
 62
   256
176
     0
 40
1.0
176
     0
 90
        2
176
     1
  1
strokes_ogs.tif
176
     1
290
     0
176
     1
 40
1.0
176
     1
 40
1.0
176
     1
  0
VISUALSTYLE
  5
F42
102
{ACAD_REACTORS
330
F40
102
}
330
F40
100
AcDbVisualStyle
  2
FlatWithEdges
 70
     1
177
     3
291
     1
 70
    58
 90
        2
176
     1
 90
        1
176
     1
 90
        1
176
     1
 90
        2
176
     1
 40
0.6
176
     1
 40
30.0
176
     1
 62
     7
420
 16777215
176
     1
 90
        1
176
     1
 90
        0
176
     1
 62
     7
176
     1
 62
   257
176
     1
 90
        1
176
     1
 90
        1
176
     1
 40
1.0
176
     1
 90
        0
176
     1
 62
   257
176
     1
 40
1.0
176
     1
 90
        1
176
     1
 90
        6
176
     1
 90
        2
176
     1
 62
     7
176
     1
 90
        5
176
     1
 90
        0
176
     1
 90
        0
176
     1
290
     0
176
     1
 90
       13
176
     1
 40
0.0
176
     1
 90
        0
176
     1
290
     0
176
     1
290
     1
176
     1
290
     1
176
     1
290
     0
176
     1
290
     0
176
     1
290
     0
176
     1
290
     0
176
     1
290
     0
176
     1
290
     0
176
     1
 90
       50
176
     1
 40
0.0
176
     1
 40
1.0
176
     1
 90
        0
176
     1
 62
    18
420
        0
176
     1
 90
       50
176
     1
 90
        3
176
     1
 62
     5
420
      255
176
     1
290
     0
176
     1
 90
       50
176
     1
 90
       50
176
     1
 90
       50
176
     1
290
     0
176
     1
 90
       50
176
     1
 62
   256
176
     0
 40
1.0
176
     0
 90
        2
176
     1
  1
strokes_ogs.tif
176
     1
290
     0
176
     1
 40
1.0
176
     1
 40
1.0
176
     1
  0
VISUALSTYLE
  5
F43
102
{ACAD_REACTORS
330
F40
102
}
330
F40
100
AcDbVisualStyle
  2
Gouraud
 70
     2
177
     3
291
     1
 70
    58
 90
        2
176
     1
 90
        2
176
     1
 90
        1
176
     1
 90
        2
176
     1
 40
0.6
176
     1
 40
30.0
176
     1
 62
     7
420
 16777215
176
     1
 90
        0
176
     1
 90
        0
176
     1
 62
     7
176
     1
 62
   257
176
     1
 90
        1
176
     1
 90
        1
176
     1
 40
1.0
176
     1
 90
        0
176
     1
 62
     7
176
     1
 40
1.0
176
     1
 90
        1
176
     1
 90
        6
176
     1
 90
        2
176
     1
 62
     7
176
     1
 90
        5
176
     1
 90
        0
176
     1
 90
        0
176
     1
290
     0
176
     1
 90
       13
176
     1
 40
0.0
176
     1
 90
        0
176
     1
290
     0
176
     1
290
     1
176
     1
290
     1
176
     1
290
     0
176
     1
290
     0
176
     1
290
     0
176
     1
290
     0
176
     1
290
     0
176
     1
290
     0
176
     1
 90
       50
176
     1
 40
0.0
176
     1
 40
1.0
176
     1
 90
        0
176
     1
 62
    18
420
        0
176
     1
 90
       50
176
     1
 90
        3
176
     1
 62
     5
420
      255
176
     1
290
     0
176
     1
 90
       50
176
     1
 90
       50
176
     1
 90
       50
176
     1
290
     0
176
     1
 90
       50
176
     1
 62
   256
176
     0
 40
1.0
176
     0
 90
        2
176
     1
  1
strokes_ogs.tif
176
     1
290
     0
176
     1
 40
1.0
176
     1
 40
1.0
176
     1
  0
VISUALSTYLE
  5
F44
102
{ACAD_REACTORS
330
F40
102
}
330
F40
100
AcDbVisualStyle
  2
GouraudWithEdges
 70
     3
177
     3
291
     1
 70
    58
 90
        2
176
     1
 90
        2
176
     1
 90
        1
176
     1
 90
        2
176
     1
 40
0.6
176
     1
 40
30.0
176
     1
 62
     7
420
 16777215
176
     1
 90
        1
176
     1
 90
        0
176
     1
 62
     7
176
     1
 62
   257
176
     1
 90
        1
176
     1
 90
        1
176
     1
 40
1.0
176
     1
 90
        0
176
     1
 62
   257
176
     1
 40
1.0
176
     1
 90
        1
176
     1
 90
        6
176
     1
 90
        2
176
     1
 62
     7
176
     1
 90
        5
176
     1
 90
        0
176
     1
 90
        0
176
     1
290
     0
176
     1
 90
       13
176
     1
 40
0.0
176
     1
 90
        0
176
     1
290
     0
176
     1
290
     1
176
     1
290
     1
176
     1
290
     0
176
     1
290
     0
176
     1
290
     0
176
     1
290
     0
176
     1
290
     0
176
     1
290
     0
176
     1
 90
       50
176
     1
 40
0.0
176
     1
 40
1.0
176
     1
 90
        0
176
     1
 62
    18
420
        0
176
     1
 90
       50
176
     1
 90
        3
176
     1
 62
     5
420
      255
176
     1
290
     0
176
     1
 90
       50
176
     1
 90
       50
176
     1
 90
       50
176
     1
290
     0
176
     1
 90
       50
176
     1
 62
   256
176
     0
 40
1.0
176
     0
 90
        2
176
     1
  1
strokes_ogs.tif
176
     1
290
     0
176
     1
 40
1.0
176
     1
 40
1.0
176
     1
  0
VISUALSTYLE
  5
F48
102
{ACAD_REACTORS
330
F40
102
}
330
F40
100
AcDbVisualStyle
  2
Hidden
 70
     6
177
     3
291
     0
 70
    58
 90
        1
176
     1
 90
        2
176
     1
 90
        2
176
     1
 90
        0
176
     1
 40
0.6
176
     1
 40
30.0
176
     1
 62
     7
420
 16777215
176
     1
 90
        2
176
     1
 90
        2
176
     1
 62
     7
176
     1
 62
   257
176
     1
 90
        2
176
     1
 90
        1
176
     1
 40
40.0
176
     1
 90
        0
176
     1
 62
   257
176
     1
 40
1.0
176
     1
 90
        1
176
     1
 90
        6
176
     1
 90
        2
176
     1
 62
     7
176
     1
 90
        3
176
     1
 90
        0
176
     1
 90
        0
176
     1
290
     0
176
     1
 90
        1
176
     1
 40
0.0
176
     1
 90
        0
176
     1
290
     0
176
     1
290
     1
176
     1
290
     1
176
     1
290
     0
176
     1
290
     0
176
     1
290
     0
176
     1
290
     0
176
     1
290
     0
176
     1
290
     0
176
     1
 90
       50
176
     1
 40
0.0
176
     1
 40
1.0
176
     1
 90
        0
176
     1
 62
    18
420
        0
176
     1
 90
       50
176
     1
 90
        3
176
     1
 62
     5
420
      255
176
     1
290
     0
176
     1
 90
       50
176
     1
 90
       50
176
     1
 90
       50
176
     1
290
     0
176
     1
 90
       50
176
     1
 62
   256
176
     0
 40
1.0
176
     0
 90
        2
176
     1
  1
strokes_ogs.tif
176
     1
290
     0
176
     1
 40
1.0
176
     1
 40
1.0
176
     1
  0
VISUALSTYLE
  5
F56
102
{ACAD_REACTORS
330
F40
102
}
330
F40
100
AcDbVisualStyle
  2
JitterOff
 70
    20
177
     3
291
     1
 70
    58
 90
        2
176
     0
 90
        2
176
     0
 90
        0
176
     0
 90
        0
176
     0
 40
0.6
176
     0
 40
30.0
176
     0
 62
     7
420
 16777215
176
     0
 90
        1
176
     0
 90
        4
176
     0
 62
     7
176
     0
 62
   257
176
     0
 90
        1
176
     0
 90
        1
176
     0
 40
1.0
176
     0
 90
       10
176
     2
 62
     7
176
     0
 40
1.0
176
     0
 90
        1
176
     0
 90
        6
176
     0
 90
        2
176
     0
 62
     7
176
     0
 90
        5
176
     0
 90
        0
176
     0
 90
        0
176
     0
290
     0
176
     0
 90
        1
176
     0
 40
0.0
176
     0
 90
        0
176
     0
290
     0
176
     0
290
     1
176
     0
290
     1
176
     0
290
     0
176
     0
290
     0
176
     0
290
     0
176
     0
290
     0
176
     0
290
     0
176
     0
290
     0
176
     0
 90
       50
176
     0
 40
0.0
176
     0
 40
1.0
176
     0
 90
        0
176
     0
 62
    18
420
        0
176
     0
 90
       50
176
     0
 90
        3
176
     0
 62
     5
420
      255
176
     0
290
     0
176
     0
 90
       50
176
     0
 90
       50
176
     0
 90
       50
176
     0
290
     0
176
     0
 90
       50
176
     0
 62
   256
176
     0
 40
1.0
176
     0
 90
        2
176
     0
  1
strokes_ogs.tif
176
     0
290
     0
176
     0
 40
1.0
176
     0
 40
1.0
176
     0
  0
VISUALSTYLE
  5
F4E
102
{ACAD_REACTORS
330
F40
102
}
330
F40
100
AcDbVisualStyle
  2
Linepattern
 70
    14
177
     3
291
     1
 70
    58
 90
        2
176
     1
 90
        2
176
     1
 90
        0
176
     1
 90
        0
176
     1
 40
0.6
176
     1
 40
30.0
176
     1
 62
     7
420
 16777215
176
     1
 90
        1
176
     1
 90
        4
176
     1
 62
     7
176
     1
 62
   257
176
     1
 90
        7
176
     1
 90
        7
176
     1
 40
1.0
176
     1
 90
        8
176
     1
 62
     7
176
     1
 40
1.0
176
     1
 90
        1
176
     1
 90
        6
176
     1
 90
        2
176
     1
 62
     7
176
     1
 90
        5
176
     1
 90
        0
176
     1
 90
        0
176
     1
290
     0
176
     1
 90
        1
176
     1
 40
0.0
176
     1
 90
        0
176
     1
290
     0
176
     1
290
     1
176
     1
290
     1
176
     1
290
     0
176
     1
290
     0
176
     1
290
     0
176
     1
290
     0
176
     1
290
     0
176
     1
290
     0
176
     1
 90
       50
176
     1
 40
0.0
176
     1
 40
1.0
176
     1
 90
        0
176
     1
 62
    18
420
        0
176
     1
 90
       50
176
     1
 90
        3
176
     1
 62
     5
420
      255
176
     1
290
     0
176
     1
 90
       50
176
     1
 90
       50
176
     1
 90
       50
176
     1
290
     0
176
     1
 90
       50
176
     1
 62
   256
176
     0
 40
1.0
176
     0
 90
        2
176
     1
  1
strokes_ogs.tif
176
     1
290
     0
176
     1
 40
1.0
176
     1
 40
1.0
176
     1
  0
VISUALSTYLE
  5
F57
102
{ACAD_REACTORS
330
F40
102
}
330
F40
100
AcDbVisualStyle
  2
OverhangOff
 70
    21
177
     3
291
     1
 70
    58
 90
        2
176
     0
 90
        2
176
     0
 90
        0
176
     0
 90
        0
176
     0
 40
0.6
176
     0
 40
30.0
176
     0
 62
     7
420
 16777215
176
     0
 90
        1
176
     0
 90
        4
176
     0
 62
     7
176
     0
 62
   257
176
     0
 90
        1
176
     0
 90
        1
176
     0
 40
1.0
176
     0
 90
        9
176
     2
 62
     7
176
     0
 40
1.0
176
     0
 90
        1
176
     0
 90
        6
176
     0
 90
        2
176
     0
 62
     7
176
     0
 90
        5
176
     0
 90
        0
176
     0
 90
        0
176
     0
290
     0
176
     0
 90
        1
176
     0
 40
0.0
176
     0
 90
        0
176
     0
290
     0
176
     0
290
     1
176
     0
290
     1
176
     0
290
     0
176
     0
290
     0
176
     0
290
     0
176
     0
290
     0
176
     0
290
     0
176
     0
290
     0
176
     0
 90
       50
176
     0
 40
0.0
176
     0
 40
1.0
176
     0
 90
        0
176
     0
 62
    18
420
        0
176
     0
 90
       50
176
     0
 90
        3
176
     0
 62
     5
420
      255
176
     0
290
     0
176
     0
 90
       50
176
     0
 90
       50
176
     0
 90
       50
176
     0
290
     0
176
     0
 90
       50
176
     0
 62
   256
176
     0
 40
1.0
176
     0
 90
        2
176
     0
  1
strokes_ogs.tif
176
     0
290
     0
176
     0
 40
1.0
176
     0
 40
1.0
176
     0
  0
VISUALSTYLE
  5
F4A
102
{ACAD_REACTORS
330
F40
102
}
330
F40
100
AcDbVisualStyle
  2
Realistic
 70
     8
177
     3
291
     0
 70
    58
 90
        2
176
     1
 90
        3
176
     1
 90
        0
176
     1
 90
        2
176
     1
 40
0.6
176
     1
 40
30.0
176
     1
 62
     7
420
 16777215
176
     1
 90
        0
176
     1
 90
        0
176
     1
 62
     7
176
     1
 62
   257
176
     1
 90
        1
176
     1
 90
        1
176
     1
 40
1.0
176
     1
 90
        8
176
     1
 62
   257
176
     1
 40
1.0
176
     1
 90
        1
176
     1
 90
        6
176
     1
 90
        2
176
     1
 62
     7
176
     1
 90
        3
176
     1
 90
        0
176
     1
 90
        0
176
     1
290
     0
176
     1
 90
       13
176
     1
 40
0.0
176
     1
 90
        0
176
     1
290
     0
176
     1
290
     1
176
     1
290
     1
176
     1
290
     0
176
     1
290
     0
176
     1
290
     0
176
     1
290
     0
176
     1
290
     0
176
     1
290
     0
176
     1
 90
       50
176
     1
 40
0.0
176
     1
 40
1.0
176
     1
 90
        0
176
     1
 62
    18
420
        0
176
     1
 90
       50
176
     1
 90
        3
176
     1
 62
     5
420
      255
176
     1
290
     0
176
     1
 90
       50
176
     1
 90
       50
176
     1
 90
       50
176
     1
290
     0
176
     1
 90
       50
176
     1
 62
   256
176
     0
 40
1.0
176
     0
 90
        2
176
     1
  1
strokes_ogs.tif
176
     1
290
     0
176
     1
 40
1.0
176
     1
 40
1.0
176
     1
  0
VISUALSTYLE
  5
F55
102
{ACAD_REACTORS
330
F40
102
}
330
F40
100
AcDbVisualStyle
  2
Shaded
 70
    27
177
     3
291
     0
 70
    58
 90
        2
176
     1
 90
        2
176
     1
 90
        1
176
     1
 90
        2
176
     1
 40
0.6
176
     1
 40
30.0
176
     1
 62
     7
420
 16777215
176
     1
 90
        0
176
     1
 90
        4
176
     1
 62
     7
176
     1
 62
   257
176
     1
 90
        1
176
     1
 90
        1
176
     1
 40
1.0
176
     1
 90
        8
176
     1
 62
   257
176
     1
 40
1.0
176
     1
 90
        1
176
     1
 90
        6
176
     1
 90
        2
176
     1
 62
     8
420
  7895160
176
     1
 90
        3
176
     1
 90
        0
176
     1
 90
        0
176
     1
290
     0
176
     1
 90
        5
176
     1
 40
0.0
176
     1
 90
        0
176
     1
290
     0
176
     1
290
     1
176
     1
290
     1
176
     1
290
     0
176
     1
290
     0
176
     1
290
     0
176
     1
290
     0
176
     1
290
     0
176
     1
290
     0
176
     1
 90
       50
176
     1
 40
0.0
176
     1
 40
1.0
176
     1
 90
        0
176
     1
 62
    18
420
        0
176
     1
 90
       50
176
     1
 90
        3
176
     1
 62
     5
420
      255
176
     1
290
     0
176
     1
 90
       50
176
     1
 90
       50
176
     1
 90
       50
176
     1
290
     0
176
     1
 90
       50
176
     1
 62
   256
176
     0
 40
1.0
176
     0
 90
        2
176
     1
  1
strokes_ogs.tif
176
     1
290
     0
176
     1
 40
1.0
176
     1
 40
1.0
176
     1
  0
VISUALSTYLE
  5
F54
102
{ACAD_REACTORS
330
F40
102
}
330
F40
100
AcDbVisualStyle
  2
Shaded with edges
 70
    26
177
     3
291
     0
 70
    58
 90
        2
176
     1
 90
        2
176
     1
 90
        1
176
     1
 90
        2
176
     1
 40
0.6
176
     1
 40
30.0
176
     1
 62
     7
420
 16777215
176
     1
 90
        1
176
     1
 90
        2
176
     1
 62
     7
176
     1
 62
   257
176
     1
 90
        2
176
     1
 90
        1
176
     1
 40
1.0
176
     1
 90
        8
176
     1
 62
   257
176
     1
 40
1.0
176
     1
 90
        1
176
     1
 90
        6
176
     1
 90
        2
176
     1
 62
     7
176
     1
 90
        3
176
     1
 90
        0
176
     1
 90
        0
176
     1
290
     0
176
     1
 90
        5
176
     1
 40
0.0
176
     1
 90
        0
176
     1
290
     0
176
     1
290
     1
176
     1
290
     1
176
     1
290
     0
176
     1
290
     0
176
     1
290
     0
176
     1
290
     0
176
     1
290
     0
176
     1
290
     0
176
     1
 90
       50
176
     1
 40
0.0
176
     1
 40
1.0
176
     1
 90
        0
176
     1
 62
    18
420
        0
176
     1
 90
       50
176
     1
 90
        3
176
     1
 62
     5
420
      255
176
     1
290
     0
176
     1
 90
       50
176
     1
 90
       50
176
     1
 90
       50
176
     1
290
     0
176
     1
 90
       50
176
     1
 62
   256
176
     0
 40
1.0
176
     0
 90
        2
176
     1
  1
strokes_ogs.tif
176
     1
290
     0
176
     1
 40
1.0
176
     1
 40
1.0
176
     1
  0
VISUALSTYLE
  5
F51
102
{ACAD_REACTORS
330
F40
102
}
330
F40
100
AcDbVisualStyle
  2
Shades of Gray
 70
    23
177
     3
291
     0
 70
    58
 90
        2
176
     1
 90
        2
176
     1
 90
        3
176
     1
 90
        0
176
     1
 40
0.6
176
     1
 40
30.0
176
     1
 62
     7
420
 16777215
176
     1
 90
        2
176
     1
 90
        2
176
     1
 62
     7
176
     1
 62
     7
176
     1
 90
        1
176
     1
 90
        1
176
     1
 40
40.0
176
     1
 90
        8
176
     1
 62
     7
176
     1
 40
1.0
176
     1
 90
        1
176
     1
 90
        6
176
     1
 90
        2
176
     1
 62
     7
176
     1
 90
        3
176
     1
 90
        0
176
     1
 90
        0
176
     1
290
     0
176
     1
 90
        1
176
     1
 40
0.0
176
     1
 90
        0
176
     1
290
     0
176
     1
290
     1
176
     1
290
     1
176
     1
290
     0
176
     1
290
     0
176
     1
290
     0
176
     1
290
     0
176
     1
290
     0
176
     1
290
     0
176
     1
 90
       50
176
     1
 40
0.0
176
     1
 40
1.0
176
     1
 90
        0
176
     1
 62
    18
420
        0
176
     1
 90
       50
176
     1
 90
        3
176
     1
 62
     5
420
      255
176
     1
290
     0
176
     1
 90
       50
176
     1
 90
       50
176
     1
 90
       50
176
     1
290
     0
176
     1
 90
       50
176
     1
 62
   256
176
     0
 40
1.0
176
     0
 90
        2
176
     1
  1
strokes_ogs.tif
176
     1
290
     0
176
     1
 40
1.0
176
     1
 40
1.0
176
     1
  0
VISUALSTYLE
  5
F52
102
{ACAD_REACTORS
330
F40
102
}
330
F40
100
AcDbVisualStyle
  2
Sketchy
 70
    24
177
     3
291
     0
 70
    58
 90
        1
176
     1
 90
        2
176
     1
 90
        2
176
     1
 90
        0
176
     1
 40
0.6
176
     1
 40
30.0
176
     1
 62
     7
420
 16777215
176
     1
 90
        2
176
     1
 90
        2
176
     1
 62
     7
176
     1
 62
     7
176
     1
 90
        1
176
     1
 90
        1
176
     1
 40
40.0
176
     1
 90
       11
176
     1
 62
     7
176
     1
 40
1.0
176
     1
 90
        1
176
     1
 90
        6
176
     1
 90
        2
176
     1
 62
     7
176
     1
 90
        6
176
     1
 90
        0
176
     1
 90
        0
176
     1
290
     0
176
     1
 90
        1
176
     1
 40
0.0
176
     1
 90
        0
176
     1
290
     0
176
     1
290
     1
176
     1
290
     1
176
     1
290
     0
176
     1
290
     0
176
     1
290
     0
176
     1
290
     0
176
     1
290
     0
176
     1
290
     0
176
     1
 90
       50
176
     1
 40
0.0
176
     1
 40
1.0
176
     1
 90
        0
176
     1
 62
    18
420
        0
176
     1
 90
       50
176
     1
 90
        3
176
     1
 62
     5
420
      255
176
     1
290
     0
176
     1
 90
       50
176
     1
 90
       50
176
     1
 90
       50
176
     1
290
     0
176
     1
 90
       50
176
     1
 62
   256
176
     0
 40
1.0
176
     0
 90
        2
176
     1
  1
strokes_ogs.tif
176
     1
290
     0
176
     1
 40
1.0
176
     1
 40
1.0
176
     1
  0
VISUALSTYLE
  5
F4D
102
{ACAD_REACTORS
330
F40
102
}
330
F40
100
AcDbVisualStyle
  2
Thicken
 70
    13
177
     3
291
     1
 70
    58
 90
        2
176
     1
 90
        2
176
     1
 90
        0
176
     1
 90
        0
176
     1
 40
0.6
176
     1
 40
30.0
176
     1
 62
     7
420
 16777215
176
     1
 90
        1
176
     1
 90
        4
176
     1
 62
     7
176
     1
 62
   257
176
     1
 90
        1
176
     1
 90
        1
176
     1
 40
1.0
176
     1
 90
       12
176
     1
 62
     7
176
     1
 40
1.0
176
     1
 90
        1
176
     1
 90
        6
176
     1
 90
        2
176
     1
 62
     7
176
     1
 90
        5
176
     1
 90
        0
176
     1
 90
        0
176
     1
290
     0
176
     1
 90
        1
176
     1
 40
0.0
176
     1
 90
        0
176
     1
290
     0
176
     1
290
     1
176
     1
290
     1
176
     1
290
     0
176
     1
290
     0
176
     1
290
     0
176
     1
290
     0
176
     1
290
     0
176
     1
290
     0
176
     1
 90
       50
176
     1
 40
0.0
176
     1
 40
1.0
176
     1
 90
        0
176
     1
 62
    18
420
        0
176
     1
 90
       50
176
     1
 90
        3
176
     1
 62
     5
420
      255
176
     1
290
     0
176
     1
 90
       50
176
     1
 90
       50
176
     1
 90
       50
176
     1
290
     0
176
     1
 90
       50
176
     1
 62
   256
176
     0
 40
1.0
176
     0
 90
        2
176
     1
  1
strokes_ogs.tif
176
     1
290
     0
176
     1
 40
1.0
176
     1
 40
1.0
176
     1
  0
VISUALSTYLE
  5
F47
102
{ACAD_REACTORS
330
F40
102
}
330
F40
100
AcDbVisualStyle
  2
Wireframe
 70
     5
177
     3
291
     0
 70
    58
 90
        0
176
     1
 90
        2
176
     1
 90
        0
176
     1
 90
        0
176
     1
 40
0.6
176
     1
 40
30.0
176
     1
 62
     7
420
 16777215
176
     1
 90
        1
176
     1
 90
        4
176
     1
 62
     7
176
     1
 62
   257
176
     1
 90
        1
176
     1
 90
        1
176
     1
 40
1.0
176
     1
 90
        0
176
     1
 62
   257
176
     1
 40
1.0
176
     1
 90
        1
176
     1
 90
        6
176
     1
 90
        2
176
     1
 62
     7
176
     1
 90
        3
176
     1
 90
        0
176
     1
 90
        0
176
     1
290
     0
176
     1
 90
        1
176
     1
 40
0.0
176
     1
 90
        0
176
     1
290
     0
176
     1
290
     1
176
     1
290
     1
176
     1
290
     0
176
     1
290
     0
176
     1
290
     0
176
     1
290
     0
176
     1
290
     0
176
     1
290
     0
176
     1
 90
       50
176
     1
 40
0.0
176
     1
 40
1.0
176
     1
 90
        0
176
     1
 62
    18
420
        0
176
     1
 90
       50
176
     1
 90
        3
176
     1
 62
     5
420
      255
176
     1
290
     0
176
     1
 90
       50
176
     1
 90
       50
176
     1
 90
       50
176
     1
290
     0
176
     1
 90
       50
176
     1
 62
   256
176
     0
 40
1.0
176
     0
 90
        2
176
     1
  1
strokes_ogs.tif
176
     1
290
     0
176
     1
 40
1.0
176
     1
 40
1.0
176
     1
  0
VISUALSTYLE
  5
F53
102
{ACAD_REACTORS
330
F40
102
}
330
F40
100
AcDbVisualStyle
  2
X-Ray
 70
    25
177
     3
291
     0
 70
    58
 90
        2
176
     1
 90
        2
176
     1
 90
        1
176
     1
 90
        1
176
     1
 40
0.5
176
     1
 40
30.0
176
     1
 62
     7
420
 16777215
176
     1
 90
        1
176
     1
 90
        0
176
     1
 62
     7
176
     1
 62
   257
176
     1
 90
        1
176
     1
 90
        1
176
     1
 40
1.0
176
     1
 90
        8
176
     1
 62
     7
176
     1
 40
1.0
176
     1
 90
        1
176
     1
 90
        6
176
     1
 90
        2
176
     1
 62
     7
176
     1
 90
        3
176
     1
 90
        0
176
     1
 90
        0
176
     1
290
     0
176
     1
 90
       13
176
     1
 40
0.0
176
     1
 90
        0
176
     1
290
     0
176
     1
290
     1
176
     1
290
     1
176
     1
290
     0
176
     1
290
     0
176
     1
290
     0
176
     1
290
     0
176
     1
290
     0
176
     1
290
     0
176
     1
 90
       50
176
     1
 40
0.0
176
     1
 40
1.0
176
     1
 90
        0
176
     1
 62
    18
420
        0
176
     1
 90
       50
176
     1
 90
        3
176
     1
 62
     5
420
      255
176
     1
290
     0
176
     1
 90
       50
176
     1
 90
       50
176
     1
 90
       50
176
     1
290
     0
176
     1
 90
       50
176
     1
 62
   256
176
     0
 40
1.0
176
     0
 90
        2
176
     1
  1
strokes_ogs.tif
176
     1
290
     0
176
     1
 40
1.0
176
     1
 40
1.0
176
     1
  0
DICTIONARYVAR
  5
F8C
102
{ACAD_REACTORS
330
5E
102
}
330
5E
100
DictionaryVariables
280
     0
  1
1:1
  0
DICTIONARYVAR
  5
F88
102
{ACAD_REACTORS
330
5E
102
}
330
5E
100
DictionaryVariables
280
     0
  1
STANDARD
  0
DICTIONARYVAR
  5
84
102
{ACAD_REACTORS
330
5E
102
}
330
5E
100
DictionaryVariables
280
     0
  1
STANDARD
  0
DICTIONARYVAR
  5
F89
102
{ACAD_REACTORS
330
5E
102
}
330
5E
100
DictionaryVariables
280
     0
  1
Metric50
  0
DICTIONARYVAR
  5
F8A
102
{ACAD_REACTORS
330
5E
102
}
330
5E
100
DictionaryVariables
280
     0
  1
Metric50
  0
DICTIONARYVAR
  5
5F
102
{ACAD_REACTORS
330
5E
102
}
330
5E
100
DictionaryVariables
280
     0
  1
2
  0
DICTIONARYVAR
  5
63
102
{ACAD_REACTORS
330
5E
102
}
330
5E
100
DictionaryVariables
280
     0
  1
1
  0
DICTIONARYVAR
  5
F8E
102
{ACAD_REACTORS
330
5E
102
}
330
5E
100
DictionaryVariables
280
     0
  1
1
  0
DICTIONARYVAR
  5
F8F
102
{ACAD_REACTORS
330
5E
102
}
330
5E
100
DictionaryVariables
280
     0
  1
15
  0
DICTIONARYVAR
  5
F8D
102
{ACAD_REACTORS
330
5E
102
}
330
5E
100
DictionaryVariables
280
     0
  1
0
  0
DICTIONARYVAR
  5
F8B
102
{ACAD_REACTORS
330
5E
102
}
330
5E
100
DictionaryVariables
280
     0
  1
0
  0
DICTIONARYVAR
  5
E0D
102
{ACAD_REACTORS
330
5E
102
}
330
5E
100
DictionaryVariables
280
     0
  1

  0
DICTIONARY
  5
F94
330
F71
100
AcDbDictionary
280
     1
281
     1
  3
ACAD_XREC_ROUNDTRIP
360
F95
  0
DICTIONARY
  5
F39
330
F38
100
AcDbDictionary
280
     1
281
     1
  3
BUMPTILE
360
F3B
  3
DIFFUSETILE
360
F3A
  3
OPACITYTILE
360
F3E
  3
REFLECTIONTILE
360
F3D
  3
REFRACTIONTILE
360
F3F
  3
SPECULARTILE
360
F3C
  0
DICTIONARY
  5
F31
330
F30
100
AcDbDictionary
280
     1
281
     1
  3
BUMPTILE
360
F33
  3
DIFFUSETILE
360
F32
  3
OPACITYTILE
360
F36
  3
REFLECTIONTILE
360
F35
  3
REFRACTIONTILE
360
F37
  3
SPECULARTILE
360
F34
  0
DICTIONARY
  5
1F6
330
1F5
100
AcDbDictionary
280
     1
281
     1
  3
BUMPTILE
360
1F8
  3
DIFFUSETILE
360
1F9
  3
OPACITYTILE
360
1FA
  3
REFLECTIONTILE
360
1FB
  3
REFRACTIONTILE
360
1FC
  3
SPECULARTILE
360
1FD
  0
DICTIONARY
  5
F92
330
F6F
100
AcDbDictionary
280
     1
281
     1
  3
ACAD_XREC_ROUNDTRIP
360
F93
  0
DICTIONARY
  5
F90
330
7F
100
AcDbDictionary
280
     1
281
     1
  3
ACAD_ROUNDTRIP_2008_TABLESTYLE_CELLSTYLEMAP
360
F91
  0
XRECORD
  5
F95
102
{ACAD_REACTORS
330
F94
102
}
330
F94
100
AcDbXrecord
280
     1
102
DISPLAYNAME
  1
Metric50
102
FLAGS
 90
        0
  0
XRECORD
  5
F3B
102
{ACAD_REACTORS
330
F39
102
}
330
F39
100
AcDbXrecord
280
     1
270
     1
271
     1
  0
XRECORD
  5
F3A
102
{ACAD_REACTORS
330
F39
102
}
330
F39
100
AcDbXrecord
280
     1
270
     1
271
     1
  0
XRECORD
  5
F3E
102
{ACAD_REACTORS
330
F39
102
}
330
F39
100
AcDbXrecord
280
     1
270
     1
271
     1
  0
XRECORD
  5
F3D
102
{ACAD_REACTORS
330
F39
102
}
330
F39
100
AcDbXrecord
280
     1
270
     1
271
     1
  0
XRECORD
  5
F3F
102
{ACAD_REACTORS
330
F39
102
}
330
F39
100
AcDbXrecord
280
     1
270
     1
271
     1
  0
XRECORD
  5
F3C
102
{ACAD_REACTORS
330
F39
102
}
330
F39
100
AcDbXrecord
280
     1
270
     1
271
     1
  0
XRECORD
  5
F33
102
{ACAD_REACTORS
330
F31
102
}
330
F31
100
AcDbXrecord
280
     1
270
     1
271
     1
  0
XRECORD
  5
F32
102
{ACAD_REACTORS
330
F31
102
}
330
F31
100
AcDbXrecord
280
     1
270
     1
271
     1
  0
XRECORD
  5
F36
102
{ACAD_REACTORS
330
F31
102
}
330
F31
100
AcDbXrecord
280
     1
270
     1
271
     1
  0
XRECORD
  5
F35
102
{ACAD_REACTORS
330
F31
102
}
330
F31
100
AcDbXrecord
280
     1
270
     1
271
     1
  0
XRECORD
  5
F37
102
{ACAD_REACTORS
330
F31
102
}
330
F31
100
AcDbXrecord
280
     1
270
     1
271
     1
  0
XRECORD
  5
F34
102
{ACAD_REACTORS
330
F31
102
}
330
F31
100
AcDbXrecord
280
     1
270
     1
271
     1
  0
XRECORD
  5
1F8
102
{ACAD_REACTORS
330
1F6
102
}
330
1F6
100
AcDbXrecord
280
     1
270
     1
271
     1
  0
XRECORD
  5
1F9
102
{ACAD_REACTORS
330
1F6
102
}
330
1F6
100
AcDbXrecord
280
     1
270
     1
271
     1
  0
XRECORD
  5
1FA
102
{ACAD_REACTORS
330
1F6
102
}
330
1F6
100
AcDbXrecord
280
     1
270
     1
271
     1
  0
XRECORD
  5
1FB
102
{ACAD_REACTORS
330
1F6
102
}
330
1F6
100
AcDbXrecord
280
     1
270
     1
271
     1
  0
XRECORD
  5
1FC
102
{ACAD_REACTORS
330
1F6
102
}
330
1F6
100
AcDbXrecord
280
     1
270
     1
271
     1
  0
XRECORD
  5
1FD
102
{ACAD_REACTORS
330
1F6
102
}
330
1F6
100
AcDbXrecord
280
     1
270
     1
271
     1
  0
XRECORD
  5
F93
102
{ACAD_REACTORS
330
F92
102
}
330
F92
100
AcDbXrecord
280
     1
102
DISPLAYNAME
  1
Metric50
102
FLAGS
 90
        0
  0
CELLSTYLEMAP
  5
F91
102
{ACAD_REACTORS
330
F90
102
}
330
F90
100
AcDbCellStyleMap
 90
        3
300
CELLSTYLE
  1
TABLEFORMAT_BEGIN
 90
        5
170
     1
 91
        0
 92
    32768
 62
   257
 93
        1
300
CONTENTFORMAT
  1
CONTENTFORMAT_BEGIN
 90
        0
 91
        0
 92
        4
 93
        0
300

 40
0.0
140
1.0
 94
        5
 62
     0
340
11
144
6.0
309
CONTENTFORMAT_END
171
     1
301
MARGIN
  1
CELLMARGIN_BEGIN
 40
1.5
 40
1.5
 40
1.5
 40
1.5
 40
0.18
 40
0.18
309
CELLMARGIN_END
 94
        6
 95
        1
302
GRIDFORMAT
  1
GRIDFORMAT_BEGIN
 90
        0
 91
        1
 62
     0
 92
       -2
340
0
 93
        0
 40
0.045
309
GRIDFORMAT_END
 95
        2
302
GRIDFORMAT
  1
GRIDFORMAT_BEGIN
 90
        0
 91
        1
 62
     0
 92
       -2
340
0
 93
        0
 40
0.045
309
GRIDFORMAT_END
 95
        4
302
GRIDFORMAT
  1
GRIDFORMAT_BEGIN
 90
        0
 91
        1
 62
     0
 92
       -2
340
0
 93
        0
 40
0.045
309
GRIDFORMAT_END
 95
        8
302
GRIDFORMAT
  1
GRIDFORMAT_BEGIN
 90
        0
 91
        1
 62
     0
 92
       -2
340
0
 93
        0
 40
0.045
309
GRIDFORMAT_END
 95
       16
302
GRIDFORMAT
  1
GRIDFORMAT_BEGIN
 90
        0
 91
        1
 62
     0
 92
       -2
340
0
 93
        0
 40
0.045
309
GRIDFORMAT_END
 95
       32
302
GRIDFORMAT
  1
GRIDFORMAT_BEGIN
 90
        0
 91
        1
 62
     0
 92
       -2
340
0
 93
        0
 40
0.045
309
GRIDFORMAT_END
309
TABLEFORMAT_END
  1
CELLSTYLE_BEGIN
 90
        1
 91
        1
300
_TITLE
309
CELLSTYLE_END
300
CELLSTYLE
  1
TABLEFORMAT_BEGIN
 90
        5
170
     1
 91
        0
 92
        0
 62
   257
 93
        1
300
CONTENTFORMAT
  1
CONTENTFORMAT_BEGIN
 90
        0
 91
        0
 92
        4
 93
        0
300

 40
0.0
140
1.0
 94
        5
 62
     0
340
11
144
4.5
309
CONTENTFORMAT_END
171
     1
301
MARGIN
  1
CELLMARGIN_BEGIN
 40
1.5
 40
1.5
 40
1.5
 40
1.5
 40
0.18
 40
0.18
309
CELLMARGIN_END
 94
        6
 95
        1
302
GRIDFORMAT
  1
GRIDFORMAT_BEGIN
 90
        0
 91
        1
 62
     0
 92
       -2
340
0
 93
        0
 40
0.045
309
GRIDFORMAT_END
 95
        2
302
GRIDFORMAT
  1
GRIDFORMAT_BEGIN
 90
        0
 91
        1
 62
     0
 92
       -2
340
0
 93
        0
 40
0.045
309
GRIDFORMAT_END
 95
        4
302
GRIDFORMAT
  1
GRIDFORMAT_BEGIN
 90
        0
 91
        1
 62
     0
 92
       -2
340
0
 93
        0
 40
0.045
309
GRIDFORMAT_END
 95
        8
302
GRIDFORMAT
  1
GRIDFORMAT_BEGIN
 90
        0
 91
        1
 62
     0
 92
       -2
340
0
 93
        0
 40
0.045
309
GRIDFORMAT_END
 95
       16
302
GRIDFORMAT
  1
GRIDFORMAT_BEGIN
 90
        0
 91
        1
 62
     0
 92
       -2
340
0
 93
        0
 40
0.045
309
GRIDFORMAT_END
 95
       32
302
GRIDFORMAT
  1
GRIDFORMAT_BEGIN
 90
        0
 91
        1
 62
     0
 92
       -2
340
0
 93
        0
 40
0.045
309
GRIDFORMAT_END
309
TABLEFORMAT_END
  1
CELLSTYLE_BEGIN
 90
        2
 91
        1
300
_HEADER
309
CELLSTYLE_END
300
CELLSTYLE
  1
TABLEFORMAT_BEGIN
 90
        5
170
     1
 91
        0
 92
        0
 62
   257
 93
        1
300
CONTENTFORMAT
  1
CONTENTFORMAT_BEGIN
 90
        0
 91
        0
 92
        4
 93
        0
300

 40
0.0
140
1.0
 94
        2
 62
     0
340
11
144
4.5
309
CONTENTFORMAT_END
171
     1
301
MARGIN
  1
CELLMARGIN_BEGIN
 40
1.5
 40
1.5
 40
1.5
 40
1.5
 40
0.18
 40
0.18
309
CELLMARGIN_END
 94
        6
 95
        1
302
GRIDFORMAT
  1
GRIDFORMAT_BEGIN
 90
        0
 91
        1
 62
     0
 92
       -2
340
0
 93
        0
 40
0.045
309
GRIDFORMAT_END
 95
        2
302
GRIDFORMAT
  1
GRIDFORMAT_BEGIN
 90
        0
 91
        1
 62
     0
 92
       -2
340
0
 93
        0
 40
0.045
309
GRIDFORMAT_END
 95
        4
302
GRIDFORMAT
  1
GRIDFORMAT_BEGIN
 90
        0
 91
        1
 62
     0
 92
       -2
340
0
 93
        0
 40
0.045
309
GRIDFORMAT_END
 95
        8
302
GRIDFORMAT
  1
GRIDFORMAT_BEGIN
 90
        0
 91
        1
 62
     0
 92
       -2
340
0
 93
        0
 40
0.045
309
GRIDFORMAT_END
 95
       16
302
GRIDFORMAT
  1
GRIDFORMAT_BEGIN
 90
        0
 91
        1
 62
     0
 92
       -2
340
0
 93
        0
 40
0.045
309
GRIDFORMAT_END
 95
       32
302
GRIDFORMAT
  1
GRIDFORMAT_BEGIN
 90
        0
 91
        1
 62
     0
 92
       -2
340
0
 93
        0
 40
0.045
309
GRIDFORMAT_END
309
TABLEFORMAT_END
  1
CELLSTYLE_BEGIN
 90
        3
 91
        2
300
_DATA
309
CELLSTYLE_END
  0
ENDSEC
  0
EOF
