  0
SECTION
  2
HEADER
  9
$ACADVER
  1
AC1014
  9
$ACADMAINTVER
 70
     9
  9
$DWGCODEPAGE
  3
ANSI_1252
  9
$INSBASE
 10
0.0
 20
0.0
 30
0.0
  9
$EXTMIN
 10
0.0
 20
0.0
 30
0.0
  9
$EXTMAX
 10
297.0
 20
210.0
 30
0.0
  9
$LIMMIN
 10
0.0
 20
0.0
  9
$LIMMAX
 10
297.0
 20
210.0
  9
$ORTHOMODE
 70
     0
  9
$REGENMODE
 70
     1
  9
$FILLMODE
 70
     1
  9
$QTEXTMODE
 70
     0
  9
$MIRRTEXT
 70
     1
  9
$DRAGMODE
 70
     2
  9
$LTSCALE
 40
1.0
  9
$OSMODE
 70
    37
  9
$ATTMODE
 70
     1
  9
$TEXTSIZE
 40
3.5
  9
$TRACEWID
 40
1.0
  9
$TEXTSTYLE
  7
STANDARD
  9
$CLAYER
  8
0
  9
$CELTYPE
  6
BYLAYER
  9
$CECOLOR
 62
   256
  9
$CELTSCALE
 40
1.0
  9
$DELOBJ
 70
     1
  9
$DISPSILH
 70
     0
  9
$DIMSCALE
 40
1.0
  9
$DIMASZ
 40
8.0
  9
$DIMEXO
 40
1.0
  9
$DIMDLI
 40
3.75
  9
$DIMRND
 40
0.0
  9
$DIMDLE
 40
0.0
  9
$DIMEXE
 40
1.0
  9
$DIMTP
 40
0.0
  9
$DIMTM
 40
0.0
  9
$DIMTXT
 40
9.8777777778
  9
$DIMCEN
 40
2.5
  9
$DIMTSZ
 40
0.0
  9
$DIMTOL
 70
     0
  9
$DIMLIM
 70
     0
  9
$DIMTIH
 70
     1
  9
$DIMTOH
 70
     1
  9
$DIMSE1
 70
     0
  9
$DIMSE2
 70
     0
  9
$DIMTAD
 70
     1
  9
$DIMZIN
 70
     1
  9
$DIMBLK
  1

  9
$DIMASO
 70
     1
  9
$DIMSHO
 70
     1
  9
$DIMPOST
  1

  9
$DIMAPOST
  1

  9
$DIMALT
 70
     0
  9
$DIMALTD
 70
     3
  9
$DIMALTF
 40
0.0393700787
  9
$DIMLFAC
 40
5.0
  9
$DIMTOFL
 70
     1
  9
$DIMTVP
 40
0.0
  9
$DIMTIX
 70
     0
  9
$DIMSOXD
 70
     0
  9
$DIMSAH
 70
     0
  9
$DIMBLK1
  1

  9
$DIMBLK2
  1

  9
$DIMSTYLE
  2
ISO-25
  9
$DIMCLRD
 70
     0
  9
$DIMCLRE
 70
     0
  9
$DIMCLRT
 70
     0
  9
$DIMTFAC
 40
1.0
  9
$DIMGAP
 40
1.524
  9
$DIMJUST
 70
     0
  9
$DIMSD1
 70
     0
  9
$DIMSD2
 70
     0
  9
$DIMTOLJ
 70
     0
  9
$DIMTZIN
 70
     1
  9
$DIMALTZ
 70
     0
  9
$DIMALTTZ
 70
     0
  9
$DIMFIT
 70
     3
  9
$DIMUPT
 70
     0
  9
$DIMUNIT
 70
     2
  9
$DIMDEC
 70
     0
  9
$DIMTDEC
 70
     0
  9
$DIMALTU
 70
     2
  9
$DIMALTTD
 70
     3
  9
$DIMTXSTY
  7
STANDARD
  9
$DIMAUNIT
 70
     0
  9
$LUNITS
 70
     2
  9
$LUPREC
 70
     2
  9
$SKETCHINC
 40
1.0
  9
$FILLETRAD
 40
10.0
  9
$AUNITS
 70
     0
  9
$AUPREC
 70
     2
  9
$MENU
  1
.
  9
$ELEVATION
 40
0.0
  9
$PELEVATION
 40
0.0
  9
$THICKNESS
 40
0.0
  9
$LIMCHECK
 70
     0
  9
$CHAMFERA
 40
0.0
  9
$CHAMFERB
 40
0.0
  9
$CHAMFERC
 40
0.0
  9
$CHAMFERD
 40
0.0
  9
$SKPOLY
 70
     0
  9
$TDCREATE
 40
2457721.489429872
  9
$TDUPDATE
 40
2457721.489430093
  9
$TDINDWG
 40
0.0000000116
  9
$TDUSRTIMER
 40
0.0000000116
  9
$USRTIMER
 70
     1
  9
$ANGBASE
 50
0.0
  9
$ANGDIR
 70
     0
  9
$PDMODE
 70
     0
  9
$PDSIZE
 40
-1.0
  9
$PLINEWID
 40
0.0
  9
$COORDS
 70
     1
  9
$SPLFRAME
 70
     0
  9
$SPLINETYPE
 70
     6
  9
$SPLINESEGS
 70
     8
  9
$ATTDIA
 70
     0
  9
$ATTREQ
 70
     1
  9
$HANDLING
 70
     1
  9
$HANDSEED
  5
122
  9
$SURFTAB1
 70
     6
  9
$SURFTAB2
 70
     6
  9
$SURFTYPE
 70
     6
  9
$SURFU
 70
     6
  9
$SURFV
 70
     6
  9
$UCSNAME
  2

  9
$UCSORG
 10
0.0
 20
0.0
 30
0.0
  9
$UCSXDIR
 10
1.0
 20
0.0
 30
0.0
  9
$UCSYDIR
 10
0.0
 20
1.0
 30
0.0
  9
$PUCSNAME
  2

  9
$PUCSORG
 10
0.0
 20
0.0
 30
0.0
  9
$PUCSXDIR
 10
1.0
 20
0.0
 30
0.0
  9
$PUCSYDIR
 10
0.0
 20
1.0
 30
0.0
  9
$USERI1
 70
     0
  9
$USERI2
 70
     0
  9
$USERI3
 70
     0
  9
$USERI4
 70
     0
  9
$USERI5
 70
     0
  9
$USERR1
 40
0.0
  9
$USERR2
 40
0.0
  9
$USERR3
 40
0.0
  9
$USERR4
 40
0.0
  9
$USERR5
 40
0.0
  9
$WORLDVIEW
 70
     1
  9
$SHADEDGE
 70
     3
  9
$SHADEDIF
 70
    70
  9
$TILEMODE
 70
     1
  9
$MAXACTVP
 70
    64
  9
$PINSBASE
 10
0.0
 20
0.0
 30
0.0
  9
$PLIMCHECK
 70
     0
  9
$PEXTMIN
 10
1.0000000000E+20
 20
1.0000000000E+20
 30
1.0000000000E+20
  9
$PEXTMAX
 10
-1.0000000000E+20
 20
-1.0000000000E+20
 30
-1.0000000000E+20
  9
$PLIMMIN
 10
0.0
 20
0.0
  9
$PLIMMAX
 10
420.0
 20
297.0
  9
$UNITMODE
 70
     0
  9
$VISRETAIN
 70
     1
  9
$PLINEGEN
 70
     0
  9
$PSLTSCALE
 70
     1
  9
$TREEDEPTH
 70
  3020
  9
$PICKSTYLE
 70
     1
  9
$CMLSTYLE
  2
STANDARD
  9
$CMLJUST
 70
     0
  9
$CMLSCALE
 40
20.0
  9
$PROXYGRAPHICS
 70
     1
  9
$MEASUREMENT
 70
     1
  0
ENDSEC
  0
SECTION
  2
CLASSES
  0
CLASS
  1
ACDBDICTIONARYWDFLT
  2
AcDbDictionaryWithDefault
  3
ObjectDBX Classes
 90
        0
280
     0
281
     0
  0
CLASS
  1
VISUALSTYLE
  2
AcDbVisualStyle
  3
ObjectDBX Classes
 90
     4095
280
     0
281
     0
  0
CLASS
  1
MATERIAL
  2
AcDbMaterial
  3
ObjectDBX Classes
 90
     1153
280
     0
281
     0
  0
CLASS
  1
SCALE
  2
AcDbScale
  3
ObjectDBX Classes
 90
     1153
280
     0
281
     0
  0
CLASS
  1
TABLESTYLE
  2
AcDbTableStyle
  3
ObjectDBX Classes
 90
     4095
280
     0
281
     0
  0
CLASS
  1
MLEADERSTYLE
  2
AcDbMLeaderStyle
  3
ACDB_MLEADERSTYLE_CLASS
 90
     4095
280
     0
281
     0
  0
CLASS
  1
SUN
  2
AcDbSun
  3
SCENEOE
 90
     1153
280
     0
281
     0
  0
CLASS
  1
XRECORD
  2
AcDbXrecord
  3
ObjectDBX Classes
 90
        0
280
     0
281
     0
  0
CLASS
  1
LWPOLYLINE
  2
AcDbPolyline
  3
ObjectDBX Classes
 90
        0
280
     0
281
     1
  0
CLASS
  1
HATCH
  2
AcDbHatch
  3
ObjectDBX Classes
 90
        0
280
     0
281
     1
  0
ENDSEC
  0
SECTION
  2
TABLES
  0
TABLE
  2
VPORT
  5
8
330
0
100
AcDbSymbolTable
 70
     1
  0
VPORT
  5
29
330
8
100
AcDbSymbolTableRecord
100
AcDbViewportTableRecord
  2
*ACTIVE
 70
     0
 10
0.0
 20
0.0
 11
1.0
 21
1.0
 12
148.5
 22
105.0
 13
0.0
 23
0.0
 14
10.0
 24
10.0
 15
10.0
 25
10.0
 16
0.0
 26
0.0
 36
1.0
 17
0.0
 27
0.0
 37
0.0
 40
210.0
 41
1.4142857143
 42
50.0
 43
0.0
 44
0.0
 50
0.0
 51
0.0
 71
     0
 72
  2000
 73
     1
 74
     3
 75
     0
 76
     0
 77
     0
 78
     0
  0
ENDTAB
  0
TABLE
  2
LTYPE
  5
5
330
0
100
AcDbSymbolTable
 70
     6
  0
LTYPE
  5
14
330
5
100
AcDbSymbolTableRecord
100
AcDbLinetypeTableRecord
  2
BYBLOCK
 70
     0
  3

 72
    65
 73
     0
 40
0.0
  0
LTYPE
  5
15
330
5
100
AcDbSymbolTableRecord
100
AcDbLinetypeTableRecord
  2
BYLAYER
 70
     0
  3

 72
    65
 73
     0
 40
0.0
  0
LTYPE
  5
16
330
5
100
AcDbSymbolTableRecord
100
AcDbLinetypeTableRecord
  2
CONTINUOUS
 70
     0
  3
Solid line
 72
    65
 73
     0
 40
0.0
  0
LTYPE
  5
6E
330
5
100
AcDbSymbolTableRecord
100
AcDbLinetypeTableRecord
  2
HIDDEN
 70
     0
  3
Hidden __ __ __ __ __ __ __ __ __ __ __ __ __ __
 72
    65
 73
     2
 40
1.905
 49
1.27
 74
     0
 49
-0.635
 74
     0
  0
LTYPE
  5
6F
330
5
100
AcDbSymbolTableRecord
100
AcDbLinetypeTableRecord
  2
PHANTOM
 70
     0
  3
Phantom ______  __  __  ______  __  __  ______
 72
    65
 73
     6
 40
12.7
 49
6.35
 74
     0
 49
-1.27
 74
     0
 49
1.27
 74
     0
 49
-1.27
 74
     0
 49
1.27
 74
     0
 49
-1.27
 74
     0
  0
LTYPE
  5
70
330
5
100
AcDbSymbolTableRecord
100
AcDbLinetypeTableRecord
  2
CENTER
 70
     0
  3
Center ____ _ ____ _ ____ _ ____ _ ____ _ ____
 72
    65
 73
     4
 40
10.16
 49
6.35
 74
     0
 49
-1.27
 74
     0
 49
1.27
 74
     0
 49
-1.27
 74
     0
  0
LTYPE
  5
71
330
5
100
AcDbSymbolTableRecord
100
AcDbLinetypeTableRecord
  2
CENTERX2
 70
     0
  3
Center (2x) ________  __  ________  __  _____
 72
    65
 73
     4
 40
20.32
 49
12.7
 74
     0
 49
-2.54
 74
     0
 49
2.54
 74
     0
 49
-2.54
 74
     0
  0
LTYPE
  5
72
330
5
100
AcDbSymbolTableRecord
100
AcDbLinetypeTableRecord
  2
DOT2
 70
     0
  3
Dot (.5x) ........................................
 72
    65
 73
     2
 40
0.635
 49
0.0
 74
     0
 49
-0.635
 74
     0
  0
ENDTAB
  0
TABLE
  2
LAYER
  5
2
330
0
100
AcDbSymbolTable
 70
     2
  0
LAYER
  5
10
330
2
100
AcDbSymbolTableRecord
100
AcDbLayerTableRecord
  2
0
 70
     0
 62
     7
  6
CONTINUOUS
  0
LAYER
  5
73
330
2
100
AcDbSymbolTableRecord
100
AcDbLayerTableRecord
  2
SLD-DEFPOINTS
 70
     0
 62
     7
  6
CONTINUOUS
  0
ENDTAB
  0
TABLE
  2
STYLE
  5
3
330
0
100
AcDbSymbolTable
 70
     2
  0
STYLE
  5
11
330
3
100
AcDbSymbolTableRecord
100
AcDbTextStyleTableRecord
  2
STANDARD
 70
     0
 40
0.0
 41
1.0
 50
0.0
 71
     0
 42
3.5
  3
txt
  4

  0
STYLE
  5
80
330
3
100
AcDbSymbolTableRecord
100
AcDbTextStyleTableRecord
  2
SLDTEXTSTYLE0
 70
     0
 40
0.0
 41
0.75
 50
0.0
 71
     0
 42
3.5
  3
TXT
  4

  0
ENDTAB
  0
TABLE
  2
VIEW
  5
6
330
0
100
AcDbSymbolTable
 70
     0
  0
ENDTAB
  0
TABLE
  2
UCS
  5
7
330
0
100
AcDbSymbolTable
 70
     0
  0
ENDTAB
  0
TABLE
  2
APPID
  5
9
330
0
100
AcDbSymbolTable
 70
     1
  0
APPID
  5
12
330
9
100
AcDbSymbolTableRecord
100
AcDbRegAppTableRecord
  2
ACAD
 70
     0
  0
ENDTAB
  0
TABLE
  2
DIMSTYLE
  5
A
330
0
100
AcDbSymbolTable
 70
     3
  0
DIMSTYLE
105
27
330
A
100
AcDbSymbolTableRecord
100
AcDbDimStyleTableRecord
  2
ISO-25
 70
     0
  3

  4

  5

  6

  7

 40
1.0
 41
2.5
 42
0.625
 43
3.75
 44
1.25
 45
0.0
 46
0.0
 47
0.0
 48
0.0
140
2.5
141
2.5
142
0.0
143
0.0393700787
144
1.0
145
0.0
146
1.0
147
0.625
 71
     0
 72
     0
 73
     0
 74
     0
 75
     0
 76
     0
 77
     1
 78
     8
170
     0
171
     3
172
     1
173
     0
174
     0
175
     0
176
     0
177
     0
178
     0
270
     2
271
     2
272
     2
273
     2
274
     3
340
11
275
     0
280
     0
281
     0
282
     0
283
     0
284
     8
285
     0
286
     0
287
     3
288
     0
  0
DIMSTYLE
105
81
102
{ACAD_REACTORS
330
7F
330
C8
330
F9
102
}
330
A
100
AcDbSymbolTableRecord
100
AcDbDimStyleTableRecord
  2
SLDDIMSTYLE0
 70
     0
  3

  4

  5

  6

  7

 40
1.0
 41
8.0
 42
0.0625
 43
0.38
 44
0.0
 45
0.000000001
 46
0.0
 47
0.0
 48
0.0
140
7.4083333333
141
0.09
142
0.0
143
25.4
144
1.0
145
0.0
146
1.0
147
1.8520833333
 71
     0
 72
     0
 73
     1
 74
     1
 75
     0
 76
     0
 77
     0
 78
    12
170
     0
171
     2
172
     0
173
     1
174
     0
175
     0
176
     0
177
     0
178
     0
270
     2
271
     0
272
     0
273
     2
274
     2
340
80
275
     0
280
     0
281
     0
282
     0
283
     1
284
    12
285
     0
286
     0
287
     3
288
     0
  0
DIMSTYLE
105
ED
102
{ACAD_REACTORS
330
EC
330
103
330
10F
102
}
330
A
100
AcDbSymbolTableRecord
100
AcDbDimStyleTableRecord
  2
SLDDIMSTYLE1
 70
     0
  3

  4

  5

  6

  7

 40
1.0
 41
8.0
 42
0.0625
 43
0.38
 44
0.0
 45
0.000000001
 46
0.0
 47
0.0
 48
0.0
140
7.4083333333
141
0.09
142
0.0
143
25.4
144
1.0
145
0.0
146
1.0
147
1.8520833333
 71
     0
 72
     0
 73
     1
 74
     1
 75
     0
 76
     0
 77
     0
 78
    12
170
     0
171
     2
172
     1
173
     1
174
     0
175
     0
176
     0
177
     0
178
     0
270
     2
271
     0
272
     0
273
     2
274
     2
340
80
275
     0
280
     0
281
     0
282
     0
283
     1
284
    12
285
     0
286
     0
288
     0
  0
ENDTAB
  0
TABLE
  2
BLOCK_RECORD
  5
1
330
0
100
AcDbSymbolTable
 70
    10
  0
BLOCK_RECORD
  5
1F
330
1
100
AcDbSymbolTableRecord
100
AcDbBlockTableRecord
  2
*MODEL_SPACE
  0
BLOCK_RECORD
  5
1B
330
1
100
AcDbSymbolTableRecord
100
AcDbBlockTableRecord
  2
*PAPER_SPACE
  0
BLOCK_RECORD
  5
23
330
1
100
AcDbSymbolTableRecord
100
AcDbBlockTableRecord
  2
*PAPER_SPACE0
  0
BLOCK_RECORD
  5
82
330
1
100
AcDbSymbolTableRecord
100
AcDbBlockTableRecord
  2
_D
  0
BLOCK_RECORD
  5
8B
330
1
100
AcDbSymbolTableRecord
100
AcDbBlockTableRecord
  2
SW_CENTERMARKSYMBOL_0
  0
BLOCK_RECORD
  5
93
330
1
100
AcDbSymbolTableRecord
100
AcDbBlockTableRecord
  2
SW_CENTERMARKSYMBOL_1
  0
BLOCK_RECORD
  5
C9
330
1
100
AcDbSymbolTableRecord
100
AcDbBlockTableRecord
  2
_D_1
  0
BLOCK_RECORD
  5
EE
330
1
100
AcDbSymbolTableRecord
100
AcDbBlockTableRecord
  2
_D_2
  0
BLOCK_RECORD
  5
FA
330
1
100
AcDbSymbolTableRecord
100
AcDbBlockTableRecord
  2
_D_3
  0
BLOCK_RECORD
  5
104
330
1
100
AcDbSymbolTableRecord
100
AcDbBlockTableRecord
  2
_D_4
  0
BLOCK_RECORD
  5
110
330
1
100
AcDbSymbolTableRecord
100
AcDbBlockTableRecord
  2
_D_5
  0
BLOCK_RECORD
  5
11A
330
1
100
AcDbSymbolTableRecord
100
AcDbBlockTableRecord
  2
SW_CENTERMARKSYMBOL_2
  0
ENDTAB
  0
ENDSEC
  0
SECTION
  2
BLOCKS
  0
BLOCK
  5
20
330
1F
100
AcDbEntity
  8
0
100
AcDbBlockBegin
  2
*MODEL_SPACE
 70
     0
 10
0.0
 20
0.0
 30
0.0
  3
*MODEL_SPACE
  1

  0
ENDBLK
  5
21
330
1F
100
AcDbEntity
  8
0
100
AcDbBlockEnd
  0
BLOCK
  5
1C
330
1B
100
AcDbEntity
 67
     1
  8
0
100
AcDbBlockBegin
  2
*PAPER_SPACE
 70
     0
 10
0.0
 20
0.0
 30
0.0
  3
*PAPER_SPACE
  1

  0
ENDBLK
  5
1D
330
1B
100
AcDbEntity
 67
     1
  8
0
100
AcDbBlockEnd
  0
BLOCK
  5
24
330
23
100
AcDbEntity
  8
0
100
AcDbBlockBegin
  2
*PAPER_SPACE0
 70
     0
 10
0.0
 20
0.0
 30
0.0
  3
*PAPER_SPACE0
  1

  0
ENDBLK
  5
25
330
23
100
AcDbEntity
  8
0
100
AcDbBlockEnd
  0
BLOCK
  5
83
330
82
100
AcDbEntity
  8
0
100
AcDbBlockBegin
  2
_D
 70
     0
 10
0.0
 20
0.0
 30
0.0
  3
_D
  1

  0
SOLID
  5
85
330
82
100
AcDbEntity
  8
0
  6
CONTINUOUS
 62
     7
100
AcDbTrace
 10
434.6801054607
 20
570.2487140084
 30
0.0
 11
442.6801054607
 21
568.7487140084
 31
0.0
 12
442.6801054607
 22
571.7487140084
 32
0.0
 13
442.6801054607
 23
571.7487140084
 33
0.0
  0
SOLID
  5
86
330
82
100
AcDbEntity
  8
0
  6
CONTINUOUS
 62
     7
100
AcDbTrace
 10
534.6801054607
 20
570.2487140084
 30
0.0
 11
526.6801054607
 21
571.7487140084
 31
0.0
 12
526.6801054607
 22
568.7487140084
 32
0.0
 13
526.6801054607
 23
568.7487140084
 33
0.0
  0
LINE
  5
87
330
82
100
AcDbEntity
  8
0
  6
CONTINUOUS
 62
     7
100
AcDbLine
 10
434.6801054607
 20
514.1867498406
 30
0.0
 11
434.6801054607
 21
571.2487140084
 31
0.0
  0
LINE
  5
88
330
82
100
AcDbEntity
  8
0
  6
CONTINUOUS
 62
     7
100
AcDbLine
 10
534.6801054607
 20
514.1867498406
 30
0.0
 11
534.6801054607
 21
571.2487140084
 31
0.0
  0
LINE
  5
89
330
82
100
AcDbEntity
  8
0
  6
CONTINUOUS
 62
     7
100
AcDbLine
 10
434.6801054607
 20
570.2487140084
 30
0.0
 11
534.6801054607
 21
570.2487140084
 31
0.0
  0
MTEXT
  5
8A
330
82
100
AcDbEntity
  8
0
  6
CONTINUOUS
 62
     7
100
AcDbMText
 10
470.7854468667
 20
579.7985577467
 30
0.0
 40
7.4083333333
 41
0.0
 71
     1
 72
     1
  1
100
  7
SLDTEXTSTYLE0
  0
ENDBLK
  5
84
330
82
100
AcDbEntity
  8
0
100
AcDbBlockEnd
  0
BLOCK
  5
8C
330
8B
100
AcDbEntity
  8
0
100
AcDbBlockBegin
  2
SW_CENTERMARKSYMBOL_0
 70
     0
 10
0.0
 20
0.0
 30
0.0
  3
SW_CENTERMARKSYMBOL_0
  1

  0
LINE
  5
8E
330
8B
100
AcDbEntity
  8
0
  6
CONTINUOUS
 62
     0
100
AcDbLine
 10
0.0
 20
0.0
 30
0.0
 11
0.0
 21
2.5
 31
0.0
  0
LINE
  5
8F
330
8B
100
AcDbEntity
  8
0
  6
CONTINUOUS
 62
     0
100
AcDbLine
 10
0.0
 20
0.0
 30
0.0
 11
-2.5
 21
0.0
 31
0.0
  0
LINE
  5
90
330
8B
100
AcDbEntity
  8
0
  6
CONTINUOUS
 62
     0
100
AcDbLine
 10
0.0
 20
0.0
 30
0.0
 11
0.0
 21
-2.5
 31
0.0
  0
LINE
  5
91
330
8B
100
AcDbEntity
  8
0
  6
CONTINUOUS
 62
     0
100
AcDbLine
 10
0.0
 20
0.0
 30
0.0
 11
2.5
 21
0.0
 31
0.0
  0
ENDBLK
  5
8D
330
8B
100
AcDbEntity
  8
0
100
AcDbBlockEnd
  0
BLOCK
  5
94
330
93
100
AcDbEntity
  8
0
100
AcDbBlockBegin
  2
SW_CENTERMARKSYMBOL_1
 70
     0
 10
0.0
 20
0.0
 30
0.0
  3
SW_CENTERMARKSYMBOL_1
  1

  0
LINE
  5
96
330
93
100
AcDbEntity
  8
0
  6
CONTINUOUS
 62
     0
100
AcDbLine
 10
0.0
 20
0.0
 30
0.0
 11
0.0
 21
2.5
 31
0.0
  0
LINE
  5
97
330
93
100
AcDbEntity
  8
0
  6
CONTINUOUS
 62
     0
100
AcDbLine
 10
0.0
 20
0.0
 30
0.0
 11
-2.5
 21
0.0
 31
0.0
  0
LINE
  5
98
330
93
100
AcDbEntity
  8
0
  6
CONTINUOUS
 62
     0
100
AcDbLine
 10
0.0
 20
0.0
 30
0.0
 11
0.0
 21
-2.5
 31
0.0
  0
LINE
  5
99
330
93
100
AcDbEntity
  8
0
  6
CONTINUOUS
 62
     0
100
AcDbLine
 10
0.0
 20
0.0
 30
0.0
 11
2.5
 21
0.0
 31
0.0
  0
ENDBLK
  5
95
330
93
100
AcDbEntity
  8
0
100
AcDbBlockEnd
  0
BLOCK
  5
CA
330
C9
100
AcDbEntity
  8
0
100
AcDbBlockBegin
  2
_D_1
 70
     0
 10
0.0
 20
0.0
 30
0.0
  3
_D_1
  1

  0
SOLID
  5
CC
330
C9
100
AcDbEntity
  8
0
  6
CONTINUOUS
 62
     7
100
AcDbTrace
 10
290.6634554351
 20
510.6867498406
 30
0.0
 11
289.1634554351
 21
502.6867498406
 31
0.0
 12
292.1634554351
 22
502.6867498406
 32
0.0
 13
292.1634554351
 23
502.6867498406
 33
0.0
  0
SOLID
  5
CD
330
C9
100
AcDbEntity
  8
0
  6
CONTINUOUS
 62
     7
100
AcDbTrace
 10
290.6634554351
 20
443.6867498406
 30
0.0
 11
292.1634554351
 21
451.6867498406
 31
0.0
 12
289.1634554351
 22
451.6867498406
 32
0.0
 13
289.1634554351
 23
451.6867498406
 33
0.0
  0
LINE
  5
CE
330
C9
100
AcDbEntity
  8
0
  6
CONTINUOUS
 62
     7
100
AcDbLine
 10
205.9365660318
 20
510.6867498406
 30
0.0
 11
291.6634554351
 21
510.6867498406
 31
0.0
  0
LINE
  5
CF
330
C9
100
AcDbEntity
  8
0
  6
CONTINUOUS
 62
     7
100
AcDbLine
 10
263.6365660318
 20
443.6867498406
 30
0.0
 11
291.6634554351
 21
443.6867498406
 31
0.0
  0
LINE
  5
D0
330
C9
100
AcDbEntity
  8
0
  6
CONTINUOUS
 62
     7
100
AcDbLine
 10
290.6634554351
 20
510.6867498406
 30
0.0
 11
290.6634554351
 21
483.4003926064
 31
0.0
  0
LINE
  5
D1
330
C9
100
AcDbEntity
  8
0
  6
CONTINUOUS
 62
     7
100
AcDbLine
 10
290.6634554351
 20
443.6867498406
 30
0.0
 11
290.6634554351
 21
471.6293739896
 31
0.0
  0
MTEXT
  5
D2
330
C9
100
AcDbEntity
  8
0
  6
CONTINUOUS
 62
     7
100
AcDbMText
 10
285.1895203898
 20
481.1792177279
 30
0.0
 40
7.4083333333
 41
0.0
 71
     1
 72
     1
  1
67
  7
SLDTEXTSTYLE0
  0
ENDBLK
  5
CB
330
C9
100
AcDbEntity
  8
0
100
AcDbBlockEnd
  0
BLOCK
  5
EF
330
EE
100
AcDbEntity
  8
0
100
AcDbBlockBegin
  2
_D_2
 70
     0
 10
0.0
 20
0.0
 30
0.0
  3
_D_2
  1

  0
SOLID
  5
F1
330
EE
100
AcDbEntity
  8
0
  6
CONTINUOUS
 62
     7
100
AcDbTrace
 10
25.5000923733
 20
901.1315522151
 30
0.0
 11
33.5000923733
 21
899.6315522151
 31
0.0
 12
33.5000923733
 22
902.6315522151
 32
0.0
 13
33.5000923733
 23
902.6315522151
 33
0.0
  0
SOLID
  5
F2
330
EE
100
AcDbEntity
  8
0
  6
CONTINUOUS
 62
     7
100
AcDbTrace
 10
-2.8634339682
 20
901.1315522151
 30
0.0
 11
-10.8634339682
 21
902.6315522151
 31
0.0
 12
-10.8634339682
 22
899.6315522151
 32
0.0
 13
-10.8634339682
 23
899.6315522151
 33
0.0
  0
LINE
  5
F3
330
EE
100
AcDbEntity
  8
0
  6
CONTINUOUS
 62
     7
100
AcDbLine
 10
25.5000923733
 20
875.4900985874
 30
0.0
 11
25.5000923733
 21
902.1315522151
 31
0.0
  0
LINE
  5
F4
330
EE
100
AcDbEntity
  8
0
  6
CONTINUOUS
 62
     7
100
AcDbLine
 10
-2.8634339682
 20
872.6900985874
 30
0.0
 11
-2.8634339682
 21
902.1315522151
 31
0.0
  0
LINE
  5
F5
330
EE
100
AcDbEntity
  8
0
  6
CONTINUOUS
 62
     7
100
AcDbLine
 10
25.5000923733
 20
901.1315522151
 30
0.0
 11
35.5000923733
 21
901.1315522151
 31
0.0
  0
LINE
  5
F6
330
EE
100
AcDbEntity
  8
0
  6
CONTINUOUS
 62
     7
100
AcDbLine
 10
25.5000923733
 20
901.1315522151
 30
0.0
 11
-2.8634339682
 21
901.1315522151
 31
0.0
  0
LINE
  5
F7
330
EE
100
AcDbEntity
  8
0
  6
CONTINUOUS
 62
     7
100
AcDbLine
 10
-2.8634339682
 20
901.1315522151
 30
0.0
 11
-12.8634339682
 21
901.1315522151
 31
0.0
  0
MTEXT
  5
F8
330
EE
100
AcDbEntity
  8
0
  6
CONTINUOUS
 62
     7
100
AcDbMText
 10
4.5965573239
 20
910.6813959534
 30
0.0
 40
7.4083333333
 41
0.0
 71
     1
 72
     1
  1
28
  7
SLDTEXTSTYLE0
  0
ENDBLK
  5
F0
330
EE
100
AcDbEntity
  8
0
100
AcDbBlockEnd
  0
BLOCK
  5
FB
330
FA
100
AcDbEntity
  8
0
100
AcDbBlockBegin
  2
_D_3
 70
     0
 10
0.0
 20
0.0
 30
0.0
  3
_D_3
  1

  0
SOLID
  5
FD
330
FA
100
AcDbEntity
  8
0
  6
CONTINUOUS
 62
     7
100
AcDbTrace
 10
-3.0634339682
 20
797.114431233
 30
0.0
 11
4.9365660318
 21
795.614431233
 31
0.0
 12
4.9365660318
 22
798.614431233
 32
0.0
 13
4.9365660318
 23
798.614431233
 33
0.0
  0
SOLID
  5
FE
330
FA
100
AcDbEntity
  8
0
  6
CONTINUOUS
 62
     7
100
AcDbTrace
 10
249.9365660318
 20
797.114431233
 30
0.0
 11
241.9365660318
 21
798.614431233
 31
0.0
 12
241.9365660318
 22
795.614431233
 32
0.0
 13
241.9365660318
 23
795.614431233
 33
0.0
  0
LINE
  5
FF
330
FA
100
AcDbEntity
  8
0
  6
CONTINUOUS
 62
     7
100
AcDbLine
 10
-3.0634339682
 20
774.6900985874
 30
0.0
 11
-3.0634339682
 21
798.114431233
 31
0.0
  0
LINE
  5
100
330
FA
100
AcDbEntity
  8
0
  6
CONTINUOUS
 62
     7
100
AcDbLine
 10
249.9365660318
 20
747.1900985874
 30
0.0
 11
249.9365660318
 21
798.114431233
 31
0.0
  0
LINE
  5
101
330
FA
100
AcDbEntity
  8
0
  6
CONTINUOUS
 62
     7
100
AcDbLine
 10
-3.0634339682
 20
797.114431233
 30
0.0
 11
249.9365660318
 21
797.114431233
 31
0.0
  0
MTEXT
  5
102
330
FA
100
AcDbEntity
  8
0
  6
CONTINUOUS
 62
     7
100
AcDbMText
 10
108.2517429265
 20
806.6642749713
 30
0.0
 40
7.4083333333
 41
0.0
 71
     1
 72
     1
  1
250
  7
SLDTEXTSTYLE0
  0
ENDBLK
  5
FC
330
FA
100
AcDbEntity
  8
0
100
AcDbBlockEnd
  0
BLOCK
  5
105
330
104
100
AcDbEntity
  8
0
100
AcDbBlockBegin
  2
_D_4
 70
     0
 10
0.0
 20
0.0
 30
0.0
  3
_D_4
  1

  0
SOLID
  5
107
330
104
100
AcDbEntity
  8
0
  6
CONTINUOUS
 62
     7
100
AcDbTrace
 10
-3.0634339682
 20
696.6523942628
 30
0.0
 11
-11.0634339682
 21
698.1523942628
 31
0.0
 12
-11.0634339682
 22
695.1523942628
 32
0.0
 13
-11.0634339682
 23
695.1523942628
 33
0.0
  0
SOLID
  5
108
330
104
100
AcDbEntity
  8
0
  6
CONTINUOUS
 62
     7
100
AcDbTrace
 10
1.4365660318
 20
696.6523942628
 30
0.0
 11
9.4365660318
 21
695.1523942628
 31
0.0
 12
9.4365660318
 22
698.1523942628
 32
0.0
 13
9.4365660318
 23
698.1523942628
 33
0.0
  0
LINE
  5
109
330
104
100
AcDbEntity
  8
0
  6
CONTINUOUS
 62
     7
100
AcDbLine
 10
-3.0634339682
 20
712.6900985874
 30
0.0
 11
-3.0634339682
 21
695.6523942628
 31
0.0
  0
LINE
  5
10A
330
104
100
AcDbEntity
  8
0
  6
CONTINUOUS
 62
     7
100
AcDbLine
 10
1.4365660318
 20
712.6900985874
 30
0.0
 11
1.4365660318
 21
695.6523942628
 31
0.0
  0
LINE
  5
10B
330
104
100
AcDbEntity
  8
0
  6
CONTINUOUS
 62
     7
100
AcDbLine
 10
-3.0634339682
 20
696.6523942628
 30
0.0
 11
-19.4090170596
 21
696.6523942628
 31
0.0
  0
LINE
  5
10C
330
104
100
AcDbEntity
  8
0
  6
CONTINUOUS
 62
     7
100
AcDbLine
 10
-3.0634339682
 20
696.6523942628
 30
0.0
 11
1.4365660318
 21
696.6523942628
 31
0.0
  0
LINE
  5
10D
330
104
100
AcDbEntity
  8
0
  6
CONTINUOUS
 62
     7
100
AcDbLine
 10
1.4365660318
 20
696.6523942628
 30
0.0
 11
11.4365660318
 21
696.6523942628
 31
0.0
  0
MTEXT
  5
10E
330
104
100
AcDbEntity
  8
0
  6
CONTINUOUS
 62
     7
100
AcDbMText
 10
-19.4090170596
 20
706.2022380011
 30
0.0
 40
7.4083333333
 41
0.0
 71
     1
 72
     1
  1
5
  7
SLDTEXTSTYLE0
  0
ENDBLK
  5
106
330
104
100
AcDbEntity
  8
0
100
AcDbBlockEnd
  0
BLOCK
  5
111
330
110
100
AcDbEntity
  8
0
100
AcDbBlockBegin
  2
_D_5
 70
     0
 10
0.0
 20
0.0
 30
0.0
  3
_D_5
  1

  0
SOLID
  5
113
330
110
100
AcDbEntity
  8
0
  6
CONTINUOUS
 62
     7
100
AcDbTrace
 10
155.5881330236
 20
756.3900985874
 30
0.0
 11
157.0881330236
 21
764.3900985874
 31
0.0
 12
154.0881330236
 22
764.3900985874
 32
0.0
 13
154.0881330236
 23
764.3900985874
 33
0.0
  0
SOLID
  5
114
330
110
100
AcDbEntity
  8
0
  6
CONTINUOUS
 62
     7
100
AcDbTrace
 10
155.5881330236
 20
730.9900985874
 30
0.0
 11
154.0881330236
 21
722.9900985874
 31
0.0
 12
157.0881330236
 22
722.9900985874
 32
0.0
 13
157.0881330236
 23
722.9900985874
 33
0.0
  0
LINE
  5
115
330
110
100
AcDbEntity
  8
0
  6
CONTINUOUS
 62
     7
100
AcDbLine
 10
133.4577964112
 20
713.1356316846
 30
0.0
 11
155.5881330236
 21
713.1356316846
 31
0.0
  0
LINE
  5
116
330
110
100
AcDbEntity
  8
0
  6
CONTINUOUS
 62
     7
100
AcDbLine
 10
155.5881330236
 20
713.1356316846
 30
0.0
 11
155.5881330236
 21
730.9900985874
 31
0.0
  0
LINE
  5
117
330
110
100
AcDbEntity
  8
0
  6
CONTINUOUS
 62
     7
100
AcDbLine
 10
155.5881330236
 20
756.3900985874
 30
0.0
 11
155.5881330236
 21
766.3900985874
 31
0.0
  0
MTEXT
  5
118
330
110
100
AcDbEntity
  8
0
  6
CONTINUOUS
 62
     7
100
AcDbMText
 10
133.4577964112
 20
722.6854754229
 30
0.0
 40
7.4083333333
 41
0.0
 71
     1
 72
     1
  1
%%c
  7
SLDTEXTSTYLE0
  0
MTEXT
  5
119
330
110
100
AcDbEntity
  8
0
  6
CONTINUOUS
 62
     7
100
AcDbMText
 10
144.6402638643
 20
722.6854754229
 30
0.0
 40
7.4083333333
 41
0.0
 71
     1
 72
     1
  1
25
  7
SLDTEXTSTYLE0
  0
ENDBLK
  5
112
330
110
100
AcDbEntity
  8
0
100
AcDbBlockEnd
  0
BLOCK
  5
11B
330
11A
100
AcDbEntity
  8
0
100
AcDbBlockBegin
  2
SW_CENTERMARKSYMBOL_2
 70
     0
 10
0.0
 20
0.0
 30
0.0
  3
SW_CENTERMARKSYMBOL_2
  1

  0
LINE
  5
11D
330
11A
100
AcDbEntity
  8
0
  6
CONTINUOUS
 62
     0
100
AcDbLine
 10
0.0
 20
0.0
 30
0.0
 11
0.0
 21
2.5
 31
0.0
  0
LINE
  5
11E
330
11A
100
AcDbEntity
  8
0
  6
CONTINUOUS
 62
     0
100
AcDbLine
 10
0.0
 20
0.0
 30
0.0
 11
-2.5
 21
0.0
 31
0.0
  0
LINE
  5
11F
330
11A
100
AcDbEntity
  8
0
  6
CONTINUOUS
 62
     0
100
AcDbLine
 10
0.0
 20
0.0
 30
0.0
 11
0.0
 21
-2.5
 31
0.0
  0
LINE
  5
120
330
11A
100
AcDbEntity
  8
0
  6
CONTINUOUS
 62
     0
100
AcDbLine
 10
0.0
 20
0.0
 30
0.0
 11
2.5
 21
0.0
 31
0.0
  0
ENDBLK
  5
11C
330
11A
100
AcDbEntity
  8
0
100
AcDbBlockEnd
  0
ENDSEC
  0
SECTION
  2
ENTITIES
  0
LINE
  5
74
330
1F
100
AcDbEntity
  8
0
  6
CONTINUOUS
 62
     7
100
AcDbLine
 10
421.9801071117
 20
510.6867498406
 30
0.0
 11
421.9801071117
 21
465.6867480525
 31
0.0
  0
LINE
  5
75
330
1F
100
AcDbEntity
  8
0
  6
CONTINUOUS
 62
     7
100
AcDbLine
 10
447.3801049421
 20
465.6867480525
 30
0.0
 11
447.3801049421
 21
510.6867498406
 31
0.0
  0
LINE
  5
76
330
1F
100
AcDbEntity
  8
0
  6
CONTINUOUS
 62
     7
100
AcDbLine
 10
447.3801049421
 20
443.6867481717
 30
0.0
 11
447.3801049421
 21
465.6867480525
 31
0.0
  0
LINE
  5
77
330
1F
100
AcDbEntity
  8
0
  6
CONTINUOUS
 62
     7
100
AcDbLine
 10
421.9801071117
 20
465.6867480525
 30
0.0
 11
421.9801071117
 21
443.6867481717
 31
0.0
  0
CIRCLE
  5
78
330
1F
100
AcDbEntity
  8
0
  6
CONTINUOUS
 62
     7
100
AcDbCircle
 10
534.6801054607
 20
510.6867498406
 30
0.0
 40
30.80000000000008
  0
CIRCLE
  5
79
330
1F
100
AcDbEntity
  8
0
  6
CONTINUOUS
 62
     7
100
AcDbCircle
 10
534.6801054607
 20
510.6867498406
 30
0.0
 40
31.00000000000008
  0
ARC
  5
7A
330
1F
100
AcDbEntity
  8
0
  6
CONTINUOUS
 62
     7
100
AcDbCircle
 10
434.6801054607
 20
510.6867498406
 30
0.0
 40
12.9
100
AcDbArc
 50
349.897694944
 51
190.102305056
  0
ARC
  5
7B
330
1F
100
AcDbEntity
  8
0
  6
CONTINUOUS
 62
     7
100
AcDbCircle
 10
434.6801054607
 20
510.6867498406
 30
0.0
 40
30.00000000000004
100
AcDbArc
 50
295.0452143618
 51
343.036856508
  0
ARC
  5
7C
330
1F
100
AcDbEntity
  8
0
  6
CONTINUOUS
 62
     7
100
AcDbCircle
 10
434.6801054607
 20
510.6867498406
 30
0.0
 40
30.00000000000008
100
AcDbArc
 50
343.036856508
 51
244.9547856382
  0
ARC
  5
7D
330
1F
100
AcDbEntity
  8
0
  6
CONTINUOUS
 62
     7
100
AcDbCircle
 10
434.6801054607
 20
510.6867498406
 30
0.0
 40
12.69999999999999
100
AcDbArc
 50
0.0
 51
180.0
  0
LINE
  5
7E
330
1F
100
AcDbEntity
  8
0
  6
CONTINUOUS
 62
     7
100
AcDbLine
 10
421.9801071117
 20
443.6867481717
 30
0.0
 11
447.3801049421
 21
443.6867481717
 31
0.0
  0
DIMENSION
  5
7F
330
1F
100
AcDbEntity
  8
0
  6
CONTINUOUS
 62
     7
100
AcDbDimension
  2
_D
 10
534.6801054607
 20
576.1342233168
 30
0.0
 11
478.9963499004
 21
576.1342233168
 31
0.0
 70
   160
  1
<>
  3
SLDDIMSTYLE0
100
AcDbAlignedDimension
 13
434.6801054607
 23
513.1867498406
 33
0.0
 14
534.6801054607
 24
513.1867498406
 34
0.0
100
AcDbRotatedDimension
  0
INSERT
  5
92
330
1F
100
AcDbEntity
  8
0
  6
CONTINUOUS
 62
     7
100
AcDbBlockReference
  2
SW_CENTERMARKSYMBOL_0
 10
434.6801054607
 20
510.6867498406
 30
0.0
  0
INSERT
  5
9A
330
1F
100
AcDbEntity
  8
0
  6
CONTINUOUS
 62
     7
100
AcDbBlockReference
  2
SW_CENTERMARKSYMBOL_1
 10
534.6801054607
 20
510.6867498406
 30
0.0
  0
SPLINE
  5
9B
330
1F
100
AcDbEntity
  8
0
  6
CONTINUOUS
 62
     7
100
AcDbSpline
210
0.0
220
0.0
230
1.0
 70
     8
 71
     3
 72
     9
 73
     5
 74
     0
 42
0.000000001
 43
0.00000001
 40
0.0
 40
0.0
 40
0.0
 40
0.0
 40
0.9685289441057795
 40
1.0
 40
1.0
 40
1.0
 40
1.0
 10
-2.869838644039918
 20
519.5269857221531
 30
0.0
 10
-2.933927862667649
 20
519.3391415107543
 30
0.0
 10
-3.00009957495126
 20
519.1451935523152
 30
0.0
 10
-3.066269476785219
 20
518.9512709691481
 30
0.0
 10
-3.068351913464356
 20
518.9451680206942
 30
0.0
  0
SPLINE
  5
9C
330
1F
100
AcDbEntity
  8
0
  6
CONTINUOUS
 62
     7
100
AcDbSpline
210
0.0
220
0.0
230
1.0
 70
     8
 71
     3
 72
     9
 73
     5
 74
     0
 42
0.000000001
 43
0.00000001
 40
0.0
 40
0.0
 40
0.0
 40
0.0
 40
0.9685289441057795
 40
1.0
 40
1.0
 40
1.0
 40
1.0
 10
-2.869838644039918
 20
519.5269857221531
 30
0.0
 10
-2.933927862667649
 20
519.3391415107543
 30
0.0
 10
-3.00009957495126
 20
519.1451935523152
 30
0.0
 10
-3.066269476785219
 20
518.9512709691481
 30
0.0
 10
-3.068351913464356
 20
518.9451680206942
 30
0.0
  0
SPLINE
  5
9D
330
1F
100
AcDbEntity
  8
0
  6
CONTINUOUS
 62
     7
100
AcDbSpline
210
0.0
220
0.0
230
1.0
 70
     8
 71
     3
 72
     9
 73
     5
 74
     0
 42
0.000000001
 43
0.00000001
 40
0.0
 40
0.0
 40
0.0
 40
0.0
 40
0.9685289441057795
 40
1.0
 40
1.0
 40
1.0
 40
1.0
 10
-2.869838644039918
 20
519.5269857221531
 30
0.0
 10
-2.933927862667649
 20
519.3391415107543
 30
0.0
 10
-3.00009957495126
 20
519.1451935523152
 30
0.0
 10
-3.066269476785219
 20
518.9512709691481
 30
0.0
 10
-3.068351913464356
 20
518.9451680206942
 30
0.0
  0
SPLINE
  5
9E
330
1F
100
AcDbEntity
  8
0
  6
CONTINUOUS
 62
     7
100
AcDbSpline
210
0.0
220
0.0
230
1.0
 70
     8
 71
     3
 72
     9
 73
     5
 74
     0
 42
0.000000001
 43
0.00000001
 40
0.0
 40
0.0
 40
0.0
 40
0.0
 40
0.9685289441057795
 40
1.0
 40
1.0
 40
1.0
 40
1.0
 10
-2.869838644039918
 20
519.5269857221531
 30
0.0
 10
-2.933927862667649
 20
519.3391415107543
 30
0.0
 10
-3.00009957495126
 20
519.1451935523152
 30
0.0
 10
-3.066269476785219
 20
518.9512709691481
 30
0.0
 10
-3.068351913464356
 20
518.9451680206942
 30
0.0
  0
SPLINE
  5
9F
330
1F
100
AcDbEntity
  8
0
  6
CONTINUOUS
 62
     7
100
AcDbSpline
210
0.0
220
0.0
230
1.0
 70
     8
 71
     3
 72
     9
 73
     5
 74
     0
 42
0.000000001
 43
0.00000001
 40
0.0
 40
0.0
 40
0.0
 40
0.0
 40
0.9685289441057795
 40
1.0
 40
1.0
 40
1.0
 40
1.0
 10
-2.869838644039918
 20
519.5269857221531
 30
0.0
 10
-2.933927862667649
 20
519.3391415107543
 30
0.0
 10
-3.00009957495126
 20
519.1451935523152
 30
0.0
 10
-3.066269476785219
 20
518.9512709691481
 30
0.0
 10
-3.068351913464356
 20
518.9451680206942
 30
0.0
  0
SPLINE
  5
A0
330
1F
100
AcDbEntity
  8
0
  6
CONTINUOUS
 62
     7
100
AcDbSpline
210
0.0
220
0.0
230
1.0
 70
     8
 71
     3
 72
     9
 73
     5
 74
     0
 42
0.000000001
 43
0.00000001
 40
0.0
 40
0.0
 40
0.0
 40
0.0
 40
0.9685289441057795
 40
1.0
 40
1.0
 40
1.0
 40
1.0
 10
-2.869838644039918
 20
519.5269857221531
 30
0.0
 10
-2.933927862667649
 20
519.3391415107543
 30
0.0
 10
-3.00009957495126
 20
519.1451935523152
 30
0.0
 10
-3.066269476785219
 20
518.9512709691481
 30
0.0
 10
-3.068351913464356
 20
518.9451680206942
 30
0.0
  0
SPLINE
  5
A1
330
1F
100
AcDbEntity
  8
0
  6
CONTINUOUS
 62
     7
100
AcDbSpline
210
0.0
220
0.0
230
1.0
 70
     8
 71
     3
 72
     9
 73
     5
 74
     0
 42
0.000000001
 43
0.00000001
 40
0.0
 40
0.0
 40
0.0
 40
0.0
 40
0.9685289441057795
 40
1.0
 40
1.0
 40
1.0
 40
1.0
 10
-2.869838644039918
 20
519.5269857221531
 30
0.0
 10
-2.933927862667649
 20
519.3391415107543
 30
0.0
 10
-3.00009957495126
 20
519.1451935523152
 30
0.0
 10
-3.066269476785219
 20
518.9512709691481
 30
0.0
 10
-3.068351913464356
 20
518.9451680206942
 30
0.0
  0
SPLINE
  5
A2
330
1F
100
AcDbEntity
  8
0
  6
CONTINUOUS
 62
     7
100
AcDbSpline
210
0.0
220
0.0
230
1.0
 70
     8
 71
     3
 72
     9
 73
     5
 74
     0
 42
0.000000001
 43
0.00000001
 40
0.0
 40
0.0
 40
0.0
 40
0.0
 40
0.9685289441057795
 40
1.0
 40
1.0
 40
1.0
 40
1.0
 10
-2.869838644039918
 20
519.5269857221531
 30
0.0
 10
-2.933927862667649
 20
519.3391415107543
 30
0.0
 10
-3.00009957495126
 20
519.1451935523152
 30
0.0
 10
-3.066269476785219
 20
518.9512709691481
 30
0.0
 10
-3.068351913464356
 20
518.9451680206942
 30
0.0
  0
SPLINE
  5
A3
330
1F
100
AcDbEntity
  8
0
  6
CONTINUOUS
 62
     7
100
AcDbSpline
210
0.0
220
0.0
230
1.0
 70
     8
 71
     3
 72
     9
 73
     5
 74
     0
 42
0.000000001
 43
0.00000001
 40
0.0
 40
0.0
 40
0.0
 40
0.0
 40
0.9685289441057795
 40
1.0
 40
1.0
 40
1.0
 40
1.0
 10
-2.869838644039918
 20
519.5269857221531
 30
0.0
 10
-2.933927862667649
 20
519.3391415107543
 30
0.0
 10
-3.00009957495126
 20
519.1451935523152
 30
0.0
 10
-3.066269476785219
 20
518.9512709691481
 30
0.0
 10
-3.068351913464356
 20
518.9451680206942
 30
0.0
  0
SPLINE
  5
A4
330
1F
100
AcDbEntity
  8
0
  6
CONTINUOUS
 62
     7
100
AcDbSpline
210
0.0
220
0.0
230
1.0
 70
     8
 71
     3
 72
     9
 73
     5
 74
     0
 42
0.000000001
 43
0.00000001
 40
0.0
 40
0.0
 40
0.0
 40
0.0
 40
0.9685289441057795
 40
1.0
 40
1.0
 40
1.0
 40
1.0
 10
-2.869838644039918
 20
519.5269857221531
 30
0.0
 10
-2.933927862667649
 20
519.3391415107543
 30
0.0
 10
-3.00009957495126
 20
519.1451935523152
 30
0.0
 10
-3.066269476785219
 20
518.9512709691481
 30
0.0
 10
-3.068351913464356
 20
518.9451680206942
 30
0.0
  0
SPLINE
  5
A5
330
1F
100
AcDbEntity
  8
0
  6
CONTINUOUS
 62
     7
100
AcDbSpline
210
0.0
220
0.0
230
1.0
 70
     8
 71
     3
 72
     9
 73
     5
 74
     0
 42
0.000000001
 43
0.00000001
 40
0.0
 40
0.0
 40
0.0
 40
0.0
 40
0.9685289441057795
 40
1.0
 40
1.0
 40
1.0
 40
1.0
 10
-2.869838644039918
 20
519.5269857221531
 30
0.0
 10
-2.933927862667649
 20
519.3391415107543
 30
0.0
 10
-3.00009957495126
 20
519.1451935523152
 30
0.0
 10
-3.066269476785219
 20
518.9512709691481
 30
0.0
 10
-3.068351913464356
 20
518.9451680206942
 30
0.0
  0
SPLINE
  5
A6
330
1F
100
AcDbEntity
  8
0
  6
CONTINUOUS
 62
     7
100
AcDbSpline
210
0.0
220
0.0
230
1.0
 70
     8
 71
     3
 72
     9
 73
     5
 74
     0
 42
0.000000001
 43
0.00000001
 40
0.0
 40
0.0
 40
0.0
 40
0.0
 40
0.9685289441057795
 40
1.0
 40
1.0
 40
1.0
 40
1.0
 10
-2.869838644039918
 20
519.5269857221531
 30
0.0
 10
-2.933927862667649
 20
519.3391415107543
 30
0.0
 10
-3.00009957495126
 20
519.1451935523152
 30
0.0
 10
-3.066269476785219
 20
518.9512709691481
 30
0.0
 10
-3.068351913464356
 20
518.9451680206942
 30
0.0
  0
SPLINE
  5
A7
330
1F
100
AcDbEntity
  8
0
  6
CONTINUOUS
 62
     7
100
AcDbSpline
210
0.0
220
0.0
230
1.0
 70
     8
 71
     3
 72
     9
 73
     5
 74
     0
 42
0.000000001
 43
0.00000001
 40
0.0
 40
0.0
 40
0.0
 40
0.0
 40
0.9685289441057795
 40
1.0
 40
1.0
 40
1.0
 40
1.0
 10
-2.869838644039918
 20
519.5269857221531
 30
0.0
 10
-2.933927862667649
 20
519.3391415107543
 30
0.0
 10
-3.00009957495126
 20
519.1451935523152
 30
0.0
 10
-3.066269476785219
 20
518.9512709691481
 30
0.0
 10
-3.068351913464356
 20
518.9451680206942
 30
0.0
  0
SPLINE
  5
A8
330
1F
100
AcDbEntity
  8
0
  6
CONTINUOUS
 62
     7
100
AcDbSpline
210
0.0
220
0.0
230
1.0
 70
     8
 71
     3
 72
     9
 73
     5
 74
     0
 42
0.000000001
 43
0.00000001
 40
0.0
 40
0.0
 40
0.0
 40
0.0
 40
0.9685289441057795
 40
1.0
 40
1.0
 40
1.0
 40
1.0
 10
-2.869838644039918
 20
519.5269857221531
 30
0.0
 10
-2.933927862667649
 20
519.3391415107543
 30
0.0
 10
-3.00009957495126
 20
519.1451935523152
 30
0.0
 10
-3.066269476785219
 20
518.9512709691481
 30
0.0
 10
-3.068351913464356
 20
518.9451680206942
 30
0.0
  0
SPLINE
  5
A9
330
1F
100
AcDbEntity
  8
0
  6
CONTINUOUS
 62
     7
100
AcDbSpline
210
0.0
220
0.0
230
1.0
 70
     8
 71
     3
 72
     9
 73
     5
 74
     0
 42
0.000000001
 43
0.00000001
 40
0.0
 40
0.0
 40
0.0
 40
0.0
 40
0.9685289441057795
 40
1.0
 40
1.0
 40
1.0
 40
1.0
 10
-2.869838644039918
 20
519.5269857221531
 30
0.0
 10
-2.933927862667649
 20
519.3391415107543
 30
0.0
 10
-3.00009957495126
 20
519.1451935523152
 30
0.0
 10
-3.066269476785219
 20
518.9512709691481
 30
0.0
 10
-3.068351913464356
 20
518.9451680206942
 30
0.0
  0
SPLINE
  5
AA
330
1F
100
AcDbEntity
  8
0
  6
CONTINUOUS
 62
     7
100
AcDbSpline
210
0.0
220
0.0
230
1.0
 70
     8
 71
     3
 72
     9
 73
     5
 74
     0
 42
0.000000001
 43
0.00000001
 40
0.0
 40
0.0
 40
0.0
 40
0.0
 40
0.9685289441057795
 40
1.0
 40
1.0
 40
1.0
 40
1.0
 10
-2.869838644039918
 20
519.5269857221531
 30
0.0
 10
-2.933927862667649
 20
519.3391415107543
 30
0.0
 10
-3.00009957495126
 20
519.1451935523152
 30
0.0
 10
-3.066269476785219
 20
518.9512709691481
 30
0.0
 10
-3.068351913464356
 20
518.9451680206942
 30
0.0
  0
SPLINE
  5
AB
330
1F
100
AcDbEntity
  8
0
  6
CONTINUOUS
 62
     7
100
AcDbSpline
210
0.0
220
0.0
230
1.0
 70
     8
 71
     3
 72
     9
 73
     5
 74
     0
 42
0.000000001
 43
0.00000001
 40
0.0
 40
0.0
 40
0.0
 40
0.0
 40
0.9685289441057795
 40
1.0
 40
1.0
 40
1.0
 40
1.0
 10
-2.869838644039918
 20
519.5269857221531
 30
0.0
 10
-2.933927862667649
 20
519.3391415107543
 30
0.0
 10
-3.00009957495126
 20
519.1451935523152
 30
0.0
 10
-3.066269476785219
 20
518.9512709691481
 30
0.0
 10
-3.068351913464356
 20
518.9451680206942
 30
0.0
  0
SPLINE
  5
AC
330
1F
100
AcDbEntity
  8
0
  6
CONTINUOUS
 62
     7
100
AcDbSpline
210
0.0
220
0.0
230
1.0
 70
     8
 71
     3
 72
     9
 73
     5
 74
     0
 42
0.000000001
 43
0.00000001
 40
0.0
 40
0.0
 40
0.0
 40
0.0
 40
0.9685289441057795
 40
1.0
 40
1.0
 40
1.0
 40
1.0
 10
-2.869838644039918
 20
519.5269857221531
 30
0.0
 10
-2.933927862667649
 20
519.3391415107543
 30
0.0
 10
-3.00009957495126
 20
519.1451935523152
 30
0.0
 10
-3.066269476785219
 20
518.9512709691481
 30
0.0
 10
-3.068351913464356
 20
518.9451680206942
 30
0.0
  0
SPLINE
  5
AD
330
1F
100
AcDbEntity
  8
0
  6
CONTINUOUS
 62
     7
100
AcDbSpline
210
0.0
220
0.0
230
1.0
 70
     8
 71
     3
 72
     9
 73
     5
 74
     0
 42
0.000000001
 43
0.00000001
 40
0.0
 40
0.0
 40
0.0
 40
0.0
 40
0.9685289441057795
 40
1.0
 40
1.0
 40
1.0
 40
1.0
 10
-2.869838644039918
 20
519.5269857221531
 30
0.0
 10
-2.933927862667649
 20
519.3391415107543
 30
0.0
 10
-3.00009957495126
 20
519.1451935523152
 30
0.0
 10
-3.066269476785219
 20
518.9512709691481
 30
0.0
 10
-3.068351913464356
 20
518.9451680206942
 30
0.0
  0
SPLINE
  5
AE
330
1F
100
AcDbEntity
  8
0
  6
CONTINUOUS
 62
     7
100
AcDbSpline
210
0.0
220
0.0
230
1.0
 70
     8
 71
     3
 72
     9
 73
     5
 74
     0
 42
0.000000001
 43
0.00000001
 40
0.0
 40
0.0
 40
0.0
 40
0.0
 40
0.9685289441057795
 40
1.0
 40
1.0
 40
1.0
 40
1.0
 10
-2.869838644039918
 20
519.5269857221531
 30
0.0
 10
-2.933927862667649
 20
519.3391415107543
 30
0.0
 10
-3.00009957495126
 20
519.1451935523152
 30
0.0
 10
-3.066269476785219
 20
518.9512709691481
 30
0.0
 10
-3.068351913464356
 20
518.9451680206942
 30
0.0
  0
LINE
  5
AF
330
1F
100
AcDbEntity
  8
0
  6
CONTINUOUS
 62
     7
100
AcDbLine
 10
-2.9376277516
 20
531.6831118115
 30
0.0
 11
-3.0814239571
 21
531.4340966442
 31
0.0
  0
LINE
  5
B0
330
1F
100
AcDbEntity
  8
0
  6
CONTINUOUS
 62
     7
100
AcDbLine
 10
15.1020346393
 20
479.6867503473
 30
0.0
 11
25.3000913372
 21
479.6867503473
 31
0.0
  0
LINE
  5
B1
330
1F
100
AcDbEntity
  8
0
  6
CONTINUOUS
 62
     7
100
AcDbLine
 10
-1.4999078403
 20
479.6867503473
 30
0.0
 11
10.2141184916
 21
479.6867503473
 31
0.0
  0
LINE
  5
B2
330
1F
100
AcDbEntity
  8
0
  6
CONTINUOUS
 62
     7
100
AcDbLine
 10
25.3000913372
 20
541.686749334
 30
0.0
 11
-1.4999078403
 21
541.686749334
 31
0.0
  0
LINE
  5
B3
330
1F
100
AcDbEntity
  8
0
  6
CONTINUOUS
 62
     7
100
AcDbLine
 10
25.3000913372
 20
479.6867503473
 30
0.0
 11
25.5000947227
 21
479.8867500075
 31
0.0
  0
LINE
  5
B4
330
1F
100
AcDbEntity
  8
0
  6
CONTINUOUS
 62
     7
100
AcDbLine
 10
25.5000947227
 20
541.4867496738
 30
0.0
 11
25.3000913372
 21
541.686749334
 31
0.0
  0
LINE
  5
B5
330
1F
100
AcDbEntity
  8
0
  6
CONTINUOUS
 62
     7
100
AcDbLine
 10
-3.0634345303
 20
480.6867505112
 30
0.0
 11
1.4365671387
 21
480.6867505112
 31
0.0
  0
LINE
  5
B6
330
1F
100
AcDbEntity
  8
0
  6
CONTINUOUS
 62
     7
100
AcDbLine
 10
1.4365671387
 20
540.6867491701
 30
0.0
 11
-3.0634345303
 21
540.6867491701
 31
0.0
  0
LINE
  5
B7
330
1F
100
AcDbEntity
  8
0
  6
CONTINUOUS
 62
     7
100
AcDbLine
 10
1.4365671387
 20
497.9867499941
 30
0.0
 11
204.9365548601
 21
497.9867499941
 31
0.0
  0
LINE
  5
B8
330
1F
100
AcDbEntity
  8
0
  6
CONTINUOUS
 62
     7
100
AcDbLine
 10
204.9365548601
 20
523.3867496872
 30
0.0
 11
1.4365671387
 21
523.3867496872
 31
0.0
  0
ARC
  5
B9
330
1F
100
AcDbEntity
  8
0
  6
CONTINUOUS
 62
     7
100
AcDbCircle
 10
204.9365660318
 20
465.6867498406
 30
0.0
 40
32.30000000000001
100
AcDbArc
 50
0.0
 51
90.0
  0
ARC
  5
BA
330
1F
100
AcDbEntity
  8
0
  6
CONTINUOUS
 62
     7
100
AcDbCircle
 10
204.9365660318
 20
465.6867498406
 30
0.0
 40
57.70000000000005
100
AcDbArc
 50
0.0
 51
90.0
  0
LINE
  5
BB
330
1F
100
AcDbEntity
  8
0
  6
CONTINUOUS
 62
     7
100
AcDbLine
 10
262.636563014
 20
443.6867481717
 30
0.0
 11
262.636563014
 21
465.6867480525
 31
0.0
  0
LINE
  5
BC
330
1F
100
AcDbEntity
  8
0
  6
CONTINUOUS
 62
     7
100
AcDbLine
 10
237.2365800848
 20
465.6867480525
 30
0.0
 11
237.2365800848
 21
443.6867481717
 31
0.0
  0
SPLINE
  5
BD
330
1F
100
AcDbEntity
  8
0
  6
CONTINUOUS
 62
     7
100
AcDbSpline
210
0.0
220
0.0
230
1.0
 70
     8
 71
     3
 72
    16
 73
    12
 74
     0
 42
0.000000001
 43
0.00000001
 40
0.0
 40
0.0
 40
0.0
 40
0.0
 40
0.1093624080806014
 40
0.2195203391946819
 40
0.3355353511687305
 40
0.4559299840419652
 40
0.5776070498828048
 40
0.6991341429276315
 40
0.8119250153420791
 40
0.9177390066867468
 40
1.0
 40
1.0
 40
1.0
 40
1.0
 10
15.0880126466629
 20
479.6868881830262
 30
0.0
 10
15.03571000580843
 20
479.6881274432151
 30
0.0
 10
14.93072426470542
 20
479.6906149782081
 30
0.0
 10
14.45171527865004
 20
479.715409731539
 30
0.0
 10
13.78279151689228
 20
479.7436182856823
 30
0.0
 10
12.94684353022414
 20
479.7629193120007
 30
0.0
 10
12.05319417016455
 20
479.7628282011209
 30
0.0
 10
11.22781215687836
 20
479.7417712953103
 30
0.0
 10
10.59979138802701
 20
479.7129909568678
 30
0.0
 10
10.22869565384911
 20
479.6901150743006
 30
0.0
 10
10.21855420105436
 20
479.6887668327723
 30
0.0
 10
10.21411849163742
 20
479.6881771334694
 30
0.0
  0
LINE
  5
BE
330
1F
100
AcDbEntity
  8
0
  6
CONTINUOUS
 62
     7
100
AcDbLine
 10
-1.4999078403
 20
540.6867491701
 30
0.0
 11
-1.4999078403
 21
541.686749334
 31
0.0
  0
LINE
  5
BF
330
1F
100
AcDbEntity
  8
0
  6
CONTINUOUS
 62
     7
100
AcDbLine
 10
-1.4999078403
 20
479.6867503473
 30
0.0
 11
-1.4999078403
 21
480.6867505112
 31
0.0
  0
LINE
  5
C0
330
1F
100
AcDbEntity
  8
0
  6
CONTINUOUS
 62
     7
100
AcDbLine
 10
25.3000913372
 20
523.3867496872
 30
0.0
 11
25.3000913372
 21
541.686749334
 31
0.0
  0
LINE
  5
C1
330
1F
100
AcDbEntity
  8
0
  6
CONTINUOUS
 62
     7
100
AcDbLine
 10
25.3000913372
 20
479.6867503473
 30
0.0
 11
25.3000913372
 21
497.9867499941
 31
0.0
  0
LINE
  5
C2
330
1F
100
AcDbEntity
  8
0
  6
CONTINUOUS
 62
     7
100
AcDbLine
 10
25.5000947227
 20
497.9867499941
 30
0.0
 11
25.5000947227
 21
479.8867500075
 31
0.0
  0
LINE
  5
C3
330
1F
100
AcDbEntity
  8
0
  6
CONTINUOUS
 62
     7
100
AcDbLine
 10
25.5000947227
 20
541.4867496738
 30
0.0
 11
25.5000947227
 21
523.3867496872
 31
0.0
  0
LINE
  5
C4
330
1F
100
AcDbEntity
  8
0
  6
CONTINUOUS
 62
     7
100
AcDbLine
 10
1.4365671387
 20
480.6867505112
 30
0.0
 11
1.4365671387
 21
540.6867491701
 31
0.0
  0
LINE
  5
C5
330
1F
100
AcDbEntity
  8
0
  6
CONTINUOUS
 62
     7
100
AcDbLine
 10
-3.0634345303
 20
480.6867505112
 30
0.0
 11
-3.0634345303
 21
540.6867491701
 31
0.0
  0
LINE
  5
C6
330
1F
100
AcDbEntity
  8
0
  6
CONTINUOUS
 62
     7
100
AcDbLine
 10
249.9365715494
 20
443.6867481717
 30
0.0
 11
262.636563014
 21
443.6867481717
 31
0.0
  0
LINE
  5
C7
330
1F
100
AcDbEntity
  8
0
  6
CONTINUOUS
 62
     7
100
AcDbLine
 10
237.2365800848
 20
443.6867481717
 30
0.0
 11
249.9365715494
 21
443.6867481717
 31
0.0
  0
DIMENSION
  5
C8
330
1F
100
AcDbEntity
  8
0
  6
CONTINUOUS
 62
     7
100
AcDbDimension
  2
_D_1
 10
290.6634554351
 20
443.6867498406
 30
0.0
 11
290.6634554351
 21
477.514883298
 31
0.0
 70
   160
  1
<>
  3
SLDDIMSTYLE0
100
AcDbAlignedDimension
 13
204.9365660318
 23
510.6867498406
 33
0.0
 14
262.6365660318
 24
443.6867498406
 34
0.0
 50
90.0
100
AcDbRotatedDimension
  0
LINE
  5
D3
330
1F
100
AcDbEntity
  8
0
  6
CENTERX2
 62
     7
100
AcDbLine
 10
-5.0634339682
 20
510.6867498406
 30
0.0
 11
204.9365660318
 21
510.6867498406
 31
0.0
  0
LINE
  5
D4
330
1F
100
AcDbEntity
  8
0
  6
CENTERX2
 62
     7
100
AcDbLine
 10
249.9365660318
 20
465.6867498406
 30
0.0
 11
249.9365660318
 21
441.6867498406
 31
0.0
  0
ARC
  5
D5
330
1F
100
AcDbEntity
  8
0
  6
CENTERX2
 62
     7
100
AcDbCircle
 10
204.9365660318
 20
465.6867498406
 30
0.0
 40
45.0
100
AcDbArc
 50
0.0
 51
90.0
  0
LINE
  5
D6
330
1F
100
AcDbEntity
  8
0
  6
CONTINUOUS
 62
     7
100
AcDbLine
 10
-2.86343487
 20
871.690101508
 30
0.0
 11
-3.0634345303
 21
871.4900981225
 31
0.0
  0
LINE
  5
D7
330
1F
100
AcDbEntity
  8
0
  6
CONTINUOUS
 62
     7
100
AcDbLine
 10
-3.0634345303
 20
815.8900994398
 30
0.0
 11
-2.86343487
 21
815.6900979169
 31
0.0
  0
LINE
  5
D8
330
1F
100
AcDbEntity
  8
0
  6
CONTINUOUS
 62
     7
100
AcDbLine
 10
-2.86343487
 20
815.6900979169
 30
0.0
 11
-1.4999078403
 21
815.6900979169
 31
0.0
  0
LINE
  5
D9
330
1F
100
AcDbEntity
  8
0
  6
CONTINUOUS
 62
     7
100
AcDbLine
 10
-1.4999078403
 20
871.690101508
 30
0.0
 11
-2.86343487
 21
871.690101508
 31
0.0
  0
LINE
  5
DA
330
1F
100
AcDbEntity
  8
0
  6
CONTINUOUS
 62
     7
100
AcDbLine
 10
-1.4999078403
 20
812.6900992878
 30
0.0
 11
25.3000913372
 21
812.6900992878
 31
0.0
  0
LINE
  5
DB
330
1F
100
AcDbEntity
  8
0
  6
CONTINUOUS
 62
     7
100
AcDbLine
 10
25.3000913372
 20
874.6901001371
 30
0.0
 11
-1.4999078403
 21
874.6901001371
 31
0.0
  0
LINE
  5
DC
330
1F
100
AcDbEntity
  8
0
  6
CONTINUOUS
 62
     7
100
AcDbLine
 10
25.3000913372
 20
812.6900992878
 30
0.0
 11
25.5000947227
 21
812.890098948
 31
0.0
  0
LINE
  5
DD
330
1F
100
AcDbEntity
  8
0
  6
CONTINUOUS
 62
     7
100
AcDbLine
 10
25.5000947227
 20
874.4900967516
 30
0.0
 11
25.3000913372
 21
874.6901001371
 31
0.0
  0
LINE
  5
DE
330
1F
100
AcDbEntity
  8
0
  6
CONTINUOUS
 62
     7
100
AcDbLine
 10
-3.0634345303
 20
713.6901016868
 30
0.0
 11
1.4365671387
 21
713.6901016868
 31
0.0
  0
LINE
  5
DF
330
1F
100
AcDbEntity
  8
0
  6
CONTINUOUS
 62
     7
100
AcDbLine
 10
1.4365671387
 20
773.6900984831
 30
0.0
 11
-3.0634345303
 21
773.6900984831
 31
0.0
  0
LINE
  5
E0
330
1F
100
AcDbEntity
  8
0
  6
CONTINUOUS
 62
     7
100
AcDbLine
 10
1.4365671387
 20
730.9901002385
 30
0.0
 11
204.9365548601
 21
730.9901002385
 31
0.0
  0
LINE
  5
E1
330
1F
100
AcDbEntity
  8
0
  6
CONTINUOUS
 62
     7
100
AcDbLine
 10
204.9365548601
 20
756.3900980688
 30
0.0
 11
1.4365671387
 21
756.3900980688
 31
0.0
  0
LINE
  5
E2
330
1F
100
AcDbEntity
  8
0
  6
CONTINUOUS
 62
     7
100
AcDbLine
 10
204.9365548601
 20
730.9901002385
 30
0.0
 11
249.9365715494
 21
730.9901002385
 31
0.0
  0
LINE
  5
E3
330
1F
100
AcDbEntity
  8
0
  6
CONTINUOUS
 62
     7
100
AcDbLine
 10
249.9365715494
 20
756.3900980688
 30
0.0
 11
204.9365548601
 21
756.3900980688
 31
0.0
  0
LINE
  5
E4
330
1F
100
AcDbEntity
  8
0
  6
CONTINUOUS
 62
     7
100
AcDbLine
 10
-3.0634345303
 20
815.8900994398
 30
0.0
 11
-3.0634345303
 21
871.4900981225
 31
0.0
  0
LINE
  5
E5
330
1F
100
AcDbEntity
  8
0
  6
CONTINUOUS
 62
     7
100
AcDbLine
 10
-2.86343487
 20
871.690101508
 30
0.0
 11
-2.86343487
 21
815.6900979169
 31
0.0
  0
LINE
  5
E6
330
1F
100
AcDbEntity
  8
0
  6
CONTINUOUS
 62
     7
100
AcDbLine
 10
-1.4999078403
 20
812.6900992878
 30
0.0
 11
-1.4999078403
 21
874.6901001371
 31
0.0
  0
LINE
  5
E7
330
1F
100
AcDbEntity
  8
0
  6
CONTINUOUS
 62
     7
100
AcDbLine
 10
25.3000913372
 20
812.6900992878
 30
0.0
 11
25.3000913372
 21
874.6901001371
 31
0.0
  0
LINE
  5
E8
330
1F
100
AcDbEntity
  8
0
  6
CONTINUOUS
 62
     7
100
AcDbLine
 10
25.5000947227
 20
874.4900967516
 30
0.0
 11
25.5000947227
 21
812.890098948
 31
0.0
  0
LINE
  5
E9
330
1F
100
AcDbEntity
  8
0
  6
CONTINUOUS
 62
     7
100
AcDbLine
 10
1.4365671387
 20
713.6901016868
 30
0.0
 11
1.4365671387
 21
773.6900984831
 31
0.0
  0
LINE
  5
EA
330
1F
100
AcDbEntity
  8
0
  6
CONTINUOUS
 62
     7
100
AcDbLine
 10
-3.0634345303
 20
713.6901016868
 30
0.0
 11
-3.0634345303
 21
773.6900984831
 31
0.0
  0
ARC
  5
EB
330
1F
100
AcDbEntity
  8
0
  6
CONTINUOUS
 62
     7
100
AcDbCircle
 10
249.9365660318
 20
743.6900985874
 30
0.0
 40
12.70000000000005
100
AcDbArc
 50
270.0
 51
90.0
  0
DIMENSION
  5
EC
330
1F
100
AcDbEntity
  8
0
  6
CONTINUOUS
 62
     7
100
AcDbDimension
  2
_D_2
 10
-2.8634339682
 20
907.0170615235
 30
0.0
 11
10.0704923692
 21
907.0170615235
 31
0.0
 70
   160
  1
<>
  3
SLDDIMSTYLE1
100
AcDbAlignedDimension
 13
25.5000923733
 23
874.4900985874
 33
0.0
 14
-2.8634339682
 24
871.6900985874
 34
0.0
 50
0.0
100
AcDbRotatedDimension
  0
DIMENSION
  5
F9
330
1F
100
AcDbEntity
  8
0
  6
CONTINUOUS
 62
     7
100
AcDbDimension
  2
_D_3
 10
249.9365660318
 20
802.9999405415
 30
0.0
 11
116.4626459601
 21
802.9999405415
 31
0.0
 70
   160
  1
<>
  3
SLDDIMSTYLE0
100
AcDbAlignedDimension
 13
-3.0634339682
 23
773.6900985874
 33
0.0
 14
249.9365660318
 24
746.1900985874
 34
0.0
 50
0.0
100
AcDbRotatedDimension
  0
DIMENSION
  5
103
330
1F
100
AcDbEntity
  8
0
  6
CONTINUOUS
 62
     7
100
AcDbDimension
  2
_D_4
 10
1.4365660318
 20
702.5379035712
 30
0.0
 11
-16.6720495369
 21
702.5379035712
 31
0.0
 70
   160
  1
<>
  3
SLDDIMSTYLE1
100
AcDbAlignedDimension
 13
-3.0634339682
 23
713.6900985874
 33
0.0
 14
1.4365660318
 24
713.6900985874
 34
0.0
 50
0.0
100
AcDbRotatedDimension
  0
DIMENSION
  5
10F
330
1F
100
AcDbEntity
  8
0
  6
CONTINUOUS
 62
     7
100
AcDbDimension
  2
_D_5
 10
155.5881330236
 20
730.9900985874
 30
0.0
 11
155.5881330236
 21
719.1651919153
 31
0.0
 70
   160
  1
%%c<>
  3
SLDDIMSTYLE1
100
AcDbAlignedDimension
 13
249.9365660318
 23
756.3900985874
 33
0.0
 14
249.9365660318
 24
730.9900985874
 34
0.0
 50
90.0
100
AcDbRotatedDimension
  0
INSERT
  5
121
330
1F
100
AcDbEntity
  8
0
  6
CONTINUOUS
 62
     7
100
AcDbBlockReference
  2
SW_CENTERMARKSYMBOL_2
 10
249.9365660318
 20
743.6900985874
 30
0.0
  0
ENDSEC
  0
SECTION
  2
OBJECTS
  0
DICTIONARY
  5
C
330
0
100
AcDbDictionary
  3
ACAD_GROUP
350
D
  3
ACAD_MLINESTYLE
350
17
  3
ACAD_SCALELIST
350
47
  0
DICTIONARY
  5
D
102
{ACAD_REACTORS
330
C
102
}
330
C
100
AcDbDictionary
  0
DICTIONARY
  5
17
102
{ACAD_REACTORS
330
C
102
}
330
C
100
AcDbDictionary
  3
STANDARD
350
18
  0
DICTIONARY
  5
47
102
{ACAD_REACTORS
330
C
102
}
330
C
100
AcDbDictionary
  0
MLINESTYLE
  5
18
102
{ACAD_REACTORS
330
17
102
}
330
17
100
AcDbMlineStyle
  2
Standard
 70
     0
  3

 62
   256
 51
90.0
 52
90.0
 71
     2
 49
0.5
 62
   256
  6
BYLAYER
 49
-0.5
 62
   256
  6
BYLAYER
  0
ENDSEC
  0
EOF
