  0
SECTION
  2
HEADER
  9
$ACADVER
  1
AC1027
  9
$ACADMAINTVER
 70
   125
  9
$DWGCODEPAGE
  3
ANSI_1252
  9
$LASTSAVEDBY
  1
fleminab
  9
$REQUIREDVERSIONS
160
                 0
  9
$INSBASE
 10
0.0
 20
0.0
 30
0.0
  9
$EXTMIN
 10
0.0
 20
0.0
 30
0.0
  9
$EXTMAX
 10
3908.945182681796
 20
853.9080690685075
 30
0.0
  9
$LIMMIN
 10
0.0
 20
0.0
  9
$LIMMAX
 10
1188.0
 20
840.0
  9
$ORTHOMODE
 70
     0
  9
$REGENMODE
 70
     1
  9
$FILLMODE
 70
     1
  9
$QTEXTMODE
 70
     0
  9
$MIRRTEXT
 70
     0
  9
$LTSCALE
 40
65.34
  9
$ATTMODE
 70
     1
  9
$TEXTSIZE
 40
0.2
  9
$TRACEWID
 40
0.05
  9
$TEXTSTYLE
  7
STANDARD
  9
$CLAYER
  8
0
  9
$CELTYPE
  6
BYLAYER
  9
$CECOLOR
 62
   256
  9
$CELTSCALE
 40
1.0
  9
$DISPSILH
 70
     0
  9
$DIMSCALE
 40
1.0
  9
$DIMASZ
 40
8.0
  9
$DIMEXO
 40
1.0
  9
$DIMDLI
 40
45.144
  9
$DIMRND
 40
0.0
  9
$DIMDLE
 40
0.0
  9
$DIMEXE
 40
1.5
  9
$DIMTP
 40
0.01
  9
$DIMTM
 40
0.01
  9
$DIMTXT
 40
10.0
  9
$DIMCEN
 40
10.692
  9
$DIMTSZ
 40
0.0
  9
$DIMTOL
 70
     1
  9
$DIMLIM
 70
     0
  9
$DIMTIH
 70
     1
  9
$DIMTOH
 70
     1
  9
$DIMSE1
 70
     0
  9
$DIMSE2
 70
     0
  9
$DIMTAD
 70
     0
  9
$DIMZIN
 70
     0
  9
$DIMBLK
  1
_ARROW_FILLED
  9
$DIMASO
 70
     1
  9
$DIMSHO
 70
     1
  9
$DIMPOST
  1

  9
$DIMAPOST
  1

  9
$DIMALT
 70
     0
  9
$DIMALTD
 70
     2
  9
$DIMALTF
 40
25.4
  9
$DIMLFAC
 40
1.0
  9
$DIMTOFL
 70
     0
  9
$DIMTVP
 40
0.0
  9
$DIMTIX
 70
     0
  9
$DIMSOXD
 70
     0
  9
$DIMSAH
 70
     0
  9
$DIMBLK1
  1

  9
$DIMBLK2
  1

  9
$DIMSTYLE
  2
STANDARD
  9
$DIMCLRD
 70
     0
  9
$DIMCLRE
 70
     0
  9
$DIMCLRT
 70
     0
  9
$DIMTFAC
 40
1.0
  9
$DIMGAP
 40
0.625
  9
$DIMJUST
 70
     0
  9
$DIMSD1
 70
     0
  9
$DIMSD2
 70
     0
  9
$DIMTOLJ
 70
     1
  9
$DIMTZIN
 70
     0
  9
$DIMALTZ
 70
     0
  9
$DIMALTTZ
 70
     0
  9
$DIMUPT
 70
     0
  9
$DIMDEC
 70
     4
  9
$DIMTDEC
 70
     4
  9
$DIMALTU
 70
     2
  9
$DIMALTTD
 70
     2
  9
$DIMTXSTY
  7
STANDARD
  9
$DIMAUNIT
 70
     0
  9
$DIMADEC
 70
     0
  9
$DIMALTRND
 40
0.0
  9
$DIMAZIN
 70
     0
  9
$DIMDSEP
 70
    46
  9
$DIMATFIT
 70
     3
  9
$DIMFRAC
 70
     0
  9
$DIMLDRBLK
  1
_ARROW_FILLED
  9
$DIMLUNIT
 70
     2
  9
$DIMLWD
 70
    -2
  9
$DIMLWE
 70
    -2
  9
$DIMTMOVE
 70
     0
  9
$DIMFXL
 40
1.0
  9
$DIMFXLON
 70
     0
  9
$DIMJOGANG
 40
0.7853981633974483
  9
$DIMTFILL
 70
     0
  9
$DIMTFILLCLR
 70
     0
  9
$DIMARCSYM
 70
     0
  9
$DIMLTYPE
  6

  9
$DIMLTEX1
  6

  9
$DIMLTEX2
  6

  9
$DIMTXTDIRECTION
 70
     0
  9
$LUNITS
 70
     2
  9
$LUPREC
 70
     4
  9
$SKETCHINC
 40
0.1
  9
$FILLETRAD
 40
0.0
  9
$AUNITS
 70
     0
  9
$AUPREC
 70
     0
  9
$MENU
  1
.
  9
$ELEVATION
 40
0.0
  9
$PELEVATION
 40
0.0
  9
$THICKNESS
 40
0.0
  9
$LIMCHECK
 70
     0
  9
$CHAMFERA
 40
0.0
  9
$CHAMFERB
 40
0.0
  9
$CHAMFERC
 40
0.0
  9
$CHAMFERD
 40
0.0
  9
$SKPOLY
 70
     0
  9
$TDCREATE
 40
2457267.515474537
  9
$TDUCREATE
 40
2457267.098807998
  9
$TDUPDATE
 40
2458004.687268518
  9
$TDUUPDATE
 40
2458004.270601852
  9
$TDINDWG
 40
0.0374360185
  9
$TDUSRTIMER
 40
0.0374360185
  9
$USRTIMER
 70
     1
  9
$ANGBASE
 50
0.0
  9
$ANGDIR
 70
     0
  9
$PDMODE
 70
     3
  9
$PDSIZE
 40
8.0
  9
$PLINEWID
 40
0.0
  9
$SPLFRAME
 70
     0
  9
$SPLINETYPE
 70
     6
  9
$SPLINESEGS
 70
     8
  9
$HANDSEED
  5
4852
  9
$SURFTAB1
 70
     6
  9
$SURFTAB2
 70
     6
  9
$SURFTYPE
 70
     6
  9
$SURFU
 70
     6
  9
$SURFV
 70
     6
  9
$UCSBASE
  2

  9
$UCSNAME
  2

  9
$UCSORG
 10
0.0
 20
0.0
 30
0.0
  9
$UCSXDIR
 10
1.0
 20
0.0
 30
0.0
  9
$UCSYDIR
 10
0.0
 20
1.0
 30
0.0
  9
$UCSORTHOREF
  2

  9
$UCSORTHOVIEW
 70
     0
  9
$UCSORGTOP
 10
0.0
 20
0.0
 30
0.0
  9
$UCSORGBOTTOM
 10
0.0
 20
0.0
 30
0.0
  9
$UCSORGLEFT
 10
0.0
 20
0.0
 30
0.0
  9
$UCSORGRIGHT
 10
0.0
 20
0.0
 30
0.0
  9
$UCSORGFRONT
 10
0.0
 20
0.0
 30
0.0
  9
$UCSORGBACK
 10
0.0
 20
0.0
 30
0.0
  9
$PUCSBASE
  2

  9
$PUCSNAME
  2

  9
$PUCSORG
 10
0.0
 20
0.0
 30
0.0
  9
$PUCSXDIR
 10
1.0
 20
0.0
 30
0.0
  9
$PUCSYDIR
 10
0.0
 20
1.0
 30
0.0
  9
$PUCSORTHOREF
  2

  9
$PUCSORTHOVIEW
 70
     0
  9
$PUCSORGTOP
 10
0.0
 20
0.0
 30
0.0
  9
$PUCSORGBOTTOM
 10
0.0
 20
0.0
 30
0.0
  9
$PUCSORGLEFT
 10
0.0
 20
0.0
 30
0.0
  9
$PUCSORGRIGHT
 10
0.0
 20
0.0
 30
0.0
  9
$PUCSORGFRONT
 10
0.0
 20
0.0
 30
0.0
  9
$PUCSORGBACK
 10
0.0
 20
0.0
 30
0.0
  9
$USERI1
 70
     0
  9
$USERI2
 70
     0
  9
$USERI3
 70
     0
  9
$USERI4
 70
     0
  9
$USERI5
 70
     0
  9
$USERR1
 40
0.0
  9
$USERR2
 40
0.0
  9
$USERR3
 40
0.0
  9
$USERR4
 40
0.0
  9
$USERR5
 40
0.0
  9
$WORLDVIEW
 70
     1
  9
$SHADEDGE
 70
     3
  9
$SHADEDIF
 70
    70
  9
$TILEMODE
 70
     1
  9
$MAXACTVP
 70
    48
  9
$PINSBASE
 10
0.0
 20
0.0
 30
0.0
  9
$PLIMCHECK
 70
     0
  9
$PEXTMIN
 10
1.000000000000000E+20
 20
1.000000000000000E+20
 30
1.000000000000000E+20
  9
$PEXTMAX
 10
-1.000000000000000E+20
 20
-1.000000000000000E+20
 30
-1.000000000000000E+20
  9
$PLIMMIN
 10
0.0
 20
0.0
  9
$PLIMMAX
 10
12.0
 20
9.0
  9
$UNITMODE
 70
     0
  9
$VISRETAIN
 70
     1
  9
$PLINEGEN
 70
     0
  9
$PSLTSCALE
 70
     1
  9
$TREEDEPTH
 70
  3020
  9
$CMLSTYLE
  2
STANDARD
  9
$CMLJUST
 70
     0
  9
$CMLSCALE
 40
1.0
  9
$PROXYGRAPHICS
 70
     1
  9
$MEASUREMENT
 70
     1
  9
$CELWEIGHT
370
    -1
  9
$ENDCAPS
280
     0
  9
$JOINSTYLE
280
     0
  9
$LWDISPLAY
290
     0
  9
$INSUNITS
 70
     0
  9
$HYPERLINKBASE
  1

  9
$STYLESHEET
  1
monochrome.ctb
  9
$XEDIT
290
     1
  9
$CEPSNTYPE
380
     0
  9
$PSTYLEMODE
290
     1
  9
$FINGERPRINTGUID
  2
{6F237A70-2E77-4171-BDB2-57AD62B5F503}
  9
$VERSIONGUID
  2
{E6689FC2-8111-C542-94DB-7C121FC95D84}
  9
$EXTNAMES
290
     1
  9
$PSVPSCALE
 40
0.0
  9
$OLESTARTUP
290
     0
  9
$SORTENTS
280
   127
  9
$INDEXCTL
280
     0
  9
$HIDETEXT
280
     0
  9
$XCLIPFRAME
280
     2
  9
$HALOGAP
280
     0
  9
$OBSCOLOR
 70
   257
  9
$OBSLTYPE
280
     0
  9
$INTERSECTIONDISPLAY
280
     0
  9
$INTERSECTIONCOLOR
 70
   257
  9
$DIMASSOC
280
     1
  9
$PROJECTNAME
  1

  9
$CAMERADISPLAY
290
     0
  9
$LENSLENGTH
 40
50.0
  9
$CAMERAHEIGHT
 40
0.0
  9
$STEPSPERSEC
 40
2.0
  9
$STEPSIZE
 40
6.0
  9
$3DDWFPREC
 40
2.0
  9
$PSOLWIDTH
 40
0.25
  9
$PSOLHEIGHT
 40
4.0
  9
$LOFTANG1
 40
1.570796326794896
  9
$LOFTANG2
 40
1.570796326794896
  9
$LOFTMAG1
 40
0.0
  9
$LOFTMAG2
 40
0.0
  9
$LOFTPARAM
 70
     7
  9
$LOFTNORMALS
280
     1
  9
$LATITUDE
 40
37.795
  9
$LONGITUDE
 40
-122.394
  9
$NORTHDIRECTION
 40
0.0
  9
$TIMEZONE
 70
 -8000
  9
$LIGHTGLYPHDISPLAY
280
     1
  9
$TILEMODELIGHTSYNCH
280
     1
  9
$CMATERIAL
347
E77
  9
$SOLIDHIST
280
     1
  9
$SHOWHIST
280
     1
  9
$DWFFRAME
280
     2
  9
$DGNFRAME
280
     0
  9
$REALWORLDSCALE
290
     1
  9
$INTERFERECOLOR
 62
     1
  9
$INTERFEREOBJVS
345
E99
  9
$INTERFEREVPVS
346
E96
  9
$CSHADOW
280
     0
  9
$SHADOWPLANELOCATION
 40
0.0
  0
ENDSEC
  0
SECTION
  2
CLASSES
  0
CLASS
  1
ACDBDICTIONARYWDFLT
  2
AcDbDictionaryWithDefault
  3
ObjectDBX Classes
 90
        0
 91
        1
280
     0
281
     0
  0
CLASS
  1
MATERIAL
  2
AcDbMaterial
  3
ObjectDBX Classes
 90
     1153
 91
        3
280
     0
281
     0
  0
CLASS
  1
VISUALSTYLE
  2
AcDbVisualStyle
  3
ObjectDBX Classes
 90
     4095
 91
       26
280
     0
281
     0
  0
CLASS
  1
TABLESTYLE
  2
AcDbTableStyle
  3
ObjectDBX Classes
 90
     4095
 91
        1
280
     0
281
     0
  0
CLASS
  1
SCALE
  2
AcDbScale
  3
ObjectDBX Classes
 90
     1153
 91
       51
280
     0
281
     0
  0
CLASS
  1
MLEADERSTYLE
  2
AcDbMLeaderStyle
  3
ACDB_MLEADERSTYLE_CLASS
 90
     4095
 91
        4
280
     0
281
     0
  0
CLASS
  1
CELLSTYLEMAP
  2
AcDbCellStyleMap
  3
ObjectDBX Classes
 90
     1152
 91
        4
280
     0
281
     0
  0
CLASS
  1
DICTIONARYVAR
  2
AcDbDictionaryVar
  3
ObjectDBX Classes
 90
        0
 91
       19
280
     0
281
     0
  0
CLASS
  1
LWPOLYLINE
  2
AcDbPolyline
  3
ObjectDBX Classes
 90
        0
 91
       89
280
     0
281
     1
  0
CLASS
  1
XRECORD
  2
AcDbXrecord
  3
ObjectDBX Classes
 90
        0
 91
       95
280
     0
281
     0
  0
CLASS
  1
ACDBPLACEHOLDER
  2
AcDbPlaceHolder
  3
ObjectDBX Classes
 90
        0
 91
        1
280
     0
281
     0
  0
CLASS
  1
LAYOUT
  2
AcDbLayout
  3
ObjectDBX Classes
 90
        0
 91
        2
280
     0
281
     0
  0
CLASS
  1
SORTENTSTABLE
  2
AcDbSortentsTable
  3
ObjectDBX Classes
 90
        0
 91
        3
280
     0
281
     0
  0
CLASS
  1
ACDBSECTIONVIEWSTYLE
  2
AcDbSectionViewStyle
  3
ObjectDBX Classes
 90
     1025
 91
        1
280
     0
281
     0
  0
CLASS
  1
ACDBDETAILVIEWSTYLE
  2
AcDbDetailViewStyle
  3
ObjectDBX Classes
 90
     1025
 91
        1
280
     0
281
     0
  0
ENDSEC
  0
SECTION
  2
TABLES
  0
TABLE
  2
VPORT
  5
8
102
{ACAD_XDICTIONARY
360
EE5
102
}
330
0
100
AcDbSymbolTable
 70
     1
1001
ACAD
1000
DbSaveVer
1071
        5
  0
VPORT
  5
1F4
330
8
100
AcDbSymbolTableRecord
100
AcDbViewportTableRecord
  2
*ACTIVE
 70
     0
 10
0.0
 20
0.0
 11
1.0
 21
1.0
 12
1991.200017945293
 22
426.16950786952
 13
0.0
 23
0.0
 14
1.0
 24
1.0
 15
0.0
 25
0.0
 16
0.0
 26
0.0
 36
1.0
 17
0.0
 27
0.0
 37
0.0
 40
856.5529291192456
 41
2.292712066905615
 42
50.0
 43
0.0
 44
0.0
 50
0.0
 51
0.0
 71
     0
 72
 19999
 73
     1
 74
     1
 75
     0
 76
     0
 77
     0
 78
     0
281
     0
 65
     1
110
0.0
120
0.0
130
0.0
111
1.0
121
0.0
131
0.0
112
0.0
122
1.0
132
0.0
 79
     0
146
0.0
348
E95
 60
     3
 61
     5
292
     1
282
     1
141
0.0
142
0.0
 63
   250
421
  3355443
1001
ACAD_NAV_VCDISPLAY
1070
     3
  0
ENDTAB
  0
TABLE
  2
LTYPE
  5
5
330
0
100
AcDbSymbolTable
 70
     6
  0
LTYPE
  5
14
330
5
100
AcDbSymbolTableRecord
100
AcDbLinetypeTableRecord
  2
BYBLOCK
 70
     0
  3

 72
    65
 73
     0
 40
0.0
  0
LTYPE
  5
15
330
5
100
AcDbSymbolTableRecord
100
AcDbLinetypeTableRecord
  2
BYLAYER
 70
     0
  3

 72
    65
 73
     0
 40
0.0
  0
LTYPE
  5
16
330
5
100
AcDbSymbolTableRecord
100
AcDbLinetypeTableRecord
  2
CONTINUOUS
 70
     0
  3
Solid line
 72
    65
 73
     0
 40
0.0
  0
LTYPE
  5
1F5
330
5
100
AcDbSymbolTableRecord
100
AcDbLinetypeTableRecord
  2
CENTER
 70
     0
  3
____ _ ____ _ ____ _ ____ _ ____ _ ____ _ ____
 72
    65
 73
     4
 40
0.6
 49
0.375
 74
     0
 49
-0.075
 74
     0
 49
0.075
 74
     0
 49
-0.075
 74
     0
  0
LTYPE
  5
1F6
330
5
100
AcDbSymbolTableRecord
100
AcDbLinetypeTableRecord
  2
HIDDEN
 70
     0
  3
- - - - - - - - - - - - - - - - - - - -
 72
    65
 73
     2
 40
0.2
 49
0.1
 74
     0
 49
-0.1
 74
     0
  0
LTYPE
  5
1F7
330
5
100
AcDbSymbolTableRecord
100
AcDbLinetypeTableRecord
  2
PHANTOM
 70
     0
  3
_____ _ _ _____ _ _ _____ _ _ _____
 72
    65
 73
     6
 40
0.8
 49
0.45
 74
     0
 49
-0.05
 74
     0
 49
0.1
 74
     0
 49
-0.05
 74
     0
 49
0.1
 74
     0
 49
-0.05
 74
     0
  0
LTYPE
  5
1F8
330
5
100
AcDbSymbolTableRecord
100
AcDbLinetypeTableRecord
  2
DOT
 70
     0
  3
. . . . . . . . . . . . . . . . . . . .
 72
    65
 73
     2
 40
0.2
 49
0.1
 74
     0
 49
-0.1
 74
     0
  0
LTYPE
  5
1F9
330
5
100
AcDbSymbolTableRecord
100
AcDbLinetypeTableRecord
  2
DASHED
 70
     0
  3
- - - - - - - - - - - - - - - - - - - -
 72
    65
 73
     2
 40
0.2
 49
0.1
 74
     0
 49
-0.1
 74
     0
  0
ENDTAB
  0
TABLE
  2
LAYER
  5
2
102
{ACAD_XDICTIONARY
360
1058
102
}
330
0
100
AcDbSymbolTable
 70
    49
  0
LAYER
  5
10
102
{ACAD_XDICTIONARY
360
47DA
102
}
330
2
100
AcDbSymbolTableRecord
100
AcDbLayerTableRecord
  2
0
 70
     0
 62
     7
  6
CONTINUOUS
370
    -3
390
E75
347
E87
348
0
  0
LAYER
  5
1FA
102
{ACAD_XDICTIONARY
360
47DC
102
}
330
2
100
AcDbSymbolTableRecord
100
AcDbLayerTableRecord
  2
DEFAULT_1
 70
     0
 62
     7
  6
CENTER
370
    -3
390
E75
347
E87
348
0
  0
LAYER
  5
1FB
102
{ACAD_XDICTIONARY
360
47DE
102
}
330
2
100
AcDbSymbolTableRecord
100
AcDbLayerTableRecord
  2
DEFAULT_2
 70
     0
 62
     8
  6
HIDDEN
370
    -3
390
E75
347
E87
348
0
  0
LAYER
  5
1FC
102
{ACAD_XDICTIONARY
360
47E0
102
}
330
2
100
AcDbSymbolTableRecord
100
AcDbLayerTableRecord
  2
DEFAULT_3
 70
     0
 62
     7
  6
PHANTOM
370
    -3
390
E75
347
E87
348
0
  0
LAYER
  5
1FD
102
{ACAD_XDICTIONARY
360
47E2
102
}
330
2
100
AcDbSymbolTableRecord
100
AcDbLayerTableRecord
  2
01_ALL_DTM_PLN
 70
     0
 62
     7
  6
CONTINUOUS
370
    -3
390
E75
347
E87
348
0
  0
LAYER
  5
1FE
102
{ACAD_XDICTIONARY
360
47E4
102
}
330
2
100
AcDbSymbolTableRecord
100
AcDbLayerTableRecord
  2
01__ASM_ALL_DTM_PLN
 70
     0
 62
     7
  6
CONTINUOUS
370
    -3
390
E75
347
E87
348
0
  0
LAYER
  5
1FF
102
{ACAD_XDICTIONARY
360
47E6
102
}
330
2
100
AcDbSymbolTableRecord
100
AcDbLayerTableRecord
  2
01__ASM_DEF_DTM_PLN
 70
     0
 62
     7
  6
CONTINUOUS
370
    -3
390
E75
347
E87
348
0
  0
LAYER
  5
200
102
{ACAD_XDICTIONARY
360
47E8
102
}
330
2
100
AcDbSymbolTableRecord
100
AcDbLayerTableRecord
  2
01___PRT_ALL_DTM_PLN
 70
     0
 62
     7
  6
CONTINUOUS
370
    -3
390
E75
347
E87
348
0
  0
LAYER
  5
201
102
{ACAD_XDICTIONARY
360
47EA
102
}
330
2
100
AcDbSymbolTableRecord
100
AcDbLayerTableRecord
  2
01___PRT_DEF_DTM_PLN
 70
     0
 62
     7
  6
CONTINUOUS
370
    -3
390
E75
347
E87
348
0
  0
LAYER
  5
202
102
{ACAD_XDICTIONARY
360
47EC
102
}
330
2
100
AcDbSymbolTableRecord
100
AcDbLayerTableRecord
  2
02_ALL_AXES
 70
     0
 62
     7
  6
CONTINUOUS
370
    -3
390
E75
347
E87
348
0
  0
LAYER
  5
203
102
{ACAD_XDICTIONARY
360
47EE
102
}
330
2
100
AcDbSymbolTableRecord
100
AcDbLayerTableRecord
  2
02__ASM_ALL_AXES
 70
     0
 62
     7
  6
CONTINUOUS
370
    -3
390
E75
347
E87
348
0
  0
LAYER
  5
204
102
{ACAD_XDICTIONARY
360
47F0
102
}
330
2
100
AcDbSymbolTableRecord
100
AcDbLayerTableRecord
  2
02___PRT_ALL_AXES
 70
     0
 62
     7
  6
CONTINUOUS
370
    -3
390
E75
347
E87
348
0
  0
LAYER
  5
205
102
{ACAD_XDICTIONARY
360
47F2
102
}
330
2
100
AcDbSymbolTableRecord
100
AcDbLayerTableRecord
  2
03_ALL_CURVES
 70
     0
 62
     7
  6
CONTINUOUS
370
    -3
390
E75
347
E87
348
0
  0
LAYER
  5
206
102
{ACAD_XDICTIONARY
360
47F4
102
}
330
2
100
AcDbSymbolTableRecord
100
AcDbLayerTableRecord
  2
03__ASM_ALL_CURVES
 70
     0
 62
     7
  6
CONTINUOUS
370
    -3
390
E75
347
E87
348
0
  0
LAYER
  5
207
102
{ACAD_XDICTIONARY
360
47F6
102
}
330
2
100
AcDbSymbolTableRecord
100
AcDbLayerTableRecord
  2
03___PRT_ALL_CURVES
 70
     0
 62
     7
  6
CONTINUOUS
370
    -3
390
E75
347
E87
348
0
  0
LAYER
  5
208
102
{ACAD_XDICTIONARY
360
47F8
102
}
330
2
100
AcDbSymbolTableRecord
100
AcDbLayerTableRecord
  2
04_ALL_DTM_PNT
 70
     0
 62
     7
  6
CONTINUOUS
370
    -3
390
E75
347
E87
348
0
  0
LAYER
  5
209
102
{ACAD_XDICTIONARY
360
47FA
102
}
330
2
100
AcDbSymbolTableRecord
100
AcDbLayerTableRecord
  2
04__ASM_ALL_DTM_PNT
 70
     0
 62
     7
  6
CONTINUOUS
370
    -3
390
E75
347
E87
348
0
  0
LAYER
  5
20A
102
{ACAD_XDICTIONARY
360
47FC
102
}
330
2
100
AcDbSymbolTableRecord
100
AcDbLayerTableRecord
  2
04___PRT_ALL_DTM_PNT
 70
     0
 62
     7
  6
CONTINUOUS
370
    -3
390
E75
347
E87
348
0
  0
LAYER
  5
20B
102
{ACAD_XDICTIONARY
360
47FE
102
}
330
2
100
AcDbSymbolTableRecord
100
AcDbLayerTableRecord
  2
05_ALL_DTM_CSYS
 70
     0
 62
     7
  6
CONTINUOUS
370
    -3
390
E75
347
E87
348
0
  0
LAYER
  5
20C
102
{ACAD_XDICTIONARY
360
4800
102
}
330
2
100
AcDbSymbolTableRecord
100
AcDbLayerTableRecord
  2
05__ASM_ALL_DTM_CSYS
 70
     0
 62
     7
  6
CONTINUOUS
370
    -3
390
E75
347
E87
348
0
  0
LAYER
  5
20D
102
{ACAD_XDICTIONARY
360
4802
102
}
330
2
100
AcDbSymbolTableRecord
100
AcDbLayerTableRecord
  2
05__ASM_DEF_DTM_CSYS
 70
     0
 62
     7
  6
CONTINUOUS
370
    -3
390
E75
347
E87
348
0
  0
LAYER
  5
20E
102
{ACAD_XDICTIONARY
360
4804
102
}
330
2
100
AcDbSymbolTableRecord
100
AcDbLayerTableRecord
  2
05___PRT_ALL_DTM_CSYS
 70
     0
 62
     7
  6
CONTINUOUS
370
    -3
390
E75
347
E87
348
0
  0
LAYER
  5
20F
102
{ACAD_XDICTIONARY
360
4806
102
}
330
2
100
AcDbSymbolTableRecord
100
AcDbLayerTableRecord
  2
05___PRT_DEF_DTM_CSYS
 70
     0
 62
     7
  6
CONTINUOUS
370
    -3
390
E75
347
E87
348
0
  0
LAYER
  5
210
102
{ACAD_XDICTIONARY
360
4808
102
}
330
2
100
AcDbSymbolTableRecord
100
AcDbLayerTableRecord
  2
06_ALL_SURFS
 70
     0
 62
     7
  6
CONTINUOUS
370
    -3
390
E75
347
E87
348
0
  0
LAYER
  5
211
102
{ACAD_XDICTIONARY
360
480A
102
}
330
2
100
AcDbSymbolTableRecord
100
AcDbLayerTableRecord
  2
06__ASM_ALL_SURFS
 70
     0
 62
     7
  6
CONTINUOUS
370
    -3
390
E75
347
E87
348
0
  0
LAYER
  5
212
102
{ACAD_XDICTIONARY
360
480C
102
}
330
2
100
AcDbSymbolTableRecord
100
AcDbLayerTableRecord
  2
06___PRT_ALL_SURFS
 70
     0
 62
     7
  6
CONTINUOUS
370
    -3
390
E75
347
E87
348
0
  0
LAYER
  5
213
102
{ACAD_XDICTIONARY
360
480E
102
}
330
2
100
AcDbSymbolTableRecord
100
AcDbLayerTableRecord
  2
07__ASM_ALL_SKELETONS
 70
     0
 62
     7
  6
CONTINUOUS
370
    -3
390
E75
347
E87
348
0
  0
LAYER
  5
214
102
{ACAD_XDICTIONARY
360
4810
102
}
330
2
100
AcDbSymbolTableRecord
100
AcDbLayerTableRecord
  2
AXIS
 70
     0
 62
     7
  6
CONTINUOUS
370
    -3
390
E75
347
E87
348
0
  0
LAYER
  5
215
102
{ACAD_XDICTIONARY
360
4812
102
}
330
2
100
AcDbSymbolTableRecord
100
AcDbLayerTableRecord
  2
CSYS
 70
     0
 62
     7
  6
CONTINUOUS
370
    -3
390
E75
347
E87
348
0
  0
LAYER
  5
216
102
{ACAD_XDICTIONARY
360
4814
102
}
330
2
100
AcDbSymbolTableRecord
100
AcDbLayerTableRecord
  2
CURVE
 70
     0
 62
     7
  6
CONTINUOUS
370
    -3
390
E75
347
E87
348
0
  0
LAYER
  5
217
102
{ACAD_XDICTIONARY
360
4816
102
}
330
2
100
AcDbSymbolTableRecord
100
AcDbLayerTableRecord
  2
DATUM
 70
     0
 62
     7
  6
CONTINUOUS
370
    -3
390
E75
347
E87
348
0
  0
LAYER
  5
218
102
{ACAD_XDICTIONARY
360
4818
102
}
330
2
100
AcDbSymbolTableRecord
100
AcDbLayerTableRecord
  2
DRIVEN_DIM
 70
     0
 62
     7
  6
CONTINUOUS
370
    -3
390
E75
347
E87
348
0
  0
LAYER
  5
219
102
{ACAD_XDICTIONARY
360
481A
102
}
330
2
100
AcDbSymbolTableRecord
100
AcDbLayerTableRecord
  2
PARAMETER_DIM
 70
     0
 62
     7
  6
CONTINUOUS
370
    -3
390
E75
347
E87
348
0
  0
LAYER
  5
21A
102
{ACAD_XDICTIONARY
360
481C
102
}
330
2
100
AcDbSymbolTableRecord
100
AcDbLayerTableRecord
  2
QUILT
 70
     0
 62
     7
  6
CONTINUOUS
370
    -3
390
E75
347
E87
348
0
  0
LAYER
  5
21B
102
{ACAD_XDICTIONARY
360
481E
102
}
330
2
100
AcDbSymbolTableRecord
100
AcDbLayerTableRecord
  2
SURFACE
 70
     0
 62
     7
  6
CONTINUOUS
370
    -3
390
E75
347
E87
348
0
  0
LAYER
  5
21C
102
{ACAD_XDICTIONARY
360
4820
102
}
330
2
100
AcDbSymbolTableRecord
100
AcDbLayerTableRecord
  2
TEMP_AXES
 70
     0
 62
     7
  6
CONTINUOUS
370
    -3
390
E75
347
E87
348
0
  0
LAYER
  5
21D
102
{ACAD_XDICTIONARY
360
4822
102
}
330
2
100
AcDbSymbolTableRecord
100
AcDbLayerTableRecord
  2
TEMP_CURVES
 70
     0
 62
     7
  6
CONTINUOUS
370
    -3
390
E75
347
E87
348
0
  0
LAYER
  5
21E
102
{ACAD_XDICTIONARY
360
4824
102
}
330
2
100
AcDbSymbolTableRecord
100
AcDbLayerTableRecord
  2
TEMP_NOTE
 70
     0
 62
     7
  6
CONTINUOUS
370
    -3
390
E75
347
E87
348
0
  0
LAYER
  5
21F
102
{ACAD_XDICTIONARY
360
4826
102
}
330
2
100
AcDbSymbolTableRecord
100
AcDbLayerTableRecord
  2
TEMP_PLN
 70
     0
 62
     7
  6
CONTINUOUS
370
    -3
390
E75
347
E87
348
0
  0
LAYER
  5
220
102
{ACAD_XDICTIONARY
360
4828
102
}
330
2
100
AcDbSymbolTableRecord
100
AcDbLayerTableRecord
  2
TEMP_PNT
 70
     0
 62
     7
  6
CONTINUOUS
370
    -3
390
E75
347
E87
348
0
  0
LAYER
  5
221
102
{ACAD_XDICTIONARY
360
482A
102
}
330
2
100
AcDbSymbolTableRecord
100
AcDbLayerTableRecord
  2
TEMP_SURFS
 70
     0
 62
     7
  6
CONTINUOUS
370
    -3
390
E75
347
E87
348
0
  0
LAYER
  5
222
102
{ACAD_XDICTIONARY
360
482C
102
}
330
2
100
AcDbSymbolTableRecord
100
AcDbLayerTableRecord
  2
THREAD
 70
     0
 62
     7
  6
CONTINUOUS
370
    -3
390
E75
347
E87
348
0
  0
LAYER
  5
104F
102
{ACAD_XDICTIONARY
360
482E
102
}
330
2
100
AcDbSymbolTableRecord
100
AcDbLayerTableRecord
  2
CAXA4
 70
     0
 62
     3
  6
CONTINUOUS
370
    25
390
E75
347
E87
348
0
  0
LAYER
  5
1050
330
2
100
AcDbSymbolTableRecord
100
AcDbLayerTableRecord
  2
Defpoints
 70
     0
 62
     7
  6
CONTINUOUS
290
     0
370
    -3
390
E75
347
E87
348
0
  0
LAYER
  5
1051
102
{ACAD_XDICTIONARY
360
4830
102
}
330
2
100
AcDbSymbolTableRecord
100
AcDbLayerTableRecord
  2
CENTER
 70
     0
 62
     1
  6
CENTER
370
     9
390
E75
347
E87
348
0
  0
LAYER
  5
1052
102
{ACAD_XDICTIONARY
360
4832
102
}
330
2
100
AcDbSymbolTableRecord
100
AcDbLayerTableRecord
  2
尺寸线层
 70
     0
 62
     3
  6
CONTINUOUS
370
    18
390
E75
347
E87
348
0
1001
AcAecLayerStandard
1000

1000
尺寸线层
1001
AcadStringInfo
1000
MIFCodePage
1070
     5
  0
LAYER
  5
1053
102
{ACAD_XDICTIONARY
360
4834
102
}
330
2
100
AcDbSymbolTableRecord
100
AcDbLayerTableRecord
  2
EB0
 70
     0
 62
     7
  6
CONTINUOUS
370
    35
390
E75
347
E87
348
0
1001
AcAecLayerStandard
1000

1000
0层
  0
LAYER
  5
1054
102
{ACAD_XDICTIONARY
360
4836
102
}
330
2
100
AcDbSymbolTableRecord
100
AcDbLayerTableRecord
  2
ACAD0
 70
     0
 62
     7
  6
CONTINUOUS
370
     0
390
E75
347
E87
348
0
1001
AcAecLayerStandard
1000

1000
0
  0
LAYER
  5
3C9E
102
{ACAD_XDICTIONARY
360
4838
102
}
330
2
100
AcDbSymbolTableRecord
100
AcDbLayerTableRecord
  2
DIMENSION
 70
     0
 62
     3
  6
CONTINUOUS
370
     9
390
E75
347
E87
348
0
  0
ENDTAB
  0
TABLE
  2
STYLE
  5
3
330
0
100
AcDbSymbolTable
 70
     6
  0
STYLE
  5
11
330
3
100
AcDbSymbolTableRecord
100
AcDbTextStyleTableRecord
  2
STANDARD
 70
     0
 40
0.0
 41
1.0
 50
0.0
 71
     0
 42
0.2
  3
simfang.ttf
  4

1001
ACAD
1000
FangSong
1071
    34353
  0
STYLE
  5
223
330
3
100
AcDbSymbolTableRecord
100
AcDbTextStyleTableRecord
  2
TEXTSTYLE_1
 70
     0
 40
0.0
 41
0.8
 50
0.0
 71
     0
 42
0.2
  3
gdt_____.ttf
  4

1001
ACAD
1000
gdt
1071
        2
  0
STYLE
  5
224
330
3
100
AcDbSymbolTableRecord
100
AcDbTextStyleTableRecord
  2
TEXTSTYLE_2
 70
     0
 40
0.0
 41
1.0
 50
0.0
 71
     0
 42
0.2
  3
simfang.ttf
  4

1001
ACAD
1000
FangSong
1071
    34353
  0
STYLE
  5
225
330
3
100
AcDbSymbolTableRecord
100
AcDbTextStyleTableRecord
  2
TEXTSTYLE_3
 70
     0
 40
0.0
 41
1.0
 50
0.0
 71
     0
 42
0.2
  3
simfang.ttf
  4

1001
ACAD
1000
FangSong
1071
    34353
  0
STYLE
  5
226
330
3
100
AcDbSymbolTableRecord
100
AcDbTextStyleTableRecord
  2
TEXTSTYLE_4
 70
     0
 40
0.0
 41
1.0
 50
0.0
 71
     0
 42
0.2
  3
shanno.ttf
  4

  0
STYLE
  5
37ED
330
3
100
AcDbSymbolTableRecord
100
AcDbTextStyleTableRecord
  2
TEXTSTYLE_5
 70
     0
 40
0.0
 41
1.0
 50
0.0
 71
     0
 42
0.2
  3
shanno.ttf
  4

  0
ENDTAB
  0
TABLE
  2
VIEW
  5
6
330
0
100
AcDbSymbolTable
 70
     0
  0
ENDTAB
  0
TABLE
  2
UCS
  5
7
330
0
100
AcDbSymbolTable
 70
     0
  0
ENDTAB
  0
TABLE
  2
APPID
  5
9
330
0
100
AcDbSymbolTable
 70
     7
  0
APPID
  5
227
330
9
100
AcDbSymbolTableRecord
100
AcDbRegAppTableRecord
  2
ACAD
 70
     0
  0
APPID
  5
F8F
330
9
100
AcDbSymbolTableRecord
100
AcDbRegAppTableRecord
  2
ACAD_MLEADERVER
 70
     0
  0
APPID
  5
FB1
330
9
100
AcDbSymbolTableRecord
100
AcDbRegAppTableRecord
  2
ACAD_PSEXT
 70
     0
  0
APPID
  5
1056
330
9
100
AcDbSymbolTableRecord
100
AcDbRegAppTableRecord
  2
CAXA_DRAFT_TXTSCALE
 70
     0
  0
APPID
  5
1057
330
9
100
AcDbSymbolTableRecord
100
AcDbRegAppTableRecord
  2
AcAecLayerStandard
 70
     0
  0
APPID
  5
47D2
330
9
100
AcDbSymbolTableRecord
100
AcDbRegAppTableRecord
  2
AcadStringInfo
 70
     0
  0
APPID
  5
483A
330
9
100
AcDbSymbolTableRecord
100
AcDbRegAppTableRecord
  2
ACAD_NAV_VCDISPLAY
 70
     0
  0
ENDTAB
  0
TABLE
  2
DIMSTYLE
  5
A
330
0
100
AcDbSymbolTable
 70
     3
100
AcDbDimStyleTable
 71
     2
340
23B
340
1055
  0
DIMSTYLE
105
23B
330
A
100
AcDbSymbolTableRecord
100
AcDbDimStyleTableRecord
  2
STANDARD
 70
     0
 41
8.0
 42
1.0
 44
1.5
 47
0.01
 48
0.01
 71
     1
 73
     0
 74
     0
 77
     1
 78
     8
140
10.0
147
0.625
271
     2
272
     2
284
     8
340
11
341
228
342
228
343
228
344
228
  0
DIMSTYLE
105
1055
102
{ACAD_REACTORS
330
399E
330
399F
330
39A1
330
39A0
102
}
330
A
100
AcDbSymbolTableRecord
100
AcDbDimStyleTableRecord
  2
DIMSTYLE_1
 70
     0
 41
2.0
 42
1.0
 44
1.5
 47
0.01
 48
0.01
 73
     0
 74
     0
 77
     1
 78
     8
140
2.5
147
0.625
271
     2
272
     2
284
     8
340
11
341
228
342
228
343
228
344
228
  0
DIMSTYLE
105
37EE
330
A
100
AcDbSymbolTableRecord
100
AcDbDimStyleTableRecord
  2
DIMSTYLE_2
 70
     0
 41
2.0
 42
1.0
 44
1.5
 47
0.01
 48
0.01
 73
     0
 74
     0
 77
     1
 78
     8
140
2.5
147
0.625
271
     2
272
     2
284
     8
340
11
341
228
342
228
343
228
344
228
  0
ENDTAB
  0
TABLE
  2
BLOCK_RECORD
  5
1
330
0
100
AcDbSymbolTable
 70
    29
  0
BLOCK_RECORD
  5
1F
102
{ACAD_XDICTIONARY
360
EE9
102
}
330
1
100
AcDbSymbolTableRecord
100
AcDbBlockTableRecord
  2
*MODEL_SPACE
340
EBC
 70
     0
280
     1
281
     0
  0
BLOCK_RECORD
  5
1B
102
{ACAD_XDICTIONARY
360
EE7
102
}
330
1
100
AcDbSymbolTableRecord
100
AcDbBlockTableRecord
  2
*PAPER_SPACE
340
EBD
 70
     0
280
     1
281
     0
  0
BLOCK_RECORD
  5
228
330
1
100
AcDbSymbolTableRecord
100
AcDbBlockTableRecord
  2
_ARROW_FILLED
340
0
102
{BLKREFS
331
3C17
331
3C18
331
3C20
331
3C21
331
3C3B
331
3C3C
331
3C44
331
3C45
331
472B
331
472C
331
4735
331
4736
331
473E
331
473F
331
4747
331
4748
331
4750
331
4751
331
475A
331
475B
102
}
 70
     0
280
     1
281
     0
  0
BLOCK_RECORD
  5
229
330
1
100
AcDbSymbolTableRecord
100
AcDbBlockTableRecord
  2
BALLOON_BL17
340
0
 70
     0
280
     1
281
     0
  0
BLOCK_RECORD
  5
22A
330
1
100
AcDbSymbolTableRecord
100
AcDbBlockTableRecord
  2
BALLOON_BL16
340
0
 70
     0
280
     1
281
     0
  0
BLOCK_RECORD
  5
22B
330
1
100
AcDbSymbolTableRecord
100
AcDbBlockTableRecord
  2
BALLOON_BL15
340
0
 70
     0
280
     1
281
     0
  0
BLOCK_RECORD
  5
22C
330
1
100
AcDbSymbolTableRecord
100
AcDbBlockTableRecord
  2
BALLOON_BL14
340
0
 70
     0
280
     1
281
     0
  0
BLOCK_RECORD
  5
22D
330
1
100
AcDbSymbolTableRecord
100
AcDbBlockTableRecord
  2
BALLOON_BL13
340
0
 70
     0
280
     1
281
     0
  0
BLOCK_RECORD
  5
22E
330
1
100
AcDbSymbolTableRecord
100
AcDbBlockTableRecord
  2
BALLOON_BL12
340
0
 70
     0
280
     1
281
     0
  0
BLOCK_RECORD
  5
22F
330
1
100
AcDbSymbolTableRecord
100
AcDbBlockTableRecord
  2
BALLOON_BL11
340
0
 70
     0
280
     1
281
     0
  0
BLOCK_RECORD
  5
230
330
1
100
AcDbSymbolTableRecord
100
AcDbBlockTableRecord
  2
BALLOON_BL10
340
0
 70
     0
280
     1
281
     0
  0
BLOCK_RECORD
  5
231
330
1
100
AcDbSymbolTableRecord
100
AcDbBlockTableRecord
  2
BALLOON_BL9
340
0
 70
     0
280
     1
281
     0
  0
BLOCK_RECORD
  5
232
330
1
100
AcDbSymbolTableRecord
100
AcDbBlockTableRecord
  2
BALLOON_BL8
340
0
 70
     0
280
     1
281
     0
  0
BLOCK_RECORD
  5
233
330
1
100
AcDbSymbolTableRecord
100
AcDbBlockTableRecord
  2
BALLOON_BL7
340
0
 70
     0
280
     1
281
     0
  0
BLOCK_RECORD
  5
234
330
1
100
AcDbSymbolTableRecord
100
AcDbBlockTableRecord
  2
BALLOON_BL6
340
0
 70
     0
280
     1
281
     0
  0
BLOCK_RECORD
  5
235
330
1
100
AcDbSymbolTableRecord
100
AcDbBlockTableRecord
  2
BALLOON_BL5
340
0
 70
     0
280
     1
281
     0
  0
BLOCK_RECORD
  5
236
330
1
100
AcDbSymbolTableRecord
100
AcDbBlockTableRecord
  2
BALLOON_BL4
340
0
 70
     0
280
     1
281
     0
  0
BLOCK_RECORD
  5
237
330
1
100
AcDbSymbolTableRecord
100
AcDbBlockTableRecord
  2
BALLOON_BL3
340
0
 70
     0
280
     1
281
     0
  0
BLOCK_RECORD
  5
238
330
1
100
AcDbSymbolTableRecord
100
AcDbBlockTableRecord
  2
SYMBOL_3_BL2
340
0
 70
     0
280
     1
281
     0
  0
BLOCK_RECORD
  5
239
330
1
100
AcDbSymbolTableRecord
100
AcDbBlockTableRecord
  2
SYMBOL_1_BL1
340
0
 70
     0
280
     1
281
     0
  0
BLOCK_RECORD
  5
23A
330
1
100
AcDbSymbolTableRecord
100
AcDbBlockTableRecord
  2
SYMBOL_0_BL0
340
0
 70
     0
280
     1
281
     0
  0
BLOCK_RECORD
  5
3B1E
330
1
100
AcDbSymbolTableRecord
100
AcDbBlockTableRecord
  2
*D19
340
0
 70
     0
280
     1
281
     0
  0
BLOCK_RECORD
  5
3B2A
330
1
100
AcDbSymbolTableRecord
100
AcDbBlockTableRecord
  2
*D20
340
0
 70
     0
280
     1
281
     0
  0
BLOCK_RECORD
  5
3B36
330
1
100
AcDbSymbolTableRecord
100
AcDbBlockTableRecord
  2
*D21
340
0
 70
     0
280
     1
281
     0
  0
BLOCK_RECORD
  5
3B42
330
1
100
AcDbSymbolTableRecord
100
AcDbBlockTableRecord
  2
*D22
340
0
 70
     0
280
     1
281
     0
  0
BLOCK_RECORD
  5
42A8
330
1
100
AcDbSymbolTableRecord
100
AcDbBlockTableRecord
  2
*D23
340
0
 70
     0
280
     1
281
     0
  0
BLOCK_RECORD
  5
42B5
330
1
100
AcDbSymbolTableRecord
100
AcDbBlockTableRecord
  2
*D24
340
0
 70
     0
280
     1
281
     0
  0
BLOCK_RECORD
  5
42C2
330
1
100
AcDbSymbolTableRecord
100
AcDbBlockTableRecord
  2
*D25
340
0
 70
     0
280
     1
281
     0
  0
BLOCK_RECORD
  5
42CE
330
1
100
AcDbSymbolTableRecord
100
AcDbBlockTableRecord
  2
*D26
340
0
 70
     0
280
     1
281
     0
  0
BLOCK_RECORD
  5
42DB
330
1
100
AcDbSymbolTableRecord
100
AcDbBlockTableRecord
  2
*D27
340
0
 70
     0
280
     1
281
     0
  0
BLOCK_RECORD
  5
42E7
330
1
100
AcDbSymbolTableRecord
100
AcDbBlockTableRecord
  2
*D28
340
0
 70
     0
280
     1
281
     0
  0
ENDTAB
  0
ENDSEC
  0
SECTION
  2
BLOCKS
  0
BLOCK
  5
20
330
1F
100
AcDbEntity
  8
0
100
AcDbBlockBegin
  2
*MODEL_SPACE
 70
     0
 10
0.0
 20
0.0
 30
0.0
  3
*MODEL_SPACE
  1

  0
ENDBLK
  5
21
330
1F
100
AcDbEntity
  8
0
100
AcDbBlockEnd
  0
BLOCK
  5
1C
330
1B
100
AcDbEntity
 67
     1
  8
0
100
AcDbBlockBegin
  2
*PAPER_SPACE
 70
     0
 10
0.0
 20
0.0
 30
0.0
  3
*PAPER_SPACE
  1

  0
ENDBLK
  5
1D
330
1B
100
AcDbEntity
 67
     1
  8
0
100
AcDbBlockEnd
  0
BLOCK
  5
3F4
330
228
100
AcDbEntity
  8
0
100
AcDbBlockBegin
  2
_ARROW_FILLED
 70
     0
 10
0.0
 20
0.0
 30
0.0
  3
_ARROW_FILLED
  1

  0
SOLID
  5
3F5
330
228
100
AcDbEntity
  8
0
  6
ByBlock
 62
     0
100
AcDbTrace
 10
0.0
 20
0.0
 30
0.0
 11
-1.0
 21
0.2
 31
0.0
 12
-1.0
 22
-0.2
 32
0.0
 13
-1.0
 23
-0.2
 33
0.0
  0
ENDBLK
  5
3F6
330
228
100
AcDbEntity
  8
0
  6
ByBlock
 62
     0
100
AcDbBlockEnd
  0
BLOCK
  5
23C
330
229
100
AcDbEntity
  8
0
  6
Continuous
 62
     2
100
AcDbBlockBegin
  2
BALLOON_BL17
 70
     0
 10
677.8790038573999
 20
469.8874074348999
 30
0.0
  3
BALLOON_BL17
  1

  0
CIRCLE
  5
23D
330
229
100
AcDbEntity
  8
0
  6
Continuous
 62
     2
100
AcDbCircle
 10
677.8790038573999
 20
469.8874074348999
 30
0.0
 40
10.0
  0
MTEXT
  5
23E
330
229
100
AcDbEntity
  8
0
  6
Continuous
 62
     2
100
AcDbMText
 10
663.1915038574
 20
474.8874074348999
 30
0.0
 40
10.0
 41
29.375
 46
0.0
 71
     1
 72
     1
  1
 15 
 73
     1
 44
1.0
  0
ENDBLK
  5
23F
330
229
100
AcDbEntity
  8
0
  6
ByBlock
 62
     0
100
AcDbBlockEnd
  0
BLOCK
  5
240
330
22A
100
AcDbEntity
  8
0
  6
Continuous
 62
     2
100
AcDbBlockBegin
  2
BALLOON_BL16
 70
     0
 10
462.6942019776
 20
546.9637308507
 30
0.0
  3
BALLOON_BL16
  1

  0
CIRCLE
  5
241
330
22A
100
AcDbEntity
  8
0
  6
Continuous
 62
     2
100
AcDbCircle
 10
462.6942019776
 20
546.9637308507
 30
0.0
 40
10.0
  0
MTEXT
  5
242
330
22A
100
AcDbEntity
  8
0
  6
Continuous
 62
     2
100
AcDbMText
 10
448.0067019776
 20
551.9637308506999
 30
0.0
 40
10.0
 41
29.375
 46
0.0
 71
     1
 72
     1
  1
 14 
 73
     1
 44
1.0
  0
ENDBLK
  5
243
330
22A
100
AcDbEntity
  8
0
  6
ByBlock
 62
     0
100
AcDbBlockEnd
  0
BLOCK
  5
244
330
22B
100
AcDbEntity
  8
0
  6
Continuous
 62
     2
100
AcDbBlockBegin
  2
BALLOON_BL15
 70
     0
 10
150.679122781
 20
533.4971984264
 30
0.0
  3
BALLOON_BL15
  1

  0
CIRCLE
  5
245
330
22B
100
AcDbEntity
  8
0
  6
Continuous
 62
     2
100
AcDbCircle
 10
150.679122781
 20
533.4971984264
 30
0.0
 40
10.0
  0
MTEXT
  5
246
330
22B
100
AcDbEntity
  8
0
  6
Continuous
 62
     2
100
AcDbMText
 10
135.991622781
 20
538.4971984264
 30
0.0
 40
10.0
 41
29.375
 46
0.0
 71
     1
 72
     1
  1
 13 
 73
     1
 44
1.0
  0
ENDBLK
  5
247
330
22B
100
AcDbEntity
  8
0
  6
ByBlock
 62
     0
100
AcDbBlockEnd
  0
BLOCK
  5
248
330
22C
100
AcDbEntity
  8
0
  6
Continuous
 62
     2
100
AcDbBlockBegin
  2
BALLOON_BL14
 70
     0
 10
188.4139394616
 20
511.7114847167999
 30
0.0
  3
BALLOON_BL14
  1

  0
CIRCLE
  5
249
330
22C
100
AcDbEntity
  8
0
  6
Continuous
 62
     2
100
AcDbCircle
 10
188.4139394616
 20
511.7114847167999
 30
0.0
 40
10.0
  0
MTEXT
  5
24A
330
22C
100
AcDbEntity
  8
0
  6
Continuous
 62
     2
100
AcDbMText
 10
173.7264394616
 20
516.7114847168
 30
0.0
 40
10.0
 41
29.375
 46
0.0
 71
     1
 72
     1
  1
 12 
 73
     1
 44
1.0
  0
ENDBLK
  5
24B
330
22C
100
AcDbEntity
  8
0
  6
ByBlock
 62
     0
100
AcDbBlockEnd
  0
BLOCK
  5
24C
330
22D
100
AcDbEntity
  8
0
  6
Continuous
 62
     2
100
AcDbBlockBegin
  2
BALLOON_BL13
 70
     0
 10
677.8790038573999
 20
390.5597217561
 30
0.0
  3
BALLOON_BL13
  1

  0
CIRCLE
  5
24D
330
22D
100
AcDbEntity
  8
0
  6
Continuous
 62
     2
100
AcDbCircle
 10
677.8790038573999
 20
390.5597217561
 30
0.0
 40
10.0
  0
MTEXT
  5
24E
330
22D
100
AcDbEntity
  8
0
  6
Continuous
 62
     2
100
AcDbMText
 10
666.8633788573999
 20
395.5597217561
 30
0.0
 40
10.0
 41
22.03125
 46
0.0
 71
     1
 72
     1
  1
 2 
 73
     1
 44
1.0
  0
ENDBLK
  5
24F
330
22D
100
AcDbEntity
  8
0
  6
ByBlock
 62
     0
100
AcDbBlockEnd
  0
BLOCK
  5
250
330
22E
100
AcDbEntity
  8
0
  6
Continuous
 62
     2
100
AcDbBlockBegin
  2
BALLOON_BL12
 70
     0
 10
677.8790038573999
 20
422.7071184108999
 30
0.0
  3
BALLOON_BL12
  1

  0
CIRCLE
  5
251
330
22E
100
AcDbEntity
  8
0
  6
Continuous
 62
     2
100
AcDbCircle
 10
677.8790038573999
 20
422.7071184108999
 30
0.0
 40
10.0
  0
MTEXT
  5
252
330
22E
100
AcDbEntity
  8
0
  6
Continuous
 62
     2
100
AcDbMText
 10
666.8633788573999
 20
427.7071184108999
 30
0.0
 40
10.0
 41
22.03125
 46
0.0
 71
     1
 72
     1
  1
 1 
 73
     1
 44
1.0
  0
ENDBLK
  5
253
330
22E
100
AcDbEntity
  8
0
  6
ByBlock
 62
     0
100
AcDbBlockEnd
  0
BLOCK
  5
254
330
22F
100
AcDbEntity
  8
0
  6
Continuous
 62
     2
100
AcDbBlockBegin
  2
BALLOON_BL11
 70
     0
 10
594.816418377
 20
277.0802121843
 30
0.0
  3
BALLOON_BL11
  1

  0
CIRCLE
  5
255
330
22F
100
AcDbEntity
  8
0
  6
Continuous
 62
     2
100
AcDbCircle
 10
594.816418377
 20
277.0802121843
 30
0.0
 40
10.0
  0
MTEXT
  5
256
330
22F
100
AcDbEntity
  8
0
  6
Continuous
 62
     2
100
AcDbMText
 10
583.800793377
 20
282.0802121843
 30
0.0
 40
10.0
 41
22.03125
 46
0.0
 71
     1
 72
     1
  1
 3 
 73
     1
 44
1.0
  0
ENDBLK
  5
257
330
22F
100
AcDbEntity
  8
0
  6
ByBlock
 62
     0
100
AcDbBlockEnd
  0
BLOCK
  5
258
330
230
100
AcDbEntity
  8
0
  6
Continuous
 62
     2
100
AcDbBlockBegin
  2
BALLOON_BL10
 70
     0
 10
320.5206707834
 20
435.4413532873
 30
0.0
  3
BALLOON_BL10
  1

  0
CIRCLE
  5
259
330
230
100
AcDbEntity
  8
0
  6
Continuous
 62
     2
100
AcDbCircle
 10
320.5206707834
 20
435.4413532873
 30
0.0
 40
10.0
  0
MTEXT
  5
25A
330
230
100
AcDbEntity
  8
0
  6
Continuous
 62
     2
100
AcDbMText
 10
309.5050457834
 20
440.4413532873
 30
0.0
 40
10.0
 41
22.03125
 46
0.0
 71
     1
 72
     1
  1
 9 
 73
     1
 44
1.0
  0
ENDBLK
  5
25B
330
230
100
AcDbEntity
  8
0
  6
ByBlock
 62
     0
100
AcDbBlockEnd
  0
BLOCK
  5
25C
330
231
100
AcDbEntity
  8
0
  6
Continuous
 62
     2
100
AcDbBlockBegin
  2
BALLOON_BL9
 70
     0
 10
282.1395580632
 20
457.6001977480999
 30
0.0
  3
BALLOON_BL9
  1

  0
CIRCLE
  5
25D
330
231
100
AcDbEntity
  8
0
  6
Continuous
 62
     2
100
AcDbCircle
 10
282.1395580632
 20
457.6001977480999
 30
0.0
 40
10.0
  0
MTEXT
  5
25E
330
231
100
AcDbEntity
  8
0
  6
Continuous
 62
     2
100
AcDbMText
 10
267.4520580632
 20
462.6001977480999
 30
0.0
 40
10.0
 41
29.375
 46
0.0
 71
     1
 72
     1
  1
 10 
 73
     1
 44
1.0
  0
ENDBLK
  5
25F
330
231
100
AcDbEntity
  8
0
  6
ByBlock
 62
     0
100
AcDbBlockEnd
  0
BLOCK
  5
260
330
232
100
AcDbEntity
  8
0
  6
Continuous
 62
     2
100
AcDbBlockBegin
  2
BALLOON_BL8
 70
     0
 10
353.2092995362
 20
416.5689916273
 30
0.0
  3
BALLOON_BL8
  1

  0
CIRCLE
  5
261
330
232
100
AcDbEntity
  8
0
  6
Continuous
 62
     2
100
AcDbCircle
 10
353.2092995362
 20
416.5689916273
 30
0.0
 40
10.0
  0
MTEXT
  5
262
330
232
100
AcDbEntity
  8
0
  6
Continuous
 62
     2
100
AcDbMText
 10
342.1936745362
 20
421.5689916272999
 30
0.0
 40
10.0
 41
22.03125
 46
0.0
 71
     1
 72
     1
  1
 8 
 73
     1
 44
1.0
  0
ENDBLK
  5
263
330
232
100
AcDbEntity
  8
0
  6
ByBlock
 62
     0
100
AcDbBlockEnd
  0
BLOCK
  5
264
330
233
100
AcDbEntity
  8
0
  6
Continuous
 62
     2
100
AcDbBlockBegin
  2
BALLOON_BL7
 70
     0
 10
518.3405406274999
 20
321.2325819294
 30
0.0
  3
BALLOON_BL7
  1

  0
CIRCLE
  5
265
330
233
100
AcDbEntity
  8
0
  6
Continuous
 62
     2
100
AcDbCircle
 10
518.3405406274999
 20
321.2325819294
 30
0.0
 40
10.0
  0
MTEXT
  5
266
330
233
100
AcDbEntity
  8
0
  6
Continuous
 62
     2
100
AcDbMText
 10
507.3249156274999
 20
326.2325819294
 30
0.0
 40
10.0
 41
22.03125
 46
0.0
 71
     1
 72
     1
  1
 4 
 73
     1
 44
1.0
  0
ENDBLK
  5
267
330
233
100
AcDbEntity
  8
0
  6
ByBlock
 62
     0
100
AcDbBlockEnd
  0
BLOCK
  5
268
330
234
100
AcDbEntity
  8
0
  6
Continuous
 62
     2
100
AcDbBlockBegin
  2
BALLOON_BL6
 70
     0
 10
475.8714050391
 20
345.7515940995
 30
0.0
  3
BALLOON_BL6
  1

  0
CIRCLE
  5
269
330
234
100
AcDbEntity
  8
0
  6
Continuous
 62
     2
100
AcDbCircle
 10
475.8714050391
 20
345.7515940995
 30
0.0
 40
10.0
  0
MTEXT
  5
26A
330
234
100
AcDbEntity
  8
0
  6
Continuous
 62
     2
100
AcDbMText
 10
464.8557800390999
 20
350.7515940995
 30
0.0
 40
10.0
 41
22.03125
 46
0.0
 71
     1
 72
     1
  1
 5 
 73
     1
 44
1.0
  0
ENDBLK
  5
26B
330
234
100
AcDbEntity
  8
0
  6
ByBlock
 62
     0
100
AcDbBlockEnd
  0
BLOCK
  5
26C
330
235
100
AcDbEntity
  8
0
  6
Continuous
 62
     2
100
AcDbBlockBegin
  2
BALLOON_BL5
 70
     0
 10
435.1306314196
 20
369.2727585958
 30
0.0
  3
BALLOON_BL5
  1

  0
CIRCLE
  5
26D
330
235
100
AcDbEntity
  8
0
  6
Continuous
 62
     2
100
AcDbCircle
 10
435.1306314196
 20
369.2727585958
 30
0.0
 40
10.0
  0
MTEXT
  5
26E
330
235
100
AcDbEntity
  8
0
  6
Continuous
 62
     2
100
AcDbMText
 10
424.1150064195999
 20
374.2727585958001
 30
0.0
 40
10.0
 41
22.03125
 46
0.0
 71
     1
 72
     1
  1
 6 
 73
     1
 44
1.0
  0
ENDBLK
  5
26F
330
235
100
AcDbEntity
  8
0
  6
ByBlock
 62
     0
100
AcDbBlockEnd
  0
BLOCK
  5
270
330
236
100
AcDbEntity
  8
0
  6
Continuous
 62
     2
100
AcDbBlockBegin
  2
BALLOON_BL4
 70
     0
 10
388.3905109622
 20
396.2575692459
 30
0.0
  3
BALLOON_BL4
  1

  0
CIRCLE
  5
271
330
236
100
AcDbEntity
  8
0
  6
Continuous
 62
     2
100
AcDbCircle
 10
388.3905109622
 20
396.2575692459
 30
0.0
 40
10.0
  0
MTEXT
  5
272
330
236
100
AcDbEntity
  8
0
  6
Continuous
 62
     2
100
AcDbMText
 10
377.3748859622001
 20
401.2575692458999
 30
0.0
 40
10.0
 41
22.03125
 46
0.0
 71
     1
 72
     1
  1
 7 
 73
     1
 44
1.0
  0
ENDBLK
  5
273
330
236
100
AcDbEntity
  8
0
  6
ByBlock
 62
     0
100
AcDbBlockEnd
  0
BLOCK
  5
274
330
237
100
AcDbEntity
  8
0
  6
Continuous
 62
     2
100
AcDbBlockBegin
  2
BALLOON_BL3
 70
     0
 10
232.0992267895
 20
486.4903428968999
 30
0.0
  3
BALLOON_BL3
  1

  0
CIRCLE
  5
275
330
237
100
AcDbEntity
  8
0
  6
Continuous
 62
     2
100
AcDbCircle
 10
232.0992267895
 20
486.4903428968999
 30
0.0
 40
10.0
  0
MTEXT
  5
276
330
237
100
AcDbEntity
  8
0
  6
Continuous
 62
     2
100
AcDbMText
 10
217.4117267895
 20
491.4903428969
 30
0.0
 40
10.0
 41
29.375
 46
0.0
 71
     1
 72
     1
  1
 11 
 73
     1
 44
1.0
  0
ENDBLK
  5
277
330
237
100
AcDbEntity
  8
0
  6
ByBlock
 62
     0
100
AcDbBlockEnd
  0
BLOCK
  5
278
330
238
100
AcDbEntity
  8
0
  6
Continuous
 62
     5
100
AcDbBlockBegin
  2
SYMBOL_3_BL2
 70
     0
 10
946.568209876
 20
123.3190137305
 30
0.0
  3
SYMBOL_3_BL2
  1

  0
LINE
  5
279
330
238
100
AcDbEntity
  8
0
  6
Continuous
 62
     5
100
AcDbLine
 10
929.0915685004
 20
139.3190137305
 30
0.0
 11
938.5660271146001
 21
139.3190137305
 31
0.0
  0
LINE
  5
27A
330
238
100
AcDbEntity
  8
0
  6
Continuous
 62
     5
100
AcDbLine
 10
929.0915685004
 20
139.3190137305
 30
0.0
 11
938.5660271146001
 21
139.3190137305
 31
0.0
  0
LINE
  5
27B
330
238
100
AcDbEntity
  8
0
  6
Continuous
 62
     5
100
AcDbLine
 10
964.0448512516
 20
139.3190137305
 30
0.0
 11
964.0448512516
 21
107.3190137305
 31
0.0
  0
LINE
  5
27C
330
238
100
AcDbEntity
  8
0
  6
Continuous
 62
     5
100
AcDbLine
 10
964.0448512516
 20
107.3190137305
 30
0.0
 11
955.0879986621
 21
107.3190137305
 31
0.0
  0
LINE
  5
27D
330
238
100
AcDbEntity
  8
0
  6
Continuous
 62
     5
100
AcDbLine
 10
929.0915685004
 20
107.3190137305
 30
0.0
 11
929.0915685004
 21
139.3190137305
 31
0.0
  0
LINE
  5
27E
330
238
100
AcDbEntity
  8
0
  6
Continuous
 62
     5
100
AcDbLine
 10
946.9218516509
 20
128.8814207494
 30
0.0
 11
955.2776761872999
 21
139.3190137305
 31
0.0
  0
CIRCLE
  5
27F
330
238
100
AcDbEntity
  8
0
  6
Continuous
 62
     5
100
AcDbCircle
 10
938.458259507
 20
129.6202362267
 30
0.0
 40
2.9853175737
  0
LINE
  5
280
330
238
100
AcDbEntity
  8
0
  6
Continuous
 62
     5
100
AcDbLine
 10
955.0879986621
 20
123.8430081414
 30
0.0
 11
951.2236611600998
 21
123.8430081414
 31
0.0
  0
LINE
  5
281
330
238
100
AcDbEntity
  8
0
  6
Continuous
 62
     5
100
AcDbLine
 10
955.0879986621
 20
107.3190137305
 30
0.0
 11
955.0879986621
 21
123.8430081414
 31
0.0
  0
LINE
  5
282
330
238
100
AcDbEntity
  8
0
  6
Continuous
 62
     5
100
AcDbLine
 10
951.2236611600998
 20
107.3190137305
 30
0.0
 11
951.2236611600998
 21
123.8430081414
 31
0.0
  0
LINE
  5
283
330
238
100
AcDbEntity
  8
0
  6
Continuous
 62
     5
100
AcDbLine
 10
938.4640572103
 20
107.3190137305
 30
0.0
 11
938.4640572103
 21
123.8430081414
 31
0.0
  0
LINE
  5
284
330
238
100
AcDbEntity
  8
0
  6
Continuous
 62
     5
100
AcDbLine
 10
942.6200421417
 20
107.3190137305
 30
0.0
 11
942.6200421417
 21
123.8430081414
 31
0.0
  0
LINE
  5
285
330
238
100
AcDbEntity
  8
0
  6
Continuous
 62
     5
100
AcDbLine
 10
946.9218516509
 20
123.8430081414
 30
0.0
 11
946.9218516509
 21
128.8814207494
 31
0.0
  0
LINE
  5
286
330
238
100
AcDbEntity
  8
0
  6
Continuous
 62
     5
100
AcDbLine
 10
946.9218516509
 20
128.8814207494
 30
0.0
 11
938.5660271146001
 21
139.3190137305
 31
0.0
  0
LINE
  5
287
330
238
100
AcDbEntity
  8
0
  6
Continuous
 62
     5
100
AcDbLine
 10
938.4640572103
 20
107.3190137305
 30
0.0
 11
929.0915685004
 21
107.3190137305
 31
0.0
  0
LINE
  5
288
330
238
100
AcDbEntity
  8
0
  6
Continuous
 62
     5
100
AcDbLine
 10
955.2776761872999
 20
139.3190137305
 30
0.0
 11
964.0448512516
 21
139.3190137305
 31
0.0
  0
LINE
  5
289
330
238
100
AcDbEntity
  8
0
  6
Continuous
 62
     5
100
AcDbLine
 10
946.9218516509
 20
123.8430081414
 30
0.0
 11
938.4640572103
 21
123.8430081414
 31
0.0
  0
LINE
  5
28A
330
238
100
AcDbEntity
  8
0
  6
Continuous
 62
     5
100
AcDbLine
 10
951.2236611600998
 20
107.3190137305
 30
0.0
 11
942.6200421417
 21
107.3190137305
 31
0.0
  0
LINE
  5
28B
330
238
100
AcDbEntity
  8
0
  6
Continuous
 62
     5
100
AcDbLine
 10
939.6839007632001
 20
137.9226332659
 30
0.0
 11
938.2875202985999
 21
139.3190137305
 31
0.0
  0
LINE
  5
28C
330
238
100
AcDbEntity
  8
0
  6
Continuous
 62
     5
100
AcDbLine
 10
940.9404644103998
 20
136.3530096044
 30
0.0
 11
937.9744602841999
 21
139.3190137305
 31
0.0
  0
LINE
  5
28D
330
238
100
AcDbEntity
  8
0
  6
Continuous
 62
     5
100
AcDbLine
 10
942.1970280574999
 20
134.7833859429
 30
0.0
 11
937.6614002698
 21
139.3190137305
 31
0.0
  0
LINE
  5
28E
330
238
100
AcDbEntity
  8
0
  6
Continuous
 62
     5
100
AcDbLine
 10
943.4535917046
 20
133.2137622812999
 30
0.0
 11
937.3483402553999
 21
139.3190137305
 31
0.0
  0
LINE
  5
28F
330
238
100
AcDbEntity
  8
0
  6
Continuous
 62
     5
100
AcDbLine
 10
944.7101553517999
 20
131.6441386198
 30
0.0
 11
937.035280241
 21
139.3190137305
 31
0.0
  0
LINE
  5
290
330
238
100
AcDbEntity
  8
0
  6
Continuous
 62
     5
100
AcDbLine
 10
945.9667189989
 20
130.0745149583
 30
0.0
 11
936.7222202266001
 21
139.3190137305
 31
0.0
  0
LINE
  5
291
330
238
100
AcDbEntity
  8
0
  6
Continuous
 62
     5
100
AcDbLine
 10
946.9218516509
 20
128.8063222918
 30
0.0
 11
936.4091602122
 21
139.3190137305
 31
0.0
  0
LINE
  5
292
330
238
100
AcDbEntity
  8
0
  6
Continuous
 62
     5
100
AcDbLine
 10
946.9218516509
 20
128.4932622775
 30
0.0
 11
936.0961001977999
 21
139.3190137305
 31
0.0
  0
LINE
  5
293
330
238
100
AcDbEntity
  8
0
  6
Continuous
 62
     5
100
AcDbLine
 10
946.9218516509
 20
128.1802022631
 30
0.0
 11
935.7830401835
 21
139.3190137305
 31
0.0
  0
LINE
  5
294
330
238
100
AcDbEntity
  8
0
  6
Continuous
 62
     5
100
AcDbLine
 10
946.9218516509
 20
127.8671422487
 30
0.0
 11
935.4699801690999
 21
139.3190137305
 31
0.0
  0
LINE
  5
295
330
238
100
AcDbEntity
  8
0
  6
Continuous
 62
     5
100
AcDbLine
 10
946.9218516509
 20
127.5540822343
 30
0.0
 11
935.1569201547
 21
139.3190137305
 31
0.0
  0
LINE
  5
296
330
238
100
AcDbEntity
  8
0
  6
Continuous
 62
     5
100
AcDbLine
 10
946.9218516509
 20
127.2410222199
 30
0.0
 11
934.8438601403
 21
139.3190137305
 31
0.0
  0
LINE
  5
297
330
238
100
AcDbEntity
  8
0
  6
Continuous
 62
     5
100
AcDbLine
 10
946.9218516509
 20
126.9279622055
 30
0.0
 11
934.5308001258999
 21
139.3190137305
 31
0.0
  0
LINE
  5
298
330
238
100
AcDbEntity
  8
0
  6
Continuous
 62
     5
100
AcDbLine
 10
946.9218516509
 20
126.6149021911
 30
0.0
 11
934.2177401114998
 21
139.3190137305
 31
0.0
  0
LINE
  5
299
330
238
100
AcDbEntity
  8
0
  6
Continuous
 62
     5
100
AcDbLine
 10
946.9218516509
 20
126.3018421767
 30
0.0
 11
933.9046800971001
 21
139.3190137305
 31
0.0
  0
LINE
  5
29A
330
238
100
AcDbEntity
  8
0
  6
Continuous
 62
     5
100
AcDbLine
 10
946.9218516509
 20
125.9887821623
 30
0.0
 11
933.5916200827
 21
139.3190137305
 31
0.0
  0
LINE
  5
29B
330
238
100
AcDbEntity
  8
0
  6
Continuous
 62
     5
100
AcDbLine
 10
946.9218516509
 20
125.6757221479
 30
0.0
 11
933.2785600683001
 21
139.3190137305
 31
0.0
  0
LINE
  5
29C
330
238
100
AcDbEntity
  8
0
  6
Continuous
 62
     5
100
AcDbLine
 10
946.9218516509
 20
125.3626621335
 30
0.0
 11
940.7412787412999
 21
131.5432350432
 31
0.0
  0
LINE
  5
29D
330
238
100
AcDbEntity
  8
0
  6
Continuous
 62
     5
100
AcDbLine
 10
940.3980673686
 20
131.8864464159
 30
0.0
 11
932.9655000539
 21
139.3190137305
 31
0.0
  0
LINE
  5
29E
330
238
100
AcDbEntity
  8
0
  6
Continuous
 62
     5
100
AcDbLine
 10
946.9218516509
 20
125.0496021192
 30
0.0
 11
941.2174765287
 21
130.7539772413
 31
0.0
  0
LINE
  5
29F
330
238
100
AcDbEntity
  8
0
  6
Continuous
 62
     5
100
AcDbLine
 10
939.5967504709
 20
132.3747032992
 30
0.0
 11
932.6524400394999
 21
139.3190137305
 31
0.0
  0
LINE
  5
2A0
330
238
100
AcDbEntity
  8
0
  6
Continuous
 62
     5
100
AcDbLine
 10
946.9218516509
 20
124.7365421048
 30
0.0
 11
941.3616987124001
 21
130.2966950433
 31
0.0
  0
LINE
  5
2A1
330
238
100
AcDbEntity
  8
0
  6
Continuous
 62
     5
100
AcDbLine
 10
939.1376691098999
 20
132.5207246458
 30
0.0
 11
932.3393800252
 21
139.3190137305
 31
0.0
  0
LINE
  5
2A2
330
238
100
AcDbEntity
  8
0
  6
Continuous
 62
     5
100
AcDbLine
 10
946.9218516509
 20
124.4234820904
 30
0.0
 11
941.4287418656
 21
129.9165918757
 31
0.0
  0
LINE
  5
2A3
330
238
100
AcDbEntity
  8
0
  6
Continuous
 62
     5
100
AcDbLine
 10
938.7581849772001
 20
132.5871487641
 30
0.0
 11
932.0263200108
 21
139.3190137305
 31
0.0
  0
LINE
  5
2A4
330
238
100
AcDbEntity
  8
0
  6
Continuous
 62
     5
100
AcDbLine
 10
946.9218516509
 20
124.110422076
 30
0.0
 11
941.4366457783998
 21
129.5956279485
 31
0.0
  0
LINE
  5
2A5
330
238
100
AcDbEntity
  8
0
  6
Continuous
 62
     5
100
AcDbLine
 10
938.4314139391999
 20
132.6008597877
 30
0.0
 11
931.7132599963999
 21
139.3190137305
 31
0.0
  0
LINE
  5
2A6
330
238
100
AcDbEntity
  8
0
  6
Continuous
 62
     5
100
AcDbLine
 10
946.8762055711
 20
123.8430081414
 30
0.0
 11
941.418446742
 21
129.3007669706
 31
0.0
  0
LINE
  5
2A7
330
238
100
AcDbEntity
  8
0
  6
Continuous
 62
     5
100
AcDbLine
 10
938.1392410547
 20
132.5799726578
 30
0.0
 11
931.400199982
 21
139.3190137305
 31
0.0
  0
LINE
  5
2A8
330
238
100
AcDbEntity
  8
0
  6
Continuous
 62
     5
100
AcDbLine
 10
946.5631455566999
 20
123.8430081414
 30
0.0
 11
941.3831374367999
 21
129.0230162614
 31
0.0
  0
LINE
  5
2A9
330
238
100
AcDbEntity
  8
0
  6
Continuous
 62
     5
100
AcDbLine
 10
937.8638338989
 20
132.5423197993
 30
0.0
 11
931.0871399675999
 21
139.3190137305
 31
0.0
  0
LINE
  5
2AA
330
238
100
AcDbEntity
  8
0
  6
Continuous
 62
     5
100
AcDbLine
 10
946.2500855423
 20
123.8430081414
 30
0.0
 11
941.3139934632001
 21
128.7791002205
 31
0.0
  0
LINE
  5
2AB
330
238
100
AcDbEntity
  8
0
  6
Continuous
 62
     5
100
AcDbLine
 10
937.6163279872001
 20
132.4767656966
 30
0.0
 11
930.7740799532
 21
139.3190137305
 31
0.0
  0
LINE
  5
2AC
330
238
100
AcDbEntity
  8
0
  6
Continuous
 62
     5
100
AcDbLine
 10
945.9370255278999
 20
123.8430081414
 30
0.0
 11
941.2381026655999
 21
128.5419310037
 31
0.0
  0
LINE
  5
2AD
330
238
100
AcDbEntity
  8
0
  6
Continuous
 62
     5
100
AcDbLine
 10
937.3818358577999
 20
132.3981978115
 30
0.0
 11
930.4610199388001
 21
139.3190137305
 31
0.0
  0
LINE
  5
2AE
330
238
100
AcDbEntity
  8
0
  6
Continuous
 62
     5
100
AcDbLine
 10
945.6239655135
 20
123.8430081414
 30
0.0
 11
941.1402670716
 21
128.3267065833
 31
0.0
  0
LINE
  5
2AF
330
238
100
AcDbEntity
  8
0
  6
Continuous
 62
     5
100
AcDbLine
 10
937.1634997138
 20
132.3034739412
 30
0.0
 11
930.1479599244
 21
139.3190137305
 31
0.0
  0
LINE
  5
2B0
330
238
100
AcDbEntity
  8
0
  6
Continuous
 62
     5
100
AcDbLine
 10
945.3109054991001
 20
123.8430081414
 30
0.0
 11
941.0337898272999
 21
128.1201238133
 31
0.0
  0
LINE
  5
2B1
330
238
100
AcDbEntity
  8
0
  6
Continuous
 62
     5
100
AcDbLine
 10
936.9596818572999
 20
132.1942317833
 30
0.0
 11
929.8348999099999
 21
139.3190137305
 31
0.0
  0
LINE
  5
2B2
330
238
100
AcDbEntity
  8
0
  6
Continuous
 62
     5
100
AcDbLine
 10
944.9978454847
 20
123.8430081414
 30
0.0
 11
940.9103485558999
 21
127.9305050702
 31
0.0
  0
LINE
  5
2B3
330
238
100
AcDbEntity
  8
0
  6
Continuous
 62
     5
100
AcDbLine
 10
936.7672211727999
 20
132.0736324534
 30
0.0
 11
929.5218398956
 21
139.3190137305
 31
0.0
  0
LINE
  5
2B4
330
238
100
AcDbEntity
  8
0
  6
Continuous
 62
     5
100
AcDbLine
 10
944.6847854704
 20
123.8430081414
 30
0.0
 11
940.7783906886999
 21
127.7494029231
 31
0.0
  0
LINE
  5
2B5
330
238
100
AcDbEntity
  8
0
  6
Continuous
 62
     5
100
AcDbLine
 10
936.5888983877999
 20
131.938895224
 30
0.0
 11
929.2087798812
 21
139.3190137305
 31
0.0
  0
LINE
  5
2B6
330
238
100
AcDbEntity
  8
0
  6
Continuous
 62
     5
100
AcDbLine
 10
944.371725456
 20
123.8430081414
 30
0.0
 11
940.6309336146
 21
127.5837999828
 31
0.0
  0
LINE
  5
2B7
330
238
100
AcDbEntity
  8
0
  6
Continuous
 62
     5
100
AcDbLine
 10
936.4205731864
 20
131.794160411
 30
0.0
 11
929.0915685004
 21
139.123165097
 31
0.0
  0
LINE
  5
2B8
330
238
100
AcDbEntity
  8
0
  6
Continuous
 62
     5
100
AcDbLine
 10
944.0586654416
 20
123.8430081414
 30
0.0
 11
940.4756578075
 21
127.4260157755
 31
0.0
  0
LINE
  5
2B9
330
238
100
AcDbEntity
  8
0
  6
Continuous
 62
     5
100
AcDbLine
 10
936.2640346935
 20
131.6376388895
 30
0.0
 11
929.0915685004
 21
138.8101050826
 31
0.0
  0
LINE
  5
2BA
330
238
100
AcDbEntity
  8
0
  6
Continuous
 62
     5
100
AcDbLine
 10
943.7456054271999
 20
123.8430081414
 30
0.0
 11
940.3046032316
 21
127.284010337
 31
0.0
  0
LINE
  5
2BB
330
238
100
AcDbEntity
  8
0
  6
Continuous
 62
     5
100
AcDbLine
 10
936.1167195594001
 20
131.4718940092
 30
0.0
 11
929.0915685004
 21
138.4970450682
 31
0.0
  0
LINE
  5
2BC
330
238
100
AcDbEntity
  8
0
  6
Continuous
 62
     5
100
AcDbLine
 10
943.4325454128
 20
123.8430081414
 30
0.0
 11
940.1259440746999
 21
127.1496094795
 31
0.0
  0
LINE
  5
2BD
330
238
100
AcDbEntity
  8
0
  6
Continuous
 62
     5
100
AcDbLine
 10
935.9904570758001
 20
131.2850964784
 30
0.0
 11
929.0915685004
 21
138.1839850538
 31
0.0
  0
LINE
  5
2BE
330
238
100
AcDbEntity
  8
0
  6
Continuous
 62
     5
100
AcDbLine
 10
943.1194853983999
 20
123.8430081414
 30
0.0
 11
939.9306187667999
 21
127.031874773
 31
0.0
  0
LINE
  5
2BF
330
238
100
AcDbEntity
  8
0
  6
Continuous
 62
     5
100
AcDbLine
 10
935.8646223958
 20
131.0978711441
 30
0.0
 11
929.0915685004
 21
137.8709250394
 31
0.0
  0
LINE
  5
2C0
330
238
100
AcDbEntity
  8
0
  6
Continuous
 62
     5
100
AcDbLine
 10
942.8064253839998
 20
123.8430081414
 30
0.0
 11
939.7262360841999
 21
126.9231974412
 31
0.0
  0
LINE
  5
2C1
330
238
100
AcDbEntity
  8
0
  6
Continuous
 62
     5
100
AcDbLine
 10
935.7637152256
 20
130.8857182998
 30
0.0
 11
929.0915685004
 21
137.557865025
 31
0.0
  0
LINE
  5
2C2
330
238
100
AcDbEntity
  8
0
  6
Continuous
 62
     5
100
AcDbLine
 10
942.4933653695999
 20
123.8430081414
 30
0.0
 11
939.5047453730999
 21
126.8316281379
 31
0.0
  0
LINE
  5
2C3
330
238
100
AcDbEntity
  8
0
  6
Continuous
 62
     5
100
AcDbLine
 10
935.6658349636999
 20
130.6705385473
 30
0.0
 11
929.0915685004
 21
137.2448050106
 31
0.0
  0
LINE
  5
2C4
330
238
100
AcDbEntity
  8
0
  6
Continuous
 62
     5
100
AcDbLine
 10
942.1803053552
 20
123.8430081414
 30
0.0
 11
939.2691792096
 21
126.7541342871
 31
0.0
  0
LINE
  5
2C5
330
238
100
AcDbEntity
  8
0
  6
Continuous
 62
     5
100
AcDbLine
 10
935.5931698600999
 20
130.4301436365
 30
0.0
 11
929.0915685004
 21
136.9317449963
 31
0.0
  0
LINE
  5
2C6
330
238
100
AcDbEntity
  8
0
  6
Continuous
 62
     5
100
AcDbLine
 10
941.8672453407999
 20
123.8430081414
 30
0.0
 11
939.0180104359
 21
126.6922430463
 31
0.0
  0
LINE
  5
2C7
330
238
100
AcDbEntity
  8
0
  6
Continuous
 62
     5
100
AcDbLine
 10
935.5311644147001
 20
130.1790890676
 30
0.0
 11
929.0915685004
 21
136.6186849819
 31
0.0
  0
LINE
  5
2C8
330
238
100
AcDbEntity
  8
0
  6
Continuous
 62
     5
100
AcDbLine
 10
941.5541853264
 20
123.8430081414
 30
0.0
 11
938.7404509180999
 21
126.6567425498
 31
0.0
  0
LINE
  5
2C9
330
238
100
AcDbEntity
  8
0
  6
Continuous
 62
     5
100
AcDbLine
 10
935.4917336925
 20
129.9054597754
 30
0.0
 11
929.0915685004
 21
136.3056249675
 31
0.0
  0
LINE
  5
2CA
330
238
100
AcDbEntity
  8
0
  6
Continuous
 62
     5
100
AcDbLine
 10
941.241125312
 20
123.8430081414
 30
0.0
 11
938.4452350855999
 21
126.6388983679
 31
0.0
  0
LINE
  5
2CB
330
238
100
AcDbEntity
  8
0
  6
Continuous
 62
     5
100
AcDbLine
 10
935.4814303522999
 20
129.6027031012
 30
0.0
 11
929.0915685004
 21
135.9925649531
 31
0.0
  0
LINE
  5
2CC
330
238
100
AcDbEntity
  8
0
  6
Continuous
 62
     5
100
AcDbLine
 10
940.9280652977001
 20
123.8430081414
 30
0.0
 11
938.1124340148
 21
126.6586394243
 31
0.0
  0
LINE
  5
2CD
330
238
100
AcDbEntity
  8
0
  6
Continuous
 62
     5
100
AcDbLine
 10
935.4994031525999
 20
129.2716702865
 30
0.0
 11
929.0915685004
 21
135.6795049387
 31
0.0
  0
LINE
  5
2CE
330
238
100
AcDbEntity
  8
0
  6
Continuous
 62
     5
100
AcDbLine
 10
940.6150052833
 20
123.8430081414
 30
0.0
 11
937.7253472167
 21
126.732666208
 31
0.0
  0
LINE
  5
2CF
330
238
100
AcDbEntity
  8
0
  6
Continuous
 62
     5
100
AcDbLine
 10
935.5660184183999
 20
128.8919950063
 30
0.0
 11
929.0915685004
 21
135.3664449243
 31
0.0
  0
LINE
  5
2D0
330
238
100
AcDbEntity
  8
0
  6
Continuous
 62
     5
100
AcDbLine
 10
940.3019452688999
 20
123.8430081414
 30
0.0
 11
937.2510952517998
 21
126.8938581585
 31
0.0
  0
LINE
  5
2D1
330
238
100
AcDbEntity
  8
0
  6
Continuous
 62
     5
100
AcDbLine
 10
935.7367232487
 20
128.4082301616
 30
0.0
 11
929.0915685004
 21
135.0533849099
 31
0.0
  0
LINE
  5
2D2
330
238
100
AcDbEntity
  8
0
  6
Continuous
 62
     5
100
AcDbLine
 10
939.9888852545
 20
123.8430081414
 30
0.0
 11
929.0915685004
 21
134.7403248955
 31
0.0
  0
LINE
  5
2D3
330
238
100
AcDbEntity
  8
0
  6
Continuous
 62
     5
100
AcDbLine
 10
939.6758252400999
 20
123.8430081414
 30
0.0
 11
929.0915685004
 21
134.4272648811
 31
0.0
  0
LINE
  5
2D4
330
238
100
AcDbEntity
  8
0
  6
Continuous
 62
     5
100
AcDbLine
 10
939.3627652257
 20
123.8430081414
 30
0.0
 11
929.0915685004
 21
134.1142048667
 31
0.0
  0
LINE
  5
2D5
330
238
100
AcDbEntity
  8
0
  6
Continuous
 62
     5
100
AcDbLine
 10
939.0497052113001
 20
123.8430081414
 30
0.0
 11
929.0915685004
 21
133.8011448523
 31
0.0
  0
LINE
  5
2D6
330
238
100
AcDbEntity
  8
0
  6
Continuous
 62
     5
100
AcDbLine
 10
938.7366451968999
 20
123.8430081414
 30
0.0
 11
929.0915685004
 21
133.488084838
 31
0.0
  0
LINE
  5
2D7
330
238
100
AcDbEntity
  8
0
  6
Continuous
 62
     5
100
AcDbLine
 10
938.4640572103
 20
123.8025361137
 30
0.0
 11
929.0915685004
 21
133.1750248236
 31
0.0
  0
LINE
  5
2D8
330
238
100
AcDbEntity
  8
0
  6
Continuous
 62
     5
100
AcDbLine
 10
938.4640572103
 20
123.4894760993
 30
0.0
 11
929.0915685004
 21
132.8619648092
 31
0.0
  0
LINE
  5
2D9
330
238
100
AcDbEntity
  8
0
  6
Continuous
 62
     5
100
AcDbLine
 10
938.4640572103
 20
123.1764160849
 30
0.0
 11
929.0915685004
 21
132.5489047948
 31
0.0
  0
LINE
  5
2DA
330
238
100
AcDbEntity
  8
0
  6
Continuous
 62
     5
100
AcDbLine
 10
938.4640572103
 20
122.8633560705
 30
0.0
 11
929.0915685004
 21
132.2358447804
 31
0.0
  0
LINE
  5
2DB
330
238
100
AcDbEntity
  8
0
  6
Continuous
 62
     5
100
AcDbLine
 10
938.4640572103
 20
122.5502960561
 30
0.0
 11
929.0915685004
 21
131.922784766
 31
0.0
  0
LINE
  5
2DC
330
238
100
AcDbEntity
  8
0
  6
Continuous
 62
     5
100
AcDbLine
 10
938.4640572103
 20
122.2372360417
 30
0.0
 11
929.0915685004
 21
131.6097247516
 31
0.0
  0
LINE
  5
2DD
330
238
100
AcDbEntity
  8
0
  6
Continuous
 62
     5
100
AcDbLine
 10
938.4640572103
 20
121.9241760274
 30
0.0
 11
929.0915685004
 21
131.2966647372
 31
0.0
  0
LINE
  5
2DE
330
238
100
AcDbEntity
  8
0
  6
Continuous
 62
     5
100
AcDbLine
 10
938.4640572103
 20
121.611116013
 30
0.0
 11
929.0915685004
 21
130.9836047228
 31
0.0
  0
LINE
  5
2DF
330
238
100
AcDbEntity
  8
0
  6
Continuous
 62
     5
100
AcDbLine
 10
938.4640572103
 20
121.2980559986
 30
0.0
 11
929.0915685004
 21
130.6705447084
 31
0.0
  0
LINE
  5
2E0
330
238
100
AcDbEntity
  8
0
  6
Continuous
 62
     5
100
AcDbLine
 10
938.4640572103
 20
120.9849959842
 30
0.0
 11
929.0915685004
 21
130.357484694
 31
0.0
  0
LINE
  5
2E1
330
238
100
AcDbEntity
  8
0
  6
Continuous
 62
     5
100
AcDbLine
 10
938.4640572103
 20
120.6719359698
 30
0.0
 11
929.0915685004
 21
130.0444246796
 31
0.0
  0
LINE
  5
2E2
330
238
100
AcDbEntity
  8
0
  6
Continuous
 62
     5
100
AcDbLine
 10
938.4640572103
 20
120.3588759554
 30
0.0
 11
929.0915685004
 21
129.7313646653
 31
0.0
  0
LINE
  5
2E3
330
238
100
AcDbEntity
  8
0
  6
Continuous
 62
     5
100
AcDbLine
 10
938.4640572103
 20
120.045815941
 30
0.0
 11
929.0915685004
 21
129.4183046509
 31
0.0
  0
LINE
  5
2E4
330
238
100
AcDbEntity
  8
0
  6
Continuous
 62
     5
100
AcDbLine
 10
938.4640572103
 20
119.7327559266
 30
0.0
 11
929.0915685004
 21
129.1052446365
 31
0.0
  0
LINE
  5
2E5
330
238
100
AcDbEntity
  8
0
  6
Continuous
 62
     5
100
AcDbLine
 10
938.4640572103
 20
119.4196959122
 30
0.0
 11
929.0915685004
 21
128.7921846221
 31
0.0
  0
LINE
  5
2E6
330
238
100
AcDbEntity
  8
0
  6
Continuous
 62
     5
100
AcDbLine
 10
938.4640572103
 20
119.1066358978
 30
0.0
 11
929.0915685004
 21
128.4791246077
 31
0.0
  0
LINE
  5
2E7
330
238
100
AcDbEntity
  8
0
  6
Continuous
 62
     5
100
AcDbLine
 10
938.4640572103
 20
118.7935758834
 30
0.0
 11
929.0915685004
 21
128.1660645933
 31
0.0
  0
LINE
  5
2E8
330
238
100
AcDbEntity
  8
0
  6
Continuous
 62
     5
100
AcDbLine
 10
938.4640572103
 20
118.480515869
 30
0.0
 11
929.0915685004
 21
127.8530045789
 31
0.0
  0
LINE
  5
2E9
330
238
100
AcDbEntity
  8
0
  6
Continuous
 62
     5
100
AcDbLine
 10
938.4640572103
 20
118.1674558547
 30
0.0
 11
929.0915685004
 21
127.5399445645
 31
0.0
  0
LINE
  5
2EA
330
238
100
AcDbEntity
  8
0
  6
Continuous
 62
     5
100
AcDbLine
 10
938.4640572103
 20
117.8543958403
 30
0.0
 11
929.0915685004
 21
127.2268845501
 31
0.0
  0
LINE
  5
2EB
330
238
100
AcDbEntity
  8
0
  6
Continuous
 62
     5
100
AcDbLine
 10
938.4640572103
 20
117.5413358259
 30
0.0
 11
929.0915685004
 21
126.9138245357
 31
0.0
  0
LINE
  5
2EC
330
238
100
AcDbEntity
  8
0
  6
Continuous
 62
     5
100
AcDbLine
 10
938.4640572103
 20
117.2282758115
 30
0.0
 11
929.0915685004
 21
126.6007645213
 31
0.0
  0
LINE
  5
2ED
330
238
100
AcDbEntity
  8
0
  6
Continuous
 62
     5
100
AcDbLine
 10
938.4640572103
 20
116.9152157971
 30
0.0
 11
929.0915685004
 21
126.287704507
 31
0.0
  0
LINE
  5
2EE
330
238
100
AcDbEntity
  8
0
  6
Continuous
 62
     5
100
AcDbLine
 10
938.4640572103
 20
116.6021557827
 30
0.0
 11
929.0915685004
 21
125.9746444926
 31
0.0
  0
LINE
  5
2EF
330
238
100
AcDbEntity
  8
0
  6
Continuous
 62
     5
100
AcDbLine
 10
938.4640572103
 20
116.2890957683
 30
0.0
 11
929.0915685004
 21
125.6615844782
 31
0.0
  0
LINE
  5
2F0
330
238
100
AcDbEntity
  8
0
  6
Continuous
 62
     5
100
AcDbLine
 10
938.4640572103
 20
115.9760357539
 30
0.0
 11
929.0915685004
 21
125.3485244638
 31
0.0
  0
LINE
  5
2F1
330
238
100
AcDbEntity
  8
0
  6
Continuous
 62
     5
100
AcDbLine
 10
938.4640572103
 20
115.6629757395
 30
0.0
 11
929.0915685004
 21
125.0354644494
 31
0.0
  0
LINE
  5
2F2
330
238
100
AcDbEntity
  8
0
  6
Continuous
 62
     5
100
AcDbLine
 10
938.4640572103
 20
115.3499157251
 30
0.0
 11
929.0915685004
 21
124.722404435
 31
0.0
  0
LINE
  5
2F3
330
238
100
AcDbEntity
  8
0
  6
Continuous
 62
     5
100
AcDbLine
 10
938.4640572103
 20
115.0368557107
 30
0.0
 11
929.0915685004
 21
124.4093444206
 31
0.0
  0
LINE
  5
2F4
330
238
100
AcDbEntity
  8
0
  6
Continuous
 62
     5
100
AcDbLine
 10
938.4640572103
 20
114.7237956964
 30
0.0
 11
929.0915685004
 21
124.0962844062
 31
0.0
  0
LINE
  5
2F5
330
238
100
AcDbEntity
  8
0
  6
Continuous
 62
     5
100
AcDbLine
 10
938.4640572103
 20
114.410735682
 30
0.0
 11
929.0915685004
 21
123.7832243918
 31
0.0
  0
LINE
  5
2F6
330
238
100
AcDbEntity
  8
0
  6
Continuous
 62
     5
100
AcDbLine
 10
938.4640572103
 20
114.0976756676
 30
0.0
 11
929.0915685004
 21
123.4701643774
 31
0.0
  0
LINE
  5
2F7
330
238
100
AcDbEntity
  8
0
  6
Continuous
 62
     5
100
AcDbLine
 10
938.4640572103
 20
113.7846156532
 30
0.0
 11
929.0915685004
 21
123.157104363
 31
0.0
  0
LINE
  5
2F8
330
238
100
AcDbEntity
  8
0
  6
Continuous
 62
     5
100
AcDbLine
 10
938.4640572103
 20
113.4715556388
 30
0.0
 11
929.0915685004
 21
122.8440443487
 31
0.0
  0
LINE
  5
2F9
330
238
100
AcDbEntity
  8
0
  6
Continuous
 62
     5
100
AcDbLine
 10
938.4640572103
 20
113.1584956244
 30
0.0
 11
929.0915685004
 21
122.5309843343
 31
0.0
  0
LINE
  5
2FA
330
238
100
AcDbEntity
  8
0
  6
Continuous
 62
     5
100
AcDbLine
 10
938.4640572103
 20
112.84543561
 30
0.0
 11
929.0915685004
 21
122.2179243199
 31
0.0
  0
LINE
  5
2FB
330
238
100
AcDbEntity
  8
0
  6
Continuous
 62
     5
100
AcDbLine
 10
938.4640572103
 20
112.5323755956
 30
0.0
 11
929.0915685004
 21
121.9048643055
 31
0.0
  0
LINE
  5
2FC
330
238
100
AcDbEntity
  8
0
  6
Continuous
 62
     5
100
AcDbLine
 10
938.4640572103
 20
112.2193155812
 30
0.0
 11
929.0915685004
 21
121.5918042911
 31
0.0
  0
LINE
  5
2FD
330
238
100
AcDbEntity
  8
0
  6
Continuous
 62
     5
100
AcDbLine
 10
938.4640572103
 20
111.9062555668
 30
0.0
 11
929.0915685004
 21
121.2787442767
 31
0.0
  0
LINE
  5
2FE
330
238
100
AcDbEntity
  8
0
  6
Continuous
 62
     5
100
AcDbLine
 10
938.4640572103
 20
111.5931955524
 30
0.0
 11
929.0915685004
 21
120.9656842623
 31
0.0
  0
LINE
  5
2FF
330
238
100
AcDbEntity
  8
0
  6
Continuous
 62
     5
100
AcDbLine
 10
938.4640572103
 20
111.2801355381
 30
0.0
 11
929.0915685004
 21
120.6526242479
 31
0.0
  0
LINE
  5
300
330
238
100
AcDbEntity
  8
0
  6
Continuous
 62
     5
100
AcDbLine
 10
938.4640572103
 20
110.9670755237
 30
0.0
 11
929.0915685004
 21
120.3395642335
 31
0.0
  0
LINE
  5
301
330
238
100
AcDbEntity
  8
0
  6
Continuous
 62
     5
100
AcDbLine
 10
938.4640572103
 20
110.6540155093
 30
0.0
 11
929.0915685004
 21
120.0265042191
 31
0.0
  0
LINE
  5
302
330
238
100
AcDbEntity
  8
0
  6
Continuous
 62
     5
100
AcDbLine
 10
938.4640572103
 20
110.3409554949
 30
0.0
 11
929.0915685004
 21
119.7134442047
 31
0.0
  0
LINE
  5
303
330
238
100
AcDbEntity
  8
0
  6
Continuous
 62
     5
100
AcDbLine
 10
938.4640572103
 20
110.0278954805
 30
0.0
 11
929.0915685004
 21
119.4003841904
 31
0.0
  0
LINE
  5
304
330
238
100
AcDbEntity
  8
0
  6
Continuous
 62
     5
100
AcDbLine
 10
938.4640572103
 20
109.7148354661
 30
0.0
 11
929.0915685004
 21
119.087324176
 31
0.0
  0
LINE
  5
305
330
238
100
AcDbEntity
  8
0
  6
Continuous
 62
     5
100
AcDbLine
 10
938.4640572103
 20
109.4017754517
 30
0.0
 11
929.0915685004
 21
118.7742641616
 31
0.0
  0
LINE
  5
306
330
238
100
AcDbEntity
  8
0
  6
Continuous
 62
     5
100
AcDbLine
 10
938.4640572103
 20
109.0887154373
 30
0.0
 11
929.0915685004
 21
118.4612041472
 31
0.0
  0
LINE
  5
307
330
238
100
AcDbEntity
  8
0
  6
Continuous
 62
     5
100
AcDbLine
 10
938.4640572103
 20
108.7756554229
 30
0.0
 11
929.0915685004
 21
118.1481441328
 31
0.0
  0
LINE
  5
308
330
238
100
AcDbEntity
  8
0
  6
Continuous
 62
     5
100
AcDbLine
 10
938.4640572103
 20
108.4625954085
 30
0.0
 11
929.0915685004
 21
117.8350841184
 31
0.0
  0
LINE
  5
309
330
238
100
AcDbEntity
  8
0
  6
Continuous
 62
     5
100
AcDbLine
 10
938.4640572103
 20
108.1495353941
 30
0.0
 11
929.0915685004
 21
117.522024104
 31
0.0
  0
LINE
  5
30A
330
238
100
AcDbEntity
  8
0
  6
Continuous
 62
     5
100
AcDbLine
 10
938.4640572103
 20
107.8364753798
 30
0.0
 11
929.0915685004
 21
117.2089640896
 31
0.0
  0
LINE
  5
30B
330
238
100
AcDbEntity
  8
0
  6
Continuous
 62
     5
100
AcDbLine
 10
938.4640572103
 20
107.5234153654
 30
0.0
 11
929.0915685004
 21
116.8959040752
 31
0.0
  0
LINE
  5
30C
330
238
100
AcDbEntity
  8
0
  6
Continuous
 62
     5
100
AcDbLine
 10
938.3553988307001
 20
107.3190137305
 30
0.0
 11
929.0915685004
 21
116.5828440608
 31
0.0
  0
LINE
  5
30D
330
238
100
AcDbEntity
  8
0
  6
Continuous
 62
     5
100
AcDbLine
 10
938.0423388163
 20
107.3190137305
 30
0.0
 11
929.0915685004
 21
116.2697840464
 31
0.0
  0
LINE
  5
30E
330
238
100
AcDbEntity
  8
0
  6
Continuous
 62
     5
100
AcDbLine
 10
937.7292788019
 20
107.3190137305
 30
0.0
 11
929.0915685004
 21
115.956724032
 31
0.0
  0
LINE
  5
30F
330
238
100
AcDbEntity
  8
0
  6
Continuous
 62
     5
100
AcDbLine
 10
937.4162187875
 20
107.3190137305
 30
0.0
 11
929.0915685004
 21
115.6436640177
 31
0.0
  0
LINE
  5
310
330
238
100
AcDbEntity
  8
0
  6
Continuous
 62
     5
100
AcDbLine
 10
937.1031587731
 20
107.3190137305
 30
0.0
 11
929.0915685004
 21
115.3306040033
 31
0.0
  0
LINE
  5
311
330
238
100
AcDbEntity
  8
0
  6
Continuous
 62
     5
100
AcDbLine
 10
936.7900987586999
 20
107.3190137305
 30
0.0
 11
929.0915685004
 21
115.0175439889
 31
0.0
  0
LINE
  5
312
330
238
100
AcDbEntity
  8
0
  6
Continuous
 62
     5
100
AcDbLine
 10
936.4770387442998
 20
107.3190137305
 30
0.0
 11
929.0915685004
 21
114.7044839745
 31
0.0
  0
LINE
  5
313
330
238
100
AcDbEntity
  8
0
  6
Continuous
 62
     5
100
AcDbLine
 10
936.1639787300001
 20
107.3190137305
 30
0.0
 11
929.0915685004
 21
114.3914239601
 31
0.0
  0
LINE
  5
314
330
238
100
AcDbEntity
  8
0
  6
Continuous
 62
     5
100
AcDbLine
 10
935.8509187156
 20
107.3190137305
 30
0.0
 11
929.0915685004
 21
114.0783639457
 31
0.0
  0
LINE
  5
315
330
238
100
AcDbEntity
  8
0
  6
Continuous
 62
     5
100
AcDbLine
 10
935.5378587011999
 20
107.3190137305
 30
0.0
 11
929.0915685004
 21
113.7653039313
 31
0.0
  0
LINE
  5
316
330
238
100
AcDbEntity
  8
0
  6
Continuous
 62
     5
100
AcDbLine
 10
935.2247986867999
 20
107.3190137305
 30
0.0
 11
929.0915685004
 21
113.4522439169
 31
0.0
  0
LINE
  5
317
330
238
100
AcDbEntity
  8
0
  6
Continuous
 62
     5
100
AcDbLine
 10
934.9117386724
 20
107.3190137305
 30
0.0
 11
929.0915685004
 21
113.1391839025
 31
0.0
  0
LINE
  5
318
330
238
100
AcDbEntity
  8
0
  6
Continuous
 62
     5
100
AcDbLine
 10
934.5986786580001
 20
107.3190137305
 30
0.0
 11
929.0915685004
 21
112.8261238881
 31
0.0
  0
LINE
  5
319
330
238
100
AcDbEntity
  8
0
  6
Continuous
 62
     5
100
AcDbLine
 10
934.2856186436
 20
107.3190137305
 30
0.0
 11
929.0915685004
 21
112.5130638737
 31
0.0
  0
LINE
  5
31A
330
238
100
AcDbEntity
  8
0
  6
Continuous
 62
     5
100
AcDbLine
 10
933.9725586291999
 20
107.3190137305
 30
0.0
 11
929.0915685004
 21
112.2000038594
 31
0.0
  0
LINE
  5
31B
330
238
100
AcDbEntity
  8
0
  6
Continuous
 62
     5
100
AcDbLine
 10
933.6594986148
 20
107.3190137305
 30
0.0
 11
929.0915685004
 21
111.886943845
 31
0.0
  0
LINE
  5
31C
330
238
100
AcDbEntity
  8
0
  6
Continuous
 62
     5
100
AcDbLine
 10
933.3464386003999
 20
107.3190137305
 30
0.0
 11
929.0915685004
 21
111.5738838306
 31
0.0
  0
LINE
  5
31D
330
238
100
AcDbEntity
  8
0
  6
Continuous
 62
     5
100
AcDbLine
 10
933.033378586
 20
107.3190137305
 30
0.0
 11
929.0915685004
 21
111.2608238162
 31
0.0
  0
LINE
  5
31E
330
238
100
AcDbEntity
  8
0
  6
Continuous
 62
     5
100
AcDbLine
 10
932.7203185716999
 20
107.3190137305
 30
0.0
 11
929.0915685004
 21
110.9477638018
 31
0.0
  0
LINE
  5
31F
330
238
100
AcDbEntity
  8
0
  6
Continuous
 62
     5
100
AcDbLine
 10
932.4072585573
 20
107.3190137305
 30
0.0
 11
929.0915685004
 21
110.6347037874
 31
0.0
  0
LINE
  5
320
330
238
100
AcDbEntity
  8
0
  6
Continuous
 62
     5
100
AcDbLine
 10
932.0941985429
 20
107.3190137305
 30
0.0
 11
929.0915685004
 21
110.321643773
 31
0.0
  0
LINE
  5
321
330
238
100
AcDbEntity
  8
0
  6
Continuous
 62
     5
100
AcDbLine
 10
931.7811385285001
 20
107.3190137305
 30
0.0
 11
929.0915685004
 21
110.0085837586
 31
0.0
  0
LINE
  5
322
330
238
100
AcDbEntity
  8
0
  6
Continuous
 62
     5
100
AcDbLine
 10
931.4680785141
 20
107.3190137305
 30
0.0
 11
929.0915685004
 21
109.6955237442
 31
0.0
  0
LINE
  5
323
330
238
100
AcDbEntity
  8
0
  6
Continuous
 62
     5
100
AcDbLine
 10
931.1550184996999
 20
107.3190137305
 30
0.0
 11
929.0915685004
 21
109.3824637298
 31
0.0
  0
LINE
  5
324
330
238
100
AcDbEntity
  8
0
  6
Continuous
 62
     5
100
AcDbLine
 10
930.8419584853
 20
107.3190137305
 30
0.0
 11
929.0915685004
 21
109.0694037154
 31
0.0
  0
LINE
  5
325
330
238
100
AcDbEntity
  8
0
  6
Continuous
 62
     5
100
AcDbLine
 10
930.5288984708999
 20
107.3190137305
 30
0.0
 11
929.0915685004
 21
108.7563437011
 31
0.0
  0
LINE
  5
326
330
238
100
AcDbEntity
  8
0
  6
Continuous
 62
     5
100
AcDbLine
 10
930.2158384564998
 20
107.3190137305
 30
0.0
 11
929.0915685004
 21
108.4432836867
 31
0.0
  0
LINE
  5
327
330
238
100
AcDbEntity
  8
0
  6
Continuous
 62
     5
100
AcDbLine
 10
929.9027784420999
 20
107.3190137305
 30
0.0
 11
929.0915685004
 21
108.1302236723
 31
0.0
  0
LINE
  5
328
330
238
100
AcDbEntity
  8
0
  6
Continuous
 62
     5
100
AcDbLine
 10
929.5897184277
 20
107.3190137305
 30
0.0
 11
929.0915685004
 21
107.8171636579
 31
0.0
  0
LINE
  5
329
330
238
100
AcDbEntity
  8
0
  6
Continuous
 62
     5
100
AcDbLine
 10
929.2766584134
 20
107.3190137305
 30
0.0
 11
929.0915685004
 21
107.5041036435
 31
0.0
  0
LINE
  5
32A
330
238
100
AcDbEntity
  8
0
  6
Continuous
 62
     5
100
AcDbLine
 10
938.4585809455
 20
107.3190137305
 30
0.0
 11
938.4640572103
 21
107.3244899953
 31
0.0
  0
LINE
  5
32B
330
238
100
AcDbEntity
  8
0
  6
Continuous
 62
     5
100
AcDbLine
 10
938.1455209310999
 20
107.3190137305
 30
0.0
 11
938.4640572103
 21
107.6375500097
 31
0.0
  0
LINE
  5
32C
330
238
100
AcDbEntity
  8
0
  6
Continuous
 62
     5
100
AcDbLine
 10
937.8324609167
 20
107.3190137305
 30
0.0
 11
938.4640572103
 21
107.9506100241
 31
0.0
  0
LINE
  5
32D
330
238
100
AcDbEntity
  8
0
  6
Continuous
 62
     5
100
AcDbLine
 10
937.5194009022999
 20
107.3190137305
 30
0.0
 11
938.4640572103
 21
108.2636700385
 31
0.0
  0
LINE
  5
32E
330
238
100
AcDbEntity
  8
0
  6
Continuous
 62
     5
100
AcDbLine
 10
937.2063408878998
 20
107.3190137305
 30
0.0
 11
938.4640572103
 21
108.5767300529
 31
0.0
  0
LINE
  5
32F
330
238
100
AcDbEntity
  8
0
  6
Continuous
 62
     5
100
AcDbLine
 10
936.8932808735001
 20
107.3190137305
 30
0.0
 11
938.4640572103
 21
108.8897900673
 31
0.0
  0
LINE
  5
330
330
238
100
AcDbEntity
  8
0
  6
Continuous
 62
     5
100
AcDbLine
 10
936.5802208591
 20
107.3190137305
 30
0.0
 11
938.4640572103
 21
109.2028500817
 31
0.0
  0
LINE
  5
331
330
238
100
AcDbEntity
  8
0
  6
Continuous
 62
     5
100
AcDbLine
 10
936.2671608447
 20
107.3190137305
 30
0.0
 11
938.4640572103
 21
109.5159100961
 31
0.0
  0
LINE
  5
332
330
238
100
AcDbEntity
  8
0
  6
Continuous
 62
     5
100
AcDbLine
 10
935.9541008303999
 20
107.3190137305
 30
0.0
 11
938.4640572103
 21
109.8289701105
 31
0.0
  0
LINE
  5
333
330
238
100
AcDbEntity
  8
0
  6
Continuous
 62
     5
100
AcDbLine
 10
935.641040816
 20
107.3190137305
 30
0.0
 11
938.4640572103
 21
110.1420301249
 31
0.0
  0
LINE
  5
334
330
238
100
AcDbEntity
  8
0
  6
Continuous
 62
     5
100
AcDbLine
 10
935.3279808015999
 20
107.3190137305
 30
0.0
 11
938.4640572103
 21
110.4550901393
 31
0.0
  0
LINE
  5
335
330
238
100
AcDbEntity
  8
0
  6
Continuous
 62
     5
100
AcDbLine
 10
935.0149207872
 20
107.3190137305
 30
0.0
 11
938.4640572103
 21
110.7681501536
 31
0.0
  0
LINE
  5
336
330
238
100
AcDbEntity
  8
0
  6
Continuous
 62
     5
100
AcDbLine
 10
934.7018607727999
 20
107.3190137305
 30
0.0
 11
938.4640572103
 21
111.081210168
 31
0.0
  0
LINE
  5
337
330
238
100
AcDbEntity
  8
0
  6
Continuous
 62
     5
100
AcDbLine
 10
934.3888007583998
 20
107.3190137305
 30
0.0
 11
938.4640572103
 21
111.3942701824
 31
0.0
  0
LINE
  5
338
330
238
100
AcDbEntity
  8
0
  6
Continuous
 62
     5
100
AcDbLine
 10
934.0757407439999
 20
107.3190137305
 30
0.0
 11
938.4640572103
 21
111.7073301968
 31
0.0
  0
LINE
  5
339
330
238
100
AcDbEntity
  8
0
  6
Continuous
 62
     5
100
AcDbLine
 10
933.7626807296
 20
107.3190137305
 30
0.0
 11
938.4640572103
 21
112.0203902112
 31
0.0
  0
LINE
  5
33A
330
238
100
AcDbEntity
  8
0
  6
Continuous
 62
     5
100
AcDbLine
 10
933.4496207152
 20
107.3190137305
 30
0.0
 11
938.4640572103
 21
112.3334502256
 31
0.0
  0
LINE
  5
33B
330
238
100
AcDbEntity
  8
0
  6
Continuous
 62
     5
100
AcDbLine
 10
933.1365607008001
 20
107.3190137305
 30
0.0
 11
938.4640572103
 21
112.64651024
 31
0.0
  0
LINE
  5
33C
330
238
100
AcDbEntity
  8
0
  6
Continuous
 62
     5
100
AcDbLine
 10
932.8235006864
 20
107.3190137305
 30
0.0
 11
938.4640572103
 21
112.9595702544
 31
0.0
  0
LINE
  5
33D
330
238
100
AcDbEntity
  8
0
  6
Continuous
 62
     5
100
AcDbLine
 10
932.5104406719999
 20
107.3190137305
 30
0.0
 11
938.4640572103
 21
113.2726302688
 31
0.0
  0
LINE
  5
33E
330
238
100
AcDbEntity
  8
0
  6
Continuous
 62
     5
100
AcDbLine
 10
932.1973806577
 20
107.3190137305
 30
0.0
 11
938.4640572103
 21
113.5856902832
 31
0.0
  0
LINE
  5
33F
330
238
100
AcDbEntity
  8
0
  6
Continuous
 62
     5
100
AcDbLine
 10
931.8843206432999
 20
107.3190137305
 30
0.0
 11
938.4640572103
 21
113.8987502976
 31
0.0
  0
LINE
  5
340
330
238
100
AcDbEntity
  8
0
  6
Continuous
 62
     5
100
AcDbLine
 10
931.5712606288998
 20
107.3190137305
 30
0.0
 11
938.4640572103
 21
114.2118103119
 31
0.0
  0
LINE
  5
341
330
238
100
AcDbEntity
  8
0
  6
Continuous
 62
     5
100
AcDbLine
 10
931.2582006144999
 20
107.3190137305
 30
0.0
 11
938.4640572103
 21
114.5248703263
 31
0.0
  0
LINE
  5
342
330
238
100
AcDbEntity
  8
0
  6
Continuous
 62
     5
100
AcDbLine
 10
930.9451406001
 20
107.3190137305
 30
0.0
 11
938.4640572103
 21
114.8379303407
 31
0.0
  0
LINE
  5
343
330
238
100
AcDbEntity
  8
0
  6
Continuous
 62
     5
100
AcDbLine
 10
930.6320805857001
 20
107.3190137305
 30
0.0
 11
938.4640572103
 21
115.1509903551
 31
0.0
  0
LINE
  5
344
330
238
100
AcDbEntity
  8
0
  6
Continuous
 62
     5
100
AcDbLine
 10
930.3190205713001
 20
107.3190137305
 30
0.0
 11
938.4640572103
 21
115.4640503695
 31
0.0
  0
LINE
  5
345
330
238
100
AcDbEntity
  8
0
  6
Continuous
 62
     5
100
AcDbLine
 10
946.8430149821999
 20
123.8430081414
 30
0.0
 11
946.9218516509
 21
123.9218448102
 31
0.0
  0
LINE
  5
346
330
238
100
AcDbEntity
  8
0
  6
Continuous
 62
     5
100
AcDbLine
 10
930.0059605569
 20
107.3190137305
 30
0.0
 11
938.4640572103
 21
115.7771103839
 31
0.0
  0
LINE
  5
347
330
238
100
AcDbEntity
  8
0
  6
Continuous
 62
     5
100
AcDbLine
 10
946.5299549678
 20
123.8430081414
 30
0.0
 11
946.9218516509
 21
124.2349048246
 31
0.0
  0
LINE
  5
348
330
238
100
AcDbEntity
  8
0
  6
Continuous
 62
     5
100
AcDbLine
 10
929.6929005424999
 20
107.3190137305
 30
0.0
 11
938.4640572103
 21
116.0901703983
 31
0.0
  0
LINE
  5
349
330
238
100
AcDbEntity
  8
0
  6
Continuous
 62
     5
100
AcDbLine
 10
946.2168949534
 20
123.8430081414
 30
0.0
 11
946.9218516509
 21
124.547964839
 31
0.0
  0
LINE
  5
34A
330
238
100
AcDbEntity
  8
0
  6
Continuous
 62
     5
100
AcDbLine
 10
929.3798405281
 20
107.3190137305
 30
0.0
 11
938.4640572103
 21
116.4032304127
 31
0.0
  0
LINE
  5
34B
330
238
100
AcDbEntity
  8
0
  6
Continuous
 62
     5
100
AcDbLine
 10
945.9038349389999
 20
123.8430081414
 30
0.0
 11
946.9218516509
 21
124.8610248534
 31
0.0
  0
LINE
  5
34C
330
238
100
AcDbEntity
  8
0
  6
Continuous
 62
     5
100
AcDbLine
 10
929.0915685004
 20
107.3438017172
 30
0.0
 11
938.4640572103
 21
116.7162904271
 31
0.0
  0
LINE
  5
34D
330
238
100
AcDbEntity
  8
0
  6
Continuous
 62
     5
100
AcDbLine
 10
945.5907749246
 20
123.8430081414
 30
0.0
 11
946.9218516509
 21
125.1740848677
 31
0.0
  0
LINE
  5
34E
330
238
100
AcDbEntity
  8
0
  6
Continuous
 62
     5
100
AcDbLine
 10
929.0915685004
 20
107.6568617316
 30
0.0
 11
938.4640572103
 21
117.0293504415
 31
0.0
  0
LINE
  5
34F
330
238
100
AcDbEntity
  8
0
  6
Continuous
 62
     5
100
AcDbLine
 10
945.2777149102001
 20
123.8430081414
 30
0.0
 11
946.9218516509
 21
125.4871448821
 31
0.0
  0
LINE
  5
350
330
238
100
AcDbEntity
  8
0
  6
Continuous
 62
     5
100
AcDbLine
 10
929.0915685004
 20
107.969921746
 30
0.0
 11
938.4640572103
 21
117.3424104559
 31
0.0
  0
LINE
  5
351
330
238
100
AcDbEntity
  8
0
  6
Continuous
 62
     5
100
AcDbLine
 10
944.9646548958998
 20
123.8430081414
 30
0.0
 11
946.9218516509
 21
125.8002048965
 31
0.0
  0
LINE
  5
352
330
238
100
AcDbEntity
  8
0
  6
Continuous
 62
     5
100
AcDbLine
 10
929.0915685004
 20
108.2829817604
 30
0.0
 11
938.4640572103
 21
117.6554704702
 31
0.0
  0
LINE
  5
353
330
238
100
AcDbEntity
  8
0
  6
Continuous
 62
     5
100
AcDbLine
 10
944.6515948814999
 20
123.8430081414
 30
0.0
 11
946.9218516509
 21
126.1132649109
 31
0.0
  0
LINE
  5
354
330
238
100
AcDbEntity
  8
0
  6
Continuous
 62
     5
100
AcDbLine
 10
929.0915685004
 20
108.5960417748
 30
0.0
 11
938.4640572103
 21
117.9685304846
 31
0.0
  0
LINE
  5
355
330
238
100
AcDbEntity
  8
0
  6
Continuous
 62
     5
100
AcDbLine
 10
944.3385348671
 20
123.8430081414
 30
0.0
 11
946.9218516509
 21
126.4263249253
 31
0.0
  0
LINE
  5
356
330
238
100
AcDbEntity
  8
0
  6
Continuous
 62
     5
100
AcDbLine
 10
929.0915685004
 20
108.9091017892
 30
0.0
 11
938.4640572103
 21
118.281590499
 31
0.0
  0
LINE
  5
357
330
238
100
AcDbEntity
  8
0
  6
Continuous
 62
     5
100
AcDbLine
 10
944.0254748527001
 20
123.8430081414
 30
0.0
 11
946.9218516509
 21
126.7393849397
 31
0.0
  0
LINE
  5
358
330
238
100
AcDbEntity
  8
0
  6
Continuous
 62
     5
100
AcDbLine
 10
929.0915685004
 20
109.2221618036
 30
0.0
 11
938.4640572103
 21
118.5946505134
 31
0.0
  0
LINE
  5
359
330
238
100
AcDbEntity
  8
0
  6
Continuous
 62
     5
100
AcDbLine
 10
943.7124148383
 20
123.8430081414
 30
0.0
 11
946.9218516509
 21
127.0524449541
 31
0.0
  0
LINE
  5
35A
330
238
100
AcDbEntity
  8
0
  6
Continuous
 62
     5
100
AcDbLine
 10
929.0915685004
 20
109.535221818
 30
0.0
 11
938.4640572103
 21
118.9077105278
 31
0.0
  0
LINE
  5
35B
330
238
100
AcDbEntity
  8
0
  6
Continuous
 62
     5
100
AcDbLine
 10
943.3993548239
 20
123.8430081414
 30
0.0
 11
946.9218516509
 21
127.3655049685
 31
0.0
  0
LINE
  5
35C
330
238
100
AcDbEntity
  8
0
  6
Continuous
 62
     5
100
AcDbLine
 10
929.0915685004
 20
109.8482818323
 30
0.0
 11
938.4640572103
 21
119.2207705422
 31
0.0
  0
LINE
  5
35D
330
238
100
AcDbEntity
  8
0
  6
Continuous
 62
     5
100
AcDbLine
 10
943.0862948094999
 20
123.8430081414
 30
0.0
 11
946.9218516509
 21
127.6785649829
 31
0.0
  0
LINE
  5
35E
330
238
100
AcDbEntity
  8
0
  6
Continuous
 62
     5
100
AcDbLine
 10
929.0915685004
 20
110.1613418467
 30
0.0
 11
938.4640572103
 21
119.5338305566
 31
0.0
  0
LINE
  5
35F
330
238
100
AcDbEntity
  8
0
  6
Continuous
 62
     5
100
AcDbLine
 10
942.7732347951
 20
123.8430081414
 30
0.0
 11
946.9218516509
 21
127.9916249973
 31
0.0
  0
LINE
  5
360
330
238
100
AcDbEntity
  8
0
  6
Continuous
 62
     5
100
AcDbLine
 10
929.0915685004
 20
110.4744018611
 30
0.0
 11
938.4640572103
 21
119.846890571
 31
0.0
  0
LINE
  5
361
330
238
100
AcDbEntity
  8
0
  6
Continuous
 62
     5
100
AcDbLine
 10
942.4601747807001
 20
123.8430081414
 30
0.0
 11
946.9218516509
 21
128.3046850117
 31
0.0
  0
LINE
  5
362
330
238
100
AcDbEntity
  8
0
  6
Continuous
 62
     5
100
AcDbLine
 10
929.0915685004
 20
110.7874618755
 30
0.0
 11
938.4640572103
 21
120.1599505854
 31
0.0
  0
LINE
  5
363
330
238
100
AcDbEntity
  8
0
  6
Continuous
 62
     5
100
AcDbLine
 10
942.1471147663
 20
123.8430081414
 30
0.0
 11
946.9218516509
 21
128.617745026
 31
0.0
  0
LINE
  5
364
330
238
100
AcDbEntity
  8
0
  6
Continuous
 62
     5
100
AcDbLine
 10
929.0915685004
 20
111.1005218899
 30
0.0
 11
938.4640572103
 21
120.4730105998
 31
0.0
  0
LINE
  5
365
330
238
100
AcDbEntity
  8
0
  6
Continuous
 62
     5
100
AcDbLine
 10
941.8340547518999
 20
123.8430081414
 30
0.0
 11
946.8998946826999
 21
128.9088480722
 31
0.0
  0
LINE
  5
366
330
238
100
AcDbEntity
  8
0
  6
Continuous
 62
     5
100
AcDbLine
 10
929.0915685004
 20
111.4135819043
 30
0.0
 11
938.4640572103
 21
120.7860706142
 31
0.0
  0
LINE
  5
367
330
238
100
AcDbEntity
  8
0
  6
Continuous
 62
     5
100
AcDbLine
 10
941.5209947375998
 20
123.8430081414
 30
0.0
 11
946.7607036841998
 21
129.0827170881
 31
0.0
  0
LINE
  5
368
330
238
100
AcDbEntity
  8
0
  6
Continuous
 62
     5
100
AcDbLine
 10
929.0915685004
 20
111.7266419187
 30
0.0
 11
938.4640572103
 21
121.0991306286
 31
0.0
  0
LINE
  5
369
330
238
100
AcDbEntity
  8
0
  6
Continuous
 62
     5
100
AcDbLine
 10
941.2079347232001
 20
123.8430081414
 30
0.0
 11
946.6215126857001
 21
129.256586104
 31
0.0
  0
LINE
  5
36A
330
238
100
AcDbEntity
  8
0
  6
Continuous
 62
     5
100
AcDbLine
 10
929.0915685004
 20
112.0397019331
 30
0.0
 11
938.4640572103
 21
121.4121906429
 31
0.0
  0
LINE
  5
36B
330
238
100
AcDbEntity
  8
0
  6
Continuous
 62
     5
100
AcDbLine
 10
940.8948747088
 20
123.8430081414
 30
0.0
 11
946.4823216872
 21
129.4304551199
 31
0.0
  0
LINE
  5
36C
330
238
100
AcDbEntity
  8
0
  6
Continuous
 62
     5
100
AcDbLine
 10
929.0915685004
 20
112.3527619475
 30
0.0
 11
938.4640572103
 21
121.7252506573
 31
0.0
  0
LINE
  5
36D
330
238
100
AcDbEntity
  8
0
  6
Continuous
 62
     5
100
AcDbLine
 10
940.5818146944
 20
123.8430081414
 30
0.0
 11
946.3431306886999
 21
129.6043241358
 31
0.0
  0
LINE
  5
36E
330
238
100
AcDbEntity
  8
0
  6
Continuous
 62
     5
100
AcDbLine
 10
929.0915685004
 20
112.6658219619
 30
0.0
 11
938.4640572103
 21
122.0383106717
 31
0.0
  0
LINE
  5
36F
330
238
100
AcDbEntity
  8
0
  6
Continuous
 62
     5
100
AcDbLine
 10
940.2687546800001
 20
123.8430081414
 30
0.0
 11
946.2039396902
 21
129.7781931517
 31
0.0
  0
LINE
  5
370
330
238
100
AcDbEntity
  8
0
  6
Continuous
 62
     5
100
AcDbLine
 10
929.0915685004
 20
112.9788819763
 30
0.0
 11
938.4640572103
 21
122.3513706861
 31
0.0
  0
LINE
  5
371
330
238
100
AcDbEntity
  8
0
  6
Continuous
 62
     5
100
AcDbLine
 10
939.9556946656
 20
123.8430081414
 30
0.0
 11
946.0647486916998
 21
129.9520621675
 31
0.0
  0
LINE
  5
372
330
238
100
AcDbEntity
  8
0
  6
Continuous
 62
     5
100
AcDbLine
 10
929.0915685004
 20
113.2919419906
 30
0.0
 11
938.4640572103
 21
122.6644307005
 31
0.0
  0
LINE
  5
373
330
238
100
AcDbEntity
  8
0
  6
Continuous
 62
     5
100
AcDbLine
 10
939.6426346511999
 20
123.8430081414
 30
0.0
 11
945.9255576932001
 21
130.1259311834
 31
0.0
  0
LINE
  5
374
330
238
100
AcDbEntity
  8
0
  6
Continuous
 62
     5
100
AcDbLine
 10
929.0915685004
 20
113.605002005
 30
0.0
 11
938.4640572103
 21
122.9774907149
 31
0.0
  0
LINE
  5
375
330
238
100
AcDbEntity
  8
0
  6
Continuous
 62
     5
100
AcDbLine
 10
939.3295746368
 20
123.8430081414
 30
0.0
 11
945.7863666947
 21
130.2998001993
 31
0.0
  0
LINE
  5
376
330
238
100
AcDbEntity
  8
0
  6
Continuous
 62
     5
100
AcDbLine
 10
929.0915685004
 20
113.9180620194
 30
0.0
 11
938.4640572103
 21
123.2905507293
 31
0.0
  0
LINE
  5
377
330
238
100
AcDbEntity
  8
0
  6
Continuous
 62
     5
100
AcDbLine
 10
939.0165146224001
 20
123.8430081414
 30
0.0
 11
945.6471756961999
 21
130.4736692152
 31
0.0
  0
LINE
  5
378
330
238
100
AcDbEntity
  8
0
  6
Continuous
 62
     5
100
AcDbLine
 10
929.0915685004
 20
114.2311220338
 30
0.0
 11
938.4640572103
 21
123.6036107437
 31
0.0
  0
LINE
  5
379
330
238
100
AcDbEntity
  8
0
  6
Continuous
 62
     5
100
AcDbLine
 10
938.703454608
 20
123.8430081414
 30
0.0
 11
945.5079846977
 21
130.6475382311
 31
0.0
  0
LINE
  5
37A
330
238
100
AcDbEntity
  8
0
  6
Continuous
 62
     5
100
AcDbLine
 10
929.0915685004
 20
114.5441820482
 30
0.0
 11
945.3687936991999
 21
130.821407247
 31
0.0
  0
LINE
  5
37B
330
238
100
AcDbEntity
  8
0
  6
Continuous
 62
     5
100
AcDbLine
 10
929.0915685004
 20
114.8572420626
 30
0.0
 11
945.2296027007001
 21
130.9952762629
 31
0.0
  0
LINE
  5
37C
330
238
100
AcDbEntity
  8
0
  6
Continuous
 62
     5
100
AcDbLine
 10
929.0915685004
 20
115.170302077
 30
0.0
 11
945.0904117022
 21
131.1691452787
 31
0.0
  0
LINE
  5
37D
330
238
100
AcDbEntity
  8
0
  6
Continuous
 62
     5
100
AcDbLine
 10
929.0915685004
 20
115.4833620914
 30
0.0
 11
944.9512207036999
 21
131.3430142946
 31
0.0
  0
LINE
  5
37E
330
238
100
AcDbEntity
  8
0
  6
Continuous
 62
     5
100
AcDbLine
 10
929.0915685004
 20
115.7964221058
 30
0.0
 11
944.8120297051
 21
131.5168833105
 31
0.0
  0
LINE
  5
37F
330
238
100
AcDbEntity
  8
0
  6
Continuous
 62
     5
100
AcDbLine
 10
929.0915685004
 20
116.1094821202
 30
0.0
 11
940.1571986986001
 21
127.1751123184
 31
0.0
  0
LINE
  5
380
330
238
100
AcDbEntity
  8
0
  6
Continuous
 62
     5
100
AcDbLine
 10
940.9105359356001
 20
127.9284495554
 30
0.0
 11
944.6728387066
 21
131.6907523264
 31
0.0
  0
LINE
  5
381
330
238
100
AcDbEntity
  8
0
  6
Continuous
 62
     5
100
AcDbLine
 10
929.0915685004
 20
116.4225421346
 30
0.0
 11
939.4984878654
 21
126.8294614996
 31
0.0
  0
LINE
  5
382
330
238
100
AcDbEntity
  8
0
  6
Continuous
 62
     5
100
AcDbLine
 10
941.2471052496
 20
128.5780788838
 30
0.0
 11
944.5336477080999
 21
131.8646213423
 31
0.0
  0
LINE
  5
383
330
238
100
AcDbEntity
  8
0
  6
Continuous
 62
     5
100
AcDbLine
 10
929.0915685004
 20
116.7356021489
 30
0.0
 11
939.0594522051999
 21
126.7034858537
 31
0.0
  0
LINE
  5
384
330
238
100
AcDbEntity
  8
0
  6
Continuous
 62
     5
100
AcDbLine
 10
941.3737333613999
 20
129.0177670099
 30
0.0
 11
944.3944567096
 21
132.0384903582
 31
0.0
  0
LINE
  5
385
330
238
100
AcDbEntity
  8
0
  6
Continuous
 62
     5
100
AcDbLine
 10
929.0915685004
 20
117.0486621633
 30
0.0
 11
938.6910960113999
 21
126.6481896743
 31
0.0
  0
LINE
  5
386
330
238
100
AcDbEntity
  8
0
  6
Continuous
 62
     5
100
AcDbLine
 10
941.4278854724001
 20
129.3849791353
 30
0.0
 11
944.2552657111001
 21
132.2123593741
 31
0.0
  0
LINE
  5
387
330
238
100
AcDbEntity
  8
0
  6
Continuous
 62
     5
100
AcDbLine
 10
929.0915685004
 20
117.3617221777
 30
0.0
 11
938.3701320842
 21
126.6402857615
 31
0.0
  0
LINE
  5
388
330
238
100
AcDbEntity
  8
0
  6
Continuous
 62
     5
100
AcDbLine
 10
941.4415964960001
 20
129.7117501733
 30
0.0
 11
944.1160747126
 21
132.3862283899
 31
0.0
  0
LINE
  5
389
330
238
100
AcDbEntity
  8
0
  6
Continuous
 62
     5
100
AcDbLine
 10
929.0915685004
 20
117.6747821921
 30
0.0
 11
938.0837911203
 21
126.667004812
 31
0.0
  0
LINE
  5
38A
330
238
100
AcDbEntity
  8
0
  6
Continuous
 62
     5
100
AcDbLine
 10
941.4119107560001
 20
129.9951244477
 30
0.0
 11
943.9768837141
 21
132.5600974058
 31
0.0
  0
LINE
  5
38B
330
238
100
AcDbEntity
  8
0
  6
Continuous
 62
     5
100
AcDbLine
 10
929.0915685004
 20
117.9878422065
 30
0.0
 11
937.8127682658
 21
126.7090419719
 31
0.0
  0
LINE
  5
38C
330
238
100
AcDbEntity
  8
0
  6
Continuous
 62
     5
100
AcDbLine
 10
941.3673698444
 20
130.2636435505
 30
0.0
 11
943.8376927155999
 21
132.7339664217
 31
0.0
  0
LINE
  5
38D
330
238
100
AcDbEntity
  8
0
  6
Continuous
 62
     5
100
AcDbLine
 10
929.0915685004
 20
118.3009022209
 30
0.0
 11
937.5688522249999
 21
126.7781859455
 31
0.0
  0
LINE
  5
38E
330
238
100
AcDbEntity
  8
0
  6
Continuous
 62
     5
100
AcDbLine
 10
941.3018157416999
 20
130.5111494621
 30
0.0
 11
943.6985017171
 21
132.9078354376
 31
0.0
  0
LINE
  5
38F
330
238
100
AcDbEntity
  8
0
  6
Continuous
 62
     5
100
AcDbLine
 10
929.0915685004
 20
118.6139622353
 30
0.0
 11
937.3373611141001
 21
126.859754849
 31
0.0
  0
LINE
  5
390
330
238
100
AcDbEntity
  8
0
  6
Continuous
 62
     5
100
AcDbLine
 10
941.2174751248
 20
130.7398688596
 30
0.0
 11
943.5593107186001
 21
133.0817044535
 31
0.0
  0
LINE
  5
391
330
238
100
AcDbEntity
  8
0
  6
Continuous
 62
     5
100
AcDbLine
 10
929.0915685004
 20
118.9270222497
 30
0.0
 11
937.1221366938
 21
126.957590443
 31
0.0
  0
LINE
  5
392
330
238
100
AcDbEntity
  8
0
  6
Continuous
 62
     5
100
AcDbLine
 10
941.1227512544
 20
130.9582050037
 30
0.0
 11
943.4201197201
 21
133.2555734694
 31
0.0
  0
LINE
  5
393
330
238
100
AcDbEntity
  8
0
  6
Continuous
 62
     5
100
AcDbLine
 10
929.0915685004
 20
119.2400822641
 30
0.0
 11
936.9206213178999
 21
127.0691350815
 31
0.0
  0
LINE
  5
394
330
238
100
AcDbEntity
  8
0
  6
Continuous
 62
     5
100
AcDbLine
 10
941.0083883122
 20
131.1569020759
 30
0.0
 11
943.2809287216
 21
133.4294424853
 31
0.0
  0
LINE
  5
395
330
238
100
AcDbEntity
  8
0
  6
Continuous
 62
     5
100
AcDbLine
 10
929.0915685004
 20
119.5531422785
 30
0.0
 11
936.7310025747999
 21
127.1925763528
 31
0.0
  0
LINE
  5
396
330
238
100
AcDbEntity
  8
0
  6
Continuous
 62
     5
100
AcDbLine
 10
940.8877889822999
 20
131.3493627603
 30
0.0
 11
943.1417377230999
 21
133.6033115011
 31
0.0
  0
LINE
  5
397
330
238
100
AcDbEntity
  8
0
  6
Continuous
 62
     5
100
AcDbLine
 10
929.0915685004
 20
119.8662022929
 30
0.0
 11
936.5546531836999
 21
127.3292869761
 31
0.0
  0
LINE
  5
398
330
238
100
AcDbEntity
  8
0
  6
Continuous
 62
     5
100
AcDbLine
 10
940.7482753118999
 20
131.5229091043
 30
0.0
 11
943.0025467246
 21
133.777180517
 31
0.0
  0
LINE
  5
399
330
238
100
AcDbEntity
  8
0
  6
Continuous
 62
     5
100
AcDbLine
 10
929.0915685004
 20
120.1792623072
 30
0.0
 11
936.3890502433999
 21
127.4767440503
 31
0.0
  0
LINE
  5
39A
330
238
100
AcDbEntity
  8
0
  6
Continuous
 62
     5
100
AcDbLine
 10
940.6035404988999
 20
131.6912343058
 30
0.0
 11
942.8633557261001
 21
133.9510495329
 31
0.0
  0
LINE
  5
39B
330
238
100
AcDbEntity
  8
0
  6
Continuous
 62
     5
100
AcDbLine
 10
929.0915685004
 20
120.4923223216
 30
0.0
 11
936.2359360099
 21
127.6366898311
 31
0.0
  0
LINE
  5
39C
330
238
100
AcDbEntity
  8
0
  6
Continuous
 62
     5
100
AcDbLine
 10
940.4428891501
 20
131.8436429713
 30
0.0
 11
942.7241647276
 21
134.1249185488
 31
0.0
  0
LINE
  5
39D
330
238
100
AcDbEntity
  8
0
  6
Continuous
 62
     5
100
AcDbLine
 10
929.0915685004
 20
120.805382336
 30
0.0
 11
936.0939305714
 21
127.807744407
 31
0.0
  0
LINE
  5
39E
330
238
100
AcDbEntity
  8
0
  6
Continuous
 62
     5
100
AcDbLine
 10
940.272949835
 20
131.9867636707
 30
0.0
 11
942.5849737291001
 21
134.2987875647
 31
0.0
  0
LINE
  5
39F
330
238
100
AcDbEntity
  8
0
  6
Continuous
 62
     5
100
AcDbLine
 10
929.0915685004
 20
121.1184423504
 30
0.0
 11
935.9643329208001
 21
127.9912067708
 31
0.0
  0
LINE
  5
3A0
330
238
100
AcDbEntity
  8
0
  6
Continuous
 62
     5
100
AcDbLine
 10
940.0861523042999
 20
132.1130261543
 30
0.0
 11
942.4457827306
 21
134.4726565806
 31
0.0
  0
LINE
  5
3A1
330
238
100
AcDbEntity
  8
0
  6
Continuous
 62
     5
100
AcDbLine
 10
929.0915685004
 20
121.4315023648
 30
0.0
 11
935.8465982142998
 21
128.1865320787
 31
0.0
  0
LINE
  5
3A2
330
238
100
AcDbEntity
  8
0
  6
Continuous
 62
     5
100
AcDbLine
 10
939.8939091231
 20
132.2338429875
 30
0.0
 11
942.3065917321
 21
134.6465255965
 31
0.0
  0
LINE
  5
3A3
330
238
100
AcDbEntity
  8
0
  6
Continuous
 62
     5
100
AcDbLine
 10
929.0915685004
 20
121.7445623792
 30
0.0
 11
935.743099047
 21
128.3960929258
 31
0.0
  0
LINE
  5
3A4
330
238
100
AcDbEntity
  8
0
  6
Continuous
 62
     5
100
AcDbLine
 10
939.6817562788001
 20
132.3347501576
 30
0.0
 11
942.1674007334999
 21
134.8203946123
 31
0.0
  0
LINE
  5
3A5
330
238
100
AcDbEntity
  8
0
  6
Continuous
 62
     5
100
AcDbLine
 10
929.0915685004
 20
122.0576223936
 30
0.0
 11
935.6515297436999
 21
128.6175836369
 31
0.0
  0
LINE
  5
3A6
330
238
100
AcDbEntity
  8
0
  6
Continuous
 62
     5
100
AcDbLine
 10
939.4609873875999
 20
132.4270412808
 30
0.0
 11
942.028209735
 21
134.9942636282
 31
0.0
  0
LINE
  5
3A7
330
238
100
AcDbEntity
  8
0
  6
Continuous
 62
     5
100
AcDbLine
 10
929.0915685004
 20
122.370682408
 30
0.0
 11
935.579909217
 21
128.8590231245
 31
0.0
  0
LINE
  5
3A8
330
238
100
AcDbEntity
  8
0
  6
Continuous
 62
     5
100
AcDbLine
 10
939.2205924767999
 20
132.4997063844
 30
0.0
 11
941.8890187364999
 21
135.1681326441
 31
0.0
  0
LINE
  5
3A9
330
238
100
AcDbEntity
  8
0
  6
Continuous
 62
     5
100
AcDbLine
 10
929.0915685004
 20
122.6837424224
 30
0.0
 11
935.5180179761999
 21
129.1101918982
 31
0.0
  0
LINE
  5
3AA
330
238
100
AcDbEntity
  8
0
  6
Continuous
 62
     5
100
AcDbLine
 10
938.9629607840999
 20
132.555134706
 30
0.0
 11
941.749827738
 21
135.34200166
 31
0.0
  0
LINE
  5
3AB
330
238
100
AcDbEntity
  8
0
  6
Continuous
 62
     5
100
AcDbLine
 10
929.0915685004
 20
122.9968024368
 30
0.0
 11
935.4895758564
 21
129.3948097927
 31
0.0
  0
LINE
  5
3AC
330
238
100
AcDbEntity
  8
0
  6
Continuous
 62
     5
100
AcDbLine
 10
938.6893314918999
 20
132.5945654283
 30
0.0
 11
941.6106367395
 21
135.5158706759
 31
0.0
  0
LINE
  5
3AD
330
238
100
AcDbEntity
  8
0
  6
Continuous
 62
     5
100
AcDbLine
 10
929.0915685004
 20
123.3098624512
 30
0.0
 11
935.4808284269001
 21
129.6991223776
 31
0.0
  0
LINE
  5
3AE
330
238
100
AcDbEntity
  8
0
  6
Continuous
 62
     5
100
AcDbLine
 10
938.3783154088
 20
132.5966093595
 30
0.0
 11
941.4714457409999
 21
135.6897396918
 31
0.0
  0
LINE
  5
3AF
330
238
100
AcDbEntity
  8
0
  6
Continuous
 62
     5
100
AcDbLine
 10
929.0915685004
 20
123.6229224656
 30
0.0
 11
935.5028093882999
 21
130.0341633535
 31
0.0
  0
LINE
  5
3B0
330
238
100
AcDbEntity
  8
0
  6
Continuous
 62
     5
100
AcDbLine
 10
938.0360208212
 20
132.5673747864
 30
0.0
 11
941.3322547425
 21
135.8636087077
 31
0.0
  0
LINE
  5
3B1
330
238
100
AcDbEntity
  8
0
  6
Continuous
 62
     5
100
AcDbLine
 10
929.0915685004
 20
123.9359824799
 30
0.0
 11
935.5874374909999
 21
130.4318514705
 31
0.0
  0
LINE
  5
3B2
330
238
100
AcDbEntity
  8
0
  6
Continuous
 62
     5
100
AcDbLine
 10
937.6391360386
 20
132.4835500181
 30
0.0
 11
941.1930637439999
 21
136.0374777235
 31
0.0
  0
LINE
  5
3B3
330
238
100
AcDbEntity
  8
0
  6
Continuous
 62
     5
100
AcDbLine
 10
929.0915685004
 20
124.2490424943
 30
0.0
 11
935.789173596
 21
130.9466475899
 31
0.0
  0
LINE
  5
3B4
330
238
100
AcDbEntity
  8
0
  6
Continuous
 62
     5
100
AcDbLine
 10
937.1238901631
 20
132.2813641571
 30
0.0
 11
941.0538727455
 21
136.2113467394
 31
0.0
  0
LINE
  5
3B5
330
238
100
AcDbEntity
  8
0
  6
Continuous
 62
     5
100
AcDbLine
 10
929.0915685004
 20
124.5621025087
 30
0.0
 11
940.9146817469999
 21
136.3852157553
 31
0.0
  0
LINE
  5
3B6
330
238
100
AcDbEntity
  8
0
  6
Continuous
 62
     5
100
AcDbLine
 10
929.0915685004
 20
124.8751625231
 30
0.0
 11
940.7754907484999
 21
136.5590847712
 31
0.0
  0
LINE
  5
3B7
330
238
100
AcDbEntity
  8
0
  6
Continuous
 62
     5
100
AcDbLine
 10
929.0915685004
 20
125.1882225375
 30
0.0
 11
940.63629975
 21
136.7329537871
 31
0.0
  0
LINE
  5
3B8
330
238
100
AcDbEntity
  8
0
  6
Continuous
 62
     5
100
AcDbLine
 10
929.0915685004
 20
125.5012825519
 30
0.0
 11
940.4971087514999
 21
136.906822803
 31
0.0
  0
LINE
  5
3B9
330
238
100
AcDbEntity
  8
0
  6
Continuous
 62
     5
100
AcDbLine
 10
929.0915685004
 20
125.8143425663
 30
0.0
 11
940.357917753
 21
137.0806918189
 31
0.0
  0
LINE
  5
3BA
330
238
100
AcDbEntity
  8
0
  6
Continuous
 62
     5
100
AcDbLine
 10
929.0915685004
 20
126.1274025807
 30
0.0
 11
940.2187267544999
 21
137.2545608347
 31
0.0
  0
LINE
  5
3BB
330
238
100
AcDbEntity
  8
0
  6
Continuous
 62
     5
100
AcDbLine
 10
929.0915685004
 20
126.4404625951
 30
0.0
 11
940.0795357559999
 21
137.4284298506
 31
0.0
  0
LINE
  5
3BC
330
238
100
AcDbEntity
  8
0
  6
Continuous
 62
     5
100
AcDbLine
 10
929.0915685004
 20
126.7535226095
 30
0.0
 11
939.9403447575
 21
137.6022988665
 31
0.0
  0
LINE
  5
3BD
330
238
100
AcDbEntity
  8
0
  6
Continuous
 62
     5
100
AcDbLine
 10
929.0915685004
 20
127.0665826239
 30
0.0
 11
939.8011537589999
 21
137.7761678824
 31
0.0
  0
LINE
  5
3BE
330
238
100
AcDbEntity
  8
0
  6
Continuous
 62
     5
100
AcDbLine
 10
929.0915685004
 20
127.3796426382
 30
0.0
 11
939.6619627605
 21
137.9500368983
 31
0.0
  0
LINE
  5
3BF
330
238
100
AcDbEntity
  8
0
  6
Continuous
 62
     5
100
AcDbLine
 10
929.0915685004
 20
127.6927026526
 30
0.0
 11
939.5227717619
 21
138.1239059142
 31
0.0
  0
LINE
  5
3C0
330
238
100
AcDbEntity
  8
0
  6
Continuous
 62
     5
100
AcDbLine
 10
929.0915685004
 20
128.005762667
 30
0.0
 11
939.3835807633999
 21
138.2977749301
 31
0.0
  0
LINE
  5
3C1
330
238
100
AcDbEntity
  8
0
  6
Continuous
 62
     5
100
AcDbLine
 10
929.0915685004
 20
128.3188226814
 30
0.0
 11
939.2443897649
 21
138.4716439459
 31
0.0
  0
LINE
  5
3C2
330
238
100
AcDbEntity
  8
0
  6
Continuous
 62
     5
100
AcDbLine
 10
929.0915685004
 20
128.6318826958
 30
0.0
 11
939.1051987663999
 21
138.6455129618
 31
0.0
  0
LINE
  5
3C3
330
238
100
AcDbEntity
  8
0
  6
Continuous
 62
     5
100
AcDbLine
 10
929.0915685004
 20
128.9449427102
 30
0.0
 11
938.9660077678998
 21
138.8193819777
 31
0.0
  0
LINE
  5
3C4
330
238
100
AcDbEntity
  8
0
  6
Continuous
 62
     5
100
AcDbLine
 10
929.0915685004
 20
129.2580027246
 30
0.0
 11
938.8268167694
 21
138.9932509936
 31
0.0
  0
LINE
  5
3C5
330
238
100
AcDbEntity
  8
0
  6
Continuous
 62
     5
100
AcDbLine
 10
929.0915685004
 20
129.571062739
 30
0.0
 11
938.6876257708999
 21
139.1671200095
 31
0.0
  0
LINE
  5
3C6
330
238
100
AcDbEntity
  8
0
  6
Continuous
 62
     5
100
AcDbLine
 10
929.0915685004
 20
129.8841227534
 30
0.0
 11
938.5264594776
 21
139.3190137305
 31
0.0
  0
LINE
  5
3C7
330
238
100
AcDbEntity
  8
0
  6
Continuous
 62
     5
100
AcDbLine
 10
929.0915685004
 20
130.1971827678
 30
0.0
 11
938.2133994632001
 21
139.3190137305
 31
0.0
  0
LINE
  5
3C8
330
238
100
AcDbEntity
  8
0
  6
Continuous
 62
     5
100
AcDbLine
 10
929.0915685004
 20
130.5102427822
 30
0.0
 11
937.9003394488
 21
139.3190137305
 31
0.0
  0
LINE
  5
3C9
330
238
100
AcDbEntity
  8
0
  6
Continuous
 62
     5
100
AcDbLine
 10
929.0915685004
 20
130.8233027965
 30
0.0
 11
937.5872794343999
 21
139.3190137305
 31
0.0
  0
LINE
  5
3CA
330
238
100
AcDbEntity
  8
0
  6
Continuous
 62
     5
100
AcDbLine
 10
929.0915685004
 20
131.1363628109
 30
0.0
 11
937.27421942
 21
139.3190137305
 31
0.0
  0
LINE
  5
3CB
330
238
100
AcDbEntity
  8
0
  6
Continuous
 62
     5
100
AcDbLine
 10
929.0915685004
 20
131.4494228253
 30
0.0
 11
936.9611594055999
 21
139.3190137305
 31
0.0
  0
LINE
  5
3CC
330
238
100
AcDbEntity
  8
0
  6
Continuous
 62
     5
100
AcDbLine
 10
929.0915685004
 20
131.7624828397
 30
0.0
 11
936.6480993911999
 21
139.3190137305
 31
0.0
  0
LINE
  5
3CD
330
238
100
AcDbEntity
  8
0
  6
Continuous
 62
     5
100
AcDbLine
 10
929.0915685004
 20
132.0755428541
 30
0.0
 11
936.3350393769
 21
139.3190137305
 31
0.0
  0
LINE
  5
3CE
330
238
100
AcDbEntity
  8
0
  6
Continuous
 62
     5
100
AcDbLine
 10
929.0915685004
 20
132.3886028685
 30
0.0
 11
936.0219793625001
 21
139.3190137305
 31
0.0
  0
LINE
  5
3CF
330
238
100
AcDbEntity
  8
0
  6
Continuous
 62
     5
100
AcDbLine
 10
929.0915685004
 20
132.7016628829
 30
0.0
 11
935.7089193481
 21
139.3190137305
 31
0.0
  0
LINE
  5
3D0
330
238
100
AcDbEntity
  8
0
  6
Continuous
 62
     5
100
AcDbLine
 10
929.0915685004
 20
133.0147228973
 30
0.0
 11
935.3958593336999
 21
139.3190137305
 31
0.0
  0
LINE
  5
3D1
330
238
100
AcDbEntity
  8
0
  6
Continuous
 62
     5
100
AcDbLine
 10
929.0915685004
 20
133.3277829117
 30
0.0
 11
935.0827993193
 21
139.3190137305
 31
0.0
  0
LINE
  5
3D2
330
238
100
AcDbEntity
  8
0
  6
Continuous
 62
     5
100
AcDbLine
 10
929.0915685004
 20
133.6408429261
 30
0.0
 11
934.7697393049001
 21
139.3190137305
 31
0.0
  0
LINE
  5
3D3
330
238
100
AcDbEntity
  8
0
  6
Continuous
 62
     5
100
AcDbLine
 10
929.0915685004
 20
133.9539029405
 30
0.0
 11
934.4566792905
 21
139.3190137305
 31
0.0
  0
LINE
  5
3D4
330
238
100
AcDbEntity
  8
0
  6
Continuous
 62
     5
100
AcDbLine
 10
929.0915685004
 20
134.2669629548
 30
0.0
 11
934.1436192760999
 21
139.3190137305
 31
0.0
  0
LINE
  5
3D5
330
238
100
AcDbEntity
  8
0
  6
Continuous
 62
     5
100
AcDbLine
 10
929.0915685004
 20
134.5800229692
 30
0.0
 11
933.8305592616999
 21
139.3190137305
 31
0.0
  0
LINE
  5
3D6
330
238
100
AcDbEntity
  8
0
  6
Continuous
 62
     5
100
AcDbLine
 10
929.0915685004
 20
134.8930829836
 30
0.0
 11
933.5174992473
 21
139.3190137305
 31
0.0
  0
LINE
  5
3D7
330
238
100
AcDbEntity
  8
0
  6
Continuous
 62
     5
100
AcDbLine
 10
929.0915685004
 20
135.206142998
 30
0.0
 11
933.2044392328999
 21
139.3190137305
 31
0.0
  0
LINE
  5
3D8
330
238
100
AcDbEntity
  8
0
  6
Continuous
 62
     5
100
AcDbLine
 10
929.0915685004
 20
135.5192030124
 30
0.0
 11
932.8913792185002
 21
139.3190137305
 31
0.0
  0
LINE
  5
3D9
330
238
100
AcDbEntity
  8
0
  6
Continuous
 62
     5
100
AcDbLine
 10
929.0915685004
 20
135.8322630268
 30
0.0
 11
932.5783192041999
 21
139.3190137305
 31
0.0
  0
LINE
  5
3DA
330
238
100
AcDbEntity
  8
0
  6
Continuous
 62
     5
100
AcDbLine
 10
929.0915685004
 20
136.1453230412
 30
0.0
 11
932.2652591898
 21
139.3190137305
 31
0.0
  0
LINE
  5
3DB
330
238
100
AcDbEntity
  8
0
  6
Continuous
 62
     5
100
AcDbLine
 10
929.0915685004
 20
136.4583830556
 30
0.0
 11
931.9521991753999
 21
139.3190137305
 31
0.0
  0
LINE
  5
3DC
330
238
100
AcDbEntity
  8
0
  6
Continuous
 62
     5
100
AcDbLine
 10
929.0915685004
 20
136.77144307
 30
0.0
 11
931.639139161
 21
139.3190137305
 31
0.0
  0
LINE
  5
3DD
330
238
100
AcDbEntity
  8
0
  6
Continuous
 62
     5
100
AcDbLine
 10
929.0915685004
 20
137.0845030844
 30
0.0
 11
931.3260791465999
 21
139.3190137305
 31
0.0
  0
LINE
  5
3DE
330
238
100
AcDbEntity
  8
0
  6
Continuous
 62
     5
100
AcDbLine
 10
929.0915685004
 20
137.3975630988
 30
0.0
 11
931.0130191322
 21
139.3190137305
 31
0.0
  0
LINE
  5
3DF
330
238
100
AcDbEntity
  8
0
  6
Continuous
 62
     5
100
AcDbLine
 10
929.0915685004
 20
137.7106231132
 30
0.0
 11
930.6999591178
 21
139.3190137305
 31
0.0
  0
LINE
  5
3E0
330
238
100
AcDbEntity
  8
0
  6
Continuous
 62
     5
100
AcDbLine
 10
929.0915685004
 20
138.0236831275
 30
0.0
 11
930.3868991033999
 21
139.3190137305
 31
0.0
  0
LINE
  5
3E1
330
238
100
AcDbEntity
  8
0
  6
Continuous
 62
     5
100
AcDbLine
 10
929.0915685004
 20
138.3367431419
 30
0.0
 11
930.073839089
 21
139.3190137305
 31
0.0
  0
LINE
  5
3E2
330
238
100
AcDbEntity
  8
0
  6
Continuous
 62
     5
100
AcDbLine
 10
929.0915685004
 20
138.6498031562999
 30
0.0
 11
929.7607790746001
 21
139.3190137305
 31
0.0
  0
LINE
  5
3E3
330
238
100
AcDbEntity
  8
0
  6
Continuous
 62
     5
100
AcDbLine
 10
929.0915685004
 20
138.9628631707
 30
0.0
 11
929.4477190602
 21
139.3190137305
 31
0.0
  0
LINE
  5
3E4
330
238
100
AcDbEntity
  8
0
  6
Continuous
 62
     5
100
AcDbLine
 10
929.0915685004
 20
139.2759231851
 30
0.0
 11
929.1346590458999
 21
139.3190137305
 31
0.0
  0
ENDBLK
  5
3E5
330
238
100
AcDbEntity
  8
0
  6
ByBlock
 62
     0
100
AcDbBlockEnd
  0
BLOCK
  5
3E6
330
239
100
AcDbEntity
  8
0
  6
Continuous
 62
     2
100
AcDbBlockBegin
  2
SYMBOL_1_BL1
 70
     0
 10
78.798179058
 20
757.8584255091999
 30
0.0
  3
SYMBOL_1_BL1
  1

  0
LINE
  5
3E7
330
239
100
AcDbEntity
  8
0
  6
Continuous
 62
     2
100
AcDbLine
 10
74.6778918161
 20
762.6161234057
 30
0.0
 11
74.6778918161
 21
753.1007276125999
 31
0.0
  0
LINE
  5
3E8
330
239
100
AcDbEntity
  8
0
  6
Continuous
 62
     2
100
AcDbLine
 10
74.6778918161
 20
753.1007276125999
 30
0.0
 11
82.91846629990001
 21
757.8584255091999
 31
0.0
  0
LINE
  5
3E9
330
239
100
AcDbEntity
  8
0
  6
Continuous
 62
     2
100
AcDbLine
 10
82.91846629990001
 20
757.8584255091999
 30
0.0
 11
74.6778918161
 21
762.6161234057
 31
0.0
  0
SOLID
  5
3EA
330
239
100
AcDbEntity
  8
0
  6
Continuous
 62
     2
100
AcDbTrace
 10
74.6778918161
 20
762.6161234057
 30
0.0
 11
82.91846629990001
 21
757.8584255091999
 31
0.0
 12
74.6778918161
 22
753.1007276125999
 32
0.0
 13
74.6778918161
 23
753.1007276125999
 33
0.0
  0
ENDBLK
  5
3EB
330
239
100
AcDbEntity
  8
0
  6
ByBlock
 62
     0
100
AcDbBlockEnd
  0
BLOCK
  5
3EC
330
23A
100
AcDbEntity
  8
0
  6
Continuous
 62
     2
100
AcDbBlockBegin
  2
SYMBOL_0_BL0
 70
     0
 10
79.11309575309999
 20
773.3143683216999
 30
0.0
  3
SYMBOL_0_BL0
  1

  0
LINE
  5
3ED
330
23A
100
AcDbEntity
  8
0
  6
Continuous
 62
     2
100
AcDbLine
 10
74.9928034867
 20
768.5565927216999
 30
0.0
 11
74.99295770899999
 21
778.0721439217
 31
0.0
  0
LINE
  5
3EE
330
23A
100
AcDbEntity
  8
0
  6
Continuous
 62
     2
100
AcDbLine
 10
83.22825361619999
 20
773.3171539125
 30
0.0
 11
79.11052855140001
 21
775.6945770157
 31
0.0
  0
LINE
  5
3EF
330
23A
100
AcDbEntity
  8
0
  6
Continuous
 62
     2
100
AcDbLine
 10
83.23338801949999
 20
773.3142964205
 30
0.0
 11
74.9928034866
 21
768.5565927221
 31
0.0
  0
LINE
  5
3F0
330
23A
100
AcDbEntity
  8
0
  6
Continuous
 62
     2
100
AcDbLine
 10
74.9928034867
 20
768.5565927216999
 30
0.0
 11
79.11052855140001
 21
775.6945770157
 31
0.0
  0
LINE
  5
3F1
330
23A
100
AcDbEntity
  8
0
  6
Continuous
 62
     2
100
AcDbLine
 10
79.11052855140001
 20
775.6945770157
 30
0.0
 11
74.9928034866
 21
778.0720001188999
 31
0.0
  0
SOLID
  5
3F2
330
23A
100
AcDbEntity
  8
0
  6
Continuous
 62
     2
100
AcDbTrace
 10
83.23338801949999
 20
773.3142964205
 30
0.0
 11
74.9928034866
 21
768.5565927221
 31
0.0
 12
79.11052855140001
 22
775.6945770157
 32
0.0
 13
79.11052855140001
 23
775.6945770157
 33
0.0
  0
ENDBLK
  5
3F3
330
23A
100
AcDbEntity
  8
0
  6
ByBlock
 62
     0
100
AcDbBlockEnd
  0
BLOCK
  5
3B28
330
3B1E
100
AcDbEntity
  8
0
100
AcDbBlockBegin
  2
*D19
 70
     1
 10
0.0
 20
0.0
 30
0.0
  3
*D19
  1

  0
LINE
  5
3C38
330
3B1E
100
AcDbEntity
  8
0
  6
Continuous
 62
     0
440
 16777216
370
    -2
100
AcDbLine
 10
1939.879135658509
 20
634.2810580273757
 30
0.0
 11
1939.879135658509
 21
655.9607178965757
 31
0.0
  0
LINE
  5
3C39
330
3B1E
100
AcDbEntity
  8
0
  6
Continuous
 62
     0
440
 16777216
370
    -2
100
AcDbLine
 10
2135.87913565851
 20
644.4810889469758
 30
0.0
 11
2135.87913565851
 21
655.9607178965757
 31
0.0
  0
LINE
  5
3C3A
330
3B1E
100
AcDbEntity
  8
0
  6
Continuous
 62
     0
440
 16777216
370
    -2
100
AcDbLine
 10
1949.87913565851
 20
654.4607178965756
 30
0.0
 11
2125.87913565851
 21
654.4607178965756
 31
0.0
  0
INSERT
  5
3C3B
330
3B1E
100
AcDbEntity
  8
0
  6
Continuous
 62
     0
440
 16777216
370
    -2
100
AcDbBlockReference
  2
_ARROW_FILLED
 10
1939.879135658509
 20
654.4607178965756
 30
0.0
 41
10.0
 42
10.0
 43
10.0
 50
180.0
  0
INSERT
  5
3C3C
330
3B1E
100
AcDbEntity
  8
0
  6
Continuous
 62
     0
440
 16777216
370
    -2
100
AcDbBlockReference
  2
_ARROW_FILLED
 10
2135.87913565851
 20
654.4607178965756
 30
0.0
 41
10.0
 42
10.0
 43
10.0
  0
MTEXT
  5
3C3D
330
3B1E
100
AcDbEntity
  8
0
  6
Continuous
 62
     0
440
 16777216
100
AcDbMText
 10
2037.87913565851
 20
659.13143218229
 30
0.0
 40
8.0
 41
0.0
 46
0.0
 71
     5
 72
     1
  1
\A1;49-74
 73
     1
 44
1.0
  0
POINT
  5
3C3E
330
3B1E
100
AcDbEntity
  8
Defpoints
  6
Continuous
 62
     0
440
 16777216
100
AcDbPoint
 10
1939.879135658509
 20
633.2810580273758
 30
0.0
  0
POINT
  5
3C3F
330
3B1E
100
AcDbEntity
  8
Defpoints
  6
Continuous
 62
     0
440
 16777216
100
AcDbPoint
 10
2135.87913565851
 20
643.4810889469758
 30
0.0
  0
POINT
  5
3C40
330
3B1E
100
AcDbEntity
  8
Defpoints
  6
Continuous
 62
     0
440
 16777216
100
AcDbPoint
 10
2135.87913565851
 20
654.4607178965756
 30
0.0
  0
ENDBLK
  5
3B29
330
3B1E
100
AcDbEntity
  8
0
100
AcDbBlockEnd
  0
BLOCK
  5
3B34
330
3B2A
100
AcDbEntity
  8
0
100
AcDbBlockBegin
  2
*D20
 70
     1
 10
0.0
 20
0.0
 30
0.0
  3
*D20
  1

  0
LINE
  5
3C14
330
3B2A
100
AcDbEntity
  8
0
  6
Continuous
 62
     0
440
 16777216
370
    -2
100
AcDbLine
 10
1712.57533084811
 20
643.4810889469758
 30
0.0
 11
1533.82883168731
 21
643.4810889469758
 31
0.0
  0
LINE
  5
3C15
330
3B2A
100
AcDbEntity
  8
0
  6
Continuous
 62
     0
440
 16777216
370
    -2
100
AcDbLine
 10
1708.57533084811
 20
185.4810889469758
 30
0.0
 11
1533.82883168731
 21
185.4810889469759
 31
0.0
  0
LINE
  5
3C16
330
3B2A
100
AcDbEntity
  8
0
  6
Continuous
 62
     0
440
 16777216
370
    -2
100
AcDbLine
 10
1535.328831687311
 20
633.4810889469759
 30
0.0
 11
1535.32883168731
 21
195.4810889469759
 31
0.0
  0
INSERT
  5
3C17
330
3B2A
100
AcDbEntity
  8
0
  6
Continuous
 62
     0
440
 16777216
370
    -2
100
AcDbBlockReference
  2
_ARROW_FILLED
 10
1535.328831687311
 20
643.4810889469758
 30
0.0
 41
10.0
 42
10.0
 43
10.0
 50
90.0
  0
INSERT
  5
3C18
330
3B2A
100
AcDbEntity
  8
0
  6
Continuous
 62
     0
440
 16777216
370
    -2
100
AcDbBlockReference
  2
_ARROW_FILLED
 10
1535.32883168731
 20
185.4810889469759
 30
0.0
 41
10.0
 42
10.0
 43
10.0
 50
270.0
  0
MTEXT
  5
3C19
330
3B2A
100
AcDbEntity
  8
0
  6
Continuous
 62
     0
440
 16777216
100
AcDbMText
 10
1530.658117401596
 20
414.4810889469758
 30
0.0
 40
8.0
 41
0.0
 46
0.0
 71
     5
 72
     1
  1
\A1;115
 11
0.0000000000000001
 21
1.0
 31
0.0
 73
     1
 44
1.0
  0
POINT
  5
3C1A
330
3B2A
100
AcDbEntity
  8
Defpoints
  6
Continuous
 62
     0
440
 16777216
100
AcDbPoint
 10
1713.57533084811
 20
643.4810889469758
 30
0.0
  0
POINT
  5
3C1B
330
3B2A
100
AcDbEntity
  8
Defpoints
  6
Continuous
 62
     0
440
 16777216
100
AcDbPoint
 10
1709.57533084811
 20
185.4810889469758
 30
0.0
  0
POINT
  5
3C1C
330
3B2A
100
AcDbEntity
  8
Defpoints
  6
Continuous
 62
     0
440
 16777216
100
AcDbPoint
 10
1535.32883168731
 20
185.4810889469759
 30
0.0
  0
ENDBLK
  5
3B35
330
3B2A
100
AcDbEntity
  8
0
100
AcDbBlockEnd
  0
BLOCK
  5
3B40
330
3B36
100
AcDbEntity
  8
0
100
AcDbBlockBegin
  2
*D21
 70
     1
 10
0.0
 20
0.0
 30
0.0
  3
*D21
  1

  0
LINE
  5
3C1D
330
3B36
100
AcDbEntity
  8
0
  6
Continuous
 62
     0
440
 16777216
370
    -2
100
AcDbLine
 10
1843.57533084811
 20
514.4810889469758
 30
0.0
 11
1843.57533084811
 21
667.708535830176
 31
0.0
  0
LINE
  5
3C1E
330
3B36
100
AcDbEntity
  8
0
  6
Continuous
 62
     0
440
 16777216
370
    -2
100
AcDbLine
 10
1583.57533084811
 20
514.4810889469758
 30
0.0
 11
1583.57533084811
 21
667.708535830176
 31
0.0
  0
LINE
  5
3C1F
330
3B36
100
AcDbEntity
  8
0
  6
Continuous
 62
     0
440
 16777216
370
    -2
100
AcDbLine
 10
1833.57533084811
 20
666.208535830176
 30
0.0
 11
1593.57533084811
 21
666.208535830176
 31
0.0
  0
INSERT
  5
3C20
330
3B36
100
AcDbEntity
  8
0
  6
Continuous
 62
     0
440
 16777216
370
    -2
100
AcDbBlockReference
  2
_ARROW_FILLED
 10
1843.57533084811
 20
666.208535830176
 30
0.0
 41
10.0
 42
10.0
 43
10.0
  0
INSERT
  5
3C21
330
3B36
100
AcDbEntity
  8
0
  6
Continuous
 62
     0
440
 16777216
370
    -2
100
AcDbBlockReference
  2
_ARROW_FILLED
 10
1583.57533084811
 20
666.208535830176
 30
0.0
 41
10.0
 42
10.0
 43
10.0
 50
180.0
  0
MTEXT
  5
3C22
330
3B36
100
AcDbEntity
  8
0
  6
Continuous
 62
     0
440
 16777216
100
AcDbMText
 10
1713.57533084811
 20
670.8792501158903
 30
0.0
 40
8.0
 41
0.0
 46
0.0
 71
     5
 72
     1
  1
\A1;Φ65
 73
     1
 44
1.0
  0
POINT
  5
3C23
330
3B36
100
AcDbEntity
  8
Defpoints
  6
Continuous
 62
     0
440
 16777216
100
AcDbPoint
 10
1843.57533084811
 20
513.4810889469759
 30
0.0
  0
POINT
  5
3C24
330
3B36
100
AcDbEntity
  8
Defpoints
  6
Continuous
 62
     0
440
 16777216
100
AcDbPoint
 10
1583.57533084811
 20
513.4810889469759
 30
0.0
  0
POINT
  5
3C25
330
3B36
100
AcDbEntity
  8
Defpoints
  6
Continuous
 62
     0
440
 16777216
100
AcDbPoint
 10
1583.57533084811
 20
666.208535830176
 30
0.0
  0
ENDBLK
  5
3B41
330
3B36
100
AcDbEntity
  8
0
100
AcDbBlockEnd
  0
BLOCK
  5
3B4C
330
3B42
100
AcDbEntity
  8
0
100
AcDbBlockBegin
  2
*D22
 70
     1
 10
0.0
 20
0.0
 30
0.0
  3
*D22
  1

  0
LINE
  5
3C41
330
3B42
100
AcDbEntity
  8
0
  6
Continuous
 62
     0
440
 16777216
370
    -2
100
AcDbLine
 10
1939.879135658509
 20
634.2810580273757
 30
0.0
 11
1939.879135658509
 21
682.8004483653763
 31
0.0
  0
LINE
  5
3C42
330
3B42
100
AcDbEntity
  8
0
  6
Continuous
 62
     0
440
 16777216
370
    -2
100
AcDbLine
 10
2360.27913565851
 20
592.4810889469759
 30
0.0
 11
2360.27913565851
 21
682.8004483653763
 31
0.0
  0
LINE
  5
3C43
330
3B42
100
AcDbEntity
  8
0
  6
Continuous
 62
     0
440
 16777216
370
    -2
100
AcDbLine
 10
1949.87913565851
 20
681.3004483653762
 30
0.0
 11
2350.27913565851
 21
681.3004483653762
 31
0.0
  0
INSERT
  5
3C44
330
3B42
100
AcDbEntity
  8
0
  6
Continuous
 62
     0
440
 16777216
370
    -2
100
AcDbBlockReference
  2
_ARROW_FILLED
 10
1939.879135658509
 20
681.3004483653762
 30
0.0
 41
10.0
 42
10.0
 43
10.0
 50
180.0
  0
INSERT
  5
3C45
330
3B42
100
AcDbEntity
  8
0
  6
Continuous
 62
     0
440
 16777216
370
    -2
100
AcDbBlockReference
  2
_ARROW_FILLED
 10
2360.27913565851
 20
681.3004483653762
 30
0.0
 41
10.0
 42
10.0
 43
10.0
  0
MTEXT
  5
3C46
330
3B42
100
AcDbEntity
  8
0
  6
Continuous
 62
     0
440
 16777216
100
AcDbMText
 10
2150.07913565851
 20
685.9711626510906
 30
0.0
 40
8.0
 41
0.0
 46
0.0
 71
     5
 72
     1
  1
\A1;105
 73
     1
 44
1.0
  0
POINT
  5
3C47
330
3B42
100
AcDbEntity
  8
Defpoints
  6
Continuous
 62
     0
440
 16777216
100
AcDbPoint
 10
1939.879135658509
 20
633.2810580273758
 30
0.0
  0
POINT
  5
3C48
330
3B42
100
AcDbEntity
  8
Defpoints
  6
Continuous
 62
     0
440
 16777216
100
AcDbPoint
 10
2360.27913565851
 20
591.4810889469759
 30
0.0
  0
POINT
  5
3C49
330
3B42
100
AcDbEntity
  8
Defpoints
  6
Continuous
 62
     0
440
 16777216
100
AcDbPoint
 10
2360.27913565851
 20
681.3004483653762
 30
0.0
  0
ENDBLK
  5
3B4D
330
3B42
100
AcDbEntity
  8
0
100
AcDbBlockEnd
  0
BLOCK
  5
42B3
330
42A8
100
AcDbEntity
  8
0
100
AcDbBlockBegin
  2
*D23
 70
     1
 10
0.0
 20
0.0
 30
0.0
  3
*D23
  1

  0
LINE
  5
4727
330
42A8
100
AcDbEntity
  8
CAXA4
  6
Continuous
 62
     0
440
 16777216
370
    -2
100
AcDbLine
 10
3358.714980490335
 20
656.2135362818317
 30
0.0
 11
3358.714980490335
 21
680.0472633131576
 31
0.0
  0
LINE
  5
4728
330
42A8
100
AcDbEntity
  8
CAXA4
  6
Continuous
 62
     0
440
 16777216
370
    -2
100
AcDbLine
 10
3363.714980490335
 20
656.2135362818317
 30
0.0
 11
3363.714980490335
 21
680.0472633131576
 31
0.0
  0
LINE
  5
4729
330
42A8
100
AcDbEntity
  8
CAXA4
  6
Continuous
 62
     0
440
 16777216
370
    -2
100
AcDbLine
 10
3350.714980490335
 20
678.5472633131576
 30
0.0
 11
3342.714980490335
 21
678.5472633131576
 31
0.0
  0
LINE
  5
472A
330
42A8
100
AcDbEntity
  8
CAXA4
  6
Continuous
 62
     0
440
 16777216
370
    -2
100
AcDbLine
 10
3371.714980490335
 20
678.5472633131576
 30
0.0
 11
3386.507837633192
 21
678.5472633131576
 31
0.0
  0
INSERT
  5
472B
330
42A8
100
AcDbEntity
  8
CAXA4
  6
Continuous
 62
     0
440
 16777216
370
    -2
100
AcDbBlockReference
  2
_ARROW_FILLED
 10
3358.714980490335
 20
678.5472633131576
 30
0.0
 41
8.0
 42
8.0
 43
8.0
  0
INSERT
  5
472C
330
42A8
100
AcDbEntity
  8
CAXA4
  6
Continuous
 62
     0
440
 16777216
370
    -2
100
AcDbBlockReference
  2
_ARROW_FILLED
 10
3363.714980490335
 20
678.5472633131576
 30
0.0
 41
8.0
 42
8.0
 43
8.0
 50
180.0
  0
MTEXT
  5
472D
330
42A8
100
AcDbEntity
  8
CAXA4
  6
Continuous
 62
     0
440
 16777216
370
     0
100
AcDbMText
 10
3383.111409061763
 20
684.2294061703004
 30
0.0
 40
10.0
 41
0.0
 46
0.0
 71
     5
 72
     1
  1
\A1;5
 73
     1
 44
1.0
  0
POINT
  5
472E
330
42A8
100
AcDbEntity
  8
Defpoints
  6
Continuous
 62
     0
440
 16777216
100
AcDbPoint
 10
3358.714980490335
 20
655.2135362818317
 30
0.0
  0
POINT
  5
472F
330
42A8
100
AcDbEntity
  8
Defpoints
  6
Continuous
 62
     0
440
 16777216
100
AcDbPoint
 10
3363.714980490335
 20
655.2135362818317
 30
0.0
  0
POINT
  5
4730
330
42A8
100
AcDbEntity
  8
Defpoints
  6
Continuous
 62
     0
440
 16777216
100
AcDbPoint
 10
3363.714980490335
 20
678.5472633131576
 30
0.0
  0
ENDBLK
  5
42B4
330
42A8
100
AcDbEntity
  8
0
100
AcDbBlockEnd
  0
BLOCK
  5
42C0
330
42B5
100
AcDbEntity
  8
0
100
AcDbBlockBegin
  2
*D24
 70
     1
 10
0.0
 20
0.0
 30
0.0
  3
*D24
  1

  0
LINE
  5
4731
330
42B5
100
AcDbEntity
  8
CAXA4
  6
Continuous
 62
     0
440
 16777216
370
    -2
100
AcDbLine
 10
3710.300509348979
 20
675.3263098176203
 30
0.0
 11
3710.300509348979
 21
705.7888261432013
 31
0.0
  0
LINE
  5
4732
330
42B5
100
AcDbEntity
  8
CAXA4
  6
Continuous
 62
     0
440
 16777216
370
    -2
100
AcDbLine
 10
3720.300509348979
 20
675.3263098176203
 30
0.0
 11
3720.300509348979
 21
705.7888261432013
 31
0.0
  0
LINE
  5
4733
330
42B5
100
AcDbEntity
  8
CAXA4
  6
Continuous
 62
     0
440
 16777216
370
    -2
100
AcDbLine
 10
3702.300509348979
 20
704.2888261432012
 30
0.0
 11
3694.300509348979
 21
704.2888261432012
 31
0.0
  0
LINE
  5
4734
330
42B5
100
AcDbEntity
  8
CAXA4
  6
Continuous
 62
     0
440
 16777216
370
    -2
100
AcDbLine
 10
3728.300509348979
 20
704.2888261432012
 30
0.0
 11
3736.300509348979
 21
704.2888261432012
 31
0.0
  0
INSERT
  5
4735
330
42B5
100
AcDbEntity
  8
CAXA4
  6
Continuous
 62
     0
440
 16777216
370
    -2
100
AcDbBlockReference
  2
_ARROW_FILLED
 10
3710.300509348979
 20
704.2888261432012
 30
0.0
 41
8.0
 42
8.0
 43
8.0
  0
INSERT
  5
4736
330
42B5
100
AcDbEntity
  8
CAXA4
  6
Continuous
 62
     0
440
 16777216
370
    -2
100
AcDbBlockReference
  2
_ARROW_FILLED
 10
3720.300509348979
 20
704.2888261432012
 30
0.0
 41
8.0
 42
8.0
 43
8.0
 50
180.0
  0
MTEXT
  5
4737
330
42B5
100
AcDbEntity
  8
CAXA4
  6
Continuous
 62
     0
440
 16777216
370
     0
100
AcDbMText
 10
3715.300509348979
 20
709.970969000344
 30
0.0
 40
10.0
 41
0.0
 46
0.0
 71
     5
 72
     1
  1
\A1;5
 73
     1
 44
1.0
  0
POINT
  5
4738
330
42B5
100
AcDbEntity
  8
Defpoints
  6
Continuous
 62
     0
440
 16777216
100
AcDbPoint
 10
3710.300509348979
 20
674.3263098176202
 30
0.0
  0
POINT
  5
4739
330
42B5
100
AcDbEntity
  8
Defpoints
  6
Continuous
 62
     0
440
 16777216
100
AcDbPoint
 10
3720.300509348979
 20
674.3263098176202
 30
0.0
  0
POINT
  5
473A
330
42B5
100
AcDbEntity
  8
Defpoints
  6
Continuous
 62
     0
440
 16777216
100
AcDbPoint
 10
3720.300509348979
 20
704.2888261432012
 30
0.0
  0
ENDBLK
  5
42C1
330
42B5
100
AcDbEntity
  8
0
100
AcDbBlockEnd
  0
BLOCK
  5
42CC
330
42C2
100
AcDbEntity
  8
0
100
AcDbBlockBegin
  2
*D25
 70
     1
 10
0.0
 20
0.0
 30
0.0
  3
*D25
  1

  0
LINE
  5
473B
330
42C2
100
AcDbEntity
  8
CAXA4
  6
Continuous
 62
     0
440
 16777216
370
    -2
100
AcDbLine
 10
3683.722821344436
 20
623.0429664230305
 30
0.0
 11
3739.482778437473
 21
623.0429664230305
 31
0.0
  0
LINE
  5
473C
330
42C2
100
AcDbEntity
  8
CAXA4
  6
Continuous
 62
     0
440
 16777216
370
    -2
100
AcDbLine
 10
3683.722821344436
 20
571.0080367257246
 30
0.0
 11
3739.482778437473
 21
571.0080367257246
 31
0.0
  0
LINE
  5
473D
330
42C2
100
AcDbEntity
  8
CAXA4
  6
Continuous
 62
     0
440
 16777216
370
    -2
100
AcDbLine
 10
3737.982778437473
 20
615.0429664230305
 30
0.0
 11
3737.982778437473
 21
579.0080367257246
 31
0.0
  0
INSERT
  5
473E
330
42C2
100
AcDbEntity
  8
CAXA4
  6
Continuous
 62
     0
440
 16777216
370
    -2
100
AcDbBlockReference
  2
_ARROW_FILLED
 10
3737.982778437473
 20
623.0429664230305
 30
0.0
 41
8.0
 42
8.0
 43
8.0
 50
90.0
  0
INSERT
  5
473F
330
42C2
100
AcDbEntity
  8
CAXA4
  6
Continuous
 62
     0
440
 16777216
370
    -2
100
AcDbBlockReference
  2
_ARROW_FILLED
 10
3737.982778437473
 20
571.0080367257246
 30
0.0
 41
8.0
 42
8.0
 43
8.0
 50
270.0
  0
MTEXT
  5
4740
330
42C2
100
AcDbEntity
  8
CAXA4
  6
Continuous
 62
     0
440
 16777216
370
     0
100
AcDbMText
 10
3732.30063558033
 20
596.8496297471042
 30
0.0
 40
10.0
 41
0.0
 46
0.0
 71
     5
 72
     1
  1
\A1;13
 11
0.0000000000000001
 21
1.0
 31
0.0
 73
     1
 44
1.0
  0
POINT
  5
4741
330
42C2
100
AcDbEntity
  8
Defpoints
  6
Continuous
 62
     0
440
 16777216
100
AcDbPoint
 10
3682.722821344436
 20
623.0429664230305
 30
0.0
  0
POINT
  5
4742
330
42C2
100
AcDbEntity
  8
Defpoints
  6
Continuous
 62
     0
440
 16777216
100
AcDbPoint
 10
3682.722821344436
 20
571.0080367257246
 30
0.0
  0
POINT
  5
4743
330
42C2
100
AcDbEntity
  8
Defpoints
  6
Continuous
 62
     0
440
 16777216
100
AcDbPoint
 10
3737.982778437473
 20
571.0080367257246
 30
0.0
  0
ENDBLK
  5
42CD
330
42C2
100
AcDbEntity
  8
0
100
AcDbBlockEnd
  0
BLOCK
  5
42D9
330
42CE
100
AcDbEntity
  8
0
100
AcDbBlockBegin
  2
*D26
 70
     1
 10
0.0
 20
0.0
 30
0.0
  3
*D26
  1

  0
LINE
  5
4744
330
42CE
100
AcDbEntity
  8
CAXA4
  6
Continuous
 62
     0
440
 16777216
370
    -2
100
AcDbLine
 10
3710.300509348979
 20
576.1462857021733
 30
0.0
 11
3710.300509348979
 21
636.1840733068202
 31
0.0
  0
LINE
  5
4745
330
42CE
100
AcDbEntity
  8
CAXA4
  6
Continuous
 62
     0
440
 16777216
370
    -2
100
AcDbLine
 10
3664.042301523148
 20
599.5984546133586
 30
0.0
 11
3664.042301523148
 21
636.1840733068202
 31
0.0
  0
LINE
  5
4746
330
42CE
100
AcDbEntity
  8
CAXA4
  6
Continuous
 62
     0
440
 16777216
370
    -2
100
AcDbLine
 10
3702.300509348979
 20
634.6840733068201
 30
0.0
 11
3672.042301523149
 21
634.6840733068201
 31
0.0
  0
INSERT
  5
4747
330
42CE
100
AcDbEntity
  8
CAXA4
  6
Continuous
 62
     0
440
 16777216
370
    -2
100
AcDbBlockReference
  2
_ARROW_FILLED
 10
3710.300509348979
 20
634.6840733068201
 30
0.0
 41
8.0
 42
8.0
 43
8.0
  0
INSERT
  5
4748
330
42CE
100
AcDbEntity
  8
CAXA4
  6
Continuous
 62
     0
440
 16777216
370
    -2
100
AcDbBlockReference
  2
_ARROW_FILLED
 10
3664.042301523148
 20
634.6840733068201
 30
0.0
 41
8.0
 42
8.0
 43
8.0
 50
180.0
  0
MTEXT
  5
4749
330
42CE
100
AcDbEntity
  8
CAXA4
  6
Continuous
 62
     0
440
 16777216
370
     0
100
AcDbMText
 10
3687.171405436064
 20
640.3947875925345
 30
0.0
 40
10.0
 41
0.0
 46
0.0
 71
     5
 72
     1
  1
\A1;11.5
 73
     1
 44
1.0
  0
POINT
  5
474A
330
42CE
100
AcDbEntity
  8
Defpoints
  6
Continuous
 62
     0
440
 16777216
100
AcDbPoint
 10
3710.300509348979
 20
575.1462857021733
 30
0.0
  0
POINT
  5
474B
330
42CE
100
AcDbEntity
  8
Defpoints
  6
Continuous
 62
     0
440
 16777216
100
AcDbPoint
 10
3664.042301523148
 20
598.5984546133586
 30
0.0
  0
POINT
  5
474C
330
42CE
100
AcDbEntity
  8
Defpoints
  6
Continuous
 62
     0
440
 16777216
100
AcDbPoint
 10
3664.042301523148
 20
634.6840733068201
 30
0.0
  0
ENDBLK
  5
42DA
330
42CE
100
AcDbEntity
  8
0
100
AcDbBlockEnd
  0
BLOCK
  5
42E5
330
42DB
100
AcDbEntity
  8
0
100
AcDbBlockBegin
  2
*D27
 70
     1
 10
0.0
 20
0.0
 30
0.0
  3
*D27
  1

  0
LINE
  5
474D
330
42DB
100
AcDbEntity
  8
CAXA4
  6
Continuous
 62
     0
440
 16777216
370
    -2
100
AcDbLine
 10
2893.341197761957
 20
652.1273542662015
 30
0.0
 11
2893.341197761957
 21
672.6326921104121
 31
0.0
  0
LINE
  5
474E
330
42DB
100
AcDbEntity
  8
CAXA4
  6
Continuous
 62
     0
440
 16777216
370
    -2
100
AcDbLine
 10
3021.341197761957
 20
658.1694095234395
 30
0.0
 11
3021.341197761957
 21
672.6326921104121
 31
0.0
  0
LINE
  5
474F
330
42DB
100
AcDbEntity
  8
CAXA4
  6
Continuous
 62
     0
440
 16777216
370
    -2
100
AcDbLine
 10
2901.341197761957
 20
671.1326921104121
 30
0.0
 11
3013.341197761957
 21
671.1326921104121
 31
0.0
  0
INSERT
  5
4750
330
42DB
100
AcDbEntity
  8
CAXA4
  6
Continuous
 62
     0
440
 16777216
370
    -2
100
AcDbBlockReference
  2
_ARROW_FILLED
 10
2893.341197761957
 20
671.1326921104121
 30
0.0
 41
8.0
 42
8.0
 43
8.0
 50
180.0
  0
INSERT
  5
4751
330
42DB
100
AcDbEntity
  8
CAXA4
  6
Continuous
 62
     0
440
 16777216
370
    -2
100
AcDbBlockReference
  2
_ARROW_FILLED
 10
3021.341197761957
 20
671.1326921104121
 30
0.0
 41
8.0
 42
8.0
 43
8.0
  0
MTEXT
  5
4752
330
42DB
100
AcDbEntity
  8
CAXA4
  6
Continuous
 62
     0
440
 16777216
370
     0
100
AcDbMText
 10
2957.341197761957
 20
676.8148349675549
 30
0.0
 40
10.0
 41
0.0
 46
0.0
 71
     5
 72
     1
  1
\A1;32
 73
     1
 44
1.0
  0
POINT
  5
4753
330
42DB
100
AcDbEntity
  8
Defpoints
  6
Continuous
 62
     0
440
 16777216
100
AcDbPoint
 10
2893.341197761957
 20
651.1273542662015
 30
0.0
  0
POINT
  5
4754
330
42DB
100
AcDbEntity
  8
Defpoints
  6
Continuous
 62
     0
440
 16777216
100
AcDbPoint
 10
3021.341197761957
 20
657.1694095234395
 30
0.0
  0
POINT
  5
4755
330
42DB
100
AcDbEntity
  8
Defpoints
  6
Continuous
 62
     0
440
 16777216
100
AcDbPoint
 10
3021.341197761957
 20
671.1326921104121
 30
0.0
  0
ENDBLK
  5
42E6
330
42DB
100
AcDbEntity
  8
0
100
AcDbBlockEnd
  0
BLOCK
  5
42F2
330
42E7
100
AcDbEntity
  8
0
100
AcDbBlockBegin
  2
*D28
 70
     1
 10
0.0
 20
0.0
 30
0.0
  3
*D28
  1

  0
LINE
  5
4756
330
42E7
100
AcDbEntity
  8
CAXA4
  6
Continuous
 62
     0
440
 16777216
370
    -2
100
AcDbLine
 10
3022.765601559712
 20
627.727159884999
 30
0.0
 11
3078.64707736397
 21
627.727159884999
 31
0.0
  0
LINE
  5
4757
330
42E7
100
AcDbEntity
  8
CAXA4
  6
Continuous
 62
     0
440
 16777216
370
    -2
100
AcDbLine
 10
3022.314744310575
 20
611.2069525874578
 30
0.0
 11
3078.64707736397
 21
611.2069525874578
 31
0.0
  0
LINE
  5
4758
330
42E7
100
AcDbEntity
  8
CAXA4
  6
Continuous
 62
     0
440
 16777216
370
    -2
100
AcDbLine
 10
3077.14707736397
 20
635.727159884999
 30
0.0
 11
3077.14707736397
 21
643.727159884999
 31
0.0
  0
LINE
  5
4759
330
42E7
100
AcDbEntity
  8
CAXA4
  6
Continuous
 62
     0
440
 16777216
370
    -2
100
AcDbLine
 10
3077.14707736397
 20
603.2069525874578
 30
0.0
 11
3077.14707736397
 21
595.2069525874578
 31
0.0
  0
INSERT
  5
475A
330
42E7
100
AcDbEntity
  8
CAXA4
  6
Continuous
 62
     0
440
 16777216
370
    -2
100
AcDbBlockReference
  2
_ARROW_FILLED
 10
3077.14707736397
 20
627.727159884999
 30
0.0
 41
8.0
 42
8.0
 43
8.0
 50
270.0
  0
INSERT
  5
475B
330
42E7
100
AcDbEntity
  8
CAXA4
  6
Continuous
 62
     0
440
 16777216
370
    -2
100
AcDbBlockReference
  2
_ARROW_FILLED
 10
3077.14707736397
 20
611.2069525874578
 30
0.0
 41
8.0
 42
8.0
 43
8.0
 50
90.0
  0
MTEXT
  5
475C
330
42E7
100
AcDbEntity
  8
CAXA4
  6
Continuous
 62
     0
440
 16777216
370
     0
100
AcDbMText
 10
3071.52207736397
 20
619.4670562362289
 30
0.0
 40
10.0
 41
0.0
 46
0.0
 71
     5
 72
     1
  1
\A1;4
 11
0.0000000000000001
 21
1.0
 31
0.0
 73
     1
 44
1.0
  0
POINT
  5
475D
330
42E7
100
AcDbEntity
  8
Defpoints
  6
Continuous
 62
     0
440
 16777216
100
AcDbPoint
 10
3021.765601559712
 20
627.727159884999
 30
0.0
  0
POINT
  5
475E
330
42E7
100
AcDbEntity
  8
Defpoints
  6
Continuous
 62
     0
440
 16777216
100
AcDbPoint
 10
3021.314744310575
 20
611.2069525874578
 30
0.0
  0
POINT
  5
475F
330
42E7
100
AcDbEntity
  8
Defpoints
  6
Continuous
 62
     0
440
 16777216
100
AcDbPoint
 10
3077.14707736397
 20
611.2069525874578
 30
0.0
  0
ENDBLK
  5
42F3
330
42E7
100
AcDbEntity
  8
0
100
AcDbBlockEnd
  0
ENDSEC
  0
SECTION
  2
ENTITIES
  0
DIMENSION
  5
399E
330
1F
100
AcDbEntity
  8
0
  6
Continuous
 62
     2
100
AcDbDimension
280
     0
  2
*D20
 10
1535.32883168731
 20
185.4810889469759
 30
0.0
 11
1535.32883168731
 21
414.4810889469758
 31
0.0
 70
   160
  1
115
 71
     5
 42
458.0
 73
     0
 74
     0
 75
     0
  3
DIMSTYLE_1
100
AcDbAlignedDimension
 13
1713.57533084811
 23
643.4810889469758
 33
0.0
 14
1709.57533084811
 24
185.4810889469758
 34
0.0
 50
270.0
100
AcDbRotatedDimension
1001
ACAD
1000
DSTYLE
1002
{
1070
    41
1040
10.0
1070
   140
1040
8.0
1002
}
  0
DIMENSION
  5
399F
330
1F
100
AcDbEntity
  8
0
  6
Continuous
 62
     2
100
AcDbDimension
280
     0
  2
*D21
 10
1583.57533084811
 20
666.208535830176
 30
0.0
 11
1713.57533084811
 21
666.208535830176
 31
0.0
 70
   160
  1
Φ65
 71
     5
 42
260.0
 73
     0
 74
     0
 75
     0
  3
DIMSTYLE_1
100
AcDbAlignedDimension
 13
1843.57533084811
 23
513.4810889469759
 33
0.0
 14
1583.57533084811
 24
513.4810889469759
 34
0.0
 50
180.0
100
AcDbRotatedDimension
1001
ACAD
1000
DSTYLE
1002
{
1070
    41
1040
10.0
1070
   140
1040
8.0
1002
}
1001
AcadStringInfo
1000
MIFCodePage
1070
     5
  0
DIMENSION
  5
39A0
330
1F
100
AcDbEntity
  8
0
  6
Continuous
 62
     2
100
AcDbDimension
280
     0
  2
*D22
 10
2360.27913565851
 20
681.3004483653762
 30
0.0
 11
2150.07913565851
 21
681.3004483653762
 31
0.0
 70
   160
  1
105
 71
     5
 42
420.4000000000005
 73
     0
 74
     0
 75
     0
  3
DIMSTYLE_1
100
AcDbAlignedDimension
 13
1939.879135658509
 23
633.2810580273758
 33
0.0
 14
2360.27913565851
 24
591.4810889469759
 34
0.0
100
AcDbRotatedDimension
1001
ACAD
1000
DSTYLE
1002
{
1070
    41
1040
10.0
1070
   140
1040
8.0
1002
}
  0
DIMENSION
  5
39A1
330
1F
100
AcDbEntity
  8
0
  6
Continuous
 62
     2
100
AcDbDimension
280
     0
  2
*D19
 10
2135.87913565851
 20
654.4607178965756
 30
0.0
 11
2037.87913565851
 21
654.4607178965756
 31
0.0
 70
   160
  1
49-74
 71
     5
 42
196.0
 73
     0
 74
     0
 75
     0
  3
DIMSTYLE_1
100
AcDbAlignedDimension
 13
1939.879135658509
 23
633.2810580273758
 33
0.0
 14
2135.87913565851
 24
643.4810889469758
 34
0.0
100
AcDbRotatedDimension
1001
ACAD
1000
DSTYLE
1002
{
1070
    41
1040
10.0
1070
   140
1040
8.0
1002
}
  0
LINE
  5
3A29
330
1F
100
AcDbEntity
  8
0
  6
Continuous
 62
     7
100
AcDbLine
 10
1943.87916431291
 20
637.2810889469761
 30
0.0
 11
1939.879135658509
 21
633.2810580273758
 31
0.0
  0
LINE
  5
3A2A
330
1F
100
AcDbEntity
  8
02___PRT_ALL_AXES
  6
Continuous
 62
     7
100
AcDbLine
 10
1939.879135658509
 20
633.2810580273758
 30
0.0
 11
1939.879135658509
 21
591.281088946976
 31
0.0
  0
LINE
  5
3A2B
330
1F
100
AcDbEntity
  8
02___PRT_ALL_AXES
  6
Continuous
 62
     7
100
AcDbLine
 10
1939.879135658509
 20
591.281088946976
 30
0.0
 11
1939.879135658509
 21
513.4814117369756
 31
0.0
  0
LINE
  5
3A2C
330
1F
100
AcDbEntity
  8
02___PRT_ALL_AXES
  6
Continuous
 62
     7
100
AcDbLine
 10
1979.87913565851
 20
508.4330119001756
 30
0.0
 11
1979.87913565851
 21
478.5291659937761
 31
0.0
  0
LINE
  5
3A2D
330
1F
100
AcDbEntity
  8
0
  6
Continuous
 62
     7
100
AcDbLine
 10
1981.87913565851
 20
460.3548242561759
 30
0.0
 11
1981.87913565851
 21
458.3013825325756
 31
0.0
  0
LINE
  5
3A2E
330
1F
100
AcDbEntity
  8
0
  6
Continuous
 62
     7
100
AcDbLine
 10
1980.08181591451
 20
616.4997765969761
 30
0.0
 11
1977.67330290611
 21
570.5426106717754
 31
0.0
  0
LINE
  5
3A2F
330
1F
100
AcDbEntity
  8
0
  6
Continuous
 62
     9
100
AcDbLine
 10
1988.07085219251
 20
616.0810889469762
 30
0.0
 11
1985.94453819651
 21
575.4965467753759
 31
0.0
  0
LINE
  5
3A30
330
1F
100
AcDbEntity
  8
0
  6
Continuous
 62
     9
100
AcDbLine
 10
2001.92360339211
 20
567.571198025776
 30
0.0
 11
2003.01436789531
 21
575.4964887333758
 31
0.0
  0
LINE
  5
3A31
330
1F
100
AcDbEntity
  8
0
  6
Continuous
 62
     7
100
AcDbLine
 10
2356.27913565851
 20
185.4810889469758
 30
0.0
 11
2304.27913565851
 21
185.4810889469758
 31
0.0
  0
LINE
  5
3A32
330
1F
100
AcDbEntity
  8
0
  6
Continuous
 62
     9
100
AcDbLine
 10
2300.27913565851
 20
189.4810889469759
 30
0.0
 11
2360.27913565851
 21
189.4810889469759
 31
0.0
  0
LINE
  5
3A33
330
1F
100
AcDbEntity
  8
0
  6
Continuous
 62
     9
100
AcDbLine
 10
2003.01373041931
 20
575.4965470225756
 30
0.0
 11
2000.887419124911
 21
616.0810889469762
 31
0.0
  0
LINE
  5
3A34
330
1F
100
AcDbEntity
  8
0
  6
Continuous
 62
     9
100
AcDbLine
 10
1988.07085219251
 20
624.0810889469762
 30
0.0
 11
1988.07085219251
 21
616.0810889469762
 31
0.0
  0
LINE
  5
3A35
330
1F
100
AcDbEntity
  8
0
  6
Continuous
 62
     9
100
AcDbLine
 10
2000.887419124911
 20
616.0810889469762
 30
0.0
 11
2000.887419124911
 21
624.0810889469762
 31
0.0
  0
LINE
  5
3A36
330
1F
100
AcDbEntity
  8
0
  6
Continuous
 62
     7
100
AcDbLine
 10
2007.079135658511
 20
460.3548242561759
 30
0.0
 11
2007.079135658511
 21
458.3013825325756
 31
0.0
  0
LINE
  5
3A37
330
1F
100
AcDbEntity
  8
0
  6
Continuous
 62
     9
100
AcDbLine
 10
1987.034667925311
 20
567.571198025776
 30
0.0
 11
1985.94390342211
 21
575.4964887333758
 31
0.0
  0
LINE
  5
3A38
330
1F
100
AcDbEntity
  8
0
  6
Continuous
 62
     7
100
AcDbLine
 10
2011.28496841131
 20
570.5426106717754
 30
0.0
 11
2008.87645540291
 21
616.4997765969761
 31
0.0
  0
LINE
  5
3A39
330
1F
100
AcDbEntity
  8
0
  6
Continuous
 62
     7
100
AcDbLine
 10
2027.87913565851
 20
460.0810889469762
 30
0.0
 11
2027.87913565851
 21
456.8810889469755
 31
0.0
  0
LINE
  5
3A3A
330
1F
100
AcDbEntity
  8
0
  6
Continuous
 62
     7
100
AcDbLine
 10
2077.17750737091
 20
597.4996408013762
 30
0.0
 11
2077.13974565851
 21
597.341706130976
 31
0.0
  0
LINE
  5
3A3B
330
1F
100
AcDbEntity
  8
0
  6
Continuous
 62
     7
100
AcDbLine
 10
2077.14354357811
 20
597.3569804613758
 30
0.0
 11
2077.10378097851
 21
597.2030630997756
 31
0.0
  0
LINE
  5
3A3C
330
1F
100
AcDbEntity
  8
0
  6
Continuous
 62
     7
100
AcDbLine
 10
2077.10636001771
 20
597.2126843653755
 30
0.0
 11
2077.064763151311
 21
597.0630864773761
 31
0.0
  0
LINE
  5
3A3D
330
1F
100
AcDbEntity
  8
0
  6
Continuous
 62
     7
100
AcDbLine
 10
2077.06581538891
 20
597.0667439409758
 30
0.0
 11
2077.02176159971
 21
596.9191578349759
 31
0.0
  0
LINE
  5
3A3E
330
1F
100
AcDbEntity
  8
0
  6
Continuous
 62
     7
100
AcDbLine
 10
2077.02257487131
 20
596.9217850293757
 30
0.0
 11
2076.97404030931
 21
596.7699219457759
 31
0.0
  0
LINE
  5
3A3F
330
1F
100
AcDbEntity
  8
0
  6
Continuous
 62
     7
100
AcDbLine
 10
2076.97708767891
 20
596.7791534537759
 30
0.0
 11
2076.92245196371
 21
596.6189454417758
 31
0.0
  0
LINE
  5
3A40
330
1F
100
AcDbEntity
  8
0
  6
Continuous
 62
     7
100
AcDbLine
 10
2076.92813171331
 20
596.6350923173763
 30
0.0
 11
2076.866762738911
 21
596.466098962976
 31
0.0
  0
LWPOLYLINE
  5
3A41
330
1F
100
AcDbEntity
  8
0
  6
Continuous
 62
     7
100
AcDbPolyline
 90
        3
 70
     0
 43
0.0
 10
2076.87551147451
 20
596.4894803865758
 10
2076.80671906411
 20
596.3112676645756
 10
2076.742047532511
 20
596.1543533541758
  0
LINE
  5
3A42
330
1F
100
AcDbEntity
  8
0
  6
Continuous
 62
     7
100
AcDbLine
 10
2076.81901504131
 20
596.342208444576
 30
0.0
 11
2076.75841388731
 21
596.1931805773761
 31
0.0
  0
LINE
  5
3A43
330
1F
100
AcDbEntity
  8
0
  6
Continuous
 62
     7
100
AcDbLine
 10
2076.75841388731
 20
596.1931805773761
 30
0.0
 11
2076.69346271491
 21
596.042315547776
 31
0.0
  0
LWPOLYLINE
  5
3A44
330
1F
100
AcDbEntity
  8
0
  6
Continuous
 62
     7
100
AcDbPolyline
 90
        3
 70
     0
 43
0.0
 10
2076.742047532511
 20
596.1543533541758
 10
2076.67245469171
 20
595.9952762721754
 10
2076.64104931971
 20
595.9264307465759
  0
LINE
  5
3A45
330
1F
100
AcDbEntity
  8
0
  6
Continuous
 62
     7
100
AcDbLine
 10
2076.64104924371
 20
595.9264307845756
 30
0.0
 11
2076.69214260211
 21
596.0393355549763
 31
0.0
  0
LINE
  5
3A46
330
1F
100
AcDbEntity
  8
02___PRT_ALL_AXES
  6
Continuous
 62
     7
100
AcDbLine
 10
2049.07913565851
 20
633.2810580273758
 30
0.0
 11
2049.07913565851
 21
599.2809233993762
 31
0.0
  0
LINE
  5
3A47
330
1F
100
AcDbEntity
  8
0
  6
Continuous
 62
     7
100
AcDbLine
 10
2053.87913565851
 20
460.0810889469762
 30
0.0
 11
2053.87913565851
 21
456.8810889469755
 31
0.0
  0
LINE
  5
3A48
330
1F
100
AcDbEntity
  8
0
  6
Continuous
 62
     7
100
AcDbLine
 10
2077.26139131771
 20
597.9179902649762
 30
0.0
 11
2077.23042412851
 21
597.7496259869763
 31
0.0
  0
LINE
  5
3A49
330
1F
100
AcDbEntity
  8
0
  6
Continuous
 62
     7
100
AcDbLine
 10
2077.23630689291
 20
597.7801214281758
 30
0.0
 11
2077.202961574911
 21
597.6149833645763
 31
0.0
  0
LINE
  5
3A4A
330
1F
100
AcDbEntity
  8
0
  6
Continuous
 62
     7
100
AcDbLine
 10
2077.20838590091
 20
597.6406806453756
 30
0.0
 11
2077.172769857311
 21
597.4790122777762
 31
0.0
  0
LINE
  5
3A4B
330
1F
100
AcDbEntity
  8
0
  6
Continuous
 62
     7
100
AcDbLine
 10
2076.52144421811
 20
452.3602849205758
 30
0.0
 11
2077.81173155411
 21
415.4112899537758
 31
0.0
  0
LINE
  5
3A4C
330
1F
100
AcDbEntity
  8
0
  6
Continuous
 62
     9
100
AcDbLine
 10
2077.81173155411
 20
611.5508879405756
 30
0.0
 11
2077.81173155411
 21
415.4112899537758
 31
0.0
  0
LINE
  5
3A4D
330
1F
100
AcDbEntity
  8
0
  6
Continuous
 62
     9
100
AcDbLine
 10
2079.81051320811
 20
613.4810889469759
 30
0.0
 11
2079.81051320811
 21
413.4810889469759
 31
0.0
  0
LINE
  5
3A4E
330
1F
100
AcDbEntity
  8
02___PRT_ALL_AXES
  6
Continuous
 62
     7
100
AcDbLine
 10
2087.87913565851
 20
413.4810889469759
 30
0.0
 11
2087.87913565851
 21
613.4810889469759
 31
0.0
  0
LWPOLYLINE
  5
3A4F
330
1F
100
AcDbEntity
  8
0
  6
Continuous
 62
     7
100
AcDbPolyline
 90
       10
 70
     0
 43
0.0
 10
2077.81173155411
 20
611.5508879405756
 10
2077.370834649711
 20
598.9339962873759
 10
2077.36511073931
 20
598.8207085401759
 10
2077.35741013131
 20
598.7023762237763
 10
2077.34754161211
 20
598.5794440473759
 10
2077.33534190691
 20
598.452468511376
 10
2077.32068951931
 20
598.3221381817761
 10
2077.30350528451
 20
598.1891782645757
 10
2077.28375343251
 20
598.0543194457754
 10
2077.26139131771
 20
597.9179902649762
  0
LINE
  5
3A50
330
1F
100
AcDbEntity
  8
0
  6
Continuous
 62
     7
100
AcDbLine
 10
2077.37348979731
 20
599.0016219801759
 30
0.0
 11
2077.37217158931
 21
598.9681221393762
 31
0.0
  0
LWPOLYLINE
  5
3A51
330
1F
100
AcDbEntity
  8
0
  6
Continuous
 62
     7
100
AcDbPolyline
 90
       10
 70
     0
 43
0.0
 10
2077.37217158931
 20
598.9681221393762
 10
2077.36822402891
 20
598.8782363357755
 10
2077.361881951711
 20
598.767665597376
 10
2077.353532305711
 20
598.6511197437762
 10
2077.34298067371
 20
598.5293841621755
 10
2077.330116674511
 20
598.4036971517757
 10
2077.31490861131
 20
598.2753779109757
 10
2077.29739966251
 20
598.1457135565756
 10
2077.27755156931
 20
598.0149740849761
 10
2077.25525614571
 20
597.882951181376
  0
LINE
  5
3A52
330
1F
100
AcDbEntity
  8
02___PRT_ALL_AXES
  6
Continuous
 62
     7
100
AcDbLine
 10
2135.87913565851
 20
383.4810889469759
 30
0.0
 11
2135.87913565851
 21
643.4810889469758
 31
0.0
  0
LINE
  5
3A53
330
1F
100
AcDbEntity
  8
0
  6
Continuous
 62
     9
100
AcDbLine
 10
2151.87913565851
 20
643.4810889469758
 30
0.0
 11
2151.87913565851
 21
383.4810889469759
 31
0.0
  0
LINE
  5
3A54
330
1F
100
AcDbEntity
  8
0
  6
Continuous
 62
     7
100
AcDbLine
 10
2155.87913565851
 20
639.4810889469758
 30
0.0
 11
2155.87913565851
 21
387.4810889469759
 31
0.0
  0
LINE
  5
3A55
330
1F
100
AcDbEntity
  8
0
  6
Continuous
 62
     9
100
AcDbLine
 10
2299.410378653311
 20
391.8385329001763
 30
0.0
 11
2303.32361883211
 21
392.667182458576
 31
0.0
  0
LINE
  5
3A56
330
1F
100
AcDbEntity
  8
0
  6
Continuous
 62
     7
100
AcDbLine
 10
2151.87913565851
 20
383.4810889469759
 30
0.0
 11
2135.87913565851
 21
383.4810889469759
 31
0.0
  0
LINE
  5
3A57
330
1F
100
AcDbEntity
  8
0
  6
Continuous
 62
     9
100
AcDbLine
 10
2300.27913565851
 20
383.542641980976
 30
0.0
 11
2304.27913565851
 21
383.542641980976
 31
0.0
  0
LINE
  5
3A58
330
1F
100
AcDbEntity
  8
0
  6
Continuous
 62
     9
100
AcDbLine
 10
2303.32388251091
 20
392.665681774176
 30
0.0
 11
2356.27913565851
 21
392.667182462576
 31
0.0
  0
LINE
  5
3A59
330
1F
100
AcDbEntity
  8
0
  6
Continuous
 62
     9
100
AcDbLine
 10
2360.27913565851
 20
392.667182462576
 30
0.0
 11
2356.27913565851
 21
392.667182462576
 31
0.0
  0
LINE
  5
3A5A
330
1F
100
AcDbEntity
  8
0
  6
Continuous
 62
     7
100
AcDbLine
 10
2079.81051320811
 20
413.4810889469759
 30
0.0
 11
2087.87913565851
 21
413.4810889469759
 31
0.0
  0
LINE
  5
3A5B
330
1F
100
AcDbEntity
  8
0
  6
Continuous
 62
     7
100
AcDbLine
 10
2240.279135658511
 20
513.4810889469759
 30
0.0
 11
2280.349717334511
 21
603.4810889425757
 31
0.0
  0
LINE
  5
3A5C
330
1F
100
AcDbEntity
  8
02___PRT_ALL_AXES
  6
Continuous
 62
     7
100
AcDbLine
 10
2260.27913565851
 20
423.4810889469758
 30
0.0
 11
2240.279135658511
 21
423.4810889469758
 31
0.0
  0
LINE
  5
3A5D
330
1F
100
AcDbEntity
  8
02___PRT_ALL_AXES
  6
Continuous
 62
     7
100
AcDbLine
 10
2235.87913565851
 20
423.4810889469758
 30
0.0
 11
2155.87913565851
 21
423.4810889469758
 31
0.0
  0
LINE
  5
3A5E
330
1F
100
AcDbEntity
  8
02___PRT_ALL_AXES
  6
Continuous
 62
     7
100
AcDbLine
 10
2135.87913565851
 20
423.4810889469758
 30
0.0
 11
2087.87913565851
 21
423.4810889469758
 31
0.0
  0
LINE
  5
3A5F
330
1F
100
AcDbEntity
  8
0
  6
Continuous
 62
     9
100
AcDbLine
 10
2356.27913565851
 20
429.840692150176
 30
0.0
 11
2260.27913565851
 21
429.840692150176
 31
0.0
  0
LINE
  5
3A60
330
1F
100
AcDbEntity
  8
02___PRT_ALL_AXES
  6
Continuous
 62
     7
100
AcDbLine
 10
2235.87913565851
 20
423.4813112445758
 30
0.0
 11
2235.87913565851
 21
603.4808666493759
 31
0.0
  0
LINE
  5
3A61
330
1F
100
AcDbEntity
  8
0
  6
Continuous
 62
     7
100
AcDbLine
 10
2240.279135658511
 20
423.4810889469758
 30
0.0
 11
2240.279135658511
 21
513.4810889469759
 31
0.0
  0
LINE
  5
3A62
330
1F
100
AcDbEntity
  8
0
  6
Continuous
 62
     7
100
AcDbLine
 10
2027.87913565851
 20
456.8810889469755
 30
0.0
 11
2053.87913565851
 21
456.8810889469755
 31
0.0
  0
LINE
  5
3A63
330
1F
100
AcDbEntity
  8
0
  6
Continuous
 62
     7
100
AcDbLine
 10
2068.82153218051
 20
460.0810889469762
 30
0.0
 11
2007.079135658511
 21
460.0810889469762
 31
0.0
  0
LINE
  5
3A64
330
1F
100
AcDbEntity
  8
03___PRT_ALL_CURVES
  6
Continuous
 62
     4
100
AcDbLine
 10
1981.87913565851
 20
460.0810889469762
 30
0.0
 11
1983.728152317311
 21
460.0810889469762
 31
0.0
  0
LINE
  5
3A65
330
1F
100
AcDbEntity
  8
0
  6
Continuous
 62
     9
100
AcDbLine
 10
2068.90704393771
 20
461.7945031565763
 30
0.0
 11
2018.09728087051
 21
461.7942780553762
 31
0.0
  0
LINE
  5
3A66
330
1F
100
AcDbEntity
  8
0
  6
Continuous
 62
     7
100
AcDbLine
 10
2045.079107004511
 20
637.2810889469761
 30
0.0
 11
2049.07913565851
 21
633.2810580273758
 31
0.0
  0
LINE
  5
3A67
330
1F
100
AcDbEntity
  8
0
  6
Continuous
 62
     9
100
AcDbLine
 10
2260.27913565851
 20
429.840692150176
 30
0.0
 11
2260.27913565851
 21
423.4810889469758
 31
0.0
  0
LINE
  5
3A68
330
1F
100
AcDbEntity
  8
02___PRT_ALL_AXES
  6
Continuous
 62
     7
100
AcDbLine
 10
2009.39097933651
 20
478.5291659937761
 30
0.0
 11
1979.87913565851
 21
478.5291659937761
 31
0.0
  0
LINE
  5
3A69
330
1F
100
AcDbEntity
  8
0
  6
Continuous
 62
     7
100
AcDbLine
 10
2300.27913565851
 20
189.4810889469759
 30
0.0
 11
2300.27913565851
 21
383.5424610981759
 31
0.0
  0
LINE
  5
3A6A
330
1F
100
AcDbEntity
  8
02___PRT_ALL_AXES
  6
Continuous
 62
     7
100
AcDbLine
 10
2032.14233942731
 20
508.4330119001756
 30
0.0
 11
1979.87913565851
 21
508.4330119001756
 31
0.0
  0
LINE
  5
3A6B
330
1F
100
AcDbEntity
  8
0
  6
Continuous
 62
     9
100
AcDbLine
 10
2069.01741986651
 20
510.0482016089759
 30
0.0
 11
2056.88744627891
 21
510.0478651421759
 31
0.0
  0
LINE
  5
3A6C
330
1F
100
AcDbEntity
  8
AXIS
  6
CENTER
 62
     7
100
AcDbLine
 10
2364.30627586451
 20
513.4810889469759
 30
0.0
 11
2103.87913565851
 21
513.4810889469759
 31
0.0
  0
LINE
  5
3A6D
330
1F
100
AcDbEntity
  8
0
  6
Continuous
 62
     9
100
AcDbLine
 10
2068.929871747711
 20
516.1649197617757
 30
0.0
 11
2056.64751040851
 21
516.1647100329759
 31
0.0
  0
LINE
  5
3A6E
330
1F
100
AcDbEntity
  8
0
  6
Continuous
 62
     9
100
AcDbLine
 10
2304.27913565851
 20
185.4810889469758
 30
0.0
 11
2304.27913565851
 21
383.542641980976
 31
0.0
  0
LINE
  5
3A6F
330
1F
100
AcDbEntity
  8
0
  6
Continuous
 62
     9
100
AcDbLine
 10
2356.27913565851
 20
185.4810889469758
 30
0.0
 11
2356.27913565851
 21
603.4810889469759
 31
0.0
  0
LINE
  5
3A70
330
1F
100
AcDbEntity
  8
0
  6
Continuous
 62
     7
100
AcDbLine
 10
2360.27913565851
 20
599.4798376957755
 30
0.0
 11
2360.27913565851
 21
189.4810889469759
 31
0.0
  0
LINE
  5
3A71
330
1F
100
AcDbEntity
  8
0
  6
Continuous
 62
     9
100
AcDbLine
 10
2051.412628068911
 20
581.245197288576
 30
0.0
 11
2069.06944970931
 21
581.2448412105754
 31
0.0
  0
LINE
  5
3A72
330
1F
100
AcDbEntity
  8
0
  6
Continuous
 62
     7
100
AcDbLine
 10
2057.07898353851
 20
591.281088946976
 30
0.0
 11
2069.37838364291
 21
591.281088946976
 31
0.0
  0
LINE
  5
3A73
330
1F
100
AcDbEntity
  8
0
  6
Continuous
 62
     9
100
AcDbLine
 10
2000.887419124911
 20
616.0810889469762
 30
0.0
 11
2008.87645540291
 21
616.4997765969761
 31
0.0
  0
LINE
  5
3A74
330
1F
100
AcDbEntity
  8
0
  6
Continuous
 62
     9
100
AcDbLine
 10
2303.56484994451
 20
603.1946183521763
 30
0.0
 11
2336.99342137291
 21
603.1946183521763
 31
0.0
  0
LINE
  5
3A75
330
1F
100
AcDbEntity
  8
02___PRT_ALL_AXES
  6
Continuous
 62
     7
100
AcDbLine
 10
2356.27913565851
 20
603.4810889469759
 30
0.0
 11
2339.27913565851
 21
603.4810889469759
 31
0.0
  0
LINE
  5
3A76
330
1F
100
AcDbEntity
  8
02___PRT_ALL_AXES
  6
Continuous
 62
     7
100
AcDbLine
 10
2301.279135658511
 20
603.4810889469759
 30
0.0
 11
2280.349717336511
 21
603.4810889469759
 31
0.0
  0
LINE
  5
3A77
330
1F
100
AcDbEntity
  8
02___PRT_ALL_AXES
  6
Continuous
 62
     7
100
AcDbLine
 10
2235.87913565851
 20
603.4810889469759
 30
0.0
 11
2155.87913565851
 21
603.4810889469759
 31
0.0
  0
LINE
  5
3A78
330
1F
100
AcDbEntity
  8
02___PRT_ALL_AXES
  6
Continuous
 62
     7
100
AcDbLine
 10
2135.87913565851
 20
603.4810889469759
 30
0.0
 11
2087.87913565851
 21
603.4810889469759
 31
0.0
  0
LINE
  5
3A79
330
1F
100
AcDbEntity
  8
0
  6
Continuous
 62
     7
100
AcDbLine
 10
2079.81051320811
 20
613.4810889469759
 30
0.0
 11
2087.87913565851
 21
613.4810889469759
 31
0.0
  0
LINE
  5
3A7A
330
1F
100
AcDbEntity
  8
0
  6
Continuous
 62
     9
100
AcDbLine
 10
2000.887419124911
 20
616.0810889469762
 30
0.0
 11
1988.07085219251
 21
616.0810889469762
 31
0.0
  0
LINE
  5
3A7B
330
1F
100
AcDbEntity
  8
0
  6
Continuous
 62
     7
100
AcDbLine
 10
2000.887419124911
 20
624.0810889469762
 30
0.0
 11
1988.07085219251
 21
624.0810889469762
 31
0.0
  0
LINE
  5
3A7C
330
1F
100
AcDbEntity
  8
0
  6
Continuous
 62
     9
100
AcDbLine
 10
1988.07085219251
 20
616.0810889469762
 30
0.0
 11
1980.08181591451
 21
616.4997765969761
 31
0.0
  0
LINE
  5
3A7D
330
1F
100
AcDbEntity
  8
0
  6
Continuous
 62
     9
100
AcDbLine
 10
2000.068469161311
 20
632.0810889469762
 30
0.0
 11
1988.88980215611
 21
632.0810889469762
 31
0.0
  0
LINE
  5
3A7E
330
1F
100
AcDbEntity
  8
0
  6
Continuous
 62
     7
100
AcDbLine
 10
1939.879135658509
 20
633.2810882089757
 30
0.0
 11
2049.07913565851
 21
633.2810882089757
 31
0.0
  0
LINE
  5
3A7F
330
1F
100
AcDbEntity
  8
0
  6
Continuous
 62
     7
100
AcDbLine
 10
1943.88002730011
 20
637.2810889469761
 30
0.0
 11
2045.07824401731
 21
637.2810889469761
 31
0.0
  0
LINE
  5
3A80
330
1F
100
AcDbEntity
  8
0
  6
Continuous
 62
     7
100
AcDbLine
 10
2151.87913565851
 20
643.4810889469758
 30
0.0
 11
2135.87913565851
 21
643.4810889469758
 31
0.0
  0
LINE
  5
3A81
330
1F
100
AcDbEntity
  8
0
  6
Continuous
 62
     7
100
AcDbLine
 10
1662.97534517931
 20
637.281074623776
 30
0.0
 11
1658.97534631211
 21
633.281073491376
 31
0.0
  0
LINE
  5
3A82
330
1F
100
AcDbEntity
  8
0
  6
Continuous
 62
     7
100
AcDbLine
 10
1717.57533084811
 20
185.4810889469758
 30
0.0
 11
1709.57533084811
 21
185.4810889469758
 31
0.0
  0
LINE
  5
3A83
330
1F
100
AcDbEntity
  8
0
  6
Continuous
 62
     9
100
AcDbLine
 10
1705.57533084811
 20
189.4810889469759
 30
0.0
 11
1721.57533084811
 21
189.4810889469759
 31
0.0
  0
LINE
  5
3A84
330
1F
100
AcDbEntity
  8
0
  6
Continuous
 62
     7
100
AcDbLine
 10
1613.57533084811
 20
596.3965632593758
 30
0.0
 11
1613.57533084811
 21
616.0810889469762
 31
0.0
  0
LINE
  5
3A85
330
1F
100
AcDbEntity
  8
0
  6
Continuous
 62
     9
100
AcDbLine
 10
1621.575334922511
 20
605.2000420961762
 30
0.0
 11
1621.575330848109
 21
624.0810889469762
 31
0.0
  0
LINE
  5
3A86
330
1F
100
AcDbEntity
  8
0
  6
Continuous
 62
     7
100
AcDbLine
 10
1658.97533084811
 20
632.0810889469762
 30
0.0
 11
1658.97533084811
 21
633.2810889469761
 31
0.0
  0
LINE
  5
3A87
330
1F
100
AcDbEntity
  8
0
  6
Continuous
 62
     9
100
AcDbLine
 10
1681.82148469411
 20
433.558043118976
 30
0.0
 11
1680.344561614109
 21
429.8406921513755
 31
0.0
  0
LINE
  5
3A88
330
1F
100
AcDbEntity
  8
0
  6
Continuous
 62
     7
100
AcDbLine
 10
1705.57533084811
 20
392.667182462576
 30
0.0
 11
1705.57533084811
 21
189.4810889469759
 31
0.0
  0
LINE
  5
3A89
330
1F
100
AcDbEntity
  8
0
  6
Continuous
 62
     9
100
AcDbLine
 10
1709.57533084811
 20
392.667182462576
 30
0.0
 11
1709.57533084811
 21
185.4810889469758
 31
0.0
  0
LINE
  5
3A8A
330
1F
100
AcDbEntity
  8
AXIS
  6
CENTER
 62
     7
100
AcDbLine
 10
1713.57533084811
 20
513.4810889469759
 30
0.0
 11
1713.57533084811
 21
295.2485190541761
 31
0.0
  0
LINE
  5
3A8B
330
1F
100
AcDbEntity
  8
AXIS
  6
CENTER
 62
     7
100
AcDbLine
 10
1713.57533084811
 20
513.4810889469759
 30
0.0
 11
1713.57533084811
 21
600.4810889469759
 31
0.0
  0
LINE
  5
3A8C
330
1F
100
AcDbEntity
  8
0
  6
Continuous
 62
     9
100
AcDbLine
 10
1717.57533084811
 20
185.4810889469758
 30
0.0
 11
1717.57533084811
 21
392.667182462576
 31
0.0
  0
LINE
  5
3A8D
330
1F
100
AcDbEntity
  8
0
  6
Continuous
 62
     7
100
AcDbLine
 10
1721.57533084811
 20
189.4810889469759
 30
0.0
 11
1721.57533084811
 21
392.667182462576
 31
0.0
  0
LINE
  5
3A8E
330
1F
100
AcDbEntity
  8
0
  6
Continuous
 62
     7
100
AcDbLine
 10
1768.17533084811
 20
632.0810889469762
 30
0.0
 11
1768.17533084811
 21
633.2810889469761
 31
0.0
  0
LINE
  5
3A8F
330
1F
100
AcDbEntity
  8
0
  6
Continuous
 62
     9
100
AcDbLine
 10
1745.32917700211
 20
433.558043118976
 30
0.0
 11
1746.80610007651
 21
429.8406921493756
 31
0.0
  0
LINE
  5
3A90
330
1F
100
AcDbEntity
  8
0
  6
Continuous
 62
     9
100
AcDbLine
 10
1709.57533084811
 20
392.667182462576
 30
0.0
 11
1705.57533084811
 21
392.667182462576
 31
0.0
  0
LINE
  5
3A91
330
1F
100
AcDbEntity
  8
0
  6
Continuous
 62
     9
100
AcDbLine
 10
1717.57533084811
 20
392.667182462576
 30
0.0
 11
1721.57533084811
 21
392.6671824569762
 31
0.0
  0
LINE
  5
3A92
330
1F
100
AcDbEntity
  8
0
  6
Continuous
 62
     9
100
AcDbLine
 10
1805.57533084811
 20
605.1994423401761
 30
0.0
 11
1805.57533084811
 21
624.0810889469762
 31
0.0
  0
LINE
  5
3A93
330
1F
100
AcDbEntity
  8
0
  6
Continuous
 62
     7
100
AcDbLine
 10
1813.57533084811
 20
596.396896892576
 30
0.0
 11
1813.57533084811
 21
616.0810889469762
 31
0.0
  0
LINE
  5
3A94
330
1F
100
AcDbEntity
  8
AXIS
  6
CENTER
 62
     7
100
AcDbLine
 10
1713.57533084811
 20
513.4810889469759
 30
0.0
 11
1626.57533084811
 21
513.4810889469759
 31
0.0
  0
LINE
  5
3A95
330
1F
100
AcDbEntity
  8
AXIS
  6
CENTER
 62
     7
100
AcDbLine
 10
1713.57533084811
 20
513.4810889469759
 30
0.0
 11
1800.57533084811
 21
513.4810889469759
 31
0.0
  0
LINE
  5
3A96
330
1F
100
AcDbEntity
  8
0
  6
Continuous
 62
     7
100
AcDbLine
 10
1764.17531651691
 20
637.281074623776
 30
0.0
 11
1768.17531538411
 21
633.281073491376
 31
0.0
  0
LINE
  5
3A97
330
1F
100
AcDbEntity
  8
0
  6
Continuous
 62
     9
100
AcDbLine
 10
1696.86104520931
 20
603.1946183809764
 30
0.0
 11
1706.400191130599
 21
603.194618417364
 31
0.0
  0
LINE
  5
3A98
330
1F
100
AcDbEntity
  8
0
  6
Continuous
 62
     9
100
AcDbLine
 10
1721.743002229996
 20
603.1946184548797
 30
0.0
 11
1730.28961648691
 21
603.1946183809764
 31
0.0
  0
LINE
  5
3A99
330
1F
100
AcDbEntity
  8
0
  6
Continuous
 62
     9
100
AcDbLine
 10
1621.575330848109
 20
616.4997765969761
 30
0.0
 11
1634.42540214051
 21
616.4997363833759
 31
0.0
  0
LINE
  5
3A9A
330
1F
100
AcDbEntity
  8
0
  6
Continuous
 62
     9
100
AcDbLine
 10
1805.57533084811
 20
616.4997765969761
 30
0.0
 11
1792.72617780451
 21
616.4997765969761
 31
0.0
  0
LINE
  5
3A9B
330
1F
100
AcDbEntity
  8
0
  6
Continuous
 62
     7
100
AcDbLine
 10
1805.57533084811
 20
624.0810889469762
 30
0.0
 11
1781.72782011931
 21
624.0810889469762
 31
0.0
  0
LINE
  5
3A9C
330
1F
100
AcDbEntity
  8
0
  6
Continuous
 62
     7
100
AcDbLine
 10
1621.575330848109
 20
624.0810889469762
 30
0.0
 11
1645.42195836971
 21
624.0810889469762
 31
0.0
  0
LINE
  5
3A9D
330
1F
100
AcDbEntity
  8
0
  6
Continuous
 62
     9
100
AcDbLine
 10
1659.26217083131
 20
632.0810889469762
 30
0.0
 11
1658.97533084811
 21
632.0810889469762
 31
0.0
  0
LINE
  5
3A9E
330
1F
100
AcDbEntity
  8
0
  6
Continuous
 62
     9
100
AcDbLine
 10
1767.88849086491
 20
632.0810889469762
 30
0.0
 11
1768.17533084811
 21
632.0810889469762
 31
0.0
  0
LINE
  5
3A9F
330
1F
100
AcDbEntity
  8
0
  6
Continuous
 62
     7
100
AcDbLine
 10
1763.824448436909
 20
633.2810955693762
 30
0.0
 11
1768.17533084811
 21
633.2810889469761
 31
0.0
  0
LINE
  5
3AA0
330
1F
100
AcDbEntity
  8
0
  6
Continuous
 62
     7
100
AcDbLine
 10
1658.97533084811
 20
633.2810889469761
 30
0.0
 11
1663.32513823371
 21
633.2810921529758
 31
0.0
  0
LINE
  5
3AA1
330
1F
100
AcDbEntity
  8
0
  6
Continuous
 62
     7
100
AcDbLine
 10
1662.97533084811
 20
637.2810889469761
 30
0.0
 11
1674.11048503531
 21
637.2810889469761
 31
0.0
  0
LINE
  5
3AA2
330
1F
100
AcDbEntity
  8
0
  6
Continuous
 62
     7
100
AcDbLine
 10
1753.037904530111
 20
637.2810889469761
 30
0.0
 11
1764.17533084811
 21
637.2810889469761
 31
0.0
  0
ARC
  5
3AA5
330
1F
100
AcDbEntity
  8
0
  6
Continuous
 62
     9
100
AcDbCircle
 10
2260.23570639851
 20
383.5424838513759
 30
0.0
 40
44.04342926039999
100
AcDbArc
 50
0.0002057095011128
 51
11.95485720669689
  0
ARC
  5
3AA6
330
1F
100
AcDbEntity
  8
0
  6
Continuous
 62
     7
100
AcDbCircle
 10
2260.22811811891
 20
383.5423988685761
 30
0.0
 40
40.0510175392
100
AcDbArc
 50
0.0000889932984652
 51
11.95478467860197
  0
ARC
  5
3AA7
330
1F
100
AcDbEntity
  8
0
  6
Continuous
 62
     7
100
AcDbCircle
 10
2260.27913565851
 20
383.4810889469759
 30
0.0
 40
40.0
100
AcDbArc
 50
0.0876265297997137
 51
90.0
  0
ARC
  5
3AA8
330
1F
100
AcDbEntity
  8
0
  6
Continuous
 62
     7
100
AcDbCircle
 10
2151.87913565851
 20
387.4810917377758
 30
0.0
 40
4.0
100
AcDbArc
 50
270.0
 51
359.9999600274971
  0
ARC
  5
3AA9
330
1F
100
AcDbEntity
  8
0
  6
Continuous
 62
     7
100
AcDbCircle
 10
2356.27913565851
 20
189.4810889469759
 30
0.0
 40
4.0
100
AcDbArc
 50
270.0
 51
0.0
  0
ARC
  5
3AAA
330
1F
100
AcDbEntity
  8
0
  6
Continuous
 62
     7
100
AcDbCircle
 10
2304.27913565851
 20
189.4810889469759
 30
0.0
 40
4.0
100
AcDbArc
 50
180.0
 51
270.0
  0
ARC
  5
3AAB
330
1F
100
AcDbEntity
  8
0
  6
Continuous
 62
     9
100
AcDbCircle
 10
1994.47913565851
 20
513.4810889469759
 30
0.0
 40
62.6
100
AcDbArc
 50
82.16415082080155
 51
97.83585165940564
  0
ARC
  5
3AAC
330
1F
100
AcDbEntity
  8
0
  6
Continuous
 62
     9
100
AcDbCircle
 10
1994.47917365411
 20
508.8262614117761
 30
0.0
 40
62.59995944839999
100
AcDbArc
 50
6.732131523298114
 51
46.45463702790056
  0
ARC
  5
3AAD
330
1F
100
AcDbEntity
  8
0
  6
Continuous
 62
     7
100
AcDbCircle
 10
1994.47913565851
 20
513.4810889469759
 30
0.0
 40
56.6
100
AcDbArc
 50
257.137338236502
 51
282.8626617634979
  0
CIRCLE
  5
3AAE
330
1F
100
AcDbEntity
  8
0
  6
Continuous
 62
     7
100
AcDbCircle
 10
1994.47913565851
 20
513.4810889469759
 30
0.0
 40
54.6
  0
ARC
  5
3AAF
330
1F
100
AcDbEntity
  8
0
  6
Continuous
 62
     9
100
AcDbCircle
 10
1992.91584946051
 20
524.1152063605754
 30
0.0
 40
52.2714762348
100
AcDbArc
 50
54.27588612690319
 51
63.66394226569875
  0
CIRCLE
  5
3AB0
330
1F
100
AcDbEntity
  8
0
  6
Continuous
 62
     7
100
AcDbCircle
 10
1994.47913565851
 20
513.4810889469759
 30
0.0
 40
50.59997556199999
  0
CIRCLE
  5
3AB1
330
1F
100
AcDbEntity
  8
0
  6
Continuous
 62
     7
100
AcDbCircle
 10
1994.47913565851
 20
513.4810889469759
 30
0.0
 40
43.99989546159999
  0
ARC
  5
3AB2
330
1F
100
AcDbEntity
  8
0
  6
Continuous
 62
     2
100
AcDbCircle
 10
1994.47913565851
 20
513.4810889469759
 30
0.0
 40
41.79999999999999
100
AcDbArc
 50
255.0000000000056
 51
195.0000000000011
  0
CIRCLE
  5
3AB3
330
1F
100
AcDbEntity
  8
0
  6
Continuous
 62
     7
100
AcDbCircle
 10
1994.47913565851
 20
513.4810889469759
 30
0.0
 40
38.0
  0
ARC
  5
3AB4
330
1F
100
AcDbEntity
  8
0
  6
Continuous
 62
     7
100
AcDbCircle
 10
2068.52631784371
 20
452.0810889469762
 30
0.0
 40
7.999999996799999
100
AcDbArc
 50
2.00000006050136
 51
87.89724102290577
  0
ARC
  5
3AB5
330
1F
100
AcDbEntity
  8
0
  6
Continuous
 62
     9
100
AcDbCircle
 10
2068.82096649931
 20
452.0817236049756
 30
0.0
 40
7.99940413
100
AcDbArc
 50
1.753446268002807
 51
89.99591370720015
  0
ARC
  5
3AB6
330
1F
100
AcDbEntity
  8
0
  6
Continuous
 62
     7
100
AcDbCircle
 10
2079.81051320811
 20
415.4810889469758
 30
0.0
 40
2.0
100
AcDbArc
 50
181.9999999999971
 51
270.0
  0
ARC
  5
3AB7
330
1F
100
AcDbEntity
  8
0
  6
Continuous
 62
     9
100
AcDbCircle
 10
1995.77048697051
 20
571.742852748976
 30
0.0
 40
112.1925890984
100
AcDbArc
 50
275.7831017739028
 51
281.4787582899999
  0
ARC
  5
3AB8
330
1F
100
AcDbEntity
  8
0
  6
Continuous
 62
     7
100
AcDbCircle
 10
2019.27400468931
 20
570.9612983217762
 30
0.0
 40
8.0
100
AcDbArc
 50
183.0000033197023
 51
246.6663918749057
  0
ARC
  5
3AB9
330
1F
100
AcDbEntity
  8
0
  6
Continuous
 62
     7
100
AcDbCircle
 10
1988.07085219251
 20
616.0810889469762
 30
0.0
 40
8.0
100
AcDbArc
 50
90.0
 51
177.0000000000009
  0
ARC
  5
3ABA
330
1F
100
AcDbEntity
  8
0
  6
Continuous
 62
     7
100
AcDbCircle
 10
2000.887419124911
 20
616.0810889469762
 30
0.0
 40
8.0
100
AcDbArc
 50
2.999247244197364
 51
90.0
  0
ARC
  5
3ABB
330
1F
100
AcDbEntity
  8
0
  6
Continuous
 62
     7
100
AcDbCircle
 10
2069.378383840511
 20
599.2810570017759
 30
0.0
 40
7.9999920136
100
AcDbArc
 50
336.0953531318025
 51
358.0002287871993
  0
ARC
  5
3ABC
330
1F
100
AcDbEntity
  8
0
  6
Continuous
 62
     7
100
AcDbCircle
 10
2069.378383840511
 20
599.2810570017759
 30
0.0
 40
7.9999920136
100
AcDbArc
 50
270.0000038469058
 51
335.2077779044961
  0
ARC
  5
3ABD
330
1F
100
AcDbEntity
  8
0
  6
Continuous
 62
     7
100
AcDbCircle
 10
2057.078983540911
 20
599.2809234017754
 30
0.0
 40
7.999958613999999
100
AcDbArc
 50
180.000000057699
 51
270.000000029794
  0
ARC
  5
3ABE
330
1F
100
AcDbEntity
  8
0
  6
Continuous
 62
     7
100
AcDbCircle
 10
1969.68451943291
 20
570.9614839493756
 30
0.0
 40
7.9998786284
100
AcDbArc
 50
293.3314190650965
 51
356.9985775608017
  0
ARC
  5
3ABF
330
1F
100
AcDbEntity
  8
0
  6
Continuous
 62
     7
100
AcDbCircle
 10
2151.87913565851
 20
639.4810861565761
 30
0.0
 40
4.0
100
AcDbArc
 50
0.0000399725028635
 51
90.0
  0
ARC
  5
3AC0
330
1F
100
AcDbEntity
  8
0
  6
Continuous
 62
     7
100
AcDbCircle
 10
2079.81051320811
 20
611.4810889469758
 30
0.0
 40
2.0
100
AcDbArc
 50
90.0
 51
178.0000000000028
  0
ARC
  5
3AC1
330
1F
100
AcDbEntity
  8
AXIS
  6
Continuous
 62
     7
100
AcDbCircle
 10
2231.61371827891
 20
492.5720992885758
 30
0.0
 40
100.0
100
AcDbArc
 50
66.33598347490033
 51
87.55535419099933
  0
ARC
  5
3AC2
330
1F
100
AcDbEntity
  8
AXIS
  6
Continuous
 62
     7
100
AcDbCircle
 10
2231.61371827891
 20
534.3900786053759
 30
0.0
 40
100.0
100
AcDbArc
 50
272.4446458090007
 51
274.9803231452022
  0
ARC
  5
3AC3
330
1F
100
AcDbEntity
  8
0
  6
Continuous
 62
     7
100
AcDbCircle
 10
2320.27913565851
 20
559.4810889469759
 30
0.0
 40
46.79999999999999
100
AcDbArc
 50
69.07516757240322
 51
110.9248324275968
  0
ARC
  5
3AC4
330
1F
100
AcDbEntity
  8
0
  6
Continuous
 62
     7
100
AcDbCircle
 10
2356.27913565851
 20
599.4810889469759
 30
0.0
 40
4.0
100
AcDbArc
 50
0.0
 51
90.0
  0
ARC
  5
3AC5
330
1F
100
AcDbEntity
  8
0
  6
Continuous
 62
     7
100
AcDbCircle
 10
2304.27913565851
 20
601.3265188049758
 30
0.0
 40
2.0
100
AcDbArc
 50
110.9248324275968
 51
118.3845919753945
  0
ARC
  5
3AC6
330
1F
100
AcDbEntity
  8
0
  6
Continuous
 62
     7
100
AcDbCircle
 10
2336.27913565851
 20
601.3265188049758
 30
0.0
 40
2.0
100
AcDbArc
 50
61.61549481129585
 51
69.07516757240322
  0
ARC
  5
3AC7
330
1F
100
AcDbEntity
  8
0
  6
Continuous
 62
     9
100
AcDbCircle
 10
12023.01593597011
 20
461.4053218693757
 30
0.0
 40
9946.115383708001
100
AcDbArc
 50
179.728098882703
 51
180.0326859388969
  0
ARC
  5
3AC8
330
1F
100
AcDbEntity
  8
0
  6
Continuous
 62
     9
100
AcDbCircle
 10
10352.91538201691
 20
466.9725659749761
 30
0.0
 40
8284.009956398
100
AcDbArc
 50
179.7020690153007
 51
180.0358137142027
  0
ARC
  5
3AC9
330
1F
100
AcDbEntity
  8
0
  6
Continuous
 62
     9
100
AcDbCircle
 10
1665.57533084811
 20
392.667182462576
 30
0.0
 40
44.00000130279999
100
AcDbArc
 50
0.0
 51
68.33181534419802
  0
ARC
  5
3ACA
330
1F
100
AcDbEntity
  8
0
  6
Continuous
 62
     7
100
AcDbCircle
 10
1665.57533084811
 20
392.667182462576
 30
0.0
 40
40.0
100
AcDbArc
 50
0.0
 51
68.33181534419802
  0
ARC
  5
3ACB
330
1F
100
AcDbEntity
  8
0
  6
Continuous
 62
     7
100
AcDbCircle
 10
1709.57533084811
 20
189.4810889469759
 30
0.0
 40
4.0
100
AcDbArc
 50
180.0
 51
270.0
  0
ARC
  5
3ACC
330
1F
100
AcDbEntity
  8
0
  6
Continuous
 62
     7
100
AcDbCircle
 10
1713.57513770051
 20
513.4812820949759
 30
0.0
 40
129.9998068524
100
AcDbArc
 50
89.99991487259501
 51
266.4744211389042
  0
ARC
  5
3ACD
330
1F
100
AcDbEntity
  8
0
  6
Continuous
 62
     9
100
AcDbCircle
 10
1713.57533059051
 20
513.4810904905757
 30
0.0
 40
125.9999984564
100
AcDbArc
 50
89.99999988289534
 51
266.3590604839941
  0
ARC
  5
3ACE
330
1F
100
AcDbEntity
  8
02___PRT_ALL_AXES
  6
Continuous
 62
     7
100
AcDbCircle
 10
1634.37533084811
 20
602.0810889469762
 30
0.0
 40
12.0
100
AcDbArc
 50
108.9705820694045
 51
154.236187021
  0
ARC
  5
3ACF
330
1F
100
AcDbEntity
  8
0
  6
Continuous
 62
     9
100
AcDbCircle
 10
1651.24822893131
 20
632.0818689473758
 30
0.0
 40
8.013941938
100
AcDbArc
 50
355.6867347614989
 51
359.9944233774022
  0
ARC
  5
3AD0
330
1F
100
AcDbEntity
  8
0
  6
Continuous
 62
     7
100
AcDbCircle
 10
1650.97533084811
 20
632.0810889469762
 30
0.0
 40
8.0
100
AcDbArc
 50
354.7117863471024
 51
0.0
  0
ARC
  5
3AD1
330
1F
100
AcDbEntity
  8
0
  6
Continuous
 62
     7
100
AcDbCircle
 10
1621.575330848109
 20
616.0810889469762
 30
0.0
 40
8.0
100
AcDbArc
 50
90.0
 51
180.0
  0
ARC
  5
3AD2
330
1F
100
AcDbEntity
  8
0
  6
Continuous
 62
     7
100
AcDbCircle
 10
1697.57533084811
 20
601.3265188049758
 30
0.0
 40
2.0
100
AcDbArc
 50
110.9248324275968
 51
176.6320939183987
  0
ARC
  5
3AD3
330
1F
100
AcDbEntity
  8
0
  6
Continuous
 62
     9
100
AcDbCircle
 10
1761.57533084811
 20
392.667182462576
 30
0.0
 40
44.00000130479999
100
AcDbArc
 50
111.6681846558019
 51
180.0
  0
ARC
  5
3AD4
330
1F
100
AcDbEntity
  8
0
  6
Continuous
 62
     7
100
AcDbCircle
 10
1761.57533084811
 20
392.667182462576
 30
0.0
 40
40.0
100
AcDbArc
 50
111.6681846558019
 51
180.0
  0
ARC
  5
3AD5
330
1F
100
AcDbEntity
  8
0
  6
Continuous
 62
     7
100
AcDbCircle
 10
1717.57533084811
 20
189.4810889469759
 30
0.0
 40
4.0
100
AcDbArc
 50
270.0
 51
0.0
  0
ARC
  5
3AD6
330
1F
100
AcDbEntity
  8
0
  6
Continuous
 62
     7
100
AcDbCircle
 10
1713.57552419851
 20
513.4812822973758
 30
0.0
 40
129.9998066496
100
AcDbArc
 50
273.5288795147034
 51
90.00008521669581
  0
ARC
  5
3AD7
330
1F
100
AcDbEntity
  8
0
  6
Continuous
 62
     9
100
AcDbCircle
 10
1713.57533099011
 20
513.4810904717755
 30
0.0
 40
125.9999984756
100
AcDbArc
 50
273.6409479342047
 51
90.00000006460361
  0
ARC
  5
3AD8
330
1F
100
AcDbEntity
  8
0
  6
Continuous
 62
     7
100
AcDbCircle
 10
1713.57533084811
 20
513.4810889469759
 30
0.0
 40
92.2
100
AcDbArc
 50
97.12441856760447
 51
254.6920833610009
  0
ARC
  5
3AD9
330
1F
100
AcDbEntity
  8
0
  6
Continuous
 62
     7
100
AcDbCircle
 10
1713.57533084811
 20
513.4810889469759
 30
0.0
 40
92.2
100
AcDbArc
 50
285.323630460796
 51
82.87558324799396
  0
ARC
  5
3ADA
330
1F
100
AcDbEntity
  8
0
  6
Continuous
 62
     7
100
AcDbCircle
 10
1713.57533084811
 20
513.4810889469759
 30
0.0
 40
91.0
100
AcDbArc
 50
101.1602993127969
 51
252.9386838181952
  0
ARC
  5
3ADB
330
1F
100
AcDbEntity
  8
0
  6
Continuous
 62
     7
100
AcDbCircle
 10
1713.57533084811
 20
513.4810889469759
 30
0.0
 40
91.0
100
AcDbArc
 50
287.0627635481008
 51
78.83970083260286
  0
ARC
  5
3ADC
330
1F
100
AcDbEntity
  8
02___PRT_ALL_AXES
  6
Continuous
 62
     7
100
AcDbCircle
 10
1713.57533084811
 20
513.4810889469759
 30
0.0
 40
90.0
100
AcDbArc
 50
292.7410496024992
 51
354.8848846148989
  0
ARC
  5
3ADD
330
1F
100
AcDbEntity
  8
0
  6
Continuous
 62
     7
100
AcDbCircle
 10
1713.57533084811
 20
513.4810889469759
 30
0.0
 40
90.0
100
AcDbArc
 50
291.668184655802
 51
248.3318153441981
  0
ARC
  5
3ADE
330
1F
100
AcDbEntity
  8
0
  6
Continuous
 62
     9
100
AcDbCircle
 10
1713.57533084811
 20
513.4810889469759
 30
0.0
 40
86.0
100
AcDbArc
 50
291.668184655802
 51
248.3318153441981
  0
ARC
  5
3ADF
330
1F
100
AcDbEntity
  8
0
  6
Continuous
 62
     7
100
AcDbCircle
 10
1713.57533084811
 20
559.4810889469759
 30
0.0
 40
46.79999999999999
100
AcDbArc
 50
69.07516757240322
 51
110.9248324275968
  0
ARC
  5
3AE0
330
1F
100
AcDbEntity
  8
02___PRT_ALL_AXES
  6
Continuous
 62
     7
100
AcDbCircle
 10
1792.77533084811
 20
602.0810889469762
 30
0.0
 40
12.0
100
AcDbArc
 50
25.74702746499825
 51
71.04079541119798
  0
ARC
  5
3AE1
330
1F
100
AcDbEntity
  8
0
  6
Continuous
 62
     9
100
AcDbCircle
 10
1775.90234155611
 20
632.0818664945759
 30
0.0
 40
8.013850729199999
100
AcDbArc
 50
180.0055591493024
 51
184.3058309257968
  0
ARC
  5
3AE2
330
1F
100
AcDbEntity
  8
0
  6
Continuous
 62
     7
100
AcDbCircle
 10
1776.17533084811
 20
632.0810889469762
 30
0.0
 40
8.0
100
AcDbArc
 50
180.0
 51
185.2799412276991
  0
ARC
  5
3AE3
330
1F
100
AcDbEntity
  8
0
  6
Continuous
 62
     7
100
AcDbCircle
 10
1805.57533084811
 20
616.0810889469762
 30
0.0
 40
8.0
100
AcDbArc
 50
0.0
 51
90.0
  0
ARC
  5
3AE4
330
1F
100
AcDbEntity
  8
0
  6
Continuous
 62
     7
100
AcDbCircle
 10
1729.57533084811
 20
601.3265188049758
 30
0.0
 40
2.0
100
AcDbArc
 50
2.970065064202096
 51
69.07516757240322
  0
SPLINE
  5
3AE5
330
1F
100
AcDbEntity
  8
02___PRT_ALL_AXES
  6
Continuous
 62
     7
100
AcDbSpline
210
0.0
220
0.0
230
1.0
 70
     8
 71
     3
 72
    31
 73
    27
 74
     0
 42
0.000000001
 43
0.0000000001
 40
0.0
 40
0.0
 40
0.0
 40
0.0
 40
0.0625005458
 40
0.1250010913
 40
0.1875016357
 40
0.250002176
 40
0.3125026944
 40
0.375003025
 40
0.4062532209000001
 40
0.4375030401
 40
0.4531285421000001
 40
0.468754384
 40
0.4843803362
 40
0.4999995103
 40
0.5156194062
 40
0.5312457476
 40
0.5468714748
 40
0.5624969468
 40
0.5937467749000001
 40
0.6249969747000001
 40
0.6874973056
 40
0.7499978240000001
 40
0.8124983643
 40
0.8749989087000001
 40
0.9374994541999999
 40
1.0
 40
1.0
 40
1.0
 40
1.0
 10
1979.87913565851
 20
508.4330119001756
 30
0.0
 10
1979.51187823251
 20
507.8198275617755
 30
0.0
 10
1978.777573313711
 20
506.5933331965757
 30
0.0
 10
1977.67703851651
 20
504.7530391241757
 30
0.0
 10
1976.57796531771
 20
502.9118731001758
 30
0.0
 10
1975.48126600971
 20
501.0692861893763
 30
0.0
 10
1974.38931539331
 20
499.2239005113756
 30
0.0
 10
1973.48699691651
 20
497.6815122405755
 30
0.0
 10
1972.78058285611
 20
496.438759422976
 30
0.0
 10
1972.35231575411
 20
495.654465984176
 30
0.0
 10
1972.03208557851
 20
495.0153146761762
 30
0.0
 10
1971.81373512211
 20
494.5254056549761
 30
0.0
 10
1971.63833821731
 20
494.0175433037762
 30
0.0
 10
1971.56174013171
 20
493.4810974329762
 30
0.0
 10
1971.63828825051
 20
492.9446325401763
 30
0.0
 10
1971.81374580731
 20
492.4367771277761
 30
0.0
 10
1972.03209138971
 20
491.9468649117757
 30
0.0
 10
1972.35231584611
 20
491.3077117489761
 30
0.0
 10
1972.780581969711
 20
490.5234182629761
 30
0.0
 10
1973.48699663451
 20
489.2806655041763
 30
0.0
 10
1974.38931546531
 20
487.738277443776
 30
0.0
 10
1975.48126596011
 20
485.8928916725758
 30
0.0
 10
1976.57796532651
 20
484.0503048009764
 30
0.0
 10
1977.67703850571
 20
482.2091387633759
 30
0.0
 10
1978.77757331851
 20
480.3688447005757
 30
0.0
 10
1979.51187823251
 20
479.1423503325764
 30
0.0
 10
1979.87913565851
 20
478.5291659937761
 30
0.0
  0
SPLINE
  5
3AE6
330
1F
100
AcDbEntity
  8
0
  6
Continuous
 62
     9
100
AcDbSpline
210
0.0
220
0.0
230
1.0
 70
     8
 71
     3
 72
    26
 73
    22
 74
     0
 42
0.000000001
 43
0.0000000001
 40
0.0
 40
0.0
 40
0.0
 40
0.0
 40
0.0002967401
 40
0.00118678
 40
0.0026701098
 40
0.0047467196
 40
0.0106792461
 40
0.0189670502
 40
0.0295724001
 40
0.0424563565
 40
0.0575800221
 40
0.0749045152
 40
0.1159612699
 40
0.1651598729
 40
0.2220138481
 40
0.2860272836
 40
0.3566905762
 40
0.4334995432000001
 40
0.603768914
 40
0.7936228494
 40
1.0
 40
1.0
 40
1.0
 40
1.0
 10
2057.078989130511
 20
591.2809649757759
 30
0.0
 10
2057.077888409311
 20
591.2806622893763
 30
0.0
 10
2057.07643646971
 20
591.2753265785763
 30
0.0
 10
2057.06958236211
 20
591.2683395113758
 30
0.0
 10
2057.06056532211
 20
591.2533302997758
 30
0.0
 10
2057.03965899371
 20
591.2236519673756
 30
0.0
 10
2057.00467512411
 20
591.1714251933758
 30
0.0
 10
2056.95088232371
 20
591.092604330976
 30
0.0
 10
2056.88240385451
 20
590.9912978021761
 30
0.0
 10
2056.79933966491
 20
590.8681586581756
 30
0.0
 10
2056.702151016911
 20
590.7233496125759
 30
0.0
 10
2056.545064894111
 20
590.4882179353758
 30
0.0
 10
2056.31651294971
 20
590.1431771289757
 30
0.0
 10
2056.00722282411
 20
589.6692221481758
 30
0.0
 10
2055.65403726531
 20
589.1184756677762
 30
0.0
 10
2055.262054642511
 20
588.4945448509756
 30
0.0
 10
2054.83687886811
 20
587.8008556045756
 30
0.0
 10
2054.21103466811
 20
586.750817241776
 30
0.0
 10
2053.38215423411
 20
585.2881314517758
 30
0.0
 10
2052.375010767711
 20
583.3548715893762
 30
0.0
 10
2051.72995176131
 20
581.972962342576
 30
0.0
 10
2051.41260194971
 20
581.2451972849762
 30
0.0
  0
SPLINE
  5
3AE7
330
1F
100
AcDbEntity
  8
0
  6
Continuous
 62
     9
100
AcDbSpline
210
0.0
220
0.0
230
1.0
 70
     8
 71
     3
 72
     9
 73
     5
 74
     0
 42
0.000000001
 43
0.0000000001
 40
0.0
 40
0.0
 40
0.0
 40
0.0
 40
0.4960013489000001
 40
1.0
 40
1.0
 40
1.0
 40
1.0
 10
2044.13692870051
 20
585.9004782641754
 30
0.0
 10
2042.79059524891
 20
581.1802351037763
 30
0.0
 10
2039.48638489771
 20
571.8205737873764
 30
0.0
 10
2034.832134494111
 20
563.0247500697755
 30
0.0
 10
2032.09469930371
 20
558.8554622813758
 30
0.0
  0
SPLINE
  5
3AE8
330
1F
100
AcDbEntity
  8
0
  6
Continuous
 62
     9
100
AcDbSpline
210
0.0
220
0.0
230
1.0
 70
     8
 71
     3
 72
     9
 73
     5
 74
     0
 42
0.000000001
 43
0.0000000001
 40
0.0
 40
0.0
 40
0.0
 40
0.0
 40
0.2557178625
 40
1.0
 40
1.0
 40
1.0
 40
1.0
 10
2023.43627259891
 20
566.5511698729756
 30
0.0
 10
2024.23947391011
 20
565.9750785469754
 30
0.0
 10
2027.31944248491
 20
563.6379100545759
 30
0.0
 10
2030.14956131131
 20
560.975148658576
 30
0.0
 10
2032.09469930371
 20
558.8554622813758
 30
0.0
  0
LINE
  5
3AE9
330
1F
100
AcDbEntity
  8
0
  6
Continuous
 62
     9
100
AcDbLine
 10
2016.10532073971
 20
570.9612910377759
 30
0.0
 11
2014.00461551211
 21
616.9184642469758
 31
0.0
  0
SPLINE
  5
3AEA
330
1F
100
AcDbEntity
  8
0
  6
Continuous
 62
     9
100
AcDbSpline
210
0.0
220
0.0
230
1.0
 70
     8
 71
     3
 72
    14
 73
    10
 74
     0
 42
0.000000001
 43
0.0000000001
 40
0.0
 40
0.0
 40
0.0
 40
0.0
 40
0.2516287743
 40
0.3768551581
 40
0.5014029080000001
 40
0.625562498
 40
0.7497888548000001
 40
0.8745155198
 40
1.0
 40
1.0
 40
1.0
 40
1.0
 10
2014.00461551211
 20
616.9184642469758
 30
0.0
 10
2013.91772147811
 20
618.817395020576
 30
0.0
 10
2013.33731717011
 20
621.6699107757762
 30
0.0
 10
2011.69257385131
 20
625.0965465837757
 30
0.0
 10
2010.04100423771
 20
627.4080267185759
 30
0.0
 10
2007.99519874171
 20
629.3700035333763
 30
0.0
 10
2005.594871357311
 20
630.8869477789762
 30
0.0
 10
2002.91394693691
 20
631.8575739921757
 30
0.0
 10
2001.01643581171
 20
632.0809863901764
 30
0.0
 10
2000.068469161311
 20
632.0810889469762
 30
0.0
  0
SPLINE
  5
3AEB
330
1F
100
AcDbEntity
  8
0
  6
Continuous
 62
     9
100
AcDbSpline
210
0.0
220
0.0
230
1.0
 70
     8
 71
     3
 72
    11
 73
     7
 74
     0
 42
0.000000001
 43
0.0000000001
 40
0.0
 40
0.0
 40
0.0
 40
0.0
 40
0.0760108865
 40
0.2892542806
 40
0.6075676704000001
 40
1.0
 40
1.0
 40
1.0
 40
1.0
 10
2049.078996678511
 20
599.2808989633763
 30
0.0
 10
2048.93058153211
 20
598.951082228576
 30
0.0
 10
2048.378254846511
 20
597.6904199365758
 30
0.0
 10
2047.25419149731
 20
595.0266967113761
 30
0.0
 10
2045.688205026511
 20
590.9172273885756
 30
0.0
 10
2044.649075819711
 20
587.6961221637762
 30
0.0
 10
2044.13692870051
 20
585.9004782641754
 30
0.0
  0
SPLINE
  5
3AEC
330
1F
100
AcDbEntity
  8
0
  6
Continuous
 62
     9
100
AcDbSpline
210
0.0
220
0.0
230
1.0
 70
     8
 71
     3
 72
    18
 73
    14
 74
     0
 42
0.000000001
 43
0.0000000001
 40
0.0
 40
0.0
 40
0.0
 40
0.0
 40
0.2126064602
 40
0.4074494958
 40
0.5796692521
 40
0.725802837
 40
0.8428407512999999
 40
0.9283613798999999
 40
0.9586291915999998
 40
0.9804071678999999
 40
0.9881299063
 40
0.9938035148999999
 40
1.0
 40
1.0
 40
1.0
 40
1.0
 10
1972.85291484331
 20
570.961275392176
 30
0.0
 10
1973.19498688131
 20
570.9287615297758
 30
0.0
 10
1973.85205122611
 20
570.8825085665762
 30
0.0
 10
1974.78771579051
 20
570.8356308321758
 30
0.0
 10
1975.615195842511
 20
570.7776005541759
 30
0.0
 10
1976.31616287731
 20
570.716216958976
 30
0.0
 10
1976.87712696891
 20
570.6608374733755
 30
0.0
 10
1977.25106922651
 20
570.6213645185758
 30
0.0
 10
1977.47254064931
 20
570.5979258533757
 30
0.0
 10
1977.56792475411
 20
570.5867969841761
 30
0.0
 10
1977.62448166571
 20
570.5747404845756
 30
0.0
 10
1977.65324744211
 20
570.5669027221761
 30
0.0
 10
1977.67382652611
 20
570.5526027949758
 30
0.0
 10
1977.67330244011
 20
570.5426017809754
 30
0.0
  0
SPLINE
  5
3AED
330
1F
100
AcDbEntity
  8
0
  6
Continuous
 62
     9
100
AcDbSpline
210
0.0
220
0.0
230
1.0
 70
     8
 71
     3
 72
    21
 73
    17
 74
     0
 42
0.000000001
 43
0.0000000001
 40
0.0
 40
0.0
 40
0.0
 40
0.0
 40
0.2112719924
 40
0.4057338190000001
 40
0.57820482
 40
0.7249243888
 40
0.7875851745000001
 40
0.8426593493
 40
0.8898496810999999
 40
0.9288605439000001
 40
0.9594334094
 40
0.9814527464000001
 40
0.9892373477999999
 40
0.9948725784
 40
0.9983892743
 40
1.0
 40
1.0
 40
1.0
 40
1.0
 10
1974.95365580491
 20
616.9184642469758
 30
0.0
 10
1975.315704280511
 20
616.8967077729762
 30
0.0
 10
1976.01092481811
 20
616.8537584473756
 30
0.0
 10
1977.00142955331
 20
616.788721119376
 30
0.0
 10
1977.88106285131
 20
616.7267091165763
 30
0.0
 10
1978.534699034511
 20
616.6766110929761
 30
0.0
 10
1978.98711414011
 20
616.6386884337757
 30
0.0
 10
1979.26912667091
 20
616.6133880325755
 30
0.0
 10
1979.51050097051
 20
616.5898827105761
 30
0.0
 10
1979.70987648531
 20
616.5683156437758
 30
0.0
 10
1979.86578840851
 20
616.5489435553759
 30
0.0
 10
1979.968614983311
 20
616.5333248013762
 30
0.0
 10
1980.027910010111
 20
616.5217415729762
 30
0.0
 10
1980.05677208091
 20
616.5141035557758
 30
0.0
 10
1980.07295549411
 20
616.5087648153762
 30
0.0
 10
1980.08196063491
 20
616.5025380237762
 30
0.0
 10
1980.08181591451
 20
616.4997765969761
 30
0.0
  0
SPLINE
  5
3AEE
330
1F
100
AcDbEntity
  8
0
  6
Continuous
 62
     9
100
AcDbSpline
210
0.0
220
0.0
230
1.0
 70
     8
 71
     3
 72
    18
 73
    14
 74
     0
 42
0.000000001
 43
0.0000000001
 40
0.0
 40
0.0
 40
0.0
 40
0.0
 40
0.1919282299
 40
0.3767081036
 40
0.5470545383
 40
0.6967133511000001
 40
0.8200383168
 40
0.8704054614
 40
0.9126416032999999
 40
0.9464902859
 40
0.9718377967
 40
0.9890549940000001
 40
1.0
 40
1.0
 40
1.0
 40
1.0
 10
1988.88980215611
 20
632.0810889469762
 30
0.0
 10
1988.88980169771
 20
631.5609894657759
 30
0.0
 10
1988.87967646811
 20
630.5401293385762
 30
0.0
 10
1988.83462294371
 20
629.0582669957761
 30
0.0
 10
1988.76163840171
 20
627.6921550709762
 30
0.0
 10
1988.66395647451
 20
626.4946192513757
 30
0.0
 10
1988.56031619811
 20
625.6241265925759
 30
0.0
 10
1988.46371347811
 20
625.046888860576
 30
0.0
 10
1988.39250979611
 20
624.7115653233763
 30
0.0
 10
1988.32018162731
 20
624.4461609393761
 30
0.0
 10
1988.24387837131
 20
624.2528006085763
 30
0.0
 10
1988.17204335131
 20
624.1267371341759
 30
0.0
 10
1988.10051167491
 20
624.0810889469762
 30
0.0
 10
1988.07085219251
 20
624.0810889469762
 30
0.0
  0
LINE
  5
3AEF
330
1F
100
AcDbEntity
  8
0
  6
Continuous
 62
     9
100
AcDbLine
 10
2069.37838437771
 20
591.281088946976
 30
0.0
 11
2069.06944432491
 21
581.2448411993759
 31
0.0
  0
SPLINE
  5
3AF0
330
1F
100
AcDbEntity
  8
0
  6
Continuous
 62
     9
100
AcDbSpline
210
0.0
220
0.0
230
1.0
 70
     8
 71
     3
 72
    18
 73
    14
 74
     0
 42
0.000000001
 43
0.0000000001
 40
0.0
 40
0.0
 40
0.0
 40
0.0
 40
0.1919281889
 40
0.3767080156
 40
0.5470544201
 40
0.6967132125
 40
0.8200381690999998
 40
0.8704053137
 40
0.9126414612999999
 40
0.9464901560999999
 40
0.9718376874
 40
0.9890549231999997
 40
1.0
 40
1.0
 40
1.0
 40
1.0
 10
2000.068469161311
 20
632.0810889469762
 30
0.0
 10
2000.068469161311
 20
631.560989496576
 30
0.0
 10
2000.078593598911
 20
630.5401294413755
 30
0.0
 10
2000.123646220111
 20
629.0582671621764
 30
0.0
 10
2000.196630175711
 20
627.6921552573762
 30
0.0
 10
2000.294311892911
 20
626.494619395376
 30
0.0
 10
2000.39795228971
 20
625.6241266897764
 30
0.0
 10
2000.49455533851
 20
625.0468889269764
 30
0.0
 10
2000.56575933651
 20
624.711565355376
 30
0.0
 10
2000.638087921711
 20
624.4461609161758
 30
0.0
 10
2000.714391635311
 20
624.252800548576
 30
0.0
 10
2000.78622733051
 20
624.1267369297761
 30
0.0
 10
2000.857759446111
 20
624.0810889469762
 30
0.0
 10
2000.887419124911
 20
624.0810889469762
 30
0.0
  0
SPLINE
  5
3AF1
330
1F
100
AcDbEntity
  8
0
  6
Continuous
 62
     9
100
AcDbSpline
210
0.0
220
0.0
230
1.0
 70
     8
 71
     3
 72
    21
 73
    17
 74
     0
 42
0.000000001
 43
0.0000000001
 40
0.0
 40
0.0
 40
0.0
 40
0.0
 40
0.2112640016
 40
0.4057207879
 40
0.5781896648
 40
0.7249096091000001
 40
0.7875713611000001
 40
0.8426469201999999
 40
0.8898389766999999
 40
0.9288518266
 40
0.9594268631999998
 40
0.9814484937000001
 40
0.9892342668000001
 40
0.9948706677
 40
0.9983884902999999
 40
1.0
 40
1.0
 40
1.0
 40
1.0
 10
2014.004759889311
 20
616.918464220576
 30
0.0
 10
2013.64270715811
 20
616.8967077789761
 30
0.0
 10
2012.94747447451
 20
616.8537583657758
 30
0.0
 10
2011.95694655451
 20
616.7887208621764
 30
0.0
 10
2011.07728119691
 20
616.7267082761759
 30
0.0
 10
2010.42361384771
 20
616.6766096001761
 30
0.0
 10
2009.97117153291
 20
616.6386863005759
 30
0.0
 10
2009.689137952511
 20
616.6133852965763
 30
0.0
 10
2009.44774285731
 20
616.5898792833764
 30
0.0
 10
2009.24834726331
 20
616.5683116957757
 30
0.0
 10
2009.09241643291
 20
616.5489386009762
 30
0.0
 10
2008.98957490931
 20
616.5333200677755
 30
0.0
 10
2008.93026886971
 20
616.5217355597755
 30
0.0
 10
2008.901399010911
 20
616.5140988657762
 30
0.0
 10
2008.88520982451
 20
616.5087567245759
 30
0.0
 10
2008.87619933731
 20
616.5025336689764
 30
0.0
 10
2008.87634122331
 20
616.4997706101762
 30
0.0
  0
SPLINE
  5
3AF2
330
1F
100
AcDbEntity
  8
0
  6
Continuous
 62
     9
100
AcDbSpline
210
0.0
220
0.0
230
1.0
 70
     8
 71
     3
 72
    18
 73
    14
 74
     0
 42
0.000000001
 43
0.0000000001
 40
0.0
 40
0.0
 40
0.0
 40
0.0
 40
0.2126066247
 40
0.4074496629000001
 40
0.57966933
 40
0.7258027747
 40
0.8428405436
 40
0.9283610544
 40
0.9586288262999998
 40
0.9804067906999998
 40
0.9881295458
 40
0.9938032015
 40
1.0
 40
1.0
 40
1.0
 40
1.0
 10
2016.10530386731
 20
570.9613142741759
 30
0.0
 10
2015.763235142111
 20
570.9287983581758
 30
0.0
 10
2015.10617730251
 20
570.8825411093762
 30
0.0
 10
2014.17052209611
 20
570.8356577057761
 30
0.0
 10
2013.343050778511
 20
570.777624675376
 30
0.0
 10
2012.64209139091
 20
570.7162395989757
 30
0.0
 10
2012.08113376811
 20
570.6608578213758
 30
0.0
 10
2011.70719590491
 20
570.621382243376
 30
0.0
 10
2011.485727357311
 20
570.5979408093758
 30
0.0
 10
2011.390344283311
 20
570.5868102345761
 30
0.0
 10
2011.33378837931
 20
570.5747522197757
 30
0.0
 10
2011.30502223891
 20
570.5669132521757
 30
0.0
 10
2011.284444298111
 20
570.5526117637759
 30
0.0
 10
2011.28496842851
 20
570.542610343376
 30
0.0
  0
SPLINE
  5
3AF3
330
1F
100
AcDbEntity
  8
0
  6
Continuous
 62
     9
100
AcDbSpline
210
0.0
220
0.0
230
1.0
 70
     8
 71
     3
 72
    14
 73
    10
 74
     0
 42
0.000000001
 43
0.0000000001
 40
0.0
 40
0.0
 40
0.0
 40
0.0
 40
0.1254843678
 40
0.250210934
 40
0.3744371569
 40
0.4985967201000001
 40
0.623144661
 40
0.7483712724
 40
1.0
 40
1.0
 40
1.0
 40
1.0
 10
1988.88980215611
 20
632.0810889469762
 30
0.0
 10
1987.94183635491
 20
632.0809860649756
 30
0.0
 10
1986.04432669811
 20
631.857575206976
 30
0.0
 10
1983.36340494251
 20
630.8869492397757
 30
0.0
 10
1980.963078138911
 20
629.3700080177755
 30
0.0
 10
1978.91727162771
 20
627.4080318561759
 30
0.0
 10
1977.26569907491
 20
625.0965500805764
 30
0.0
 10
1975.62095473651
 20
621.669911725376
 30
0.0
 10
1975.04054817011
 20
618.8173947437758
 30
0.0
 10
1974.95365580531
 20
616.9184642469758
 30
0.0
  0
LINE
  5
3AF4
330
1F
100
AcDbEntity
  8
0
  6
Continuous
 62
     9
100
AcDbLine
 10
1974.95365580531
 20
616.9184642469758
 30
0.0
 11
1972.85292777691
 21
570.9612959785759
 31
0.0
  0
SPLINE
  5
3AF5
330
1F
100
AcDbEntity
  8
0
  6
Continuous
 62
     9
100
AcDbSpline
210
0.0
220
0.0
230
1.0
 70
     8
 71
     3
 72
    13
 73
     9
 74
     0
 42
0.000000001
 43
0.0000000001
 40
0.0
 40
0.0
 40
0.0
 40
0.0
 40
0.2338675313
 40
0.4731923448
 40
0.5972546325
 40
0.7255447884000001
 40
0.8593728373000001
 40
1.0
 40
1.0
 40
1.0
 40
1.0
 10
1939.879135658509
 20
513.4810889469759
 30
0.0
 10
1939.87921642011
 20
518.9081529185755
 30
0.0
 10
1941.12756884251
 20
529.9266903645762
 30
0.0
 10
1945.90768642651
 20
543.0938237861759
 30
0.0
 10
1951.80633602451
 20
552.8964644137763
 30
0.0
 10
1957.48760893891
 20
559.8715003505763
 30
0.0
 10
1964.47745017291
 20
566.1349562537757
 30
0.0
 10
1969.92776014211
 20
569.5146186029756
 30
0.0
 10
1972.85292777691
 20
570.9612959785759
 30
0.0
  0
SPLINE
  5
3AF6
330
1F
100
AcDbEntity
  8
0
  6
Continuous
 62
     9
100
AcDbSpline
210
0.0
220
0.0
230
1.0
 70
     8
 71
     3
 72
    25
 73
    21
 74
     0
 42
0.000000001
 43
0.0000000001
 40
0.0
 40
0.0
 40
0.0
 40
0.0
 40
0.0004278805
 40
0.0017027555
 40
0.0038117463
 40
0.0067419797
 40
0.0150147066
 40
0.0264158464
 40
0.0407895039
 40
0.0579292204
 40
0.0776267712
 40
0.0996761581
 40
0.1500839468
 40
0.2077178375
 40
0.2713463164
 40
0.3400460943
 40
0.4896581396000001
 40
0.6519802995
 40
0.8233962084999999
 40
1.0
 40
1.0
 40
1.0
 40
1.0
 10
1977.67330280211
 20
570.5426086841757
 30
0.0
 10
1977.67377870451
 20
570.5439091209759
 30
0.0
 10
1977.67922668091
 20
570.5466775269756
 30
0.0
 10
1977.687133450911
 20
570.5557726033762
 30
0.0
 10
1977.70311026731
 20
570.568881677776
 30
0.0
 10
1977.734874673311
 20
570.5977997457762
 30
0.0
 10
1977.78998684771
 20
570.6460546033763
 30
0.0
 10
1977.87257864931
 20
570.7189279337758
 30
0.0
 10
1977.97728493611
 20
570.8102041985762
 30
0.0
 10
1978.10270541811
 20
570.9185411449757
 30
0.0
 10
1978.24768907811
 20
571.0422404089763
 30
0.0
 10
1978.47584520891
 20
571.2343257093757
 30
0.0
 10
1978.80108284771
 20
571.5017188013757
 30
0.0
 10
1979.23660669971
 20
571.8467355109756
 30
0.0
 10
1979.72654117611
 20
572.2182169853763
 30
0.0
 10
1980.46660316931
 20
572.7521027205762
 30
0.0
 10
1981.49498949091
 20
573.4316347933758
 30
0.0
 10
1982.85327652571
 20
574.2100968441759
 30
0.0
 10
1984.34503818091
 20
574.9229883013763
 30
0.0
 10
1985.40091909131
 20
575.3202497433762
 30
0.0
 10
1985.94454764251
 20
575.4967270641759
 30
0.0
  0
SPLINE
  5
3AF7
330
1F
100
AcDbEntity
  8
0
  6
Continuous
 62
     9
100
AcDbSpline
210
0.0
220
0.0
230
1.0
 70
     8
 71
     3
 72
    24
 73
    20
 74
     0
 42
0.000000001
 43
0.0000000001
 40
0.0
 40
0.0
 40
0.0
 40
0.0
 40
0.1766036864
 40
0.3480194924
 40
0.5103416126
 40
0.6599535857
 40
0.7286534562
 40
0.7922820324
 40
0.8499160856999999
 40
0.9003239613999999
 40
0.9420706639
 40
0.9592103837999999
 40
0.9735840735
 40
0.9849852806999999
 40
0.9932580510999999
 40
0.9961882921999999
 40
0.9982972807999999
 40
0.9995721430999999
 40
1.0
 40
1.0
 40
1.0
 40
1.0
 10
2003.01372093371
 20
575.4967280741762
 30
0.0
 10
2003.55734928691
 20
575.3202511809763
 30
0.0
 10
2004.61322894651
 20
574.9229883485754
 30
0.0
 10
2006.104991434911
 20
574.2101003841757
 30
0.0
 10
2007.463276694511
 20
573.4316363697757
 30
0.0
 10
2008.491663984511
 20
572.7521061065758
 30
0.0
 10
2009.23172668771
 20
572.2182202701755
 30
0.0
 10
2009.721660578511
 20
571.8467369337763
 30
0.0
 10
2010.157189315711
 20
571.5017221065759
 30
0.0
 10
2010.53166029371
 20
571.1938342009757
 30
0.0
 10
2010.80155970691
 20
570.9651837833757
 30
0.0
 10
2010.98098783571
 20
570.8102064221761
 30
0.0
 10
2011.08568677931
 20
570.7189266489763
 30
0.0
 10
2011.168297626911
 20
570.6460603853761
 30
0.0
 10
2011.223370480911
 20
570.5977895401761
 30
0.0
 10
2011.25518888411
 20
570.5688926881761
 30
0.0
 10
2011.27107587531
 20
570.5557481029759
 30
0.0
 10
2011.27914264531
 20
570.5467165077757
 30
0.0
 10
2011.28442375731
 20
570.5438822041755
 30
0.0
 10
2011.28496849131
 20
570.542609147376
 30
0.0
  0
SPLINE
  5
3AF8
330
1F
100
AcDbEntity
  8
0
  6
Continuous
 62
     9
100
AcDbSpline
210
0.0
220
0.0
230
1.0
 70
     8
 71
     3
 72
    14
 73
    10
 74
     0
 42
0.000000001
 43
0.0000000001
 40
0.0
 40
0.0
 40
0.0
 40
0.0
 40
0.2752468259
 40
0.4086311822
 40
0.5371080489
 40
0.6599554394
 40
0.7772487075
 40
0.8900491220999999
 40
1.0
 40
1.0
 40
1.0
 40
1.0
 10
2068.90704409931
 20
461.7943109977755
 30
0.0
 10
2069.91757309451
 20
461.7948836909759
 30
0.0
 10
2071.432764948911
 20
461.5710775609755
 30
0.0
 10
2073.26596033011
 20
460.8271788377756
 30
0.0
 10
2074.473502904511
 20
460.0796996917757
 30
0.0
 10
2075.47982056131
 20
459.1624461297755
 30
0.0
 10
2076.24813277011
 20
458.1066928893756
 30
0.0
 10
2076.74588496971
 20
456.9502311517758
 30
0.0
 10
2076.88415147851
 20
456.1345579589755
 30
0.0
 10
2076.90205672771
 20
455.7312864157761
 30
0.0
  0
SPLINE
  5
3AF9
330
1F
100
AcDbEntity
  8
0
  6
Continuous
 62
     9
100
AcDbSpline
210
0.0
220
0.0
230
1.0
 70
     8
 71
     3
 72
    15
 73
    11
 74
     0
 42
0.000000001
 43
0.0000000001
 40
0.0
 40
0.0
 40
0.0
 40
0.0
 40
0.3617186346
 40
0.5265255332
 40
0.6728667976999999
 40
0.7957747356999999
 40
0.8915526295999999
 40
0.9286761348
 40
0.9586627859
 40
1.0
 40
1.0
 40
1.0
 40
1.0
 10
2069.01742084411
 20
510.0484392181756
 30
0.0
 10
2070.01735800371
 20
510.0443699701759
 30
0.0
 10
2071.47368699531
 20
509.990934910576
 30
0.0
 10
2073.32552317731
 20
509.8111573073761
 30
0.0
 10
2074.51355708411
 20
509.6386676841762
 30
0.0
 10
2075.501909157711
 20
509.4301801329761
 30
0.0
 10
2076.17935349771
 20
509.223706778976
 30
0.0
 10
2076.59077062051
 20
509.0335094269762
 30
0.0
 10
2076.84164846971
 20
508.8774789277763
 30
0.0
 10
2076.99125367291
 20
508.7174013933759
 30
0.0
 10
2077.012546363711
 20
508.6051288677758
 30
0.0
  0
SPLINE
  5
3AFA
330
1F
100
AcDbEntity
  8
0
  6
Continuous
 62
     9
100
AcDbSpline
210
0.0
220
0.0
230
1.0
 70
     8
 71
     3
 72
    14
 73
    10
 74
     0
 42
0.000000001
 43
0.0000000001
 40
0.0
 40
0.0
 40
0.0
 40
0.0
 40
0.3031457198
 40
0.4462487867
 40
0.5795753202000001
 40
0.7011464429
 40
0.8104089137999999
 40
0.9088220520999998
 40
1.0
 40
1.0
 40
1.0
 40
1.0
 10
2068.929876228111
 20
516.1646671101757
 30
0.0
 10
2069.939618393711
 20
516.1789228421762
 30
0.0
 10
2071.43272299491
 20
516.3609459929761
 30
0.0
 10
2073.27857156411
 20
516.9403978161758
 30
0.0
 10
2074.48238248691
 20
517.5078258945764
 30
0.0
 10
2075.48788046931
 20
518.1974502841763
 30
0.0
 10
2076.26018200731
 20
518.988776745376
 30
0.0
 10
2076.76670854011
 20
519.8596010353762
 30
0.0
 10
2076.90914038331
 20
520.4881386453758
 30
0.0
 10
2076.92491278731
 20
520.7914619645757
 30
0.0
  0
SPLINE
  5
3AFB
330
1F
100
AcDbEntity
  8
0
  6
Continuous
 62
     9
100
AcDbSpline
210
0.0
220
0.0
230
1.0
 70
     8
 71
     3
 72
    14
 73
    10
 74
     0
 42
0.000000001
 43
0.0000000001
 40
0.0
 40
0.0
 40
0.0
 40
0.0
 40
0.3049232625
 40
0.4481249575
 40
0.5811052345000001
 40
0.7020320487000001
 40
0.8105905004999998
 40
0.9085794112
 40
1.0
 40
1.0
 40
1.0
 40
1.0
 10
2069.06946802971
 20
581.2456309341755
 30
0.0
 10
2070.076734801711
 20
581.2293652125759
 30
0.0
 10
2071.56892746091
 20
581.3650860133761
 30
0.0
 10
2073.41983459971
 20
581.8903270953756
 30
0.0
 10
2074.62479702011
 20
582.4222698613762
 30
0.0
 10
2075.63127109011
 20
583.0830086673763
 30
0.0
 10
2076.40419299171
 20
583.8534614293762
 30
0.0
 10
2076.91001118091
 20
584.7125911197759
 30
0.0
 10
2077.049695200911
 20
585.3360681489761
 30
0.0
 10
2077.064594608511
 20
585.6377335577758
 30
0.0
  0
LINE
  5
3AFC
330
1F
100
AcDbEntity
  8
0
  6
Continuous
 62
     9
100
AcDbLine
 10
2077.373508514111
 20
599.0018193633755
 30
0.0
 11
2077.309094850911
 21
596.0952267285761
 31
0.0
  0
SPLINE
  5
3AFD
330
1F
100
AcDbEntity
  8
0
  6
Continuous
 62
     9
100
AcDbSpline
210
0.0
220
0.0
230
1.0
 70
     8
 71
     3
 72
     9
 73
     5
 74
     0
 42
0.000000001
 43
0.0000000001
 40
0.0
 40
0.0
 40
0.0
 40
0.0
 40
0.188595459
 40
1.0
 40
1.0
 40
1.0
 40
1.0
 10
2077.309094850911
 20
596.0952267285761
 30
0.0
 10
2077.29436479051
 20
595.4378001085756
 30
0.0
 10
2077.21567814051
 20
591.9519041929756
 30
0.0
 10
2077.13367011691
 20
588.4660825053756
 30
0.0
 10
2077.06459464571
 20
585.6377335565762
 30
0.0
  0
SPLINE
  5
3AFE
330
1F
100
AcDbEntity
  8
0
  6
Continuous
 62
     9
100
AcDbSpline
210
0.0
220
0.0
230
1.0
 70
     8
 71
     3
 72
    10
 73
     6
 74
     0
 42
0.000000001
 43
0.0000000001
 40
0.0
 40
0.0
 40
0.0
 40
0.0
 40
0.5003839658000001
 40
0.7502756570999999
 40
1.0
 40
1.0
 40
1.0
 40
1.0
 10
2077.06459464571
 20
585.6377335565762
 30
0.0
 10
2076.800260806111
 20
574.8239916317756
 30
0.0
 10
2076.529716995711
 20
558.6054259197758
 30
0.0
 10
2076.62583684491
 20
536.9876552429764
 30
0.0
 10
2076.80933532931
 20
526.1885992837756
 30
0.0
 10
2076.92500284411
 20
520.791461643776
 30
0.0
  0
SPLINE
  5
3AFF
330
1F
100
AcDbEntity
  8
0
  6
Continuous
 62
     9
100
AcDbSpline
210
0.0
220
0.0
230
1.0
 70
     8
 71
     3
 72
     9
 73
     5
 74
     0
 42
0.000000001
 43
0.0000000001
 40
0.0
 40
0.0
 40
0.0
 40
0.0
 40
0.4772091383000001
 40
1.0
 40
1.0
 40
1.0
 40
1.0
 10
2076.92500284411
 20
520.791461643776
 30
0.0
 10
2076.96644749611
 20
518.8533427649758
 30
0.0
 10
2077.01581335891
 20
514.7911947757761
 30
0.0
 10
2077.021458363311
 20
510.7288383121763
 30
0.0
 10
2077.01254746011
 20
508.605128870176
 30
0.0
  0
SPLINE
  5
3B00
330
1F
100
AcDbEntity
  8
0
  6
Continuous
 62
     9
100
AcDbSpline
210
0.0
220
0.0
230
1.0
 70
     8
 71
     3
 72
    18
 73
    14
 74
     0
 42
0.000000001
 43
0.0000000001
 40
0.0
 40
0.0
 40
0.0
 40
0.0
 40
0.2276978299
 40
0.4284397965000001
 40
0.6005361395000001
 40
0.7428541279000001
 40
0.8544556363999999
 40
0.8985120366
 40
0.9346331929999999
 40
0.9627588589
 40
0.9828908064
 40
0.9951079307999998
 40
1.0
 40
1.0
 40
1.0
 40
1.0
 10
2076.902170715311
 20
455.7312895993759
 30
0.0
 10
2076.90253555051
 20
455.4723421257762
 30
0.0
 10
2076.90245352491
 20
454.9850984109757
 30
0.0
 10
2076.89942375091
 20
454.3021560177762
 30
0.0
 10
2076.893456270111
 20
453.7162982017758
 30
0.0
 10
2076.88465462131
 20
453.2319605677762
 30
0.0
 10
2076.874486669311
 20
452.8930614741762
 30
0.0
 10
2076.86436651331
 20
452.6754413349758
 30
0.0
 10
2076.85649212091
 20
452.5519892253755
 30
0.0
 10
2076.84870308091
 20
452.457713285376
 30
0.0
 10
2076.83896159971
 20
452.3864108485764
 30
0.0
 10
2076.83228251891
 20
452.3503775509757
 30
0.0
 10
2076.82220120331
 20
452.3259595089761
 30
0.0
 10
2076.816663624111
 20
452.3264956273756
 30
0.0
  0
LINE
  5
3B01
330
1F
100
AcDbEntity
  8
0
  6
Continuous
 62
     9
100
AcDbLine
 10
2076.816663624111
 20
452.3264956273756
 30
0.0
 11
2076.521444217711
 21
452.360284920976
 31
0.0
  0
SPLINE
  5
3B02
330
1F
100
AcDbEntity
  8
0
  6
Continuous
 62
     9
100
AcDbSpline
210
0.0
220
0.0
230
1.0
 70
     8
 71
     3
 72
    10
 73
     6
 74
     0
 42
0.000000001
 43
0.0000000001
 40
0.0
 40
0.0
 40
0.0
 40
0.0
 40
0.5000005703000001
 40
0.7499948234
 40
1.0
 40
1.0
 40
1.0
 40
1.0
 10
2069.06944970931
 20
581.2448412105754
 30
0.0
 10
2068.80469480051
 20
570.4004501305758
 30
0.0
 10
2068.53461161011
 20
554.1295336553762
 30
0.0
 10
2068.63074861731
 20
532.4338925477754
 30
0.0
 10
2068.814128758511
 20
521.5876020317759
 30
0.0
 10
2068.929871747711
 20
516.1649197617757
 30
0.0
  0
SPLINE
  5
3B03
330
1F
100
AcDbEntity
  8
0
  6
Continuous
 62
     9
100
AcDbSpline
210
0.0
220
0.0
230
1.0
 70
     8
 71
     3
 72
     9
 73
     5
 74
     0
 42
0.000000001
 43
0.0000000001
 40
0.0
 40
0.0
 40
0.0
 40
0.0
 40
0.4940860514
 40
1.0
 40
1.0
 40
1.0
 40
1.0
 10
2051.412628068911
 20
581.245197288576
 30
0.0
 10
2049.853047982911
 20
576.4759755733762
 30
0.0
 10
2046.01662531291
 20
567.0307061837761
 30
0.0
 10
2040.696192832111
 20
558.3052725729762
 30
0.0
 10
2037.60608001291
 20
554.2005368425757
 30
0.0
  0
SPLINE
  5
3B04
330
1F
100
AcDbEntity
  8
0
  6
Continuous
 62
     9
100
AcDbSpline
210
0.0
220
0.0
230
1.0
 70
     8
 71
     3
 72
    15
 73
    11
 74
     0
 42
0.000000001
 43
0.0000000001
 40
0.0
 40
0.0
 40
0.0
 40
0.0
 40
0.1336405015
 40
0.263649103
 40
0.3899783097
 40
0.5132293242000001
 40
0.6344325768
 40
0.7548949993999999
 40
0.8761593352
 40
1.0
 40
1.0
 40
1.0
 40
1.0
 10
2056.88744627891
 20
510.0478651421759
 30
0.0
 10
2056.63732196651
 20
507.150210897776
 30
0.0
 10
2055.65950907811
 20
501.4638015089762
 30
0.0
 10
2052.86175771291
 20
493.4147255453758
 30
0.0
 10
2048.96157958691
 20
486.0964201349757
 30
0.0
 10
2044.15388073051
 20
479.5821290129756
 30
0.0
 10
2038.588525299711
 20
473.883428274576
 30
0.0
 10
2032.36130928091
 20
468.9891198945757
 30
0.0
 10
2025.51948121851
 20
464.8905546897763
 30
0.0
 10
2020.62468023411
 20
462.7302866693757
 30
0.0
 10
2018.09728087051
 20
461.7942780553762
 30
0.0
  0
SPLINE
  5
3B05
330
1F
100
AcDbEntity
  8
0
  6
Continuous
 62
     9
100
AcDbSpline
210
0.0
220
0.0
230
1.0
 70
     8
 71
     3
 72
    11
 73
     7
 74
     0
 42
0.000000001
 43
0.0000000001
 40
0.0
 40
0.0
 40
0.0
 40
0.0
 40
0.1966925209
 40
0.4201836309000001
 40
0.6864136157999999
 40
1.0
 40
1.0
 40
1.0
 40
1.0
 10
2015.078939656511
 20
462.9162022853757
 30
0.0
 10
2015.284165384111
 20
462.9998094185761
 30
0.0
 10
2015.76849728251
 20
463.075146094176
 30
0.0
 10
2016.533249171311
 20
462.892169912176
 30
0.0
 10
2017.33289102331
 20
462.4533486865762
 30
0.0
 10
2017.839639824911
 20
462.0360614073756
 30
0.0
 10
2018.097227193311
 20
461.7942555697759
 30
0.0
  0
SPLINE
  5
3B06
330
1F
100
AcDbEntity
  8
0
  6
Continuous
 62
     9
100
AcDbSpline
210
0.0
220
0.0
230
1.0
 70
     8
 71
     3
 72
    18
 73
    14
 74
     0
 42
0.000000001
 43
0.0000000001
 40
0.0
 40
0.0
 40
0.0
 40
0.0
 40
0.0177838926
 40
0.0396810201
 40
0.067928071
 40
0.1034361614
 40
0.146431891
 40
0.1968613731
 40
0.3187202568
 40
0.4654182663000001
 40
0.6318771555
 40
0.8123371169
 40
1.0
 40
1.0
 40
1.0
 40
1.0
 10
2048.91200287731
 20
509.2124631717756
 30
0.0
 10
2048.91581593691
 20
509.261093739376
 30
0.0
 10
2048.957587789711
 20
509.367336402976
 30
0.0
 10
2049.09374960731
 20
509.4988229777759
 30
0.0
 10
2049.29707583291
 20
509.6188309473759
 30
0.0
 10
2049.569306297311
 20
509.7286200349758
 30
0.0
 10
2049.908951514511
 20
509.828468144176
 30
0.0
 10
2050.486220788111
 20
509.954516023376
 30
0.0
 10
2051.35459664771
 20
510.0711660393758
 30
0.0
 10
2052.54548813811
 20
510.1527192717762
 30
0.0
 10
2053.89969740011
 20
510.1782203001762
 30
0.0
 10
2055.36598384491
 20
510.146079190576
 30
0.0
 10
2056.374261338911
 20
510.0873460869756
 30
0.0
 10
2056.887533402111
 20
510.0484383861762
 30
0.0
  0
SPLINE
  5
3B07
330
1F
100
AcDbEntity
  8
0
  6
Continuous
 62
     9
100
AcDbSpline
210
0.0
220
0.0
230
1.0
 70
     8
 71
     3
 72
    12
 73
     8
 74
     0
 42
0.000000001
 43
0.0000000001
 40
0.0
 40
0.0
 40
0.0
 40
0.0
 40
0.3043247959
 40
0.5704385982
 40
0.7976231538
 40
0.9007160241999999
 40
1.0
 40
1.0
 40
1.0
 40
1.0
 10
2032.09465138051
 20
558.8553818857758
 30
0.0
 10
2031.81508798291
 20
558.295538935376
 30
0.0
 10
2031.37750540851
 20
557.197682182576
 30
0.0
 10
2031.11079101491
 20
555.564158657376
 30
0.0
 10
2031.284146255311
 20
554.319584977376
 30
0.0
 10
2031.679026859711
 20
553.5219890729763
 30
0.0
 10
2031.94667682091
 20
553.1973959169759
 30
0.0
 10
2032.09465148651
 20
553.0567501997762
 30
0.0
  0
SPLINE
  5
3B08
330
1F
100
AcDbEntity
  8
0
  6
Continuous
 62
     9
100
AcDbSpline
210
0.0
220
0.0
230
1.0
 70
     8
 71
     3
 72
    15
 73
    11
 74
     0
 42
0.000000001
 43
0.0000000001
 40
0.0
 40
0.0
 40
0.0
 40
0.0
 40
0.068303987
 40
0.1482708775
 40
0.2463686963
 40
0.3645656088
 40
0.5020166682000001
 40
0.6561846164000001
 40
0.8236594702999999
 40
1.0
 40
1.0
 40
1.0
 40
1.0
 10
2016.10531453731
 20
563.6155910321763
 30
0.0
 10
2015.942368361311
 20
563.6858802077754
 30
0.0
 10
2015.62690896371
 20
563.9337824845756
 30
0.0
 10
2015.31921013171
 20
564.5076365857762
 30
0.0
 10
2015.14027008051
 20
565.2617529569757
 30
0.0
 10
2015.086887794911
 20
566.1825671581759
 30
0.0
 10
2015.159256514911
 20
567.2469202229763
 30
0.0
 10
2015.355537837711
 20
568.4249896401756
 30
0.0
 10
2015.67058319091
 20
569.6810477549757
 30
0.0
 10
2015.94871292891
 20
570.5307571581756
 30
0.0
 10
2016.10530386731
 20
570.9613142741759
 30
0.0
  0
SPLINE
  5
3B09
330
1F
100
AcDbEntity
  8
0
  6
Continuous
 62
     9
100
AcDbSpline
210
0.0
220
0.0
230
1.0
 70
     8
 71
     3
 72
    14
 73
    10
 74
     0
 42
0.000000001
 43
0.0000000001
 40
0.0
 40
0.0
 40
0.0
 40
0.0
 40
0.0919080889
 40
0.1898166255
 40
0.2978573207
 40
0.4180715362
 40
0.5504303034
 40
0.6933893927
 40
1.0
 40
1.0
 40
1.0
 40
1.0
 10
2048.702725596911
 20
519.8817295593758
 30
0.0
 10
2048.736958532511
 20
519.5916558441763
 30
0.0
 10
2048.90968477371
 20
519.0008263465756
 30
0.0
 10
2049.44598075051
 20
518.2062045961761
 30
0.0
 10
2050.23130412571
 20
517.5157039801757
 30
0.0
 10
2051.23321307651
 20
516.9464300773756
 30
0.0
 10
2052.41857811171
 20
516.5132828693763
 30
0.0
 10
2054.23101819971
 20
516.1255485865763
 30
0.0
 10
2055.67605081691
 20
516.0888153141754
 30
0.0
 10
2056.64751235811
 20
516.1646621061759
 30
0.0
  0
SPLINE
  5
3B0A
330
1F
100
AcDbEntity
  8
0
  6
Continuous
 62
     9
100
AcDbSpline
210
0.0
220
0.0
230
1.0
 70
     8
 71
     3
 72
    15
 73
    11
 74
     0
 42
0.000000001
 43
0.0000000001
 40
0.0
 40
0.0
 40
0.0
 40
0.0
 40
0.1763417524
 40
0.3438177247
 40
0.4979862991
 40
0.6354379314000001
 40
0.7536350717
 40
0.8517330031999998
 40
0.9316986577999999
 40
1.0
 40
1.0
 40
1.0
 40
1.0
 10
1972.85291484331
 20
570.961275392176
 30
0.0
 10
1973.009502605711
 20
570.5307168725762
 30
0.0
 10
1973.28760567771
 20
569.680998064176
 30
0.0
 10
1973.60263770331
 20
568.4249383877763
 30
0.0
 10
1973.79892852531
 20
567.246872086976
 30
0.0
 10
1973.87129603691
 20
566.1825223049759
 30
0.0
 10
1973.81792283051
 20
565.2617108877762
 30
0.0
 10
1973.63898503611
 20
564.5076019437761
 30
0.0
 10
1973.33130591051
 20
563.9337545849762
 30
0.0
 10
1973.01586033731
 20
563.6858537741759
 30
0.0
 10
1972.85292145971
 20
563.6155679053758
 30
0.0
  0
SPLINE
  5
3B0B
330
1F
100
AcDbEntity
  8
0
  6
Continuous
 62
     9
100
AcDbSpline
210
0.0
220
0.0
230
1.0
 70
     8
 71
     3
 72
    13
 73
     9
 74
     0
 42
0.000000001
 43
0.0000000001
 40
0.0
 40
0.0
 40
0.0
 40
0.0
 40
0.1738644836
 40
0.2766955699
 40
0.3929309047
 40
0.5241700267000001
 40
0.6703789766
 40
1.0
 40
1.0
 40
1.0
 40
1.0
 10
2032.09465148651
 20
553.0567501997762
 30
0.0
 10
2032.34615850051
 20
552.8177006221763
 30
0.0
 10
2032.890163879711
 20
552.5846380033758
 30
0.0
 10
2033.674696764911
 20
552.5471514665755
 30
0.0
 10
2034.37123083491
 20
552.6449642237762
 30
0.0
 10
2035.12704440771
 20
552.8660903901759
 30
0.0
 10
2036.24699775651
 20
553.3315933189755
 30
0.0
 10
2037.07310795371
 20
553.8149333897758
 30
0.0
 10
2037.606079975311
 20
554.2005368397763
 30
0.0
  0
SPLINE
  5
3B0C
330
1F
100
AcDbEntity
  8
0
  6
Continuous
 62
     9
100
AcDbSpline
210
0.0
220
0.0
230
1.0
 70
     8
 71
     3
 72
    13
 73
     9
 74
     0
 42
0.000000001
 43
0.0000000001
 40
0.0
 40
0.0
 40
0.0
 40
0.0
 40
0.237331503
 40
0.3624365133
 40
0.4900734456000001
 40
0.6189869179000001
 40
0.7480034828000001
 40
1.0
 40
1.0
 40
1.0
 40
1.0
 10
2032.09465138051
 20
558.8553818857758
 30
0.0
 10
2032.41752982931
 20
558.3783462829756
 30
0.0
 10
2032.98262030571
 20
557.6980346405758
 30
0.0
 10
2033.82179425771
 20
556.8550638981755
 30
0.0
 10
2034.51105121131
 20
556.2352831157754
 30
0.0
 10
2035.243033087711
 20
555.6512350265761
 30
0.0
 10
2036.25956959731
 20
554.9439330461759
 30
0.0
 10
2037.06348422731
 20
554.4828072389759
 30
0.0
 10
2037.606079975311
 20
554.2005368397763
 30
0.0
  0
SPLINE
  5
3B0D
330
1F
100
AcDbEntity
  8
0
  6
Continuous
 62
     9
100
AcDbSpline
210
0.0
220
0.0
230
1.0
 70
     8
 71
     3
 72
     9
 73
     5
 74
     0
 42
0.000000001
 43
0.0000000001
 40
0.0
 40
0.0
 40
0.0
 40
0.0
 40
0.4773569432000001
 40
1.0
 40
1.0
 40
1.0
 40
1.0
 10
2068.92986784531
 20
516.1649197589763
 30
0.0
 10
2068.97142716091
 20
515.1923509421762
 30
0.0
 10
2069.02059047651
 20
513.1533639113763
 30
0.0
 10
2069.026401858911
 20
511.1139704157762
 30
0.0
 10
2069.017419912911
 20
510.0482016097762
 30
0.0
  0
SPLINE
  5
3B0E
330
1F
100
AcDbEntity
  8
0
  6
Continuous
 62
     9
100
AcDbSpline
210
0.0
220
0.0
230
1.0
 70
     8
 71
     3
 72
     9
 73
     5
 74
     0
 42
0.000000001
 43
0.0000000001
 40
0.0
 40
0.0
 40
0.0
 40
0.0
 40
0.4779319597
 40
1.0
 40
1.0
 40
1.0
 40
1.0
 10
2056.64750977731
 20
516.1647100329759
 30
0.0
 10
2056.87293628331
 20
515.2111212101758
 30
0.0
 10
2057.16652001931
 20
513.1691511201757
 30
0.0
 10
2057.05341859451
 20
511.105283086576
 30
0.0
 10
2056.88746658931
 20
510.0478651461758
 30
0.0
  0
SPLINE
  5
3B0F
330
1F
100
AcDbEntity
  8
0
  6
Continuous
 62
     9
100
AcDbSpline
210
0.0
220
0.0
230
1.0
 70
     8
 71
     3
 72
    14
 73
    10
 74
     0
 42
0.000000001
 43
0.0000000001
 40
0.0
 40
0.0
 40
0.0
 40
0.0
 40
0.4257709508
 40
0.5969636683
 40
0.7387073772
 40
0.850114443
 40
0.9305751791
 40
0.9798693884999998
 40
1.0
 40
1.0
 40
1.0
 40
1.0
 10
2068.90704516771
 20
461.7945031633758
 30
0.0
 10
2068.907769766111
 20
461.5498601961758
 30
0.0
 10
2068.90685678971
 20
461.2066174665756
 30
0.0
 10
2068.898385634911
 20
460.7827019221763
 30
0.0
 10
2068.889364234911
 20
460.5380457237756
 30
0.0
 10
2068.87850632291
 20
460.3492266229754
 30
0.0
 10
2068.863424156911
 20
460.2054027801755
 30
0.0
 10
2068.85077459291
 20
460.1312338209758
 30
0.0
 10
2068.83309443811
 20
460.0810959285759
 30
0.0
 10
2068.82152757731
 20
460.0810889537756
 30
0.0
  0
SPLINE
  5
3B10
330
1F
100
AcDbEntity
  8
0
  6
Continuous
 62
     9
100
AcDbSpline
210
0.0
220
0.0
230
1.0
 70
     8
 71
     3
 72
    11
 73
     7
 74
     0
 42
0.000000001
 43
0.0000000001
 40
0.0
 40
0.0
 40
0.0
 40
0.0
 40
0.2110337883
 40
0.4562117816
 40
0.7245312267
 40
1.0
 40
1.0
 40
1.0
 40
1.0
 10
2044.13693226171
 20
585.9004782641754
 30
0.0
 10
2044.428275266911
 20
585.3492176209761
 30
0.0
 10
2045.28167642811
 20
584.2756449065759
 30
0.0
 10
2046.98498414771
 20
582.957657182576
 30
0.0
 10
2049.073821216111
 20
581.8956634421761
 30
0.0
 10
2050.61730379891
 20
581.4177076921756
 30
0.0
 10
2051.41279581291
 20
581.245629426176
 30
0.0
  0
LINE
  5
3B11
330
1F
100
AcDbEntity
  8
02___PRT_ALL_AXES
  6
Continuous
 62
     7
100
AcDbLine
 10
2338.912623539711
 20
603.4044277461758
 30
0.0
 11
2339.27913565811
 21
603.4810889465757
 31
0.0
  0
SPLINE
  5
3B12
330
1F
100
AcDbEntity
  8
02___PRT_ALL_AXES
  6
Continuous
 62
     7
100
AcDbSpline
210
0.0
220
0.0
230
1.0
 70
     8
 71
     3
 72
     9
 73
     5
 74
     0
 42
0.000000001
 43
0.0000000001
 40
0.0
 40
0.0
 40
0.0
 40
0.0
 40
0.5828319888
 40
1.0
 40
1.0
 40
1.0
 40
1.0
 10
2320.27913565851
 20
601.4526752689757
 30
0.0
 10
2316.99259438371
 20
601.4526752689757
 30
0.0
 10
2311.348350010911
 20
601.7716464977761
 30
0.0
 10
2305.76743584491
 20
602.6125724377757
 30
0.0
 10
2303.45549940611
 20
603.0468787605755
 30
0.0
  0
SPLINE
  5
3B13
330
1F
100
AcDbEntity
  8
02___PRT_ALL_AXES
  6
Continuous
 62
     7
100
AcDbSpline
210
0.0
220
0.0
230
1.0
 70
     8
 71
     3
 72
    18
 73
    14
 74
     0
 42
0.000000001
 43
0.0000000001
 40
0.0
 40
0.0
 40
0.0
 40
0.0
 40
0.2300363333
 40
0.4314841904
 40
0.6034877506000001
 40
0.7453470311000001
 40
0.8563674012999999
 40
0.9001255195
 40
0.9359973936999999
 40
0.9639519149999999
 40
0.9839579564
 40
0.9959843725
 40
1.0
 40
1.0
 40
1.0
 40
1.0
 10
2303.45549940611
 20
603.0468787605755
 30
0.0
 10
2303.28825152931
 20
603.0782969297757
 30
0.0
 10
2302.97469212571
 20
603.1380665493757
 30
0.0
 10
2302.53657049171
 20
603.2237429937763
 30
0.0
 10
2302.16269157611
 20
603.298466300976
 30
0.0
 10
2301.85486141171
 20
603.361122360176
 30
0.0
 10
2301.63958607691
 20
603.4057028777756
 30
0.0
 10
2301.50207876011
 20
603.4341738437756
 30
0.0
 10
2301.42296883811
 20
603.4509944905762
 30
0.0
 10
2301.36539380411
 20
603.4623320101759
 30
0.0
 10
2301.31489713171
 20
603.4746578953758
 30
0.0
 10
2301.30124099811
 20
603.4745983725756
 30
0.0
 10
2301.27674223411
 20
603.4828485349757
 30
0.0
 10
2301.27913565931
 20
603.4810889465757
 30
0.0
  0
LINE
  5
3B14
330
1F
100
AcDbEntity
  8
02___PRT_ALL_AXES
  6
Continuous
 62
     7
100
AcDbLine
 10
2301.27913565931
 20
603.4810889465757
 30
0.0
 11
2301.64647772331
 21
603.4042558329761
 31
0.0
  0
SPLINE
  5
3B15
330
1F
100
AcDbEntity
  8
02___PRT_ALL_AXES
  6
Continuous
 62
     7
100
AcDbSpline
210
0.0
220
0.0
230
1.0
 70
     8
 71
     3
 72
    18
 73
    14
 74
     0
 42
0.000000001
 43
0.0000000001
 40
0.0
 40
0.0
 40
0.0
 40
0.0
 40
0.0040158137
 40
0.0160422141
 40
0.0360481311
 40
0.0640025126
 40
0.0998743243
 40
0.1436325502
 40
0.254653315
 40
0.3965123368
 40
0.5685156795000001
 40
0.7699638551000002
 40
1.0
 40
1.0
 40
1.0
 40
1.0
 10
2339.27913565811
 20
603.4810889465757
 30
0.0
 10
2339.27674213091
 20
603.479329283376
 30
0.0
 10
2339.26388788091
 20
603.4796394745758
 30
0.0
 10
2339.238999891311
 20
603.4714421289759
 30
0.0
 10
2339.19489404611
 20
603.4638143229763
 30
0.0
 10
2339.13450157811
 20
603.4504055637758
 30
0.0
 10
2339.05648078611
 20
603.4343854849762
 30
0.0
 10
2338.91845633331
 20
603.4055340561758
 30
0.0
 10
2338.703519280511
 20
603.3612012829758
 30
0.0
 10
2338.39554395451
 20
603.2984384517763
 30
0.0
 10
2338.021718986511
 20
603.2237542177758
 30
0.0
 10
2337.58358111331
 20
603.1380640349757
 30
0.0
 10
2337.270027526911
 20
603.0782982417763
 30
0.0
 10
2337.102780426911
 20
603.0468802853761
 30
0.0
  0
SPLINE
  5
3B16
330
1F
100
AcDbEntity
  8
02___PRT_ALL_AXES
  6
Continuous
 62
     7
100
AcDbSpline
210
0.0
220
0.0
230
1.0
 70
     8
 71
     3
 72
     9
 73
     5
 74
     0
 42
0.000000001
 43
0.0000000001
 40
0.0
 40
0.0
 40
0.0
 40
0.0
 40
0.4171672060000001
 40
1.0
 40
1.0
 40
1.0
 40
1.0
 10
2337.102780426911
 20
603.0468802853761
 30
0.0
 10
2334.790847107311
 20
602.6125754729759
 30
0.0
 10
2329.20993049451
 20
601.7716472233756
 30
0.0
 10
2323.56568314571
 20
601.4526752689757
 30
0.0
 10
2320.27913565851
 20
601.4526752689757
 30
0.0
  0
SPLINE
  5
3B17
330
1F
100
AcDbEntity
  8
0
  6
Continuous
 62
     9
100
AcDbSpline
210
0.0
220
0.0
230
1.0
 70
     8
 71
     3
 72
    14
 73
    10
 74
     0
 42
0.000000001
 43
0.0000000001
 40
0.0
 40
0.0
 40
0.0
 40
0.0
 40
0.1366040929
 40
0.269840197
 40
0.3988618845
 40
0.5242069556
 40
0.7663631426000001
 40
0.8842842194999999
 40
1.0
 40
1.0
 40
1.0
 40
1.0
 10
2303.324081184111
 20
392.6656817797761
 30
0.0
 10
2302.70794155251
 20
395.3089892413759
 30
0.0
 10
2300.90988500611
 20
400.4120558821759
 30
0.0
 10
2296.79057201091
 20
407.2355547701759
 30
0.0
 10
2291.68759013571
 20
413.0503000861758
 30
0.0
 10
2284.13342249531
 20
419.4366365445757
 30
0.0
 10
2275.691741325711
 20
424.2741353129758
 30
0.0
 10
2266.93047142931
 20
427.836727260576
 30
0.0
 10
2262.49705038931
 20
429.2349698261755
 30
0.0
 10
2260.27913565851
 20
429.840692150176
 30
0.0
  0
SPLINE
  5
3B18
330
1F
100
AcDbEntity
  8
0
  6
Continuous
 62
     9
100
AcDbSpline
210
0.0
220
0.0
230
1.0
 70
     8
 71
     3
 72
    14
 73
    10
 74
     0
 42
0.000000001
 43
0.0000000001
 40
0.0
 40
0.0
 40
0.0
 40
0.0
 40
0.141819832
 40
0.2788896127
 40
0.4098133703000001
 40
0.5352343971
 40
0.6562704734000001
 40
0.7738101542
 40
1.0
 40
1.0
 40
1.0
 40
1.0
 10
2299.41048399571
 20
391.8385552225759
 30
0.0
 10
2298.85216477851
 20
394.4745862557761
 30
0.0
 10
2297.22787271651
 20
399.561955272176
 30
0.0
 10
2293.470797253311
 20
406.4284498485758
 30
0.0
 10
2288.801896365711
 20
412.3060962029758
 30
0.0
 10
2283.56250656331
 20
417.2307160573759
 30
0.0
 10
2277.97940669691
 20
421.3363256165762
 30
0.0
 10
2270.368916096511
 20
425.8332887729761
 30
0.0
 10
2264.34056866891
 20
428.4359637185757
 30
0.0
 10
2260.27913565851
 20
429.840692150176
 30
0.0
  0
SPLINE
  5
3B19
330
1F
100
AcDbEntity
  8
0
  6
Continuous
 62
     9
100
AcDbSpline
210
0.0
220
0.0
230
1.0
 70
     8
 71
     3
 72
    11
 73
     7
 74
     0
 42
0.000000001
 43
0.0000000001
 40
0.0
 40
0.0
 40
0.0
 40
0.0
 40
0.2415152542
 40
0.4880456602
 40
0.7415714259000001
 40
1.0
 40
1.0
 40
1.0
 40
1.0
 10
2360.27913565851
 20
433.558043118976
 30
0.0
 10
2360.27913565851
 20
433.0730568293761
 30
0.0
 10
2360.06533356371
 20
432.0812230853757
 30
0.0
 10
2359.16392893891
 20
430.8465145401755
 30
0.0
 10
2357.83632413171
 20
430.0294686053762
 30
0.0
 10
2356.798085551311
 20
429.8406921513755
 30
0.0
 10
2356.27913565851
 20
429.8406921513755
 30
0.0
  0
SPLINE
  5
3B1A
330
1F
100
AcDbEntity
  8
0
  6
Continuous
 62
     9
100
AcDbSpline
210
0.0
220
0.0
230
1.0
 70
     8
 71
     3
 72
     9
 73
     5
 74
     0
 42
0.000000001
 43
0.0000000001
 40
0.0
 40
0.0
 40
0.0
 40
0.0
 40
0.6350764861
 40
1.0
 40
1.0
 40
1.0
 40
1.0
 10
1767.507614668511
 20
631.726084104976
 30
0.0
 10
1767.56846155291
 20
631.8207636885759
 30
0.0
 10
1767.66557965611
 20
631.9623867225759
 30
0.0
 10
1767.823820540911
 20
632.0810211541761
 30
0.0
 10
1767.88849086491
 20
632.0810889469762
 30
0.0
  0
SPLINE
  5
3B1B
330
1F
100
AcDbEntity
  8
0
  6
Continuous
 62
     9
100
AcDbSpline
210
0.0
220
0.0
230
1.0
 70
     8
 71
     3
 72
     9
 73
     5
 74
     0
 42
0.000000001
 43
0.0000000001
 40
0.0
 40
0.0
 40
0.0
 40
0.0
 40
0.6351356927000001
 40
1.0
 40
1.0
 40
1.0
 40
1.0
 10
1659.64333693251
 20
631.7256360529759
 30
0.0
 10
1659.58244237531
 20
631.8204302149756
 30
0.0
 10
1659.48526444971
 20
631.9622053337757
 30
0.0
 10
1659.32689481531
 20
632.081020867376
 30
0.0
 10
1659.26217083131
 20
632.0810889469762
 30
0.0
  0
SPLINE
  5
3B1C
330
1F
100
AcDbEntity
  8
0
  6
Continuous
 62
     9
100
AcDbSpline
210
0.0
220
0.0
230
1.0
 70
     8
 71
     3
 72
    18
 73
    14
 74
     0
 42
0.000000001
 43
0.0000000001
 40
0.0
 40
0.0
 40
0.0
 40
0.0
 40
0.00700335
 40
0.0221946365
 40
0.0464318906
 40
0.0796909581
 40
0.1216899598
 40
0.1720883281
 40
0.2960933632
 40
0.4470454941
 40
0.6191208522000001
 40
0.8059170870999999
 40
1.0
 40
1.0
 40
1.0
 40
1.0
 10
1613.57533084811
 20
616.0810889469762
 30
0.0
 10
1613.57533084811
 20
616.0998557877761
 30
0.0
 10
1613.63802775891
 20
616.1389487249757
 30
0.0
 10
1613.74889041851
 20
616.1691834633761
 30
0.0
 10
1613.94471350771
 20
616.2096724857761
 30
0.0
 10
1614.20686988371
 20
616.2454617389762
 30
0.0
 10
1614.542409911311
 20
616.2821347929762
 30
0.0
 10
1615.11988503651
 20
616.3313825885757
 30
0.0
 10
1615.99045339331
 20
616.384413641776
 30
0.0
 10
1617.18727487331
 20
616.4342741809755
 30
0.0
 10
1618.55300901731
 20
616.4715796941759
 30
0.0
 10
1620.03459744771
 20
616.494601212576
 30
0.0
 10
1621.05524787611
 20
616.4997765969761
 30
0.0
 10
1621.575330848109
 20
616.4997765969761
 30
0.0
  0
SPLINE
  5
3B1D
330
1F
100
AcDbEntity
  8
0
  6
Continuous
 62
     9
100
AcDbSpline
210
0.0
220
0.0
230
1.0
 70
     8
 71
     3
 72
    18
 73
    14
 74
     0
 42
0.000000001
 43
0.0000000001
 40
0.0
 40
0.0
 40
0.0
 40
0.0
 40
0.1940829127
 40
0.3808791475
 40
0.5529545054999999
 40
0.7039066363
 40
0.8279116713
 40
0.8783100395000001
 40
0.9203090411999999
 40
0.9535681086
 40
0.9778053628
 40
0.9929966495999998
 40
1.0
 40
1.0
 40
1.0
 40
1.0
 10
1805.57533084811
 20
616.4997765969761
 30
0.0
 10
1806.095413820511
 20
616.4997765969761
 30
0.0
 10
1807.11606424891
 20
616.494601212576
 30
0.0
 10
1808.59765267931
 20
616.4715796941759
 30
0.0
 10
1809.96338682371
 20
616.4342741805763
 30
0.0
 10
1811.16020830371
 20
616.3844136421762
 30
0.0
 10
1812.03077666051
 20
616.331382587376
 30
0.0
 10
1812.60825178571
 20
616.2821347929762
 30
0.0
 10
1812.94379181331
 20
616.2454617409762
 30
0.0
 10
1813.20594818971
 20
616.2096724881762
 30
0.0
 10
1813.40177127851
 20
616.1691834613762
 30
0.0
 10
1813.51263393891
 20
616.1389487141755
 30
0.0
 10
1813.57533084811
 20
616.0998557725756
 30
0.0
 10
1813.57533084811
 20
616.0810889309764
 30
0.0
  0
ENDSEC
  0
SECTION
  2
OBJECTS
  0
DICTIONARY
  5
E6E
330
0
100
AcDbDictionary
281
     1
  3
ACAD_CIP_PREVIOUS_PRODUCT_INFO
350
47D9
  3
ACAD_COLOR
350
EA3
  3
ACAD_DETAILVIEWSTYLE
350
47CF
  3
ACAD_GROUP
350
E6F
  3
ACAD_LAYOUT
350
EBA
  3
ACAD_MATERIAL
350
E76
  3
ACAD_MLEADERSTYLE
350
EB8
  3
ACAD_MLINESTYLE
350
E70
  3
ACAD_PLOTSETTINGS
350
EBB
  3
ACAD_PLOTSTYLENAME
350
E74
  3
ACAD_SCALELIST
350
EA6
  3
ACAD_SECTIONVIEWSTYLE
350
47CD
  3
ACAD_TABLESTYLE
350
EA4
  3
ACAD_VISUALSTYLE
350
E8F
  3
ACDB_RECOMPOSE_DATA
350
4851
  3
AcDbVariableDictionary
350
F98
  0
DICTIONARY
  5
EE5
330
8
100
AcDbDictionary
280
     1
281
     1
  0
DICTIONARY
  5
1058
330
2
100
AcDbDictionary
280
     1
281
     1
  3
ACAD_LAYERSTATES
360
1059
  0
DICTIONARY
  5
47DA
330
10
100
AcDbDictionary
280
     1
281
     1
  3
ADSK_XREC_LAYER_RECONCILED
360
47DB
  0
DICTIONARY
  5
47DC
330
1FA
100
AcDbDictionary
280
     1
281
     1
  3
ADSK_XREC_LAYER_RECONCILED
360
47DD
  0
DICTIONARY
  5
47DE
330
1FB
100
AcDbDictionary
280
     1
281
     1
  3
ADSK_XREC_LAYER_RECONCILED
360
47DF
  0
DICTIONARY
  5
47E0
330
1FC
100
AcDbDictionary
280
     1
281
     1
  3
ADSK_XREC_LAYER_RECONCILED
360
47E1
  0
DICTIONARY
  5
47E2
330
1FD
100
AcDbDictionary
280
     1
281
     1
  3
ADSK_XREC_LAYER_RECONCILED
360
47E3
  0
DICTIONARY
  5
47E4
330
1FE
100
AcDbDictionary
280
     1
281
     1
  3
ADSK_XREC_LAYER_RECONCILED
360
47E5
  0
DICTIONARY
  5
47E6
330
1FF
100
AcDbDictionary
280
     1
281
     1
  3
ADSK_XREC_LAYER_RECONCILED
360
47E7
  0
DICTIONARY
  5
47E8
330
200
100
AcDbDictionary
280
     1
281
     1
  3
ADSK_XREC_LAYER_RECONCILED
360
47E9
  0
DICTIONARY
  5
47EA
330
201
100
AcDbDictionary
280
     1
281
     1
  3
ADSK_XREC_LAYER_RECONCILED
360
47EB
  0
DICTIONARY
  5
47EC
330
202
100
AcDbDictionary
280
     1
281
     1
  3
ADSK_XREC_LAYER_RECONCILED
360
47ED
  0
DICTIONARY
  5
47EE
330
203
100
AcDbDictionary
280
     1
281
     1
  3
ADSK_XREC_LAYER_RECONCILED
360
47EF
  0
DICTIONARY
  5
47F0
330
204
100
AcDbDictionary
280
     1
281
     1
  3
ADSK_XREC_LAYER_RECONCILED
360
47F1
  0
DICTIONARY
  5
47F2
330
205
100
AcDbDictionary
280
     1
281
     1
  3
ADSK_XREC_LAYER_RECONCILED
360
47F3
  0
DICTIONARY
  5
47F4
330
206
100
AcDbDictionary
280
     1
281
     1
  3
ADSK_XREC_LAYER_RECONCILED
360
47F5
  0
DICTIONARY
  5
47F6
330
207
100
AcDbDictionary
280
     1
281
     1
  3
ADSK_XREC_LAYER_RECONCILED
360
47F7
  0
DICTIONARY
  5
47F8
330
208
100
AcDbDictionary
280
     1
281
     1
  3
ADSK_XREC_LAYER_RECONCILED
360
47F9
  0
DICTIONARY
  5
47FA
330
209
100
AcDbDictionary
280
     1
281
     1
  3
ADSK_XREC_LAYER_RECONCILED
360
47FB
  0
DICTIONARY
  5
47FC
330
20A
100
AcDbDictionary
280
     1
281
     1
  3
ADSK_XREC_LAYER_RECONCILED
360
47FD
  0
DICTIONARY
  5
47FE
330
20B
100
AcDbDictionary
280
     1
281
     1
  3
ADSK_XREC_LAYER_RECONCILED
360
47FF
  0
DICTIONARY
  5
4800
330
20C
100
AcDbDictionary
280
     1
281
     1
  3
ADSK_XREC_LAYER_RECONCILED
360
4801
  0
DICTIONARY
  5
4802
330
20D
100
AcDbDictionary
280
     1
281
     1
  3
ADSK_XREC_LAYER_RECONCILED
360
4803
  0
DICTIONARY
  5
4804
330
20E
100
AcDbDictionary
280
     1
281
     1
  3
ADSK_XREC_LAYER_RECONCILED
360
4805
  0
DICTIONARY
  5
4806
330
20F
100
AcDbDictionary
280
     1
281
     1
  3
ADSK_XREC_LAYER_RECONCILED
360
4807
  0
DICTIONARY
  5
4808
330
210
100
AcDbDictionary
280
     1
281
     1
  3
ADSK_XREC_LAYER_RECONCILED
360
4809
  0
DICTIONARY
  5
480A
330
211
100
AcDbDictionary
280
     1
281
     1
  3
ADSK_XREC_LAYER_RECONCILED
360
480B
  0
DICTIONARY
  5
480C
330
212
100
AcDbDictionary
280
     1
281
     1
  3
ADSK_XREC_LAYER_RECONCILED
360
480D
  0
DICTIONARY
  5
480E
330
213
100
AcDbDictionary
280
     1
281
     1
  3
ADSK_XREC_LAYER_RECONCILED
360
480F
  0
DICTIONARY
  5
4810
330
214
100
AcDbDictionary
280
     1
281
     1
  3
ADSK_XREC_LAYER_RECONCILED
360
4811
  0
DICTIONARY
  5
4812
330
215
100
AcDbDictionary
280
     1
281
     1
  3
ADSK_XREC_LAYER_RECONCILED
360
4813
  0
DICTIONARY
  5
4814
330
216
100
AcDbDictionary
280
     1
281
     1
  3
ADSK_XREC_LAYER_RECONCILED
360
4815
  0
DICTIONARY
  5
4816
330
217
100
AcDbDictionary
280
     1
281
     1
  3
ADSK_XREC_LAYER_RECONCILED
360
4817
  0
DICTIONARY
  5
4818
330
218
100
AcDbDictionary
280
     1
281
     1
  3
ADSK_XREC_LAYER_RECONCILED
360
4819
  0
DICTIONARY
  5
481A
330
219
100
AcDbDictionary
280
     1
281
     1
  3
ADSK_XREC_LAYER_RECONCILED
360
481B
  0
DICTIONARY
  5
481C
330
21A
100
AcDbDictionary
280
     1
281
     1
  3
ADSK_XREC_LAYER_RECONCILED
360
481D
  0
DICTIONARY
  5
481E
330
21B
100
AcDbDictionary
280
     1
281
     1
  3
ADSK_XREC_LAYER_RECONCILED
360
481F
  0
DICTIONARY
  5
4820
330
21C
100
AcDbDictionary
280
     1
281
     1
  3
ADSK_XREC_LAYER_RECONCILED
360
4821
  0
DICTIONARY
  5
4822
330
21D
100
AcDbDictionary
280
     1
281
     1
  3
ADSK_XREC_LAYER_RECONCILED
360
4823
  0
DICTIONARY
  5
4824
330
21E
100
AcDbDictionary
280
     1
281
     1
  3
ADSK_XREC_LAYER_RECONCILED
360
4825
  0
DICTIONARY
  5
4826
330
21F
100
AcDbDictionary
280
     1
281
     1
  3
ADSK_XREC_LAYER_RECONCILED
360
4827
  0
DICTIONARY
  5
4828
330
220
100
AcDbDictionary
280
     1
281
     1
  3
ADSK_XREC_LAYER_RECONCILED
360
4829
  0
DICTIONARY
  5
482A
330
221
100
AcDbDictionary
280
     1
281
     1
  3
ADSK_XREC_LAYER_RECONCILED
360
482B
  0
DICTIONARY
  5
482C
330
222
100
AcDbDictionary
280
     1
281
     1
  3
ADSK_XREC_LAYER_RECONCILED
360
482D
  0
DICTIONARY
  5
482E
330
104F
100
AcDbDictionary
280
     1
281
     1
  3
ADSK_XREC_LAYER_RECONCILED
360
482F
  0
DICTIONARY
  5
4830
330
1051
100
AcDbDictionary
280
     1
281
     1
  3
ADSK_XREC_LAYER_RECONCILED
360
4831
  0
DICTIONARY
  5
4832
330
1052
100
AcDbDictionary
280
     1
281
     1
  3
ADSK_XREC_LAYER_RECONCILED
360
4833
  0
DICTIONARY
  5
4834
330
1053
100
AcDbDictionary
280
     1
281
     1
  3
ADSK_XREC_LAYER_RECONCILED
360
4835
  0
DICTIONARY
  5
4836
330
1054
100
AcDbDictionary
280
     1
281
     1
  3
ADSK_XREC_LAYER_RECONCILED
360
4837
  0
DICTIONARY
  5
4838
330
3C9E
100
AcDbDictionary
280
     1
281
     1
  3
ADSK_XREC_LAYER_RECONCILED
360
4839
  0
DICTIONARY
  5
EE9
330
1F
100
AcDbDictionary
280
     1
281
     1
  3
ACAD_LAYOUTSELFREF
360
EEA
  3
ACAD_SORTENTS
360
21CC
  0
DICTIONARY
  5
EE7
330
1B
100
AcDbDictionary
280
     1
281
     1
  3
ACAD_LAYOUTSELFREF
360
EE8
  0
XRECORD
  5
47D9
102
{ACAD_REACTORS
330
E6E
102
}
330
E6E
100
AcDbXrecord
280
     1
300
ACD
300
2017
300
ACD_F_S
  0
DICTIONARY
  5
EA3
102
{ACAD_REACTORS
330
E6E
102
}
330
E6E
100
AcDbDictionary
281
     1
  0
DICTIONARY
  5
47CF
102
{ACAD_REACTORS
330
E6E
102
}
330
E6E
100
AcDbDictionary
281
     1
  3
Metric50
350
47D0
  0
DICTIONARY
  5
E6F
102
{ACAD_REACTORS
330
E6E
102
}
330
E6E
100
AcDbDictionary
281
     1
  0
DICTIONARY
  5
EBA
102
{ACAD_REACTORS
330
E6E
102
}
330
E6E
100
AcDbDictionary
281
     1
  3
Layout1
350
EBD
  3
Model
350
EBC
  0
DICTIONARY
  5
E76
102
{ACAD_REACTORS
330
E6E
102
}
330
E6E
100
AcDbDictionary
281
     1
  3
ByBlock
350
E7F
  3
ByLayer
350
E77
  3
Global
350
E87
  0
DICTIONARY
  5
EB8
102
{ACAD_REACTORS
330
E6E
102
}
330
E6E
100
AcDbDictionary
281
     1
  3
Standard
350
EB9
  0
DICTIONARY
  5
E70
102
{ACAD_REACTORS
330
E6E
102
}
330
E6E
100
AcDbDictionary
281
     1
  3
STANDARD
350
E71
  0
DICTIONARY
  5
EBB
102
{ACAD_REACTORS
330
E6E
102
}
330
E6E
100
AcDbDictionary
281
     1
  0
ACDBDICTIONARYWDFLT
  5
E74
102
{ACAD_REACTORS
330
E6E
102
}
330
E6E
100
AcDbDictionary
281
     1
  3
Normal
350
E75
100
AcDbDictionaryWithDefault
340
E75
  0
DICTIONARY
  5
EA6
102
{ACAD_REACTORS
330
E6E
102
}
330
E6E
100
AcDbDictionary
281
     1
  3
A0
350
EA7
  3
A1
350
EA8
  3
A2
350
EA9
  3
A3
350
EAA
  3
A4
350
EAB
  3
A5
350
EAC
  3
A6
350
EAD
  3
A7
350
EAE
  3
A8
350
EAF
  3
A9
350
EB0
  3
B0
350
EB1
  3
B1
350
EB2
  3
B2
350
EB3
  3
B3
350
EB4
  3
B4
350
EB5
  3
B5
350
EB6
  3
B6
350
EB7
  0
DICTIONARY
  5
47CD
102
{ACAD_REACTORS
330
E6E
102
}
330
E6E
100
AcDbDictionary
281
     1
  3
Metric50
350
47CE
  0
DICTIONARY
  5
EA4
102
{ACAD_REACTORS
330
E6E
102
}
330
E6E
100
AcDbDictionary
281
     1
  3
Standard
350
EA5
  0
DICTIONARY
  5
E8F
102
{ACAD_REACTORS
330
E6E
102
}
330
E6E
100
AcDbDictionary
281
     1
  3
2dWireframe
350
E95
  3
3D Hidden
350
E97
  3
3dWireframe
350
E96
  3
Basic
350
E94
  3
Brighten
350
E9B
  3
ColorChange
350
E9F
  3
Conceptual
350
E98
  3
Dim
350
E9A
  3
EdgeColorOff
350
EA2
  3
Facepattern
350
E9E
  3
Flat
350
E90
  3
FlatWithEdges
350
E91
  3
Gouraud
350
E92
  3
GouraudWithEdges
350
E93
  3
Hidden
350
47C7
  3
JitterOff
350
EA0
  3
Linepattern
350
E9D
  3
OverhangOff
350
EA1
  3
Realistic
350
E99
  3
Shaded
350
47CC
  3
Shaded with edges
350
47CB
  3
Shades of Gray
350
47C8
  3
Sketchy
350
47C9
  3
Thicken
350
E9C
  3
Wireframe
350
47C6
  3
X-Ray
350
47CA
  0
XRECORD
  5
4851
102
{ACAD_REACTORS
330
E6E
102
}
330
E6E
100
AcDbXrecord
280
     1
 90
        1
330
EA5
330
47CE
330
47D0
  0
DICTIONARY
  5
F98
102
{ACAD_REACTORS
330
E6E
102
}
330
E6E
100
AcDbDictionary
281
     1
  3
CANNOSCALE
350
F9B
  3
CMLEADERSTYLE
350
F9A
  3
CTABLESTYLE
350
F99
  3
CVIEWDETAILSTYLE
350
4846
  3
CVIEWSECTIONSTYLE
350
4847
  3
DIMASSOC
350
F9E
  3
INDEXCTL
350
F9D
  3
LAYEREVAL
350
484A
  3
LAYERNOTIFY
350
484B
  3
LIGHTINGUNITS
350
4849
  3
MSLTSCALE
350
4848
  3
SORTENTS
350
F9C
  0
DICTIONARY
  5
1059
102
{ACAD_REACTORS
330
1058
102
}
330
1058
100
AcDbDictionary
281
     1
  0
XRECORD
  5
47DB
102
{ACAD_REACTORS
330
47DA
102
}
330
47DA
100
AcDbXrecord
280
     1
290
     1
  0
XRECORD
  5
47DD
102
{ACAD_REACTORS
330
47DC
102
}
330
47DC
100
AcDbXrecord
280
     1
290
     1
  0
XRECORD
  5
47DF
102
{ACAD_REACTORS
330
47DE
102
}
330
47DE
100
AcDbXrecord
280
     1
290
     1
  0
XRECORD
  5
47E1
102
{ACAD_REACTORS
330
47E0
102
}
330
47E0
100
AcDbXrecord
280
     1
290
     1
  0
XRECORD
  5
47E3
102
{ACAD_REACTORS
330
47E2
102
}
330
47E2
100
AcDbXrecord
280
     1
290
     1
  0
XRECORD
  5
47E5
102
{ACAD_REACTORS
330
47E4
102
}
330
47E4
100
AcDbXrecord
280
     1
290
     1
  0
XRECORD
  5
47E7
102
{ACAD_REACTORS
330
47E6
102
}
330
47E6
100
AcDbXrecord
280
     1
290
     1
  0
XRECORD
  5
47E9
102
{ACAD_REACTORS
330
47E8
102
}
330
47E8
100
AcDbXrecord
280
     1
290
     1
  0
XRECORD
  5
47EB
102
{ACAD_REACTORS
330
47EA
102
}
330
47EA
100
AcDbXrecord
280
     1
290
     1
  0
XRECORD
  5
47ED
102
{ACAD_REACTORS
330
47EC
102
}
330
47EC
100
AcDbXrecord
280
     1
290
     1
  0
XRECORD
  5
47EF
102
{ACAD_REACTORS
330
47EE
102
}
330
47EE
100
AcDbXrecord
280
     1
290
     1
  0
XRECORD
  5
47F1
102
{ACAD_REACTORS
330
47F0
102
}
330
47F0
100
AcDbXrecord
280
     1
290
     1
  0
XRECORD
  5
47F3
102
{ACAD_REACTORS
330
47F2
102
}
330
47F2
100
AcDbXrecord
280
     1
290
     1
  0
XRECORD
  5
47F5
102
{ACAD_REACTORS
330
47F4
102
}
330
47F4
100
AcDbXrecord
280
     1
290
     1
  0
XRECORD
  5
47F7
102
{ACAD_REACTORS
330
47F6
102
}
330
47F6
100
AcDbXrecord
280
     1
290
     1
  0
XRECORD
  5
47F9
102
{ACAD_REACTORS
330
47F8
102
}
330
47F8
100
AcDbXrecord
280
     1
290
     1
  0
XRECORD
  5
47FB
102
{ACAD_REACTORS
330
47FA
102
}
330
47FA
100
AcDbXrecord
280
     1
290
     1
  0
XRECORD
  5
47FD
102
{ACAD_REACTORS
330
47FC
102
}
330
47FC
100
AcDbXrecord
280
     1
290
     1
  0
XRECORD
  5
47FF
102
{ACAD_REACTORS
330
47FE
102
}
330
47FE
100
AcDbXrecord
280
     1
290
     1
  0
XRECORD
  5
4801
102
{ACAD_REACTORS
330
4800
102
}
330
4800
100
AcDbXrecord
280
     1
290
     1
  0
XRECORD
  5
4803
102
{ACAD_REACTORS
330
4802
102
}
330
4802
100
AcDbXrecord
280
     1
290
     1
  0
XRECORD
  5
4805
102
{ACAD_REACTORS
330
4804
102
}
330
4804
100
AcDbXrecord
280
     1
290
     1
  0
XRECORD
  5
4807
102
{ACAD_REACTORS
330
4806
102
}
330
4806
100
AcDbXrecord
280
     1
290
     1
  0
XRECORD
  5
4809
102
{ACAD_REACTORS
330
4808
102
}
330
4808
100
AcDbXrecord
280
     1
290
     1
  0
XRECORD
  5
480B
102
{ACAD_REACTORS
330
480A
102
}
330
480A
100
AcDbXrecord
280
     1
290
     1
  0
XRECORD
  5
480D
102
{ACAD_REACTORS
330
480C
102
}
330
480C
100
AcDbXrecord
280
     1
290
     1
  0
XRECORD
  5
480F
102
{ACAD_REACTORS
330
480E
102
}
330
480E
100
AcDbXrecord
280
     1
290
     1
  0
XRECORD
  5
4811
102
{ACAD_REACTORS
330
4810
102
}
330
4810
100
AcDbXrecord
280
     1
290
     1
  0
XRECORD
  5
4813
102
{ACAD_REACTORS
330
4812
102
}
330
4812
100
AcDbXrecord
280
     1
290
     1
  0
XRECORD
  5
4815
102
{ACAD_REACTORS
330
4814
102
}
330
4814
100
AcDbXrecord
280
     1
290
     1
  0
XRECORD
  5
4817
102
{ACAD_REACTORS
330
4816
102
}
330
4816
100
AcDbXrecord
280
     1
290
     1
  0
XRECORD
  5
4819
102
{ACAD_REACTORS
330
4818
102
}
330
4818
100
AcDbXrecord
280
     1
290
     1
  0
XRECORD
  5
481B
102
{ACAD_REACTORS
330
481A
102
}
330
481A
100
AcDbXrecord
280
     1
290
     1
  0
XRECORD
  5
481D
102
{ACAD_REACTORS
330
481C
102
}
330
481C
100
AcDbXrecord
280
     1
290
     1
  0
XRECORD
  5
481F
102
{ACAD_REACTORS
330
481E
102
}
330
481E
100
AcDbXrecord
280
     1
290
     1
  0
XRECORD
  5
4821
102
{ACAD_REACTORS
330
4820
102
}
330
4820
100
AcDbXrecord
280
     1
290
     1
  0
XRECORD
  5
4823
102
{ACAD_REACTORS
330
4822
102
}
330
4822
100
AcDbXrecord
280
     1
290
     1
  0
XRECORD
  5
4825
102
{ACAD_REACTORS
330
4824
102
}
330
4824
100
AcDbXrecord
280
     1
290
     1
  0
XRECORD
  5
4827
102
{ACAD_REACTORS
330
4826
102
}
330
4826
100
AcDbXrecord
280
     1
290
     1
  0
XRECORD
  5
4829
102
{ACAD_REACTORS
330
4828
102
}
330
4828
100
AcDbXrecord
280
     1
290
     1
  0
XRECORD
  5
482B
102
{ACAD_REACTORS
330
482A
102
}
330
482A
100
AcDbXrecord
280
     1
290
     1
  0
XRECORD
  5
482D
102
{ACAD_REACTORS
330
482C
102
}
330
482C
100
AcDbXrecord
280
     1
290
     1
  0
XRECORD
  5
482F
102
{ACAD_REACTORS
330
482E
102
}
330
482E
100
AcDbXrecord
280
     1
290
     1
  0
XRECORD
  5
4831
102
{ACAD_REACTORS
330
4830
102
}
330
4830
100
AcDbXrecord
280
     1
290
     1
  0
XRECORD
  5
4833
102
{ACAD_REACTORS
330
4832
102
}
330
4832
100
AcDbXrecord
280
     1
290
     1
  0
XRECORD
  5
4835
102
{ACAD_REACTORS
330
4834
102
}
330
4834
100
AcDbXrecord
280
     1
290
     1
  0
XRECORD
  5
4837
102
{ACAD_REACTORS
330
4836
102
}
330
4836
100
AcDbXrecord
280
     1
290
     1
  0
XRECORD
  5
4839
102
{ACAD_REACTORS
330
4838
102
}
330
4838
100
AcDbXrecord
280
     1
290
     1
  0
XRECORD
  5
EEA
102
{ACAD_REACTORS
330
EE9
102
}
330
EE9
100
AcDbXrecord
280
     1
340
1F
  0
SORTENTSTABLE
  5
21CC
102
{ACAD_REACTORS
330
EE9
102
}
330
EE9
100
AcDbSortentsTable
330
1F
331
3A79
  5
3A7B
331
3A78
  5
3A7A
331
3A69
  5
3A6B
331
3A99
  5
3A9B
331
3A7B
  5
3A7D
331
3A68
  5
3A6A
331
3A98
  5
3A9A
331
3A7A
  5
3A7C
331
3A6B
  5
3A6D
331
3A89
  5
3A8B
331
3AB9
  5
3ABB
331
3A7D
  5
3A7F
331
3A9B
  5
3A9D
331
3A6A
  5
3A6C
331
3A88
  5
3A8A
331
3AB8
  5
3ABA
331
3A9A
  5
3A9C
331
3AA9
  5
3AAB
331
3A7C
  5
3A7E
331
3A6D
  5
3A6F
331
3A8B
  5
3A8D
331
3AD9
  5
3ADB
331
3AA8
  5
3AAA
331
3ABB
  5
3ABD
331
3A7F
  5
3A81
331
3A9D
  5
3A9F
331
3A6C
  5
3A6E
331
3A8A
  5
3A8C
331
3AD8
  5
3ADA
331
3ABA
  5
3ABC
331
3A9C
  5
3A9E
331
3AAB
  5
3AAD
331
3A7E
  5
3A80
331
3A8D
  5
3A8F
331
3A6F
  5
3A71
331
3AC9
  5
3ACB
331
3AC8
  5
3ACA
331
3ADB
  5
3ADD
331
3AAA
  5
3AAC
331
3ABD
  5
3ABF
331
3A9F
  5
3AA1
331
3A81
  5
3A83
331
3A6E
  5
3A70
331
3A8C
  5
3A8E
331
3ADA
  5
3ADC
331
3ABC
  5
3ABE
331
3ACB
  5
3ACD
331
3A9E
  5
3AA0
331
3A80
  5
3A82
331
3A8F
  5
3A91
331
3A71
  5
3A73
331
3AAD
  5
3AAF
331
3ACA
  5
3ACC
331
3ADD
  5
3ADF
331
3ABF
  5
3AC1
331
3A8E
  5
3A90
331
3AA1
  5
3AA5
331
3A83
  5
3A85
331
3A70
  5
3A72
331
3AAC
  5
3AAE
331
3ADC
  5
3ADE
331
3ABE
  5
3AC0
331
3ACD
  5
3ACF
331
3AA0
  5
3AA2
331
3A82
  5
3A84
331
3A91
  5
3A93
331
3A73
  5
3A75
331
3AAF
  5
3AB1
331
3ACC
  5
3ACE
331
3ADF
  5
3AE1
331
3AC1
  5
3AC3
331
3A90
  5
3A92
331
3A85
  5
3A87
331
3A72
  5
3A74
331
3AAE
  5
3AB0
331
3ADE
  5
3AE0
331
3AC0
  5
3AC2
331
3AA2
  5
3AA6
331
3AB1
  5
3AB3
331
3A84
  5
3A86
331
3A75
  5
3A77
331
3A93
  5
3A95
331
3ACF
  5
3AD1
331
3ACE
  5
3AD0
331
3AB0
  5
3AB2
331
3AC3
  5
3AC5
331
3A87
  5
3A89
331
3AA5
  5
3AA7
331
3A74
  5
3A76
331
3A92
  5
3A94
331
3AC2
  5
3AC4
331
3AB3
  5
3AB5
331
3A86
  5
3A88
331
3A77
  5
3A79
331
3A95
  5
3A97
331
3AD1
  5
3AD3
331
3AD0
  5
3AD2
331
3AB2
  5
3AB4
331
3AC5
  5
3AC7
331
3AA7
  5
3AA9
331
3A76
  5
3A78
331
3A94
  5
3A96
331
3AC4
  5
3AC6
331
3AD3
  5
3AD5
331
3AA6
  5
3AA8
331
3A97
  5
3A99
331
3AB5
  5
3AB7
331
3AD2
  5
3AD4
331
3AB4
  5
3AB6
331
3AC7
  5
3AC9
331
3A96
  5
3A98
331
3AC6
  5
3AC8
331
3AD5
  5
3AD7
331
3AB7
  5
3AB9
331
3AD4
  5
3AD6
331
3AB6
  5
3AB8
331
3AD7
  5
3AD9
331
3AD6
  5
3AD8
331
3AF1
  5
3AF3
331
3AF0
  5
3AF2
331
3AE1
  5
3AE3
331
3B11
  5
3B13
331
3AF3
  5
3AF5
331
3AE0
  5
3AE2
331
3B10
  5
3B12
331
3AF2
  5
3AF4
331
3B01
  5
3B03
331
3AE3
  5
3AE5
331
3B00
  5
3B02
331
3B13
  5
3B15
331
3AF5
  5
3AF7
331
3AE2
  5
3AE4
331
3B12
  5
3B14
331
3AF4
  5
3AF6
331
3B03
  5
3B05
331
3AE5
  5
3AE7
331
3B02
  5
3B04
331
3B15
  5
3B17
331
3AF7
  5
3AF9
331
3AE4
  5
3AE6
331
3B14
  5
3B16
331
3AF6
  5
3AF8
331
3AE7
  5
3AE9
331
3B05
  5
3B07
331
3AF9
  5
3AFB
331
3B17
  5
3B19
331
3AE6
  5
3AE8
331
3B04
  5
3B06
331
3B16
  5
3B18
331
3AF8
  5
3AFA
331
3AE9
  5
3AEB
331
3B07
  5
3B09
331
3AFB
  5
3AFD
331
3B19
  5
3B1B
331
3AE8
  5
3AEA
331
3B06
  5
3B08
331
3B18
  5
3B1A
331
3AFA
  5
3AFC
331
3B09
  5
3B0B
331
3AEB
  5
3AED
331
3B08
  5
3B0A
331
3B1B
  5
3B1D
331
3AFD
  5
3AFF
331
3AEA
  5
3AEC
331
3B1A
  5
3B1C
331
3AFC
  5
3AFE
331
3B0B
  5
3B0D
331
3AED
  5
3AEF
331
3B0A
  5
3B0C
331
3B1D
  5
4044
331
3AFF
  5
3B01
331
3AEC
  5
3AEE
331
3B1C
  5
4043
331
3AFE
  5
3B00
331
3AEF
  5
3AF1
331
3B0D
  5
3B0F
331
3B0C
  5
3B0E
331
3AEE
  5
3AF0
331
3B0F
  5
3B11
331
3B0E
  5
3B10
331
39A1
  5
3A2A
331
39A0
  5
3A29
331
3A41
  5
3A43
331
3A40
  5
3A42
331
3A31
  5
3A33
331
3A61
  5
3A63
331
3A43
  5
3A45
331
3A30
  5
3A32
331
3A60
  5
3A62
331
3A42
  5
3A44
331
3A33
  5
3A35
331
3A51
  5
3A53
331
3A45
  5
3A47
331
3A63
  5
3A65
331
3A32
  5
3A34
331
3A50
  5
3A52
331
3A62
  5
3A64
331
3A44
  5
3A46
331
3A53
  5
3A55
331
3A35
  5
3A37
331
3A47
  5
3A49
331
3A65
  5
3A67
331
3A34
  5
3A36
331
3A29
  5
3A2B
331
3A52
  5
3A54
331
3A64
  5
3A66
331
3A46
  5
3A48
331
3A55
  5
3A57
331
3A37
  5
3A39
331
3A54
  5
3A56
331
3A67
  5
3A69
331
3A49
  5
3A4B
331
3A2B
  5
3A2D
331
3A36
  5
3A38
331
3A66
  5
3A68
331
3A48
  5
3A4A
331
3A57
  5
3A59
331
3A2A
  5
3A2C
331
3A39
  5
3A3B
331
3A56
  5
3A58
331
3A4B
  5
3A4D
331
3A2D
  5
3A2F
331
3A38
  5
3A3A
331
3A4A
  5
3A4C
331
3A2C
  5
3A2E
331
3A3B
  5
3A3D
331
3A59
  5
3A5B
331
3A58
  5
3A5A
331
3A4D
  5
3A4F
331
3A2F
  5
3A31
331
3A3A
  5
3A3C
331
3A4C
  5
3A4E
331
3A2E
  5
3A30
331
3A3D
  5
3A3F
331
399F
  5
39A1
331
3A5B
  5
3A5D
331
3A3C
  5
3A3E
331
3A4F
  5
3A51
331
399E
  5
39A0
331
3A5A
  5
3A5C
331
3A4E
  5
3A50
331
3A5D
  5
3A5F
331
3A3F
  5
3A41
331
3A3E
  5
3A40
331
3A5C
  5
3A5E
331
3A5F
  5
3A61
331
3A5E
  5
3A60
  0
XRECORD
  5
EE8
102
{ACAD_REACTORS
330
EE7
102
}
330
EE7
100
AcDbXrecord
280
     1
340
1B
  0
ACDBDETAILVIEWSTYLE
  5
47D0
102
{ACAD_XDICTIONARY
360
484F
102
}
102
{ACAD_REACTORS
330
47CF
102
}
330
47CF
100
AcDbModelDocViewStyle
 70
     0
  3
Metric50
290
     0
100
AcDbDetailViewStyle
 70
     0
 71
     0
 90
        3
 71
     1
340
11
 62
   256
 40
5.0
340
0
 62
   256
 40
5.0
300

 40
0.0
280
     1
 71
     2
340
16
 90
       25
 62
   256
 71
     3
340
11
 62
   256
 40
5.0
 90
        0
 40
15.0
 90
        1
300
%<\AcVar ViewDetailId>% (%<\AcVar ViewScale \f "%sn">%)
 71
     4
340
16
 90
       25
 62
   256
340
16
 90
       25
 62
   256
280
     0
  0
LAYOUT
  5
EBD
102
{ACAD_REACTORS
330
EBA
102
}
330
EBA
100
AcDbPlotSettings
  1

  2

  4

  6

 40
0.0
 41
0.0
 42
0.0
 43
0.0
 44
0.0
 45
0.0
 46
0.0
 47
0.0
 48
0.0
 49
0.0
140
0.0
141
0.0
142
1.0
143
1.0
 70
   688
 72
     0
 73
     0
 74
     5
  7
monochrome.ctb
 75
    16
147
1.0
 76
     0
 77
     2
 78
   300
148
0.0
149
0.0
100
AcDbLayout
  1
Layout1
 70
     1
 71
     1
 10
0.0
 20
0.0
 11
12.0
 21
9.0
 12
0.0
 22
0.0
 32
0.0
 14
1.000000000000000E+20
 24
1.000000000000000E+20
 34
1.000000000000000E+20
 15
-1.000000000000000E+20
 25
-1.000000000000000E+20
 35
-1.000000000000000E+20
146
0.0
 13
0.0
 23
0.0
 33
0.0
 16
1.0
 26
0.0
 36
0.0
 17
0.0
 27
1.0
 37
0.0
 76
     0
330
1B
  0
LAYOUT
  5
EBC
102
{ACAD_REACTORS
330
EBA
102
}
330
EBA
100
AcDbPlotSettings
  1

  2
Kyocera FS-6025MFP KX
  4
A4
  6

 40
4.984749794006347
 41
5.154074668884277
 42
5.111740112304687
 43
4.9847412109375
 44
210.0156707763672
 45
297.0106506347656
 46
0.0
 47
0.0
 48
0.0
 49
0.0
140
0.0
141
0.0
142
1.0
143
7.370804359998957
 70
 11952
 72
     1
 73
     1
 74
     0
  7
monochrome.ctb
 75
     0
147
0.1356704032774167
 76
     0
 77
     2
 78
   300
148
463.2380796540951
149
4.833634597114212
100
AcDbLayout
  1
Model
 70
     1
 71
     0
 10
0.0
 20
0.0
 11
12.0
 21
9.0
 12
0.0
 22
0.0
 32
0.0
 14
0.0
 24
0.0
 34
0.0
 15
0.0
 25
0.0
 35
0.0
146
0.0
 13
0.0
 23
0.0
 33
0.0
 16
1.0
 26
0.0
 36
0.0
 17
0.0
 27
1.0
 37
0.0
 76
     0
330
1F
331
1F4
1001
ACAD_PSEXT
1000
Kyocera FS-6025MFP KX
1000
Kyocera FS-6025MFP KX
1000
192.168.105.5
1000

1070
     0
  0
MATERIAL
  5
E7F
102
{ACAD_XDICTIONARY
360
E80
102
}
102
{ACAD_REACTORS
330
E76
102
}
330
E76
100
AcDbMaterial
  1
ByBlock
 72
     0
 43
0.0208333333333333
 43
0.0
 43
0.0
 43
0.0
 43
0.0
 43
0.0208333333333333
 43
0.0
 43
0.0
 43
0.0
 43
0.0
 43
1.0
 43
0.0
 43
0.0
 43
0.0
 43
0.0
 43
1.0
 77
     0
 47
0.0208333333333333
 47
0.0
 47
0.0
 47
0.0
 47
0.0
 47
0.0208333333333333
 47
0.0
 47
0.0
 47
0.0
 47
0.0
 47
1.0
 47
0.0
 47
0.0
 47
0.0
 47
0.0
 47
1.0
171
     0
 49
0.0208333333333333
 49
0.0
 49
0.0
 49
0.0
 49
0.0
 49
0.0208333333333333
 49
0.0
 49
0.0
 49
0.0
 49
0.0
 49
1.0
 49
0.0
 49
0.0
 49
0.0
 49
0.0
 49
1.0
175
     0
142
0.0208333333333333
142
0.0
142
0.0
142
0.0
142
0.0
142
0.0208333333333333
142
0.0
142
0.0
142
0.0
142
0.0
142
1.0
142
0.0
142
0.0
142
0.0
142
0.0
142
1.0
179
     0
144
0.0208333333333333
144
0.0
144
0.0
144
0.0
144
0.0
144
0.0208333333333333
144
0.0
144
0.0
144
0.0
144
0.0
144
1.0
144
0.0
144
0.0
144
0.0
144
0.0
144
1.0
147
0.0208333333333333
147
0.0
147
0.0
147
0.0
147
0.0
147
0.0208333333333333
147
0.0
147
0.0
147
0.0
147
0.0
147
1.0
147
0.0
147
0.0
147
0.0
147
0.0
147
1.0
  0
MATERIAL
  5
E77
102
{ACAD_XDICTIONARY
360
E78
102
}
102
{ACAD_REACTORS
330
E76
102
}
330
E76
100
AcDbMaterial
  1
ByLayer
 72
     0
 43
0.0208333333333333
 43
0.0
 43
0.0
 43
0.0
 43
0.0
 43
0.0208333333333333
 43
0.0
 43
0.0
 43
0.0
 43
0.0
 43
1.0
 43
0.0
 43
0.0
 43
0.0
 43
0.0
 43
1.0
 77
     0
 47
0.0208333333333333
 47
0.0
 47
0.0
 47
0.0
 47
0.0
 47
0.0208333333333333
 47
0.0
 47
0.0
 47
0.0
 47
0.0
 47
1.0
 47
0.0
 47
0.0
 47
0.0
 47
0.0
 47
1.0
171
     0
 49
0.0208333333333333
 49
0.0
 49
0.0
 49
0.0
 49
0.0
 49
0.0208333333333333
 49
0.0
 49
0.0
 49
0.0
 49
0.0
 49
1.0
 49
0.0
 49
0.0
 49
0.0
 49
0.0
 49
1.0
175
     0
142
0.0208333333333333
142
0.0
142
0.0
142
0.0
142
0.0
142
0.0208333333333333
142
0.0
142
0.0
142
0.0
142
0.0
142
1.0
142
0.0
142
0.0
142
0.0
142
0.0
142
1.0
179
     0
144
0.0208333333333333
144
0.0
144
0.0
144
0.0
144
0.0
144
0.0208333333333333
144
0.0
144
0.0
144
0.0
144
0.0
144
1.0
144
0.0
144
0.0
144
0.0
144
0.0
144
1.0
147
0.0208333333333333
147
0.0
147
0.0
147
0.0
147
0.0
147
0.0208333333333333
147
0.0
147
0.0
147
0.0
147
0.0
147
1.0
147
0.0
147
0.0
147
0.0
147
0.0
147
1.0
  0
MATERIAL
  5
E87
102
{ACAD_XDICTIONARY
360
E88
102
}
102
{ACAD_REACTORS
330
E76
102
}
330
E76
100
AcDbMaterial
  1
Global
 72
     0
 43
0.0208333333333333
 43
0.0
 43
0.0
 43
0.0
 43
0.0
 43
0.0208333333333333
 43
0.0
 43
0.0
 43
0.0
 43
0.0
 43
1.0
 43
0.0
 43
0.0
 43
0.0
 43
0.0
 43
1.0
 77
     0
 47
0.0208333333333333
 47
0.0
 47
0.0
 47
0.0
 47
0.0
 47
0.0208333333333333
 47
0.0
 47
0.0
 47
0.0
 47
0.0
 47
1.0
 47
0.0
 47
0.0
 47
0.0
 47
0.0
 47
1.0
171
     0
 49
0.0208333333333333
 49
0.0
 49
0.0
 49
0.0
 49
0.0
 49
0.0208333333333333
 49
0.0
 49
0.0
 49
0.0
 49
0.0
 49
1.0
 49
0.0
 49
0.0
 49
0.0
 49
0.0
 49
1.0
175
     0
142
0.0208333333333333
142
0.0
142
0.0
142
0.0
142
0.0
142
0.0208333333333333
142
0.0
142
0.0
142
0.0
142
0.0
142
1.0
142
0.0
142
0.0
142
0.0
142
0.0
142
1.0
179
     0
144
0.0208333333333333
144
0.0
144
0.0
144
0.0
144
0.0
144
0.0208333333333333
144
0.0
144
0.0
144
0.0
144
0.0
144
1.0
144
0.0
144
0.0
144
0.0
144
0.0
144
1.0
147
0.0208333333333333
147
0.0
147
0.0
147
0.0
147
0.0
147
0.0208333333333333
147
0.0
147
0.0
147
0.0
147
0.0
147
1.0
147
0.0
147
0.0
147
0.0
147
0.0
147
1.0
  0
MLEADERSTYLE
  5
EB9
102
{ACAD_REACTORS
330
EB8
102
}
330
EB8
100
AcDbMLeaderStyle
179
     2
170
     2
171
     1
172
     0
 90
        2
 40
0.0
 41
0.0
173
     1
 91
-1056964608
340
14
 92
       -2
290
     1
 42
2.0
291
     1
 43
0.36
  3
Standard
 44
4.0
300

342
11
174
     1
178
     6
175
     1
176
     0
 93
-1056964608
 45
4.0
292
     0
297
     0
 46
4.0
 94
-1056964608
 47
1.0
 49
1.0
140
1.0
293
     1
141
0.0
294
     1
177
     0
142
1.0
295
     1
296
     0
143
0.125
271
     0
272
     9
273
     9
298
     1
  0
MLINESTYLE
  5
E71
102
{ACAD_REACTORS
330
E70
102
}
330
E70
100
AcDbMlineStyle
  2
STANDARD
 70
     0
  3

 62
   256
 51
90.0
 52
90.0
 71
     2
 49
0.5
 62
   256
  6
BYLAYER
 49
-0.5
 62
   256
  6
BYLAYER
  0
ACDBPLACEHOLDER
  5
E75
102
{ACAD_REACTORS
330
E74
102
}
330
E74
  0
SCALE
  5
EA7
102
{ACAD_REACTORS
330
EA6
102
}
330
EA6
100
AcDbScale
 70
     0
300
1:1
140
1.0
141
1.0
290
     1
  0
SCALE
  5
EA8
102
{ACAD_REACTORS
330
EA6
102
}
330
EA6
100
AcDbScale
 70
     0
300
1:2
140
1.0
141
2.0
290
     0
  0
SCALE
  5
EA9
102
{ACAD_REACTORS
330
EA6
102
}
330
EA6
100
AcDbScale
 70
     0
300
1:4
140
1.0
141
4.0
290
     0
  0
SCALE
  5
EAA
102
{ACAD_REACTORS
330
EA6
102
}
330
EA6
100
AcDbScale
 70
     0
300
1:5
140
1.0
141
5.0
290
     0
  0
SCALE
  5
EAB
102
{ACAD_REACTORS
330
EA6
102
}
330
EA6
100
AcDbScale
 70
     0
300
1:8
140
1.0
141
8.0
290
     0
  0
SCALE
  5
EAC
102
{ACAD_REACTORS
330
EA6
102
}
330
EA6
100
AcDbScale
 70
     0
300
1:10
140
1.0
141
10.0
290
     0
  0
SCALE
  5
EAD
102
{ACAD_REACTORS
330
EA6
102
}
330
EA6
100
AcDbScale
 70
     0
300
1:16
140
1.0
141
16.0
290
     0
  0
SCALE
  5
EAE
102
{ACAD_REACTORS
330
EA6
102
}
330
EA6
100
AcDbScale
 70
     0
300
1:20
140
1.0
141
20.0
290
     0
  0
SCALE
  5
EAF
102
{ACAD_REACTORS
330
EA6
102
}
330
EA6
100
AcDbScale
 70
     0
300
1:30
140
1.0
141
30.0
290
     0
  0
SCALE
  5
EB0
102
{ACAD_REACTORS
330
EA6
102
}
330
EA6
100
AcDbScale
 70
     0
300
1:40
140
1.0
141
40.0
290
     0
  0
SCALE
  5
EB1
102
{ACAD_REACTORS
330
EA6
102
}
330
EA6
100
AcDbScale
 70
     0
300
1:50
140
1.0
141
50.0
290
     0
  0
SCALE
  5
EB2
102
{ACAD_REACTORS
330
EA6
102
}
330
EA6
100
AcDbScale
 70
     0
300
1:100
140
1.0
141
100.0
290
     0
  0
SCALE
  5
EB3
102
{ACAD_REACTORS
330
EA6
102
}
330
EA6
100
AcDbScale
 70
     0
300
2:1
140
2.0
141
1.0
290
     0
  0
SCALE
  5
EB4
102
{ACAD_REACTORS
330
EA6
102
}
330
EA6
100
AcDbScale
 70
     0
300
4:1
140
4.0
141
1.0
290
     0
  0
SCALE
  5
EB5
102
{ACAD_REACTORS
330
EA6
102
}
330
EA6
100
AcDbScale
 70
     0
300
8:1
140
8.0
141
1.0
290
     0
  0
SCALE
  5
EB6
102
{ACAD_REACTORS
330
EA6
102
}
330
EA6
100
AcDbScale
 70
     0
300
10:1
140
10.0
141
1.0
290
     0
  0
SCALE
  5
EB7
102
{ACAD_REACTORS
330
EA6
102
}
330
EA6
100
AcDbScale
 70
     0
300
100:1
140
100.0
141
1.0
290
     0
  0
ACDBSECTIONVIEWSTYLE
  5
47CE
102
{ACAD_XDICTIONARY
360
484D
102
}
102
{ACAD_REACTORS
330
47CD
102
}
330
47CD
100
AcDbModelDocViewStyle
 70
     0
  3
Metric50
290
     0
100
AcDbSectionViewStyle
 70
     0
 71
     0
 90
      102
 71
     1
340
11
 62
   256
 40
5.0
340
0
340
0
 62
   256
 40
5.0
300
I, O, Q, S, X, Z
 40
10.0
 90
        0
 40
2.5
 90
        0
 71
     2
340
16
 90
       25
 62
   256
340
16
 90
       50
 62
   256
 40
5.0
 40
2.5
 40
5.0
 71
     3
340
11
 62
   256
 40
5.0
 90
        0
 40
15.0
 90
        1
300
%<\AcVar ViewSectionStartId>%-%<\AcVar ViewSectionEndId>% (%<\AcVar ViewScale \f "%sn">%)
 71
     4
 62
   256
 62
   257
300
ANSI31
 40
1.0
 90
        0
290
     0
290
     0
 90
        6
 40
0.0
 40
1.570796326794896
 40
0.2617993877991494
 40
1.308996938995747
 40
-0.2617993877991494
 40
1.832595714594046
  0
TABLESTYLE
  5
EA5
102
{ACAD_XDICTIONARY
360
EC0
102
}
102
{ACAD_REACTORS
330
EA4
102
}
330
EA4
100
AcDbTableStyle
280
     0
  3
Standard
 70
     0
 71
     0
 40
1.5
 41
1.5
280
     0
281
     0
  7
STANDARD
140
4.5
170
     2
 62
     0
 63
     7
283
     0
 90
      512
 91
        0
  1

274
    -2
284
     1
 64
     0
275
    -2
285
     1
 65
     0
276
    -2
286
     1
 66
     0
277
    -2
287
     1
 67
     0
278
    -2
288
     1
 68
     0
279
    -2
289
     1
 69
     0
  7
STANDARD
140
6.0
170
     5
 62
     0
 63
     7
283
     0
 90
      512
 91
        0
  1

274
    -2
284
     1
 64
     0
275
    -2
285
     1
 65
     0
276
    -2
286
     1
 66
     0
277
    -2
287
     1
 67
     0
278
    -2
288
     1
 68
     0
279
    -2
289
     1
 69
     0
  7
STANDARD
140
4.5
170
     5
 62
     0
 63
     7
283
     0
 90
      512
 91
        0
  1

274
    -2
284
     1
 64
     0
275
    -2
285
     1
 65
     0
276
    -2
286
     1
 66
     0
277
    -2
287
     1
 67
     0
278
    -2
288
     1
 68
     0
279
    -2
289
     1
 69
     0
  0
VISUALSTYLE
  5
E95
102
{ACAD_REACTORS
330
E8F
102
}
330
E8F
100
AcDbVisualStyle
  2
2dWireframe
 70
     4
177
     3
291
     0
 70
    58
 90
        0
176
     1
 90
        2
176
     1
 90
        0
176
     1
 90
        0
176
     1
 40
0.6
176
     1
 40
30.0
176
     1
 62
     7
176
     1
 90
        1
176
     1
 90
        4
176
     1
 62
     7
176
     1
 62
   257
176
     1
 90
        1
176
     1
 90
        1
176
     1
 40
1.0
176
     1
 90
        0
176
     1
 62
   257
176
     1
 40
1.0
176
     1
 90
        1
176
     1
 90
        6
176
     1
 90
        2
176
     1
 62
     7
176
     1
 90
        5
176
     1
 90
        0
176
     1
 90
        0
176
     1
290
     0
176
     1
 90
        1
176
     1
 40
0.0
176
     1
 90
        0
176
     1
290
     1
176
     1
290
     1
176
     1
290
     0
176
     1
290
     0
176
     1
290
     0
176
     1
290
     0
176
     1
290
     0
176
     1
290
     0
176
     1
290
     0
176
     1
 90
       50
176
     1
 40
0.0
176
     1
 40
1.0
176
     1
 90
        0
176
     1
 62
    18
420
        0
176
     1
 90
       50
176
     1
 90
        3
176
     1
 62
     5
420
      255
176
     1
290
     0
176
     1
 90
       50
176
     1
 90
       50
176
     1
 90
       50
176
     1
290
     0
176
     1
 90
       50
176
     1
 62
   256
176
     0
 40
1.0
176
     0
 90
        2
176
     1
  1
strokes_ogs.tif
176
     1
290
     0
176
     1
 40
1.0
176
     1
 40
1.0
176
     1
  0
VISUALSTYLE
  5
E97
102
{ACAD_REACTORS
330
E8F
102
}
330
E8F
100
AcDbVisualStyle
  2
3D Hidden
 70
     6
177
     3
291
     0
 70
    58
 90
        1
176
     1
 90
        2
176
     1
 90
        2
176
     1
 90
        0
176
     1
 40
0.6
176
     1
 40
30.0
176
     1
 62
     7
176
     1
 90
        2
176
     1
 90
        2
176
     1
 62
     7
176
     1
 62
   257
176
     1
 90
        2
176
     1
 90
        1
176
     1
 40
179.0
176
     1
 90
        0
176
     1
 62
   257
176
     1
 40
1.0
176
     1
 90
        1
176
     1
 90
        6
176
     1
 90
        2
176
     1
 62
     7
176
     1
 90
        3
176
     1
 90
        0
176
     1
 90
        0
176
     1
290
     0
176
     1
 90
        1
176
     1
 40
0.0
176
     1
 90
        0
176
     1
290
     0
176
     1
290
     1
176
     1
290
     1
176
     1
290
     0
176
     1
290
     0
176
     1
290
     0
176
     1
290
     0
176
     1
290
     0
176
     1
290
     0
176
     1
 90
       50
176
     1
 40
0.0
176
     1
 40
1.0
176
     1
 90
        0
176
     1
 62
    18
420
        0
176
     1
 90
       50
176
     1
 90
        3
176
     1
 62
     5
420
      255
176
     1
290
     0
176
     1
 90
       50
176
     1
 90
       50
176
     1
 90
       50
176
     1
290
     0
176
     1
 90
       50
176
     1
 62
   256
176
     0
 40
1.0
176
     0
 90
        2
176
     1
  1
strokes_ogs.tif
176
     1
290
     0
176
     1
 40
1.0
176
     1
 40
1.0
176
     1
  0
VISUALSTYLE
  5
E96
102
{ACAD_REACTORS
330
E8F
102
}
330
E8F
100
AcDbVisualStyle
  2
3dWireframe
 70
     5
177
     3
291
     0
 70
    58
 90
        0
176
     1
 90
        2
176
     1
 90
        0
176
     1
 90
        0
176
     1
 40
0.6
176
     1
 40
30.0
176
     1
 62
     7
176
     1
 90
        1
176
     1
 90
        4
176
     1
 62
     7
176
     1
 62
   257
176
     1
 90
        1
176
     1
 90
        1
176
     1
 40
1.0
176
     1
 90
        0
176
     1
 62
   257
176
     1
 40
1.0
176
     1
 90
        1
176
     1
 90
        6
176
     1
 90
        2
176
     1
 62
     7
176
     1
 90
        5
176
     1
 90
        0
176
     1
 90
        0
176
     1
290
     0
176
     1
 90
        1
176
     1
 40
0.0
176
     1
 90
        0
176
     1
290
     0
176
     1
290
     1
176
     1
290
     1
176
     1
290
     0
176
     1
290
     0
176
     1
290
     0
176
     1
290
     0
176
     1
290
     0
176
     1
290
     0
176
     1
 90
       50
176
     1
 40
0.0
176
     1
 40
1.0
176
     1
 90
        0
176
     1
 62
    18
420
        0
176
     1
 90
       50
176
     1
 90
        3
176
     1
 62
     5
420
      255
176
     1
290
     0
176
     1
 90
       50
176
     1
 90
       50
176
     1
 90
       50
176
     1
290
     0
176
     1
 90
       50
176
     1
 62
   256
176
     0
 40
1.0
176
     0
 90
        2
176
     1
  1
strokes_ogs.tif
176
     1
290
     0
176
     1
 40
1.0
176
     1
 40
1.0
176
     1
  0
VISUALSTYLE
  5
E94
102
{ACAD_REACTORS
330
E8F
102
}
330
E8F
100
AcDbVisualStyle
  2
Basic
 70
     7
177
     3
291
     1
 70
    58
 90
        1
176
     1
 90
        0
176
     1
 90
        1
176
     1
 90
        0
176
     1
 40
0.6
176
     1
 40
30.0
176
     1
 62
     7
176
     1
 90
        0
176
     1
 90
        4
176
     1
 62
     7
176
     1
 62
   257
176
     1
 90
        1
176
     1
 90
        1
176
     1
 40
1.0
176
     1
 90
        8
176
     1
 62
     7
176
     1
 40
1.0
176
     1
 90
        1
176
     1
 90
        6
176
     1
 90
        2
176
     1
 62
     7
176
     1
 90
        5
176
     1
 90
        0
176
     1
 90
        0
176
     1
290
     0
176
     1
 90
        1
176
     1
 40
0.0
176
     1
 90
        0
176
     1
290
     0
176
     1
290
     1
176
     1
290
     1
176
     1
290
     0
176
     1
290
     0
176
     1
290
     0
176
     1
290
     0
176
     1
290
     0
176
     1
290
     0
176
     1
 90
       50
176
     1
 40
0.0
176
     1
 40
1.0
176
     1
 90
        0
176
     1
 62
    18
420
        0
176
     1
 90
       50
176
     1
 90
        3
176
     1
 62
     5
420
      255
176
     1
290
     0
176
     1
 90
       50
176
     1
 90
       50
176
     1
 90
       50
176
     1
290
     0
176
     1
 90
       50
176
     1
 62
   256
176
     0
 40
1.0
176
     0
 90
        2
176
     1
  1
strokes_ogs.tif
176
     1
290
     0
176
     1
 40
1.0
176
     1
 40
1.0
176
     1
  0
VISUALSTYLE
  5
E9B
102
{ACAD_REACTORS
330
E8F
102
}
330
E8F
100
AcDbVisualStyle
  2
Brighten
 70
    12
177
     3
291
     1
 70
    58
 90
        2
176
     1
 90
        2
176
     1
 90
        0
176
     1
 90
        0
176
     1
 40
0.6
176
     1
 40
30.0
176
     1
 62
     7
176
     1
 90
        1
176
     1
 90
        4
176
     1
 62
     7
176
     1
 62
   257
176
     1
 90
        1
176
     1
 90
        1
176
     1
 40
1.0
176
     1
 90
        8
176
     1
 62
     7
176
     1
 40
1.0
176
     1
 90
        1
176
     1
 90
        6
176
     1
 90
        2
176
     1
 62
     7
176
     1
 90
        5
176
     1
 90
        0
176
     1
 90
        0
176
     1
290
     0
176
     1
 90
        1
176
     1
 40
50.0
176
     1
 90
        0
176
     1
290
     0
176
     1
290
     1
176
     1
290
     1
176
     1
290
     0
176
     1
290
     0
176
     1
290
     0
176
     1
290
     0
176
     1
290
     0
176
     1
290
     0
176
     1
 90
       50
176
     1
 40
0.0
176
     1
 40
1.0
176
     1
 90
        0
176
     1
 62
    18
420
        0
176
     1
 90
       50
176
     1
 90
        3
176
     1
 62
     5
420
      255
176
     1
290
     0
176
     1
 90
       50
176
     1
 90
       50
176
     1
 90
       50
176
     1
290
     0
176
     1
 90
       50
176
     1
 62
   256
176
     0
 40
1.0
176
     0
 90
        2
176
     1
  1
strokes_ogs.tif
176
     1
290
     0
176
     1
 40
1.0
176
     1
 40
1.0
176
     1
  0
VISUALSTYLE
  5
E9F
102
{ACAD_REACTORS
330
E8F
102
}
330
E8F
100
AcDbVisualStyle
  2
ColorChange
 70
    16
177
     3
291
     1
 70
    58
 90
        2
176
     1
 90
        2
176
     1
 90
        3
176
     1
 90
        0
176
     1
 40
0.6
176
     1
 40
30.0
176
     1
 62
     8
176
     1
 90
        1
176
     1
 90
        4
176
     1
 62
     7
176
     1
 62
   257
176
     1
 90
        1
176
     1
 90
        1
176
     1
 40
1.0
176
     1
 90
        8
176
     1
 62
     8
176
     1
 40
1.0
176
     1
 90
        1
176
     1
 90
        6
176
     1
 90
        2
176
     1
 62
     7
176
     1
 90
        5
176
     1
 90
        0
176
     1
 90
        0
176
     1
290
     0
176
     1
 90
        1
176
     1
 40
0.0
176
     1
 90
        0
176
     1
290
     0
176
     1
290
     1
176
     1
290
     1
176
     1
290
     0
176
     1
290
     0
176
     1
290
     0
176
     1
290
     0
176
     1
290
     0
176
     1
290
     0
176
     1
 90
       50
176
     1
 40
0.0
176
     1
 40
1.0
176
     1
 90
        0
176
     1
 62
    18
420
        0
176
     1
 90
       50
176
     1
 90
        3
176
     1
 62
     5
420
      255
176
     1
290
     0
176
     1
 90
       50
176
     1
 90
       50
176
     1
 90
       50
176
     1
290
     0
176
     1
 90
       50
176
     1
 62
   256
176
     0
 40
1.0
176
     0
 90
        2
176
     1
  1
strokes_ogs.tif
176
     1
290
     0
176
     1
 40
1.0
176
     1
 40
1.0
176
     1
  0
VISUALSTYLE
  5
E98
102
{ACAD_REACTORS
330
E8F
102
}
330
E8F
100
AcDbVisualStyle
  2
Conceptual
 70
     9
177
     3
291
     0
 70
    58
 90
        3
176
     1
 90
        2
176
     1
 90
        0
176
     1
 90
        0
176
     1
 40
0.6
176
     1
 40
30.0
176
     1
 62
     7
176
     1
 90
        2
176
     1
 90
        2
176
     1
 62
     7
176
     1
 62
   257
176
     1
 90
        1
176
     1
 90
        1
176
     1
 40
179.0
176
     1
 90
        8
176
     1
 62
     7
176
     1
 40
1.0
176
     1
 90
        1
176
     1
 90
        6
176
     1
 90
        2
176
     1
 62
     7
176
     1
 90
        3
176
     1
 90
        0
176
     1
 90
        0
176
     1
290
     0
176
     1
 90
        1
176
     1
 40
0.0
176
     1
 90
        0
176
     1
290
     0
176
     1
290
     1
176
     1
290
     1
176
     1
290
     0
176
     1
290
     0
176
     1
290
     0
176
     1
290
     0
176
     1
290
     0
176
     1
290
     0
176
     1
 90
       50
176
     1
 40
0.0
176
     1
 40
1.0
176
     1
 90
        0
176
     1
 62
    18
420
        0
176
     1
 90
       50
176
     1
 90
        3
176
     1
 62
     5
420
      255
176
     1
290
     0
176
     1
 90
       50
176
     1
 90
       50
176
     1
 90
       50
176
     1
290
     0
176
     1
 90
       50
176
     1
 62
   256
176
     0
 40
1.0
176
     0
 90
        2
176
     1
  1
strokes_ogs.tif
176
     1
290
     0
176
     1
 40
1.0
176
     1
 40
1.0
176
     1
  0
VISUALSTYLE
  5
E9A
102
{ACAD_REACTORS
330
E8F
102
}
330
E8F
100
AcDbVisualStyle
  2
Dim
 70
    11
177
     3
291
     1
 70
    58
 90
        2
176
     1
 90
        2
176
     1
 90
        0
176
     1
 90
        0
176
     1
 40
0.6
176
     1
 40
30.0
176
     1
 62
     7
176
     1
 90
        1
176
     1
 90
        4
176
     1
 62
     7
176
     1
 62
   257
176
     1
 90
        1
176
     1
 90
        1
176
     1
 40
1.0
176
     1
 90
        8
176
     1
 62
     7
176
     1
 40
1.0
176
     1
 90
        1
176
     1
 90
        6
176
     1
 90
        2
176
     1
 62
     7
176
     1
 90
        5
176
     1
 90
        0
176
     1
 90
        0
176
     1
290
     0
176
     1
 90
        1
176
     1
 40
-50.0
176
     1
 90
        0
176
     1
290
     0
176
     1
290
     1
176
     1
290
     1
176
     1
290
     0
176
     1
290
     0
176
     1
290
     0
176
     1
290
     0
176
     1
290
     0
176
     1
290
     0
176
     1
 90
       50
176
     1
 40
0.0
176
     1
 40
1.0
176
     1
 90
        0
176
     1
 62
    18
420
        0
176
     1
 90
       50
176
     1
 90
        3
176
     1
 62
     5
420
      255
176
     1
290
     0
176
     1
 90
       50
176
     1
 90
       50
176
     1
 90
       50
176
     1
290
     0
176
     1
 90
       50
176
     1
 62
   256
176
     0
 40
1.0
176
     0
 90
        2
176
     1
  1
strokes_ogs.tif
176
     1
290
     0
176
     1
 40
1.0
176
     1
 40
1.0
176
     1
  0
VISUALSTYLE
  5
EA2
102
{ACAD_REACTORS
330
E8F
102
}
330
E8F
100
AcDbVisualStyle
  2
EdgeColorOff
 70
    22
177
     3
291
     1
 70
    58
 90
        2
176
     0
 90
        2
176
     0
 90
        0
176
     0
 90
        0
176
     0
 40
0.6
176
     0
 40
30.0
176
     0
 62
     7
176
     0
 90
        1
176
     0
 90
        4
176
     0
 62
     7
176
     0
 62
   257
176
     0
 90
        1
176
     0
 90
        1
176
     0
 40
1.0
176
     0
 90
        8
176
     2
 62
     7
176
     0
 40
1.0
176
     0
 90
        1
176
     0
 90
        6
176
     0
 90
        2
176
     0
 62
     7
176
     0
 90
        5
176
     0
 90
        0
176
     0
 90
        0
176
     0
290
     0
176
     0
 90
        1
176
     0
 40
0.0
176
     0
 90
        0
176
     0
290
     0
176
     1
290
     1
176
     1
290
     1
176
     1
290
     0
176
     1
290
     0
176
     1
290
     0
176
     1
290
     0
176
     1
290
     0
176
     1
290
     0
176
     1
 90
       50
176
     1
 40
0.0
176
     1
 40
1.0
176
     1
 90
        0
176
     1
 62
    18
420
        0
176
     1
 90
       50
176
     1
 90
        3
176
     1
 62
     5
420
      255
176
     1
290
     0
176
     1
 90
       50
176
     1
 90
       50
176
     1
 90
       50
176
     1
290
     0
176
     1
 90
       50
176
     1
 62
   256
176
     0
 40
1.0
176
     0
 90
        2
176
     1
  1
strokes_ogs.tif
176
     1
290
     0
176
     1
 40
1.0
176
     1
 40
1.0
176
     1
  0
VISUALSTYLE
  5
E9E
102
{ACAD_REACTORS
330
E8F
102
}
330
E8F
100
AcDbVisualStyle
  2
Facepattern
 70
    15
177
     3
291
     1
 70
    58
 90
        2
176
     1
 90
        2
176
     1
 90
        0
176
     1
 90
        0
176
     1
 40
0.6
176
     1
 40
30.0
176
     1
 62
     7
176
     1
 90
        1
176
     1
 90
        4
176
     1
 62
     7
176
     1
 62
   257
176
     1
 90
        1
176
     1
 90
        1
176
     1
 40
1.0
176
     1
 90
        8
176
     1
 62
     7
176
     1
 40
1.0
176
     1
 90
        1
176
     1
 90
        6
176
     1
 90
        2
176
     1
 62
     7
176
     1
 90
        5
176
     1
 90
        0
176
     1
 90
        0
176
     1
290
     0
176
     1
 90
        1
176
     1
 40
0.0
176
     1
 90
        0
176
     1
290
     0
176
     1
290
     1
176
     1
290
     1
176
     1
290
     0
176
     1
290
     0
176
     1
290
     0
176
     1
290
     0
176
     1
290
     0
176
     1
290
     0
176
     1
 90
       50
176
     1
 40
0.0
176
     1
 40
1.0
176
     1
 90
        0
176
     1
 62
    18
420
        0
176
     1
 90
       50
176
     1
 90
        3
176
     1
 62
     5
420
      255
176
     1
290
     0
176
     1
 90
       50
176
     1
 90
       50
176
     1
 90
       50
176
     1
290
     0
176
     1
 90
       50
176
     1
 62
   256
176
     0
 40
1.0
176
     0
 90
        2
176
     1
  1
strokes_ogs.tif
176
     1
290
     0
176
     1
 40
1.0
176
     1
 40
1.0
176
     1
  0
VISUALSTYLE
  5
E90
102
{ACAD_REACTORS
330
E8F
102
}
330
E8F
100
AcDbVisualStyle
  2
Flat
 70
     0
177
     3
291
     1
 70
    58
 90
        2
176
     1
 90
        1
176
     1
 90
        1
176
     1
 90
        2
176
     1
 40
0.6
176
     1
 40
30.0
176
     1
 62
     7
176
     1
 90
        0
176
     1
 90
        4
176
     1
 62
     7
176
     1
 62
   257
176
     1
 90
        1
176
     1
 90
        1
176
     1
 40
1.0
176
     1
 90
        8
176
     1
 62
     7
176
     1
 40
1.0
176
     1
 90
        1
176
     1
 90
        6
176
     1
 90
        2
176
     1
 62
     7
176
     1
 90
        5
176
     1
 90
        0
176
     1
 90
        0
176
     1
290
     0
176
     1
 90
       13
176
     1
 40
0.0
176
     1
 90
        0
176
     1
290
     0
176
     1
290
     1
176
     1
290
     1
176
     1
290
     0
176
     1
290
     0
176
     1
290
     0
176
     1
290
     0
176
     1
290
     0
176
     1
290
     0
176
     1
 90
       50
176
     1
 40
0.0
176
     1
 40
1.0
176
     1
 90
        0
176
     1
 62
    18
420
        0
176
     1
 90
       50
176
     1
 90
        3
176
     1
 62
     5
420
      255
176
     1
290
     0
176
     1
 90
       50
176
     1
 90
       50
176
     1
 90
       50
176
     1
290
     0
176
     1
 90
       50
176
     1
 62
   256
176
     0
 40
1.0
176
     0
 90
        2
176
     1
  1
strokes_ogs.tif
176
     1
290
     0
176
     1
 40
1.0
176
     1
 40
1.0
176
     1
  0
VISUALSTYLE
  5
E91
102
{ACAD_REACTORS
330
E8F
102
}
330
E8F
100
AcDbVisualStyle
  2
FlatWithEdges
 70
     1
177
     3
291
     1
 70
    58
 90
        2
176
     1
 90
        1
176
     1
 90
        1
176
     1
 90
        2
176
     1
 40
0.6
176
     1
 40
30.0
176
     1
 62
     7
176
     1
 90
        1
176
     1
 90
        4
176
     1
 62
     7
176
     1
 62
   257
176
     1
 90
        1
176
     1
 90
        1
176
     1
 40
1.0
176
     1
 90
        0
176
     1
 62
   257
176
     1
 40
1.0
176
     1
 90
        1
176
     1
 90
        6
176
     1
 90
        2
176
     1
 62
     7
176
     1
 90
        5
176
     1
 90
        0
176
     1
 90
        0
176
     1
290
     0
176
     1
 90
       13
176
     1
 40
0.0
176
     1
 90
        0
176
     1
290
     0
176
     1
290
     1
176
     1
290
     1
176
     1
290
     0
176
     1
290
     0
176
     1
290
     0
176
     1
290
     0
176
     1
290
     0
176
     1
290
     0
176
     1
 90
       50
176
     1
 40
0.0
176
     1
 40
1.0
176
     1
 90
        0
176
     1
 62
    18
420
        0
176
     1
 90
       50
176
     1
 90
        3
176
     1
 62
     5
420
      255
176
     1
290
     0
176
     1
 90
       50
176
     1
 90
       50
176
     1
 90
       50
176
     1
290
     0
176
     1
 90
       50
176
     1
 62
   256
176
     0
 40
1.0
176
     0
 90
        2
176
     1
  1
strokes_ogs.tif
176
     1
290
     0
176
     1
 40
1.0
176
     1
 40
1.0
176
     1
  0
VISUALSTYLE
  5
E92
102
{ACAD_REACTORS
330
E8F
102
}
330
E8F
100
AcDbVisualStyle
  2
Gouraud
 70
     2
177
     3
291
     1
 70
    58
 90
        2
176
     1
 90
        2
176
     1
 90
        1
176
     1
 90
        2
176
     1
 40
0.6
176
     1
 40
30.0
176
     1
 62
     7
176
     1
 90
        0
176
     1
 90
        4
176
     1
 62
     7
176
     1
 62
   257
176
     1
 90
        1
176
     1
 90
        1
176
     1
 40
1.0
176
     1
 90
        0
176
     1
 62
     7
176
     1
 40
1.0
176
     1
 90
        1
176
     1
 90
        6
176
     1
 90
        2
176
     1
 62
     7
176
     1
 90
        5
176
     1
 90
        0
176
     1
 90
        0
176
     1
290
     0
176
     1
 90
       13
176
     1
 40
0.0
176
     1
 90
        0
176
     1
290
     0
176
     1
290
     1
176
     1
290
     1
176
     1
290
     0
176
     1
290
     0
176
     1
290
     0
176
     1
290
     0
176
     1
290
     0
176
     1
290
     0
176
     1
 90
       50
176
     1
 40
0.0
176
     1
 40
1.0
176
     1
 90
        0
176
     1
 62
    18
420
        0
176
     1
 90
       50
176
     1
 90
        3
176
     1
 62
     5
420
      255
176
     1
290
     0
176
     1
 90
       50
176
     1
 90
       50
176
     1
 90
       50
176
     1
290
     0
176
     1
 90
       50
176
     1
 62
   256
176
     0
 40
1.0
176
     0
 90
        2
176
     1
  1
strokes_ogs.tif
176
     1
290
     0
176
     1
 40
1.0
176
     1
 40
1.0
176
     1
  0
VISUALSTYLE
  5
E93
102
{ACAD_REACTORS
330
E8F
102
}
330
E8F
100
AcDbVisualStyle
  2
GouraudWithEdges
 70
     3
177
     3
291
     1
 70
    58
 90
        2
176
     1
 90
        2
176
     1
 90
        1
176
     1
 90
        2
176
     1
 40
0.6
176
     1
 40
30.0
176
     1
 62
     7
176
     1
 90
        1
176
     1
 90
        4
176
     1
 62
     7
176
     1
 62
   257
176
     1
 90
        1
176
     1
 90
        1
176
     1
 40
1.0
176
     1
 90
        0
176
     1
 62
   257
176
     1
 40
1.0
176
     1
 90
        1
176
     1
 90
        6
176
     1
 90
        2
176
     1
 62
     7
176
     1
 90
        5
176
     1
 90
        0
176
     1
 90
        0
176
     1
290
     0
176
     1
 90
       13
176
     1
 40
0.0
176
     1
 90
        0
176
     1
290
     0
176
     1
290
     1
176
     1
290
     1
176
     1
290
     0
176
     1
290
     0
176
     1
290
     0
176
     1
290
     0
176
     1
290
     0
176
     1
290
     0
176
     1
 90
       50
176
     1
 40
0.0
176
     1
 40
1.0
176
     1
 90
        0
176
     1
 62
    18
420
        0
176
     1
 90
       50
176
     1
 90
        3
176
     1
 62
     5
420
      255
176
     1
290
     0
176
     1
 90
       50
176
     1
 90
       50
176
     1
 90
       50
176
     1
290
     0
176
     1
 90
       50
176
     1
 62
   256
176
     0
 40
1.0
176
     0
 90
        2
176
     1
  1
strokes_ogs.tif
176
     1
290
     0
176
     1
 40
1.0
176
     1
 40
1.0
176
     1
  0
VISUALSTYLE
  5
47C7
102
{ACAD_REACTORS
330
E8F
102
}
330
E8F
100
AcDbVisualStyle
  2
Hidden
 70
     6
177
     3
291
     0
 70
    58
 90
        1
176
     1
 90
        2
176
     1
 90
        2
176
     1
 90
        0
176
     1
 40
0.6
176
     1
 40
30.0
176
     1
 62
     7
420
 16777215
176
     1
 90
        2
176
     1
 90
        2
176
     1
 62
     7
176
     1
 62
   257
176
     1
 90
        2
176
     1
 90
        1
176
     1
 40
40.0
176
     1
 90
        0
176
     1
 62
   257
176
     1
 40
1.0
176
     1
 90
        1
176
     1
 90
        6
176
     1
 90
        2
176
     1
 62
     7
176
     1
 90
        3
176
     1
 90
        0
176
     1
 90
        0
176
     1
290
     0
176
     1
 90
        1
176
     1
 40
0.0
176
     1
 90
        0
176
     1
290
     0
176
     1
290
     1
176
     1
290
     1
176
     1
290
     0
176
     1
290
     0
176
     1
290
     0
176
     1
290
     0
176
     1
290
     0
176
     1
290
     0
176
     1
 90
       50
176
     1
 40
0.0
176
     1
 40
1.0
176
     1
 90
        0
176
     1
 62
    18
420
        0
176
     1
 90
       50
176
     1
 90
        3
176
     1
 62
     5
420
      255
176
     1
290
     0
176
     1
 90
       50
176
     1
 90
       50
176
     1
 90
       50
176
     1
290
     0
176
     1
 90
       50
176
     1
 62
   256
176
     0
 40
1.0
176
     0
 90
        2
176
     1
  1
strokes_ogs.tif
176
     1
290
     0
176
     1
 40
1.0
176
     1
 40
1.0
176
     1
  0
VISUALSTYLE
  5
EA0
102
{ACAD_REACTORS
330
E8F
102
}
330
E8F
100
AcDbVisualStyle
  2
JitterOff
 70
    20
177
     3
291
     1
 70
    58
 90
        2
176
     0
 90
        2
176
     0
 90
        0
176
     0
 90
        0
176
     0
 40
0.6
176
     0
 40
30.0
176
     0
 62
     7
176
     0
 90
        1
176
     0
 90
        4
176
     0
 62
     7
176
     0
 62
   257
176
     0
 90
        1
176
     0
 90
        1
176
     0
 40
1.0
176
     0
 90
       10
176
     2
 62
     7
176
     0
 40
1.0
176
     0
 90
        1
176
     0
 90
        6
176
     0
 90
        2
176
     0
 62
     7
176
     0
 90
        5
176
     0
 90
        0
176
     0
 90
        0
176
     0
290
     0
176
     0
 90
        1
176
     0
 40
0.0
176
     0
 90
        0
176
     0
290
     0
176
     1
290
     1
176
     1
290
     1
176
     1
290
     0
176
     1
290
     0
176
     1
290
     0
176
     1
290
     0
176
     1
290
     0
176
     1
290
     0
176
     1
 90
       50
176
     1
 40
0.0
176
     1
 40
1.0
176
     1
 90
        0
176
     1
 62
    18
420
        0
176
     1
 90
       50
176
     1
 90
        3
176
     1
 62
     5
420
      255
176
     1
290
     0
176
     1
 90
       50
176
     1
 90
       50
176
     1
 90
       50
176
     1
290
     0
176
     1
 90
       50
176
     1
 62
   256
176
     0
 40
1.0
176
     0
 90
        2
176
     1
  1
strokes_ogs.tif
176
     1
290
     0
176
     1
 40
1.0
176
     1
 40
1.0
176
     1
  0
VISUALSTYLE
  5
E9D
102
{ACAD_REACTORS
330
E8F
102
}
330
E8F
100
AcDbVisualStyle
  2
Linepattern
 70
    14
177
     3
291
     1
 70
    58
 90
        2
176
     1
 90
        2
176
     1
 90
        0
176
     1
 90
        0
176
     1
 40
0.6
176
     1
 40
30.0
176
     1
 62
     7
176
     1
 90
        1
176
     1
 90
        4
176
     1
 62
     7
176
     1
 62
   257
176
     1
 90
        7
176
     1
 90
        7
176
     1
 40
1.0
176
     1
 90
        8
176
     1
 62
     7
176
     1
 40
1.0
176
     1
 90
        1
176
     1
 90
        6
176
     1
 90
        2
176
     1
 62
     7
176
     1
 90
        5
176
     1
 90
        0
176
     1
 90
        0
176
     1
290
     0
176
     1
 90
        1
176
     1
 40
0.0
176
     1
 90
        0
176
     1
290
     0
176
     1
290
     1
176
     1
290
     1
176
     1
290
     0
176
     1
290
     0
176
     1
290
     0
176
     1
290
     0
176
     1
290
     0
176
     1
290
     0
176
     1
 90
       50
176
     1
 40
0.0
176
     1
 40
1.0
176
     1
 90
        0
176
     1
 62
    18
420
        0
176
     1
 90
       50
176
     1
 90
        3
176
     1
 62
     5
420
      255
176
     1
290
     0
176
     1
 90
       50
176
     1
 90
       50
176
     1
 90
       50
176
     1
290
     0
176
     1
 90
       50
176
     1
 62
   256
176
     0
 40
1.0
176
     0
 90
        2
176
     1
  1
strokes_ogs.tif
176
     1
290
     0
176
     1
 40
1.0
176
     1
 40
1.0
176
     1
  0
VISUALSTYLE
  5
EA1
102
{ACAD_REACTORS
330
E8F
102
}
330
E8F
100
AcDbVisualStyle
  2
OverhangOff
 70
    21
177
     3
291
     1
 70
    58
 90
        2
176
     0
 90
        2
176
     0
 90
        0
176
     0
 90
        0
176
     0
 40
0.6
176
     0
 40
30.0
176
     0
 62
     7
176
     0
 90
        1
176
     0
 90
        4
176
     0
 62
     7
176
     0
 62
   257
176
     0
 90
        1
176
     0
 90
        1
176
     0
 40
1.0
176
     0
 90
        9
176
     2
 62
     7
176
     0
 40
1.0
176
     0
 90
        1
176
     0
 90
        6
176
     0
 90
        2
176
     0
 62
     7
176
     0
 90
        5
176
     0
 90
        0
176
     0
 90
        0
176
     0
290
     0
176
     0
 90
        1
176
     0
 40
0.0
176
     0
 90
        0
176
     0
290
     0
176
     1
290
     1
176
     1
290
     1
176
     1
290
     0
176
     1
290
     0
176
     1
290
     0
176
     1
290
     0
176
     1
290
     0
176
     1
290
     0
176
     1
 90
       50
176
     1
 40
0.0
176
     1
 40
1.0
176
     1
 90
        0
176
     1
 62
    18
420
        0
176
     1
 90
       50
176
     1
 90
        3
176
     1
 62
     5
420
      255
176
     1
290
     0
176
     1
 90
       50
176
     1
 90
       50
176
     1
 90
       50
176
     1
290
     0
176
     1
 90
       50
176
     1
 62
   256
176
     0
 40
1.0
176
     0
 90
        2
176
     1
  1
strokes_ogs.tif
176
     1
290
     0
176
     1
 40
1.0
176
     1
 40
1.0
176
     1
  0
VISUALSTYLE
  5
E99
102
{ACAD_REACTORS
330
E8F
102
}
330
E8F
100
AcDbVisualStyle
  2
Realistic
 70
     8
177
     3
291
     0
 70
    58
 90
        2
176
     1
 90
        2
176
     1
 90
        0
176
     1
 90
        0
176
     1
 40
0.6
176
     1
 40
30.0
176
     1
 62
     7
176
     1
 90
        1
176
     1
 90
        0
176
     1
 62
     7
176
     1
 62
   257
176
     1
 90
        1
176
     1
 90
        1
176
     1
 40
1.0
176
     1
 90
        8
176
     1
 62
     8
176
     1
 40
1.0
176
     1
 90
        1
176
     1
 90
        6
176
     1
 90
        2
176
     1
 62
     7
176
     1
 90
        5
176
     1
 90
        0
176
     1
 90
        0
176
     1
290
     0
176
     1
 90
       13
176
     1
 40
0.0
176
     1
 90
        0
176
     1
290
     0
176
     1
290
     1
176
     1
290
     1
176
     1
290
     0
176
     1
290
     0
176
     1
290
     0
176
     1
290
     0
176
     1
290
     0
176
     1
290
     0
176
     1
 90
       50
176
     1
 40
0.0
176
     1
 40
1.0
176
     1
 90
        0
176
     1
 62
    18
420
        0
176
     1
 90
       50
176
     1
 90
        3
176
     1
 62
     5
420
      255
176
     1
290
     0
176
     1
 90
       50
176
     1
 90
       50
176
     1
 90
       50
176
     1
290
     0
176
     1
 90
       50
176
     1
 62
   256
176
     0
 40
1.0
176
     0
 90
        2
176
     1
  1
strokes_ogs.tif
176
     1
290
     0
176
     1
 40
1.0
176
     1
 40
1.0
176
     1
  0
VISUALSTYLE
  5
47CC
102
{ACAD_REACTORS
330
E8F
102
}
330
E8F
100
AcDbVisualStyle
  2
Shaded
 70
    27
177
     3
291
     0
 70
    58
 90
        2
176
     1
 90
        2
176
     1
 90
        1
176
     1
 90
        2
176
     1
 40
0.6
176
     1
 40
30.0
176
     1
 62
     7
420
 16777215
176
     1
 90
        0
176
     1
 90
        4
176
     1
 62
     7
176
     1
 62
   257
176
     1
 90
        1
176
     1
 90
        1
176
     1
 40
1.0
176
     1
 90
        8
176
     1
 62
   257
176
     1
 40
1.0
176
     1
 90
        1
176
     1
 90
        6
176
     1
 90
        2
176
     1
 62
     8
420
  7895160
176
     1
 90
        3
176
     1
 90
        0
176
     1
 90
        0
176
     1
290
     0
176
     1
 90
        5
176
     1
 40
0.0
176
     1
 90
        0
176
     1
290
     0
176
     1
290
     1
176
     1
290
     1
176
     1
290
     0
176
     1
290
     0
176
     1
290
     0
176
     1
290
     0
176
     1
290
     0
176
     1
290
     0
176
     1
 90
       50
176
     1
 40
0.0
176
     1
 40
1.0
176
     1
 90
        0
176
     1
 62
    18
420
        0
176
     1
 90
       50
176
     1
 90
        3
176
     1
 62
     5
420
      255
176
     1
290
     0
176
     1
 90
       50
176
     1
 90
       50
176
     1
 90
       50
176
     1
290
     0
176
     1
 90
       50
176
     1
 62
   256
176
     0
 40
1.0
176
     0
 90
        2
176
     1
  1
strokes_ogs.tif
176
     1
290
     0
176
     1
 40
1.0
176
     1
 40
1.0
176
     1
  0
VISUALSTYLE
  5
47CB
102
{ACAD_REACTORS
330
E8F
102
}
330
E8F
100
AcDbVisualStyle
  2
Shaded with edges
 70
    26
177
     3
291
     0
 70
    58
 90
        2
176
     1
 90
        2
176
     1
 90
        1
176
     1
 90
        2
176
     1
 40
0.6
176
     1
 40
30.0
176
     1
 62
     7
420
 16777215
176
     1
 90
        1
176
     1
 90
        2
176
     1
 62
     7
176
     1
 62
   257
176
     1
 90
        2
176
     1
 90
        1
176
     1
 40
1.0
176
     1
 90
        8
176
     1
 62
   257
176
     1
 40
1.0
176
     1
 90
        1
176
     1
 90
        6
176
     1
 90
        2
176
     1
 62
     7
176
     1
 90
        3
176
     1
 90
        0
176
     1
 90
        0
176
     1
290
     0
176
     1
 90
        5
176
     1
 40
0.0
176
     1
 90
        0
176
     1
290
     0
176
     1
290
     1
176
     1
290
     1
176
     1
290
     0
176
     1
290
     0
176
     1
290
     0
176
     1
290
     0
176
     1
290
     0
176
     1
290
     0
176
     1
 90
       50
176
     1
 40
0.0
176
     1
 40
1.0
176
     1
 90
        0
176
     1
 62
    18
420
        0
176
     1
 90
       50
176
     1
 90
        3
176
     1
 62
     5
420
      255
176
     1
290
     0
176
     1
 90
       50
176
     1
 90
       50
176
     1
 90
       50
176
     1
290
     0
176
     1
 90
       50
176
     1
 62
   256
176
     0
 40
1.0
176
     0
 90
        2
176
     1
  1
strokes_ogs.tif
176
     1
290
     0
176
     1
 40
1.0
176
     1
 40
1.0
176
     1
  0
VISUALSTYLE
  5
47C8
102
{ACAD_REACTORS
330
E8F
102
}
330
E8F
100
AcDbVisualStyle
  2
Shades of Gray
 70
    23
177
     3
291
     0
 70
    58
 90
        2
176
     1
 90
        2
176
     1
 90
        3
176
     1
 90
        0
176
     1
 40
0.6
176
     1
 40
30.0
176
     1
 62
     7
420
 16777215
176
     1
 90
        2
176
     1
 90
        2
176
     1
 62
     7
176
     1
 62
     7
176
     1
 90
        1
176
     1
 90
        1
176
     1
 40
40.0
176
     1
 90
        8
176
     1
 62
     7
176
     1
 40
1.0
176
     1
 90
        1
176
     1
 90
        6
176
     1
 90
        2
176
     1
 62
     7
176
     1
 90
        3
176
     1
 90
        0
176
     1
 90
        0
176
     1
290
     0
176
     1
 90
        1
176
     1
 40
0.0
176
     1
 90
        0
176
     1
290
     0
176
     1
290
     1
176
     1
290
     1
176
     1
290
     0
176
     1
290
     0
176
     1
290
     0
176
     1
290
     0
176
     1
290
     0
176
     1
290
     0
176
     1
 90
       50
176
     1
 40
0.0
176
     1
 40
1.0
176
     1
 90
        0
176
     1
 62
    18
420
        0
176
     1
 90
       50
176
     1
 90
        3
176
     1
 62
     5
420
      255
176
     1
290
     0
176
     1
 90
       50
176
     1
 90
       50
176
     1
 90
       50
176
     1
290
     0
176
     1
 90
       50
176
     1
 62
   256
176
     0
 40
1.0
176
     0
 90
        2
176
     1
  1
strokes_ogs.tif
176
     1
290
     0
176
     1
 40
1.0
176
     1
 40
1.0
176
     1
  0
VISUALSTYLE
  5
47C9
102
{ACAD_REACTORS
330
E8F
102
}
330
E8F
100
AcDbVisualStyle
  2
Sketchy
 70
    24
177
     3
291
     0
 70
    58
 90
        1
176
     1
 90
        2
176
     1
 90
        2
176
     1
 90
        0
176
     1
 40
0.6
176
     1
 40
30.0
176
     1
 62
     7
420
 16777215
176
     1
 90
        2
176
     1
 90
        2
176
     1
 62
     7
176
     1
 62
     7
176
     1
 90
        1
176
     1
 90
        1
176
     1
 40
40.0
176
     1
 90
       11
176
     1
 62
     7
176
     1
 40
1.0
176
     1
 90
        1
176
     1
 90
        6
176
     1
 90
        2
176
     1
 62
     7
176
     1
 90
        6
176
     1
 90
        0
176
     1
 90
        0
176
     1
290
     0
176
     1
 90
        1
176
     1
 40
0.0
176
     1
 90
        0
176
     1
290
     0
176
     1
290
     1
176
     1
290
     1
176
     1
290
     0
176
     1
290
     0
176
     1
290
     0
176
     1
290
     0
176
     1
290
     0
176
     1
290
     0
176
     1
 90
       50
176
     1
 40
0.0
176
     1
 40
1.0
176
     1
 90
        0
176
     1
 62
    18
420
        0
176
     1
 90
       50
176
     1
 90
        3
176
     1
 62
     5
420
      255
176
     1
290
     0
176
     1
 90
       50
176
     1
 90
       50
176
     1
 90
       50
176
     1
290
     0
176
     1
 90
       50
176
     1
 62
   256
176
     0
 40
1.0
176
     0
 90
        2
176
     1
  1
strokes_ogs.tif
176
     1
290
     0
176
     1
 40
1.0
176
     1
 40
1.0
176
     1
  0
VISUALSTYLE
  5
E9C
102
{ACAD_REACTORS
330
E8F
102
}
330
E8F
100
AcDbVisualStyle
  2
Thicken
 70
    13
177
     3
291
     1
 70
    58
 90
        2
176
     1
 90
        2
176
     1
 90
        0
176
     1
 90
        0
176
     1
 40
0.6
176
     1
 40
30.0
176
     1
 62
     7
176
     1
 90
        1
176
     1
 90
        4
176
     1
 62
     7
176
     1
 62
   257
176
     1
 90
        1
176
     1
 90
        1
176
     1
 40
1.0
176
     1
 90
       12
176
     1
 62
     7
176
     1
 40
1.0
176
     1
 90
        1
176
     1
 90
        6
176
     1
 90
        2
176
     1
 62
     7
176
     1
 90
        5
176
     1
 90
        0
176
     1
 90
        0
176
     1
290
     0
176
     1
 90
        1
176
     1
 40
0.0
176
     1
 90
        0
176
     1
290
     0
176
     1
290
     1
176
     1
290
     1
176
     1
290
     0
176
     1
290
     0
176
     1
290
     0
176
     1
290
     0
176
     1
290
     0
176
     1
290
     0
176
     1
 90
       50
176
     1
 40
0.0
176
     1
 40
1.0
176
     1
 90
        0
176
     1
 62
    18
420
        0
176
     1
 90
       50
176
     1
 90
        3
176
     1
 62
     5
420
      255
176
     1
290
     0
176
     1
 90
       50
176
     1
 90
       50
176
     1
 90
       50
176
     1
290
     0
176
     1
 90
       50
176
     1
 62
   256
176
     0
 40
1.0
176
     0
 90
        2
176
     1
  1
strokes_ogs.tif
176
     1
290
     0
176
     1
 40
1.0
176
     1
 40
1.0
176
     1
  0
VISUALSTYLE
  5
47C6
102
{ACAD_REACTORS
330
E8F
102
}
330
E8F
100
AcDbVisualStyle
  2
Wireframe
 70
     5
177
     3
291
     0
 70
    58
 90
        0
176
     1
 90
        2
176
     1
 90
        0
176
     1
 90
        0
176
     1
 40
0.6
176
     1
 40
30.0
176
     1
 62
     7
420
 16777215
176
     1
 90
        1
176
     1
 90
        4
176
     1
 62
     7
176
     1
 62
   257
176
     1
 90
        1
176
     1
 90
        1
176
     1
 40
1.0
176
     1
 90
        0
176
     1
 62
   257
176
     1
 40
1.0
176
     1
 90
        1
176
     1
 90
        6
176
     1
 90
        2
176
     1
 62
     7
176
     1
 90
        3
176
     1
 90
        0
176
     1
 90
        0
176
     1
290
     0
176
     1
 90
        1
176
     1
 40
0.0
176
     1
 90
        0
176
     1
290
     0
176
     1
290
     1
176
     1
290
     1
176
     1
290
     0
176
     1
290
     0
176
     1
290
     0
176
     1
290
     0
176
     1
290
     0
176
     1
290
     0
176
     1
 90
       50
176
     1
 40
0.0
176
     1
 40
1.0
176
     1
 90
        0
176
     1
 62
    18
420
        0
176
     1
 90
       50
176
     1
 90
        3
176
     1
 62
     5
420
      255
176
     1
290
     0
176
     1
 90
       50
176
     1
 90
       50
176
     1
 90
       50
176
     1
290
     0
176
     1
 90
       50
176
     1
 62
   256
176
     0
 40
1.0
176
     0
 90
        2
176
     1
  1
strokes_ogs.tif
176
     1
290
     0
176
     1
 40
1.0
176
     1
 40
1.0
176
     1
  0
VISUALSTYLE
  5
47CA
102
{ACAD_REACTORS
330
E8F
102
}
330
E8F
100
AcDbVisualStyle
  2
X-Ray
 70
    25
177
     3
291
     0
 70
    58
 90
        2
176
     1
 90
        2
176
     1
 90
        1
176
     1
 90
        1
176
     1
 40
0.5
176
     1
 40
30.0
176
     1
 62
     7
420
 16777215
176
     1
 90
        1
176
     1
 90
        0
176
     1
 62
     7
176
     1
 62
   257
176
     1
 90
        1
176
     1
 90
        1
176
     1
 40
1.0
176
     1
 90
        8
176
     1
 62
     7
176
     1
 40
1.0
176
     1
 90
        1
176
     1
 90
        6
176
     1
 90
        2
176
     1
 62
     7
176
     1
 90
        3
176
     1
 90
        0
176
     1
 90
        0
176
     1
290
     0
176
     1
 90
       13
176
     1
 40
0.0
176
     1
 90
        0
176
     1
290
     0
176
     1
290
     1
176
     1
290
     1
176
     1
290
     0
176
     1
290
     0
176
     1
290
     0
176
     1
290
     0
176
     1
290
     0
176
     1
290
     0
176
     1
 90
       50
176
     1
 40
0.0
176
     1
 40
1.0
176
     1
 90
        0
176
     1
 62
    18
420
        0
176
     1
 90
       50
176
     1
 90
        3
176
     1
 62
     5
420
      255
176
     1
290
     0
176
     1
 90
       50
176
     1
 90
       50
176
     1
 90
       50
176
     1
290
     0
176
     1
 90
       50
176
     1
 62
   256
176
     0
 40
1.0
176
     0
 90
        2
176
     1
  1
strokes_ogs.tif
176
     1
290
     0
176
     1
 40
1.0
176
     1
 40
1.0
176
     1
  0
DICTIONARYVAR
  5
F9B
102
{ACAD_REACTORS
330
F98
102
}
330
F98
100
DictionaryVariables
280
     0
  1
1:1
  0
DICTIONARYVAR
  5
F9A
102
{ACAD_REACTORS
330
F98
102
}
330
F98
100
DictionaryVariables
280
     0
  1
STANDARD
  0
DICTIONARYVAR
  5
F99
102
{ACAD_REACTORS
330
F98
102
}
330
F98
100
DictionaryVariables
280
     0
  1
STANDARD
  0
DICTIONARYVAR
  5
4846
102
{ACAD_REACTORS
330
F98
102
}
330
F98
100
DictionaryVariables
280
     0
  1
Metric50
  0
DICTIONARYVAR
  5
4847
102
{ACAD_REACTORS
330
F98
102
}
330
F98
100
DictionaryVariables
280
     0
  1
Metric50
  0
DICTIONARYVAR
  5
F9E
102
{ACAD_REACTORS
330
F98
102
}
330
F98
100
DictionaryVariables
280
     0
  1
1
  0
DICTIONARYVAR
  5
F9D
102
{ACAD_REACTORS
330
F98
102
}
330
F98
100
DictionaryVariables
280
     0
  1
0
  0
DICTIONARYVAR
  5
484A
102
{ACAD_REACTORS
330
F98
102
}
330
F98
100
DictionaryVariables
280
     0
  1
1
  0
DICTIONARYVAR
  5
484B
102
{ACAD_REACTORS
330
F98
102
}
330
F98
100
DictionaryVariables
280
     0
  1
15
  0
DICTIONARYVAR
  5
4849
102
{ACAD_REACTORS
330
F98
102
}
330
F98
100
DictionaryVariables
280
     0
  1
0
  0
DICTIONARYVAR
  5
4848
102
{ACAD_REACTORS
330
F98
102
}
330
F98
100
DictionaryVariables
280
     0
  1
0
  0
DICTIONARYVAR
  5
F9C
102
{ACAD_REACTORS
330
F98
102
}
330
F98
100
DictionaryVariables
280
     0
  1
127
  0
DICTIONARY
  5
484F
330
47D0
100
AcDbDictionary
280
     1
281
     1
  3
ACAD_XREC_ROUNDTRIP
360
4850
  0
DICTIONARY
  5
E80
330
E7F
100
AcDbDictionary
280
     1
281
     1
  3
BUMPTILE
360
E82
  3
DIFFUSETILE
360
E81
  3
OPACITYTILE
360
E85
  3
REFLECTIONTILE
360
E84
  3
REFRACTIONTILE
360
E86
  3
SPECULARTILE
360
E83
  0
DICTIONARY
  5
E78
330
E77
100
AcDbDictionary
280
     1
281
     1
  3
BUMPTILE
360
E7A
  3
DIFFUSETILE
360
E79
  3
OPACITYTILE
360
E7D
  3
REFLECTIONTILE
360
E7C
  3
REFRACTIONTILE
360
E7E
  3
SPECULARTILE
360
E7B
  0
DICTIONARY
  5
E88
330
E87
100
AcDbDictionary
280
     1
281
     1
  3
BUMPTILE
360
E8A
  3
DIFFUSETILE
360
E89
  3
OPACITYTILE
360
E8D
  3
REFLECTIONTILE
360
E8C
  3
REFRACTIONTILE
360
E8E
  3
SPECULARTILE
360
E8B
  0
DICTIONARY
  5
484D
330
47CE
100
AcDbDictionary
280
     1
281
     1
  3
ACAD_XREC_ROUNDTRIP
360
484E
  0
DICTIONARY
  5
EC0
330
EA5
100
AcDbDictionary
280
     1
281
     1
  3
ACAD_ROUNDTRIP_2008_TABLESTYLE_CELLSTYLEMAP
360
484C
  0
XRECORD
  5
4850
102
{ACAD_REACTORS
330
484F
102
}
330
484F
100
AcDbXrecord
280
     1
102
DISPLAYNAME
  1
Metric50
102
FLAGS
 90
        0
  0
XRECORD
  5
E82
102
{ACAD_REACTORS
330
E80
102
}
330
E80
100
AcDbXrecord
280
     1
270
     1
271
     1
  0
XRECORD
  5
E81
102
{ACAD_REACTORS
330
E80
102
}
330
E80
100
AcDbXrecord
280
     1
270
     1
271
     1
  0
XRECORD
  5
E85
102
{ACAD_REACTORS
330
E80
102
}
330
E80
100
AcDbXrecord
280
     1
270
     1
271
     1
  0
XRECORD
  5
E84
102
{ACAD_REACTORS
330
E80
102
}
330
E80
100
AcDbXrecord
280
     1
270
     1
271
     1
  0
XRECORD
  5
E86
102
{ACAD_REACTORS
330
E80
102
}
330
E80
100
AcDbXrecord
280
     1
270
     1
271
     1
  0
XRECORD
  5
E83
102
{ACAD_REACTORS
330
E80
102
}
330
E80
100
AcDbXrecord
280
     1
270
     1
271
     1
  0
XRECORD
  5
E7A
102
{ACAD_REACTORS
330
E78
102
}
330
E78
100
AcDbXrecord
280
     1
270
     1
271
     1
  0
XRECORD
  5
E79
102
{ACAD_REACTORS
330
E78
102
}
330
E78
100
AcDbXrecord
280
     1
270
     1
271
     1
  0
XRECORD
  5
E7D
102
{ACAD_REACTORS
330
E78
102
}
330
E78
100
AcDbXrecord
280
     1
270
     1
271
     1
  0
XRECORD
  5
E7C
102
{ACAD_REACTORS
330
E78
102
}
330
E78
100
AcDbXrecord
280
     1
270
     1
271
     1
  0
XRECORD
  5
E7E
102
{ACAD_REACTORS
330
E78
102
}
330
E78
100
AcDbXrecord
280
     1
270
     1
271
     1
  0
XRECORD
  5
E7B
102
{ACAD_REACTORS
330
E78
102
}
330
E78
100
AcDbXrecord
280
     1
270
     1
271
     1
  0
XRECORD
  5
E8A
102
{ACAD_REACTORS
330
E88
102
}
330
E88
100
AcDbXrecord
280
     1
270
     1
271
     1
  0
XRECORD
  5
E89
102
{ACAD_REACTORS
330
E88
102
}
330
E88
100
AcDbXrecord
280
     1
270
     1
271
     1
  0
XRECORD
  5
E8D
102
{ACAD_REACTORS
330
E88
102
}
330
E88
100
AcDbXrecord
280
     1
270
     1
271
     1
  0
XRECORD
  5
E8C
102
{ACAD_REACTORS
330
E88
102
}
330
E88
100
AcDbXrecord
280
     1
270
     1
271
     1
  0
XRECORD
  5
E8E
102
{ACAD_REACTORS
330
E88
102
}
330
E88
100
AcDbXrecord
280
     1
270
     1
271
     1
  0
XRECORD
  5
E8B
102
{ACAD_REACTORS
330
E88
102
}
330
E88
100
AcDbXrecord
280
     1
270
     1
271
     1
  0
XRECORD
  5
484E
102
{ACAD_REACTORS
330
484D
102
}
330
484D
100
AcDbXrecord
280
     1
102
DISPLAYNAME
  1
Metric50
102
FLAGS
 90
        0
  0
CELLSTYLEMAP
  5
484C
102
{ACAD_REACTORS
330
EC0
102
}
330
EC0
100
AcDbCellStyleMap
 90
        3
300
CELLSTYLE
  1
TABLEFORMAT_BEGIN
 90
        5
170
     1
 91
        0
 92
    32768
 62
   257
 93
        1
300
CONTENTFORMAT
  1
CONTENTFORMAT_BEGIN
 90
        0
 91
        0
 92
      512
 93
        0
300

 40
0.0
140
1.0
 94
        5
 62
     0
340
11
144
6.0
309
CONTENTFORMAT_END
171
     1
301
MARGIN
  1
CELLMARGIN_BEGIN
 40
1.5
 40
1.5
 40
1.5
 40
1.5
 40
0.18
 40
0.18
309
CELLMARGIN_END
 94
        6
 95
        1
302
GRIDFORMAT
  1
GRIDFORMAT_BEGIN
 90
        0
 91
        1
 62
     0
 92
       -2
340
0
 93
        0
 40
1.125
309
GRIDFORMAT_END
 95
        2
302
GRIDFORMAT
  1
GRIDFORMAT_BEGIN
 90
        0
 91
        1
 62
     0
 92
       -2
340
0
 93
        0
 40
1.125
309
GRIDFORMAT_END
 95
        4
302
GRIDFORMAT
  1
GRIDFORMAT_BEGIN
 90
        0
 91
        1
 62
     0
 92
       -2
340
0
 93
        0
 40
1.125
309
GRIDFORMAT_END
 95
        8
302
GRIDFORMAT
  1
GRIDFORMAT_BEGIN
 90
        0
 91
        1
 62
     0
 92
       -2
340
0
 93
        0
 40
1.125
309
GRIDFORMAT_END
 95
       16
302
GRIDFORMAT
  1
GRIDFORMAT_BEGIN
 90
        0
 91
        1
 62
     0
 92
       -2
340
0
 93
        0
 40
1.125
309
GRIDFORMAT_END
 95
       32
302
GRIDFORMAT
  1
GRIDFORMAT_BEGIN
 90
        0
 91
        1
 62
     0
 92
       -2
340
0
 93
        0
 40
1.125
309
GRIDFORMAT_END
309
TABLEFORMAT_END
  1
CELLSTYLE_BEGIN
 90
        1
 91
        1
300
_TITLE
309
CELLSTYLE_END
300
CELLSTYLE
  1
TABLEFORMAT_BEGIN
 90
        5
170
     1
 91
        0
 92
        0
 62
   257
 93
        1
300
CONTENTFORMAT
  1
CONTENTFORMAT_BEGIN
 90
        0
 91
        0
 92
      512
 93
        0
300

 40
0.0
140
1.0
 94
        5
 62
     0
340
11
144
4.5
309
CONTENTFORMAT_END
171
     1
301
MARGIN
  1
CELLMARGIN_BEGIN
 40
1.5
 40
1.5
 40
1.5
 40
1.5
 40
0.18
 40
0.18
309
CELLMARGIN_END
 94
        6
 95
        1
302
GRIDFORMAT
  1
GRIDFORMAT_BEGIN
 90
        0
 91
        1
 62
     0
 92
       -2
340
0
 93
        0
 40
1.125
309
GRIDFORMAT_END
 95
        2
302
GRIDFORMAT
  1
GRIDFORMAT_BEGIN
 90
        0
 91
        1
 62
     0
 92
       -2
340
0
 93
        0
 40
1.125
309
GRIDFORMAT_END
 95
        4
302
GRIDFORMAT
  1
GRIDFORMAT_BEGIN
 90
        0
 91
        1
 62
     0
 92
       -2
340
0
 93
        0
 40
1.125
309
GRIDFORMAT_END
 95
        8
302
GRIDFORMAT
  1
GRIDFORMAT_BEGIN
 90
        0
 91
        1
 62
     0
 92
       -2
340
0
 93
        0
 40
1.125
309
GRIDFORMAT_END
 95
       16
302
GRIDFORMAT
  1
GRIDFORMAT_BEGIN
 90
        0
 91
        1
 62
     0
 92
       -2
340
0
 93
        0
 40
1.125
309
GRIDFORMAT_END
 95
       32
302
GRIDFORMAT
  1
GRIDFORMAT_BEGIN
 90
        0
 91
        1
 62
     0
 92
       -2
340
0
 93
        0
 40
1.125
309
GRIDFORMAT_END
309
TABLEFORMAT_END
  1
CELLSTYLE_BEGIN
 90
        2
 91
        1
300
_HEADER
309
CELLSTYLE_END
300
CELLSTYLE
  1
TABLEFORMAT_BEGIN
 90
        5
170
     1
 91
        0
 92
        0
 62
   257
 93
        1
300
CONTENTFORMAT
  1
CONTENTFORMAT_BEGIN
 90
        0
 91
        0
 92
      512
 93
        0
300

 40
0.0
140
1.0
 94
        2
 62
     0
340
11
144
4.5
309
CONTENTFORMAT_END
171
     1
301
MARGIN
  1
CELLMARGIN_BEGIN
 40
1.5
 40
1.5
 40
1.5
 40
1.5
 40
0.18
 40
0.18
309
CELLMARGIN_END
 94
        6
 95
        1
302
GRIDFORMAT
  1
GRIDFORMAT_BEGIN
 90
        0
 91
        1
 62
     0
 92
       -2
340
0
 93
        0
 40
1.125
309
GRIDFORMAT_END
 95
        2
302
GRIDFORMAT
  1
GRIDFORMAT_BEGIN
 90
        0
 91
        1
 62
     0
 92
       -2
340
0
 93
        0
 40
1.125
309
GRIDFORMAT_END
 95
        4
302
GRIDFORMAT
  1
GRIDFORMAT_BEGIN
 90
        0
 91
        1
 62
     0
 92
       -2
340
0
 93
        0
 40
1.125
309
GRIDFORMAT_END
 95
        8
302
GRIDFORMAT
  1
GRIDFORMAT_BEGIN
 90
        0
 91
        1
 62
     0
 92
       -2
340
0
 93
        0
 40
1.125
309
GRIDFORMAT_END
 95
       16
302
GRIDFORMAT
  1
GRIDFORMAT_BEGIN
 90
        0
 91
        1
 62
     0
 92
       -2
340
0
 93
        0
 40
1.125
309
GRIDFORMAT_END
 95
       32
302
GRIDFORMAT
  1
GRIDFORMAT_BEGIN
 90
        0
 91
        1
 62
     0
 92
       -2
340
0
 93
        0
 40
1.125
309
GRIDFORMAT_END
309
TABLEFORMAT_END
  1
CELLSTYLE_BEGIN
 90
        3
 91
        2
300
_DATA
309
CELLSTYLE_END
  0
ENDSEC
  0
EOF
