  0
SECTION
  2
HEADER
  9
$ACADVER
  1
AC1027
  9
$ACADMAINTVER
 70
   125
  9
$DWGCODEPAGE
  3
ANSI_1252
  9
$LASTSAVEDBY
  1
fleminab
  9
$REQUIREDVERSIONS
160
                 0
  9
$INSBASE
 10
0.0
 20
0.0
 30
0.0
  9
$EXTMIN
 10
78.40130198985997
 20
109.838688570186
 30
-0.0000000000112498
  9
$EXTMAX
 10
136.7087401819735
 20
254.1366249030152
 30
0.0000000000002956
  9
$LIMMIN
 10
0.0
 20
0.0
  9
$LIMMAX
 10
210.0
 20
297.0
  9
$ORTHOMODE
 70
     1
  9
$REGENMODE
 70
     1
  9
$FILLMODE
 70
     1
  9
$QTEXTMODE
 70
     0
  9
$MIRRTEXT
 70
     1
  9
$LTSCALE
 40
0.3
  9
$ATTMODE
 70
     1
  9
$TEXTSIZE
 40
3.2
  9
$TRACEWID
 40
1.0
  9
$TEXTSTYLE
  7
样式 3
  9
$CLAYER
  8
0
  9
$CELTYPE
  6
ByLayer
  9
$CECOLOR
 62
   256
  9
$CELTSCALE
 40
1.0
  9
$DISPSILH
 70
     0
  9
$DIMSCALE
 40
1.0
  9
$DIMASZ
 40
2.5
  9
$DIMEXO
 40
0.625
  9
$DIMDLI
 40
3.75
  9
$DIMRND
 40
0.0
  9
$DIMDLE
 40
0.0
  9
$DIMEXE
 40
1.25
  9
$DIMTP
 40
0.0
  9
$DIMTM
 40
0.0
  9
$DIMTXT
 40
2.5
  9
$DIMCEN
 40
2.0
  9
$DIMTSZ
 40
0.0
  9
$DIMTOL
 70
     0
  9
$DIMLIM
 70
     0
  9
$DIMTIH
 70
     0
  9
$DIMTOH
 70
     0
  9
$DIMSE1
 70
     0
  9
$DIMSE2
 70
     0
  9
$DIMTAD
 70
     1
  9
$DIMZIN
 70
     8
  9
$DIMBLK
  1

  9
$DIMASO
 70
     1
  9
$DIMSHO
 70
     1
  9
$DIMPOST
  1

  9
$DIMAPOST
  1

  9
$DIMALT
 70
     0
  9
$DIMALTD
 70
     3
  9
$DIMALTF
 40
0.03937007874016
  9
$DIMLFAC
 40
1.0
  9
$DIMTOFL
 70
     1
  9
$DIMTVP
 40
0.0
  9
$DIMTIX
 70
     0
  9
$DIMSOXD
 70
     0
  9
$DIMSAH
 70
     0
  9
$DIMBLK1
  1

  9
$DIMBLK2
  1

  9
$DIMSTYLE
  2
ISO-25
  9
$DIMCLRD
 70
   256
  9
$DIMCLRE
 70
   256
  9
$DIMCLRT
 70
   256
  9
$DIMTFAC
 40
1.0
  9
$DIMGAP
 40
0.625
  9
$DIMJUST
 70
     0
  9
$DIMSD1
 70
     0
  9
$DIMSD2
 70
     0
  9
$DIMTOLJ
 70
     0
  9
$DIMTZIN
 70
     8
  9
$DIMALTZ
 70
     0
  9
$DIMALTTZ
 70
     0
  9
$DIMUPT
 70
     0
  9
$DIMDEC
 70
     1
  9
$DIMTDEC
 70
     1
  9
$DIMALTU
 70
     2
  9
$DIMALTTD
 70
     3
  9
$DIMTXSTY
  7
Standard
  9
$DIMAUNIT
 70
     0
  9
$DIMADEC
 70
     0
  9
$DIMALTRND
 40
0.0
  9
$DIMAZIN
 70
     0
  9
$DIMDSEP
 70
    46
  9
$DIMATFIT
 70
     3
  9
$DIMFRAC
 70
     0
  9
$DIMLDRBLK
  1

  9
$DIMLUNIT
 70
     2
  9
$DIMLWD
 70
    -1
  9
$DIMLWE
 70
    -1
  9
$DIMTMOVE
 70
     0
  9
$DIMFXL
 40
1.0
  9
$DIMFXLON
 70
     0
  9
$DIMJOGANG
 40
0.7853981633974483
  9
$DIMTFILL
 70
     0
  9
$DIMTFILLCLR
 70
     0
  9
$DIMARCSYM
 70
     0
  9
$DIMLTYPE
  6

  9
$DIMLTEX1
  6

  9
$DIMLTEX2
  6

  9
$DIMTXTDIRECTION
 70
     0
  9
$LUNITS
 70
     2
  9
$LUPREC
 70
     4
  9
$SKETCHINC
 40
1.0
  9
$FILLETRAD
 40
1.0
  9
$AUNITS
 70
     0
  9
$AUPREC
 70
     0
  9
$MENU
  1
.
  9
$ELEVATION
 40
0.0
  9
$PELEVATION
 40
0.0
  9
$THICKNESS
 40
0.0
  9
$LIMCHECK
 70
     0
  9
$CHAMFERA
 40
1.0
  9
$CHAMFERB
 40
1.0
  9
$CHAMFERC
 40
20.0
  9
$CHAMFERD
 40
0.0
  9
$SKPOLY
 70
     0
  9
$TDCREATE
 40
2452341.926793982
  9
$TDUCREATE
 40
2452341.468466320
  9
$TDUPDATE
 40
2458015.596747685
  9
$TDUUPDATE
 40
2458015.180081019
  9
$TDINDWG
 40
0.1971145833
  9
$TDUSRTIMER
 40
0.1971145833
  9
$USRTIMER
 70
     1
  9
$ANGBASE
 50
0.0
  9
$ANGDIR
 70
     0
  9
$PDMODE
 70
     0
  9
$PDSIZE
 40
0.0
  9
$PLINEWID
 40
0.0
  9
$SPLFRAME
 70
     0
  9
$SPLINETYPE
 70
     6
  9
$SPLINESEGS
 70
     8
  9
$HANDSEED
  5
908
  9
$SURFTAB1
 70
     6
  9
$SURFTAB2
 70
     6
  9
$SURFTYPE
 70
     6
  9
$SURFU
 70
     6
  9
$SURFV
 70
     6
  9
$UCSBASE
  2

  9
$UCSNAME
  2

  9
$UCSORG
 10
0.0
 20
0.0
 30
0.0
  9
$UCSXDIR
 10
1.0
 20
0.0
 30
0.0
  9
$UCSYDIR
 10
0.0
 20
1.0
 30
0.0
  9
$UCSORTHOREF
  2

  9
$UCSORTHOVIEW
 70
     0
  9
$UCSORGTOP
 10
0.0
 20
0.0
 30
0.0
  9
$UCSORGBOTTOM
 10
0.0
 20
0.0
 30
0.0
  9
$UCSORGLEFT
 10
0.0
 20
0.0
 30
0.0
  9
$UCSORGRIGHT
 10
0.0
 20
0.0
 30
0.0
  9
$UCSORGFRONT
 10
0.0
 20
0.0
 30
0.0
  9
$UCSORGBACK
 10
0.0
 20
0.0
 30
0.0
  9
$PUCSBASE
  2

  9
$PUCSNAME
  2

  9
$PUCSORG
 10
0.0
 20
0.0
 30
0.0
  9
$PUCSXDIR
 10
1.0
 20
0.0
 30
0.0
  9
$PUCSYDIR
 10
0.0
 20
1.0
 30
0.0
  9
$PUCSORTHOREF
  2

  9
$PUCSORTHOVIEW
 70
     0
  9
$PUCSORGTOP
 10
0.0
 20
0.0
 30
0.0
  9
$PUCSORGBOTTOM
 10
0.0
 20
0.0
 30
0.0
  9
$PUCSORGLEFT
 10
0.0
 20
0.0
 30
0.0
  9
$PUCSORGRIGHT
 10
0.0
 20
0.0
 30
0.0
  9
$PUCSORGFRONT
 10
0.0
 20
0.0
 30
0.0
  9
$PUCSORGBACK
 10
0.0
 20
0.0
 30
0.0
  9
$USERI1
 70
     0
  9
$USERI2
 70
     0
  9
$USERI3
 70
     0
  9
$USERI4
 70
     0
  9
$USERI5
 70
     0
  9
$USERR1
 40
0.0
  9
$USERR2
 40
0.0
  9
$USERR3
 40
0.0
  9
$USERR4
 40
0.0
  9
$USERR5
 40
0.0
  9
$WORLDVIEW
 70
     1
  9
$SHADEDGE
 70
     3
  9
$SHADEDIF
 70
    70
  9
$TILEMODE
 70
     1
  9
$MAXACTVP
 70
    64
  9
$PINSBASE
 10
0.0
 20
0.0
 30
0.0
  9
$PLIMCHECK
 70
     0
  9
$PEXTMIN
 10
1.000000000000000E+20
 20
1.000000000000000E+20
 30
1.000000000000000E+20
  9
$PEXTMAX
 10
-1.000000000000000E+20
 20
-1.000000000000000E+20
 30
-1.000000000000000E+20
  9
$PLIMMIN
 10
0.0
 20
0.0
  9
$PLIMMAX
 10
420.0
 20
297.0
  9
$UNITMODE
 70
     0
  9
$VISRETAIN
 70
     1
  9
$PLINEGEN
 70
     0
  9
$PSLTSCALE
 70
     1
  9
$TREEDEPTH
 70
  3020
  9
$CMLSTYLE
  2
Standard
  9
$CMLJUST
 70
     0
  9
$CMLSCALE
 40
20.0
  9
$PROXYGRAPHICS
 70
     1
  9
$MEASUREMENT
 70
     1
  9
$CELWEIGHT
370
    -1
  9
$ENDCAPS
280
     0
  9
$JOINSTYLE
280
     0
  9
$LWDISPLAY
290
     0
  9
$INSUNITS
 70
     4
  9
$HYPERLINKBASE
  1

  9
$STYLESHEET
  1

  9
$XEDIT
290
     1
  9
$CEPSNTYPE
380
     0
  9
$PSTYLEMODE
290
     1
  9
$FINGERPRINTGUID
  2
{FDEAD578-A652-11D2-9A35-0060089B3A3F}
  9
$VERSIONGUID
  2
{226E459D-EEA5-D24F-BCC0-51ACE5606A78}
  9
$EXTNAMES
290
     1
  9
$PSVPSCALE
 40
0.0
  9
$OLESTARTUP
290
     0
  9
$SORTENTS
280
    96
  9
$INDEXCTL
280
     0
  9
$HIDETEXT
280
     0
  9
$XCLIPFRAME
280
     2
  9
$HALOGAP
280
     0
  9
$OBSCOLOR
 70
   257
  9
$OBSLTYPE
280
     0
  9
$INTERSECTIONDISPLAY
280
     0
  9
$INTERSECTIONCOLOR
 70
   257
  9
$DIMASSOC
280
     1
  9
$PROJECTNAME
  1

  9
$CAMERADISPLAY
290
     0
  9
$LENSLENGTH
 40
50.0
  9
$CAMERAHEIGHT
 40
0.0
  9
$STEPSPERSEC
 40
2.0
  9
$STEPSIZE
 40
6.0
  9
$3DDWFPREC
 40
2.0
  9
$PSOLWIDTH
 40
0.25
  9
$PSOLHEIGHT
 40
4.0
  9
$LOFTANG1
 40
1.570796326794896
  9
$LOFTANG2
 40
1.570796326794896
  9
$LOFTMAG1
 40
0.0
  9
$LOFTMAG2
 40
0.0
  9
$LOFTPARAM
 70
     7
  9
$LOFTNORMALS
280
     1
  9
$LATITUDE
 40
37.795
  9
$LONGITUDE
 40
-122.394
  9
$NORTHDIRECTION
 40
0.0
  9
$TIMEZONE
 70
 -8000
  9
$LIGHTGLYPHDISPLAY
280
     1
  9
$TILEMODELIGHTSYNCH
280
     1
  9
$CMATERIAL
347
88D
  9
$SOLIDHIST
280
     0
  9
$SHOWHIST
280
     1
  9
$DWFFRAME
280
     2
  9
$DGNFRAME
280
     0
  9
$REALWORLDSCALE
290
     1
  9
$INTERFERECOLOR
 62
     1
  9
$INTERFEREOBJVS
345
8AF
  9
$INTERFEREVPVS
346
8AC
  9
$CSHADOW
280
     0
  9
$SHADOWPLANELOCATION
 40
0.0
  0
ENDSEC
  0
SECTION
  2
CLASSES
  0
CLASS
  1
ACDBDICTIONARYWDFLT
  2
AcDbDictionaryWithDefault
  3
ObjectDBX Classes
 90
        0
 91
        1
280
     0
281
     0
  0
CLASS
  1
DICTIONARYVAR
  2
AcDbDictionaryVar
  3
ObjectDBX Classes
 90
        0
 91
       20
280
     0
281
     0
  0
CLASS
  1
TABLESTYLE
  2
AcDbTableStyle
  3
ObjectDBX Classes
 90
     4095
 91
        1
280
     0
281
     0
  0
CLASS
  1
SORTENTSTABLE
  2
AcDbSortentsTable
  3
ObjectDBX Classes
 90
        0
 91
        0
280
     0
281
     0
  0
CLASS
  1
MATERIAL
  2
AcDbMaterial
  3
ObjectDBX Classes
 90
     1153
 91
        3
280
     0
281
     0
  0
CLASS
  1
VISUALSTYLE
  2
AcDbVisualStyle
  3
ObjectDBX Classes
 90
     4095
 91
       24
280
     0
281
     0
  0
CLASS
  1
SCALE
  2
AcDbScale
  3
ObjectDBX Classes
 90
     1153
 91
       17
280
     0
281
     0
  0
CLASS
  1
MLEADERSTYLE
  2
AcDbMLeaderStyle
  3
ACDB_MLEADERSTYLE_CLASS
 90
     4095
 91
        1
280
     0
281
     0
  0
CLASS
  1
ACDBSECTIONVIEWSTYLE
  2
AcDbSectionViewStyle
  3
ObjectDBX Classes
 90
     1025
 91
        1
280
     0
281
     0
  0
CLASS
  1
ACDBDETAILVIEWSTYLE
  2
AcDbDetailViewStyle
  3
ObjectDBX Classes
 90
     1025
 91
        1
280
     0
281
     0
  0
CLASS
  1
CELLSTYLEMAP
  2
AcDbCellStyleMap
  3
ObjectDBX Classes
 90
     1152
 91
        1
280
     0
281
     0
  0
ENDSEC
  0
SECTION
  2
TABLES
  0
TABLE
  2
VPORT
  5
8
330
0
100
AcDbSymbolTable
 70
     1
1001
ACAD
1000
DbSaveVer
1071
        5
  0
VPORT
  5
882
330
8
100
AcDbSymbolTableRecord
100
AcDbViewportTableRecord
  2
*Active
 70
     0
 10
0.0
 20
0.0
 11
1.0
 21
1.0
 12
107.5550210859168
 22
181.9876567366006
 13
0.0
 23
0.0
 14
10.0
 24
10.0
 15
10.0
 25
10.0
 16
0.0
 26
0.0
 36
1.0
 17
0.0
 27
0.0
 37
0.0
 40
145.3310957815129
 41
2.292712066905615
 42
50.0
 43
0.0
 44
0.0
 50
0.0
 51
0.0
 71
     0
 72
 20000
 73
     1
 74
     3
 75
     0
 76
     0
 77
     0
 78
     0
281
     0
 65
     1
110
0.0
120
0.0
130
0.0
111
1.0
121
0.0
131
0.0
112
0.0
122
1.0
132
0.0
 79
     0
146
0.0
348
8AB
 60
     3
 61
     5
292
     1
282
     1
141
0.0
142
0.0
 63
   250
421
  3355443
1001
ACAD_NAV_VCDISPLAY
1070
     3
  0
ENDTAB
  0
TABLE
  2
LTYPE
  5
5
330
0
100
AcDbSymbolTable
 70
     4
  0
LTYPE
  5
14
330
5
100
AcDbSymbolTableRecord
100
AcDbLinetypeTableRecord
  2
ByBlock
 70
     0
  3

 72
    65
 73
     0
 40
0.0
  0
LTYPE
  5
15
330
5
100
AcDbSymbolTableRecord
100
AcDbLinetypeTableRecord
  2
ByLayer
 70
     0
  3

 72
    65
 73
     0
 40
0.0
  0
LTYPE
  5
16
330
5
100
AcDbSymbolTableRecord
100
AcDbLinetypeTableRecord
  2
Continuous
 70
     0
  3
Solid line
 72
    65
 73
     0
 40
0.0
  0
LTYPE
  5
43
330
5
100
AcDbSymbolTableRecord
100
AcDbLinetypeTableRecord
  2
CENTER2
 70
     0
  3
Center (.5x) ___ _ ___ _ ___ _ ___ _ ___ _ ___
 72
    65
 73
     4
 40
28.575
 49
19.05
 74
     0
 49
-3.174999999999998
 74
     0
 49
3.174999999999998
 74
     0
 49
-3.174999999999998
 74
     0
  0
LTYPE
  5
44
330
5
100
AcDbSymbolTableRecord
100
AcDbLinetypeTableRecord
  2
DASHED2
 70
     0
  3
Dashed (.5x) _ _ _ _ _ _ _ _ _ _ _ _ _ _ _ _ _
 72
    65
 73
     2
 40
9.524999999999996
 49
6.349999999999998
 74
     0
 49
-3.174999999999998
 74
     0
  0
LTYPE
  5
45
330
5
100
AcDbSymbolTableRecord
100
AcDbLinetypeTableRecord
  2
ACAD_ISO12W100
 70
     0
  3
ISO dash double-dot __ . . __ . . __ . . __ . .
 72
    65
 73
     6
 40
21.0
 49
12.0
 74
     0
 49
-3.0
 74
     0
 49
0.0
 74
     0
 49
-3.0
 74
     0
 49
0.0
 74
     0
 49
-3.0
 74
     0
  0
ENDTAB
  0
TABLE
  2
LAYER
  5
2
330
0
100
AcDbSymbolTable
 70
     9
  0
LAYER
  5
10
102
{ACAD_XDICTIONARY
360
8DB
102
}
330
2
100
AcDbSymbolTableRecord
100
AcDbLayerTableRecord
  2
0
 70
     0
 62
     7
  6
Continuous
370
    40
390
F
347
89D
348
0
  0
LAYER
  5
46
102
{ACAD_XDICTIONARY
360
8DD
102
}
330
2
100
AcDbSymbolTableRecord
100
AcDbLayerTableRecord
  2
图层1
 70
     0
 62
     7
  6
Continuous
370
    13
390
F
347
89D
348
0
  0
LAYER
  5
47
102
{ACAD_XDICTIONARY
360
8DF
102
}
330
2
100
AcDbSymbolTableRecord
100
AcDbLayerTableRecord
  2
图层2
 70
     0
 62
     1
  6
CENTER2
370
     9
390
F
347
89D
348
0
  0
LAYER
  5
48
102
{ACAD_XDICTIONARY
360
8E1
102
}
330
2
100
AcDbSymbolTableRecord
100
AcDbLayerTableRecord
  2
图层3
 70
     0
 62
     3
  6
DASHED2
370
    15
390
F
347
89D
348
0
  0
LAYER
  5
49
102
{ACAD_XDICTIONARY
360
8E3
102
}
330
2
100
AcDbSymbolTableRecord
100
AcDbLayerTableRecord
  2
图层4
 70
     0
 62
     5
  6
Continuous
370
    15
390
F
347
89D
348
0
  0
LAYER
  5
4A
102
{ACAD_XDICTIONARY
360
8E5
102
}
330
2
100
AcDbSymbolTableRecord
100
AcDbLayerTableRecord
  2
图层5
 70
     0
 62
     6
  6
Continuous
370
     9
390
F
347
89D
348
0
  0
LAYER
  5
4B
102
{ACAD_XDICTIONARY
360
8E7
102
}
330
2
100
AcDbSymbolTableRecord
100
AcDbLayerTableRecord
  2
图层6
 70
     0
 62
     4
  6
Continuous
370
     9
390
F
347
89D
348
0
  0
LAYER
  5
4C
102
{ACAD_XDICTIONARY
360
8E9
102
}
330
2
100
AcDbSymbolTableRecord
100
AcDbLayerTableRecord
  2
图层7
 70
     0
 62
     2
  6
ACAD_ISO12W100
370
    20
390
F
347
89D
348
0
  0
LAYER
  5
23C
330
2
100
AcDbSymbolTableRecord
100
AcDbLayerTableRecord
  2
Defpoints
 70
     0
 62
     7
  6
Continuous
290
     0
370
    -3
390
F
347
89D
348
0
  0
ENDTAB
  0
TABLE
  2
STYLE
  5
3
330
0
100
AcDbSymbolTable
 70
     5
  0
STYLE
  5
11
330
3
100
AcDbSymbolTableRecord
100
AcDbTextStyleTableRecord
  2
Standard
 70
     0
 40
0.0
 41
1.0
 50
0.0
 71
     0
 42
2.5
  3
txt
  4

  0
STYLE
  5
42
330
3
100
AcDbSymbolTableRecord
100
AcDbTextStyleTableRecord
  2

 70
     1
 40
0.0
 41
1.0
 50
0.0
 71
     0
 42
2.5
  3
ltypeshp.shx
  4

  0
STYLE
  5
50
330
3
100
AcDbSymbolTableRecord
100
AcDbTextStyleTableRecord
  2
样式 1
 70
     0
 40
2.5
 41
1.0
 50
0.0
 71
     0
 42
2.5
  3
SimSun.ttf
  4

1001
ACAD
1000
SimSun
1071
    34306
  0
STYLE
  5
417
330
3
100
AcDbSymbolTableRecord
100
AcDbTextStyleTableRecord
  2
样式 2
 70
     0
 40
5.0
 41
1.0
 50
0.0
 71
     0
 42
5.0
  3
txt.shx
  4

  0
STYLE
  5
434
330
3
100
AcDbSymbolTableRecord
100
AcDbTextStyleTableRecord
  2
样式 3
 70
     0
 40
3.2
 41
1.0
 50
0.0
 71
     0
 42
3.2
  3
SimSun.ttf
  4

1001
ACAD
1000
SimSun
1071
    34306
  0
ENDTAB
  0
TABLE
  2
VIEW
  5
6
330
0
100
AcDbSymbolTable
 70
     0
  0
ENDTAB
  0
TABLE
  2
UCS
  5
7
330
0
100
AcDbSymbolTable
 70
     0
  0
ENDTAB
  0
TABLE
  2
APPID
  5
9
330
0
100
AcDbSymbolTable
 70
     3
  0
APPID
  5
12
330
9
100
AcDbSymbolTableRecord
100
AcDbRegAppTableRecord
  2
ACAD
 70
     0
  0
APPID
  5
7B4
330
9
100
AcDbSymbolTableRecord
100
AcDbRegAppTableRecord
  2
ACAD_EXEMPT_FROM_CAD_STANDARDS
 70
     0
  0
APPID
  5
8EB
330
9
100
AcDbSymbolTableRecord
100
AcDbRegAppTableRecord
  2
ACAD_NAV_VCDISPLAY
 70
     0
  0
ENDTAB
  0
TABLE
  2
DIMSTYLE
  5
A
330
0
100
AcDbSymbolTable
 70
     1
100
AcDbDimStyleTable
 71
     1
340
27
  0
DIMSTYLE
105
27
102
{ACAD_REACTORS
330
779
330
7A6
330
804
330
811
330
81E
330
82D
102
}
330
A
100
AcDbSymbolTableRecord
100
AcDbDimStyleTableRecord
  2
ISO-25
 70
     0
 41
2.5
 42
0.625
 43
3.75
 44
1.25
 73
     0
 74
     0
 77
     1
 78
     8
140
2.5
141
2.0
143
0.03937007874016
147
0.625
171
     3
172
     1
176
   256
177
   256
178
   256
271
     1
272
     1
274
     3
283
     0
284
     8
340
11
371
    -1
372
    -1
  0
ENDTAB
  0
TABLE
  2
BLOCK_RECORD
  5
1
330
0
100
AcDbSymbolTable
 70
    15
  0
BLOCK_RECORD
  5
1F
330
1
100
AcDbSymbolTableRecord
100
AcDbBlockTableRecord
  2
*Model_Space
340
22
 70
     0
280
     1
281
     0
  0
BLOCK_RECORD
  5
1B
330
1
100
AcDbSymbolTableRecord
100
AcDbBlockTableRecord
  2
*Paper_Space
340
1E
 70
     0
280
     1
281
     0
  0
BLOCK_RECORD
  5
23
330
1
100
AcDbSymbolTableRecord
100
AcDbBlockTableRecord
  2
*Paper_Space0
340
26
 70
     0
280
     1
281
     0
  0
BLOCK_RECORD
  5
266
330
1
100
AcDbSymbolTableRecord
100
AcDbBlockTableRecord
  2
*D1
340
0
 70
     0
280
     1
281
     0
  0
BLOCK_RECORD
  5
28F
330
1
100
AcDbSymbolTableRecord
100
AcDbBlockTableRecord
  2
*D2
340
0
 70
     0
280
     1
281
     0
  0
BLOCK_RECORD
  5
2DA
330
1
100
AcDbSymbolTableRecord
100
AcDbBlockTableRecord
  2
*D3
340
0
 70
     0
280
     1
281
     0
  0
BLOCK_RECORD
  5
392
330
1
100
AcDbSymbolTableRecord
100
AcDbBlockTableRecord
  2
*D4
340
0
 70
     0
280
     1
281
     0
  0
BLOCK_RECORD
  5
39F
330
1
100
AcDbSymbolTableRecord
100
AcDbBlockTableRecord
  2
*D5
340
0
 70
     0
280
     1
281
     0
  0
BLOCK_RECORD
  5
4CF
330
1
100
AcDbSymbolTableRecord
100
AcDbBlockTableRecord
  2
*D6
340
0
 70
     0
280
     1
281
     0
  0
BLOCK_RECORD
  5
505
330
1
100
AcDbSymbolTableRecord
100
AcDbBlockTableRecord
  2
*D7
340
0
 70
     0
280
     1
281
     0
  0
BLOCK_RECORD
  5
512
330
1
100
AcDbSymbolTableRecord
100
AcDbBlockTableRecord
  2
*D8
340
0
 70
     0
280
     1
281
     0
  0
BLOCK_RECORD
  5
77A
330
1
100
AcDbSymbolTableRecord
100
AcDbBlockTableRecord
  2
*D9
340
0
 70
     0
280
     1
281
     0
  0
BLOCK_RECORD
  5
7A7
330
1
100
AcDbSymbolTableRecord
100
AcDbBlockTableRecord
  2
*D10
340
0
 70
     0
280
     1
281
     0
  0
BLOCK_RECORD
  5
805
330
1
100
AcDbSymbolTableRecord
100
AcDbBlockTableRecord
  2
*D11
340
0
 70
     0
280
     1
281
     0
  0
BLOCK_RECORD
  5
812
330
1
100
AcDbSymbolTableRecord
100
AcDbBlockTableRecord
  2
*D12
340
0
 70
     0
280
     1
281
     0
  0
BLOCK_RECORD
  5
81F
330
1
100
AcDbSymbolTableRecord
100
AcDbBlockTableRecord
  2
*D13
340
0
 70
     0
280
     1
281
     0
  0
BLOCK_RECORD
  5
82E
330
1
100
AcDbSymbolTableRecord
100
AcDbBlockTableRecord
  2
*D14
340
0
 70
     0
280
     1
281
     0
  0
ENDTAB
  0
ENDSEC
  0
SECTION
  2
BLOCKS
  0
BLOCK
  5
20
330
1F
100
AcDbEntity
  8
0
100
AcDbBlockBegin
  2
*Model_Space
 70
     0
 10
0.0
 20
0.0
 30
0.0
  3
*Model_Space
  1

  0
ENDBLK
  5
21
330
1F
100
AcDbEntity
  8
0
100
AcDbBlockEnd
  0
BLOCK
  5
1C
330
1B
100
AcDbEntity
 67
     1
  8
0
100
AcDbBlockBegin
  2
*Paper_Space
 70
     0
 10
0.0
 20
0.0
 30
0.0
  3
*Paper_Space
  1

  0
ENDBLK
  5
1D
330
1B
100
AcDbEntity
 67
     1
  8
0
100
AcDbBlockEnd
  0
BLOCK
  5
24
330
23
100
AcDbEntity
 67
     1
  8
0
100
AcDbBlockBegin
  2
*Paper_Space0
 70
     0
 10
0.0
 20
0.0
 30
0.0
  3
*Paper_Space0
  1

  0
ENDBLK
  5
25
330
23
100
AcDbEntity
 67
     1
  8
0
100
AcDbBlockEnd
  0
BLOCK
  5
272
330
266
100
AcDbEntity
  8
0
100
AcDbBlockBegin
  2
*D1
 70
     1
 10
0.0
 20
0.0
 30
0.0
  3
*D1
  1

  0
LINE
  5
76E
330
266
100
AcDbEntity
  8
图层4
100
AcDbLine
 10
166.0519797363565
 20
239.4699756813633
 30
0.0
 11
166.0519797363565
 21
246.965499386054
 31
0.0
  0
LINE
  5
76F
330
266
100
AcDbEntity
  8
图层4
100
AcDbLine
 10
171.0519797363565
 20
239.4699756813633
 30
0.0
 11
171.0519797363565
 21
246.965499386054
 31
0.0
  0
LINE
  5
770
330
266
100
AcDbEntity
  8
图层4
100
AcDbLine
 10
163.5519797363565
 20
245.7154993860541
 30
0.0
 11
161.0519797363565
 21
245.7154993860541
 31
0.0
  0
LINE
  5
771
330
266
100
AcDbEntity
  8
图层4
100
AcDbLine
 10
173.5519797363565
 20
245.7154993860541
 30
0.0
 11
176.0519797363565
 21
245.7154993860541
 31
0.0
  0
LINE
  5
772
330
266
100
AcDbEntity
  8
图层4
100
AcDbLine
 10
166.0519797363565
 20
245.7154993860541
 30
0.0
 11
171.0519797363565
 21
245.7154993860541
 31
0.0
  0
SOLID
  5
773
330
266
100
AcDbEntity
  8
图层4
100
AcDbTrace
 10
163.5519797363565
 20
246.1321660527207
 30
0.0
 11
163.5519797363565
 21
245.2988327193874
 31
0.0
 12
166.0519797363565
 22
245.7154993860541
 32
0.0
 13
166.0519797363565
 23
245.7154993860541
 33
0.0
  0
SOLID
  5
774
330
266
100
AcDbEntity
  8
图层4
100
AcDbTrace
 10
173.5519797363565
 20
246.1321660527207
 30
0.0
 11
173.5519797363565
 21
245.2988327193874
 31
0.0
 12
171.0519797363565
 22
245.7154993860541
 32
0.0
 13
171.0519797363565
 23
245.7154993860541
 33
0.0
  0
MTEXT
  5
775
330
266
100
AcDbEntity
  8
图层4
100
AcDbMText
 10
168.5519797363565
 20
247.590499386054
 30
0.0
 40
2.5
 41
0.0
 46
0.0
 71
     5
 72
     1
  1
5
 73
     1
 44
1.0
1001
ACAD
1000
MTEXTBEGIN
1070
    73
1070
     1
1070
    44
1040
1.0
1070
    74
1070
     0
1000
MTEXTEND
  0
POINT
  5
776
330
266
100
AcDbEntity
  8
Defpoints
 62
     0
100
AcDbPoint
 10
166.0519797363565
 20
238.8449756813633
 30
0.0
  0
POINT
  5
777
330
266
100
AcDbEntity
  8
Defpoints
 62
     0
100
AcDbPoint
 10
171.0519797363565
 20
238.8449756813633
 30
0.0
  0
POINT
  5
778
330
266
100
AcDbEntity
  8
Defpoints
 62
     0
100
AcDbPoint
 10
171.0519797363565
 20
245.7154993860541
 30
0.0
  0
ENDBLK
  5
273
330
266
100
AcDbEntity
  8
0
100
AcDbBlockEnd
  0
BLOCK
  5
29B
330
28F
100
AcDbEntity
  8
0
100
AcDbBlockBegin
  2
*D2
 70
     1
 10
0.0
 20
0.0
 30
0.0
  3
*D2
  1

  0
LINE
  5
729
330
28F
100
AcDbEntity
  8
图层4
100
AcDbLine
 10
123.3519797363565
 20
217.7199756813632
 30
0.0
 11
123.3519797363565
 21
210.7592430236043
 31
0.0
  0
LINE
  5
72A
330
28F
100
AcDbEntity
  8
图层4
100
AcDbLine
 10
128.3519797363565
 20
217.7199756813632
 30
0.0
 11
128.3519797363565
 21
210.7592430236043
 31
0.0
  0
LINE
  5
72B
330
28F
100
AcDbEntity
  8
图层4
100
AcDbLine
 10
120.8519797363565
 20
212.0092430236042
 30
0.0
 11
118.3519797363565
 21
212.0092430236042
 31
0.0
  0
LINE
  5
72C
330
28F
100
AcDbEntity
  8
图层4
100
AcDbLine
 10
130.8519797363565
 20
212.0092430236042
 30
0.0
 11
138.7686464030232
 21
212.0092430236042
 31
0.0
  0
LINE
  5
72D
330
28F
100
AcDbEntity
  8
图层4
100
AcDbLine
 10
123.3519797363565
 20
212.0092430236042
 30
0.0
 11
128.3519797363565
 21
212.0092430236042
 31
0.0
  0
SOLID
  5
72E
330
28F
100
AcDbEntity
  8
图层4
100
AcDbTrace
 10
120.8519797363565
 20
212.4259096902709
 30
0.0
 11
120.8519797363565
 21
211.5925763569376
 31
0.0
 12
123.3519797363565
 22
212.0092430236042
 32
0.0
 13
123.3519797363565
 23
212.0092430236042
 33
0.0
  0
SOLID
  5
72F
330
28F
100
AcDbEntity
  8
图层4
100
AcDbTrace
 10
130.8519797363565
 20
212.4259096902709
 30
0.0
 11
130.8519797363565
 21
211.5925763569376
 31
0.0
 12
128.3519797363565
 22
212.0092430236042
 32
0.0
 13
128.3519797363565
 23
212.0092430236042
 33
0.0
  0
MTEXT
  5
730
330
28F
100
AcDbEntity
  8
图层4
100
AcDbMText
 10
136.0603130696899
 20
213.8842430236043
 30
0.0
 40
2.5
 41
0.0
 46
0.0
 71
     5
 72
     1
  1
M5
 73
     1
 44
1.0
1001
ACAD
1000
MTEXTBEGIN
1070
    73
1070
     1
1070
    44
1040
1.0
1070
    74
1070
     0
1000
MTEXTEND
  0
POINT
  5
731
330
28F
100
AcDbEntity
  8
Defpoints
 62
     0
100
AcDbPoint
 10
123.3519797363565
 20
218.3449756813633
 30
0.0
  0
POINT
  5
732
330
28F
100
AcDbEntity
  8
Defpoints
 62
     0
100
AcDbPoint
 10
128.3519797363565
 20
218.3449756813633
 30
0.0
  0
POINT
  5
733
330
28F
100
AcDbEntity
  8
Defpoints
 62
     0
100
AcDbPoint
 10
128.3519797363565
 20
212.0092430236042
 30
0.0
  0
ENDBLK
  5
29C
330
28F
100
AcDbEntity
  8
0
100
AcDbBlockEnd
  0
BLOCK
  5
2E4
330
2DA
100
AcDbEntity
  8
0
100
AcDbBlockBegin
  2
*D3
 70
     1
 10
0.0
 20
0.0
 30
0.0
  3
*D3
  1

  0
LINE
  5
734
330
2DA
100
AcDbEntity
  8
图层4
100
AcDbLine
 10
116.0519797363565
 20
208.7199756813633
 30
0.0
 11
116.0519797363565
 21
204.7156168679919
 31
0.0
  0
LINE
  5
735
330
2DA
100
AcDbEntity
  8
图层4
100
AcDbLine
 10
125.8519797363565
 20
214.2048216713472
 30
0.0
 11
125.8519797363565
 21
204.7156168679919
 31
0.0
  0
LINE
  5
736
330
2DA
100
AcDbEntity
  8
图层4
100
AcDbLine
 10
118.5519797363565
 20
205.9656168679918
 30
0.0
 11
123.3519797363565
 21
205.9656168679918
 31
0.0
  0
SOLID
  5
737
330
2DA
100
AcDbEntity
  8
图层4
100
AcDbTrace
 10
118.5519797363565
 20
206.3822835346585
 30
0.0
 11
118.5519797363565
 21
205.5489502013252
 31
0.0
 12
116.0519797363565
 22
205.9656168679918
 32
0.0
 13
116.0519797363565
 23
205.9656168679918
 33
0.0
  0
SOLID
  5
738
330
2DA
100
AcDbEntity
  8
图层4
100
AcDbTrace
 10
123.3519797363565
 20
206.3822835346585
 30
0.0
 11
123.3519797363565
 21
205.5489502013252
 31
0.0
 12
125.8519797363565
 22
205.9656168679918
 32
0.0
 13
125.8519797363565
 23
205.9656168679918
 33
0.0
  0
MTEXT
  5
739
330
2DA
100
AcDbEntity
  8
图层4
100
AcDbMText
 10
120.9519797363565
 20
207.8406168679919
 30
0.0
 40
2.5
 41
0.0
 46
0.0
 71
     5
 72
     1
  1
10
 73
     1
 44
1.0
1001
ACAD
1000
MTEXTBEGIN
1070
    73
1070
     1
1070
    44
1040
1.0
1070
    74
1070
     0
1000
MTEXTEND
  0
POINT
  5
73A
330
2DA
100
AcDbEntity
  8
Defpoints
 62
     0
100
AcDbPoint
 10
116.0519797363565
 20
209.3449756813633
 30
0.0
  0
POINT
  5
73B
330
2DA
100
AcDbEntity
  8
Defpoints
 62
     0
100
AcDbPoint
 10
125.8519797363565
 20
214.8298216713471
 30
0.0
  0
POINT
  5
73C
330
2DA
100
AcDbEntity
  8
Defpoints
 62
     0
100
AcDbPoint
 10
125.8519797363565
 20
205.9656168679918
 30
0.0
  0
ENDBLK
  5
2E5
330
2DA
100
AcDbEntity
  8
0
100
AcDbBlockEnd
  0
BLOCK
  5
39C
330
392
100
AcDbEntity
  8
0
100
AcDbBlockBegin
  2
*D4
 70
     1
 10
0.0
 20
0.0
 30
0.0
  3
*D4
  1

  0
LINE
  5
73D
330
392
100
AcDbEntity
  8
图层4
100
AcDbLine
 10
109.0519797363565
 20
206.7199756813632
 30
0.0
 11
109.0519797363565
 21
198.6426397702189
 31
0.0
  0
LINE
  5
73E
330
392
100
AcDbEntity
  8
图层4
100
AcDbLine
 10
116.0519797363565
 20
205.3406168679919
 30
0.0
 11
116.0519797363565
 21
198.6426397702189
 31
0.0
  0
LINE
  5
73F
330
392
100
AcDbEntity
  8
图层4
100
AcDbLine
 10
111.5519797363565
 20
199.8926397702188
 30
0.0
 11
113.5519797363565
 21
199.8926397702188
 31
0.0
  0
SOLID
  5
740
330
392
100
AcDbEntity
  8
图层4
100
AcDbTrace
 10
111.5519797363565
 20
200.3093064368855
 30
0.0
 11
111.5519797363565
 21
199.4759731035522
 31
0.0
 12
109.0519797363565
 22
199.8926397702188
 32
0.0
 13
109.0519797363565
 23
199.8926397702188
 33
0.0
  0
SOLID
  5
741
330
392
100
AcDbEntity
  8
图层4
100
AcDbTrace
 10
113.5519797363565
 20
200.3093064368855
 30
0.0
 11
113.5519797363565
 21
199.4759731035522
 31
0.0
 12
116.0519797363565
 22
199.8926397702188
 32
0.0
 13
116.0519797363565
 23
199.8926397702188
 33
0.0
  0
MTEXT
  5
742
330
392
100
AcDbEntity
  8
图层4
100
AcDbMText
 10
112.5519797363565
 20
201.7676397702189
 30
0.0
 40
2.5
 41
0.0
 46
0.0
 71
     5
 72
     1
  1
7
 73
     1
 44
1.0
1001
ACAD
1000
MTEXTBEGIN
1070
    73
1070
     1
1070
    44
1040
1.0
1070
    74
1070
     0
1000
MTEXTEND
  0
POINT
  5
743
330
392
100
AcDbEntity
  8
Defpoints
 62
     0
100
AcDbPoint
 10
109.0519797363565
 20
207.3449756813632
 30
0.0
  0
POINT
  5
744
330
392
100
AcDbEntity
  8
Defpoints
 62
     0
100
AcDbPoint
 10
116.0519797363565
 20
205.9656168679918
 30
0.0
  0
POINT
  5
745
330
392
100
AcDbEntity
  8
Defpoints
 62
     0
100
AcDbPoint
 10
116.0519797363565
 20
199.8926397702188
 30
0.0
  0
ENDBLK
  5
39D
330
392
100
AcDbEntity
  8
0
100
AcDbBlockEnd
  0
BLOCK
  5
3A9
330
39F
100
AcDbEntity
  8
0
100
AcDbBlockBegin
  2
*D5
 70
     1
 10
0.0
 20
0.0
 30
0.0
  3
*D5
  1

  0
LINE
  5
746
330
39F
100
AcDbEntity
  8
图层4
100
AcDbLine
 10
116.0519797363565
 20
205.3406168679919
 30
0.0
 11
116.0519797363565
 21
198.6426397702189
 31
0.0
  0
LINE
  5
747
330
39F
100
AcDbEntity
  8
图层4
100
AcDbLine
 10
171.0519797363565
 20
205.1823276532481
 30
0.0
 11
171.0519797363565
 21
198.6426397702189
 31
0.0
  0
LINE
  5
748
330
39F
100
AcDbEntity
  8
图层4
100
AcDbLine
 10
118.5519797363565
 20
199.8926397702188
 30
0.0
 11
168.5519797363565
 21
199.8926397702188
 31
0.0
  0
SOLID
  5
749
330
39F
100
AcDbEntity
  8
图层4
100
AcDbTrace
 10
118.5519797363565
 20
200.3093064368855
 30
0.0
 11
118.5519797363565
 21
199.4759731035522
 31
0.0
 12
116.0519797363565
 22
199.8926397702188
 32
0.0
 13
116.0519797363565
 23
199.8926397702188
 33
0.0
  0
SOLID
  5
74A
330
39F
100
AcDbEntity
  8
图层4
100
AcDbTrace
 10
168.5519797363565
 20
200.3093064368855
 30
0.0
 11
168.5519797363565
 21
199.4759731035522
 31
0.0
 12
171.0519797363565
 22
199.8926397702188
 32
0.0
 13
171.0519797363565
 23
199.8926397702188
 33
0.0
  0
MTEXT
  5
74B
330
39F
100
AcDbEntity
  8
图层4
100
AcDbMText
 10
143.5519797363565
 20
201.7676397702189
 30
0.0
 40
2.5
 41
0.0
 46
0.0
 71
     5
 72
     1
  1
55
 73
     1
 44
1.0
1001
ACAD
1000
MTEXTBEGIN
1070
    73
1070
     1
1070
    44
1040
1.0
1070
    74
1070
     0
1000
MTEXTEND
  0
POINT
  5
74C
330
39F
100
AcDbEntity
  8
Defpoints
 62
     0
100
AcDbPoint
 10
116.0519797363565
 20
205.9656168679918
 30
0.0
  0
POINT
  5
74D
330
39F
100
AcDbEntity
  8
Defpoints
 62
     0
100
AcDbPoint
 10
171.0519797363565
 20
205.8073276532482
 30
0.0
  0
POINT
  5
74E
330
39F
100
AcDbEntity
  8
Defpoints
 62
     0
100
AcDbPoint
 10
171.0519797363565
 20
199.8926397702188
 30
0.0
  0
ENDBLK
  5
3AA
330
39F
100
AcDbEntity
  8
0
100
AcDbBlockEnd
  0
BLOCK
  5
4DB
330
4CF
100
AcDbEntity
  8
0
100
AcDbBlockBegin
  2
*D6
 70
     1
 10
0.0
 20
0.0
 30
0.0
  3
*D6
  1

  0
LINE
  5
74F
330
4CF
100
AcDbEntity
  8
图层4
100
AcDbLine
 10
168.0519797363565
 20
221.7199756813632
 30
0.0
 11
168.0519797363565
 21
203.9323276532484
 31
0.0
  0
LINE
  5
750
330
4CF
100
AcDbEntity
  8
图层4
100
AcDbLine
 10
171.0519797363565
 20
215.2199756813633
 30
0.0
 11
171.0519797363565
 21
203.9323276532484
 31
0.0
  0
LINE
  5
751
330
4CF
100
AcDbEntity
  8
图层4
100
AcDbLine
 10
165.5519797363565
 20
205.1823276532481
 30
0.0
 11
163.0519797363565
 21
205.1823276532481
 31
0.0
  0
LINE
  5
752
330
4CF
100
AcDbEntity
  8
图层4
100
AcDbLine
 10
173.5519797363565
 20
205.1823276532481
 30
0.0
 11
176.0519797363565
 21
205.1823276532481
 31
0.0
  0
LINE
  5
753
330
4CF
100
AcDbEntity
  8
图层4
100
AcDbLine
 10
168.0519797363565
 20
205.1823276532481
 30
0.0
 11
171.0519797363565
 21
205.1823276532481
 31
0.0
  0
SOLID
  5
754
330
4CF
100
AcDbEntity
  8
图层4
100
AcDbTrace
 10
165.5519797363565
 20
205.5989943199149
 30
0.0
 11
165.5519797363565
 21
204.7656609865816
 31
0.0
 12
168.0519797363565
 22
205.1823276532481
 32
0.0
 13
168.0519797363565
 23
205.1823276532481
 33
0.0
  0
SOLID
  5
755
330
4CF
100
AcDbEntity
  8
图层4
100
AcDbTrace
 10
173.5519797363565
 20
205.5989943199149
 30
0.0
 11
173.5519797363565
 21
204.7656609865816
 31
0.0
 12
171.0519797363565
 22
205.1823276532481
 32
0.0
 13
171.0519797363565
 23
205.1823276532481
 33
0.0
  0
MTEXT
  5
756
330
4CF
100
AcDbEntity
  8
图层4
100
AcDbMText
 10
169.5519797363565
 20
207.0573276532484
 30
0.0
 40
2.5
 41
0.0
 46
0.0
 71
     5
 72
     1
  1
3
 73
     1
 44
1.0
1001
ACAD
1000
MTEXTBEGIN
1070
    73
1070
     1
1070
    44
1040
1.0
1070
    74
1070
     0
1000
MTEXTEND
  0
POINT
  5
757
330
4CF
100
AcDbEntity
  8
Defpoints
 62
     0
100
AcDbPoint
 10
168.0519797363565
 20
222.3449756813632
 30
0.0
  0
POINT
  5
758
330
4CF
100
AcDbEntity
  8
Defpoints
 62
     0
100
AcDbPoint
 10
171.0519797363565
 20
215.8449756813633
 30
0.0
  0
POINT
  5
759
330
4CF
100
AcDbEntity
  8
Defpoints
 62
     0
100
AcDbPoint
 10
171.0519797363565
 20
205.1823276532481
 30
0.0
  0
ENDBLK
  5
4DC
330
4CF
100
AcDbEntity
  8
0
100
AcDbBlockEnd
  0
BLOCK
  5
50F
330
505
100
AcDbEntity
  8
0
100
AcDbBlockBegin
  2
*D7
 70
     1
 10
0.0
 20
0.0
 30
0.0
  3
*D7
  1

  0
LINE
  5
75A
330
505
100
AcDbEntity
  8
图层4
100
AcDbLine
 10
170.6769797363565
 20
239.8449756813633
 30
0.0
 11
191.7835411742126
 21
239.8449756813633
 31
0.0
  0
LINE
  5
75B
330
505
100
AcDbEntity
  8
图层4
100
AcDbLine
 10
170.6769797363565
 20
214.8449756813632
 30
0.0
 11
191.7835411742126
 21
214.8449756813632
 31
0.0
  0
LINE
  5
75C
330
505
100
AcDbEntity
  8
图层4
100
AcDbLine
 10
190.5335411742126
 20
237.3449756813633
 30
0.0
 11
190.5335411742126
 21
217.3449756813632
 31
0.0
  0
SOLID
  5
75D
330
505
100
AcDbEntity
  8
图层4
100
AcDbTrace
 10
190.1168745075459
 20
237.3449756813633
 30
0.0
 11
190.9502078408792
 21
237.3449756813633
 31
0.0
 12
190.5335411742126
 22
239.8449756813633
 32
0.0
 13
190.5335411742126
 23
239.8449756813633
 33
0.0
  0
SOLID
  5
75E
330
505
100
AcDbEntity
  8
图层4
100
AcDbTrace
 10
190.1168745075459
 20
217.3449756813632
 30
0.0
 11
190.9502078408792
 21
217.3449756813632
 31
0.0
 12
190.5335411742126
 22
214.8449756813632
 32
0.0
 13
190.5335411742126
 23
214.8449756813632
 33
0.0
  0
MTEXT
  5
75F
330
505
100
AcDbEntity
  8
图层4
100
AcDbMText
 10
188.6585411742125
 20
227.3449756813633
 30
0.0
 40
2.5
 41
0.0
 46
0.0
 71
     5
 72
     1
  1
%%c25
 11
0.0000000000000001
 21
1.0
 31
0.0
 73
     1
 44
1.0
1001
ACAD
1000
MTEXTBEGIN
1070
    73
1070
     1
1070
    44
1040
1.0
1070
    74
1070
     0
1000
MTEXTEND
  0
POINT
  5
760
330
505
100
AcDbEntity
  8
Defpoints
 62
     0
100
AcDbPoint
 10
170.0519797363565
 20
239.8449756813633
 30
0.0
  0
POINT
  5
761
330
505
100
AcDbEntity
  8
Defpoints
 62
     0
100
AcDbPoint
 10
170.0519797363565
 20
214.8449756813632
 30
0.0
  0
POINT
  5
762
330
505
100
AcDbEntity
  8
Defpoints
 62
     0
100
AcDbPoint
 10
190.5335411742126
 20
214.8449756813632
 30
0.0
  0
ENDBLK
  5
510
330
505
100
AcDbEntity
  8
0
100
AcDbBlockEnd
  0
BLOCK
  5
51C
330
512
100
AcDbEntity
  8
0
100
AcDbBlockBegin
  2
*D8
 70
     1
 10
0.0
 20
0.0
 30
0.0
  3
*D8
  1

  0
LINE
  5
763
330
512
100
AcDbEntity
  8
图层4
100
AcDbLine
 10
166.6769797363565
 20
218.3449756813632
 30
0.0
 11
183.4846720010173
 21
218.3449756813632
 31
0.0
  0
LINE
  5
764
330
512
100
AcDbEntity
  8
图层4
100
AcDbLine
 10
166.6769797363565
 20
236.3449756813632
 30
0.0
 11
183.4846720010173
 21
236.3449756813632
 31
0.0
  0
LINE
  5
765
330
512
100
AcDbEntity
  8
图层4
100
AcDbLine
 10
182.2346720010173
 20
220.8449756813632
 30
0.0
 11
182.2346720010173
 21
233.8449756813632
 31
0.0
  0
SOLID
  5
766
330
512
100
AcDbEntity
  8
图层4
100
AcDbTrace
 10
181.8180053343505
 20
220.8449756813632
 30
0.0
 11
182.6513386676839
 21
220.8449756813632
 31
0.0
 12
182.2346720010173
 22
218.3449756813632
 32
0.0
 13
182.2346720010173
 23
218.3449756813632
 33
0.0
  0
SOLID
  5
767
330
512
100
AcDbEntity
  8
图层4
100
AcDbTrace
 10
181.8180053343505
 20
233.8449756813632
 30
0.0
 11
182.6513386676839
 21
233.8449756813632
 31
0.0
 12
182.2346720010173
 22
236.3449756813632
 32
0.0
 13
182.2346720010173
 23
236.3449756813632
 33
0.0
  0
MTEXT
  5
768
330
512
100
AcDbEntity
  8
图层4
100
AcDbMText
 10
180.3596720010172
 20
227.3449756813632
 30
0.0
 40
2.5
 41
0.0
 46
0.0
 71
     5
 72
     1
  1
%%c18
 11
0.0000000000000001
 21
1.0
 31
0.0
 73
     1
 44
1.0
1001
ACAD
1000
MTEXTBEGIN
1070
    73
1070
     1
1070
    44
1040
1.0
1070
    74
1070
     0
1000
MTEXTEND
  0
POINT
  5
769
330
512
100
AcDbEntity
  8
Defpoints
 62
     0
100
AcDbPoint
 10
166.0519797363565
 20
218.3449756813632
 30
0.0
  0
POINT
  5
76A
330
512
100
AcDbEntity
  8
Defpoints
 62
     0
100
AcDbPoint
 10
166.0519797363565
 20
236.3449756813632
 30
0.0
  0
POINT
  5
76B
330
512
100
AcDbEntity
  8
Defpoints
 62
     0
100
AcDbPoint
 10
182.2346720010173
 20
236.3449756813632
 30
0.0
  0
ENDBLK
  5
51D
330
512
100
AcDbEntity
  8
0
100
AcDbBlockEnd
  0
BLOCK
  5
783
330
77A
100
AcDbEntity
  8
0
100
AcDbBlockBegin
  2
*D9
 70
     1
 10
0.0
 20
0.0
 30
0.0
  3
*D9
  1

  0
LINE
  5
843
330
77A
100
AcDbEntity
  8
图层4
440
 16777216
100
AcDbLine
 10
88.36266485640834
 20
251.4523083008085
 30
0.0
 11
95.06927390073272
 21
244.0346674948254
 31
0.0
  0
LINE
  5
844
330
77A
100
AcDbEntity
  8
图层4
440
 16777216
100
AcDbLine
 10
125.2490146001924
 20
210.6552838679012
 30
0.0
 11
126.9256668612735
 21
208.8008736664054
 31
0.0
  0
MTEXT
  5
845
330
77A
100
AcDbEntity
  8
图层4
440
 16777216
100
AcDbMText
 10
92.26845089915178
 20
249.9281821943757
 30
0.0
 40
2.5
 41
0.0
 46
0.0
 71
     5
 72
     1
  1
∅40
 11
0.6706609044324395
 21
-0.7417640805983144
 31
0.0
 73
     1
 44
1.0
1001
ACAD
1000
MTEXTBEGIN
1070
    73
1070
     1
1070
    44
1040
1.0
1070
    74
1070
     0
1000
MTEXTEND
  0
LINE
  5
846
330
77A
100
AcDbEntity
  8
图层4
440
 16777216
100
AcDbLine
 10
123.5723623391113
 20
212.509694069397
 30
0.0
 11
96.74592616181385
 21
242.1802572933296
 31
0.0
  0
SOLID
  5
847
330
77A
100
AcDbEntity
  8
图层4
440
 16777216
100
AcDbTrace
 10
125.5580829671084
 20
210.9347259114147
 30
0.0
 11
124.9399462332765
 21
210.3758418243877
 31
0.0
 12
123.5723623391113
 22
212.509694069397
 32
0.0
 13
123.5723623391113
 23
212.509694069397
 33
0.0
  0
SOLID
  5
848
330
77A
100
AcDbEntity
  8
图层4
440
 16777216
100
AcDbTrace
 10
95.3783422676487
 20
244.3141095383388
 30
0.0
 11
94.76020553381678
 21
243.7552254513118
 31
0.0
 12
96.74592616181385
 22
242.1802572933296
 32
0.0
 13
96.74592616181385
 23
242.1802572933296
 33
0.0
  0
POINT
  5
849
330
77A
100
AcDbEntity
  8
Defpoints
 62
     0
440
 16777216
100
AcDbPoint
 10
96.74592616181385
 20
242.1802572933296
 30
0.0
  0
POINT
  5
84A
330
77A
100
AcDbEntity
  8
Defpoints
 62
     0
440
 16777216
100
AcDbPoint
 10
123.5723623391113
 20
212.509694069397
 30
0.0
  0
ENDBLK
  5
784
330
77A
100
AcDbEntity
  8
0
100
AcDbBlockEnd
  0
BLOCK
  5
7B1
330
7A7
100
AcDbEntity
  8
0
100
AcDbBlockBegin
  2
*D10
 70
     1
 10
0.0
 20
0.0
 30
0.0
  3
*D10
  1

  0
LINE
  5
84B
330
7A7
100
AcDbEntity
  8
图层4
440
 16777216
100
AcDbLine
 10
97.65914425046254
 20
119.0477827915571
 30
0.0
 11
97.65914425046254
 21
109.8612267686362
 31
0.0
  0
LINE
  5
84C
330
7A7
100
AcDbEntity
  8
图层4
440
 16777216
100
AcDbLine
 10
122.6591442504625
 20
119.0477827915571
 30
0.0
 11
122.6591442504625
 21
109.8612267686362
 31
0.0
  0
LINE
  5
84D
330
7A7
100
AcDbEntity
  8
图层4
440
 16777216
100
AcDbLine
 10
100.1591442504625
 20
111.1112267686362
 30
0.0
 11
120.1591442504625
 21
111.1112267686362
 31
0.0
  0
SOLID
  5
84E
330
7A7
100
AcDbEntity
  8
图层4
440
 16777216
100
AcDbTrace
 10
100.1591442504625
 20
111.5278934353029
 30
0.0
 11
100.1591442504625
 21
110.6945601019695
 31
0.0
 12
97.65914425046254
 22
111.1112267686362
 32
0.0
 13
97.65914425046254
 23
111.1112267686362
 33
0.0
  0
SOLID
  5
84F
330
7A7
100
AcDbEntity
  8
图层4
440
 16777216
100
AcDbTrace
 10
120.1591442504625
 20
111.5278934353029
 30
0.0
 11
120.1591442504625
 21
110.6945601019695
 31
0.0
 12
122.6591442504625
 22
111.1112267686362
 32
0.0
 13
122.6591442504625
 23
111.1112267686362
 33
0.0
  0
MTEXT
  5
850
330
7A7
100
AcDbEntity
  8
图层4
440
 16777216
100
AcDbMText
 10
110.1591442504625
 20
112.9862267686362
 30
0.0
 40
2.5
 41
0.0
 46
0.0
 71
     5
 72
     1
  1
%%C25
 73
     1
 44
1.0
1001
ACAD
1000
MTEXTBEGIN
1070
    73
1070
     1
1070
    44
1040
1.0
1070
    74
1070
     0
1000
MTEXTEND
  0
POINT
  5
851
330
7A7
100
AcDbEntity
  8
Defpoints
 62
     0
440
 16777216
100
AcDbPoint
 10
97.65914425046254
 20
119.6727827915571
 30
0.0
  0
POINT
  5
852
330
7A7
100
AcDbEntity
  8
Defpoints
 62
     0
440
 16777216
100
AcDbPoint
 10
122.6591442504625
 20
119.6727827915571
 30
0.0
  0
POINT
  5
853
330
7A7
100
AcDbEntity
  8
Defpoints
 62
     0
440
 16777216
100
AcDbPoint
 10
122.6591442504625
 20
111.1112267686362
 30
0.0
  0
ENDBLK
  5
7B2
330
7A7
100
AcDbEntity
  8
0
100
AcDbBlockEnd
  0
BLOCK
  5
80F
330
805
100
AcDbEntity
  8
0
100
AcDbBlockBegin
  2
*D11
 70
     1
 10
0.0
 20
0.0
 30
0.0
  3
*D11
  1

  0
LINE
  5
854
330
805
100
AcDbEntity
  8
图层4
440
 16777216
100
AcDbLine
 10
89.53414425046252
 20
180.6727827915571
 30
0.0
 11
80.27674989233357
 21
180.6727827915571
 31
0.0
  0
LINE
  5
855
330
805
100
AcDbEntity
  8
图层4
440
 16777216
100
AcDbLine
 10
98.03414425046256
 20
118.6727827915571
 30
0.0
 11
80.27674989233354
 21
118.6727827915571
 31
0.0
  0
LINE
  5
856
330
805
100
AcDbEntity
  8
图层4
440
 16777216
100
AcDbLine
 10
81.52674989233357
 20
178.1727827915571
 30
0.0
 11
81.52674989233354
 21
121.1727827915571
 31
0.0
  0
SOLID
  5
857
330
805
100
AcDbEntity
  8
图层4
440
 16777216
100
AcDbTrace
 10
81.11008322566689
 20
178.1727827915571
 30
0.0
 11
81.94341655900023
 21
178.1727827915571
 31
0.0
 12
81.52674989233357
 22
180.6727827915571
 32
0.0
 13
81.52674989233357
 23
180.6727827915571
 33
0.0
  0
SOLID
  5
858
330
805
100
AcDbEntity
  8
图层4
440
 16777216
100
AcDbTrace
 10
81.11008322566688
 20
121.1727827915571
 30
0.0
 11
81.94341655900023
 21
121.1727827915571
 31
0.0
 12
81.52674989233354
 22
118.6727827915571
 32
0.0
 13
81.52674989233354
 23
118.6727827915571
 33
0.0
  0
MTEXT
  5
859
330
805
100
AcDbEntity
  8
图层4
440
 16777216
100
AcDbMText
 10
79.65174989233354
 20
149.6727827915571
 30
0.0
 40
2.5
 41
0.0
 46
0.0
 71
     5
 72
     1
  1
62
 11
0.0000000000000001
 21
1.0
 31
0.0
 73
     1
 44
1.0
1001
ACAD
1000
MTEXTBEGIN
1070
    73
1070
     1
1070
    44
1040
1.0
1070
    74
1070
     0
1000
MTEXTEND
  0
POINT
  5
85A
330
805
100
AcDbEntity
  8
Defpoints
 62
     0
440
 16777216
100
AcDbPoint
 10
90.15914425046252
 20
180.6727827915571
 30
0.0
  0
POINT
  5
85B
330
805
100
AcDbEntity
  8
Defpoints
 62
     0
440
 16777216
100
AcDbPoint
 10
98.65914425046256
 20
118.6727827915571
 30
0.0
  0
POINT
  5
85C
330
805
100
AcDbEntity
  8
Defpoints
 62
     0
440
 16777216
100
AcDbPoint
 10
81.52674989233354
 20
118.6727827915571
 30
0.0
  0
ENDBLK
  5
810
330
805
100
AcDbEntity
  8
0
100
AcDbBlockEnd
  0
BLOCK
  5
81C
330
812
100
AcDbEntity
  8
0
100
AcDbBlockBegin
  2
*D12
 70
     1
 10
0.0
 20
0.0
 30
0.0
  3
*D12
  1

  0
LINE
  5
85D
330
812
100
AcDbEntity
  8
图层4
440
 16777216
100
AcDbLine
 10
89.53414425046252
 20
180.6727827915571
 30
0.0
 11
85.35669499053074
 21
180.6727827915571
 31
0.0
  0
LINE
  5
85E
330
812
100
AcDbEntity
  8
图层4
440
 16777216
100
AcDbLine
 10
91.53414425046252
 20
173.6727827915571
 30
0.0
 11
85.35669499053074
 21
173.6727827915571
 31
0.0
  0
LINE
  5
85F
330
812
100
AcDbEntity
  8
图层4
440
 16777216
100
AcDbLine
 10
86.60669499053074
 20
178.1727827915571
 30
0.0
 11
86.60669499053074
 21
176.1727827915571
 31
0.0
  0
SOLID
  5
860
330
812
100
AcDbEntity
  8
图层4
440
 16777216
100
AcDbTrace
 10
86.19002832386405
 20
178.1727827915571
 30
0.0
 11
87.0233616571974
 21
178.1727827915571
 31
0.0
 12
86.60669499053074
 22
180.6727827915571
 32
0.0
 13
86.60669499053074
 23
180.6727827915571
 33
0.0
  0
SOLID
  5
861
330
812
100
AcDbEntity
  8
图层4
440
 16777216
100
AcDbTrace
 10
86.19002832386405
 20
176.1727827915571
 30
0.0
 11
87.0233616571974
 21
176.1727827915571
 31
0.0
 12
86.60669499053074
 22
173.6727827915571
 32
0.0
 13
86.60669499053074
 23
173.6727827915571
 33
0.0
  0
MTEXT
  5
862
330
812
100
AcDbEntity
  8
图层4
440
 16777216
100
AcDbMText
 10
84.73169499053069
 20
177.1727827915571
 30
0.0
 40
2.5
 41
0.0
 46
0.0
 71
     5
 72
     1
  1
7
 11
0.0000000000000001
 21
1.0
 31
0.0
 73
     1
 44
1.0
1001
ACAD
1000
MTEXTBEGIN
1070
    73
1070
     1
1070
    44
1040
1.0
1070
    74
1070
     0
1000
MTEXTEND
  0
POINT
  5
863
330
812
100
AcDbEntity
  8
Defpoints
 62
     0
440
 16777216
100
AcDbPoint
 10
90.15914425046252
 20
180.6727827915571
 30
0.0
  0
POINT
  5
864
330
812
100
AcDbEntity
  8
Defpoints
 62
     0
440
 16777216
100
AcDbPoint
 10
92.15914425046252
 20
173.6727827915571
 30
0.0
  0
POINT
  5
865
330
812
100
AcDbEntity
  8
Defpoints
 62
     0
440
 16777216
100
AcDbPoint
 10
86.60669499053074
 20
173.6727827915571
 30
0.0
  0
ENDBLK
  5
81D
330
812
100
AcDbEntity
  8
0
100
AcDbBlockEnd
  0
BLOCK
  5
82B
330
81F
100
AcDbEntity
  8
0
100
AcDbBlockBegin
  2
*D13
 70
     1
 10
0.0
 20
0.0
 30
0.0
  3
*D13
  1

  0
LINE
  5
866
330
81F
100
AcDbEntity
  8
图层4
440
 16777216
100
AcDbLine
 10
98.03414425046256
 20
123.6727827915572
 30
0.0
 11
87.73866058621045
 21
123.6727827915572
 31
0.0
  0
LINE
  5
867
330
81F
100
AcDbEntity
  8
图层4
440
 16777216
100
AcDbLine
 10
98.03414425046256
 20
118.6727827915571
 30
0.0
 11
87.73866058621045
 21
118.6727827915571
 31
0.0
  0
LINE
  5
868
330
81F
100
AcDbEntity
  8
图层4
440
 16777216
100
AcDbLine
 10
88.98866058621045
 20
126.1727827915572
 30
0.0
 11
88.98866058621045
 21
128.6727827915572
 31
0.0
  0
LINE
  5
869
330
81F
100
AcDbEntity
  8
图层4
440
 16777216
100
AcDbLine
 10
88.98866058621045
 20
116.1727827915571
 30
0.0
 11
88.98866058621045
 21
113.6727827915571
 31
0.0
  0
LINE
  5
86A
330
81F
100
AcDbEntity
  8
图层4
440
 16777216
100
AcDbLine
 10
88.98866058621045
 20
123.6727827915572
 30
0.0
 11
88.98866058621045
 21
118.6727827915571
 31
0.0
  0
SOLID
  5
86B
330
81F
100
AcDbEntity
  8
图层4
440
 16777216
100
AcDbTrace
 10
88.57199391954379
 20
126.1727827915572
 30
0.0
 11
89.40532725287715
 21
126.1727827915572
 31
0.0
 12
88.98866058621045
 22
123.6727827915572
 32
0.0
 13
88.98866058621045
 23
123.6727827915572
 33
0.0
  0
SOLID
  5
86C
330
81F
100
AcDbEntity
  8
图层4
440
 16777216
100
AcDbTrace
 10
88.57199391954379
 20
116.1727827915571
 30
0.0
 11
89.40532725287715
 21
116.1727827915571
 31
0.0
 12
88.98866058621045
 22
118.6727827915571
 32
0.0
 13
88.98866058621045
 23
118.6727827915571
 33
0.0
  0
MTEXT
  5
86D
330
81F
100
AcDbEntity
  8
图层4
440
 16777216
100
AcDbMText
 10
87.11366058621045
 20
121.1727827915572
 30
0.0
 40
2.5
 41
0.0
 46
0.0
 71
     5
 72
     1
  1
5
 11
0.0000000000000001
 21
1.0
 31
0.0
 73
     1
 44
1.0
1001
ACAD
1000
MTEXTBEGIN
1070
    73
1070
     1
1070
    44
1040
1.0
1070
    74
1070
     0
1000
MTEXTEND
  0
POINT
  5
86E
330
81F
100
AcDbEntity
  8
Defpoints
 62
     0
440
 16777216
100
AcDbPoint
 10
98.65914425046256
 20
123.6727827915572
 30
0.0
  0
POINT
  5
86F
330
81F
100
AcDbEntity
  8
Defpoints
 62
     0
440
 16777216
100
AcDbPoint
 10
98.65914425046256
 20
118.6727827915571
 30
0.0
  0
POINT
  5
870
330
81F
100
AcDbEntity
  8
Defpoints
 62
     0
440
 16777216
100
AcDbPoint
 10
88.98866058621045
 20
118.6727827915571
 30
0.0
  0
ENDBLK
  5
82C
330
81F
100
AcDbEntity
  8
0
100
AcDbBlockEnd
  0
BLOCK
  5
838
330
82E
100
AcDbEntity
  8
0
100
AcDbBlockBegin
  2
*D14
 70
     1
 10
0.0
 20
0.0
 30
0.0
  3
*D14
  1

  0
LINE
  5
871
330
82E
100
AcDbEntity
  8
图层4
440
 16777216
100
AcDbLine
 10
101.1591442504625
 20
149.2977827915571
 30
0.0
 11
101.1591442504625
 21
149.9227827915571
 31
0.0
  0
LINE
  5
872
330
82E
100
AcDbEntity
  8
图层4
440
 16777216
100
AcDbLine
 10
119.1591442504625
 20
149.2977827915571
 30
0.0
 11
119.1591442504625
 21
149.9227827915571
 31
0.0
  0
LINE
  5
873
330
82E
100
AcDbEntity
  8
图层4
440
 16777216
100
AcDbLine
 10
103.6591442504625
 20
148.6727827915571
 30
0.0
 11
116.6591442504625
 21
148.6727827915571
 31
0.0
  0
SOLID
  5
874
330
82E
100
AcDbEntity
  8
图层4
440
 16777216
100
AcDbTrace
 10
103.6591442504625
 20
149.0894494582238
 30
0.0
 11
103.6591442504625
 21
148.2561161248904
 31
0.0
 12
101.1591442504625
 22
148.6727827915571
 32
0.0
 13
101.1591442504625
 23
148.6727827915571
 33
0.0
  0
SOLID
  5
875
330
82E
100
AcDbEntity
  8
图层4
440
 16777216
100
AcDbTrace
 10
116.6591442504625
 20
149.0894494582238
 30
0.0
 11
116.6591442504625
 21
148.2561161248904
 31
0.0
 12
119.1591442504625
 22
148.6727827915571
 32
0.0
 13
119.1591442504625
 23
148.6727827915571
 33
0.0
  0
MTEXT
  5
876
330
82E
100
AcDbEntity
  8
图层4
440
 16777216
100
AcDbMText
 10
110.1591442504625
 20
150.5477827915571
 30
0.0
 40
2.5
 41
0.0
 46
0.0
 71
     5
 72
     1
  1
%%C18
 73
     1
 44
1.0
1001
ACAD
1000
MTEXTBEGIN
1070
    73
1070
     1
1070
    44
1040
1.0
1070
    74
1070
     0
1000
MTEXTEND
  0
POINT
  5
877
330
82E
100
AcDbEntity
  8
Defpoints
 62
     0
440
 16777216
100
AcDbPoint
 10
101.1591442504625
 20
148.6727827915571
 30
0.0
  0
POINT
  5
878
330
82E
100
AcDbEntity
  8
Defpoints
 62
     0
440
 16777216
100
AcDbPoint
 10
119.1591442504625
 20
148.6727827915571
 30
0.0
  0
POINT
  5
879
330
82E
100
AcDbEntity
  8
Defpoints
 62
     0
440
 16777216
100
AcDbPoint
 10
119.1591442504625
 20
148.6727827915571
 30
0.0
  0
ENDBLK
  5
839
330
82E
100
AcDbEntity
  8
0
100
AcDbBlockEnd
  0
ENDSEC
  0
SECTION
  2
ENTITIES
  0
LINE
  5
F3
330
1F
100
AcDbEntity
  8
图层2
100
AcDbLine
 10
83.63635214305986
 20
227.3449756813632
 30
0.0
 11
136.6976732516541
 21
227.3449756813632
 31
0.0
  0
LINE
  5
F4
330
1F
100
AcDbEntity
  8
图层2
100
AcDbLine
 10
110.1591442504625
 20
254.1230923758643
 30
0.0
 11
110.1591442504625
 21
203.1599420653924
 31
0.0
  0
CIRCLE
  5
12D
330
1F
100
AcDbEntity
  8
0
100
AcDbCircle
 10
110.1591442504625
 20
227.3449756813632
 30
0.0
 40
20.0
  0
CIRCLE
  5
12E
330
1F
100
AcDbEntity
  8
图层3
100
AcDbCircle
 10
110.1591442504625
 20
227.3449756813632
 30
0.0
 40
9.0
  0
CIRCLE
  5
131
330
1F
100
AcDbEntity
  8
0
100
AcDbCircle
 10
110.1591442504625
 20
227.3449756813632
 30
0.0
 40
12.5
  0
LINE
  5
1C0
330
1F
100
AcDbEntity
  8
0
100
AcDbLine
 10
119.1591442504625
 20
173.6727827915571
 30
0.0
 11
119.1591442504625
 21
123.6727827915571
 31
0.0
  0
LINE
  5
1C1
330
1F
100
AcDbEntity
  8
0
100
AcDbLine
 10
101.1591442504625
 20
173.6727827915571
 30
0.0
 11
101.1591442504625
 21
123.6727827915571
 31
0.0
  0
LINE
  5
1C3
330
1F
100
AcDbEntity
  8
图层2
100
AcDbLine
 10
110.1591442504625
 20
155.3338516502446
 30
0.0
 11
110.1591442504625
 21
182.0453061824379
 31
0.0
  0
LINE
  5
1C6
330
1F
100
AcDbEntity
  8
图层2
100
AcDbLine
 10
110.1591442504625
 20
180.6727827915571
 30
0.0
 11
110.1591442504625
 21
128.0611131734792
 31
0.0
  0
LINE
  5
1C9
330
1F
100
AcDbEntity
  8
0
100
AcDbLine
 10
129.0591442504624
 20
180.6727827915571
 30
0.0
 11
91.25914425046257
 21
180.6727827915571
 31
0.0
  0
LINE
  5
1CA
330
1F
100
AcDbEntity
  8
0
100
AcDbLine
 10
91.15914425046254
 20
180.6727827915571
 30
0.0
 11
129.1591442504625
 21
180.6727827915571
 31
0.0
  0
LINE
  5
1CB
330
1F
100
AcDbEntity
  8
0
100
AcDbLine
 10
92.15914425046252
 20
173.6727827915571
 30
0.0
 11
105.1591442504625
 21
173.6727827915571
 31
0.0
  0
LINE
  5
1D0
330
1F
100
AcDbEntity
  8
0
100
AcDbLine
 10
90.15914425046252
 20
175.6727827915571
 30
0.0
 11
90.15914425046252
 21
180.6727827915571
 31
0.0
  0
LINE
  5
1D3
330
1F
100
AcDbEntity
  8
0
100
AcDbLine
 10
90.15914425046252
 20
180.6727827915571
 30
0.0
 11
91.15914425046254
 21
180.6727827915571
 31
0.0
  0
ARC
  5
1DA
330
1F
100
AcDbEntity
  8
0
100
AcDbCircle
 10
92.15914425046259
 20
175.6727827915571
 30
0.0
 40
2.0
100
AcDbArc
 50
180.0
 51
270.0
  0
LINE
  5
1DE
330
1F
100
AcDbEntity
  8
0
100
AcDbLine
 10
130.1591442504625
 20
175.6727827915571
 30
0.0
 11
130.1591442504625
 21
180.6727827915571
 31
0.0
  0
LINE
  5
1E9
330
1F
100
AcDbEntity
  8
0
100
AcDbLine
 10
129.1591442504625
 20
180.6727827915571
 30
0.0
 11
130.1591442504625
 21
180.6727827915571
 31
0.0
  0
LINE
  5
1EB
330
1F
100
AcDbEntity
  8
0
100
AcDbLine
 10
115.1591442504625
 20
173.6727827915571
 30
0.0
 11
128.1591442504625
 21
173.6727827915571
 31
0.0
  0
ARC
  5
1F7
330
1F
100
AcDbEntity
  8
0
100
AcDbCircle
 10
128.1591442504625
 20
175.6727827915571
 30
0.0
 40
2.0
100
AcDbArc
 50
270.0
 51
0.0
  0
LINE
  5
1FC
330
1F
100
AcDbEntity
  8
0
100
AcDbLine
 10
121.6591442504625
 20
123.6727827915571
 30
0.0
 11
98.65914425046256
 21
123.6727827915571
 31
0.0
  0
LINE
  5
1FD
330
1F
100
AcDbEntity
  8
0
100
AcDbLine
 10
121.6591442504625
 20
118.6727827915571
 30
0.0
 11
98.65914425046256
 21
118.6727827915571
 31
0.0
  0
LINE
  5
1FE
330
1F
100
AcDbEntity
  8
0
100
AcDbLine
 10
97.65914425046254
 20
122.6727827915571
 30
0.0
 11
97.65914425046254
 21
119.6727827915571
 31
0.0
  0
LINE
  5
1FF
330
1F
100
AcDbEntity
  8
0
100
AcDbLine
 10
122.6591442504625
 20
122.6727827915571
 30
0.0
 11
122.6591442504625
 21
119.6727827915571
 31
0.0
  0
ARC
  5
352
330
1F
100
AcDbEntity
  8
0
100
AcDbCircle
 10
98.65914425046256
 20
119.6727827915571
 30
0.0
 40
1.0
100
AcDbArc
 50
180.0
 51
270.0
  0
ARC
  5
353
330
1F
100
AcDbEntity
  8
0
100
AcDbCircle
 10
121.6591442504625
 20
119.6727827915571
 30
0.0
 40
1.0
100
AcDbArc
 50
270.0
 51
0.0
  0
ARC
  5
354
330
1F
100
AcDbEntity
  8
0
100
AcDbCircle
 10
121.6591442504625
 20
122.6727827915571
 30
0.0
 40
1.0
100
AcDbArc
 50
359.9999999999996
 51
90.0
  0
ARC
  5
355
330
1F
100
AcDbEntity
  8
0
100
AcDbCircle
 10
98.65914425046256
 20
122.6727827915571
 30
0.0
 40
1.0
100
AcDbArc
 50
90.0
 51
179.9999999999998
  0
LINE
  5
358
330
1F
100
AcDbEntity
  8
0
100
AcDbLine
 10
105.1591442504625
 20
173.6727827915571
 30
0.0
 11
115.1591442504625
 21
173.6727827915571
 31
0.0
  0
LINE
  5
502
330
1F
100
AcDbEntity
  8
图层2
100
AcDbLine
 10
110.1591442504625
 20
188.8632082210495
 30
0.0
 11
110.1591442504625
 21
116.9671701919153
 31
0.0
  0
DIMENSION
  5
779
330
1F
100
AcDbEntity
  8
图层4
100
AcDbDimension
280
     0
  2
*D9
 10
123.5723623391113
 20
212.509694069397
 30
0.0
 11
92.26845089915178
 21
249.9281821943757
 31
0.0
 70
    35
 71
     5
 42
39.99999999999996
 73
     0
 74
     0
 75
     0
  3
ISO-25
100
AcDbDiametricDimension
 15
96.74592616181385
 25
242.1802572933296
 35
0.0
 40
0.0
1001
ACAD
1000
DSTYLE
1002
{
1070
   288
1070
     1
1002
}
  0
DIMENSION
  5
7A6
330
1F
100
AcDbEntity
  8
图层4
100
AcDbDimension
280
     0
  2
*D10
 10
122.6591442504625
 20
111.1112267686362
 30
0.0
 11
110.1591442504625
 21
112.9862267686362
 31
0.0
 70
    32
  1
%%C<>
 71
     5
 42
25.0
 73
     0
 74
     0
 75
     0
  3
ISO-25
100
AcDbAlignedDimension
 13
97.65914425046254
 23
119.6727827915571
 33
0.0
 14
122.6591442504625
 24
119.6727827915571
 34
0.0
100
AcDbRotatedDimension
  0
DIMENSION
  5
804
330
1F
100
AcDbEntity
  8
图层4
100
AcDbDimension
280
     0
  2
*D11
 10
81.52674989233354
 20
118.6727827915571
 30
0.0
 11
79.65174989233354
 21
149.6727827915571
 31
0.0
 70
    32
 71
     5
 42
62.0
 73
     0
 74
     0
 75
     0
  3
ISO-25
100
AcDbAlignedDimension
 13
90.15914425046252
 23
180.6727827915571
 33
0.0
 14
98.65914425046256
 24
118.6727827915571
 34
0.0
 50
90.0
100
AcDbRotatedDimension
  0
DIMENSION
  5
811
330
1F
100
AcDbEntity
  8
图层4
100
AcDbDimension
280
     0
  2
*D12
 10
86.60669499053074
 20
173.6727827915571
 30
0.0
 11
84.73169499053069
 21
177.1727827915571
 31
0.0
 70
    32
 71
     5
 42
6.999999999999971
 73
     0
 74
     0
 75
     0
  3
ISO-25
100
AcDbAlignedDimension
 13
90.15914425046252
 23
180.6727827915571
 33
0.0
 14
92.15914425046252
 24
173.6727827915571
 34
0.0
 50
90.0
100
AcDbRotatedDimension
  0
DIMENSION
  5
81E
330
1F
100
AcDbEntity
  8
图层4
100
AcDbDimension
280
     0
  2
*D13
 10
88.98866058621045
 20
118.6727827915571
 30
0.0
 11
87.11366058621045
 21
121.1727827915572
 31
0.0
 70
    32
 71
     5
 42
5.000000000000056
 73
     0
 74
     0
 75
     0
  3
ISO-25
100
AcDbAlignedDimension
 13
98.65914425046256
 23
123.6727827915572
 33
0.0
 14
98.65914425046256
 24
118.6727827915571
 34
0.0
 50
90.0
100
AcDbRotatedDimension
  0
DIMENSION
  5
82D
330
1F
100
AcDbEntity
  8
图层4
100
AcDbDimension
280
     0
  2
*D14
 10
119.1591442504625
 20
148.6727827915571
 30
0.0
 11
110.1591442504625
 21
150.5477827915571
 31
0.0
 70
    32
  1
%%C<>
 71
     5
 42
18.0
 73
     0
 74
     0
 75
     0
  3
ISO-25
100
AcDbAlignedDimension
 13
101.1591442504625
 23
148.6727827915571
 33
0.0
 14
119.1591442504625
 24
148.6727827915571
 34
0.0
100
AcDbRotatedDimension
  0
ENDSEC
  0
SECTION
  2
OBJECTS
  0
DICTIONARY
  5
C
330
0
100
AcDbDictionary
281
     1
  3
ACAD_CIP_PREVIOUS_PRODUCT_INFO
350
8DA
  3
ACAD_COLOR
350
53B
  3
ACAD_DETAILVIEWSTYLE
350
8D4
  3
ACAD_GROUP
350
D
  3
ACAD_LAYOUT
350
1A
  3
ACAD_MATERIAL
350
53A
  3
ACAD_MLEADERSTYLE
350
8D0
  3
ACAD_MLINESTYLE
350
17
  3
ACAD_PLOTSETTINGS
350
19
  3
ACAD_PLOTSTYLENAME
350
E
  3
ACAD_SCALELIST
350
8BE
  3
ACAD_SECTIONVIEWSTYLE
350
8D2
  3
ACAD_TABLESTYLE
350
53C
  3
ACAD_VISUALSTYLE
350
8A5
  3
ACDB_RECOMPOSE_DATA
350
907
  3
AcDbVariableDictionary
350
334
  0
DICTIONARY
  5
8DB
330
10
100
AcDbDictionary
280
     1
281
     1
  3
ADSK_XREC_LAYER_RECONCILED
360
8DC
  0
DICTIONARY
  5
8DD
330
46
100
AcDbDictionary
280
     1
281
     1
  3
ADSK_XREC_LAYER_RECONCILED
360
8DE
  0
DICTIONARY
  5
8DF
330
47
100
AcDbDictionary
280
     1
281
     1
  3
ADSK_XREC_LAYER_RECONCILED
360
8E0
  0
DICTIONARY
  5
8E1
330
48
100
AcDbDictionary
280
     1
281
     1
  3
ADSK_XREC_LAYER_RECONCILED
360
8E2
  0
DICTIONARY
  5
8E3
330
49
100
AcDbDictionary
280
     1
281
     1
  3
ADSK_XREC_LAYER_RECONCILED
360
8E4
  0
DICTIONARY
  5
8E5
330
4A
100
AcDbDictionary
280
     1
281
     1
  3
ADSK_XREC_LAYER_RECONCILED
360
8E6
  0
DICTIONARY
  5
8E7
330
4B
100
AcDbDictionary
280
     1
281
     1
  3
ADSK_XREC_LAYER_RECONCILED
360
8E8
  0
DICTIONARY
  5
8E9
330
4C
100
AcDbDictionary
280
     1
281
     1
  3
ADSK_XREC_LAYER_RECONCILED
360
8EA
  0
XRECORD
  5
8DA
102
{ACAD_REACTORS
330
C
102
}
330
C
100
AcDbXrecord
280
     1
300
ACD
300
2017
300
ACD_F_S
  0
DICTIONARY
  5
53B
102
{ACAD_REACTORS
330
C
102
}
330
C
100
AcDbDictionary
281
     1
  0
DICTIONARY
  5
8D4
102
{ACAD_REACTORS
330
C
102
}
330
C
100
AcDbDictionary
281
     1
  3
Metric50
350
8D5
  0
DICTIONARY
  5
D
102
{ACAD_REACTORS
330
C
102
}
330
C
100
AcDbDictionary
281
     1
  0
DICTIONARY
  5
1A
102
{ACAD_REACTORS
330
C
102
}
330
C
100
AcDbDictionary
281
     1
  3
Model
350
22
  3
布局1
350
1E
  3
布局2
350
26
  0
DICTIONARY
  5
53A
102
{ACAD_REACTORS
330
C
102
}
330
C
100
AcDbDictionary
281
     1
  3
ByBlock
350
895
  3
ByLayer
350
88D
  3
Global
350
89D
  0
DICTIONARY
  5
8D0
102
{ACAD_REACTORS
330
C
102
}
330
C
100
AcDbDictionary
281
     1
  3
Standard
350
8D1
  0
DICTIONARY
  5
17
102
{ACAD_REACTORS
330
C
102
}
330
C
100
AcDbDictionary
281
     1
  3
Standard
350
18
  0
DICTIONARY
  5
19
102
{ACAD_REACTORS
330
C
102
}
330
C
100
AcDbDictionary
281
     1
  0
ACDBDICTIONARYWDFLT
  5
E
102
{ACAD_REACTORS
330
C
102
}
330
C
100
AcDbDictionary
281
     1
  3
Normal
350
F
100
AcDbDictionaryWithDefault
340
F
  0
DICTIONARY
  5
8BE
102
{ACAD_REACTORS
330
C
102
}
330
C
100
AcDbDictionary
281
     1
  3
A0
350
8BF
  3
A1
350
8C0
  3
A2
350
8C1
  3
A3
350
8C2
  3
A4
350
8C3
  3
A5
350
8C4
  3
A6
350
8C5
  3
A7
350
8C6
  3
A8
350
8C7
  3
A9
350
8C8
  3
B0
350
8C9
  3
B1
350
8CA
  3
B2
350
8CB
  3
B3
350
8CC
  3
B4
350
8CD
  3
B5
350
8CE
  3
B6
350
8CF
  0
DICTIONARY
  5
8D2
102
{ACAD_REACTORS
330
C
102
}
330
C
100
AcDbDictionary
281
     1
  3
Metric50
350
8D3
  0
DICTIONARY
  5
53C
102
{ACAD_REACTORS
330
C
102
}
330
C
100
AcDbDictionary
281
     1
  3
Standard
350
53D
  0
DICTIONARY
  5
8A5
102
{ACAD_REACTORS
330
C
102
}
330
C
100
AcDbDictionary
281
     1
  3
2dWireframe
350
8AB
  3
Basic
350
8AA
  3
Brighten
350
8B1
  3
ColorChange
350
8B5
  3
Conceptual
350
8AE
  3
Dim
350
8B0
  3
EdgeColorOff
350
8BD
  3
Facepattern
350
8B4
  3
Flat
350
8A6
  3
FlatWithEdges
350
8A7
  3
Gouraud
350
8A8
  3
GouraudWithEdges
350
8A9
  3
Hidden
350
8AD
  3
JitterOff
350
8BB
  3
Linepattern
350
8B3
  3
OverhangOff
350
8BC
  3
Realistic
350
8AF
  3
Shaded
350
8BA
  3
Shaded with edges
350
8B9
  3
Shades of Gray
350
8B6
  3
Sketchy
350
8B7
  3
Thicken
350
8B2
  3
Wireframe
350
8AC
  3
X-Ray
350
8B8
  0
XRECORD
  5
907
102
{ACAD_REACTORS
330
C
102
}
330
C
100
AcDbXrecord
280
     1
 90
        1
330
53D
330
8D3
330
8D5
  0
DICTIONARY
  5
334
102
{ACAD_REACTORS
330
C
102
}
330
C
100
AcDbDictionary
281
     1
  3
CANNOSCALE
350
8FD
  3
CMLEADERSTYLE
350
8F9
  3
CTABLESTYLE
350
6C6
  3
CVIEWDETAILSTYLE
350
8FA
  3
CVIEWSECTIONSTYLE
350
8FB
  3
DIMASSOC
350
796
  3
LAYEREVAL
350
8FF
  3
LAYERNOTIFY
350
900
  3
LIGHTINGUNITS
350
8FE
  3
MSLTSCALE
350
8FC
  3
PROJECTNAME
350
797
  3
SORTENTS
350
335
  0
XRECORD
  5
8DC
102
{ACAD_REACTORS
330
8DB
102
}
330
8DB
100
AcDbXrecord
280
     1
290
     1
  0
XRECORD
  5
8DE
102
{ACAD_REACTORS
330
8DD
102
}
330
8DD
100
AcDbXrecord
280
     1
290
     1
  0
XRECORD
  5
8E0
102
{ACAD_REACTORS
330
8DF
102
}
330
8DF
100
AcDbXrecord
280
     1
290
     1
  0
XRECORD
  5
8E2
102
{ACAD_REACTORS
330
8E1
102
}
330
8E1
100
AcDbXrecord
280
     1
290
     1
  0
XRECORD
  5
8E4
102
{ACAD_REACTORS
330
8E3
102
}
330
8E3
100
AcDbXrecord
280
     1
290
     1
  0
XRECORD
  5
8E6
102
{ACAD_REACTORS
330
8E5
102
}
330
8E5
100
AcDbXrecord
280
     1
290
     1
  0
XRECORD
  5
8E8
102
{ACAD_REACTORS
330
8E7
102
}
330
8E7
100
AcDbXrecord
280
     1
290
     1
  0
XRECORD
  5
8EA
102
{ACAD_REACTORS
330
8E9
102
}
330
8E9
100
AcDbXrecord
280
     1
290
     1
  0
ACDBDETAILVIEWSTYLE
  5
8D5
102
{ACAD_XDICTIONARY
360
905
102
}
102
{ACAD_REACTORS
330
8D4
102
}
330
8D4
100
AcDbModelDocViewStyle
 70
     0
  3
Metric50
290
     0
100
AcDbDetailViewStyle
 70
     0
 71
     0
 90
        3
 71
     1
340
11
 62
   256
 40
5.0
340
0
 62
   256
 40
5.0
300

 40
0.0
280
     1
 71
     2
340
16
 90
       25
 62
   256
 71
     3
340
11
 62
   256
 40
5.0
 90
        0
 40
15.0
 90
        1
300
%<\AcVar ViewDetailId>% (%<\AcVar ViewScale \f "%sn">%)
 71
     4
340
16
 90
       25
 62
   256
340
16
 90
       25
 62
   256
280
     0
  0
LAYOUT
  5
22
102
{ACAD_REACTORS
330
1A
102
}
330
1A
100
AcDbPlotSettings
  1

  2
EPSON Stylus Photo EX3
  4
A4
  6

 40
3.757083177566528
 41
14.7637300491333
 42
3.757080078125
 43
3.757080078125
 44
209.9733276367186
 45
296.9683227539062
 46
0.0
 47
0.0
 48
-1.535082909781293
 49
-1.691055099648791
140
212.1553460061055
141
291.392001258645
142
1.0
143
1.055474221526085
 70
 11952
 72
     1
 73
     0
 74
     4
  7

 75
     0
147
0.9474414245324933
 76
     0
 77
     2
 78
   300
148
1.535082909781293
149
1.691055099648791
100
AcDbLayout
  1
Model
 70
     1
 71
     0
 10
0.0
 20
0.0
 11
12.0
 21
9.0
 12
0.0
 22
0.0
 32
0.0
 14
0.0
 24
0.0
 34
0.0
 15
0.0
 25
0.0
 35
0.0
146
0.0
 13
0.0
 23
0.0
 33
0.0
 16
1.0
 26
0.0
 36
0.0
 17
0.0
 27
1.0
 37
0.0
 76
     0
330
1F
331
882
  0
LAYOUT
  5
1E
102
{ACAD_REACTORS
330
1A
102
}
330
1A
100
AcDbPlotSettings
  1

  2

  4

  6

 40
0.0
 41
0.0
 42
0.0
 43
0.0
 44
0.0
 45
0.0
 46
0.0
 47
0.0
 48
0.0
 49
0.0
140
0.0
141
0.0
142
1.0
143
1.0
 70
   688
 72
     0
 73
     0
 74
     5
  7

 75
    16
147
1.0
 76
     0
 77
     2
 78
   300
148
0.0
149
0.0
100
AcDbLayout
  1
布局1
 70
     1
 71
     1
 10
0.0
 20
0.0
 11
420.0
 21
297.0
 12
0.0
 22
0.0
 32
0.0
 14
1.000000000000000E+20
 24
1.000000000000000E+20
 34
1.000000000000000E+20
 15
-1.000000000000000E+20
 25
-1.000000000000000E+20
 35
-1.000000000000000E+20
146
0.0
 13
0.0
 23
0.0
 33
0.0
 16
1.0
 26
0.0
 36
0.0
 17
0.0
 27
1.0
 37
0.0
 76
     0
330
1B
  0
LAYOUT
  5
26
102
{ACAD_REACTORS
330
1A
102
}
330
1A
100
AcDbPlotSettings
  1

  2

  4

  6

 40
0.0
 41
0.0
 42
0.0
 43
0.0
 44
0.0
 45
0.0
 46
0.0
 47
0.0
 48
0.0
 49
0.0
140
0.0
141
0.0
142
1.0
143
1.0
 70
   688
 72
     0
 73
     0
 74
     5
  7

 75
    16
147
1.0
 76
     0
 77
     2
 78
   300
148
0.0
149
0.0
100
AcDbLayout
  1
布局2
 70
     1
 71
     2
 10
0.0
 20
0.0
 11
12.0
 21
9.0
 12
0.0
 22
0.0
 32
0.0
 14
0.0
 24
0.0
 34
0.0
 15
0.0
 25
0.0
 35
0.0
146
0.0
 13
0.0
 23
0.0
 33
0.0
 16
1.0
 26
0.0
 36
0.0
 17
0.0
 27
1.0
 37
0.0
 76
     0
330
23
  0
MATERIAL
  5
895
102
{ACAD_XDICTIONARY
360
896
102
}
102
{ACAD_REACTORS
330
53A
102
}
330
53A
100
AcDbMaterial
  1
ByBlock
 72
     0
 43
0.0008202099737533
 43
0.0
 43
0.0
 43
0.0
 43
0.0
 43
0.0008202099737533
 43
0.0
 43
0.0
 43
0.0
 43
0.0
 43
1.0
 43
0.0
 43
0.0
 43
0.0
 43
0.0
 43
1.0
 77
     0
 47
0.0008202099737533
 47
0.0
 47
0.0
 47
0.0
 47
0.0
 47
0.0008202099737533
 47
0.0
 47
0.0
 47
0.0
 47
0.0
 47
1.0
 47
0.0
 47
0.0
 47
0.0
 47
0.0
 47
1.0
171
     0
 49
0.0008202099737533
 49
0.0
 49
0.0
 49
0.0
 49
0.0
 49
0.0008202099737533
 49
0.0
 49
0.0
 49
0.0
 49
0.0
 49
1.0
 49
0.0
 49
0.0
 49
0.0
 49
0.0
 49
1.0
175
     0
142
0.0008202099737533
142
0.0
142
0.0
142
0.0
142
0.0
142
0.0008202099737533
142
0.0
142
0.0
142
0.0
142
0.0
142
1.0
142
0.0
142
0.0
142
0.0
142
0.0
142
1.0
179
     0
144
0.0008202099737533
144
0.0
144
0.0
144
0.0
144
0.0
144
0.0008202099737533
144
0.0
144
0.0
144
0.0
144
0.0
144
1.0
144
0.0
144
0.0
144
0.0
144
0.0
144
1.0
147
0.0008202099737533
147
0.0
147
0.0
147
0.0
147
0.0
147
0.0008202099737533
147
0.0
147
0.0
147
0.0
147
0.0
147
1.0
147
0.0
147
0.0
147
0.0
147
0.0
147
1.0
  0
MATERIAL
  5
88D
102
{ACAD_XDICTIONARY
360
88E
102
}
102
{ACAD_REACTORS
330
53A
102
}
330
53A
100
AcDbMaterial
  1
ByLayer
 72
     0
 43
0.0008202099737533
 43
0.0
 43
0.0
 43
0.0
 43
0.0
 43
0.0008202099737533
 43
0.0
 43
0.0
 43
0.0
 43
0.0
 43
1.0
 43
0.0
 43
0.0
 43
0.0
 43
0.0
 43
1.0
 77
     0
 47
0.0008202099737533
 47
0.0
 47
0.0
 47
0.0
 47
0.0
 47
0.0008202099737533
 47
0.0
 47
0.0
 47
0.0
 47
0.0
 47
1.0
 47
0.0
 47
0.0
 47
0.0
 47
0.0
 47
1.0
171
     0
 49
0.0008202099737533
 49
0.0
 49
0.0
 49
0.0
 49
0.0
 49
0.0008202099737533
 49
0.0
 49
0.0
 49
0.0
 49
0.0
 49
1.0
 49
0.0
 49
0.0
 49
0.0
 49
0.0
 49
1.0
175
     0
142
0.0008202099737533
142
0.0
142
0.0
142
0.0
142
0.0
142
0.0008202099737533
142
0.0
142
0.0
142
0.0
142
0.0
142
1.0
142
0.0
142
0.0
142
0.0
142
0.0
142
1.0
179
     0
144
0.0008202099737533
144
0.0
144
0.0
144
0.0
144
0.0
144
0.0008202099737533
144
0.0
144
0.0
144
0.0
144
0.0
144
1.0
144
0.0
144
0.0
144
0.0
144
0.0
144
1.0
147
0.0008202099737533
147
0.0
147
0.0
147
0.0
147
0.0
147
0.0008202099737533
147
0.0
147
0.0
147
0.0
147
0.0
147
1.0
147
0.0
147
0.0
147
0.0
147
0.0
147
1.0
  0
MATERIAL
  5
89D
102
{ACAD_XDICTIONARY
360
89E
102
}
102
{ACAD_REACTORS
330
53A
102
}
330
53A
100
AcDbMaterial
  1
Global
 72
     0
 43
0.0008202099737533
 43
0.0
 43
0.0
 43
0.0
 43
0.0
 43
0.0008202099737533
 43
0.0
 43
0.0
 43
0.0
 43
0.0
 43
1.0
 43
0.0
 43
0.0
 43
0.0
 43
0.0
 43
1.0
 77
     0
 47
0.0008202099737533
 47
0.0
 47
0.0
 47
0.0
 47
0.0
 47
0.0008202099737533
 47
0.0
 47
0.0
 47
0.0
 47
0.0
 47
1.0
 47
0.0
 47
0.0
 47
0.0
 47
0.0
 47
1.0
171
     0
 49
0.0008202099737533
 49
0.0
 49
0.0
 49
0.0
 49
0.0
 49
0.0008202099737533
 49
0.0
 49
0.0
 49
0.0
 49
0.0
 49
1.0
 49
0.0
 49
0.0
 49
0.0
 49
0.0
 49
1.0
175
     0
142
0.0008202099737533
142
0.0
142
0.0
142
0.0
142
0.0
142
0.0008202099737533
142
0.0
142
0.0
142
0.0
142
0.0
142
1.0
142
0.0
142
0.0
142
0.0
142
0.0
142
1.0
179
     0
144
0.0008202099737533
144
0.0
144
0.0
144
0.0
144
0.0
144
0.0008202099737533
144
0.0
144
0.0
144
0.0
144
0.0
144
1.0
144
0.0
144
0.0
144
0.0
144
0.0
144
1.0
147
0.0008202099737533
147
0.0
147
0.0
147
0.0
147
0.0
147
0.0008202099737533
147
0.0
147
0.0
147
0.0
147
0.0
147
1.0
147
0.0
147
0.0
147
0.0
147
0.0
147
1.0
  0
MLEADERSTYLE
  5
8D1
102
{ACAD_REACTORS
330
8D0
102
}
330
8D0
100
AcDbMLeaderStyle
179
     2
170
     2
171
     1
172
     0
 90
        2
 40
0.0
 41
0.0
173
     1
 91
-1056964608
340
14
 92
       -2
290
     1
 42
2.0
291
     1
 43
0.36
  3
Standard
 44
4.0
300

342
11
174
     1
178
     6
175
     1
176
     0
 93
-1056964608
 45
4.0
292
     0
297
     0
 46
4.0
 94
-1056964608
 47
1.0
 49
1.0
140
1.0
293
     1
141
0.0
294
     1
177
     0
142
1.0
295
     0
296
     0
143
0.125
271
     0
272
     9
273
     9
298
     0
  0
MLINESTYLE
  5
18
102
{ACAD_REACTORS
330
17
102
}
330
17
100
AcDbMlineStyle
  2
STANDARD
 70
     0
  3

 62
   256
 51
90.0
 52
90.0
 71
     2
 49
0.5
 62
   256
  6
BYLAYER
 49
-0.5
 62
   256
  6
BYLAYER
  0
ACDBPLACEHOLDER
  5
F
102
{ACAD_REACTORS
330
E
102
}
330
E
  0
SCALE
  5
8BF
102
{ACAD_REACTORS
330
8BE
102
}
330
8BE
100
AcDbScale
 70
     0
300
1:1
140
1.0
141
1.0
290
     1
  0
SCALE
  5
8C0
102
{ACAD_REACTORS
330
8BE
102
}
330
8BE
100
AcDbScale
 70
     0
300
1:2
140
1.0
141
2.0
290
     0
  0
SCALE
  5
8C1
102
{ACAD_REACTORS
330
8BE
102
}
330
8BE
100
AcDbScale
 70
     0
300
1:4
140
1.0
141
4.0
290
     0
  0
SCALE
  5
8C2
102
{ACAD_REACTORS
330
8BE
102
}
330
8BE
100
AcDbScale
 70
     0
300
1:5
140
1.0
141
5.0
290
     0
  0
SCALE
  5
8C3
102
{ACAD_REACTORS
330
8BE
102
}
330
8BE
100
AcDbScale
 70
     0
300
1:8
140
1.0
141
8.0
290
     0
  0
SCALE
  5
8C4
102
{ACAD_REACTORS
330
8BE
102
}
330
8BE
100
AcDbScale
 70
     0
300
1:10
140
1.0
141
10.0
290
     0
  0
SCALE
  5
8C5
102
{ACAD_REACTORS
330
8BE
102
}
330
8BE
100
AcDbScale
 70
     0
300
1:16
140
1.0
141
16.0
290
     0
  0
SCALE
  5
8C6
102
{ACAD_REACTORS
330
8BE
102
}
330
8BE
100
AcDbScale
 70
     0
300
1:20
140
1.0
141
20.0
290
     0
  0
SCALE
  5
8C7
102
{ACAD_REACTORS
330
8BE
102
}
330
8BE
100
AcDbScale
 70
     0
300
1:30
140
1.0
141
30.0
290
     0
  0
SCALE
  5
8C8
102
{ACAD_REACTORS
330
8BE
102
}
330
8BE
100
AcDbScale
 70
     0
300
1:40
140
1.0
141
40.0
290
     0
  0
SCALE
  5
8C9
102
{ACAD_REACTORS
330
8BE
102
}
330
8BE
100
AcDbScale
 70
     0
300
1:50
140
1.0
141
50.0
290
     0
  0
SCALE
  5
8CA
102
{ACAD_REACTORS
330
8BE
102
}
330
8BE
100
AcDbScale
 70
     0
300
1:100
140
1.0
141
100.0
290
     0
  0
SCALE
  5
8CB
102
{ACAD_REACTORS
330
8BE
102
}
330
8BE
100
AcDbScale
 70
     0
300
2:1
140
2.0
141
1.0
290
     0
  0
SCALE
  5
8CC
102
{ACAD_REACTORS
330
8BE
102
}
330
8BE
100
AcDbScale
 70
     0
300
4:1
140
4.0
141
1.0
290
     0
  0
SCALE
  5
8CD
102
{ACAD_REACTORS
330
8BE
102
}
330
8BE
100
AcDbScale
 70
     0
300
8:1
140
8.0
141
1.0
290
     0
  0
SCALE
  5
8CE
102
{ACAD_REACTORS
330
8BE
102
}
330
8BE
100
AcDbScale
 70
     0
300
10:1
140
10.0
141
1.0
290
     0
  0
SCALE
  5
8CF
102
{ACAD_REACTORS
330
8BE
102
}
330
8BE
100
AcDbScale
 70
     0
300
100:1
140
100.0
141
1.0
290
     0
  0
ACDBSECTIONVIEWSTYLE
  5
8D3
102
{ACAD_XDICTIONARY
360
903
102
}
102
{ACAD_REACTORS
330
8D2
102
}
330
8D2
100
AcDbModelDocViewStyle
 70
     0
  3
Metric50
290
     0
100
AcDbSectionViewStyle
 70
     0
 71
     0
 90
      102
 71
     1
340
11
 62
   256
 40
5.0
340
0
340
0
 62
   256
 40
5.0
300
I, O, Q, S, X, Z
 40
10.0
 90
        0
 40
2.5
 90
        0
 71
     2
340
16
 90
       25
 62
   256
340
16
 90
       50
 62
   256
 40
5.0
 40
2.5
 40
5.0
 71
     3
340
11
 62
   256
 40
5.0
 90
        0
 40
15.0
 90
        1
300
%<\AcVar ViewSectionStartId>%-%<\AcVar ViewSectionEndId>% (%<\AcVar ViewScale \f "%sn">%)
 71
     4
 62
   256
 62
   257
300
ANSI31
 40
1.0
 90
        0
290
     0
290
     0
 90
        6
 40
0.0
 40
1.570796326794896
 40
0.2617993877991494
 40
1.308996938995747
 40
-0.2617993877991494
 40
1.832595714594046
  0
TABLESTYLE
  5
53D
102
{ACAD_XDICTIONARY
360
901
102
}
102
{ACAD_REACTORS
330
53C
102
}
330
53C
100
AcDbTableStyle
280
     0
  3
Standard
 70
     0
 71
     0
 40
1.5
 41
1.5
280
     0
281
     0
  7
Standard
140
4.5
170
     2
 62
     0
 63
     7
283
     0
 90
        4
 91
        0
  1

274
    -2
284
     1
 64
     0
275
    -2
285
     1
 65
     0
276
    -2
286
     1
 66
     0
277
    -2
287
     1
 67
     0
278
    -2
288
     1
 68
     0
279
    -2
289
     1
 69
     0
  7
Standard
140
6.0
170
     5
 62
     0
 63
     7
283
     0
 90
        4
 91
        0
  1

274
    -2
284
     1
 64
     0
275
    -2
285
     1
 65
     0
276
    -2
286
     1
 66
     0
277
    -2
287
     1
 67
     0
278
    -2
288
     1
 68
     0
279
    -2
289
     1
 69
     0
  7
Standard
140
4.5
170
     5
 62
     0
 63
     7
283
     0
 90
        4
 91
        0
  1

274
    -2
284
     1
 64
     0
275
    -2
285
     1
 65
     0
276
    -2
286
     1
 66
     0
277
    -2
287
     1
 67
     0
278
    -2
288
     1
 68
     0
279
    -2
289
     1
 69
     0
  0
VISUALSTYLE
  5
8AB
102
{ACAD_REACTORS
330
8A5
102
}
330
8A5
100
AcDbVisualStyle
  2
2dWireframe
 70
     4
177
     3
291
     0
 70
    58
 90
        0
176
     1
 90
        2
176
     1
 90
        0
176
     1
 90
        0
176
     1
 40
0.6
176
     1
 40
30.0
176
     1
 62
     7
420
 16777215
176
     1
 90
        1
176
     1
 90
        4
176
     1
 62
     7
176
     1
 62
   257
176
     1
 90
        1
176
     1
 90
        1
176
     1
 40
1.0
176
     1
 90
        0
176
     1
 62
   257
176
     1
 40
1.0
176
     1
 90
        1
176
     1
 90
        6
176
     1
 90
        2
176
     1
 62
     7
176
     1
 90
        5
176
     1
 90
        0
176
     1
 90
        0
176
     1
290
     0
176
     1
 90
        1
176
     1
 40
0.0
176
     1
 90
        0
176
     1
290
     1
176
     1
290
     1
176
     1
290
     0
176
     1
290
     0
176
     1
290
     0
176
     1
290
     0
176
     1
290
     0
176
     1
290
     0
176
     1
290
     0
176
     1
 90
       50
176
     1
 40
0.0
176
     1
 40
1.0
176
     1
 90
        0
176
     1
 62
    18
420
        0
176
     1
 90
       50
176
     1
 90
        3
176
     1
 62
     5
420
      255
176
     1
290
     0
176
     1
 90
       50
176
     1
 90
       50
176
     1
 90
       50
176
     1
290
     0
176
     1
 90
       50
176
     1
 62
   256
176
     0
 40
1.0
176
     0
 90
        2
176
     1
  1
strokes_ogs.tif
176
     1
290
     0
176
     1
 40
1.0
176
     1
 40
1.0
176
     1
  0
VISUALSTYLE
  5
8AA
102
{ACAD_REACTORS
330
8A5
102
}
330
8A5
100
AcDbVisualStyle
  2
Basic
 70
     7
177
     3
291
     1
 70
    58
 90
        1
176
     1
 90
        0
176
     1
 90
        1
176
     1
 90
        0
176
     1
 40
0.6
176
     1
 40
30.0
176
     1
 62
     7
420
 16777215
176
     1
 90
        0
176
     1
 90
        4
176
     1
 62
     7
176
     1
 62
   257
176
     1
 90
        1
176
     1
 90
        1
176
     1
 40
1.0
176
     1
 90
        8
176
     1
 62
     7
176
     1
 40
1.0
176
     1
 90
        1
176
     1
 90
        6
176
     1
 90
        2
176
     1
 62
     7
176
     1
 90
        5
176
     1
 90
        0
176
     1
 90
        0
176
     1
290
     0
176
     1
 90
        1
176
     1
 40
0.0
176
     1
 90
        0
176
     1
290
     0
176
     1
290
     1
176
     1
290
     1
176
     1
290
     0
176
     1
290
     0
176
     1
290
     0
176
     1
290
     0
176
     1
290
     0
176
     1
290
     0
176
     1
 90
       50
176
     1
 40
0.0
176
     1
 40
1.0
176
     1
 90
        0
176
     1
 62
    18
420
        0
176
     1
 90
       50
176
     1
 90
        3
176
     1
 62
     5
420
      255
176
     1
290
     0
176
     1
 90
       50
176
     1
 90
       50
176
     1
 90
       50
176
     1
290
     0
176
     1
 90
       50
176
     1
 62
   256
176
     0
 40
1.0
176
     0
 90
        2
176
     1
  1
strokes_ogs.tif
176
     1
290
     0
176
     1
 40
1.0
176
     1
 40
1.0
176
     1
  0
VISUALSTYLE
  5
8B1
102
{ACAD_REACTORS
330
8A5
102
}
330
8A5
100
AcDbVisualStyle
  2
Brighten
 70
    12
177
     3
291
     1
 70
    58
 90
        2
176
     1
 90
        2
176
     1
 90
        0
176
     1
 90
        0
176
     1
 40
0.6
176
     1
 40
30.0
176
     1
 62
     7
420
 16777215
176
     1
 90
        1
176
     1
 90
        4
176
     1
 62
     7
176
     1
 62
   257
176
     1
 90
        1
176
     1
 90
        1
176
     1
 40
1.0
176
     1
 90
        8
176
     1
 62
     7
176
     1
 40
1.0
176
     1
 90
        1
176
     1
 90
        6
176
     1
 90
        2
176
     1
 62
     7
176
     1
 90
        5
176
     1
 90
        0
176
     1
 90
        0
176
     1
290
     0
176
     1
 90
        1
176
     1
 40
50.0
176
     1
 90
        0
176
     1
290
     0
176
     1
290
     1
176
     1
290
     1
176
     1
290
     0
176
     1
290
     0
176
     1
290
     0
176
     1
290
     0
176
     1
290
     0
176
     1
290
     0
176
     1
 90
       50
176
     1
 40
0.0
176
     1
 40
1.0
176
     1
 90
        0
176
     1
 62
    18
420
        0
176
     1
 90
       50
176
     1
 90
        3
176
     1
 62
     5
420
      255
176
     1
290
     0
176
     1
 90
       50
176
     1
 90
       50
176
     1
 90
       50
176
     1
290
     0
176
     1
 90
       50
176
     1
 62
   256
176
     0
 40
1.0
176
     0
 90
        2
176
     1
  1
strokes_ogs.tif
176
     1
290
     0
176
     1
 40
1.0
176
     1
 40
1.0
176
     1
  0
VISUALSTYLE
  5
8B5
102
{ACAD_REACTORS
330
8A5
102
}
330
8A5
100
AcDbVisualStyle
  2
ColorChange
 70
    16
177
     3
291
     1
 70
    58
 90
        2
176
     1
 90
        2
176
     1
 90
        3
176
     1
 90
        0
176
     1
 40
0.6
176
     1
 40
30.0
176
     1
 62
     8
420
  8421504
176
     1
 90
        1
176
     1
 90
        4
176
     1
 62
     7
176
     1
 62
   257
176
     1
 90
        1
176
     1
 90
        1
176
     1
 40
1.0
176
     1
 90
        8
176
     1
 62
     8
420
  8421504
176
     1
 40
1.0
176
     1
 90
        1
176
     1
 90
        6
176
     1
 90
        2
176
     1
 62
     7
176
     1
 90
        5
176
     1
 90
        0
176
     1
 90
        0
176
     1
290
     0
176
     1
 90
        1
176
     1
 40
0.0
176
     1
 90
        0
176
     1
290
     0
176
     1
290
     1
176
     1
290
     1
176
     1
290
     0
176
     1
290
     0
176
     1
290
     0
176
     1
290
     0
176
     1
290
     0
176
     1
290
     0
176
     1
 90
       50
176
     1
 40
0.0
176
     1
 40
1.0
176
     1
 90
        0
176
     1
 62
    18
420
        0
176
     1
 90
       50
176
     1
 90
        3
176
     1
 62
     5
420
      255
176
     1
290
     0
176
     1
 90
       50
176
     1
 90
       50
176
     1
 90
       50
176
     1
290
     0
176
     1
 90
       50
176
     1
 62
   256
176
     0
 40
1.0
176
     0
 90
        2
176
     1
  1
strokes_ogs.tif
176
     1
290
     0
176
     1
 40
1.0
176
     1
 40
1.0
176
     1
  0
VISUALSTYLE
  5
8AE
102
{ACAD_REACTORS
330
8A5
102
}
330
8A5
100
AcDbVisualStyle
  2
Conceptual
 70
     9
177
     3
291
     0
 70
    58
 90
        3
176
     1
 90
        2
176
     1
 90
        0
176
     1
 90
        0
176
     1
 40
0.6
176
     1
 40
30.0
176
     1
 62
     7
420
 16777215
176
     1
 90
        2
176
     1
 90
        2
176
     1
 62
     7
176
     1
 62
   257
176
     1
 90
        1
176
     1
 90
        1
176
     1
 40
179.0
176
     1
 90
        8
176
     1
 62
     7
176
     1
 40
1.0
176
     1
 90
        1
176
     1
 90
        6
176
     1
 90
        2
176
     1
 62
     7
176
     1
 90
        3
176
     1
 90
        0
176
     1
 90
        0
176
     1
290
     0
176
     1
 90
        1
176
     1
 40
0.0
176
     1
 90
        0
176
     1
290
     0
176
     1
290
     1
176
     1
290
     1
176
     1
290
     0
176
     1
290
     0
176
     1
290
     0
176
     1
290
     0
176
     1
290
     0
176
     1
290
     0
176
     1
 90
       50
176
     1
 40
0.0
176
     1
 40
1.0
176
     1
 90
        0
176
     1
 62
    18
420
        0
176
     1
 90
       50
176
     1
 90
        3
176
     1
 62
     5
420
      255
176
     1
290
     0
176
     1
 90
       50
176
     1
 90
       50
176
     1
 90
       50
176
     1
290
     0
176
     1
 90
       50
176
     1
 62
   256
176
     0
 40
1.0
176
     0
 90
        2
176
     1
  1
strokes_ogs.tif
176
     1
290
     0
176
     1
 40
1.0
176
     1
 40
1.0
176
     1
  0
VISUALSTYLE
  5
8B0
102
{ACAD_REACTORS
330
8A5
102
}
330
8A5
100
AcDbVisualStyle
  2
Dim
 70
    11
177
     3
291
     1
 70
    58
 90
        2
176
     1
 90
        2
176
     1
 90
        0
176
     1
 90
        0
176
     1
 40
0.6
176
     1
 40
30.0
176
     1
 62
     7
420
 16777215
176
     1
 90
        1
176
     1
 90
        4
176
     1
 62
     7
176
     1
 62
   257
176
     1
 90
        1
176
     1
 90
        1
176
     1
 40
1.0
176
     1
 90
        8
176
     1
 62
     7
176
     1
 40
1.0
176
     1
 90
        1
176
     1
 90
        6
176
     1
 90
        2
176
     1
 62
     7
176
     1
 90
        5
176
     1
 90
        0
176
     1
 90
        0
176
     1
290
     0
176
     1
 90
        1
176
     1
 40
-50.0
176
     1
 90
        0
176
     1
290
     0
176
     1
290
     1
176
     1
290
     1
176
     1
290
     0
176
     1
290
     0
176
     1
290
     0
176
     1
290
     0
176
     1
290
     0
176
     1
290
     0
176
     1
 90
       50
176
     1
 40
0.0
176
     1
 40
1.0
176
     1
 90
        0
176
     1
 62
    18
420
        0
176
     1
 90
       50
176
     1
 90
        3
176
     1
 62
     5
420
      255
176
     1
290
     0
176
     1
 90
       50
176
     1
 90
       50
176
     1
 90
       50
176
     1
290
     0
176
     1
 90
       50
176
     1
 62
   256
176
     0
 40
1.0
176
     0
 90
        2
176
     1
  1
strokes_ogs.tif
176
     1
290
     0
176
     1
 40
1.0
176
     1
 40
1.0
176
     1
  0
VISUALSTYLE
  5
8BD
102
{ACAD_REACTORS
330
8A5
102
}
330
8A5
100
AcDbVisualStyle
  2
EdgeColorOff
 70
    22
177
     3
291
     1
 70
    58
 90
        2
176
     0
 90
        2
176
     0
 90
        0
176
     0
 90
        0
176
     0
 40
0.6
176
     0
 40
30.0
176
     0
 62
     7
420
 16777215
176
     0
 90
        1
176
     0
 90
        4
176
     0
 62
     7
176
     0
 62
   257
176
     0
 90
        1
176
     0
 90
        1
176
     0
 40
1.0
176
     0
 90
        8
176
     2
 62
     7
176
     0
 40
1.0
176
     0
 90
        1
176
     0
 90
        6
176
     0
 90
        2
176
     0
 62
     7
176
     0
 90
        5
176
     0
 90
        0
176
     0
 90
        0
176
     0
290
     0
176
     0
 90
        1
176
     0
 40
0.0
176
     0
 90
        0
176
     0
290
     0
176
     1
290
     1
176
     1
290
     1
176
     1
290
     0
176
     1
290
     0
176
     1
290
     0
176
     1
290
     0
176
     1
290
     0
176
     1
290
     0
176
     1
 90
       50
176
     0
 40
0.0
176
     0
 40
1.0
176
     0
 90
        0
176
     0
 62
    18
420
        0
176
     0
 90
       50
176
     0
 90
        3
176
     0
 62
     5
420
      255
176
     0
290
     0
176
     1
 90
       50
176
     0
 90
       50
176
     0
 90
       50
176
     0
290
     0
176
     1
 90
       50
176
     0
 62
   256
176
     0
 40
1.0
176
     0
 90
        2
176
     0
  1
strokes_ogs.tif
176
     0
290
     0
176
     1
 40
1.0
176
     0
 40
1.0
176
     0
  0
VISUALSTYLE
  5
8B4
102
{ACAD_REACTORS
330
8A5
102
}
330
8A5
100
AcDbVisualStyle
  2
Facepattern
 70
    15
177
     3
291
     1
 70
    58
 90
        2
176
     1
 90
        2
176
     1
 90
        0
176
     1
 90
        0
176
     1
 40
0.6
176
     1
 40
30.0
176
     1
 62
     7
420
 16777215
176
     1
 90
        1
176
     1
 90
        4
176
     1
 62
     7
176
     1
 62
   257
176
     1
 90
        1
176
     1
 90
        1
176
     1
 40
1.0
176
     1
 90
        8
176
     1
 62
     7
176
     1
 40
1.0
176
     1
 90
        1
176
     1
 90
        6
176
     1
 90
        2
176
     1
 62
     7
176
     1
 90
        5
176
     1
 90
        0
176
     1
 90
        0
176
     1
290
     0
176
     1
 90
        1
176
     1
 40
0.0
176
     1
 90
        0
176
     1
290
     0
176
     1
290
     1
176
     1
290
     1
176
     1
290
     0
176
     1
290
     0
176
     1
290
     0
176
     1
290
     0
176
     1
290
     0
176
     1
290
     0
176
     1
 90
       50
176
     1
 40
0.0
176
     1
 40
1.0
176
     1
 90
        0
176
     1
 62
    18
420
        0
176
     1
 90
       50
176
     1
 90
        3
176
     1
 62
     5
420
      255
176
     1
290
     0
176
     1
 90
       50
176
     1
 90
       50
176
     1
 90
       50
176
     1
290
     0
176
     1
 90
       50
176
     1
 62
   256
176
     0
 40
1.0
176
     0
 90
        2
176
     1
  1
strokes_ogs.tif
176
     1
290
     0
176
     1
 40
1.0
176
     1
 40
1.0
176
     1
  0
VISUALSTYLE
  5
8A6
102
{ACAD_REACTORS
330
8A5
102
}
330
8A5
100
AcDbVisualStyle
  2
Flat
 70
     0
177
     3
291
     1
 70
    58
 90
        2
176
     1
 90
        1
176
     1
 90
        1
176
     1
 90
        2
176
     1
 40
0.6
176
     1
 40
30.0
176
     1
 62
     7
420
 16777215
176
     1
 90
        0
176
     1
 90
        0
176
     1
 62
     7
176
     1
 62
   257
176
     1
 90
        1
176
     1
 90
        1
176
     1
 40
1.0
176
     1
 90
        8
176
     1
 62
     7
176
     1
 40
1.0
176
     1
 90
        1
176
     1
 90
        6
176
     1
 90
        2
176
     1
 62
     7
176
     1
 90
        5
176
     1
 90
        0
176
     1
 90
        0
176
     1
290
     0
176
     1
 90
       13
176
     1
 40
0.0
176
     1
 90
        0
176
     1
290
     0
176
     1
290
     1
176
     1
290
     1
176
     1
290
     0
176
     1
290
     0
176
     1
290
     0
176
     1
290
     0
176
     1
290
     0
176
     1
290
     0
176
     1
 90
       50
176
     1
 40
0.0
176
     1
 40
1.0
176
     1
 90
        0
176
     1
 62
    18
420
        0
176
     1
 90
       50
176
     1
 90
        3
176
     1
 62
     5
420
      255
176
     1
290
     0
176
     1
 90
       50
176
     1
 90
       50
176
     1
 90
       50
176
     1
290
     0
176
     1
 90
       50
176
     1
 62
   256
176
     0
 40
1.0
176
     0
 90
        2
176
     1
  1
strokes_ogs.tif
176
     1
290
     0
176
     1
 40
1.0
176
     1
 40
1.0
176
     1
  0
VISUALSTYLE
  5
8A7
102
{ACAD_REACTORS
330
8A5
102
}
330
8A5
100
AcDbVisualStyle
  2
FlatWithEdges
 70
     1
177
     3
291
     1
 70
    58
 90
        2
176
     1
 90
        1
176
     1
 90
        1
176
     1
 90
        2
176
     1
 40
0.6
176
     1
 40
30.0
176
     1
 62
     7
420
 16777215
176
     1
 90
        1
176
     1
 90
        0
176
     1
 62
     7
176
     1
 62
   257
176
     1
 90
        1
176
     1
 90
        1
176
     1
 40
1.0
176
     1
 90
        0
176
     1
 62
   257
176
     1
 40
1.0
176
     1
 90
        1
176
     1
 90
        6
176
     1
 90
        2
176
     1
 62
     7
176
     1
 90
        5
176
     1
 90
        0
176
     1
 90
        0
176
     1
290
     0
176
     1
 90
       13
176
     1
 40
0.0
176
     1
 90
        0
176
     1
290
     0
176
     1
290
     1
176
     1
290
     1
176
     1
290
     0
176
     1
290
     0
176
     1
290
     0
176
     1
290
     0
176
     1
290
     0
176
     1
290
     0
176
     1
 90
       50
176
     1
 40
0.0
176
     1
 40
1.0
176
     1
 90
        0
176
     1
 62
    18
420
        0
176
     1
 90
       50
176
     1
 90
        3
176
     1
 62
     5
420
      255
176
     1
290
     0
176
     1
 90
       50
176
     1
 90
       50
176
     1
 90
       50
176
     1
290
     0
176
     1
 90
       50
176
     1
 62
   256
176
     0
 40
1.0
176
     0
 90
        2
176
     1
  1
strokes_ogs.tif
176
     1
290
     0
176
     1
 40
1.0
176
     1
 40
1.0
176
     1
  0
VISUALSTYLE
  5
8A8
102
{ACAD_REACTORS
330
8A5
102
}
330
8A5
100
AcDbVisualStyle
  2
Gouraud
 70
     2
177
     3
291
     1
 70
    58
 90
        2
176
     1
 90
        2
176
     1
 90
        1
176
     1
 90
        2
176
     1
 40
0.6
176
     1
 40
30.0
176
     1
 62
     7
420
 16777215
176
     1
 90
        0
176
     1
 90
        0
176
     1
 62
     7
176
     1
 62
   257
176
     1
 90
        1
176
     1
 90
        1
176
     1
 40
1.0
176
     1
 90
        0
176
     1
 62
     7
176
     1
 40
1.0
176
     1
 90
        1
176
     1
 90
        6
176
     1
 90
        2
176
     1
 62
     7
176
     1
 90
        5
176
     1
 90
        0
176
     1
 90
        0
176
     1
290
     0
176
     1
 90
       13
176
     1
 40
0.0
176
     1
 90
        0
176
     1
290
     0
176
     1
290
     1
176
     1
290
     1
176
     1
290
     0
176
     1
290
     0
176
     1
290
     0
176
     1
290
     0
176
     1
290
     0
176
     1
290
     0
176
     1
 90
       50
176
     1
 40
0.0
176
     1
 40
1.0
176
     1
 90
        0
176
     1
 62
    18
420
        0
176
     1
 90
       50
176
     1
 90
        3
176
     1
 62
     5
420
      255
176
     1
290
     0
176
     1
 90
       50
176
     1
 90
       50
176
     1
 90
       50
176
     1
290
     0
176
     1
 90
       50
176
     1
 62
   256
176
     0
 40
1.0
176
     0
 90
        2
176
     1
  1
strokes_ogs.tif
176
     1
290
     0
176
     1
 40
1.0
176
     1
 40
1.0
176
     1
  0
VISUALSTYLE
  5
8A9
102
{ACAD_REACTORS
330
8A5
102
}
330
8A5
100
AcDbVisualStyle
  2
GouraudWithEdges
 70
     3
177
     3
291
     1
 70
    58
 90
        2
176
     1
 90
        2
176
     1
 90
        1
176
     1
 90
        2
176
     1
 40
0.6
176
     1
 40
30.0
176
     1
 62
     7
420
 16777215
176
     1
 90
        1
176
     1
 90
        0
176
     1
 62
     7
176
     1
 62
   257
176
     1
 90
        1
176
     1
 90
        1
176
     1
 40
1.0
176
     1
 90
        0
176
     1
 62
   257
176
     1
 40
1.0
176
     1
 90
        1
176
     1
 90
        6
176
     1
 90
        2
176
     1
 62
     7
176
     1
 90
        5
176
     1
 90
        0
176
     1
 90
        0
176
     1
290
     0
176
     1
 90
       13
176
     1
 40
0.0
176
     1
 90
        0
176
     1
290
     0
176
     1
290
     1
176
     1
290
     1
176
     1
290
     0
176
     1
290
     0
176
     1
290
     0
176
     1
290
     0
176
     1
290
     0
176
     1
290
     0
176
     1
 90
       50
176
     1
 40
0.0
176
     1
 40
1.0
176
     1
 90
        0
176
     1
 62
    18
420
        0
176
     1
 90
       50
176
     1
 90
        3
176
     1
 62
     5
420
      255
176
     1
290
     0
176
     1
 90
       50
176
     1
 90
       50
176
     1
 90
       50
176
     1
290
     0
176
     1
 90
       50
176
     1
 62
   256
176
     0
 40
1.0
176
     0
 90
        2
176
     1
  1
strokes_ogs.tif
176
     1
290
     0
176
     1
 40
1.0
176
     1
 40
1.0
176
     1
  0
VISUALSTYLE
  5
8AD
102
{ACAD_REACTORS
330
8A5
102
}
330
8A5
100
AcDbVisualStyle
  2
Hidden
 70
     6
177
     3
291
     0
 70
    58
 90
        1
176
     1
 90
        2
176
     1
 90
        2
176
     1
 90
        0
176
     1
 40
0.6
176
     1
 40
30.0
176
     1
 62
     7
420
 16777215
176
     1
 90
        2
176
     1
 90
        2
176
     1
 62
     7
176
     1
 62
   257
176
     1
 90
        2
176
     1
 90
        1
176
     1
 40
40.0
176
     1
 90
        0
176
     1
 62
   257
176
     1
 40
1.0
176
     1
 90
        1
176
     1
 90
        6
176
     1
 90
        2
176
     1
 62
     7
176
     1
 90
        3
176
     1
 90
        0
176
     1
 90
        0
176
     1
290
     0
176
     1
 90
        1
176
     1
 40
0.0
176
     1
 90
        0
176
     1
290
     0
176
     1
290
     1
176
     1
290
     1
176
     1
290
     0
176
     1
290
     0
176
     1
290
     0
176
     1
290
     0
176
     1
290
     0
176
     1
290
     0
176
     1
 90
       50
176
     1
 40
0.0
176
     1
 40
1.0
176
     1
 90
        0
176
     1
 62
    18
420
        0
176
     1
 90
       50
176
     1
 90
        3
176
     1
 62
     5
420
      255
176
     1
290
     0
176
     1
 90
       50
176
     1
 90
       50
176
     1
 90
       50
176
     1
290
     0
176
     1
 90
       50
176
     1
 62
   256
176
     0
 40
1.0
176
     0
 90
        2
176
     1
  1
strokes_ogs.tif
176
     1
290
     0
176
     1
 40
1.0
176
     1
 40
1.0
176
     1
  0
VISUALSTYLE
  5
8BB
102
{ACAD_REACTORS
330
8A5
102
}
330
8A5
100
AcDbVisualStyle
  2
JitterOff
 70
    20
177
     3
291
     1
 70
    58
 90
        2
176
     0
 90
        2
176
     0
 90
        0
176
     0
 90
        0
176
     0
 40
0.6
176
     0
 40
30.0
176
     0
 62
     7
420
 16777215
176
     0
 90
        1
176
     0
 90
        4
176
     0
 62
     7
176
     0
 62
   257
176
     0
 90
        1
176
     0
 90
        1
176
     0
 40
1.0
176
     0
 90
       10
176
     2
 62
     7
176
     0
 40
1.0
176
     0
 90
        1
176
     0
 90
        6
176
     0
 90
        2
176
     0
 62
     7
176
     0
 90
        5
176
     0
 90
        0
176
     0
 90
        0
176
     0
290
     0
176
     0
 90
        1
176
     0
 40
0.0
176
     0
 90
        0
176
     0
290
     0
176
     1
290
     1
176
     1
290
     1
176
     1
290
     0
176
     1
290
     0
176
     1
290
     0
176
     1
290
     0
176
     1
290
     0
176
     1
290
     0
176
     1
 90
       50
176
     0
 40
0.0
176
     0
 40
1.0
176
     0
 90
        0
176
     0
 62
    18
420
        0
176
     0
 90
       50
176
     0
 90
        3
176
     0
 62
     5
420
      255
176
     0
290
     0
176
     1
 90
       50
176
     0
 90
       50
176
     0
 90
       50
176
     0
290
     0
176
     1
 90
       50
176
     0
 62
   256
176
     0
 40
1.0
176
     0
 90
        2
176
     0
  1
strokes_ogs.tif
176
     0
290
     0
176
     1
 40
1.0
176
     0
 40
1.0
176
     0
  0
VISUALSTYLE
  5
8B3
102
{ACAD_REACTORS
330
8A5
102
}
330
8A5
100
AcDbVisualStyle
  2
Linepattern
 70
    14
177
     3
291
     1
 70
    58
 90
        2
176
     1
 90
        2
176
     1
 90
        0
176
     1
 90
        0
176
     1
 40
0.6
176
     1
 40
30.0
176
     1
 62
     7
420
 16777215
176
     1
 90
        1
176
     1
 90
        4
176
     1
 62
     7
176
     1
 62
   257
176
     1
 90
        7
176
     1
 90
        7
176
     1
 40
1.0
176
     1
 90
        8
176
     1
 62
     7
176
     1
 40
1.0
176
     1
 90
        1
176
     1
 90
        6
176
     1
 90
        2
176
     1
 62
     7
176
     1
 90
        5
176
     1
 90
        0
176
     1
 90
        0
176
     1
290
     0
176
     1
 90
        1
176
     1
 40
0.0
176
     1
 90
        0
176
     1
290
     0
176
     1
290
     1
176
     1
290
     1
176
     1
290
     0
176
     1
290
     0
176
     1
290
     0
176
     1
290
     0
176
     1
290
     0
176
     1
290
     0
176
     1
 90
       50
176
     1
 40
0.0
176
     1
 40
1.0
176
     1
 90
        0
176
     1
 62
    18
420
        0
176
     1
 90
       50
176
     1
 90
        3
176
     1
 62
     5
420
      255
176
     1
290
     0
176
     1
 90
       50
176
     1
 90
       50
176
     1
 90
       50
176
     1
290
     0
176
     1
 90
       50
176
     1
 62
   256
176
     0
 40
1.0
176
     0
 90
        2
176
     1
  1
strokes_ogs.tif
176
     1
290
     0
176
     1
 40
1.0
176
     1
 40
1.0
176
     1
  0
VISUALSTYLE
  5
8BC
102
{ACAD_REACTORS
330
8A5
102
}
330
8A5
100
AcDbVisualStyle
  2
OverhangOff
 70
    21
177
     3
291
     1
 70
    58
 90
        2
176
     0
 90
        2
176
     0
 90
        0
176
     0
 90
        0
176
     0
 40
0.6
176
     0
 40
30.0
176
     0
 62
     7
420
 16777215
176
     0
 90
        1
176
     0
 90
        4
176
     0
 62
     7
176
     0
 62
   257
176
     0
 90
        1
176
     0
 90
        1
176
     0
 40
1.0
176
     0
 90
        9
176
     2
 62
     7
176
     0
 40
1.0
176
     0
 90
        1
176
     0
 90
        6
176
     0
 90
        2
176
     0
 62
     7
176
     0
 90
        5
176
     0
 90
        0
176
     0
 90
        0
176
     0
290
     0
176
     0
 90
        1
176
     0
 40
0.0
176
     0
 90
        0
176
     0
290
     0
176
     1
290
     1
176
     1
290
     1
176
     1
290
     0
176
     1
290
     0
176
     1
290
     0
176
     1
290
     0
176
     1
290
     0
176
     1
290
     0
176
     1
 90
       50
176
     0
 40
0.0
176
     0
 40
1.0
176
     0
 90
        0
176
     0
 62
    18
420
        0
176
     0
 90
       50
176
     0
 90
        3
176
     0
 62
     5
420
      255
176
     0
290
     0
176
     1
 90
       50
176
     0
 90
       50
176
     0
 90
       50
176
     0
290
     0
176
     1
 90
       50
176
     0
 62
   256
176
     0
 40
1.0
176
     0
 90
        2
176
     0
  1
strokes_ogs.tif
176
     0
290
     0
176
     1
 40
1.0
176
     0
 40
1.0
176
     0
  0
VISUALSTYLE
  5
8AF
102
{ACAD_REACTORS
330
8A5
102
}
330
8A5
100
AcDbVisualStyle
  2
Realistic
 70
     8
177
     3
291
     0
 70
    58
 90
        2
176
     1
 90
        3
176
     1
 90
        0
176
     1
 90
        2
176
     1
 40
0.6
176
     1
 40
30.0
176
     1
 62
     7
420
 16777215
176
     1
 90
        0
176
     1
 90
        0
176
     1
 62
     7
176
     1
 62
   257
176
     1
 90
        1
176
     1
 90
        1
176
     1
 40
1.0
176
     1
 90
        8
176
     1
 62
   257
176
     1
 40
1.0
176
     1
 90
        1
176
     1
 90
        6
176
     1
 90
        2
176
     1
 62
     7
176
     1
 90
        3
176
     1
 90
        0
176
     1
 90
        0
176
     1
290
     0
176
     1
 90
       13
176
     1
 40
0.0
176
     1
 90
        0
176
     1
290
     0
176
     1
290
     1
176
     1
290
     1
176
     1
290
     0
176
     1
290
     0
176
     1
290
     0
176
     1
290
     0
176
     1
290
     0
176
     1
290
     0
176
     1
 90
       50
176
     1
 40
0.0
176
     1
 40
1.0
176
     1
 90
        0
176
     1
 62
    18
420
        0
176
     1
 90
       50
176
     1
 90
        3
176
     1
 62
     5
420
      255
176
     1
290
     0
176
     1
 90
       50
176
     1
 90
       50
176
     1
 90
       50
176
     1
290
     0
176
     1
 90
       50
176
     1
 62
   256
176
     0
 40
1.0
176
     0
 90
        2
176
     1
  1
strokes_ogs.tif
176
     1
290
     0
176
     1
 40
1.0
176
     1
 40
1.0
176
     1
  0
VISUALSTYLE
  5
8BA
102
{ACAD_REACTORS
330
8A5
102
}
330
8A5
100
AcDbVisualStyle
  2
Shaded
 70
    27
177
     3
291
     0
 70
    58
 90
        2
176
     1
 90
        2
176
     1
 90
        1
176
     1
 90
        2
176
     1
 40
0.6
176
     1
 40
30.0
176
     1
 62
     7
420
 16777215
176
     1
 90
        0
176
     1
 90
        4
176
     1
 62
     7
176
     1
 62
   257
176
     1
 90
        1
176
     1
 90
        1
176
     1
 40
1.0
176
     1
 90
        8
176
     1
 62
   257
176
     1
 40
1.0
176
     1
 90
        1
176
     1
 90
        6
176
     1
 90
        2
176
     1
 62
     8
420
  7895160
176
     1
 90
        3
176
     1
 90
        0
176
     1
 90
        0
176
     1
290
     0
176
     1
 90
        5
176
     1
 40
0.0
176
     1
 90
        0
176
     1
290
     0
176
     1
290
     1
176
     1
290
     1
176
     1
290
     0
176
     1
290
     0
176
     1
290
     0
176
     1
290
     0
176
     1
290
     0
176
     1
290
     0
176
     1
 90
       50
176
     1
 40
0.0
176
     1
 40
1.0
176
     1
 90
        0
176
     1
 62
    18
420
        0
176
     1
 90
       50
176
     1
 90
        3
176
     1
 62
     5
420
      255
176
     1
290
     0
176
     1
 90
       50
176
     1
 90
       50
176
     1
 90
       50
176
     1
290
     0
176
     1
 90
       50
176
     1
 62
   256
176
     0
 40
1.0
176
     0
 90
        2
176
     1
  1
strokes_ogs.tif
176
     1
290
     0
176
     1
 40
1.0
176
     1
 40
1.0
176
     1
  0
VISUALSTYLE
  5
8B9
102
{ACAD_REACTORS
330
8A5
102
}
330
8A5
100
AcDbVisualStyle
  2
Shaded with edges
 70
    26
177
     3
291
     0
 70
    58
 90
        2
176
     1
 90
        2
176
     1
 90
        1
176
     1
 90
        2
176
     1
 40
0.6
176
     1
 40
30.0
176
     1
 62
     7
420
 16777215
176
     1
 90
        1
176
     1
 90
        2
176
     1
 62
     7
176
     1
 62
   257
176
     1
 90
        2
176
     1
 90
        1
176
     1
 40
1.0
176
     1
 90
        8
176
     1
 62
   257
176
     1
 40
1.0
176
     1
 90
        1
176
     1
 90
        6
176
     1
 90
        2
176
     1
 62
     7
176
     1
 90
        3
176
     1
 90
        0
176
     1
 90
        0
176
     1
290
     0
176
     1
 90
        5
176
     1
 40
0.0
176
     1
 90
        0
176
     1
290
     0
176
     1
290
     1
176
     1
290
     1
176
     1
290
     0
176
     1
290
     0
176
     1
290
     0
176
     1
290
     0
176
     1
290
     0
176
     1
290
     0
176
     1
 90
       50
176
     1
 40
0.0
176
     1
 40
1.0
176
     1
 90
        0
176
     1
 62
    18
420
        0
176
     1
 90
       50
176
     1
 90
        3
176
     1
 62
     5
420
      255
176
     1
290
     0
176
     1
 90
       50
176
     1
 90
       50
176
     1
 90
       50
176
     1
290
     0
176
     1
 90
       50
176
     1
 62
   256
176
     0
 40
1.0
176
     0
 90
        2
176
     1
  1
strokes_ogs.tif
176
     1
290
     0
176
     1
 40
1.0
176
     1
 40
1.0
176
     1
  0
VISUALSTYLE
  5
8B6
102
{ACAD_REACTORS
330
8A5
102
}
330
8A5
100
AcDbVisualStyle
  2
Shades of Gray
 70
    23
177
     3
291
     0
 70
    58
 90
        2
176
     1
 90
        2
176
     1
 90
        3
176
     1
 90
        0
176
     1
 40
0.6
176
     1
 40
30.0
176
     1
 62
     7
420
 16777215
176
     1
 90
        2
176
     1
 90
        2
176
     1
 62
     7
176
     1
 62
     7
176
     1
 90
        1
176
     1
 90
        1
176
     1
 40
40.0
176
     1
 90
        8
176
     1
 62
     7
176
     1
 40
1.0
176
     1
 90
        1
176
     1
 90
        6
176
     1
 90
        2
176
     1
 62
     7
176
     1
 90
        3
176
     1
 90
        0
176
     1
 90
        0
176
     1
290
     0
176
     1
 90
        1
176
     1
 40
0.0
176
     1
 90
        0
176
     1
290
     0
176
     1
290
     1
176
     1
290
     1
176
     1
290
     0
176
     1
290
     0
176
     1
290
     0
176
     1
290
     0
176
     1
290
     0
176
     1
290
     0
176
     1
 90
       50
176
     1
 40
0.0
176
     1
 40
1.0
176
     1
 90
        0
176
     1
 62
    18
420
        0
176
     1
 90
       50
176
     1
 90
        3
176
     1
 62
     5
420
      255
176
     1
290
     0
176
     1
 90
       50
176
     1
 90
       50
176
     1
 90
       50
176
     1
290
     0
176
     1
 90
       50
176
     1
 62
   256
176
     0
 40
1.0
176
     0
 90
        2
176
     1
  1
strokes_ogs.tif
176
     1
290
     0
176
     1
 40
1.0
176
     1
 40
1.0
176
     1
  0
VISUALSTYLE
  5
8B7
102
{ACAD_REACTORS
330
8A5
102
}
330
8A5
100
AcDbVisualStyle
  2
Sketchy
 70
    24
177
     3
291
     0
 70
    58
 90
        1
176
     1
 90
        2
176
     1
 90
        2
176
     1
 90
        0
176
     1
 40
0.6
176
     1
 40
30.0
176
     1
 62
     7
420
 16777215
176
     1
 90
        2
176
     1
 90
        2
176
     1
 62
     7
176
     1
 62
     7
176
     1
 90
        1
176
     1
 90
        1
176
     1
 40
40.0
176
     1
 90
       11
176
     1
 62
     7
176
     1
 40
1.0
176
     1
 90
        1
176
     1
 90
        6
176
     1
 90
        2
176
     1
 62
     7
176
     1
 90
        6
176
     1
 90
        0
176
     1
 90
        0
176
     1
290
     0
176
     1
 90
        1
176
     1
 40
0.0
176
     1
 90
        0
176
     1
290
     0
176
     1
290
     1
176
     1
290
     1
176
     1
290
     0
176
     1
290
     0
176
     1
290
     0
176
     1
290
     0
176
     1
290
     0
176
     1
290
     0
176
     1
 90
       50
176
     1
 40
0.0
176
     1
 40
1.0
176
     1
 90
        0
176
     1
 62
    18
420
        0
176
     1
 90
       50
176
     1
 90
        3
176
     1
 62
     5
420
      255
176
     1
290
     0
176
     1
 90
       50
176
     1
 90
       50
176
     1
 90
       50
176
     1
290
     0
176
     1
 90
       50
176
     1
 62
   256
176
     0
 40
1.0
176
     0
 90
        2
176
     1
  1
strokes_ogs.tif
176
     1
290
     0
176
     1
 40
1.0
176
     1
 40
1.0
176
     1
  0
VISUALSTYLE
  5
8B2
102
{ACAD_REACTORS
330
8A5
102
}
330
8A5
100
AcDbVisualStyle
  2
Thicken
 70
    13
177
     3
291
     1
 70
    58
 90
        2
176
     1
 90
        2
176
     1
 90
        0
176
     1
 90
        0
176
     1
 40
0.6
176
     1
 40
30.0
176
     1
 62
     7
420
 16777215
176
     1
 90
        1
176
     1
 90
        4
176
     1
 62
     7
176
     1
 62
   257
176
     1
 90
        1
176
     1
 90
        1
176
     1
 40
1.0
176
     1
 90
       12
176
     1
 62
     7
176
     1
 40
1.0
176
     1
 90
        1
176
     1
 90
        6
176
     1
 90
        2
176
     1
 62
     7
176
     1
 90
        5
176
     1
 90
        0
176
     1
 90
        0
176
     1
290
     0
176
     1
 90
        1
176
     1
 40
0.0
176
     1
 90
        0
176
     1
290
     0
176
     1
290
     1
176
     1
290
     1
176
     1
290
     0
176
     1
290
     0
176
     1
290
     0
176
     1
290
     0
176
     1
290
     0
176
     1
290
     0
176
     1
 90
       50
176
     1
 40
0.0
176
     1
 40
1.0
176
     1
 90
        0
176
     1
 62
    18
420
        0
176
     1
 90
       50
176
     1
 90
        3
176
     1
 62
     5
420
      255
176
     1
290
     0
176
     1
 90
       50
176
     1
 90
       50
176
     1
 90
       50
176
     1
290
     0
176
     1
 90
       50
176
     1
 62
   256
176
     0
 40
1.0
176
     0
 90
        2
176
     1
  1
strokes_ogs.tif
176
     1
290
     0
176
     1
 40
1.0
176
     1
 40
1.0
176
     1
  0
VISUALSTYLE
  5
8AC
102
{ACAD_REACTORS
330
8A5
102
}
330
8A5
100
AcDbVisualStyle
  2
Wireframe
 70
     5
177
     3
291
     0
 70
    58
 90
        0
176
     1
 90
        2
176
     1
 90
        0
176
     1
 90
        0
176
     1
 40
0.6
176
     1
 40
30.0
176
     1
 62
     7
420
 16777215
176
     1
 90
        1
176
     1
 90
        4
176
     1
 62
     7
176
     1
 62
   257
176
     1
 90
        1
176
     1
 90
        1
176
     1
 40
1.0
176
     1
 90
        0
176
     1
 62
   257
176
     1
 40
1.0
176
     1
 90
        1
176
     1
 90
        6
176
     1
 90
        2
176
     1
 62
     7
176
     1
 90
        3
176
     1
 90
        0
176
     1
 90
        0
176
     1
290
     0
176
     1
 90
        1
176
     1
 40
0.0
176
     1
 90
        0
176
     1
290
     0
176
     1
290
     1
176
     1
290
     1
176
     1
290
     0
176
     1
290
     0
176
     1
290
     0
176
     1
290
     0
176
     1
290
     0
176
     1
290
     0
176
     1
 90
       50
176
     1
 40
0.0
176
     1
 40
1.0
176
     1
 90
        0
176
     1
 62
    18
420
        0
176
     1
 90
       50
176
     1
 90
        3
176
     1
 62
     5
420
      255
176
     1
290
     0
176
     1
 90
       50
176
     1
 90
       50
176
     1
 90
       50
176
     1
290
     0
176
     1
 90
       50
176
     1
 62
   256
176
     0
 40
1.0
176
     0
 90
        2
176
     1
  1
strokes_ogs.tif
176
     1
290
     0
176
     1
 40
1.0
176
     1
 40
1.0
176
     1
  0
VISUALSTYLE
  5
8B8
102
{ACAD_REACTORS
330
8A5
102
}
330
8A5
100
AcDbVisualStyle
  2
X-Ray
 70
    25
177
     3
291
     0
 70
    58
 90
        2
176
     1
 90
        2
176
     1
 90
        1
176
     1
 90
        1
176
     1
 40
0.5
176
     1
 40
30.0
176
     1
 62
     7
420
 16777215
176
     1
 90
        1
176
     1
 90
        0
176
     1
 62
     7
176
     1
 62
   257
176
     1
 90
        1
176
     1
 90
        1
176
     1
 40
1.0
176
     1
 90
        8
176
     1
 62
     7
176
     1
 40
1.0
176
     1
 90
        1
176
     1
 90
        6
176
     1
 90
        2
176
     1
 62
     7
176
     1
 90
        3
176
     1
 90
        0
176
     1
 90
        0
176
     1
290
     0
176
     1
 90
       13
176
     1
 40
0.0
176
     1
 90
        0
176
     1
290
     0
176
     1
290
     1
176
     1
290
     1
176
     1
290
     0
176
     1
290
     0
176
     1
290
     0
176
     1
290
     0
176
     1
290
     0
176
     1
290
     0
176
     1
 90
       50
176
     1
 40
0.0
176
     1
 40
1.0
176
     1
 90
        0
176
     1
 62
    18
420
        0
176
     1
 90
       50
176
     1
 90
        3
176
     1
 62
     5
420
      255
176
     1
290
     0
176
     1
 90
       50
176
     1
 90
       50
176
     1
 90
       50
176
     1
290
     0
176
     1
 90
       50
176
     1
 62
   256
176
     0
 40
1.0
176
     0
 90
        2
176
     1
  1
strokes_ogs.tif
176
     1
290
     0
176
     1
 40
1.0
176
     1
 40
1.0
176
     1
  0
DICTIONARYVAR
  5
8FD
102
{ACAD_REACTORS
330
334
102
}
330
334
100
DictionaryVariables
280
     0
  1
1:1
  0
DICTIONARYVAR
  5
8F9
102
{ACAD_REACTORS
330
334
102
}
330
334
100
DictionaryVariables
280
     0
  1
STANDARD
  0
DICTIONARYVAR
  5
6C6
102
{ACAD_REACTORS
330
334
102
}
330
334
100
DictionaryVariables
280
     0
  1
STANDARD
  0
DICTIONARYVAR
  5
8FA
102
{ACAD_REACTORS
330
334
102
}
330
334
100
DictionaryVariables
280
     0
  1
Metric50
  0
DICTIONARYVAR
  5
8FB
102
{ACAD_REACTORS
330
334
102
}
330
334
100
DictionaryVariables
280
     0
  1
Metric50
  0
DICTIONARYVAR
  5
796
102
{ACAD_REACTORS
330
334
102
}
330
334
100
DictionaryVariables
280
     0
  1
1
  0
DICTIONARYVAR
  5
8FF
102
{ACAD_REACTORS
330
334
102
}
330
334
100
DictionaryVariables
280
     0
  1
1
  0
DICTIONARYVAR
  5
900
102
{ACAD_REACTORS
330
334
102
}
330
334
100
DictionaryVariables
280
     0
  1
15
  0
DICTIONARYVAR
  5
8FE
102
{ACAD_REACTORS
330
334
102
}
330
334
100
DictionaryVariables
280
     0
  1
0
  0
DICTIONARYVAR
  5
8FC
102
{ACAD_REACTORS
330
334
102
}
330
334
100
DictionaryVariables
280
     0
  1
0
  0
DICTIONARYVAR
  5
797
102
{ACAD_REACTORS
330
334
102
}
330
334
100
DictionaryVariables
280
     0
  1

  0
DICTIONARYVAR
  5
335
102
{ACAD_REACTORS
330
334
102
}
330
334
100
DictionaryVariables
280
     0
  1
96
  0
DICTIONARY
  5
905
330
8D5
100
AcDbDictionary
280
     1
281
     1
  3
ACAD_XREC_ROUNDTRIP
360
906
  0
DICTIONARY
  5
896
330
895
100
AcDbDictionary
280
     1
281
     1
  3
BUMPTILE
360
898
  3
DIFFUSETILE
360
897
  3
OPACITYTILE
360
89B
  3
REFLECTIONTILE
360
89A
  3
REFRACTIONTILE
360
89C
  3
SPECULARTILE
360
899
  0
DICTIONARY
  5
88E
330
88D
100
AcDbDictionary
280
     1
281
     1
  3
BUMPTILE
360
890
  3
DIFFUSETILE
360
88F
  3
OPACITYTILE
360
893
  3
REFLECTIONTILE
360
892
  3
REFRACTIONTILE
360
894
  3
SPECULARTILE
360
891
  0
DICTIONARY
  5
89E
330
89D
100
AcDbDictionary
280
     1
281
     1
  3
BUMPTILE
360
8A0
  3
DIFFUSETILE
360
89F
  3
OPACITYTILE
360
8A3
  3
REFLECTIONTILE
360
8A2
  3
REFRACTIONTILE
360
8A4
  3
SPECULARTILE
360
8A1
  0
DICTIONARY
  5
903
330
8D3
100
AcDbDictionary
280
     1
281
     1
  3
ACAD_XREC_ROUNDTRIP
360
904
  0
DICTIONARY
  5
901
330
53D
100
AcDbDictionary
280
     1
281
     1
  3
ACAD_ROUNDTRIP_2008_TABLESTYLE_CELLSTYLEMAP
360
902
  0
XRECORD
  5
906
102
{ACAD_REACTORS
330
905
102
}
330
905
100
AcDbXrecord
280
     1
102
DISPLAYNAME
  1
Metric50
102
FLAGS
 90
        0
  0
XRECORD
  5
898
102
{ACAD_REACTORS
330
896
102
}
330
896
100
AcDbXrecord
280
     1
270
     1
271
     1
  0
XRECORD
  5
897
102
{ACAD_REACTORS
330
896
102
}
330
896
100
AcDbXrecord
280
     1
270
     1
271
     1
  0
XRECORD
  5
89B
102
{ACAD_REACTORS
330
896
102
}
330
896
100
AcDbXrecord
280
     1
270
     1
271
     1
  0
XRECORD
  5
89A
102
{ACAD_REACTORS
330
896
102
}
330
896
100
AcDbXrecord
280
     1
270
     1
271
     1
  0
XRECORD
  5
89C
102
{ACAD_REACTORS
330
896
102
}
330
896
100
AcDbXrecord
280
     1
270
     1
271
     1
  0
XRECORD
  5
899
102
{ACAD_REACTORS
330
896
102
}
330
896
100
AcDbXrecord
280
     1
270
     1
271
     1
  0
XRECORD
  5
890
102
{ACAD_REACTORS
330
88E
102
}
330
88E
100
AcDbXrecord
280
     1
270
     1
271
     1
  0
XRECORD
  5
88F
102
{ACAD_REACTORS
330
88E
102
}
330
88E
100
AcDbXrecord
280
     1
270
     1
271
     1
  0
XRECORD
  5
893
102
{ACAD_REACTORS
330
88E
102
}
330
88E
100
AcDbXrecord
280
     1
270
     1
271
     1
  0
XRECORD
  5
892
102
{ACAD_REACTORS
330
88E
102
}
330
88E
100
AcDbXrecord
280
     1
270
     1
271
     1
  0
XRECORD
  5
894
102
{ACAD_REACTORS
330
88E
102
}
330
88E
100
AcDbXrecord
280
     1
270
     1
271
     1
  0
XRECORD
  5
891
102
{ACAD_REACTORS
330
88E
102
}
330
88E
100
AcDbXrecord
280
     1
270
     1
271
     1
  0
XRECORD
  5
8A0
102
{ACAD_REACTORS
330
89E
102
}
330
89E
100
AcDbXrecord
280
     1
270
     1
271
     1
  0
XRECORD
  5
89F
102
{ACAD_REACTORS
330
89E
102
}
330
89E
100
AcDbXrecord
280
     1
270
     1
271
     1
  0
XRECORD
  5
8A3
102
{ACAD_REACTORS
330
89E
102
}
330
89E
100
AcDbXrecord
280
     1
270
     1
271
     1
  0
XRECORD
  5
8A2
102
{ACAD_REACTORS
330
89E
102
}
330
89E
100
AcDbXrecord
280
     1
270
     1
271
     1
  0
XRECORD
  5
8A4
102
{ACAD_REACTORS
330
89E
102
}
330
89E
100
AcDbXrecord
280
     1
270
     1
271
     1
  0
XRECORD
  5
8A1
102
{ACAD_REACTORS
330
89E
102
}
330
89E
100
AcDbXrecord
280
     1
270
     1
271
     1
  0
XRECORD
  5
904
102
{ACAD_REACTORS
330
903
102
}
330
903
100
AcDbXrecord
280
     1
102
DISPLAYNAME
  1
Metric50
102
FLAGS
 90
        0
  0
CELLSTYLEMAP
  5
902
102
{ACAD_REACTORS
330
901
102
}
330
901
100
AcDbCellStyleMap
 90
        3
300
CELLSTYLE
  1
TABLEFORMAT_BEGIN
 90
        5
170
     1
 91
        0
 92
    32768
 62
   257
 93
        1
300
CONTENTFORMAT
  1
CONTENTFORMAT_BEGIN
 90
        0
 91
        0
 92
        4
 93
        0
300

 40
0.0
140
1.0
 94
        5
 62
     0
340
11
144
6.0
309
CONTENTFORMAT_END
171
     1
301
MARGIN
  1
CELLMARGIN_BEGIN
 40
1.5
 40
1.5
 40
1.5
 40
1.5
 40
0.18
 40
0.18
309
CELLMARGIN_END
 94
        6
 95
        1
302
GRIDFORMAT
  1
GRIDFORMAT_BEGIN
 90
        0
 91
        1
 62
     0
 92
       -2
340
0
 93
        0
 40
0.045
309
GRIDFORMAT_END
 95
        2
302
GRIDFORMAT
  1
GRIDFORMAT_BEGIN
 90
        0
 91
        1
 62
     0
 92
       -2
340
0
 93
        0
 40
0.045
309
GRIDFORMAT_END
 95
        4
302
GRIDFORMAT
  1
GRIDFORMAT_BEGIN
 90
        0
 91
        1
 62
     0
 92
       -2
340
0
 93
        0
 40
0.045
309
GRIDFORMAT_END
 95
        8
302
GRIDFORMAT
  1
GRIDFORMAT_BEGIN
 90
        0
 91
        1
 62
     0
 92
       -2
340
0
 93
        0
 40
0.045
309
GRIDFORMAT_END
 95
       16
302
GRIDFORMAT
  1
GRIDFORMAT_BEGIN
 90
        0
 91
        1
 62
     0
 92
       -2
340
0
 93
        0
 40
0.045
309
GRIDFORMAT_END
 95
       32
302
GRIDFORMAT
  1
GRIDFORMAT_BEGIN
 90
        0
 91
        1
 62
     0
 92
       -2
340
0
 93
        0
 40
0.045
309
GRIDFORMAT_END
309
TABLEFORMAT_END
  1
CELLSTYLE_BEGIN
 90
        1
 91
        1
300
_TITLE
309
CELLSTYLE_END
300
CELLSTYLE
  1
TABLEFORMAT_BEGIN
 90
        5
170
     1
 91
        0
 92
        0
 62
   257
 93
        1
300
CONTENTFORMAT
  1
CONTENTFORMAT_BEGIN
 90
        0
 91
        0
 92
        4
 93
        0
300

 40
0.0
140
1.0
 94
        5
 62
     0
340
11
144
4.5
309
CONTENTFORMAT_END
171
     1
301
MARGIN
  1
CELLMARGIN_BEGIN
 40
1.5
 40
1.5
 40
1.5
 40
1.5
 40
0.18
 40
0.18
309
CELLMARGIN_END
 94
        6
 95
        1
302
GRIDFORMAT
  1
GRIDFORMAT_BEGIN
 90
        0
 91
        1
 62
     0
 92
       -2
340
0
 93
        0
 40
0.045
309
GRIDFORMAT_END
 95
        2
302
GRIDFORMAT
  1
GRIDFORMAT_BEGIN
 90
        0
 91
        1
 62
     0
 92
       -2
340
0
 93
        0
 40
0.045
309
GRIDFORMAT_END
 95
        4
302
GRIDFORMAT
  1
GRIDFORMAT_BEGIN
 90
        0
 91
        1
 62
     0
 92
       -2
340
0
 93
        0
 40
0.045
309
GRIDFORMAT_END
 95
        8
302
GRIDFORMAT
  1
GRIDFORMAT_BEGIN
 90
        0
 91
        1
 62
     0
 92
       -2
340
0
 93
        0
 40
0.045
309
GRIDFORMAT_END
 95
       16
302
GRIDFORMAT
  1
GRIDFORMAT_BEGIN
 90
        0
 91
        1
 62
     0
 92
       -2
340
0
 93
        0
 40
0.045
309
GRIDFORMAT_END
 95
       32
302
GRIDFORMAT
  1
GRIDFORMAT_BEGIN
 90
        0
 91
        1
 62
     0
 92
       -2
340
0
 93
        0
 40
0.045
309
GRIDFORMAT_END
309
TABLEFORMAT_END
  1
CELLSTYLE_BEGIN
 90
        2
 91
        1
300
_HEADER
309
CELLSTYLE_END
300
CELLSTYLE
  1
TABLEFORMAT_BEGIN
 90
        5
170
     1
 91
        0
 92
        0
 62
   257
 93
        1
300
CONTENTFORMAT
  1
CONTENTFORMAT_BEGIN
 90
        0
 91
        0
 92
        4
 93
        0
300

 40
0.0
140
1.0
 94
        2
 62
     0
340
11
144
4.5
309
CONTENTFORMAT_END
171
     1
301
MARGIN
  1
CELLMARGIN_BEGIN
 40
1.5
 40
1.5
 40
1.5
 40
1.5
 40
0.18
 40
0.18
309
CELLMARGIN_END
 94
        6
 95
        1
302
GRIDFORMAT
  1
GRIDFORMAT_BEGIN
 90
        0
 91
        1
 62
     0
 92
       -2
340
0
 93
        0
 40
0.045
309
GRIDFORMAT_END
 95
        2
302
GRIDFORMAT
  1
GRIDFORMAT_BEGIN
 90
        0
 91
        1
 62
     0
 92
       -2
340
0
 93
        0
 40
0.045
309
GRIDFORMAT_END
 95
        4
302
GRIDFORMAT
  1
GRIDFORMAT_BEGIN
 90
        0
 91
        1
 62
     0
 92
       -2
340
0
 93
        0
 40
0.045
309
GRIDFORMAT_END
 95
        8
302
GRIDFORMAT
  1
GRIDFORMAT_BEGIN
 90
        0
 91
        1
 62
     0
 92
       -2
340
0
 93
        0
 40
0.045
309
GRIDFORMAT_END
 95
       16
302
GRIDFORMAT
  1
GRIDFORMAT_BEGIN
 90
        0
 91
        1
 62
     0
 92
       -2
340
0
 93
        0
 40
0.045
309
GRIDFORMAT_END
 95
       32
302
GRIDFORMAT
  1
GRIDFORMAT_BEGIN
 90
        0
 91
        1
 62
     0
 92
       -2
340
0
 93
        0
 40
0.045
309
GRIDFORMAT_END
309
TABLEFORMAT_END
  1
CELLSTYLE_BEGIN
 90
        3
 91
        2
300
_DATA
309
CELLSTYLE_END
  0
ENDSEC
  0
EOF
