  0
SECTION
  2
HEADER
  9
$ACADVER
  1
AC1032
  9
$ACADMAINTVER
 90
      174
  9
$DWGCODEPAGE
  3
ANSI_1252
  9
$LASTSAVEDBY
  1
pengb
  9
$REQUIREDVERSIONS
160
                 0
  9
$INSBASE
 10
0.0
 20
0.0
 30
0.0
  9
$EXTMIN
 10
345.0739805431504
 20
496.7504927710988
 30
-0.0015258207003583
  9
$EXTMAX
 10
1996.302617394717
 20
1435.623782923939
 30
0.0000000349246037
  9
$LIMMIN
 10
0.0
 20
0.0
  9
$LIMMAX
 10
2376.0
 20
1680.0
  9
$ORTHOMODE
 70
     0
  9
$REGENMODE
 70
     1
  9
$FILLMODE
 70
     1
  9
$QTEXTMODE
 70
     0
  9
$MIRRTEXT
 70
     1
  9
$LTSCALE
 40
8.0
  9
$ATTMODE
 70
     1
  9
$TEXTSIZE
 40
16.0
  9
$TRACEWID
 40
1.0
  9
$TEXTSTYLE
  7
Standard
  9
$CLAYER
  8
0
  9
$CELTYPE
  6
ByLayer
  9
$CECOLOR
 62
   256
  9
$CELTSCALE
 40
1.0
  9
$DISPSILH
 70
     0
  9
$DIMSCALE
 40
1.0
  9
$DIMASZ
 40
8.0
  9
$DIMEXO
 40
8.0
  9
$DIMDLI
 40
3.75
  9
$DIMRND
 40
0.0
  9
$DIMDLE
 40
0.0
  9
$DIMEXE
 40
8.0
  9
$DIMTP
 40
0.0
  9
$DIMTM
 40
0.0
  9
$DIMTXT
 40
16.0
  9
$DIMCEN
 40
2.5
  9
$DIMTSZ
 40
0.0
  9
$DIMTOL
 70
     0
  9
$DIMLIM
 70
     0
  9
$DIMTIH
 70
     1
  9
$DIMTOH
 70
     1
  9
$DIMSE1
 70
     0
  9
$DIMSE2
 70
     0
  9
$DIMTAD
 70
     1
  9
$DIMZIN
 70
     0
  9
$DIMBLK
  1

  9
$DIMASO
 70
     1
  9
$DIMSHO
 70
     1
  9
$DIMPOST
  1

  9
$DIMAPOST
  1

  9
$DIMALT
 70
     0
  9
$DIMALTD
 70
     3
  9
$DIMALTF
 40
0.0393700787
  9
$DIMLFAC
 40
1.0
  9
$DIMTOFL
 70
     1
  9
$DIMTVP
 40
0.0
  9
$DIMTIX
 70
     0
  9
$DIMSOXD
 70
     0
  9
$DIMSAH
 70
     0
  9
$DIMBLK1
  1

  9
$DIMBLK2
  1

  9
$DIMSTYLE
  2
ISO-25
  9
$DIMCLRD
 70
     0
  9
$DIMCLRE
 70
     0
  9
$DIMCLRT
 70
     0
  9
$DIMTFAC
 40
1.0
  9
$DIMGAP
 40
8.0
  9
$DIMJUST
 70
     0
  9
$DIMSD1
 70
     0
  9
$DIMSD2
 70
     0
  9
$DIMTOLJ
 70
     0
  9
$DIMTZIN
 70
     0
  9
$DIMALTZ
 70
     0
  9
$DIMALTTZ
 70
     0
  9
$DIMUPT
 70
     0
  9
$DIMDEC
 70
     2
  9
$DIMTDEC
 70
     2
  9
$DIMALTU
 70
     2
  9
$DIMALTTD
 70
     3
  9
$DIMTXSTY
  7
Standard
  9
$DIMAUNIT
 70
     0
  9
$DIMADEC
 70
     2
  9
$DIMALTRND
 40
0.0
  9
$DIMAZIN
 70
     0
  9
$DIMDSEP
 70
    44
  9
$DIMATFIT
 70
     3
  9
$DIMFRAC
 70
     0
  9
$DIMLDRBLK
  1

  9
$DIMLUNIT
 70
     2
  9
$DIMLWD
 70
    -2
  9
$DIMLWE
 70
    -2
  9
$DIMTMOVE
 70
     0
  9
$DIMFXL
 40
1.0
  9
$DIMFXLON
 70
     0
  9
$DIMJOGANG
 40
0.7853981633974483
  9
$DIMTFILL
 70
     0
  9
$DIMTFILLCLR
 70
     0
  9
$DIMARCSYM
 70
     0
  9
$DIMLTYPE
  6

  9
$DIMLTEX1
  6

  9
$DIMLTEX2
  6

  9
$DIMTXTDIRECTION
 70
     0
  9
$LUNITS
 70
     2
  9
$LUPREC
 70
     2
  9
$SKETCHINC
 40
1.0
  9
$FILLETRAD
 40
0.0
  9
$AUNITS
 70
     0
  9
$AUPREC
 70
     2
  9
$MENU
  1
.
  9
$ELEVATION
 40
0.0
  9
$PELEVATION
 40
0.0
  9
$THICKNESS
 40
0.0
  9
$LIMCHECK
 70
     0
  9
$CHAMFERA
 40
0.0
  9
$CHAMFERB
 40
0.0
  9
$CHAMFERC
 40
0.0
  9
$CHAMFERD
 40
0.0
  9
$SKPOLY
 70
     0
  9
$TDCREATE
 40
2460237.578622685
  9
$TDUCREATE
 40
2460237.120299514
  9
$TDUPDATE
 40
2460243.564675926
  9
$TDUUPDATE
 40
2460243.106342593
  9
$TDINDWG
 40
0.0046990856
  9
$TDUSRTIMER
 40
0.0046990856
  9
$USRTIMER
 70
     1
  9
$ANGBASE
 50
0.0
  9
$ANGDIR
 70
     0
  9
$PDMODE
 70
     0
  9
$PDSIZE
 40
-1.0
  9
$PLINEWID
 40
0.0
  9
$SPLFRAME
 70
     0
  9
$SPLINETYPE
 70
     6
  9
$SPLINESEGS
 70
     8
  9
$HANDSEED
  5
69D
  9
$SURFTAB1
 70
     6
  9
$SURFTAB2
 70
     6
  9
$SURFTYPE
 70
     6
  9
$SURFU
 70
     6
  9
$SURFV
 70
     6
  9
$UCSBASE
  2

  9
$UCSNAME
  2

  9
$UCSORG
 10
0.0
 20
0.0
 30
0.0
  9
$UCSXDIR
 10
1.0
 20
0.0
 30
0.0
  9
$UCSYDIR
 10
0.0
 20
1.0
 30
0.0
  9
$UCSORTHOREF
  2

  9
$UCSORTHOVIEW
 70
     0
  9
$UCSORGTOP
 10
0.0
 20
0.0
 30
0.0
  9
$UCSORGBOTTOM
 10
0.0
 20
0.0
 30
0.0
  9
$UCSORGLEFT
 10
0.0
 20
0.0
 30
0.0
  9
$UCSORGRIGHT
 10
0.0
 20
0.0
 30
0.0
  9
$UCSORGFRONT
 10
0.0
 20
0.0
 30
0.0
  9
$UCSORGBACK
 10
0.0
 20
0.0
 30
0.0
  9
$PUCSBASE
  2

  9
$PUCSNAME
  2

  9
$PUCSORG
 10
0.0
 20
0.0
 30
0.0
  9
$PUCSXDIR
 10
1.0
 20
0.0
 30
0.0
  9
$PUCSYDIR
 10
0.0
 20
1.0
 30
0.0
  9
$PUCSORTHOREF
  2

  9
$PUCSORTHOVIEW
 70
     0
  9
$PUCSORGTOP
 10
0.0
 20
0.0
 30
0.0
  9
$PUCSORGBOTTOM
 10
0.0
 20
0.0
 30
0.0
  9
$PUCSORGLEFT
 10
0.0
 20
0.0
 30
0.0
  9
$PUCSORGRIGHT
 10
0.0
 20
0.0
 30
0.0
  9
$PUCSORGFRONT
 10
0.0
 20
0.0
 30
0.0
  9
$PUCSORGBACK
 10
0.0
 20
0.0
 30
0.0
  9
$USERI1
 70
     0
  9
$USERI2
 70
     0
  9
$USERI3
 70
     0
  9
$USERI4
 70
     0
  9
$USERI5
 70
     0
  9
$USERR1
 40
0.0
  9
$USERR2
 40
0.0
  9
$USERR3
 40
0.0
  9
$USERR4
 40
0.0
  9
$USERR5
 40
0.0
  9
$WORLDVIEW
 70
     1
  9
$SHADEDGE
 70
     3
  9
$SHADEDIF
 70
    70
  9
$TILEMODE
 70
     1
  9
$MAXACTVP
 70
    64
  9
$PINSBASE
 10
0.0
 20
0.0
 30
0.0
  9
$PLIMCHECK
 70
     0
  9
$PEXTMIN
 10
1.000000000000000E+20
 20
1.000000000000000E+20
 30
1.000000000000000E+20
  9
$PEXTMAX
 10
-1.000000000000000E+20
 20
-1.000000000000000E+20
 30
-1.000000000000000E+20
  9
$PLIMMIN
 10
0.0
 20
0.0
  9
$PLIMMAX
 10
420.0
 20
297.0
  9
$UNITMODE
 70
     0
  9
$VISRETAIN
 70
     1
  9
$PLINEGEN
 70
     0
  9
$PSLTSCALE
 70
     1
  9
$TREEDEPTH
 70
  3020
  9
$CMLSTYLE
  2
Standard
  9
$CMLJUST
 70
     0
  9
$CMLSCALE
 40
20.0
  9
$PROXYGRAPHICS
 70
     1
  9
$MEASUREMENT
 70
     1
  9
$CELWEIGHT
370
    -1
  9
$ENDCAPS
280
     0
  9
$JOINSTYLE
280
     0
  9
$LWDISPLAY
290
     0
  9
$INSUNITS
 70
     4
  9
$HYPERLINKBASE
  1

  9
$STYLESHEET
  1

  9
$XEDIT
290
     1
  9
$CEPSNTYPE
380
     0
  9
$PSTYLEMODE
290
     1
  9
$FINGERPRINTGUID
  2
{BFF2D3F8-6242-41A2-8371-E72C64534367}
  9
$VERSIONGUID
  2
{E981B10E-ADA2-814F-B814-557EF0012933}
  9
$EXTNAMES
290
     1
  9
$PSVPSCALE
 40
0.0
  9
$OLESTARTUP
290
     0
  9
$SORTENTS
280
   127
  9
$INDEXCTL
280
     0
  9
$HIDETEXT
280
     0
  9
$XCLIPFRAME
280
     2
  9
$HALOGAP
280
     0
  9
$OBSCOLOR
 70
   257
  9
$OBSLTYPE
280
     0
  9
$INTERSECTIONDISPLAY
280
     0
  9
$INTERSECTIONCOLOR
 70
   257
  9
$DIMASSOC
280
     1
  9
$PROJECTNAME
  1

  9
$CAMERADISPLAY
290
     0
  9
$LENSLENGTH
 40
50.0
  9
$CAMERAHEIGHT
 40
0.0
  9
$STEPSPERSEC
 40
2.0
  9
$STEPSIZE
 40
6.0
  9
$3DDWFPREC
 40
2.0
  9
$PSOLWIDTH
 40
0.25
  9
$PSOLHEIGHT
 40
4.0
  9
$LOFTANG1
 40
1.570796326794896
  9
$LOFTANG2
 40
1.570796326794896
  9
$LOFTMAG1
 40
0.0
  9
$LOFTMAG2
 40
0.0
  9
$LOFTPARAM
 70
     7
  9
$LOFTNORMALS
280
     1
  9
$LATITUDE
 40
37.795
  9
$LONGITUDE
 40
-122.394
  9
$NORTHDIRECTION
 40
0.0
  9
$TIMEZONE
 70
 -8000
  9
$LIGHTGLYPHDISPLAY
280
     1
  9
$TILEMODELIGHTSYNCH
280
     1
  9
$CMATERIAL
347
49D
  9
$SOLIDHIST
280
     0
  9
$SHOWHIST
280
     1
  9
$DWFFRAME
280
     2
  9
$DGNFRAME
280
     0
  9
$REALWORLDSCALE
290
     1
  9
$INTERFERECOLOR
 62
     1
  9
$INTERFEREOBJVS
345
4BF
  9
$INTERFEREVPVS
346
4BC
  9
$CSHADOW
280
     0
  9
$SHADOWPLANELOCATION
 40
0.0
  0
ENDSEC
  0
SECTION
  2
CLASSES
  0
CLASS
  1
ACDBDICTIONARYWDFLT
  2
AcDbDictionaryWithDefault
  3
ObjectDBX Classes
 90
        0
 91
        1
280
     0
281
     0
  0
CLASS
  1
VISUALSTYLE
  2
AcDbVisualStyle
  3
ObjectDBX Classes
 90
     4095
 91
       24
280
     0
281
     0
  0
CLASS
  1
MATERIAL
  2
AcDbMaterial
  3
ObjectDBX Classes
 90
     1153
 91
        3
280
     0
281
     0
  0
CLASS
  1
SCALE
  2
AcDbScale
  3
ObjectDBX Classes
 90
     1153
 91
       17
280
     0
281
     0
  0
CLASS
  1
TABLESTYLE
  2
AcDbTableStyle
  3
ObjectDBX Classes
 90
     4095
 91
        1
280
     0
281
     0
  0
CLASS
  1
MLEADERSTYLE
  2
AcDbMLeaderStyle
  3
ACDB_MLEADERSTYLE_CLASS
 90
     4095
 91
        1
280
     0
281
     0
  0
CLASS
  1
SUN
  2
AcDbSun
  3
SCENEOE
 90
     1153
 91
        0
280
     0
281
     0
  0
CLASS
  1
ACDBSECTIONVIEWSTYLE
  2
AcDbSectionViewStyle
  3
ObjectDBX Classes
 90
     1025
 91
        1
280
     0
281
     0
  0
CLASS
  1
ACDBDETAILVIEWSTYLE
  2
AcDbDetailViewStyle
  3
ObjectDBX Classes
 90
     1025
 91
        1
280
     0
281
     0
  0
CLASS
  1
DICTIONARYVAR
  2
AcDbDictionaryVar
  3
ObjectDBX Classes
 90
        0
 91
        9
280
     0
281
     0
  0
CLASS
  1
CELLSTYLEMAP
  2
AcDbCellStyleMap
  3
ObjectDBX Classes
 90
     1152
 91
        2
280
     0
281
     0
  0
CLASS
  1
ACDB_ALDIMOBJECTCONTEXTDATA_CLASS
  2
AcDbAlignedDimensionObjectContextData
  3
ObjectDBX Classes
 90
     1153
 91
       14
280
     0
281
     0
  0
ENDSEC
  0
SECTION
  2
TABLES
  0
TABLE
  2
VPORT
  5
8
330
0
100
AcDbSymbolTable
 70
     1
1001
ACAD
1000
DbSaveVer
1071
      278
  0
VPORT
  5
29
330
8
100
AcDbSymbolTableRecord
100
AcDbViewportTableRecord
  2
*Active
 70
     0
 10
0.0
 20
0.0
 11
1.0
 21
1.0
 12
1170.688298968934
 22
966.1871378475188
 13
0.0
 23
0.0
 14
10.0
 24
10.0
 15
10.0
 25
10.0
 16
0.0
 26
0.0
 36
1.0
 17
0.0
 27
0.0
 37
0.0
 40
941.6401073143907
 41
2.404422604422604
 42
50.0
 43
0.0
 44
0.0
 50
0.0
 51
0.0
 71
     0
 72
  2000
 73
     1
 74
     3
 75
     0
 76
     0
 77
     0
 78
     0
281
     0
 65
     1
110
0.0
120
0.0
130
0.0
111
1.0
121
0.0
131
0.0
112
0.0
122
1.0
132
0.0
 79
     0
146
0.0
348
4BB
 60
     3
 61
     5
292
     1
282
     1
141
0.0
142
0.0
 63
   250
421
  3355443
1001
ACAD_NAV_VCDISPLAY
1070
     3
  0
ENDTAB
  0
TABLE
  2
LTYPE
  5
5
330
0
100
AcDbSymbolTable
 70
     1
  0
LTYPE
  5
14
330
5
100
AcDbSymbolTableRecord
100
AcDbLinetypeTableRecord
  2
ByBlock
 70
     0
  3

 72
    65
 73
     0
 40
0.0
  0
LTYPE
  5
15
330
5
100
AcDbSymbolTableRecord
100
AcDbLinetypeTableRecord
  2
ByLayer
 70
     0
  3

 72
    65
 73
     0
 40
0.0
  0
LTYPE
  5
16
330
5
100
AcDbSymbolTableRecord
100
AcDbLinetypeTableRecord
  2
Continuous
 70
     0
  3
Solid line
 72
    65
 73
     0
 40
0.0
  0
ENDTAB
  0
TABLE
  2
LAYER
  5
2
102
{ACAD_XDICTIONARY
360
50C
102
}
330
0
100
AcDbSymbolTable
 70
     4
  0
LAYER
  5
10
102
{ACAD_XDICTIONARY
360
4E1
102
}
330
2
100
AcDbSymbolTableRecord
100
AcDbLayerTableRecord
  2
0
 70
     0
 62
     7
  6
Continuous
370
    -3
390
F
347
4AD
348
0
  0
LAYER
  5
69
102
{ACAD_XDICTIONARY
360
4EF
102
}
330
2
100
AcDbSymbolTableRecord
100
AcDbLayerTableRecord
  2
MODEL
 70
     0
 62
     7
  6
Continuous
370
    35
390
F
347
4AD
348
0
  0
LAYER
  5
525
330
2
100
AcDbSymbolTableRecord
100
AcDbLayerTableRecord
  2
Defpoints
 70
     0
 62
     7
  6
Continuous
290
     0
370
    -3
390
F
347
4AD
348
0
  0
LAYER
  5
529
330
2
100
AcDbSymbolTableRecord
100
AcDbLayerTableRecord
  2
DIMENSION
 70
     0
 62
   255
  6
Continuous
370
    -3
390
F
347
4AD
348
0
  0
ENDTAB
  0
TABLE
  2
STYLE
  5
3
330
0
100
AcDbSymbolTable
 70
     3
  0
STYLE
  5
11
330
3
100
AcDbSymbolTableRecord
100
AcDbTextStyleTableRecord
  2
Standard
 70
     0
 40
0.0
 41
1.0
 50
0.0
 71
     0
 42
16.0
  3
txt
  4

  0
STYLE
  5
1F0
330
3
100
AcDbSymbolTableRecord
100
AcDbTextStyleTableRecord
  2
SLDTEXTSTYLE0
 70
     0
 40
0.0
 41
0.7
 50
0.0
 71
     0
 42
16.0
  3
TXT
  4

  0
STYLE
  5
532
330
3
100
AcDbSymbolTableRecord
100
AcDbTextStyleTableRecord
  2
Large
 70
     0
 40
20.0
 41
1.0
 50
0.0
 71
     0
 42
2.5
  3
HV______.TTF
  4

1001
AcadAnnotative
1000
AnnotativeData
1002
{
1070
     1
1070
     1
1002
}
1001
ACAD
1000
Helvetica
1071
        2
  0
ENDTAB
  0
TABLE
  2
VIEW
  5
6
330
0
100
AcDbSymbolTable
 70
     0
  0
ENDTAB
  0
TABLE
  2
UCS
  5
7
330
0
100
AcDbSymbolTable
 70
     0
  0
ENDTAB
  0
TABLE
  2
APPID
  5
9
330
0
100
AcDbSymbolTable
 70
     7
  0
APPID
  5
12
330
9
100
AcDbSymbolTableRecord
100
AcDbRegAppTableRecord
  2
ACAD
 70
     0
  0
APPID
  5
4DA
330
9
100
AcDbSymbolTableRecord
100
AcDbRegAppTableRecord
  2
ACAD_EXEMPT_FROM_CAD_STANDARDS
 70
     0
  0
APPID
  5
501
330
9
100
AcDbSymbolTableRecord
100
AcDbRegAppTableRecord
  2
ACAD_NAV_VCDISPLAY
 70
     0
  0
APPID
  5
533
330
9
100
AcDbSymbolTableRecord
100
AcDbRegAppTableRecord
  2
AcadAnnotative
 70
     0
  0
APPID
  5
539
330
9
100
AcDbSymbolTableRecord
100
AcDbRegAppTableRecord
  2
ACAD_DSTYLE_DIMBREAK
 70
     0
  0
APPID
  5
53A
330
9
100
AcDbSymbolTableRecord
100
AcDbRegAppTableRecord
  2
ACAD_DSTYLE_DIMJAG
 70
     0
  0
APPID
  5
53B
330
9
100
AcDbSymbolTableRecord
100
AcDbRegAppTableRecord
  2
ACAD_DSTYLE_DIMTALN
 70
     0
  0
ENDTAB
  0
TABLE
  2
DIMSTYLE
  5
A
330
0
100
AcDbSymbolTable
 70
     4
100
AcDbDimStyleTable
 71
     2
340
538
340
27
  0
DIMSTYLE
105
27
330
A
100
AcDbSymbolTableRecord
100
AcDbDimStyleTableRecord
  2
ISO-25
 70
     0
 41
2.5
 42
0.625
 43
3.75
 44
1.25
 73
     0
 74
     0
 77
     1
 78
     8
140
2.5
141
2.5
143
0.0393700787
147
0.625
171
     3
172
     1
271
     2
272
     2
274
     3
278
    44
283
     0
284
     8
340
11
  0
DIMSTYLE
105
1F1
330
A
100
AcDbSymbolTableRecord
100
AcDbDimStyleTableRecord
  2
SLDDIMSTYLE0
 70
     0
 41
8.0
 44
0.0
 45
0.000000001
 73
     0
 74
     0
 77
     1
 78
    12
 79
     3
140
16.0
147
4.0
173
     1
271
     2
272
     2
276
     2
284
    12
340
1F0
341
1F2
343
1F2
344
1F2
  0
DIMSTYLE
105
3B2
330
A
100
AcDbSymbolTableRecord
100
AcDbDimStyleTableRecord
  2
SLDDIMSTYLE1
 70
     0
 41
8.0
 44
0.0
 45
0.000000001
 73
     0
 74
     0
 77
     1
 78
    12
 79
     3
140
16.0
147
4.0
173
     1
271
     0
272
     0
276
     2
284
    12
340
1F0
341
1F2
343
1F2
344
1F2
  0
DIMSTYLE
105
538
102
{ACAD_REACTORS
330
489
330
3BA
330
3B1
330
1FC
330
1EF
102
}
330
A
100
AcDbSymbolTableRecord
100
AcDbDimStyleTableRecord
  2
RG Dimension Lines_Large
 70
     0
 40
12.0
 41
5.0
 42
6.0
 43
10.0
 44
20.0
 49
20.0
 77
     2
140
20.0
141
0.0
147
10.0
172
     1
176
   256
177
   256
178
     7
271
     0
272
     0
290
     1
340
532
341
1F2
342
1F2
371
     0
372
     0
1001
ACAD_DSTYLE_DIMBREAK
1070
   391
1040
0.125
1001
AcadAnnotative
1000
AnnotativeData
1002
{
1070
     1
1070
     1
1002
}
1001
ACAD_DSTYLE_DIMJAG
1070
   388
1040
1.5
1001
ACAD_DSTYLE_DIMTALN
1070
   392
1070
     0
  0
ENDTAB
  0
TABLE
  2
BLOCK_RECORD
  5
1
330
0
100
AcDbSymbolTable
 70
    29
  0
BLOCK_RECORD
  5
1F
330
1
100
AcDbSymbolTableRecord
100
AcDbBlockTableRecord
  2
*Model_Space
340
22
 70
     0
280
     1
281
     0
  0
BLOCK_RECORD
  5
1B
330
1
100
AcDbSymbolTableRecord
100
AcDbBlockTableRecord
  2
*Paper_Space
340
1E
 70
     0
280
     1
281
     0
  0
BLOCK_RECORD
  5
23
330
1
100
AcDbSymbolTableRecord
100
AcDbBlockTableRecord
  2
*Paper_Space0
340
26
 70
     0
280
     1
281
     0
  0
BLOCK_RECORD
  5
1F2
330
1
100
AcDbSymbolTableRecord
100
AcDbBlockTableRecord
  2
_None
340
0
 70
     0
280
     1
281
     0
  0
BLOCK_RECORD
  5
1F5
330
1
100
AcDbSymbolTableRecord
100
AcDbBlockTableRecord
  2
_D
340
0
 70
     0
280
     1
281
     0
  0
BLOCK_RECORD
  5
1FD
330
1
100
AcDbSymbolTableRecord
100
AcDbBlockTableRecord
  2
_D_1
340
0
 70
     0
280
     1
281
     0
  0
BLOCK_RECORD
  5
3B3
330
1
100
AcDbSymbolTableRecord
100
AcDbBlockTableRecord
  2
_D_2
340
0
 70
     0
280
     1
281
     0
  0
BLOCK_RECORD
  5
3BB
330
1
100
AcDbSymbolTableRecord
100
AcDbBlockTableRecord
  2
_D_3
340
0
 70
     0
280
     1
281
     0
  0
BLOCK_RECORD
  5
3C3
330
1
100
AcDbSymbolTableRecord
100
AcDbBlockTableRecord
  2
_D_4
340
0
 70
     0
280
     1
281
     0
  0
BLOCK_RECORD
  5
3CA
330
1
100
AcDbSymbolTableRecord
100
AcDbBlockTableRecord
  2
SW_CENTERMARKSYMBOL_0
340
0
102
{BLKREFS
331
3D5
102
}
 70
     0
280
     1
281
     0
  0
BLOCK_RECORD
  5
3D6
330
1
100
AcDbSymbolTableRecord
100
AcDbBlockTableRecord
  2
SW_CENTERMARKSYMBOL_1
340
0
102
{BLKREFS
331
3E1
102
}
 70
     0
280
     1
281
     0
  0
BLOCK_RECORD
  5
3E2
330
1
100
AcDbSymbolTableRecord
100
AcDbBlockTableRecord
  2
SW_CENTERMARKSYMBOL_2
340
0
102
{BLKREFS
331
3ED
102
}
 70
     0
280
     1
281
     0
  0
BLOCK_RECORD
  5
3EE
330
1
100
AcDbSymbolTableRecord
100
AcDbBlockTableRecord
  2
SW_CENTERMARKSYMBOL_3
340
0
102
{BLKREFS
331
3F9
102
}
 70
     0
280
     1
281
     0
  0
BLOCK_RECORD
  5
3FA
330
1
100
AcDbSymbolTableRecord
100
AcDbBlockTableRecord
  2
SW_CENTERMARKSYMBOL_4
340
0
102
{BLKREFS
331
405
102
}
 70
     0
280
     1
281
     0
  0
BLOCK_RECORD
  5
406
330
1
100
AcDbSymbolTableRecord
100
AcDbBlockTableRecord
  2
SW_CENTERMARKSYMBOL_5
340
0
102
{BLKREFS
331
411
102
}
 70
     0
280
     1
281
     0
  0
BLOCK_RECORD
  5
48A
330
1
100
AcDbSymbolTableRecord
100
AcDbBlockTableRecord
  2
_D_5
340
0
 70
     0
280
     1
281
     0
  0
BLOCK_RECORD
  5
492
330
1
100
AcDbSymbolTableRecord
100
AcDbBlockTableRecord
  2
_D_6
340
0
 70
     0
280
     1
281
     0
  0
BLOCK_RECORD
  5
53D
330
1
100
AcDbSymbolTableRecord
100
AcDbBlockTableRecord
  2
*D16
340
0
 70
     0
280
     1
281
     0
  0
BLOCK_RECORD
  5
55B
330
1
100
AcDbSymbolTableRecord
100
AcDbBlockTableRecord
  2
*D18
340
0
 70
     0
280
     1
281
     0
  0
BLOCK_RECORD
  5
578
330
1
100
AcDbSymbolTableRecord
100
AcDbBlockTableRecord
  2
*D20
340
0
 70
     0
280
     1
281
     0
  0
BLOCK_RECORD
  5
595
330
1
100
AcDbSymbolTableRecord
100
AcDbBlockTableRecord
  2
*D22
340
0
 70
     0
280
     1
281
     0
  0
BLOCK_RECORD
  5
5B2
330
1
100
AcDbSymbolTableRecord
100
AcDbBlockTableRecord
  2
*D24
340
0
 70
     0
280
     1
281
     0
  0
BLOCK_RECORD
  5
5CF
330
1
100
AcDbSymbolTableRecord
100
AcDbBlockTableRecord
  2
*D26
340
0
 70
     0
280
     1
281
     0
  0
BLOCK_RECORD
  5
5EC
330
1
100
AcDbSymbolTableRecord
100
AcDbBlockTableRecord
  2
*D28
340
0
 70
     0
280
     1
281
     0
  0
ENDTAB
  0
ENDSEC
  0
SECTION
  2
BLOCKS
  0
BLOCK
  5
20
330
1F
100
AcDbEntity
  8
0
100
AcDbBlockBegin
  2
*Model_Space
 70
     0
 10
0.0
 20
0.0
 30
0.0
  3
*Model_Space
  1

  0
ENDBLK
  5
21
330
1F
100
AcDbEntity
  8
0
100
AcDbBlockEnd
  0
BLOCK
  5
1C
330
1B
100
AcDbEntity
 67
     1
  8
0
100
AcDbBlockBegin
  2
*Paper_Space
 70
     0
 10
0.0
 20
0.0
 30
0.0
  3
*Paper_Space
  1

  0
ENDBLK
  5
1D
330
1B
100
AcDbEntity
 67
     1
  8
0
100
AcDbBlockEnd
  0
BLOCK
  5
24
330
23
100
AcDbEntity
 67
     1
  8
0
100
AcDbBlockBegin
  2
*Paper_Space0
 70
     0
 10
0.0
 20
0.0
 30
0.0
  3
*Paper_Space0
  1

  0
ENDBLK
  5
25
330
23
100
AcDbEntity
 67
     1
  8
0
100
AcDbBlockEnd
  0
BLOCK
  5
1F3
330
1F2
100
AcDbEntity
  8
0
100
AcDbBlockBegin
  2
_None
 70
     0
 10
0.0
 20
0.0
 30
0.0
  3
_None
  1

  0
ENDBLK
  5
1F4
330
1F2
100
AcDbEntity
  8
0
100
AcDbBlockEnd
  0
BLOCK
  5
1F6
330
1F5
100
AcDbEntity
  8
0
100
AcDbBlockBegin
  2
_D
 70
     0
 10
0.0
 20
0.0
 30
0.0
  3
_D
  1

  0
LINE
  5
1F8
330
1F5
100
AcDbEntity
  8
MODEL
440
 16777216
100
AcDbLine
 10
345.2403100198
 20
950.1768724067998
 30
0.0
 11
345.2403100198
 21
879.9831688399001
 31
0.0
  0
LINE
  5
1F9
330
1F5
100
AcDbEntity
  8
MODEL
440
 16777216
100
AcDbLine
 10
1307.2403100198
 20
950.1768724067998
 30
0.0
 11
1307.2403100198
 21
879.9831688399001
 31
0.0
  0
LINE
  5
1FA
330
1F5
100
AcDbEntity
  8
MODEL
440
 16777216
100
AcDbLine
 10
345.2403100198
 20
887.9831688399001
 30
0.0
 11
1307.2403100198
 21
887.9831688399001
 31
0.0
  0
MTEXT
  5
1FB
330
1F5
100
AcDbEntity
  8
MODEL
440
 16777216
100
AcDbMText
 10
815.6558049251
 20
908.6082531419
 30
0.0
 40
16.0
 41
0.0
 46
0.0
 71
     1
 72
     1
  1
960
  7
SLDTEXTSTYLE0
 73
     1
 44
1.0
  0
ENDBLK
  5
1F7
330
1F5
100
AcDbEntity
  8
0
100
AcDbBlockEnd
  0
BLOCK
  5
1FE
330
1FD
100
AcDbEntity
  8
0
100
AcDbBlockBegin
  2
_D_1
 70
     0
 10
0.0
 20
0.0
 30
0.0
  3
_D_1
  1

  0
LINE
  5
200
330
1FD
100
AcDbEntity
  8
MODEL
440
 16777216
100
AcDbLine
 10
1195.5403100198
 20
1340.5768724068
 30
0.0
 11
1379.3378044478
 21
1340.5768724068
 31
0.0
  0
LINE
  5
201
330
1FD
100
AcDbEntity
  8
MODEL
440
 16777216
100
AcDbLine
 10
1301.2403100198
 20
944.1768724067999
 30
0.0
 11
1379.3378044478
 21
944.1768724067999
 31
0.0
  0
LINE
  5
202
330
1FD
100
AcDbEntity
  8
MODEL
440
 16777216
100
AcDbLine
 10
1371.3378044478
 20
1340.5768724068
 30
0.0
 11
1371.3378044478
 21
944.1768724067999
 31
0.0
  0
MTEXT
  5
203
330
1FD
100
AcDbEntity
  8
MODEL
440
 16777216
100
AcDbMText
 10
1350.7127201457
 20
1137.1429606305
 30
0.0
 40
16.0
 41
0.0
 46
0.0
 71
     1
 72
     1
  1
400
  7
SLDTEXTSTYLE0
 11
-0.0000000000000213
 21
1.0
 31
0.0
 73
     1
 44
1.0
  0
ENDBLK
  5
1FF
330
1FD
100
AcDbEntity
  8
0
100
AcDbBlockEnd
  0
BLOCK
  5
3B4
330
3B3
100
AcDbEntity
  8
0
100
AcDbBlockBegin
  2
_D_2
 70
     0
 10
0.0
 20
0.0
 30
0.0
  3
_D_2
  1

  0
LINE
  5
3B6
330
3B3
100
AcDbEntity
  8
MODEL
440
 16777216
100
AcDbLine
 10
507.4701990268
 20
367.9319433678
 30
0.0
 11
1395.2403100198
 21
367.9319433678
 31
0.0
  0
LINE
  5
3B7
330
3B3
100
AcDbEntity
  8
MODEL
440
 16777216
100
AcDbLine
 10
1308.8903100198
 20
646.3310817288998
 30
0.0
 11
1395.2403100198
 21
646.3310817288998
 31
0.0
  0
LINE
  5
3B8
330
3B3
100
AcDbEntity
  8
MODEL
440
 16777216
100
AcDbLine
 10
1387.2403100198
 20
367.9319433678
 30
0.0
 11
1387.2403100198
 21
646.3310817288998
 31
0.0
  0
MTEXT
  5
3B9
330
3B3
100
AcDbEntity
  8
MODEL
440
 16777216
100
AcDbMText
 10
1366.6152257178
 20
485.2036636419
 30
0.0
 40
16.0
 41
0.0
 46
0.0
 71
     1
 72
     1
  1
278
  7
SLDTEXTSTYLE0
 11
0.0000000000000001
 21
1.0
 31
0.0
 73
     1
 44
1.0
  0
ENDBLK
  5
3B5
330
3B3
100
AcDbEntity
  8
0
100
AcDbBlockEnd
  0
BLOCK
  5
3BC
330
3BB
100
AcDbEntity
  8
0
100
AcDbBlockBegin
  2
_D_3
 70
     0
 10
0.0
 20
0.0
 30
0.0
  3
_D_3
  1

  0
LINE
  5
3BE
330
3BB
100
AcDbEntity
  8
MODEL
440
 16777216
100
AcDbLine
 10
1190.7903100198
 20
398.5310817289
 30
0.0
 11
1360.3484746826
 21
398.5310817289
 31
0.0
  0
LINE
  5
3BF
330
3BB
100
AcDbEntity
  8
MODEL
440
 16777216
100
AcDbLine
 10
1190.7903100198
 20
588.5310817288998
 30
0.0
 11
1360.3484746826
 21
588.5310817288998
 31
0.0
  0
LINE
  5
3C0
330
3BB
100
AcDbEntity
  8
MODEL
440
 16777216
100
AcDbLine
 10
1352.3484746826
 20
398.5310817289
 30
0.0
 11
1352.3484746826
 21
588.5310817288998
 31
0.0
  0
MTEXT
  5
3C1
330
3BB
100
AcDbEntity
  8
MODEL
440
 16777216
100
AcDbMText
 10
1331.7233903806
 20
485.2036483186
 30
0.0
 40
16.0
 41
0.0
 46
0.0
 71
     1
 72
     1
  1
190
  7
SLDTEXTSTYLE0
 11
0.0000000000000001
 21
1.0
 31
0.0
 73
     1
 44
1.0
  0
ENDBLK
  5
3BD
330
3BB
100
AcDbEntity
  8
0
100
AcDbBlockEnd
  0
BLOCK
  5
3C4
330
3C3
100
AcDbEntity
  8
0
100
AcDbBlockBegin
  2
_D_4
 70
     0
 10
0.0
 20
0.0
 30
0.0
  3
_D_4
  1

  0
LINE
  5
3C6
330
3C3
100
AcDbEntity
  8
MODEL
440
 16777216
100
AcDbLine
 10
1307.2403100198
 20
647.9810817288998
 30
0.0
 11
1307.2403100198
 21
721.4293107791
 31
0.0
  0
LINE
  5
3C7
330
3C3
100
AcDbEntity
  8
MODEL
440
 16777216
100
AcDbLine
 10
345.2403100198
 20
647.9810817288998
 30
0.0
 11
345.2403100198
 21
721.4293107791
 31
0.0
  0
LINE
  5
3C8
330
3C3
100
AcDbEntity
  8
MODEL
440
 16777216
100
AcDbLine
 10
1307.2403100198
 20
713.4293107791002
 30
0.0
 11
345.2403100198
 21
713.4293107791002
 31
0.0
  0
MTEXT
  5
3C9
330
3C3
100
AcDbEntity
  8
MODEL
440
 16777216
100
AcDbMText
 10
812.4416044118
 20
734.0543950811999
 30
0.0
 40
16.0
 41
0.0
 46
0.0
 71
     1
 72
     1
  1
960
  7
SLDTEXTSTYLE0
 73
     1
 44
1.0
  0
ENDBLK
  5
3C5
330
3C3
100
AcDbEntity
  8
0
100
AcDbBlockEnd
  0
BLOCK
  5
3CB
330
3CA
100
AcDbEntity
  8
0
100
AcDbBlockBegin
  2
SW_CENTERMARKSYMBOL_0
 70
     0
 10
0.0
 20
0.0
 30
0.0
  3
SW_CENTERMARKSYMBOL_0
  1

  0
LINE
  5
3CD
330
3CA
100
AcDbEntity
  8
MODEL
 62
     0
100
AcDbLine
 10
0.0
 20
0.0
 30
0.0
 11
0.0
 21
2.5
 31
0.0
  0
LINE
  5
3CE
330
3CA
100
AcDbEntity
  8
MODEL
 62
     0
100
AcDbLine
 10
0.0
 20
0.0
 30
0.0
 11
-2.5
 21
0.0
 31
0.0
  0
LINE
  5
3CF
330
3CA
100
AcDbEntity
  8
MODEL
 62
     0
100
AcDbLine
 10
0.0
 20
0.0
 30
0.0
 11
0.0
 21
-2.5
 31
0.0
  0
LINE
  5
3D0
330
3CA
100
AcDbEntity
  8
MODEL
 62
     0
100
AcDbLine
 10
0.0
 20
0.0
 30
0.0
 11
2.5
 21
0.0
 31
0.0
  0
LINE
  5
3D1
330
3CA
100
AcDbEntity
  8
MODEL
 62
     0
100
AcDbLine
 10
0.0
 20
5.0
 30
0.0
 11
0.0
 21
6.75
 31
0.0
  0
LINE
  5
3D2
330
3CA
100
AcDbEntity
  8
MODEL
 62
     0
100
AcDbLine
 10
-5.0
 20
0.0
 30
0.0
 11
-6.75
 21
0.0
 31
0.0
  0
LINE
  5
3D3
330
3CA
100
AcDbEntity
  8
MODEL
 62
     0
100
AcDbLine
 10
0.0
 20
-5.0
 30
0.0
 11
0.0
 21
-6.75
 31
0.0
  0
LINE
  5
3D4
330
3CA
100
AcDbEntity
  8
MODEL
 62
     0
100
AcDbLine
 10
5.0
 20
0.0
 30
0.0
 11
6.75
 21
0.0
 31
0.0
  0
ENDBLK
  5
3CC
330
3CA
100
AcDbEntity
  8
0
100
AcDbBlockEnd
  0
BLOCK
  5
3D7
330
3D6
100
AcDbEntity
  8
0
100
AcDbBlockBegin
  2
SW_CENTERMARKSYMBOL_1
 70
     0
 10
0.0
 20
0.0
 30
0.0
  3
SW_CENTERMARKSYMBOL_1
  1

  0
LINE
  5
3D9
330
3D6
100
AcDbEntity
  8
MODEL
 62
     0
100
AcDbLine
 10
0.0
 20
0.0
 30
0.0
 11
0.0
 21
2.5
 31
0.0
  0
LINE
  5
3DA
330
3D6
100
AcDbEntity
  8
MODEL
 62
     0
100
AcDbLine
 10
0.0
 20
0.0
 30
0.0
 11
-2.5
 21
0.0
 31
0.0
  0
LINE
  5
3DB
330
3D6
100
AcDbEntity
  8
MODEL
 62
     0
100
AcDbLine
 10
0.0
 20
0.0
 30
0.0
 11
0.0
 21
-2.5
 31
0.0
  0
LINE
  5
3DC
330
3D6
100
AcDbEntity
  8
MODEL
 62
     0
100
AcDbLine
 10
0.0
 20
0.0
 30
0.0
 11
2.5
 21
0.0
 31
0.0
  0
LINE
  5
3DD
330
3D6
100
AcDbEntity
  8
MODEL
 62
     0
100
AcDbLine
 10
0.0
 20
5.0
 30
0.0
 11
0.0
 21
6.75
 31
0.0
  0
LINE
  5
3DE
330
3D6
100
AcDbEntity
  8
MODEL
 62
     0
100
AcDbLine
 10
-5.0
 20
0.0
 30
0.0
 11
-6.75
 21
0.0
 31
0.0
  0
LINE
  5
3DF
330
3D6
100
AcDbEntity
  8
MODEL
 62
     0
100
AcDbLine
 10
0.0
 20
-5.0
 30
0.0
 11
0.0
 21
-6.75
 31
0.0
  0
LINE
  5
3E0
330
3D6
100
AcDbEntity
  8
MODEL
 62
     0
100
AcDbLine
 10
5.0
 20
0.0
 30
0.0
 11
6.75
 21
0.0
 31
0.0
  0
ENDBLK
  5
3D8
330
3D6
100
AcDbEntity
  8
0
100
AcDbBlockEnd
  0
BLOCK
  5
3E3
330
3E2
100
AcDbEntity
  8
0
100
AcDbBlockBegin
  2
SW_CENTERMARKSYMBOL_2
 70
     0
 10
0.0
 20
0.0
 30
0.0
  3
SW_CENTERMARKSYMBOL_2
  1

  0
LINE
  5
3E5
330
3E2
100
AcDbEntity
  8
MODEL
 62
     0
100
AcDbLine
 10
0.0
 20
0.0
 30
0.0
 11
0.0
 21
2.5
 31
0.0
  0
LINE
  5
3E6
330
3E2
100
AcDbEntity
  8
MODEL
 62
     0
100
AcDbLine
 10
0.0
 20
0.0
 30
0.0
 11
-2.5
 21
0.0
 31
0.0
  0
LINE
  5
3E7
330
3E2
100
AcDbEntity
  8
MODEL
 62
     0
100
AcDbLine
 10
0.0
 20
0.0
 30
0.0
 11
0.0
 21
-2.5
 31
0.0
  0
LINE
  5
3E8
330
3E2
100
AcDbEntity
  8
MODEL
 62
     0
100
AcDbLine
 10
0.0
 20
0.0
 30
0.0
 11
2.5
 21
0.0
 31
0.0
  0
LINE
  5
3E9
330
3E2
100
AcDbEntity
  8
MODEL
 62
     0
100
AcDbLine
 10
0.0
 20
5.0
 30
0.0
 11
0.0
 21
6.75
 31
0.0
  0
LINE
  5
3EA
330
3E2
100
AcDbEntity
  8
MODEL
 62
     0
100
AcDbLine
 10
-5.0
 20
0.0
 30
0.0
 11
-6.75
 21
0.0
 31
0.0
  0
LINE
  5
3EB
330
3E2
100
AcDbEntity
  8
MODEL
 62
     0
100
AcDbLine
 10
0.0
 20
-5.0
 30
0.0
 11
0.0
 21
-6.75
 31
0.0
  0
LINE
  5
3EC
330
3E2
100
AcDbEntity
  8
MODEL
 62
     0
100
AcDbLine
 10
5.0
 20
0.0
 30
0.0
 11
6.75
 21
0.0
 31
0.0
  0
ENDBLK
  5
3E4
330
3E2
100
AcDbEntity
  8
0
100
AcDbBlockEnd
  0
BLOCK
  5
3EF
330
3EE
100
AcDbEntity
  8
0
100
AcDbBlockBegin
  2
SW_CENTERMARKSYMBOL_3
 70
     0
 10
0.0
 20
0.0
 30
0.0
  3
SW_CENTERMARKSYMBOL_3
  1

  0
LINE
  5
3F1
330
3EE
100
AcDbEntity
  8
MODEL
 62
     0
100
AcDbLine
 10
0.0
 20
0.0
 30
0.0
 11
0.0
 21
2.5
 31
0.0
  0
LINE
  5
3F2
330
3EE
100
AcDbEntity
  8
MODEL
 62
     0
100
AcDbLine
 10
0.0
 20
0.0
 30
0.0
 11
-2.5
 21
0.0
 31
0.0
  0
LINE
  5
3F3
330
3EE
100
AcDbEntity
  8
MODEL
 62
     0
100
AcDbLine
 10
0.0
 20
0.0
 30
0.0
 11
0.0
 21
-2.5
 31
0.0
  0
LINE
  5
3F4
330
3EE
100
AcDbEntity
  8
MODEL
 62
     0
100
AcDbLine
 10
0.0
 20
0.0
 30
0.0
 11
2.5
 21
0.0
 31
0.0
  0
LINE
  5
3F5
330
3EE
100
AcDbEntity
  8
MODEL
 62
     0
100
AcDbLine
 10
0.0
 20
5.0
 30
0.0
 11
0.0
 21
6.75
 31
0.0
  0
LINE
  5
3F6
330
3EE
100
AcDbEntity
  8
MODEL
 62
     0
100
AcDbLine
 10
-5.0
 20
0.0
 30
0.0
 11
-6.75
 21
0.0
 31
0.0
  0
LINE
  5
3F7
330
3EE
100
AcDbEntity
  8
MODEL
 62
     0
100
AcDbLine
 10
0.0
 20
-5.0
 30
0.0
 11
0.0
 21
-6.75
 31
0.0
  0
LINE
  5
3F8
330
3EE
100
AcDbEntity
  8
MODEL
 62
     0
100
AcDbLine
 10
5.0
 20
0.0
 30
0.0
 11
6.75
 21
0.0
 31
0.0
  0
ENDBLK
  5
3F0
330
3EE
100
AcDbEntity
  8
0
100
AcDbBlockEnd
  0
BLOCK
  5
3FB
330
3FA
100
AcDbEntity
  8
0
100
AcDbBlockBegin
  2
SW_CENTERMARKSYMBOL_4
 70
     0
 10
0.0
 20
0.0
 30
0.0
  3
SW_CENTERMARKSYMBOL_4
  1

  0
LINE
  5
3FD
330
3FA
100
AcDbEntity
  8
MODEL
 62
     0
100
AcDbLine
 10
0.0
 20
0.0
 30
0.0
 11
0.0
 21
2.5
 31
0.0
  0
LINE
  5
3FE
330
3FA
100
AcDbEntity
  8
MODEL
 62
     0
100
AcDbLine
 10
0.0
 20
0.0
 30
0.0
 11
-2.5
 21
0.0
 31
0.0
  0
LINE
  5
3FF
330
3FA
100
AcDbEntity
  8
MODEL
 62
     0
100
AcDbLine
 10
0.0
 20
0.0
 30
0.0
 11
0.0
 21
-2.5
 31
0.0
  0
LINE
  5
400
330
3FA
100
AcDbEntity
  8
MODEL
 62
     0
100
AcDbLine
 10
0.0
 20
0.0
 30
0.0
 11
2.5
 21
0.0
 31
0.0
  0
LINE
  5
401
330
3FA
100
AcDbEntity
  8
MODEL
 62
     0
100
AcDbLine
 10
0.0
 20
5.0
 30
0.0
 11
0.0
 21
6.75
 31
0.0
  0
LINE
  5
402
330
3FA
100
AcDbEntity
  8
MODEL
 62
     0
100
AcDbLine
 10
-5.0
 20
0.0
 30
0.0
 11
-6.75
 21
0.0
 31
0.0
  0
LINE
  5
403
330
3FA
100
AcDbEntity
  8
MODEL
 62
     0
100
AcDbLine
 10
0.0
 20
-5.0
 30
0.0
 11
0.0
 21
-6.75
 31
0.0
  0
LINE
  5
404
330
3FA
100
AcDbEntity
  8
MODEL
 62
     0
100
AcDbLine
 10
5.0
 20
0.0
 30
0.0
 11
6.75
 21
0.0
 31
0.0
  0
ENDBLK
  5
3FC
330
3FA
100
AcDbEntity
  8
0
100
AcDbBlockEnd
  0
BLOCK
  5
407
330
406
100
AcDbEntity
  8
0
100
AcDbBlockBegin
  2
SW_CENTERMARKSYMBOL_5
 70
     0
 10
0.0
 20
0.0
 30
0.0
  3
SW_CENTERMARKSYMBOL_5
  1

  0
LINE
  5
409
330
406
100
AcDbEntity
  8
MODEL
 62
     0
100
AcDbLine
 10
0.0
 20
0.0
 30
0.0
 11
0.0
 21
2.5
 31
0.0
  0
LINE
  5
40A
330
406
100
AcDbEntity
  8
MODEL
 62
     0
100
AcDbLine
 10
0.0
 20
0.0
 30
0.0
 11
-2.5
 21
0.0
 31
0.0
  0
LINE
  5
40B
330
406
100
AcDbEntity
  8
MODEL
 62
     0
100
AcDbLine
 10
0.0
 20
0.0
 30
0.0
 11
0.0
 21
-2.5
 31
0.0
  0
LINE
  5
40C
330
406
100
AcDbEntity
  8
MODEL
 62
     0
100
AcDbLine
 10
0.0
 20
0.0
 30
0.0
 11
2.5
 21
0.0
 31
0.0
  0
LINE
  5
40D
330
406
100
AcDbEntity
  8
MODEL
 62
     0
100
AcDbLine
 10
0.0
 20
5.0
 30
0.0
 11
0.0
 21
6.75
 31
0.0
  0
LINE
  5
40E
330
406
100
AcDbEntity
  8
MODEL
 62
     0
100
AcDbLine
 10
-5.0
 20
0.0
 30
0.0
 11
-6.75
 21
0.0
 31
0.0
  0
LINE
  5
40F
330
406
100
AcDbEntity
  8
MODEL
 62
     0
100
AcDbLine
 10
0.0
 20
-5.0
 30
0.0
 11
0.0
 21
-6.75
 31
0.0
  0
LINE
  5
410
330
406
100
AcDbEntity
  8
MODEL
 62
     0
100
AcDbLine
 10
5.0
 20
0.0
 30
0.0
 11
6.75
 21
0.0
 31
0.0
  0
ENDBLK
  5
408
330
406
100
AcDbEntity
  8
0
100
AcDbBlockEnd
  0
BLOCK
  5
48B
330
48A
100
AcDbEntity
  8
0
100
AcDbBlockBegin
  2
_D_5
 70
     0
 10
0.0
 20
0.0
 30
0.0
  3
_D_5
  1

  0
LINE
  5
48D
330
48A
100
AcDbEntity
  8
MODEL
440
 16777216
100
AcDbLine
 10
1887.7492761123
 20
367.9319433678
 30
0.0
 11
1948.4570055623
 21
367.9319433678
 31
0.0
  0
LINE
  5
48E
330
48A
100
AcDbEntity
  8
MODEL
440
 16777216
100
AcDbLine
 10
1884.3912909509
 20
664.331081729
 30
0.0
 11
1948.4570055623
 21
664.331081729
 31
0.0
  0
LINE
  5
48F
330
48A
100
AcDbEntity
  8
MODEL
440
 16777216
100
AcDbLine
 10
1940.4570055623
 20
367.9319433678
 30
0.0
 11
1940.4570055623
 21
664.331081729
 31
0.0
  0
MTEXT
  5
490
330
48A
100
AcDbEntity
  8
MODEL
440
 16777216
100
AcDbMText
 10
1919.8319212603
 20
514.8561714169
 30
0.0
 40
16.0
 41
0.0
 46
0.0
 71
     1
 72
     1
  1
290
  7
SLDTEXTSTYLE0
 11
0.0000000000000001
 21
1.0
 31
0.0
 73
     1
 44
1.0
  0
ENDBLK
  5
48C
330
48A
100
AcDbEntity
  8
0
100
AcDbBlockEnd
  0
BLOCK
  5
493
330
492
100
AcDbEntity
  8
0
100
AcDbBlockBegin
  2
_D_6
 70
     0
 10
0.0
 20
0.0
 30
0.0
  3
_D_6
  1

  0
LINE
  5
495
330
492
100
AcDbEntity
  8
MODEL
440
 16777216
100
AcDbLine
 10
1479.9912909509
 20
647.9810817288998
 30
0.0
 11
1479.9912909509
 21
717.6169030871
 31
0.0
  0
LINE
  5
496
330
492
100
AcDbEntity
  8
MODEL
440
 16777216
100
AcDbLine
 10
1876.3912909509
 20
671.5310817288998
 30
0.0
 11
1876.3912909509
 21
717.6169030871
 31
0.0
  0
LINE
  5
497
330
492
100
AcDbEntity
  8
MODEL
440
 16777216
100
AcDbLine
 10
1479.9912909509
 20
709.6169030871
 30
0.0
 11
1876.3912909509
 21
709.6169030871
 31
0.0
  0
MTEXT
  5
498
330
492
100
AcDbEntity
  8
MODEL
440
 16777216
100
AcDbMText
 10
1679.8277497433
 20
730.2419873891
 30
0.0
 40
16.0
 41
0.0
 46
0.0
 71
     1
 72
     1
  1
400
  7
SLDTEXTSTYLE0
 73
     1
 44
1.0
  0
ENDBLK
  5
494
330
492
100
AcDbEntity
  8
0
100
AcDbBlockEnd
  0
BLOCK
  5
53E
330
53D
100
AcDbEntity
  8
0
100
AcDbBlockBegin
  2
*D16
 70
     1
 10
0.0
 20
0.0
 30
0.0
  3
*D16
  1

  0
LINE
  5
68D
330
53D
100
AcDbEntity
  8
DIMENSION
440
 16777216
370
     0
100
AcDbLine
 10
1920.4570055623
 20
496.8297962452653
 30
0.0
 11
1960.4570055623
 21
496.8297962452653
 31
0.0
  0
LINE
  5
68E
330
53D
100
AcDbEntity
  8
DIMENSION
440
 16777216
370
     0
100
AcDbLine
 10
1920.4570055623
 20
793.2289346064655
 30
0.0
 11
1960.4570055623
 21
793.2289346064655
 31
0.0
  0
LINE
  5
68F
330
53D
100
AcDbEntity
  8
DIMENSION
440
 16777216
370
     0
100
AcDbLine
 10
1940.4570055623
 20
496.8297962452653
 30
0.0
 11
1940.4570055623
 21
793.2289346064655
 31
0.0
  0
MTEXT
  5
690
330
53D
100
AcDbEntity
  8
DIMENSION
 62
     7
440
 16777216
100
AcDbMText
 10
1972.796838431381
 20
670.1519827374968
 30
0.0
 40
20.0
 41
0.0
 46
0.0
 71
     2
 72
     1
  1
\A1;296
  7
Large
 73
     1
 44
1.0
  0
POINT
  5
691
330
53D
100
AcDbEntity
  8
Defpoints
 62
     0
440
 16777216
100
AcDbPoint
 10
1879.749276112301
 20
496.8297962452653
 30
0.0
  0
POINT
  5
692
330
53D
100
AcDbEntity
  8
Defpoints
 62
     0
440
 16777216
100
AcDbPoint
 10
1876.391290950901
 20
793.2289346064655
 30
0.0
  0
POINT
  5
693
330
53D
100
AcDbEntity
  8
Defpoints
 62
     0
440
 16777216
100
AcDbPoint
 10
1940.4570055623
 20
793.2289346064655
 30
0.0
  0
ENDBLK
  5
53F
330
53D
100
AcDbEntity
  8
0
100
AcDbBlockEnd
  0
BLOCK
  5
55C
330
55B
100
AcDbEntity
  8
0
100
AcDbBlockBegin
  2
*D18
 70
     1
 10
0.0
 20
0.0
 30
0.0
  3
*D18
  1

  0
LINE
  5
632
330
55B
100
AcDbEntity
  8
DIMENSION
440
 16777216
370
     0
100
AcDbLine
 10
1479.9912909509
 20
689.6169030871
 30
0.0
 11
1479.9912909509
 21
729.6169030870999
 31
0.0
  0
LINE
  5
633
330
55B
100
AcDbEntity
  8
DIMENSION
440
 16777216
370
     0
100
AcDbLine
 10
1876.3912909509
 20
689.6169030871
 30
0.0
 11
1876.3912909509
 21
729.6169030870999
 31
0.0
  0
LINE
  5
634
330
55B
100
AcDbEntity
  8
DIMENSION
440
 16777216
370
     0
100
AcDbLine
 10
1479.9912909509
 20
709.6169030871
 30
0.0
 11
1876.3912909509
 21
709.6169030871
 31
0.0
  0
MTEXT
  5
635
330
55B
100
AcDbEntity
  8
DIMENSION
 62
     7
440
 16777216
100
AcDbMText
 10
1695.961084231
 20
740.1461509979634
 30
0.0
 40
20.0
 41
0.0
 46
0.0
 71
     2
 72
     1
  1
\A1;396
  7
Large
 73
     1
 44
1.0
  0
POINT
  5
636
330
55B
100
AcDbEntity
  8
Defpoints
 62
     0
440
 16777216
100
AcDbPoint
 10
1479.9912909509
 20
639.9810817289
 30
0.0
  0
POINT
  5
637
330
55B
100
AcDbEntity
  8
Defpoints
 62
     0
440
 16777216
100
AcDbPoint
 10
1876.3912909509
 20
663.5310817288998
 30
0.0
  0
POINT
  5
638
330
55B
100
AcDbEntity
  8
Defpoints
 62
     0
440
 16777216
100
AcDbPoint
 10
1876.3912909509
 20
709.6169030871
 30
0.0
  0
ENDBLK
  5
55D
330
55B
100
AcDbEntity
  8
0
100
AcDbBlockEnd
  0
BLOCK
  5
579
330
578
100
AcDbEntity
  8
0
100
AcDbBlockBegin
  2
*D20
 70
     1
 10
0.0
 20
0.0
 30
0.0
  3
*D20
  1

  0
LINE
  5
66A
330
578
100
AcDbEntity
  8
DIMENSION
440
 16777216
370
     0
100
AcDbLine
 10
1307.2403100198
 20
693.4293107791002
 30
0.0
 11
1307.2403100198
 21
733.4293107791002
 31
0.0
  0
LINE
  5
66B
330
578
100
AcDbEntity
  8
DIMENSION
440
 16777216
370
     0
100
AcDbLine
 10
345.2403100198
 20
693.4293107791002
 30
0.0
 11
345.2403100198
 21
733.4293107791002
 31
0.0
  0
LINE
  5
66C
330
578
100
AcDbEntity
  8
DIMENSION
440
 16777216
370
     0
100
AcDbLine
 10
1307.2403100198
 20
713.4293107791002
 30
0.0
 11
345.2403100198
 21
713.4293107791002
 31
0.0
  0
MTEXT
  5
66D
330
578
100
AcDbEntity
  8
DIMENSION
 62
     7
440
 16777216
100
AcDbMText
 10
828.5749388995
 20
743.9585586899636
 30
0.0
 40
20.0
 41
0.0
 46
0.0
 71
     2
 72
     1
  1
\A1;960
  7
Large
 73
     1
 44
1.0
  0
POINT
  5
66E
330
578
100
AcDbEntity
  8
Defpoints
 62
     0
440
 16777216
100
AcDbPoint
 10
1307.2403100198
 20
639.9810817289
 30
0.0
  0
POINT
  5
66F
330
578
100
AcDbEntity
  8
Defpoints
 62
     0
440
 16777216
100
AcDbPoint
 10
345.2403100198
 20
639.9810817289
 30
0.0
  0
POINT
  5
670
330
578
100
AcDbEntity
  8
Defpoints
 62
     0
440
 16777216
100
AcDbPoint
 10
345.2403100198
 20
713.4293107791002
 30
0.0
  0
ENDBLK
  5
57A
330
578
100
AcDbEntity
  8
0
100
AcDbBlockEnd
  0
BLOCK
  5
596
330
595
100
AcDbEntity
  8
0
100
AcDbBlockBegin
  2
*D22
 70
     1
 10
0.0
 20
0.0
 30
0.0
  3
*D22
  1

  0
LINE
  5
686
330
595
100
AcDbEntity
  8
DIMENSION
440
 16777216
370
     0
100
AcDbLine
 10
1267.392977726811
 20
527.4289346063653
 30
0.0
 11
1307.392977726811
 21
527.4289346063654
 31
0.0
  0
LINE
  5
687
330
595
100
AcDbEntity
  8
DIMENSION
440
 16777216
370
     0
100
AcDbLine
 10
1267.392977726811
 20
717.4289346063651
 30
0.0
 11
1307.392977726811
 21
717.4289346063652
 31
0.0
  0
LINE
  5
688
330
595
100
AcDbEntity
  8
DIMENSION
440
 16777216
370
     0
100
AcDbLine
 10
1287.392977726811
 20
527.4289346063654
 30
0.0
 11
1287.392977726811
 21
717.4289346063652
 31
0.0
  0
MTEXT
  5
689
330
595
100
AcDbEntity
  8
DIMENSION
 62
     7
440
 16777216
100
AcDbMText
 10
1318.702169927368
 20
640.4994596391968
 30
0.0
 40
20.0
 41
0.0
 46
0.0
 71
     2
 72
     1
  1
\A1;190
  7
Large
 73
     1
 44
1.0
  0
POINT
  5
68A
330
595
100
AcDbEntity
  8
Defpoints
 62
     0
440
 16777216
100
AcDbPoint
 10
1182.7903100198
 20
527.4289346063653
 30
0.0
  0
POINT
  5
68B
330
595
100
AcDbEntity
  8
Defpoints
 62
     0
440
 16777216
100
AcDbPoint
 10
1182.7903100198
 20
717.4289346063651
 30
0.0
  0
POINT
  5
68C
330
595
100
AcDbEntity
  8
Defpoints
 62
     0
440
 16777216
100
AcDbPoint
 10
1287.392977726811
 20
717.4289346063652
 30
0.0
  0
ENDBLK
  5
597
330
595
100
AcDbEntity
  8
0
100
AcDbBlockEnd
  0
BLOCK
  5
5B3
330
5B2
100
AcDbEntity
  8
0
100
AcDbBlockBegin
  2
*D24
 70
     1
 10
0.0
 20
0.0
 30
0.0
  3
*D24
  1

  0
LINE
  5
67F
330
5B2
100
AcDbEntity
  8
DIMENSION
440
 16777216
370
     0
100
AcDbLine
 10
1367.2403100198
 20
496.8297962452654
 30
0.0
 11
1407.2403100198
 21
496.8297962452654
 31
0.0
  0
LINE
  5
680
330
5B2
100
AcDbEntity
  8
DIMENSION
440
 16777216
370
     0
100
AcDbLine
 10
1367.2403100198
 20
775.2289346063653
 30
0.0
 11
1407.2403100198
 21
775.2289346063653
 31
0.0
  0
LINE
  5
681
330
5B2
100
AcDbEntity
  8
DIMENSION
440
 16777216
370
     0
100
AcDbLine
 10
1387.2403100198
 20
496.8297962452654
 30
0.0
 11
1387.2403100198
 21
775.2289346063653
 31
0.0
  0
MTEXT
  5
682
330
5B2
100
AcDbEntity
  8
DIMENSION
 62
     7
440
 16777216
100
AcDbMText
 10
1419.566215312279
 20
640.4994749624965
 30
0.0
 40
20.0
 41
0.0
 46
0.0
 71
     2
 72
     1
  1
\A1;278
  7
Large
 73
     1
 44
1.0
  0
POINT
  5
683
330
5B2
100
AcDbEntity
  8
Defpoints
 62
     0
440
 16777216
100
AcDbPoint
 10
499.4701990268002
 20
496.8297962452653
 30
0.0
  0
POINT
  5
684
330
5B2
100
AcDbEntity
  8
Defpoints
 62
     0
440
 16777216
100
AcDbPoint
 10
1300.8903100198
 20
775.2289346063653
 30
0.0
  0
POINT
  5
685
330
5B2
100
AcDbEntity
  8
Defpoints
 62
     0
440
 16777216
100
AcDbPoint
 10
1387.2403100198
 20
775.2289346063653
 30
0.0
  0
ENDBLK
  5
5B4
330
5B2
100
AcDbEntity
  8
0
100
AcDbBlockEnd
  0
BLOCK
  5
5D0
330
5CF
100
AcDbEntity
  8
0
100
AcDbBlockBegin
  2
*D26
 70
     1
 10
0.0
 20
0.0
 30
0.0
  3
*D26
  1

  0
LINE
  5
694
330
5CF
100
AcDbEntity
  8
DIMENSION
440
 16777216
370
     0
100
AcDbLine
 10
1367.2403100198
 20
1340.5768724068
 30
0.0
 11
1407.2403100198
 21
1340.5768724068
 31
0.0
  0
LINE
  5
695
330
5CF
100
AcDbEntity
  8
DIMENSION
440
 16777216
370
     0
100
AcDbLine
 10
1367.2403100198
 20
944.1768724068003
 30
0.0
 11
1407.2403100198
 21
944.1768724068003
 31
0.0
  0
LINE
  5
696
330
5CF
100
AcDbEntity
  8
DIMENSION
440
 16777216
370
     0
100
AcDbLine
 10
1387.2403100198
 20
1340.5768724068
 30
0.0
 11
1387.2403100198
 21
944.1768724068003
 31
0.0
  0
MTEXT
  5
697
330
5CF
100
AcDbEntity
  8
DIMENSION
 62
     7
440
 16777216
100
AcDbMText
 10
1419.607998042084
 20
1163.540919073632
 30
0.0
 40
20.0
 41
0.0
 46
0.0
 71
     2
 72
     1
  1
\A1;400
  7
Large
 73
     1
 44
1.0
  0
POINT
  5
698
330
5CF
100
AcDbEntity
  8
Defpoints
 62
     0
440
 16777216
100
AcDbPoint
 10
1187.5403100198
 20
1340.5768724068
 30
0.0
  0
POINT
  5
699
330
5CF
100
AcDbEntity
  8
Defpoints
 62
     0
440
 16777216
100
AcDbPoint
 10
1293.2403100198
 20
944.1768724068003
 30
0.0
  0
POINT
  5
69A
330
5CF
100
AcDbEntity
  8
Defpoints
 62
     0
440
 16777216
100
AcDbPoint
 10
1387.2403100198
 20
944.1768724068003
 30
0.0
  0
ENDBLK
  5
5D1
330
5CF
100
AcDbEntity
  8
0
100
AcDbBlockEnd
  0
BLOCK
  5
5ED
330
5EC
100
AcDbEntity
  8
0
100
AcDbBlockBegin
  2
*D28
 70
     1
 10
0.0
 20
0.0
 30
0.0
  3
*D28
  1

  0
LINE
  5
678
330
5EC
100
AcDbEntity
  8
DIMENSION
440
 16777216
370
     0
100
AcDbLine
 10
345.2403100198
 20
1379.090910847437
 30
0.0
 11
345.2403100198
 21
1419.090910847437
 31
0.0
  0
LINE
  5
679
330
5EC
100
AcDbEntity
  8
DIMENSION
440
 16777216
370
     0
100
AcDbLine
 10
1307.2403100198
 20
1379.090910847437
 30
0.0
 11
1307.2403100198
 21
1419.090910847437
 31
0.0
  0
LINE
  5
67A
330
5EC
100
AcDbEntity
  8
DIMENSION
440
 16777216
370
     0
100
AcDbLine
 10
345.2403100198
 20
1399.090910847437
 30
0.0
 11
1307.2403100198
 21
1399.090910847437
 31
0.0
  0
MTEXT
  5
67B
330
5EC
100
AcDbEntity
  8
DIMENSION
 62
     7
440
 16777216
100
AcDbMText
 10
831.7891394127999
 20
1429.6201587583
 30
0.0
 40
20.0
 41
0.0
 46
0.0
 71
     2
 72
     1
  1
\A1;960
  7
Large
 73
     1
 44
1.0
  0
POINT
  5
67C
330
5EC
100
AcDbEntity
  8
Defpoints
 62
     0
440
 16777216
100
AcDbPoint
 10
345.2403100198
 20
958.1768724067998
 30
0.0
  0
POINT
  5
67D
330
5EC
100
AcDbEntity
  8
Defpoints
 62
     0
440
 16777216
100
AcDbPoint
 10
1307.2403100198
 20
958.1768724067998
 30
0.0
  0
POINT
  5
67E
330
5EC
100
AcDbEntity
  8
Defpoints
 62
     0
440
 16777216
100
AcDbPoint
 10
1307.2403100198
 20
1399.090910847437
 30
0.0
  0
ENDBLK
  5
5EE
330
5EC
100
AcDbEntity
  8
0
100
AcDbBlockEnd
  0
ENDSEC
  0
SECTION
  2
ENTITIES
  0
LINE
  5
6D
330
1F
100
AcDbEntity
  8
0
  6
Continuous
 62
     7
370
    35
100
AcDbLine
 10
1188.7903100198
 20
1317.5768724068
 30
0.0
 11
1189.7903100198
 21
1317.5768724068
 31
0.0
  0
LINE
  5
6E
330
1F
100
AcDbEntity
  8
0
  6
Continuous
 62
     7
370
    35
100
AcDbLine
 10
1189.7903100198
 20
1332.5768724068
 30
0.0
 11
1188.7903100198
 21
1332.5768724068
 31
0.0
  0
LINE
  5
6F
330
1F
100
AcDbEntity
  8
0
  6
Continuous
 62
     7
370
    35
100
AcDbLine
 10
463.6903100198
 20
1332.5768724068
 30
0.0
 11
462.6903100198
 21
1332.5768724068
 31
0.0
  0
LINE
  5
70
330
1F
100
AcDbEntity
  8
0
  6
Continuous
 62
     7
370
    35
100
AcDbLine
 10
462.6903100198
 20
1317.5768724068
 30
0.0
 11
463.6903100198
 21
1317.5768724068
 31
0.0
  0
LINE
  5
71
330
1F
100
AcDbEntity
  8
0
  6
Continuous
 62
     7
370
    35
100
AcDbLine
 10
812.5903100198
 20
1317.5768724068
 30
0.0
 11
813.5403100197997
 21
1317.5768724068
 31
0.0
  0
LINE
  5
72
330
1F
100
AcDbEntity
  8
0
  6
Continuous
 62
     7
370
    35
100
AcDbLine
 10
813.5403100197997
 20
1332.5768724068
 30
0.0
 11
812.5903100198
 21
1332.5768724068
 31
0.0
  0
LINE
  5
73
330
1F
100
AcDbEntity
  8
0
  6
Continuous
 62
     7
370
    35
100
AcDbLine
 10
490.0903100198
 20
1332.5768724068
 30
0.0
 11
489.1403100198
 21
1332.5768724068
 31
0.0
  0
LINE
  5
74
330
1F
100
AcDbEntity
  8
0
  6
Continuous
 62
     7
370
    35
100
AcDbLine
 10
489.1403100198
 20
1317.5768724068
 30
0.0
 11
490.0903100198
 21
1317.5768724068
 31
0.0
  0
LINE
  5
75
330
1F
100
AcDbEntity
  8
0
  6
Continuous
 62
     7
370
    35
100
AcDbLine
 10
1162.3903100198
 20
1317.5768724068
 30
0.0
 11
1163.3403100198
 21
1317.5768724068
 31
0.0
  0
LINE
  5
76
330
1F
100
AcDbEntity
  8
0
  6
Continuous
 62
     7
370
    35
100
AcDbLine
 10
1163.3403100198
 20
1332.5768724068
 30
0.0
 11
1162.3903100198
 21
1332.5768724068
 31
0.0
  0
LINE
  5
77
330
1F
100
AcDbEntity
  8
0
  6
Continuous
 62
     7
370
    35
100
AcDbLine
 10
838.9903100197997
 20
1317.5768724068
 30
0.0
 11
839.9903100197999
 21
1317.5768724068
 31
0.0
  0
LINE
  5
78
330
1F
100
AcDbEntity
  8
0
  6
Continuous
 62
     7
370
    35
100
AcDbLine
 10
839.9903100197999
 20
1332.5768724068
 30
0.0
 11
838.9903100197997
 21
1332.5768724068
 31
0.0
  0
LINE
  5
79
330
1F
100
AcDbEntity
  8
0
  6
Continuous
 62
     7
370
    35
100
AcDbLine
 10
806.0403100197998
 20
1330.0068724068
 30
0.0
 11
805.0403100197998
 21
1330.0068724068
 31
0.0
  0
LINE
  5
7A
330
1F
100
AcDbEntity
  8
0
  6
Continuous
 62
     7
370
    35
100
AcDbLine
 10
805.0403100197998
 20
1320.1468724068
 30
0.0
 11
806.0403100197998
 21
1320.1468724068
 31
0.0
  0
ARC
  5
7B
330
1F
100
AcDbEntity
  8
0
  6
Continuous
 62
     7
370
    35
100
AcDbCircle
 10
805.0403100197998
 20
1320.6468724068
 30
0.0
 40
0.5
100
AcDbArc
 50
180.0
 51
270.0
  0
ARC
  5
7C
330
1F
100
AcDbEntity
  8
0
  6
Continuous
 62
     7
370
    35
100
AcDbCircle
 10
805.0403100197998
 20
1329.5068724068
 30
0.0
 40
0.5000000000002274
100
AcDbArc
 50
90.0
 51
180.0
  0
LINE
  5
7D
330
1F
100
AcDbEntity
  8
0
  6
Continuous
 62
     7
370
    35
100
AcDbLine
 10
1155.8403100198
 20
1330.0068724068
 30
0.0
 11
1154.8403100198
 21
1330.0068724068
 31
0.0
  0
LINE
  5
7E
330
1F
100
AcDbEntity
  8
0
  6
Continuous
 62
     7
370
    35
100
AcDbLine
 10
1154.8403100198
 20
1320.1468724068
 30
0.0
 11
1155.8403100198
 21
1320.1468724068
 31
0.0
  0
ARC
  5
7F
330
1F
100
AcDbEntity
  8
0
  6
Continuous
 62
     7
370
    35
100
AcDbCircle
 10
1154.8403100198
 20
1320.6468724068
 30
0.0
 40
0.5000000000002274
100
AcDbArc
 50
180.0
 51
270.0
  0
ARC
  5
80
330
1F
100
AcDbEntity
  8
0
  6
Continuous
 62
     7
370
    35
100
AcDbCircle
 10
1154.8403100198
 20
1329.5068724068
 30
0.0
 40
0.5000000000002274
100
AcDbArc
 50
90.0
 51
180.0
  0
LINE
  5
81
330
1F
100
AcDbEntity
  8
0
  6
Continuous
 62
     7
370
    35
100
AcDbLine
 10
496.6403100198
 20
1320.1468724068
 30
0.0
 11
497.6403100198
 21
1320.1468724068
 31
0.0
  0
LINE
  5
82
330
1F
100
AcDbEntity
  8
0
  6
Continuous
 62
     7
370
    35
100
AcDbLine
 10
497.6403100198
 20
1330.0068724068
 30
0.0
 11
496.6403100198
 21
1330.0068724068
 31
0.0
  0
ARC
  5
83
330
1F
100
AcDbEntity
  8
0
  6
Continuous
 62
     7
370
    35
100
AcDbCircle
 10
497.6403100198
 20
1329.5068724068
 30
0.0
 40
0.5
100
AcDbArc
 50
0.0
 51
90.0
  0
ARC
  5
84
330
1F
100
AcDbEntity
  8
0
  6
Continuous
 62
     7
370
    35
100
AcDbCircle
 10
497.6403100198
 20
1320.6468724068
 30
0.0
 40
0.5
100
AcDbArc
 50
270.0
 51
0.0
  0
ARC
  5
85
330
1F
100
AcDbEntity
  8
0
  6
Continuous
 62
     7
370
    35
100
AcDbCircle
 10
1192.0903100198
 20
1330.0768724068
 30
0.0
 40
0.250000000000088
100
AcDbArc
 50
58.4976526731
 51
180.0
  0
ARC
  5
86
330
1F
100
AcDbEntity
  8
0
  6
Continuous
 62
     7
370
    35
100
AcDbCircle
 10
1192.0903100198
 20
1320.0768724068
 30
0.0
 40
0.2500000000002274
100
AcDbArc
 50
180.0000000001
 51
301.5023473269
  0
ARC
  5
87
330
1F
100
AcDbEntity
  8
0
  6
Continuous
 62
     7
370
    35
100
AcDbCircle
 10
1189.0260243055
 20
1325.0768724068
 30
0.0
 40
6.114285714285632
100
AcDbArc
 50
21.2159789428
 51
58.4976526731
  0
ARC
  5
88
330
1F
100
AcDbEntity
  8
0
  6
Continuous
 62
     7
370
    35
100
AcDbCircle
 10
1189.0260243055
 20
1325.0768724068
 30
0.0
 40
6.114285714285787
100
AcDbArc
 50
301.5023473269
 51
338.7840210572
  0
LINE
  5
89
330
1F
100
AcDbEntity
  8
0
  6
Continuous
 62
     7
370
    35
100
AcDbLine
 10
1191.8403100198
 20
1328.0768724068
 30
0.0
 11
1191.7903100198
 21
1328.0768724068
 31
0.0
  0
LINE
  5
8A
330
1F
100
AcDbEntity
  8
0
  6
Continuous
 62
     7
370
    35
100
AcDbLine
 10
1188.7903100198
 20
1328.0768724068
 30
0.0
 11
1188.7403100198
 21
1328.0768724068
 31
0.0
  0
LINE
  5
8B
330
1F
100
AcDbEntity
  8
0
  6
Continuous
 62
     7
370
    35
100
AcDbLine
 10
1188.7403100198
 20
1322.0768724068
 30
0.0
 11
1188.7903100198
 21
1322.0768724068
 31
0.0
  0
LINE
  5
8C
330
1F
100
AcDbEntity
  8
0
  6
Continuous
 62
     7
370
    35
100
AcDbLine
 10
1191.7903100198
 20
1322.0768724068
 30
0.0
 11
1191.8403100198
 21
1322.0768724068
 31
0.0
  0
SPLINE
  5
8D
330
1F
100
AcDbEntity
  8
0
  6
Continuous
 62
     7
370
    35
100
AcDbSpline
210
0.0
220
0.0
230
1.0
 70
     8
 71
     3
 72
     9
 73
     5
 74
     0
 42
0.00000001
 43
0.0000000001
 40
0.0
 40
0.0
 40
0.0
 40
0.0
 40
0.4998476804255187
 40
1.0
 40
1.0
 40
1.0
 40
1.0
 10
1162.32472937108
 20
1322.629565083269
 30
0.0
 10
1162.3773076308
 20
1322.539026188033
 30
0.0
 10
1162.482496194794
 20
1322.357893217368
 30
0.0
 10
1162.587590377256
 20
1322.176719671012
 30
0.0
 10
1162.640153476388
 20
1322.086105301557
 30
0.0
  0
LINE
  5
8E
330
1F
100
AcDbEntity
  8
0
  6
Continuous
 62
     7
370
    35
100
AcDbLine
 10
1163.3247293711
 20
1322.6295650833
 30
0.0
 11
1163.3403100198
 21
1322.6027304503
 31
0.0
  0
SPLINE
  5
8F
330
1F
100
AcDbEntity
  8
0
  6
Continuous
 62
     7
370
    35
100
AcDbSpline
210
0.0
220
0.0
230
1.0
 70
     8
 71
     3
 72
     9
 73
     5
 74
     0
 42
0.00000001
 43
0.0000000001
 40
0.0
 40
0.0
 40
0.0
 40
0.0
 40
0.527800964042262
 40
1.0
 40
1.0
 40
1.0
 40
1.0
 10
1160.610958496269
 20
1327.516156327475
 30
0.0
 10
1160.558248077687
 20
1327.606884871475
 30
0.0
 10
1160.458380093025
 20
1327.778784034569
 30
0.0
 10
1160.35865440694
 20
1327.950768144384
 30
0.0
 10
1160.31156403411
 20
1328.031978875239
 30
0.0
  0
SPLINE
  5
90
330
1F
100
AcDbEntity
  8
0
  6
Continuous
 62
     7
370
    35
100
AcDbSpline
210
0.0
220
0.0
230
1.0
 70
     8
 71
     3
 72
     9
 73
     5
 74
     0
 42
0.00000001
 43
0.0000000001
 40
0.0
 40
0.0
 40
0.0
 40
0.0
 40
0.4997565963228809
 40
1.0
 40
1.0
 40
1.0
 40
1.0
 10
1162.610958496269
 20
1327.516156327475
 30
0.0
 10
1162.558248779782
 20
1327.606885290597
 30
0.0
 10
1162.452778002856
 20
1327.788431594918
 30
0.0
 10
1162.347457509742
 20
1327.970067612833
 30
0.0
 10
1162.294771627789
 20
1328.060929832665
 30
0.0
  0
LINE
  5
91
330
1F
100
AcDbEntity
  8
0
  6
Continuous
 62
     7
370
    35
100
AcDbLine
 10
1163.3403100198
 20
1327.9824193427
 30
0.0
 11
1163.2947716278
 21
1328.0609298327
 31
0.0
  0
LINE
  5
92
330
1F
100
AcDbEntity
  8
0
  6
Continuous
 62
     7
370
    35
100
AcDbLine
 10
1162.0904603309
 20
1322.6181382821
 30
0.0
 11
1162.331363968
 21
1322.6181382821
 31
0.0
  0
ARC
  5
93
330
1F
100
AcDbEntity
  8
0
  6
Continuous
 62
     7
370
    35
100
AcDbCircle
 10
460.3903100198
 20
1320.0768724068
 30
0.0
 40
0.25
100
AcDbArc
 50
238.4976526731
 51
0.0
  0
ARC
  5
94
330
1F
100
AcDbEntity
  8
0
  6
Continuous
 62
     7
370
    35
100
AcDbCircle
 10
460.3903100198
 20
1330.0768724068
 30
0.0
 40
0.2500000000000286
100
AcDbArc
 50
0.0
 51
121.5023473269
  0
ARC
  5
95
330
1F
100
AcDbEntity
  8
0
  6
Continuous
 62
     7
370
    35
100
AcDbCircle
 10
463.4545957341
 20
1325.0768724068
 30
0.0
 40
6.114285714285862
100
AcDbArc
 50
121.5023473269
 51
157.2814834179
  0
ARC
  5
96
330
1F
100
AcDbEntity
  8
0
  6
Continuous
 62
     7
370
    35
100
AcDbCircle
 10
463.4545957341
 20
1325.0768724068
 30
0.0
 40
6.114285714285794
100
AcDbArc
 50
202.7185165821
 51
238.4976526731
  0
SPLINE
  5
97
330
1F
100
AcDbEntity
  8
0
  6
Continuous
 62
     7
370
    35
100
AcDbSpline
210
0.0
220
0.0
230
1.0
 70
     8
 71
     3
 72
     9
 73
     5
 74
     0
 42
0.00000001
 43
0.0000000001
 40
0.0
 40
0.0
 40
0.0
 40
0.0
 40
0.4998100404690371
 40
1.0
 40
1.0
 40
1.0
 40
1.0
 10
490.0604348524741
 20
1322.633753104996
 30
0.0
 10
490.1130643173149
 20
1322.543119107897
 30
0.0
 10
490.2183632520693
 20
1322.361782220358
 30
0.0
 10
490.3235349417965
 20
1322.180373821292
 30
0.0
 10
490.3761407650248
 20
1322.089635161505
 30
0.0
  0
LINE
  5
98
330
1F
100
AcDbEntity
  8
0
  6
Continuous
 62
     7
370
    35
100
AcDbLine
 10
460.6403100198
 20
1322.0768724068
 30
0.0
 11
460.6903100198
 21
1322.0768724068
 31
0.0
  0
LINE
  5
99
330
1F
100
AcDbEntity
  8
0
  6
Continuous
 62
     7
370
    35
100
AcDbLine
 10
463.6903100198
 20
1322.0768724068
 30
0.0
 11
463.7403100198
 21
1322.0768724068
 31
0.0
  0
LINE
  5
9A
330
1F
100
AcDbEntity
  8
0
  6
Continuous
 62
     7
370
    35
100
AcDbLine
 10
463.7403100198
 20
1328.0768724068
 30
0.0
 11
463.6903100198
 21
1328.0768724068
 31
0.0
  0
LINE
  5
9B
330
1F
100
AcDbEntity
  8
0
  6
Continuous
 62
     7
370
    35
100
AcDbLine
 10
460.6903100198
 20
1328.0768724068
 30
0.0
 11
460.6403100198
 21
1328.0768724068
 31
0.0
  0
LINE
  5
9C
330
1F
100
AcDbEntity
  8
0
  6
Continuous
 62
     7
370
    35
100
AcDbLine
 10
489.8278100210998
 20
1322.6181382818
 30
0.0
 11
490.0694996669
 21
1322.6181382818
 31
0.0
  0
ARC
  5
9D
330
1F
100
AcDbEntity
  8
0
  6
Continuous
 62
     7
370
    35
100
AcDbCircle
 10
842.2903100197997
 20
1330.0768724068
 30
0.0
 40
0.2500000000001631
100
AcDbArc
 50
58.4976526731
 51
180.0
  0
ARC
  5
9E
330
1F
100
AcDbEntity
  8
0
  6
Continuous
 62
     7
370
    35
100
AcDbCircle
 10
842.2903100197997
 20
1320.0768724068
 30
0.0
 40
0.2500000000002225
100
AcDbArc
 50
180.0000000001
 51
301.5023473269
  0
ARC
  5
9F
330
1F
100
AcDbEntity
  8
0
  6
Continuous
 62
     7
370
    35
100
AcDbCircle
 10
839.2260243055
 20
1325.0768724068
 30
0.0
 40
6.114285714285738
100
AcDbArc
 50
21.2159789428
 51
58.4976526731
  0
ARC
  5
A0
330
1F
100
AcDbEntity
  8
0
  6
Continuous
 62
     7
370
    35
100
AcDbCircle
 10
839.2260243055
 20
1325.0768724068
 30
0.0
 40
6.114285714285982
100
AcDbArc
 50
301.5023473269
 51
338.7840210572
  0
LINE
  5
A1
330
1F
100
AcDbEntity
  8
0
  6
Continuous
 62
     7
370
    35
100
AcDbLine
 10
842.0403100197997
 20
1328.0768724068
 30
0.0
 11
841.9903100197998
 21
1328.0768724068
 31
0.0
  0
LINE
  5
A2
330
1F
100
AcDbEntity
  8
0
  6
Continuous
 62
     7
370
    35
100
AcDbLine
 10
838.9903100197997
 20
1328.0768724068
 30
0.0
 11
838.9403100198
 21
1328.0768724068
 31
0.0
  0
LINE
  5
A3
330
1F
100
AcDbEntity
  8
0
  6
Continuous
 62
     7
370
    35
100
AcDbLine
 10
838.9403100198
 20
1322.0768724068
 30
0.0
 11
838.9903100197997
 21
1322.0768724068
 31
0.0
  0
LINE
  5
A4
330
1F
100
AcDbEntity
  8
0
  6
Continuous
 62
     7
370
    35
100
AcDbLine
 10
841.9903100197998
 20
1322.0768724068
 30
0.0
 11
842.0403100197997
 21
1322.0768724068
 31
0.0
  0
SPLINE
  5
A5
330
1F
100
AcDbEntity
  8
0
  6
Continuous
 62
     7
370
    35
100
AcDbSpline
210
0.0
220
0.0
230
1.0
 70
     8
 71
     3
 72
     9
 73
     5
 74
     0
 42
0.00000001
 43
0.0000000001
 40
0.0
 40
0.0
 40
0.0
 40
0.0
 40
0.4998476804254964
 40
1.0
 40
1.0
 40
1.0
 40
1.0
 10
812.5247293710788
 20
1322.629565083264
 30
0.0
 10
812.5773076307986
 20
1322.539026188028
 30
0.0
 10
812.6824961947928
 20
1322.357893217363
 30
0.0
 10
812.7875903772549
 20
1322.176719671008
 30
0.0
 10
812.8401534763872
 20
1322.086105301552
 30
0.0
  0
LINE
  5
A6
330
1F
100
AcDbEntity
  8
0
  6
Continuous
 62
     7
370
    35
100
AcDbLine
 10
813.5247293711
 20
1322.6295650833
 30
0.0
 11
813.5403100197997
 21
1322.6027304503
 31
0.0
  0
LINE
  5
A7
330
1F
100
AcDbEntity
  8
0
  6
Continuous
 62
     7
370
    35
100
AcDbLine
 10
810.5735357998
 20
1327.9251364182
 30
0.0
 11
810.5115640341001
 21
1328.0319788752
 31
0.0
  0
SPLINE
  5
A8
330
1F
100
AcDbEntity
  8
0
  6
Continuous
 62
     7
370
    35
100
AcDbSpline
210
0.0
220
0.0
230
1.0
 70
     8
 71
     3
 72
     9
 73
     5
 74
     0
 42
0.00000001
 43
0.0000000001
 40
0.0
 40
0.0
 40
0.0
 40
0.0
 40
0.4997565963228809
 40
1.0
 40
1.0
 40
1.0
 40
1.0
 10
812.8109584962682
 20
1327.51615632747
 30
0.0
 10
812.7582487797804
 20
1327.606885290592
 30
0.0
 10
812.6527780028547
 20
1327.788431594913
 30
0.0
 10
812.5474575097404
 20
1327.970067612828
 30
0.0
 10
812.4947716277883
 20
1328.06092983266
 30
0.0
  0
LINE
  5
A9
330
1F
100
AcDbEntity
  8
0
  6
Continuous
 62
     7
370
    35
100
AcDbLine
 10
813.5403100197997
 20
1327.9824193427
 30
0.0
 11
813.4947716278
 21
1328.0609298327
 31
0.0
  0
LINE
  5
AA
330
1F
100
AcDbEntity
  8
0
  6
Continuous
 62
     7
370
    35
100
AcDbLine
 10
812.2904603308997
 20
1322.6181382821
 30
0.0
 11
812.5313639679998
 21
1322.6181382821
 31
0.0
  0
ARC
  5
AB
330
1F
100
AcDbEntity
  8
0
  6
Continuous
 62
     7
370
    35
100
AcDbCircle
 10
1293.2403100198
 20
1294.1768724068
 30
0.0
 40
7.649999999999861
100
AcDbArc
 50
0.0
 51
90.0
  0
LINE
  5
AC
330
1F
100
AcDbEntity
  8
0
  6
Continuous
 62
     7
370
    35
100
AcDbLine
 10
1293.2403100198
 20
1308.1768724068
 30
0.0
 11
1293.2403100198
 21
1301.8268724068
 31
0.0
  0
ARC
  5
AD
330
1F
100
AcDbEntity
  8
0
  6
Continuous
 62
     7
370
    35
100
AcDbCircle
 10
1293.2403100198
 20
1294.1768724068
 30
0.0
 40
14.0
100
AcDbArc
 50
0.0
 51
90.0
  0
LINE
  5
AE
330
1F
100
AcDbEntity
  8
0
  6
Continuous
 62
     7
370
    35
100
AcDbLine
 10
1300.8903100198
 20
1294.1768724068
 30
0.0
 11
1307.2403100198
 21
1294.1768724068
 31
0.0
  0
ARC
  5
AF
330
1F
100
AcDbEntity
  8
0
  6
Continuous
 62
     7
370
    35
100
AcDbCircle
 10
1293.2403100198
 20
958.1768724067998
 30
0.0
 40
7.650000000000089
100
AcDbArc
 50
270.0
 51
0.0
  0
LINE
  5
B0
330
1F
100
AcDbEntity
  8
0
  6
Continuous
 62
     7
370
    35
100
AcDbLine
 10
1300.8903100198
 20
958.1768724067998
 30
0.0
 11
1307.2403100198
 21
958.1768724067998
 31
0.0
  0
ARC
  5
B1
330
1F
100
AcDbEntity
  8
0
  6
Continuous
 62
     7
370
    35
100
AcDbCircle
 10
1293.2403100198
 20
958.1768724067998
 30
0.0
 40
14.0
100
AcDbArc
 50
270.0
 51
0.0
  0
LINE
  5
B2
330
1F
100
AcDbEntity
  8
0
  6
Continuous
 62
     7
370
    35
100
AcDbLine
 10
1293.2403100198
 20
950.5268724067999
 30
0.0
 11
1293.2403100198
 21
944.1768724067999
 31
0.0
  0
LINE
  5
B3
330
1F
100
AcDbEntity
  8
0
  6
Continuous
 62
     7
370
    35
100
AcDbLine
 10
1293.2403100198
 20
1308.1768724068
 30
0.0
 11
359.2403100198
 21
1308.1768724068
 31
0.0
  0
LINE
  5
B4
330
1F
100
AcDbEntity
  8
0
  6
Continuous
 62
     7
370
    35
100
AcDbLine
 10
1293.2403100198
 20
1301.8268724068
 30
0.0
 11
359.2403100198
 21
1301.8268724068
 31
0.0
  0
LINE
  5
B5
330
1F
100
AcDbEntity
  8
0
  6
Continuous
 62
     7
370
    35
100
AcDbLine
 10
359.2403100198
 20
1308.1768724068
 30
0.0
 11
359.2403100198
 21
1301.8268724068
 31
0.0
  0
ARC
  5
B6
330
1F
100
AcDbEntity
  8
0
  6
Continuous
 62
     7
370
    35
100
AcDbCircle
 10
506.2403100197998
 20
1159.1768724068
 30
0.0
 40
5.000000000000226
100
AcDbArc
 50
90.0
 51
270.0
  0
LINE
  5
B7
330
1F
100
AcDbEntity
  8
0
  6
Continuous
 62
     7
370
    35
100
AcDbLine
 10
746.2403100197998
 20
1154.1768724068
 30
0.0
 11
506.2403100197998
 21
1154.1768724068
 31
0.0
  0
ARC
  5
B8
330
1F
100
AcDbEntity
  8
0
  6
Continuous
 62
     7
370
    35
100
AcDbCircle
 10
746.2403100197998
 20
1159.1768724068
 30
0.0
 40
5.0
100
AcDbArc
 50
270.0
 51
90.0
  0
LINE
  5
B9
330
1F
100
AcDbEntity
  8
0
  6
Continuous
 62
     7
370
    35
100
AcDbLine
 10
506.2403100197998
 20
1164.1768724068
 30
0.0
 11
746.2403100197998
 21
1164.1768724068
 31
0.0
  0
ARC
  5
BA
330
1F
100
AcDbEntity
  8
0
  6
Continuous
 62
     7
370
    35
100
AcDbCircle
 10
906.2403100197998
 20
1159.1768724068
 30
0.0
 40
5.000000000000226
100
AcDbArc
 50
90.0
 51
270.0
  0
LINE
  5
BB
330
1F
100
AcDbEntity
  8
0
  6
Continuous
 62
     7
370
    35
100
AcDbLine
 10
1146.2403100198
 20
1154.1768724068
 30
0.0
 11
906.2403100197998
 21
1154.1768724068
 31
0.0
  0
ARC
  5
BC
330
1F
100
AcDbEntity
  8
0
  6
Continuous
 62
     7
370
    35
100
AcDbCircle
 10
1146.2403100198
 20
1159.1768724068
 30
0.0
 40
5.0
100
AcDbArc
 50
270.0
 51
90.0
  0
LINE
  5
BD
330
1F
100
AcDbEntity
  8
0
  6
Continuous
 62
     7
370
    35
100
AcDbLine
 10
906.2403100197998
 20
1164.1768724068
 30
0.0
 11
1146.2403100198
 21
1164.1768724068
 31
0.0
  0
ARC
  5
BE
330
1F
100
AcDbEntity
  8
0
  6
Continuous
 62
     7
370
    35
100
AcDbCircle
 10
906.2403100197998
 20
1093.1768724068
 30
0.0
 40
5.0
100
AcDbArc
 50
90.0
 51
270.0
  0
LINE
  5
BF
330
1F
100
AcDbEntity
  8
0
  6
Continuous
 62
     7
370
    35
100
AcDbLine
 10
1146.2403100198
 20
1088.1768724068
 30
0.0
 11
906.2403100197998
 21
1088.1768724068
 31
0.0
  0
ARC
  5
C0
330
1F
100
AcDbEntity
  8
0
  6
Continuous
 62
     7
370
    35
100
AcDbCircle
 10
1146.2403100198
 20
1093.1768724068
 30
0.0
 40
5.0
100
AcDbArc
 50
270.0
 51
90.0
  0
LINE
  5
C1
330
1F
100
AcDbEntity
  8
0
  6
Continuous
 62
     7
370
    35
100
AcDbLine
 10
906.2403100197998
 20
1098.1768724068
 30
0.0
 11
1146.2403100198
 21
1098.1768724068
 31
0.0
  0
ARC
  5
C2
330
1F
100
AcDbEntity
  8
0
  6
Continuous
 62
     7
370
    35
100
AcDbCircle
 10
506.2403100197998
 20
1093.1768724068
 30
0.0
 40
5.0
100
AcDbArc
 50
90.0
 51
270.0
  0
LINE
  5
C3
330
1F
100
AcDbEntity
  8
0
  6
Continuous
 62
     7
370
    35
100
AcDbLine
 10
746.2403100197998
 20
1088.1768724068
 30
0.0
 11
506.2403100197998
 21
1088.1768724068
 31
0.0
  0
ARC
  5
C4
330
1F
100
AcDbEntity
  8
0
  6
Continuous
 62
     7
370
    35
100
AcDbCircle
 10
746.2403100197998
 20
1093.1768724068
 30
0.0
 40
5.0
100
AcDbArc
 50
270.0
 51
90.0
  0
LINE
  5
C5
330
1F
100
AcDbEntity
  8
0
  6
Continuous
 62
     7
370
    35
100
AcDbLine
 10
506.2403100197998
 20
1098.1768724068
 30
0.0
 11
746.2403100197998
 21
1098.1768724068
 31
0.0
  0
LINE
  5
C6
330
1F
100
AcDbEntity
  8
0
  6
Continuous
 62
     7
370
    35
100
AcDbLine
 10
359.2403100198
 20
950.5268724067999
 30
0.0
 11
1293.2403100198
 21
950.5268724067999
 31
0.0
  0
ARC
  5
C7
330
1F
100
AcDbEntity
  8
0
  6
Continuous
 62
     7
370
    35
100
AcDbCircle
 10
359.2403100198
 20
958.1768724067998
 30
0.0
 40
7.650000000000089
100
AcDbArc
 50
180.0
 51
270.0
  0
LINE
  5
C8
330
1F
100
AcDbEntity
  8
0
  6
Continuous
 62
     7
370
    35
100
AcDbLine
 10
351.5903100198
 20
1294.1768724068
 30
0.0
 11
351.5903100198
 21
958.1768724067998
 31
0.0
  0
ARC
  5
C9
330
1F
100
AcDbEntity
  8
0
  6
Continuous
 62
     7
370
    35
100
AcDbCircle
 10
359.2403100198
 20
1294.1768724068
 30
0.0
 40
7.649999999999977
100
AcDbArc
 50
90.0
 51
180.0
  0
LINE
  5
CA
330
1F
100
AcDbEntity
  8
0
  6
Continuous
 62
     7
370
    35
100
AcDbLine
 10
1300.8903100198
 20
958.1768724067998
 30
0.0
 11
1300.8903100198
 21
1294.1768724068
 31
0.0
  0
LINE
  5
CB
330
1F
100
AcDbEntity
  8
0
  6
Continuous
 62
     7
370
    35
100
AcDbLine
 10
1307.2403100198
 20
958.1768724067998
 30
0.0
 11
1307.2403100198
 21
1294.1768724068
 31
0.0
  0
LINE
  5
CC
330
1F
100
AcDbEntity
  8
0
  6
Continuous
 62
     7
370
    35
100
AcDbLine
 10
359.2403100198
 20
944.1768724067999
 30
0.0
 11
1293.2403100198
 21
944.1768724067999
 31
0.0
  0
LINE
  5
CD
330
1F
100
AcDbEntity
  8
0
  6
Continuous
 62
     7
370
    35
100
AcDbLine
 10
359.2403100198
 20
950.5268724067999
 30
0.0
 11
359.2403100198
 21
944.1768724067999
 31
0.0
  0
ARC
  5
CE
330
1F
100
AcDbEntity
  8
0
  6
Continuous
 62
     7
370
    35
100
AcDbCircle
 10
1146.2403100198
 20
1159.1768724068
 30
0.0
 40
2.5
100
AcDbArc
 50
270.0
 51
90.0
  0
LINE
  5
CF
330
1F
100
AcDbEntity
  8
0
  6
Continuous
 62
     7
370
    35
100
AcDbLine
 10
1146.2403100198
 20
1164.1768724068
 30
0.0
 11
1146.2403100198
 21
1161.6768724068
 31
0.0
  0
LINE
  5
D0
330
1F
100
AcDbEntity
  8
0
  6
Continuous
 62
     7
370
    35
100
AcDbLine
 10
1146.2403100198
 20
1156.6768724068
 30
0.0
 11
1146.2403100198
 21
1154.1768724068
 31
0.0
  0
ARC
  5
D1
330
1F
100
AcDbEntity
  8
0
  6
Continuous
 62
     7
370
    35
100
AcDbCircle
 10
1146.2403100198
 20
1093.1768724068
 30
0.0
 40
2.5
100
AcDbArc
 50
270.0
 51
90.0
  0
LINE
  5
D2
330
1F
100
AcDbEntity
  8
0
  6
Continuous
 62
     7
370
    35
100
AcDbLine
 10
1146.2403100198
 20
1098.1768724068
 30
0.0
 11
1146.2403100198
 21
1095.6768724068
 31
0.0
  0
LINE
  5
D3
330
1F
100
AcDbEntity
  8
0
  6
Continuous
 62
     7
370
    35
100
AcDbLine
 10
1146.2403100198
 20
1090.6768724068
 30
0.0
 11
1146.2403100198
 21
1088.1768724068
 31
0.0
  0
LINE
  5
D4
330
1F
100
AcDbEntity
  8
0
  6
Continuous
 62
     7
370
    35
100
AcDbLine
 10
906.2403100197998
 20
1090.6768724068
 30
0.0
 11
1146.2403100198
 21
1090.6768724068
 31
0.0
  0
LINE
  5
D5
330
1F
100
AcDbEntity
  8
0
  6
Continuous
 62
     7
370
    35
100
AcDbLine
 10
906.2403100197998
 20
1090.6768724068
 30
0.0
 11
906.2403100197998
 21
1088.1768724068
 31
0.0
  0
LINE
  5
D6
330
1F
100
AcDbEntity
  8
0
  6
Continuous
 62
     7
370
    35
100
AcDbLine
 10
1146.2403100198
 20
1161.6768724068
 30
0.0
 11
906.2403100197998
 21
1161.6768724068
 31
0.0
  0
LINE
  5
D7
330
1F
100
AcDbEntity
  8
0
  6
Continuous
 62
     7
370
    35
100
AcDbLine
 10
906.2403100197998
 20
1164.1768724068
 30
0.0
 11
906.2403100197998
 21
1161.6768724068
 31
0.0
  0
LINE
  5
D8
330
1F
100
AcDbEntity
  8
0
  6
Continuous
 62
     7
370
    35
100
AcDbLine
 10
906.2403100197998
 20
1156.6768724068
 30
0.0
 11
1146.2403100198
 21
1156.6768724068
 31
0.0
  0
LINE
  5
D9
330
1F
100
AcDbEntity
  8
0
  6
Continuous
 62
     7
370
    35
100
AcDbLine
 10
906.2403100197998
 20
1156.6768724068
 30
0.0
 11
906.2403100197998
 21
1154.1768724068
 31
0.0
  0
LINE
  5
DA
330
1F
100
AcDbEntity
  8
0
  6
Continuous
 62
     7
370
    35
100
AcDbLine
 10
1146.2403100198
 20
1095.6768724068
 30
0.0
 11
906.2403100197998
 21
1095.6768724068
 31
0.0
  0
LINE
  5
DB
330
1F
100
AcDbEntity
  8
0
  6
Continuous
 62
     7
370
    35
100
AcDbLine
 10
906.2403100197998
 20
1098.1768724068
 30
0.0
 11
906.2403100197998
 21
1095.6768724068
 31
0.0
  0
ARC
  5
DC
330
1F
100
AcDbEntity
  8
0
  6
Continuous
 62
     7
370
    35
100
AcDbCircle
 10
906.2403100197998
 20
1093.1768724068
 30
0.0
 40
2.5
100
AcDbArc
 50
90.0
 51
270.0
  0
ARC
  5
DD
330
1F
100
AcDbEntity
  8
0
  6
Continuous
 62
     7
370
    35
100
AcDbCircle
 10
906.2403100197998
 20
1159.1768724068
 30
0.0
 40
2.5
100
AcDbArc
 50
90.0
 51
270.0
  0
ARC
  5
DE
330
1F
100
AcDbEntity
  8
0
  6
Continuous
 62
     7
370
    35
100
AcDbCircle
 10
746.2403100197998
 20
1093.1768724068
 30
0.0
 40
2.5
100
AcDbArc
 50
270.0
 51
90.0
  0
LINE
  5
DF
330
1F
100
AcDbEntity
  8
0
  6
Continuous
 62
     7
370
    35
100
AcDbLine
 10
746.2403100197998
 20
1098.1768724068
 30
0.0
 11
746.2403100197998
 21
1095.6768724068
 31
0.0
  0
LINE
  5
E0
330
1F
100
AcDbEntity
  8
0
  6
Continuous
 62
     7
370
    35
100
AcDbLine
 10
746.2403100197998
 20
1090.6768724068
 30
0.0
 11
746.2403100197998
 21
1088.1768724068
 31
0.0
  0
LINE
  5
E1
330
1F
100
AcDbEntity
  8
0
  6
Continuous
 62
     7
370
    35
100
AcDbLine
 10
506.2403100197998
 20
1156.6768724068
 30
0.0
 11
746.2403100197998
 21
1156.6768724068
 31
0.0
  0
LINE
  5
E2
330
1F
100
AcDbEntity
  8
0
  6
Continuous
 62
     7
370
    35
100
AcDbLine
 10
746.2403100197998
 20
1156.6768724068
 30
0.0
 11
746.2403100197998
 21
1154.1768724068
 31
0.0
  0
LINE
  5
E3
330
1F
100
AcDbEntity
  8
0
  6
Continuous
 62
     7
370
    35
100
AcDbLine
 10
506.2403100197998
 20
1156.6768724068
 30
0.0
 11
506.2403100197998
 21
1154.1768724068
 31
0.0
  0
LINE
  5
E4
330
1F
100
AcDbEntity
  8
0
  6
Continuous
 62
     7
370
    35
100
AcDbLine
 10
746.2403100197998
 20
1095.6768724068
 30
0.0
 11
506.2403100197998
 21
1095.6768724068
 31
0.0
  0
LINE
  5
E5
330
1F
100
AcDbEntity
  8
0
  6
Continuous
 62
     7
370
    35
100
AcDbLine
 10
506.2403100197998
 20
1098.1768724068
 30
0.0
 11
506.2403100197998
 21
1095.6768724068
 31
0.0
  0
ARC
  5
E6
330
1F
100
AcDbEntity
  8
0
  6
Continuous
 62
     7
370
    35
100
AcDbCircle
 10
746.2403100197998
 20
1159.1768724068
 30
0.0
 40
2.5
100
AcDbArc
 50
270.0
 51
90.0
  0
LINE
  5
E7
330
1F
100
AcDbEntity
  8
0
  6
Continuous
 62
     7
370
    35
100
AcDbLine
 10
746.2403100197998
 20
1164.1768724068
 30
0.0
 11
746.2403100197998
 21
1161.6768724068
 31
0.0
  0
LINE
  5
E8
330
1F
100
AcDbEntity
  8
0
  6
Continuous
 62
     7
370
    35
100
AcDbLine
 10
506.2403100197998
 20
1090.6768724068
 30
0.0
 11
746.2403100197998
 21
1090.6768724068
 31
0.0
  0
LINE
  5
E9
330
1F
100
AcDbEntity
  8
0
  6
Continuous
 62
     7
370
    35
100
AcDbLine
 10
506.2403100197998
 20
1090.6768724068
 30
0.0
 11
506.2403100197998
 21
1088.1768724068
 31
0.0
  0
LINE
  5
EA
330
1F
100
AcDbEntity
  8
0
  6
Continuous
 62
     7
370
    35
100
AcDbLine
 10
746.2403100197998
 20
1161.6768724068
 30
0.0
 11
506.2403100197998
 21
1161.6768724068
 31
0.0
  0
LINE
  5
EB
330
1F
100
AcDbEntity
  8
0
  6
Continuous
 62
     7
370
    35
100
AcDbLine
 10
506.2403100197998
 20
1164.1768724068
 30
0.0
 11
506.2403100197998
 21
1161.6768724068
 31
0.0
  0
ARC
  5
EC
330
1F
100
AcDbEntity
  8
0
  6
Continuous
 62
     7
370
    35
100
AcDbCircle
 10
506.2403100197998
 20
1093.1768724068
 30
0.0
 40
2.5
100
AcDbArc
 50
90.0
 51
270.0
  0
ARC
  5
ED
330
1F
100
AcDbEntity
  8
0
  6
Continuous
 62
     7
370
    35
100
AcDbCircle
 10
506.2403100197998
 20
1159.1768724068
 30
0.0
 40
2.5
100
AcDbArc
 50
90.0
 51
270.0
  0
ARC
  5
EE
330
1F
100
AcDbEntity
  8
0
  6
Continuous
 62
     7
370
    35
100
AcDbCircle
 10
359.2403100198
 20
1294.1768724068
 30
0.0
 40
14.0
100
AcDbArc
 50
90.0
 51
180.0
  0
LINE
  5
EF
330
1F
100
AcDbEntity
  8
0
  6
Continuous
 62
     7
370
    35
100
AcDbLine
 10
345.2403100198
 20
1294.1768724068
 30
0.0
 11
351.5903100198
 21
1294.1768724068
 31
0.0
  0
ARC
  5
F0
330
1F
100
AcDbEntity
  8
0
  6
Continuous
 62
     7
370
    35
100
AcDbCircle
 10
359.2403100198
 20
958.1768724067998
 30
0.0
 40
14.0
100
AcDbArc
 50
180.0
 51
270.0
  0
LINE
  5
F1
330
1F
100
AcDbEntity
  8
0
  6
Continuous
 62
     7
370
    35
100
AcDbLine
 10
345.2403100198
 20
958.1768724067998
 30
0.0
 11
351.5903100198
 21
958.1768724067998
 31
0.0
  0
LINE
  5
F2
330
1F
100
AcDbEntity
  8
0
  6
Continuous
 62
     7
370
    35
100
AcDbLine
 10
345.2403100198
 20
1294.1768724068
 30
0.0
 11
345.2403100198
 21
958.1768724067998
 31
0.0
  0
LINE
  5
F3
330
1F
100
AcDbEntity
  8
0
  6
Continuous
 62
     7
370
    35
100
AcDbLine
 10
1188.7903100198
 20
1332.5768724068
 30
0.0
 11
1188.7903100198
 21
1317.5768724068
 31
0.0
  0
LINE
  5
F4
330
1F
100
AcDbEntity
  8
0
  6
Continuous
 62
     7
370
    35
100
AcDbLine
 10
463.6903100198
 20
1317.5768724068
 30
0.0
 11
463.6903100198
 21
1332.5768724068
 31
0.0
  0
LINE
  5
F5
330
1F
100
AcDbEntity
  8
0
  6
Continuous
 62
     7
370
    35
100
AcDbLine
 10
812.5903100198
 20
1332.5768724068
 30
0.0
 11
812.5903100198
 21
1317.5768724068
 31
0.0
  0
LINE
  5
F6
330
1F
100
AcDbEntity
  8
0
  6
Continuous
 62
     7
370
    35
100
AcDbLine
 10
490.0903100198
 20
1317.5768724068
 30
0.0
 11
490.0903100198
 21
1332.5768724068
 31
0.0
  0
LINE
  5
F7
330
1F
100
AcDbEntity
  8
0
  6
Continuous
 62
     7
370
    35
100
AcDbLine
 10
1162.3903100198
 20
1332.5768724068
 30
0.0
 11
1162.3903100198
 21
1317.5768724068
 31
0.0
  0
LINE
  5
F8
330
1F
100
AcDbEntity
  8
0
  6
Continuous
 62
     7
370
    35
100
AcDbLine
 10
838.9903100197997
 20
1332.5768724068
 30
0.0
 11
838.9903100197997
 21
1317.5768724068
 31
0.0
  0
LINE
  5
F9
330
1F
100
AcDbEntity
  8
0
  6
Continuous
 62
     7
370
    35
100
AcDbLine
 10
810.4903100197997
 20
1327.6933320532
 30
0.0
 11
810.0999801802
 21
1325.8250097605
 31
0.0
  0
LINE
  5
FA
330
1F
100
AcDbEntity
  8
0
  6
Continuous
 62
     7
370
    35
100
AcDbLine
 10
806.4806398592999
 20
1325.8250097605
 30
0.0
 11
810.0999801802
 21
1325.8250097605
 31
0.0
  0
LINE
  5
FB
330
1F
100
AcDbEntity
  8
0
  6
Continuous
 62
     7
370
    35
100
AcDbLine
 10
806.4806398592999
 20
1325.8250097605
 30
0.0
 11
806.0403100197998
 21
1328.0815955784
 31
0.0
  0
SPLINE
  5
FC
330
1F
100
AcDbEntity
  8
0
  6
Continuous
 62
     7
370
    35
100
AcDbSpline
210
0.0
220
0.0
230
1.0
 70
     8
 71
     3
 72
     9
 73
     5
 74
     0
 42
0.00000001
 43
0.0000000001
 40
0.0
 40
0.0
 40
0.0
 40
0.0
 40
0.0701997036385178
 40
1.0
 40
1.0
 40
1.0
 40
1.0
 10
806.0403100197699
 20
1328.081595578427
 30
0.0
 10
806.0407498794283
 20
1328.135089348383
 30
0.0
 10
806.0470157129767
 20
1328.897112080435
 30
0.0
 10
806.2717146868406
 20
1329.643857388062
 30
0.0
 10
806.4806398593315
 20
1330.3381813964
 30
0.0
  0
LINE
  5
FD
330
1F
100
AcDbEntity
  8
0
  6
Continuous
 62
     7
370
    35
100
AcDbLine
 10
806.4806398592999
 20
1330.3381813964
 30
0.0
 11
810.0999801802
 21
1330.3381813964
 31
0.0
  0
LINE
  5
FE
330
1F
100
AcDbEntity
  8
0
  6
Continuous
 62
     7
370
    35
100
AcDbLine
 10
810.0999801802
 20
1330.3381813964
 30
0.0
 11
810.5403100198
 21
1328.0815955784
 31
0.0
  0
LINE
  5
FF
330
1F
100
AcDbEntity
  8
0
  6
Continuous
 62
     7
370
    35
100
AcDbLine
 10
806.0403100197998
 20
1328.0815955784
 30
0.0
 11
806.0403100197998
 21
1330.0068724068
 31
0.0
  0
LINE
  5
100
330
1F
100
AcDbEntity
  8
0
  6
Continuous
 62
     7
370
    35
100
AcDbLine
 10
806.0403100197998
 20
1323.1943552656
 30
0.0
 11
806.0403100197998
 21
1328.0815955784
 31
0.0
  0
LINE
  5
101
330
1F
100
AcDbEntity
  8
0
  6
Continuous
 62
     7
370
    35
100
AcDbLine
 10
806.0403100197998
 20
1320.189632094
 30
0.0
 11
806.0403100197998
 21
1323.1943552656
 31
0.0
  0
LINE
  5
102
330
1F
100
AcDbEntity
  8
0
  6
Continuous
 62
     7
370
    35
100
AcDbLine
 10
804.5403100197997
 20
1320.6468724068
 30
0.0
 11
804.5403100197997
 21
1329.5068724068
 31
0.0
  0
SPLINE
  5
103
330
1F
100
AcDbEntity
  8
0
  6
Continuous
 62
     7
370
    35
100
AcDbSpline
210
0.0
220
0.0
230
1.0
 70
     8
 71
     3
 72
     9
 73
     5
 74
     0
 42
0.00000001
 43
0.0000000001
 40
0.0
 40
0.0
 40
0.0
 40
0.0
 40
0.3017115076022417
 40
1.0
 40
1.0
 40
1.0
 40
1.0
 10
810.0999801802082
 20
1325.825009760454
 30
0.0
 10
810.1671781668457
 20
1325.604288333275
 30
0.0
 10
810.3899008172723
 20
1324.872723836672
 30
0.0
 10
810.4490245780167
 20
1324.112656242759
 30
0.0
 10
810.490310019772
 20
1323.581909788485
 30
0.0
  0
SPLINE
  5
104
330
1F
100
AcDbEntity
  8
0
  6
Continuous
 62
     7
370
    35
100
AcDbSpline
210
0.0
220
0.0
230
1.0
 70
     8
 71
     3
 72
     9
 73
     5
 74
     0
 42
0.00000001
 43
0.0000000001
 40
0.0
 40
0.0
 40
0.0
 40
0.0
 40
0.7424486548962497
 40
1.0
 40
1.0
 40
1.0
 40
1.0
 10
806.0403100197699
 20
1323.194355265632
 30
0.0
 10
806.0896383967257
 20
1323.855789034729
 30
0.0
 10
806.1560785156892
 20
1324.746670531698
 30
0.0
 10
806.4141684496757
 20
1325.604161745042
 30
0.0
 10
806.4806398593319
 20
1325.825009760454
 30
0.0
  0
LINE
  5
105
330
1F
100
AcDbEntity
  8
0
  6
Continuous
 62
     7
370
    35
100
AcDbLine
 10
810.4903100197997
 20
1322.407222457
 30
0.0
 11
810.0999801802
 21
1320.5637007708
 31
0.0
  0
LINE
  5
106
330
1F
100
AcDbEntity
  8
0
  6
Continuous
 62
     7
370
    35
100
AcDbLine
 10
806.4806398592999
 20
1320.5637007708
 30
0.0
 11
810.0999801802
 21
1320.5637007708
 31
0.0
  0
SPLINE
  5
107
330
1F
100
AcDbEntity
  8
0
  6
Continuous
 62
     7
370
    35
100
AcDbSpline
210
0.0
220
0.0
230
1.0
 70
     8
 71
     3
 72
     9
 73
     5
 74
     0
 42
0.00000001
 43
0.0000000001
 40
0.0
 40
0.0
 40
0.0
 40
0.0
 40
0.7313663949445059
 40
1.0
 40
1.0
 40
1.0
 40
1.0
 10
806.4806398593319
 20
1320.563700770811
 30
0.0
 10
806.3076740495604
 20
1321.197764675804
 30
0.0
 10
806.0711772526502
 20
1322.064722618329
 30
0.0
 10
806.0468461670184
 20
1322.955155161501
 30
0.0
 10
806.0403100197699
 20
1323.194355265632
 30
0.0
  0
LINE
  5
108
330
1F
100
AcDbEntity
  8
0
  6
Continuous
 62
     7
370
    35
100
AcDbLine
 10
810.0999801802
 20
1320.5637007708
 30
0.0
 11
810.5403100198
 21
1320.189632094
 31
0.0
  0
SPLINE
  5
109
330
1F
100
AcDbEntity
  8
0
  6
Continuous
 62
     7
370
    35
100
AcDbSpline
210
0.0
220
0.0
230
1.0
 70
     8
 71
     3
 72
     9
 73
     5
 74
     0
 42
0.00000001
 43
0.0000000001
 40
0.0
 40
0.0
 40
0.0
 40
0.0
 40
0.0701997036383405
 40
1.0
 40
1.0
 40
1.0
 40
1.0
 10
806.0403100197699
 20
1320.189632093962
 30
0.0
 10
806.0407498794283
 20
1320.198499624542
 30
0.0
 10
806.0470157129769
 20
1320.324818257248
 30
0.0
 10
806.271714686841
 20
1320.448604388908
 30
0.0
 10
806.4806398593319
 20
1320.563700770811
 30
0.0
  0
SPLINE
  5
10A
330
1F
100
AcDbEntity
  8
0
  6
Continuous
 62
     7
370
    35
100
AcDbSpline
210
0.0
220
0.0
230
1.0
 70
     8
 71
     3
 72
     9
 73
     5
 74
     0
 42
0.00000001
 43
0.0000000001
 40
0.0
 40
0.0
 40
0.0
 40
0.0
 40
0.0701997036384429
 40
1.0
 40
1.0
 40
1.0
 40
1.0
 10
810.5403100197699
 20
1329.964112719552
 30
0.0
 10
810.5398701601117
 20
1329.972980250132
 30
0.0
 10
810.5336043265641
 20
1330.099298882836
 30
0.0
 10
810.3089053526993
 20
1330.223085014497
 30
0.0
 10
810.0999801802078
 20
1330.3381813964
 30
0.0
  0
LINE
  5
10B
330
1F
100
AcDbEntity
  8
0
  6
Continuous
 62
     7
370
    35
100
AcDbLine
 10
806.4806398592999
 20
1330.3381813964
 30
0.0
 11
806.0403100197998
 21
1329.9641127196
 31
0.0
  0
SPLINE
  5
10C
330
1F
100
AcDbEntity
  8
0
  6
Continuous
 62
     7
370
    35
100
AcDbSpline
210
0.0
220
0.0
230
1.0
 70
     8
 71
     3
 72
     9
 73
     5
 74
     0
 42
0.00000001
 43
0.0000000001
 40
0.0
 40
0.0
 40
0.0
 40
0.0
 40
0.0701997036384193
 40
1.0
 40
1.0
 40
1.0
 40
1.0
 10
810.5403100197699
 20
1320.189632093963
 30
0.0
 10
810.5398701601121
 20
1320.180764563383
 30
0.0
 10
810.5336043265634
 20
1320.054445930679
 30
0.0
 10
810.3089053526993
 20
1319.930659799018
 30
0.0
 10
810.0999801802085
 20
1319.815563417115
 30
0.0
  0
LINE
  5
10D
330
1F
100
AcDbEntity
  8
0
  6
Continuous
 62
     7
370
    35
100
AcDbLine
 10
806.4806398592999
 20
1319.8155634171
 30
0.0
 11
810.0999801802
 21
1319.8155634171
 31
0.0
  0
LINE
  5
10E
330
1F
100
AcDbEntity
  8
0
  6
Continuous
 62
     7
370
    35
100
AcDbLine
 10
806.4806398592999
 20
1319.8155634171
 30
0.0
 11
806.0403100197998
 21
1320.189632094
 31
0.0
  0
LINE
  5
10F
330
1F
100
AcDbEntity
  8
0
  6
Continuous
 62
     7
370
    35
100
AcDbLine
 10
1160.2903100198
 20
1327.6933320532
 30
0.0
 11
1159.8999801802
 21
1325.8250097605
 31
0.0
  0
LINE
  5
110
330
1F
100
AcDbEntity
  8
0
  6
Continuous
 62
     7
370
    35
100
AcDbLine
 10
1156.2806398593
 20
1325.8250097605
 30
0.0
 11
1159.8999801802
 21
1325.8250097605
 31
0.0
  0
LINE
  5
111
330
1F
100
AcDbEntity
  8
0
  6
Continuous
 62
     7
370
    35
100
AcDbLine
 10
1156.2806398593
 20
1325.8250097605
 30
0.0
 11
1155.8403100198
 21
1328.0815955784
 31
0.0
  0
SPLINE
  5
112
330
1F
100
AcDbEntity
  8
0
  6
Continuous
 62
     7
370
    35
100
AcDbSpline
210
0.0
220
0.0
230
1.0
 70
     8
 71
     3
 72
     9
 73
     5
 74
     0
 42
0.00000001
 43
0.0000000001
 40
0.0
 40
0.0
 40
0.0
 40
0.0
 40
0.070199703638518
 40
1.0
 40
1.0
 40
1.0
 40
1.0
 10
1155.840310019771
 20
1328.081595578432
 30
0.0
 10
1155.840749879429
 20
1328.135089348388
 30
0.0
 10
1155.847015712978
 20
1328.89711208044
 30
0.0
 10
1156.071714686842
 20
1329.643857388067
 30
0.0
 10
1156.280639859333
 20
1330.338181396404
 30
0.0
  0
LINE
  5
113
330
1F
100
AcDbEntity
  8
0
  6
Continuous
 62
     7
370
    35
100
AcDbLine
 10
1156.2806398593
 20
1330.3381813964
 30
0.0
 11
1159.8999801802
 21
1330.3381813964
 31
0.0
  0
LINE
  5
114
330
1F
100
AcDbEntity
  8
0
  6
Continuous
 62
     7
370
    35
100
AcDbLine
 10
1159.8999801802
 20
1330.3381813964
 30
0.0
 11
1160.3403100198
 21
1328.0815955784
 31
0.0
  0
LINE
  5
115
330
1F
100
AcDbEntity
  8
0
  6
Continuous
 62
     7
370
    35
100
AcDbLine
 10
1155.8403100198
 20
1328.0815955784
 30
0.0
 11
1155.8403100198
 21
1330.0068724068
 31
0.0
  0
LINE
  5
116
330
1F
100
AcDbEntity
  8
0
  6
Continuous
 62
     7
370
    35
100
AcDbLine
 10
1155.8403100198
 20
1323.1943552656
 30
0.0
 11
1155.8403100198
 21
1328.0815955784
 31
0.0
  0
LINE
  5
117
330
1F
100
AcDbEntity
  8
0
  6
Continuous
 62
     7
370
    35
100
AcDbLine
 10
1155.8403100198
 20
1320.189632094
 30
0.0
 11
1155.8403100198
 21
1323.1943552656
 31
0.0
  0
LINE
  5
118
330
1F
100
AcDbEntity
  8
0
  6
Continuous
 62
     7
370
    35
100
AcDbLine
 10
1154.3403100198
 20
1320.6468724068
 30
0.0
 11
1154.3403100198
 21
1329.5068724068
 31
0.0
  0
SPLINE
  5
119
330
1F
100
AcDbEntity
  8
0
  6
Continuous
 62
     7
370
    35
100
AcDbSpline
210
0.0
220
0.0
230
1.0
 70
     8
 71
     3
 72
     9
 73
     5
 74
     0
 42
0.00000001
 43
0.0000000001
 40
0.0
 40
0.0
 40
0.0
 40
0.0
 40
0.3017115076040452
 40
1.0
 40
1.0
 40
1.0
 40
1.0
 10
1159.899980180209
 20
1325.825009760458
 30
0.0
 10
1159.967178166847
 20
1325.60428833328
 30
0.0
 10
1160.189900817272
 20
1324.872723836682
 30
0.0
 10
1160.249024578016
 20
1324.112656242773
 30
0.0
 10
1160.290310019771
 20
1323.581909788503
 30
0.0
  0
SPLINE
  5
11A
330
1F
100
AcDbEntity
  8
0
  6
Continuous
 62
     7
370
    35
100
AcDbSpline
210
0.0
220
0.0
230
1.0
 70
     8
 71
     3
 72
     9
 73
     5
 74
     0
 42
0.00000001
 43
0.0000000001
 40
0.0
 40
0.0
 40
0.0
 40
0.0
 40
0.7424486548962508
 40
1.0
 40
1.0
 40
1.0
 40
1.0
 10
1155.840310019771
 20
1323.194355265637
 30
0.0
 10
1155.889638396727
 20
1323.855789034733
 30
0.0
 10
1155.95607851569
 20
1324.746670531703
 30
0.0
 10
1156.214168449677
 20
1325.604161745047
 30
0.0
 10
1156.280639859333
 20
1325.825009760458
 30
0.0
  0
LINE
  5
11B
330
1F
100
AcDbEntity
  8
0
  6
Continuous
 62
     7
370
    35
100
AcDbLine
 10
1160.2903100198
 20
1322.407222457
 30
0.0
 11
1159.8999801802
 21
1320.5637007708
 31
0.0
  0
LINE
  5
11C
330
1F
100
AcDbEntity
  8
0
  6
Continuous
 62
     7
370
    35
100
AcDbLine
 10
1156.2806398593
 20
1320.5637007708
 30
0.0
 11
1159.8999801802
 21
1320.5637007708
 31
0.0
  0
SPLINE
  5
11D
330
1F
100
AcDbEntity
  8
0
  6
Continuous
 62
     7
370
    35
100
AcDbSpline
210
0.0
220
0.0
230
1.0
 70
     8
 71
     3
 72
     9
 73
     5
 74
     0
 42
0.00000001
 43
0.0000000001
 40
0.0
 40
0.0
 40
0.0
 40
0.0
 40
0.7313663949445044
 40
1.0
 40
1.0
 40
1.0
 40
1.0
 10
1156.280639859333
 20
1320.563700770816
 30
0.0
 10
1156.107674049561
 20
1321.197764675809
 30
0.0
 10
1155.871177252651
 20
1322.064722618334
 30
0.0
 10
1155.846846167019
 20
1322.955155161506
 30
0.0
 10
1155.840310019771
 20
1323.194355265637
 30
0.0
  0
LINE
  5
11E
330
1F
100
AcDbEntity
  8
0
  6
Continuous
 62
     7
370
    35
100
AcDbLine
 10
1159.8999801802
 20
1320.5637007708
 30
0.0
 11
1160.3403100198
 21
1320.189632094
 31
0.0
  0
SPLINE
  5
11F
330
1F
100
AcDbEntity
  8
0
  6
Continuous
 62
     7
370
    35
100
AcDbSpline
210
0.0
220
0.0
230
1.0
 70
     8
 71
     3
 72
     9
 73
     5
 74
     0
 42
0.00000001
 43
0.0000000001
 40
0.0
 40
0.0
 40
0.0
 40
0.0
 40
0.0701997036383399
 40
1.0
 40
1.0
 40
1.0
 40
1.0
 10
1155.840310019771
 20
1320.189632093967
 30
0.0
 10
1155.840749879429
 20
1320.198499624547
 30
0.0
 10
1155.847015712977
 20
1320.324818257253
 30
0.0
 10
1156.071714686842
 20
1320.448604388913
 30
0.0
 10
1156.280639859333
 20
1320.563700770816
 30
0.0
  0
SPLINE
  5
120
330
1F
100
AcDbEntity
  8
0
  6
Continuous
 62
     7
370
    35
100
AcDbSpline
210
0.0
220
0.0
230
1.0
 70
     8
 71
     3
 72
     9
 73
     5
 74
     0
 42
0.00000001
 43
0.0000000001
 40
0.0
 40
0.0
 40
0.0
 40
0.0
 40
0.0701997036384426
 40
1.0
 40
1.0
 40
1.0
 40
1.0
 10
1160.340310019771
 20
1329.964112719557
 30
0.0
 10
1160.339870160113
 20
1329.972980250137
 30
0.0
 10
1160.333604326565
 20
1330.099298882841
 30
0.0
 10
1160.108905352701
 20
1330.223085014501
 30
0.0
 10
1159.899980180209
 20
1330.338181396405
 30
0.0
  0
LINE
  5
121
330
1F
100
AcDbEntity
  8
0
  6
Continuous
 62
     7
370
    35
100
AcDbLine
 10
1156.2806398593
 20
1330.3381813964
 30
0.0
 11
1155.8403100198
 21
1329.9641127196
 31
0.0
  0
SPLINE
  5
122
330
1F
100
AcDbEntity
  8
0
  6
Continuous
 62
     7
370
    35
100
AcDbSpline
210
0.0
220
0.0
230
1.0
 70
     8
 71
     3
 72
     9
 73
     5
 74
     0
 42
0.00000001
 43
0.0000000001
 40
0.0
 40
0.0
 40
0.0
 40
0.0
 40
0.0701997036384197
 40
1.0
 40
1.0
 40
1.0
 40
1.0
 10
1160.340310019771
 20
1320.189632093968
 30
0.0
 10
1160.339870160113
 20
1320.180764563388
 30
0.0
 10
1160.333604326564
 20
1320.054445930684
 30
0.0
 10
1160.1089053527
 20
1319.930659799023
 30
0.0
 10
1159.899980180209
 20
1319.81556341712
 30
0.0
  0
LINE
  5
123
330
1F
100
AcDbEntity
  8
0
  6
Continuous
 62
     7
370
    35
100
AcDbLine
 10
1156.2806398593
 20
1319.8155634171
 30
0.0
 11
1159.8999801802
 21
1319.8155634171
 31
0.0
  0
LINE
  5
124
330
1F
100
AcDbEntity
  8
0
  6
Continuous
 62
     7
370
    35
100
AcDbLine
 10
1156.2806398593
 20
1319.8155634171
 30
0.0
 11
1155.8403100198
 21
1320.189632094
 31
0.0
  0
LINE
  5
125
330
1F
100
AcDbEntity
  8
0
  6
Continuous
 62
     7
370
    35
100
AcDbLine
 10
492.1903100198
 20
1323.0359952485
 30
0.0
 11
492.5806398593
 21
1325.0768724068
 31
0.0
  0
LINE
  5
126
330
1F
100
AcDbEntity
  8
0
  6
Continuous
 62
     7
370
    35
100
AcDbLine
 10
496.1999801802
 20
1325.0768724068
 30
0.0
 11
492.5806398593
 21
1325.0768724068
 31
0.0
  0
LINE
  5
127
330
1F
100
AcDbEntity
  8
0
  6
Continuous
 62
     7
370
    35
100
AcDbLine
 10
496.1999801802
 20
1325.0768724068
 30
0.0
 11
496.6403100198
 21
1322.6118724068
 31
0.0
  0
SPLINE
  5
128
330
1F
100
AcDbEntity
  8
0
  6
Continuous
 62
     7
370
    35
100
AcDbSpline
210
0.0
220
0.0
230
1.0
 70
     8
 71
     3
 72
     9
 73
     5
 74
     0
 42
0.00000001
 43
0.0000000001
 40
0.0
 40
0.0
 40
0.0
 40
0.0
 40
0.0701997036384188
 40
1.0
 40
1.0
 40
1.0
 40
1.0
 10
496.6403100197693
 20
1322.611872406752
 30
0.0
 10
496.6398701601112
 20
1322.55343804902
 30
0.0
 10
496.6336043265624
 20
1321.721036276595
 30
0.0
 10
496.4089053526985
 20
1320.905322923866
 30
0.0
 10
496.1999801802075
 20
1320.146872406752
 30
0.0
  0
LINE
  5
129
330
1F
100
AcDbEntity
  8
0
  6
Continuous
 62
     7
370
    35
100
AcDbLine
 10
496.1999801802
 20
1320.1468724068
 30
0.0
 11
492.5806398593
 21
1320.1468724068
 31
0.0
  0
LINE
  5
12A
330
1F
100
AcDbEntity
  8
0
  6
Continuous
 62
     7
370
    35
100
AcDbLine
 10
492.5806398593
 20
1320.1468724068
 30
0.0
 11
492.1403100198
 21
1322.6118724068
 31
0.0
  0
LINE
  5
12B
330
1F
100
AcDbEntity
  8
0
  6
Continuous
 62
     7
370
    35
100
AcDbLine
 10
492.1903100198
 20
1327.9659952485
 30
0.0
 11
492.5806398593
 21
1330.0068724068
 31
0.0
  0
LINE
  5
12C
330
1F
100
AcDbEntity
  8
0
  6
Continuous
 62
     7
370
    35
100
AcDbLine
 10
496.1999801802
 20
1330.0068724068
 30
0.0
 11
492.5806398593
 21
1330.0068724068
 31
0.0
  0
LINE
  5
12D
330
1F
100
AcDbEntity
  8
0
  6
Continuous
 62
     7
370
    35
100
AcDbLine
 10
496.1999801802
 20
1330.0068724068
 30
0.0
 11
496.6403100198
 21
1327.5418724068
 31
0.0
  0
SPLINE
  5
12E
330
1F
100
AcDbEntity
  8
0
  6
Continuous
 62
     7
370
    35
100
AcDbSpline
210
0.0
220
0.0
230
1.0
 70
     8
 71
     3
 72
     9
 73
     5
 74
     0
 42
0.00000001
 43
0.0000000001
 40
0.0
 40
0.0
 40
0.0
 40
0.0
 40
0.0701997036385205
 40
1.0
 40
1.0
 40
1.0
 40
1.0
 10
496.6403100197692
 20
1327.541872406752
 30
0.0
 10
496.6398701601107
 20
1327.483438049019
 30
0.0
 10
496.6336043265624
 20
1326.651036276595
 30
0.0
 10
496.4089053526983
 20
1325.835322923866
 30
0.0
 10
496.1999801802075
 20
1325.076872406752
 30
0.0
  0
LINE
  5
12F
330
1F
100
AcDbEntity
  8
0
  6
Continuous
 62
     7
370
    35
100
AcDbLine
 10
492.5806398593
 20
1325.0768724068
 30
0.0
 11
492.1403100198
 21
1327.5418724068
 31
0.0
  0
LINE
  5
130
330
1F
100
AcDbEntity
  8
0
  6
Continuous
 62
     7
370
    35
100
AcDbLine
 10
496.6403100198
 20
1327.5418724068
 30
0.0
 11
496.6403100198
 21
1322.6118724068
 31
0.0
  0
LINE
  5
131
330
1F
100
AcDbEntity
  8
0
  6
Continuous
 62
     7
370
    35
100
AcDbLine
 10
496.6403100198
 20
1322.6118724068
 30
0.0
 11
496.6403100198
 21
1320.1468724068
 31
0.0
  0
LINE
  5
132
330
1F
100
AcDbEntity
  8
0
  6
Continuous
 62
     7
370
    35
100
AcDbLine
 10
496.6403100198
 20
1330.0068724068
 30
0.0
 11
496.6403100198
 21
1327.5418724068
 31
0.0
  0
LINE
  5
133
330
1F
100
AcDbEntity
  8
0
  6
Continuous
 62
     7
370
    35
100
AcDbLine
 10
498.1403100198
 20
1329.5068718731
 30
0.0
 11
498.1403100198
 21
1320.6468724068
 31
0.0
  0
SPLINE
  5
134
330
1F
100
AcDbEntity
  8
0
  6
Continuous
 62
     7
370
    35
100
AcDbSpline
210
0.0
220
0.0
230
1.0
 70
    24
 71
     3
 72
     9
 73
     5
 74
     0
 42
0.00000001
 43
0.0000000001
 40
0.0
 40
0.0
 40
0.0
 40
0.0
 40
0.2575513451038056
 40
1.0
 40
1.0
 40
1.0
 40
1.0
 10
496.1999801802075
 20
1320.146872406752
 30
0.0
 10
496.2664515898636
 20
1320.146872406752
 30
0.0
 10
496.52454152385
 20
1320.146872406752
 30
0.0
 10
496.5909816428137
 20
1320.146872406752
 30
0.0
 10
496.6403100197693
 20
1320.146872406752
 30
0.0
  0
SPLINE
  5
135
330
1F
100
AcDbEntity
  8
0
  6
Continuous
 62
     7
370
    35
100
AcDbSpline
210
0.0
220
0.0
230
1.0
 70
    24
 71
     3
 72
     9
 73
     5
 74
     0
 42
0.00000001
 43
0.0000000001
 40
0.0
 40
0.0
 40
0.0
 40
0.0
 40
0.7424486548961741
 40
1.0
 40
1.0
 40
1.0
 40
1.0
 10
492.1403100197692
 20
1320.146872406752
 30
0.0
 10
492.1896383967247
 20
1320.146872406752
 30
0.0
 10
492.2560785156883
 20
1320.146872406752
 30
0.0
 10
492.5141684496751
 20
1320.146872406752
 30
0.0
 10
492.5806398593311
 20
1320.146872406752
 30
0.0
  0
SPLINE
  5
136
330
1F
100
AcDbEntity
  8
0
  6
Continuous
 62
     7
370
    35
100
AcDbSpline
210
0.0
220
0.0
230
1.0
 70
    24
 71
     3
 72
     9
 73
     5
 74
     0
 42
0.00000001
 43
0.0000000001
 40
0.0
 40
0.0
 40
0.0
 40
0.0
 40
0.7424486548962519
 40
1.0
 40
1.0
 40
1.0
 40
1.0
 10
496.6403100197692
 20
1330.006872406752
 30
0.0
 10
496.5909816428136
 20
1330.006872406752
 30
0.0
 10
496.52454152385
 20
1330.006872406752
 30
0.0
 10
496.2664515898634
 20
1330.006872406752
 30
0.0
 10
496.1999801802074
 20
1330.006872406752
 30
0.0
  0
SPLINE
  5
137
330
1F
100
AcDbEntity
  8
0
  6
Continuous
 62
     7
370
    35
100
AcDbSpline
210
0.0
220
0.0
230
1.0
 70
    24
 71
     3
 72
     9
 73
     5
 74
     0
 42
0.00000001
 43
0.0000000001
 40
0.0
 40
0.0
 40
0.0
 40
0.0
 40
0.2575513451038109
 40
1.0
 40
1.0
 40
1.0
 40
1.0
 10
492.580639859331
 20
1330.006872406752
 30
0.0
 10
492.5141684496749
 20
1330.006872406752
 30
0.0
 10
492.2560785156883
 20
1330.006872406752
 30
0.0
 10
492.1896383967247
 20
1330.006872406752
 30
0.0
 10
492.1403100197692
 20
1330.006872406752
 30
0.0
  0
LINE
  5
138
330
1F
100
AcDbEntity
  8
0
  6
Continuous
 62
     7
370
    35
100
AcDbLine
 10
1191.8403100198
 20
1323.1676258133
 30
0.0
 11
1191.8403100198
 21
1320.0768724068
 31
0.0
  0
LINE
  5
139
330
1F
100
AcDbEntity
  8
0
  6
Continuous
 62
     7
370
    35
100
AcDbLine
 10
1191.8403100198
 20
1330.0768724068
 30
0.0
 11
1191.8403100198
 21
1323.1676258133
 31
0.0
  0
ARC
  5
13A
330
1F
100
AcDbEntity
  8
0
  6
Continuous
 62
     7
370
    35
100
AcDbCircle
 10
1193.8807449919
 20
1323.1894086661
 30
0.0
 40
0.9066929930006605
100
AcDbArc
 50
329.9947895814
 51
6.392279102799998
  0
ARC
  5
13B
330
1F
100
AcDbEntity
  8
0
  6
Continuous
 62
     7
370
    35
100
AcDbCircle
 10
1189.1248863175
 20
1324.8081196289
 30
0.0
 40
5.663295146959761
100
AcDbArc
 50
351.4949699441999
 51
2.720003988899999
  0
ARC
  5
13C
330
1F
100
AcDbEntity
  8
0
  6
Continuous
 62
     7
370
    35
100
AcDbCircle
 10
1192.6237700365
 20
1326.6983534534
 30
0.0
 40
2.164332363615137
100
AcDbArc
 50
346.2304594033999
 51
4.3731985072
  0
ARC
  5
13D
330
1F
100
AcDbEntity
  8
0
  6
Continuous
 62
     7
370
    35
100
AcDbCircle
 10
1193.890724905
 20
1326.965241938
 30
0.0
 40
0.8959285621746179
100
AcDbArc
 50
329.9107328057
 51
21.221013557
  0
ARC
  5
13E
330
1F
100
AcDbEntity
  8
0
  6
Continuous
 62
     7
370
    35
100
AcDbCircle
 10
1189.1243131903
 20
1325.3456285276
 30
0.0
 40
5.663865304837401
100
AcDbArc
 50
348.0738628469
 51
11.9261371531
  0
ARC
  5
13F
330
1F
100
AcDbEntity
  8
0
  6
Continuous
 62
     7
370
    35
100
AcDbCircle
 10
1192.6029130281
 20
1323.4555892354
 30
0.0
 40
2.184910021671826
100
AcDbArc
 50
340.7707177812
 51
19.2292822187
  0
ARC
  5
140
330
1F
100
AcDbEntity
  8
0
  6
Continuous
 62
     7
370
    35
100
AcDbCircle
 10
1075.5328997597
 20
1321.0402686007
 30
0.0
 40
86.9622507633486
100
AcDbArc
 50
2.8137171282
 51
3.933375851499998
  0
SPLINE
  5
141
330
1F
100
AcDbEntity
  8
0
  6
Continuous
 62
     7
370
    35
100
AcDbSpline
210
0.0
220
0.0
230
1.0
 70
     8
 71
     3
 72
     9
 73
     5
 74
     0
 42
0.00000001
 43
0.0000000001
 40
0.0
 40
0.0
 40
0.0
 40
0.0
 40
0.4769089711968624
 40
1.0
 40
1.0
 40
1.0
 40
1.0
 10
1162.294724362119
 20
1328.015350338672
 30
0.0
 10
1162.309919581336
 20
1327.984553904421
 30
0.0
 10
1162.34178146722
 20
1327.919978825925
 30
0.0
 10
1162.373643353104
 20
1327.532619050205
 30
0.0
 10
1162.390310019771
 20
1327.329994626606
 30
0.0
  0
LINE
  5
142
330
1F
100
AcDbEntity
  8
0
  6
Continuous
 62
     7
370
    35
100
AcDbLine
 10
1162.2903100198
 20
1322.7685466806
 30
0.0
 11
1162.3261260934
 21
1322.6608066294
 31
0.0
  0
LINE
  5
143
330
1F
100
AcDbEntity
  8
0
  6
Continuous
 62
     7
370
    35
100
AcDbLine
 10
460.6403100198
 20
1320.076873009
 30
0.0
 11
460.6403100198
 21
1330.0768724068
 31
0.0
  0
ARC
  5
144
330
1F
100
AcDbEntity
  8
0
  6
Continuous
 62
     7
370
    35
100
AcDbCircle
 10
459.1864860869
 20
1323.305850456
 30
0.0
 40
1.493421264734925
100
AcDbArc
 50
156.7156809327
 51
203.2843190672
  0
ARC
  5
145
330
1F
100
AcDbEntity
  8
0
  6
Continuous
 62
     7
370
    35
100
AcDbCircle
 10
463.4545957341
 20
1325.0768724068
 30
0.0
 40
5.762157998173747
100
AcDbArc
 50
168.1762011201
 51
191.8237988799
  0
ARC
  5
146
330
1F
100
AcDbEntity
  8
0
  6
Continuous
 62
     7
370
    35
100
AcDbCircle
 10
459.1864860869
 20
1326.8478943575
 30
0.0
 40
1.49342126473584
100
AcDbArc
 50
156.7156809328
 51
203.2843190672
  0
SPLINE
  5
147
330
1F
100
AcDbEntity
  8
0
  6
Continuous
 62
     7
370
    35
100
AcDbSpline
210
0.0
220
0.0
230
1.0
 70
    24
 71
     3
 72
     9
 73
     5
 74
     0
 42
0.00000001
 43
0.0000000001
 40
0.0
 40
0.0
 40
0.0
 40
0.0
 40
0.5000000000043486
 40
1.0
 40
1.0
 40
1.0
 40
1.0
 10
490.1903100197704
 20
1324.158432169058
 30
0.0
 10
490.1736433531033
 20
1324.464578914956
 30
0.0
 10
490.1403100197695
 20
1325.076872406746
 30
0.0
 10
490.1069766864359
 20
1325.689165898537
 30
0.0
 10
490.0903100197692
 20
1325.99531264443
 30
0.0
  0
ARC
  5
148
330
1F
100
AcDbEntity
  8
0
  6
Continuous
 62
     7
370
    35
100
AcDbCircle
 10
480.9337019495997
 20
1326.3046956053
 30
0.0
 40
9.257320921496027
100
AcDbArc
 50
0.7110452445000001
 51
10.6897117012
  0
LINE
  5
149
330
1F
100
AcDbEntity
  8
0
  6
Continuous
 62
     7
370
    35
100
AcDbLine
 10
842.0403100197997
 20
1323.1676258133
 30
0.0
 11
842.0403100197997
 21
1320.0768724068
 31
0.0
  0
LINE
  5
14A
330
1F
100
AcDbEntity
  8
0
  6
Continuous
 62
     7
370
    35
100
AcDbLine
 10
842.0403100197997
 20
1330.0768724068
 30
0.0
 11
842.0403100197997
 21
1323.1676258133
 31
0.0
  0
ARC
  5
14B
330
1F
100
AcDbEntity
  8
0
  6
Continuous
 62
     7
370
    35
100
AcDbCircle
 10
844.0807449916
 20
1323.1894086662
 30
0.0
 40
0.9066929933400963
100
AcDbArc
 50
329.9947895847
 51
6.392278888799999
  0
ARC
  5
14C
330
1F
100
AcDbEntity
  8
0
  6
Continuous
 62
     7
370
    35
100
AcDbCircle
 10
839.3248863174997
 20
1324.8081196289
 30
0.0
 40
5.66329514696953
100
AcDbArc
 50
351.4949699469
 51
2.720004027699999
  0
ARC
  5
14D
330
1F
100
AcDbEntity
  8
0
  6
Continuous
 62
     7
370
    35
100
AcDbCircle
 10
842.8237700364999
 20
1326.6983534534
 30
0.0
 40
2.164332363598926
100
AcDbArc
 50
346.2304593907
 51
4.373198557099998
  0
ARC
  5
14E
330
1F
100
AcDbEntity
  8
0
  6
Continuous
 62
     7
370
    35
100
AcDbCircle
 10
844.0907249049999
 20
1326.965241938
 30
0.0
 40
0.8959285621725367
100
AcDbArc
 50
329.9107328056
 51
21.2210135571
  0
ARC
  5
14F
330
1F
100
AcDbEntity
  8
0
  6
Continuous
 62
     7
370
    35
100
AcDbCircle
 10
839.3243131903
 20
1325.3456285276
 30
0.0
 40
5.663865304836909
100
AcDbArc
 50
348.0738628469
 51
11.9261371531
  0
ARC
  5
150
330
1F
100
AcDbEntity
  8
0
  6
Continuous
 62
     7
370
    35
100
AcDbCircle
 10
842.8029130281
 20
1323.4555892354
 30
0.0
 40
2.184910021673005
100
AcDbArc
 50
340.7707177813
 51
19.2292822187
  0
ARC
  5
151
330
1F
100
AcDbEntity
  8
0
  6
Continuous
 62
     7
370
    35
100
AcDbCircle
 10
725.7328997633
 20
1321.0402686009
 30
0.0
 40
86.96225075978423
100
AcDbArc
 50
2.8137171281
 51
3.933375851499998
  0
SPLINE
  5
152
330
1F
100
AcDbEntity
  8
0
  6
Continuous
 62
     7
370
    35
100
AcDbSpline
210
0.0
220
0.0
230
1.0
 70
     8
 71
     3
 72
     9
 73
     5
 74
     0
 42
0.00000001
 43
0.0000000001
 40
0.0
 40
0.0
 40
0.0
 40
0.0
 40
0.4769089711971292
 40
1.0
 40
1.0
 40
1.0
 40
1.0
 10
812.494724362118
 20
1328.015350338667
 30
0.0
 10
812.5099195813353
 20
1327.984553904416
 30
0.0
 10
812.5417814672193
 20
1327.919978825921
 30
0.0
 10
812.5736433531031
 20
1327.5326190502
 30
0.0
 10
812.59031001977
 20
1327.329994626602
 30
0.0
  0
LINE
  5
153
330
1F
100
AcDbEntity
  8
0
  6
Continuous
 62
     7
370
    35
100
AcDbLine
 10
812.4903100197998
 20
1322.7685466806
 30
0.0
 11
812.5261260933998
 21
1322.6608066294
 31
0.0
  0
LINE
  5
154
330
1F
100
AcDbEntity
  8
0
  6
Continuous
 62
     7
370
    35
100
AcDbLine
 10
839.9903100197999
 20
1325.0768724068
 30
0.0
 11
839.9903100197999
 21
1312.3768724068
 31
0.0
  0
LINE
  5
155
330
1F
100
AcDbEntity
  8
0
  6
Continuous
 62
     7
370
    35
100
AcDbLine
 10
841.9903100197998
 20
1325.0768724068
 30
0.0
 11
839.9903100197999
 21
1325.0768724068
 31
0.0
  0
LINE
  5
156
330
1F
100
AcDbEntity
  8
0
  6
Continuous
 62
     7
370
    35
100
AcDbLine
 10
841.9903100197998
 20
1325.0768724068
 30
0.0
 11
841.9903100197998
 21
1312.3768724068
 31
0.0
  0
LINE
  5
157
330
1F
100
AcDbEntity
  8
0
  6
Continuous
 62
     7
370
    35
100
AcDbLine
 10
841.9903100197998
 20
1312.3768724068
 30
0.0
 11
839.9903100197999
 21
1312.3768724068
 31
0.0
  0
LINE
  5
158
330
1F
100
AcDbEntity
  8
0
  6
Continuous
 62
     7
370
    35
100
AcDbLine
 10
839.9903100197999
 20
1337.7768724068
 30
0.0
 11
841.9903100197998
 21
1337.7768724068
 31
0.0
  0
LINE
  5
159
330
1F
100
AcDbEntity
  8
0
  6
Continuous
 62
     7
370
    35
100
AcDbLine
 10
841.9903100197998
 20
1337.7768724068
 30
0.0
 11
841.9903100197998
 21
1325.0768724068
 31
0.0
  0
LINE
  5
15A
330
1F
100
AcDbEntity
  8
0
  6
Continuous
 62
     7
370
    35
100
AcDbLine
 10
839.9903100197999
 20
1325.0768724068
 30
0.0
 11
839.9903100197999
 21
1337.7768724068
 31
0.0
  0
LINE
  5
15B
330
1F
100
AcDbEntity
  8
0
  6
Continuous
 62
     7
370
    35
100
AcDbLine
 10
810.4903100197997
 20
1337.7768724068
 30
0.0
 11
812.4903100197998
 21
1337.7768724068
 31
0.0
  0
LINE
  5
15C
330
1F
100
AcDbEntity
  8
0
  6
Continuous
 62
     7
370
    35
100
AcDbLine
 10
812.4903100197998
 20
1337.7768724068
 30
0.0
 11
812.4903100197998
 21
1325.0768724068
 31
0.0
  0
LINE
  5
15D
330
1F
100
AcDbEntity
  8
0
  6
Continuous
 62
     7
370
    35
100
AcDbLine
 10
812.4903100197998
 20
1325.0768724068
 30
0.0
 11
810.4903100197997
 21
1325.0768724068
 31
0.0
  0
LINE
  5
15E
330
1F
100
AcDbEntity
  8
0
  6
Continuous
 62
     7
370
    35
100
AcDbLine
 10
810.4903100197997
 20
1325.0768724068
 30
0.0
 11
810.4903100197997
 21
1337.7768724068
 31
0.0
  0
LINE
  5
15F
330
1F
100
AcDbEntity
  8
0
  6
Continuous
 62
     7
370
    35
100
AcDbLine
 10
812.4903100197998
 20
1312.3768724068
 30
0.0
 11
810.4903100197997
 21
1312.3768724068
 31
0.0
  0
LINE
  5
160
330
1F
100
AcDbEntity
  8
0
  6
Continuous
 62
     7
370
    35
100
AcDbLine
 10
810.4903100197997
 20
1325.0768724068
 30
0.0
 11
810.4903100197997
 21
1312.3768724068
 31
0.0
  0
LINE
  5
161
330
1F
100
AcDbEntity
  8
0
  6
Continuous
 62
     7
370
    35
100
AcDbLine
 10
812.4903100197998
 20
1325.0768724068
 30
0.0
 11
812.4903100197998
 21
1312.3768724068
 31
0.0
  0
LINE
  5
162
330
1F
100
AcDbEntity
  8
0
  6
Continuous
 62
     7
370
    35
100
AcDbLine
 10
814.4903100198
 20
1310.1768724068
 30
0.0
 11
814.4903100198
 21
1308.1768724068
 31
0.0
  0
LINE
  5
163
330
1F
100
AcDbEntity
  8
0
  6
Continuous
 62
     7
370
    35
100
AcDbLine
 10
814.4903100198
 20
1310.1768724068
 30
0.0
 11
837.9903100197998
 21
1310.1768724068
 31
0.0
  0
LINE
  5
164
330
1F
100
AcDbEntity
  8
0
  6
Continuous
 62
     7
370
    35
100
AcDbLine
 10
837.9903100197998
 20
1310.1768724068
 30
0.0
 11
837.9903100197998
 21
1308.1768724068
 31
0.0
  0
LINE
  5
165
330
1F
100
AcDbEntity
  8
0
  6
Continuous
 62
     7
370
    35
100
AcDbLine
 10
841.9903100197998
 20
1312.1768724068
 30
0.0
 11
839.9903100197999
 21
1312.1768724068
 31
0.0
  0
LINE
  5
166
330
1F
100
AcDbEntity
  8
0
  6
Continuous
 62
     7
370
    35
100
AcDbLine
 10
839.9903100197999
 20
1312.1768724068
 30
0.0
 11
839.9903100197999
 21
1312.3768724068
 31
0.0
  0
LINE
  5
167
330
1F
100
AcDbEntity
  8
0
  6
Continuous
 62
     7
370
    35
100
AcDbLine
 10
841.9903100197998
 20
1312.1768724068
 30
0.0
 11
841.9903100197998
 21
1312.3768724068
 31
0.0
  0
LINE
  5
168
330
1F
100
AcDbEntity
  8
0
  6
Continuous
 62
     7
370
    35
100
AcDbLine
 10
812.4903100197998
 20
1312.1768724068
 30
0.0
 11
810.4903100197997
 21
1312.1768724068
 31
0.0
  0
ARC
  5
169
330
1F
100
AcDbEntity
  8
0
  6
Continuous
 62
     7
370
    35
100
AcDbCircle
 10
814.4903100198
 20
1312.1768724068
 30
0.0
 40
2.0
100
AcDbArc
 50
180.0
 51
270.0
  0
ARC
  5
16A
330
1F
100
AcDbEntity
  8
0
  6
Continuous
 62
     7
370
    35
100
AcDbCircle
 10
814.4903100198
 20
1312.1768724068
 30
0.0
 40
4.0
100
AcDbArc
 50
180.0
 51
270.0
  0
LINE
  5
16B
330
1F
100
AcDbEntity
  8
0
  6
Continuous
 62
     7
370
    35
100
AcDbLine
 10
810.4903100197997
 20
1312.3768724068
 30
0.0
 11
810.4903100197997
 21
1312.1768724068
 31
0.0
  0
LINE
  5
16C
330
1F
100
AcDbEntity
  8
0
  6
Continuous
 62
     7
370
    35
100
AcDbLine
 10
812.4903100197998
 20
1312.3768724068
 30
0.0
 11
812.4903100197998
 21
1312.1768724068
 31
0.0
  0
ARC
  5
16D
330
1F
100
AcDbEntity
  8
0
  6
Continuous
 62
     7
370
    35
100
AcDbCircle
 10
837.9903100197998
 20
1312.1768724068
 30
0.0
 40
4.0
100
AcDbArc
 50
270.0
 51
0.0
  0
ARC
  5
16E
330
1F
100
AcDbEntity
  8
0
  6
Continuous
 62
     7
370
    35
100
AcDbCircle
 10
837.9903100197998
 20
1312.1768724068
 30
0.0
 40
2.0
100
AcDbArc
 50
270.0
 51
0.0
  0
LINE
  5
16F
330
1F
100
AcDbEntity
  8
0
  6
Continuous
 62
     7
370
    35
100
AcDbLine
 10
490.1903100198
 20
1337.7768724068
 30
0.0
 11
492.1903100198
 21
1337.7768724068
 31
0.0
  0
LINE
  5
170
330
1F
100
AcDbEntity
  8
0
  6
Continuous
 62
     7
370
    35
100
AcDbLine
 10
492.1903100198
 20
1325.0768724068
 30
0.0
 11
490.1903100198
 21
1325.0768724068
 31
0.0
  0
LINE
  5
171
330
1F
100
AcDbEntity
  8
0
  6
Continuous
 62
     7
370
    35
100
AcDbLine
 10
490.1903100198
 20
1325.0768724068
 30
0.0
 11
490.1903100198
 21
1337.7768724068
 31
0.0
  0
LINE
  5
172
330
1F
100
AcDbEntity
  8
0
  6
Continuous
 62
     7
370
    35
100
AcDbLine
 10
492.1903100198
 20
1337.7768724068
 30
0.0
 11
492.1903100198
 21
1325.0768724068
 31
0.0
  0
LINE
  5
173
330
1F
100
AcDbEntity
  8
0
  6
Continuous
 62
     7
370
    35
100
AcDbLine
 10
490.1903100198
 20
1325.0768724068
 30
0.0
 11
490.1903100198
 21
1312.3768724068
 31
0.0
  0
LINE
  5
174
330
1F
100
AcDbEntity
  8
0
  6
Continuous
 62
     7
370
    35
100
AcDbLine
 10
492.1903100198
 20
1312.3768724068
 30
0.0
 11
490.1903100198
 21
1312.3768724068
 31
0.0
  0
LINE
  5
175
330
1F
100
AcDbEntity
  8
0
  6
Continuous
 62
     7
370
    35
100
AcDbLine
 10
492.1903100198
 20
1325.0768724068
 30
0.0
 11
492.1903100198
 21
1312.3768724068
 31
0.0
  0
LINE
  5
176
330
1F
100
AcDbEntity
  8
0
  6
Continuous
 62
     7
370
    35
100
AcDbLine
 10
462.6903100198
 20
1312.3768724068
 30
0.0
 11
460.6903100198
 21
1312.3768724068
 31
0.0
  0
LINE
  5
177
330
1F
100
AcDbEntity
  8
0
  6
Continuous
 62
     7
370
    35
100
AcDbLine
 10
460.6903100198
 20
1325.0768724068
 30
0.0
 11
460.6903100198
 21
1312.3768724068
 31
0.0
  0
LINE
  5
178
330
1F
100
AcDbEntity
  8
0
  6
Continuous
 62
     7
370
    35
100
AcDbLine
 10
462.6903100198
 20
1325.0768724068
 30
0.0
 11
460.6903100198
 21
1325.0768724068
 31
0.0
  0
LINE
  5
179
330
1F
100
AcDbEntity
  8
0
  6
Continuous
 62
     7
370
    35
100
AcDbLine
 10
462.6903100198
 20
1325.0768724068
 30
0.0
 11
462.6903100198
 21
1312.3768724068
 31
0.0
  0
LINE
  5
17A
330
1F
100
AcDbEntity
  8
0
  6
Continuous
 62
     7
370
    35
100
AcDbLine
 10
460.6903100198
 20
1337.7768724068
 30
0.0
 11
462.6903100198
 21
1337.7768724068
 31
0.0
  0
LINE
  5
17B
330
1F
100
AcDbEntity
  8
0
  6
Continuous
 62
     7
370
    35
100
AcDbLine
 10
462.6903100198
 20
1337.7768724068
 30
0.0
 11
462.6903100198
 21
1325.0768724068
 31
0.0
  0
LINE
  5
17C
330
1F
100
AcDbEntity
  8
0
  6
Continuous
 62
     7
370
    35
100
AcDbLine
 10
460.6903100198
 20
1325.0768724068
 30
0.0
 11
460.6903100198
 21
1337.7768724068
 31
0.0
  0
LINE
  5
17D
330
1F
100
AcDbEntity
  8
0
  6
Continuous
 62
     7
370
    35
100
AcDbLine
 10
464.6903100198001
 20
1310.1768724068
 30
0.0
 11
464.6903100198001
 21
1308.1768724068
 31
0.0
  0
LINE
  5
17E
330
1F
100
AcDbEntity
  8
0
  6
Continuous
 62
     7
370
    35
100
AcDbLine
 10
464.6903100198001
 20
1310.1768724068
 30
0.0
 11
488.1903100198
 21
1310.1768724068
 31
0.0
  0
LINE
  5
17F
330
1F
100
AcDbEntity
  8
0
  6
Continuous
 62
     7
370
    35
100
AcDbLine
 10
488.1903100198
 20
1310.1768724068
 30
0.0
 11
488.1903100198
 21
1308.1768724068
 31
0.0
  0
LINE
  5
180
330
1F
100
AcDbEntity
  8
0
  6
Continuous
 62
     7
370
    35
100
AcDbLine
 10
492.1903100198
 20
1312.1768724068
 30
0.0
 11
490.1903100198
 21
1312.1768724068
 31
0.0
  0
LINE
  5
181
330
1F
100
AcDbEntity
  8
0
  6
Continuous
 62
     7
370
    35
100
AcDbLine
 10
490.1903100198
 20
1312.1768724068
 30
0.0
 11
490.1903100198
 21
1312.3768724068
 31
0.0
  0
LINE
  5
182
330
1F
100
AcDbEntity
  8
0
  6
Continuous
 62
     7
370
    35
100
AcDbLine
 10
492.1903100198
 20
1312.1768724068
 30
0.0
 11
492.1903100198
 21
1312.3768724068
 31
0.0
  0
LINE
  5
183
330
1F
100
AcDbEntity
  8
0
  6
Continuous
 62
     7
370
    35
100
AcDbLine
 10
462.6903100198
 20
1312.1768724068
 30
0.0
 11
460.6903100198
 21
1312.1768724068
 31
0.0
  0
ARC
  5
184
330
1F
100
AcDbEntity
  8
0
  6
Continuous
 62
     7
370
    35
100
AcDbCircle
 10
464.6903100198001
 20
1312.1768724068
 30
0.0
 40
2.0
100
AcDbArc
 50
180.0
 51
270.0
  0
ARC
  5
185
330
1F
100
AcDbEntity
  8
0
  6
Continuous
 62
     7
370
    35
100
AcDbCircle
 10
464.6903100198001
 20
1312.1768724068
 30
0.0
 40
4.0
100
AcDbArc
 50
180.0
 51
270.0
  0
LINE
  5
186
330
1F
100
AcDbEntity
  8
0
  6
Continuous
 62
     7
370
    35
100
AcDbLine
 10
460.6903100198
 20
1312.3768724068
 30
0.0
 11
460.6903100198
 21
1312.1768724068
 31
0.0
  0
LINE
  5
187
330
1F
100
AcDbEntity
  8
0
  6
Continuous
 62
     7
370
    35
100
AcDbLine
 10
462.6903100198
 20
1312.3768724068
 30
0.0
 11
462.6903100198
 21
1312.1768724068
 31
0.0
  0
ARC
  5
188
330
1F
100
AcDbEntity
  8
0
  6
Continuous
 62
     7
370
    35
100
AcDbCircle
 10
488.1903100198
 20
1312.1768724068
 30
0.0
 40
3.999999999999943
100
AcDbArc
 50
270.0
 51
0.0
  0
ARC
  5
189
330
1F
100
AcDbEntity
  8
0
  6
Continuous
 62
     7
370
    35
100
AcDbCircle
 10
488.1903100198
 20
1312.1768724068
 30
0.0
 40
2.0
100
AcDbArc
 50
270.0
 51
0.0
  0
LINE
  5
18A
330
1F
100
AcDbEntity
  8
0
  6
Continuous
 62
     7
370
    35
100
AcDbLine
 10
1189.7903100198
 20
1337.7768724068
 30
0.0
 11
1191.7903100198
 21
1337.7768724068
 31
0.0
  0
LINE
  5
18B
330
1F
100
AcDbEntity
  8
0
  6
Continuous
 62
     7
370
    35
100
AcDbLine
 10
1191.7903100198
 20
1325.0768724068
 30
0.0
 11
1189.7903100198
 21
1325.0768724068
 31
0.0
  0
LINE
  5
18C
330
1F
100
AcDbEntity
  8
0
  6
Continuous
 62
     7
370
    35
100
AcDbLine
 10
1191.7903100198
 20
1337.7768724068
 30
0.0
 11
1191.7903100198
 21
1325.0768724068
 31
0.0
  0
LINE
  5
18D
330
1F
100
AcDbEntity
  8
0
  6
Continuous
 62
     7
370
    35
100
AcDbLine
 10
1189.7903100198
 20
1325.0768724068
 30
0.0
 11
1189.7903100198
 21
1337.7768724068
 31
0.0
  0
LINE
  5
18E
330
1F
100
AcDbEntity
  8
0
  6
Continuous
 62
     7
370
    35
100
AcDbLine
 10
1191.7903100198
 20
1312.3768724068
 30
0.0
 11
1189.7903100198
 21
1312.3768724068
 31
0.0
  0
LINE
  5
18F
330
1F
100
AcDbEntity
  8
0
  6
Continuous
 62
     7
370
    35
100
AcDbLine
 10
1191.7903100198
 20
1325.0768724068
 30
0.0
 11
1191.7903100198
 21
1312.3768724068
 31
0.0
  0
LINE
  5
190
330
1F
100
AcDbEntity
  8
0
  6
Continuous
 62
     7
370
    35
100
AcDbLine
 10
1189.7903100198
 20
1325.0768724068
 30
0.0
 11
1189.7903100198
 21
1312.3768724068
 31
0.0
  0
LINE
  5
191
330
1F
100
AcDbEntity
  8
0
  6
Continuous
 62
     7
370
    35
100
AcDbLine
 10
1160.2903100198
 20
1337.7768724068
 30
0.0
 11
1162.2903100198
 21
1337.7768724068
 31
0.0
  0
LINE
  5
192
330
1F
100
AcDbEntity
  8
0
  6
Continuous
 62
     7
370
    35
100
AcDbLine
 10
1162.2903100198
 20
1325.0768724068
 30
0.0
 11
1160.2903100198
 21
1325.0768724068
 31
0.0
  0
LINE
  5
193
330
1F
100
AcDbEntity
  8
0
  6
Continuous
 62
     7
370
    35
100
AcDbLine
 10
1160.2903100198
 20
1325.0768724068
 30
0.0
 11
1160.2903100198
 21
1337.7768724068
 31
0.0
  0
LINE
  5
194
330
1F
100
AcDbEntity
  8
0
  6
Continuous
 62
     7
370
    35
100
AcDbLine
 10
1162.2903100198
 20
1337.7768724068
 30
0.0
 11
1162.2903100198
 21
1325.0768724068
 31
0.0
  0
LINE
  5
195
330
1F
100
AcDbEntity
  8
0
  6
Continuous
 62
     7
370
    35
100
AcDbLine
 10
1162.2903100198
 20
1312.3768724068
 30
0.0
 11
1160.2903100198
 21
1312.3768724068
 31
0.0
  0
LINE
  5
196
330
1F
100
AcDbEntity
  8
0
  6
Continuous
 62
     7
370
    35
100
AcDbLine
 10
1160.2903100198
 20
1325.0768724068
 30
0.0
 11
1160.2903100198
 21
1312.3768724068
 31
0.0
  0
LINE
  5
197
330
1F
100
AcDbEntity
  8
0
  6
Continuous
 62
     7
370
    35
100
AcDbLine
 10
1162.2903100198
 20
1325.0768724068
 30
0.0
 11
1162.2903100198
 21
1312.3768724068
 31
0.0
  0
LINE
  5
198
330
1F
100
AcDbEntity
  8
0
  6
Continuous
 62
     7
370
    35
100
AcDbLine
 10
1164.2903100198
 20
1310.1768724068
 30
0.0
 11
1164.2903100198
 21
1308.1768724068
 31
0.0
  0
LINE
  5
199
330
1F
100
AcDbEntity
  8
0
  6
Continuous
 62
     7
370
    35
100
AcDbLine
 10
1164.2903100198
 20
1310.1768724068
 30
0.0
 11
1187.7903100198
 21
1310.1768724068
 31
0.0
  0
LINE
  5
19A
330
1F
100
AcDbEntity
  8
0
  6
Continuous
 62
     7
370
    35
100
AcDbLine
 10
1187.7903100198
 20
1310.1768724068
 30
0.0
 11
1187.7903100198
 21
1308.1768724068
 31
0.0
  0
LINE
  5
19B
330
1F
100
AcDbEntity
  8
0
  6
Continuous
 62
     7
370
    35
100
AcDbLine
 10
1191.7903100198
 20
1312.1768724068
 30
0.0
 11
1189.7903100198
 21
1312.1768724068
 31
0.0
  0
LINE
  5
19C
330
1F
100
AcDbEntity
  8
0
  6
Continuous
 62
     7
370
    35
100
AcDbLine
 10
1191.7903100198
 20
1312.1768724068
 30
0.0
 11
1191.7903100198
 21
1312.3768724068
 31
0.0
  0
LINE
  5
19D
330
1F
100
AcDbEntity
  8
0
  6
Continuous
 62
     7
370
    35
100
AcDbLine
 10
1189.7903100198
 20
1312.1768724068
 30
0.0
 11
1189.7903100198
 21
1312.3768724068
 31
0.0
  0
LINE
  5
19E
330
1F
100
AcDbEntity
  8
0
  6
Continuous
 62
     7
370
    35
100
AcDbLine
 10
1162.2903100198
 20
1312.1768724068
 30
0.0
 11
1160.2903100198
 21
1312.1768724068
 31
0.0
  0
ARC
  5
19F
330
1F
100
AcDbEntity
  8
0
  6
Continuous
 62
     7
370
    35
100
AcDbCircle
 10
1164.2903100198
 20
1312.1768724068
 30
0.0
 40
2.0
100
AcDbArc
 50
180.0
 51
270.0
  0
ARC
  5
1A0
330
1F
100
AcDbEntity
  8
0
  6
Continuous
 62
     7
370
    35
100
AcDbCircle
 10
1164.2903100198
 20
1312.1768724068
 30
0.0
 40
4.0
100
AcDbArc
 50
180.0
 51
270.0
  0
ARC
  5
1A1
330
1F
100
AcDbEntity
  8
0
  6
Continuous
 62
     7
370
    35
100
AcDbCircle
 10
1187.7903100198
 20
1312.1768724068
 30
0.0
 40
2.0
100
AcDbArc
 50
270.0
 51
0.0
  0
ARC
  5
1A2
330
1F
100
AcDbEntity
  8
0
  6
Continuous
 62
     7
370
    35
100
AcDbCircle
 10
1187.7903100198
 20
1312.1768724068
 30
0.0
 40
4.0
100
AcDbArc
 50
270.0
 51
0.0
  0
LINE
  5
1A3
330
1F
100
AcDbEntity
  8
0
  6
Continuous
 62
     7
370
    35
100
AcDbLine
 10
1160.2903100198
 20
1312.3768724068
 30
0.0
 11
1160.2903100198
 21
1312.1768724068
 31
0.0
  0
LINE
  5
1A4
330
1F
100
AcDbEntity
  8
0
  6
Continuous
 62
     7
370
    35
100
AcDbLine
 10
1162.2903100198
 20
1312.3768724068
 30
0.0
 11
1162.2903100198
 21
1312.1768724068
 31
0.0
  0
LINE
  5
1A5
330
1F
100
AcDbEntity
  8
0
  6
Continuous
 62
     7
370
    35
100
AcDbLine
 10
1186.8403100198
 20
1340.6768724068
 30
0.0
 11
1165.2403100198
 21
1340.6768724068
 31
0.0
  0
LWPOLYLINE
  5
1A6
330
1F
100
AcDbEntity
  8
0
  6
Continuous
 62
     7
370
    35
100
AcDbPolyline
 90
        3
 70
   128
 43
0.0
 10
1188.8403100198
 20
1338.6768724068
 10
1188.8018805806
 20
1339.0670530508
 10
1188.7403100198
 20
1339.3013722066
  0
LWPOLYLINE
  5
1A7
330
1F
100
AcDbEntity
  8
0
  6
Continuous
 62
     7
370
    35
100
AcDbPolyline
 90
        3
 70
   128
 43
0.0
 10
1187.4648098196
 20
1340.5768724068
 10
1187.2304906638
 20
1340.6384429676
 10
1186.8403100198
 20
1340.6768724068
  0
LINE
  5
1A8
330
1F
100
AcDbEntity
  8
0
  6
Continuous
 62
     7
370
    35
100
AcDbLine
 10
1188.8403100198
 20
1317.0768724068
 30
0.0
 11
1188.8403100198
 21
1317.5768724068
 31
0.0
  0
LINE
  5
1A9
330
1F
100
AcDbEntity
  8
0
  6
Continuous
 62
     7
370
    35
100
AcDbLine
 10
1188.8403100198
 20
1332.5768724068
 30
0.0
 11
1188.8403100198
 21
1338.6768724068
 31
0.0
  0
LWPOLYLINE
  5
1AA
330
1F
100
AcDbEntity
  8
0
  6
Continuous
 62
     7
370
    35
100
AcDbPolyline
 90
        3
 70
   128
 43
0.0
 10
1186.8403100198
 20
1315.0768724068
 10
1187.2304906638
 20
1315.115301846
 10
1187.4648098196
 20
1315.1768724068
  0
LWPOLYLINE
  5
1AB
330
1F
100
AcDbEntity
  8
0
  6
Continuous
 62
     7
370
    35
100
AcDbPolyline
 90
        3
 70
   128
 43
0.0
 10
1188.7403100198
 20
1316.4523726069
 10
1188.8018805806
 20
1316.6866917627
 10
1188.8403100198
 20
1317.0768724068
  0
LINE
  5
1AC
330
1F
100
AcDbEntity
  8
0
  6
Continuous
 62
     7
370
    35
100
AcDbLine
 10
1165.2403100198
 20
1315.0768724068
 30
0.0
 11
1186.8403100198
 21
1315.0768724068
 31
0.0
  0
LWPOLYLINE
  5
1AD
330
1F
100
AcDbEntity
  8
0
  6
Continuous
 62
     7
370
    35
100
AcDbPolyline
 90
        3
 70
   128
 43
0.0
 10
1163.2403100198
 20
1317.0768724068
 10
1163.278739459
 20
1316.6866917627
 10
1163.3403100198
 20
1316.4523726069
  0
LWPOLYLINE
  5
1AE
330
1F
100
AcDbEntity
  8
0
  6
Continuous
 62
     7
370
    35
100
AcDbPolyline
 90
        3
 70
   128
 43
0.0
 10
1164.6158102199
 20
1315.1768724068
 10
1164.8501293757
 20
1315.115301846
 10
1165.2403100198
 20
1315.0768724068
  0
LINE
  5
1AF
330
1F
100
AcDbEntity
  8
0
  6
Continuous
 62
     7
370
    35
100
AcDbLine
 10
1163.2403100198
 20
1338.6768724068
 30
0.0
 11
1163.2403100198
 21
1332.5768724068
 31
0.0
  0
LINE
  5
1B0
330
1F
100
AcDbEntity
  8
0
  6
Continuous
 62
     7
370
    35
100
AcDbLine
 10
1163.2403100198
 20
1317.5768724068
 30
0.0
 11
1163.2403100198
 21
1317.0768724068
 31
0.0
  0
LWPOLYLINE
  5
1B1
330
1F
100
AcDbEntity
  8
0
  6
Continuous
 62
     7
370
    35
100
AcDbPolyline
 90
        3
 70
   128
 43
0.0
 10
1165.2403100198
 20
1340.6768724068
 10
1164.8501293757
 20
1340.6384429676
 10
1164.6158102199
 20
1340.5768724068
  0
LWPOLYLINE
  5
1B2
330
1F
100
AcDbEntity
  8
0
  6
Continuous
 62
     7
370
    35
100
AcDbPolyline
 90
        3
 70
   128
 43
0.0
 10
1163.3403100198
 20
1339.3013722066
 10
1163.278739459
 20
1339.0670530508
 10
1163.2403100198
 20
1338.6768724068
  0
LINE
  5
1B3
330
1F
100
AcDbEntity
  8
0
  6
Continuous
 62
     7
370
    35
100
AcDbLine
 10
837.0403100197998
 20
1340.6768724068
 30
0.0
 11
815.4403100197997
 21
1340.6768724068
 31
0.0
  0
LWPOLYLINE
  5
1B4
330
1F
100
AcDbEntity
  8
0
  6
Continuous
 62
     7
370
    35
100
AcDbPolyline
 90
        3
 70
   128
 43
0.0
 10
839.0403100197998
 20
1338.6768724068
 10
839.0018805805999
 20
1339.0670530508
 10
838.9403100198
 20
1339.3013722066
  0
LWPOLYLINE
  5
1B5
330
1F
100
AcDbEntity
  8
0
  6
Continuous
 62
     7
370
    35
100
AcDbPolyline
 90
        3
 70
   128
 43
0.0
 10
837.6648098196001
 20
1340.5768724068
 10
837.4304906638
 20
1340.6384429676
 10
837.0403100197998
 20
1340.6768724068
  0
LINE
  5
1B6
330
1F
100
AcDbEntity
  8
0
  6
Continuous
 62
     7
370
    35
100
AcDbLine
 10
839.0403100197998
 20
1317.0768724068
 30
0.0
 11
839.0403100197998
 21
1317.5768724068
 31
0.0
  0
LINE
  5
1B7
330
1F
100
AcDbEntity
  8
0
  6
Continuous
 62
     7
370
    35
100
AcDbLine
 10
839.0403100197998
 20
1332.5768724068
 30
0.0
 11
839.0403100197998
 21
1338.6768724068
 31
0.0
  0
LWPOLYLINE
  5
1B8
330
1F
100
AcDbEntity
  8
0
  6
Continuous
 62
     7
370
    35
100
AcDbPolyline
 90
        3
 70
   128
 43
0.0
 10
837.0403100197998
 20
1315.0768724068
 10
837.4304906638
 20
1315.115301846
 10
837.6648098196001
 20
1315.1768724068
  0
LWPOLYLINE
  5
1B9
330
1F
100
AcDbEntity
  8
0
  6
Continuous
 62
     7
370
    35
100
AcDbPolyline
 90
        3
 70
   128
 43
0.0
 10
838.9403100198
 20
1316.4523726069
 10
839.0018805805999
 20
1316.6866917627
 10
839.0403100197998
 20
1317.0768724068
  0
LINE
  5
1BA
330
1F
100
AcDbEntity
  8
0
  6
Continuous
 62
     7
370
    35
100
AcDbLine
 10
815.4403100197997
 20
1315.0768724068
 30
0.0
 11
837.0403100197998
 21
1315.0768724068
 31
0.0
  0
LWPOLYLINE
  5
1BB
330
1F
100
AcDbEntity
  8
0
  6
Continuous
 62
     7
370
    35
100
AcDbPolyline
 90
        3
 70
   128
 43
0.0
 10
813.4403100197998
 20
1317.0768724068
 10
813.4787394589999
 20
1316.6866917627
 10
813.5403100197997
 20
1316.4523726069
  0
LWPOLYLINE
  5
1BC
330
1F
100
AcDbEntity
  8
0
  6
Continuous
 62
     7
370
    35
100
AcDbPolyline
 90
        3
 70
   128
 43
0.0
 10
814.8158102199001
 20
1315.1768724068
 10
815.0501293757001
 20
1315.115301846
 10
815.4403100197997
 20
1315.0768724068
  0
LINE
  5
1BD
330
1F
100
AcDbEntity
  8
0
  6
Continuous
 62
     7
370
    35
100
AcDbLine
 10
813.4403100197998
 20
1338.6768724068
 30
0.0
 11
813.4403100197998
 21
1332.5768724068
 31
0.0
  0
LINE
  5
1BE
330
1F
100
AcDbEntity
  8
0
  6
Continuous
 62
     7
370
    35
100
AcDbLine
 10
813.4403100197998
 20
1317.5768724068
 30
0.0
 11
813.4403100197998
 21
1317.0768724068
 31
0.0
  0
LWPOLYLINE
  5
1BF
330
1F
100
AcDbEntity
  8
0
  6
Continuous
 62
     7
370
    35
100
AcDbPolyline
 90
        3
 70
   128
 43
0.0
 10
815.4403100197997
 20
1340.6768724068
 10
815.0501293757001
 20
1340.6384429676
 10
814.8158102199001
 20
1340.5768724068
  0
LWPOLYLINE
  5
1C0
330
1F
100
AcDbEntity
  8
0
  6
Continuous
 62
     7
370
    35
100
AcDbPolyline
 90
        3
 70
   128
 43
0.0
 10
813.5403100197997
 20
1339.3013722066
 10
813.4787394589999
 20
1339.0670530508
 10
813.4403100197998
 20
1338.6768724068
  0
LINE
  5
1C1
330
1F
100
AcDbEntity
  8
0
  6
Continuous
 62
     7
370
    35
100
AcDbLine
 10
487.2403100198
 20
1340.6768724068
 30
0.0
 11
465.6403100198
 21
1340.6768724068
 31
0.0
  0
LWPOLYLINE
  5
1C2
330
1F
100
AcDbEntity
  8
0
  6
Continuous
 62
     7
370
    35
100
AcDbPolyline
 90
        3
 70
   128
 43
0.0
 10
489.2403100197999
 20
1338.6768724068
 10
489.2018805805999
 20
1339.0670530508
 10
489.1403100198
 20
1339.3013722066
  0
LWPOLYLINE
  5
1C3
330
1F
100
AcDbEntity
  8
0
  6
Continuous
 62
     7
370
    35
100
AcDbPolyline
 90
        3
 70
   128
 43
0.0
 10
487.8648098195998
 20
1340.5768724068
 10
487.6304906637998
 20
1340.6384429676
 10
487.2403100198
 20
1340.6768724068
  0
LINE
  5
1C4
330
1F
100
AcDbEntity
  8
0
  6
Continuous
 62
     7
370
    35
100
AcDbLine
 10
489.2403100197999
 20
1317.0768724068
 30
0.0
 11
489.2403100197999
 21
1317.5768724068
 31
0.0
  0
LINE
  5
1C5
330
1F
100
AcDbEntity
  8
0
  6
Continuous
 62
     7
370
    35
100
AcDbLine
 10
489.2403100197999
 20
1332.5768724068
 30
0.0
 11
489.2403100197999
 21
1338.6768724068
 31
0.0
  0
LWPOLYLINE
  5
1C6
330
1F
100
AcDbEntity
  8
0
  6
Continuous
 62
     7
370
    35
100
AcDbPolyline
 90
        3
 70
   128
 43
0.0
 10
487.2403100198
 20
1315.0768724068
 10
487.6304906637998
 20
1315.1153018459
 10
487.8648098195998
 20
1315.1768724068
  0
LWPOLYLINE
  5
1C7
330
1F
100
AcDbEntity
  8
0
  6
Continuous
 62
     7
370
    35
100
AcDbPolyline
 90
        3
 70
   128
 43
0.0
 10
489.1403100198
 20
1316.4523726069
 10
489.2018805805999
 20
1316.6866917627
 10
489.2403100197999
 20
1317.0768724068
  0
LINE
  5
1C8
330
1F
100
AcDbEntity
  8
0
  6
Continuous
 62
     7
370
    35
100
AcDbLine
 10
465.6403100198
 20
1315.0768724068
 30
0.0
 11
487.2403100198
 21
1315.0768724068
 31
0.0
  0
LWPOLYLINE
  5
1C9
330
1F
100
AcDbEntity
  8
0
  6
Continuous
 62
     7
370
    35
100
AcDbPolyline
 90
        3
 70
   128
 43
0.0
 10
463.6403100198
 20
1317.0768724068
 10
463.678739459
 20
1316.6866917627
 10
463.7403100198
 20
1316.4523726069
  0
LWPOLYLINE
  5
1CA
330
1F
100
AcDbEntity
  8
0
  6
Continuous
 62
     7
370
    35
100
AcDbPolyline
 90
        3
 70
   128
 43
0.0
 10
465.0158102198998
 20
1315.1768724068
 10
465.2501293757
 20
1315.1153018459
 10
465.6403100198
 20
1315.0768724068
  0
LINE
  5
1CB
330
1F
100
AcDbEntity
  8
0
  6
Continuous
 62
     7
370
    35
100
AcDbLine
 10
463.6403100198
 20
1338.6768724068
 30
0.0
 11
463.6403100198
 21
1332.5768724068
 31
0.0
  0
LINE
  5
1CC
330
1F
100
AcDbEntity
  8
0
  6
Continuous
 62
     7
370
    35
100
AcDbLine
 10
463.6403100198
 20
1317.5768724068
 30
0.0
 11
463.6403100198
 21
1317.0768724068
 31
0.0
  0
LWPOLYLINE
  5
1CD
330
1F
100
AcDbEntity
  8
0
  6
Continuous
 62
     7
370
    35
100
AcDbPolyline
 90
        3
 70
   128
 43
0.0
 10
465.6403100198
 20
1340.6768724068
 10
465.2501293757
 20
1340.6384429676
 10
465.0158102198998
 20
1340.5768724068
  0
LWPOLYLINE
  5
1CE
330
1F
100
AcDbEntity
  8
0
  6
Continuous
 62
     7
370
    35
100
AcDbPolyline
 90
        3
 70
   128
 43
0.0
 10
463.7403100198
 20
1339.3013722066
 10
463.678739459
 20
1339.0670530508
 10
463.6403100198
 20
1338.6768724068
  0
ARC
  5
1CF
330
1F
100
AcDbEntity
  8
0
  6
Continuous
 62
     7
370
    35
100
AcDbCircle
 10
464.9403100198
 20
1316.3768724068
 30
0.0
 40
1.200000000000273
100
AcDbArc
 50
180.0
 51
270.0
  0
LINE
  5
1D0
330
1F
100
AcDbEntity
  8
0
  6
Continuous
 62
     7
370
    35
100
AcDbLine
 10
463.7403100198
 20
1316.3768724068
 30
0.0
 11
463.7403100198
 21
1339.3768724068
 31
0.0
  0
ARC
  5
1D1
330
1F
100
AcDbEntity
  8
0
  6
Continuous
 62
     7
370
    35
100
AcDbCircle
 10
464.9403100198
 20
1339.3768724068
 30
0.0
 40
1.200000000000102
100
AcDbArc
 50
90.0
 51
180.0
  0
ARC
  5
1D2
330
1F
100
AcDbEntity
  8
0
  6
Continuous
 62
     7
370
    35
100
AcDbCircle
 10
487.9403100198
 20
1316.3768724068
 30
0.0
 40
1.200000000000273
100
AcDbArc
 50
270.0
 51
0.0
  0
ARC
  5
1D3
330
1F
100
AcDbEntity
  8
0
  6
Continuous
 62
     7
370
    35
100
AcDbCircle
 10
487.9403100198
 20
1339.3768724068
 30
0.0
 40
1.200000000000102
100
AcDbArc
 50
0.0
 51
90.0
  0
LINE
  5
1D4
330
1F
100
AcDbEntity
  8
0
  6
Continuous
 62
     7
370
    35
100
AcDbLine
 10
487.9403100198
 20
1315.1768724068
 30
0.0
 11
464.9403100198
 21
1315.1768724068
 31
0.0
  0
LINE
  5
1D5
330
1F
100
AcDbEntity
  8
0
  6
Continuous
 62
     7
370
    35
100
AcDbLine
 10
489.1403100198
 20
1339.3768724068
 30
0.0
 11
489.1403100198
 21
1316.3768724068
 31
0.0
  0
LINE
  5
1D6
330
1F
100
AcDbEntity
  8
0
  6
Continuous
 62
     7
370
    35
100
AcDbLine
 10
464.9403100198
 20
1340.5768724068
 30
0.0
 11
487.9403100198
 21
1340.5768724068
 31
0.0
  0
ARC
  5
1D7
330
1F
100
AcDbEntity
  8
0
  6
Continuous
 62
     7
370
    35
100
AcDbCircle
 10
814.7403100197998
 20
1316.3768724068
 30
0.0
 40
1.200000000000159
100
AcDbArc
 50
180.0
 51
270.0
  0
LINE
  5
1D8
330
1F
100
AcDbEntity
  8
0
  6
Continuous
 62
     7
370
    35
100
AcDbLine
 10
813.5403100197997
 20
1316.3768724068
 30
0.0
 11
813.5403100197997
 21
1339.3768724068
 31
0.0
  0
ARC
  5
1D9
330
1F
100
AcDbEntity
  8
0
  6
Continuous
 62
     7
370
    35
100
AcDbCircle
 10
814.7403100197998
 20
1339.3768724068
 30
0.0
 40
1.200000000000159
100
AcDbArc
 50
90.0
 51
180.0
  0
LINE
  5
1DA
330
1F
100
AcDbEntity
  8
0
  6
Continuous
 62
     7
370
    35
100
AcDbLine
 10
837.7403100198
 20
1315.1768724068
 30
0.0
 11
814.7403100197998
 21
1315.1768724068
 31
0.0
  0
ARC
  5
1DB
330
1F
100
AcDbEntity
  8
0
  6
Continuous
 62
     7
370
    35
100
AcDbCircle
 10
837.7403100198
 20
1316.3768724068
 30
0.0
 40
1.200000000000043
100
AcDbArc
 50
270.0
 51
0.0
  0
LINE
  5
1DC
330
1F
100
AcDbEntity
  8
0
  6
Continuous
 62
     7
370
    35
100
AcDbLine
 10
838.9403100198
 20
1339.3768724068
 30
0.0
 11
838.9403100198
 21
1316.3768724068
 31
0.0
  0
ARC
  5
1DD
330
1F
100
AcDbEntity
  8
0
  6
Continuous
 62
     7
370
    35
100
AcDbCircle
 10
837.7403100198
 20
1339.3768724068
 30
0.0
 40
1.200000000000043
100
AcDbArc
 50
0.0
 51
90.0
  0
LINE
  5
1DE
330
1F
100
AcDbEntity
  8
0
  6
Continuous
 62
     7
370
    35
100
AcDbLine
 10
814.7403100197998
 20
1340.5768724068
 30
0.0
 11
837.7403100198
 21
1340.5768724068
 31
0.0
  0
ARC
  5
1DF
330
1F
100
AcDbEntity
  8
0
  6
Continuous
 62
     7
370
    35
100
AcDbCircle
 10
1164.5403100198
 20
1316.3768724068
 30
0.0
 40
1.200000000000273
100
AcDbArc
 50
180.0
 51
270.0
  0
LINE
  5
1E0
330
1F
100
AcDbEntity
  8
0
  6
Continuous
 62
     7
370
    35
100
AcDbLine
 10
1163.3403100198
 20
1316.3768724068
 30
0.0
 11
1163.3403100198
 21
1339.3768724068
 31
0.0
  0
ARC
  5
1E1
330
1F
100
AcDbEntity
  8
0
  6
Continuous
 62
     7
370
    35
100
AcDbCircle
 10
1164.5403100198
 20
1339.3768724068
 30
0.0
 40
1.200000000000043
100
AcDbArc
 50
90.0
 51
180.0
  0
LINE
  5
1E2
330
1F
100
AcDbEntity
  8
0
  6
Continuous
 62
     7
370
    35
100
AcDbLine
 10
1187.5403100198
 20
1315.1768724068
 30
0.0
 11
1164.5403100198
 21
1315.1768724068
 31
0.0
  0
ARC
  5
1E3
330
1F
100
AcDbEntity
  8
0
  6
Continuous
 62
     7
370
    35
100
AcDbCircle
 10
1187.5403100198
 20
1316.3768724068
 30
0.0
 40
1.200000000000273
100
AcDbArc
 50
270.0
 51
0.0
  0
LINE
  5
1E4
330
1F
100
AcDbEntity
  8
0
  6
Continuous
 62
     7
370
    35
100
AcDbLine
 10
1188.7403100198
 20
1339.3768724068
 30
0.0
 11
1188.7403100198
 21
1316.3768724068
 31
0.0
  0
ARC
  5
1E5
330
1F
100
AcDbEntity
  8
0
  6
Continuous
 62
     7
370
    35
100
AcDbCircle
 10
1187.5403100198
 20
1339.3768724068
 30
0.0
 40
1.200000000000273
100
AcDbArc
 50
0.0
 51
90.0
  0
LINE
  5
1E6
330
1F
100
AcDbEntity
  8
0
  6
Continuous
 62
     7
370
    35
100
AcDbLine
 10
1164.5403100198
 20
1340.5768724068
 30
0.0
 11
1187.5403100198
 21
1340.5768724068
 31
0.0
  0
LINE
  5
1E7
330
1F
100
AcDbEntity
  8
0
  6
Continuous
 62
     7
370
    35
100
AcDbLine
 10
805.0403100197998
 20
1330.0068724068
 30
0.0
 11
805.0403100197998
 21
1320.1468724068
 31
0.0
  0
LINE
  5
1E8
330
1F
100
AcDbEntity
  8
0
  6
Continuous
 62
     7
370
    35
100
AcDbLine
 10
1154.8403100198
 20
1330.0068724068
 30
0.0
 11
1154.8403100198
 21
1320.1468724068
 31
0.0
  0
LINE
  5
1E9
330
1F
100
AcDbEntity
  8
0
  6
Continuous
 62
     7
370
    35
100
AcDbLine
 10
497.6403100198
 20
1320.1468724068
 30
0.0
 11
497.6403100198
 21
1330.0068724068
 31
0.0
  0
LINE
  5
1EA
330
1F
100
AcDbEntity
  8
0
  6
Continuous
 62
     7
370
    35
100
AcDbLine
 10
1192.2209433937
 20
1323.0862328404
 30
0.0
 11
1192.2209433937
 21
1319.8637177174
 31
0.0
  0
LINE
  5
1EB
330
1F
100
AcDbEntity
  8
0
  6
Continuous
 62
     7
370
    35
100
AcDbLine
 10
1192.2209433937
 20
1330.2900270962
 30
0.0
 11
1192.2209433937
 21
1323.0862328404
 31
0.0
  0
LINE
  5
1EC
330
1F
100
AcDbEntity
  8
0
  6
Continuous
 62
     7
370
    35
100
AcDbLine
 10
460.2596766458
 20
1319.8637177173
 30
0.0
 11
460.2596766458
 21
1330.2900270962
 31
0.0
  0
LINE
  5
1ED
330
1F
100
AcDbEntity
  8
0
  6
Continuous
 62
     7
370
    35
100
AcDbLine
 10
842.4209433936999
 20
1323.0862328404
 30
0.0
 11
842.4209433936999
 21
1319.8637177174
 31
0.0
  0
LINE
  5
1EE
330
1F
100
AcDbEntity
  8
0
  6
Continuous
 62
     7
370
    35
100
AcDbLine
 10
842.4209433936999
 20
1330.2900270962
 30
0.0
 11
842.4209433936999
 21
1323.0862328404
 31
0.0
  0
DIMENSION
  5
1EF
102
{ACAD_XDICTIONARY
360
5F6
102
}
330
1F
100
AcDbEntity
  8
DIMENSION
 62
     7
100
AcDbDimension
280
     0
  2
*D28
 10
1307.2403100198
 20
1399.090910847437
 30
0.0
 11
831.7891394127999
 21
1399.090910847437
 31
0.0
 70
   160
  1
<>
 71
     2
 42
962.0
 73
     0
 74
     0
 75
     0
  3
RG Dimension Lines_Large
100
AcDbAlignedDimension
 13
345.2403100198
 23
958.1768724067998
 33
0.0
 14
1307.2403100198
 24
958.1768724067998
 34
0.0
100
AcDbRotatedDimension
1001
AcadAnnotative
1000
AnnotativeData
1002
{
1070
     1
1070
     1
1002
}
1001
ACAD
1000
DSTYLE
1002
{
1070
    45
1040
5.0
1002
}
  0
DIMENSION
  5
1FC
102
{ACAD_XDICTIONARY
360
5D9
102
}
330
1F
100
AcDbEntity
  8
DIMENSION
 62
     7
100
AcDbDimension
280
     0
  2
*D26
 10
1387.2403100198
 20
944.1768724068003
 30
0.0
 11
1387.2403100198
 21
1153.2762951182
 31
0.0
 70
   160
  1
400
 71
     2
 42
396.4000000000002
 73
     0
 74
     0
 75
     0
  3
RG Dimension Lines_Large
100
AcDbAlignedDimension
 13
1187.5403100198
 23
1340.5768724068
 33
0.0
 14
1293.2403100198
 24
944.1768724067999
 34
0.0
 50
90.0
100
AcDbRotatedDimension
1001
AcadAnnotative
1000
AnnotativeData
1002
{
1070
     1
1070
     1
1002
}
  0
LINE
  5
204
330
1F
100
AcDbEntity
  8
0
  6
Continuous
 62
     7
370
    35
100
AcDbLine
 10
821.5403100197997
 20
737.1289346063649
 30
0.0
 11
821.5403100197997
 21
736.3289346063651
 31
0.0
  0
LINE
  5
205
330
1F
100
AcDbEntity
  8
0
  6
Continuous
 62
     7
370
    35
100
AcDbLine
 10
830.9403100198
 20
736.3289346063651
 30
0.0
 11
830.9403100198
 21
737.1289346063649
 31
0.0
  0
ARC
  5
206
330
1F
100
AcDbEntity
  8
0
  6
Continuous
 62
     7
370
    35
100
AcDbCircle
 10
824.6780255278999
 20
737.9289346063649
 30
0.0
 40
3.0
100
AcDbArc
 50
212.2309526355
 51
270.0
  0
ARC
  5
207
330
1F
100
AcDbEntity
  8
0
  6
Continuous
 62
     7
370
    35
100
AcDbCircle
 10
827.8025945117001
 20
737.9289346063649
 30
0.0
 40
3.0
100
AcDbArc
 50
270.0
 51
327.7690473644999
  0
LINE
  5
208
330
1F
100
AcDbEntity
  8
0
  6
Continuous
 62
     7
370
    35
100
AcDbLine
 10
1171.3403100198
 20
737.1289346063649
 30
0.0
 11
1171.3403100198
 21
736.3289346063651
 31
0.0
  0
LINE
  5
209
330
1F
100
AcDbEntity
  8
0
  6
Continuous
 62
     7
370
    35
100
AcDbLine
 10
1180.7403100198
 20
736.3289346063651
 30
0.0
 11
1180.7403100198
 21
737.1289346063649
 31
0.0
  0
ARC
  5
20A
330
1F
100
AcDbEntity
  8
0
  6
Continuous
 62
     7
370
    35
100
AcDbCircle
 10
1174.4780255279
 20
737.9289346063649
 30
0.0
 40
3.0
100
AcDbArc
 50
212.2309526355
 51
270.0
  0
ARC
  5
20B
330
1F
100
AcDbEntity
  8
0
  6
Continuous
 62
     7
370
    35
100
AcDbCircle
 10
1177.6025945117
 20
737.9289346063649
 30
0.0
 40
3.0
100
AcDbArc
 50
270.0
 51
327.7690473644999
  0
LINE
  5
20C
330
1F
100
AcDbEntity
  8
0
  6
Continuous
 62
     7
370
    35
100
AcDbLine
 10
471.7403100198
 20
737.1289346063649
 30
0.0
 11
471.7403100198
 21
736.3289346063651
 31
0.0
  0
LINE
  5
20D
330
1F
100
AcDbEntity
  8
0
  6
Continuous
 62
     7
370
    35
100
AcDbLine
 10
481.1403100198
 20
736.3289346063651
 30
0.0
 11
481.1403100198
 21
737.1289346063649
 31
0.0
  0
ARC
  5
20E
330
1F
100
AcDbEntity
  8
0
  6
Continuous
 62
     7
370
    35
100
AcDbCircle
 10
474.8780255279
 20
737.9289346063649
 30
0.0
 40
3.0
100
AcDbArc
 50
212.2309526355
 51
270.0
  0
ARC
  5
20F
330
1F
100
AcDbEntity
  8
0
  6
Continuous
 62
     7
370
    35
100
AcDbCircle
 10
478.0025945116999
 20
737.9289346063649
 30
0.0
 40
3.0
100
AcDbArc
 50
270.0
 51
327.7690473644999
  0
LINE
  5
210
330
1F
100
AcDbEntity
  8
0
  6
Continuous
 62
     7
370
    35
100
AcDbLine
 10
1189.7903100198
 20
787.9289346063649
 30
0.0
 11
1188.7903100198
 21
787.9289346063649
 31
0.0
  0
LINE
  5
211
330
1F
100
AcDbEntity
  8
0
  6
Continuous
 62
     7
370
    35
100
AcDbLine
 10
463.6903100198
 20
787.9289346063649
 30
0.0
 11
462.6903100198
 21
787.9289346063649
 31
0.0
  0
LINE
  5
212
330
1F
100
AcDbEntity
  8
0
  6
Continuous
 62
     7
370
    35
100
AcDbLine
 10
813.5403100197997
 20
787.9289346063649
 30
0.0
 11
812.5903100198
 21
787.9289346063649
 31
0.0
  0
LINE
  5
213
330
1F
100
AcDbEntity
  8
0
  6
Continuous
 62
     7
370
    35
100
AcDbLine
 10
490.0903100198
 20
787.9289346063649
 30
0.0
 11
489.1403100198
 21
787.9289346063649
 31
0.0
  0
LINE
  5
214
330
1F
100
AcDbEntity
  8
0
  6
Continuous
 62
     7
370
    35
100
AcDbLine
 10
1163.3403100198
 20
787.9289346063649
 30
0.0
 11
1162.3903100198
 21
787.9289346063649
 31
0.0
  0
LINE
  5
215
330
1F
100
AcDbEntity
  8
0
  6
Continuous
 62
     7
370
    35
100
AcDbLine
 10
839.9903100197999
 20
787.9289346063649
 30
0.0
 11
838.9903100197997
 21
787.9289346063649
 31
0.0
  0
LINE
  5
216
330
1F
100
AcDbEntity
  8
0
  6
Continuous
 62
     7
370
    35
100
AcDbLine
 10
806.0403100197998
 20
785.358934606365
 30
0.0
 11
805.0403100197998
 21
785.358934606365
 31
0.0
  0
LINE
  5
217
330
1F
100
AcDbEntity
  8
0
  6
Continuous
 62
     7
370
    35
100
AcDbLine
 10
805.0403100197998
 20
775.4989346063649
 30
0.0
 11
806.0403100197998
 21
775.4989346063649
 31
0.0
  0
ARC
  5
218
330
1F
100
AcDbEntity
  8
0
  6
Continuous
 62
     7
370
    35
100
AcDbCircle
 10
805.0403100197998
 20
775.9989346063649
 30
0.0
 40
0.5
100
AcDbArc
 50
180.0
 51
270.0
  0
ARC
  5
219
330
1F
100
AcDbEntity
  8
0
  6
Continuous
 62
     7
370
    35
100
AcDbCircle
 10
805.0403100197998
 20
784.8589346063651
 30
0.0
 40
0.4999999999998864
100
AcDbArc
 50
90.0
 51
180.0
  0
LINE
  5
21A
330
1F
100
AcDbEntity
  8
0
  6
Continuous
 62
     7
370
    35
100
AcDbLine
 10
806.0403100197998
 20
775.4989346063649
 30
0.0
 11
806.1961945925
 21
775.2289346063649
 31
0.0
  0
LINE
  5
21B
330
1F
100
AcDbEntity
  8
0
  6
Continuous
 62
     7
370
    35
100
AcDbLine
 10
810.3844254471001
 20
775.2289346063649
 30
0.0
 11
810.4903100197997
 21
775.4123320660651
 31
0.0
  0
LINE
  5
21C
330
1F
100
AcDbEntity
  8
0
  6
Continuous
 62
     7
370
    35
100
AcDbLine
 10
806.2736757340999
 20
785.7631358803651
 30
0.0
 11
806.0403100197998
 21
785.358934606365
 31
0.0
  0
LINE
  5
21D
330
1F
100
AcDbEntity
  8
0
  6
Continuous
 62
     7
370
    35
100
AcDbLine
 10
810.4903100197997
 20
785.4455371467651
 30
0.0
 11
810.3069443054
 21
785.7631358803651
 31
0.0
  0
LINE
  5
21E
330
1F
100
AcDbEntity
  8
0
  6
Continuous
 62
     7
370
    35
100
AcDbLine
 10
1155.8403100198
 20
785.358934606365
 30
0.0
 11
1154.8403100198
 21
785.358934606365
 31
0.0
  0
LINE
  5
21F
330
1F
100
AcDbEntity
  8
0
  6
Continuous
 62
     7
370
    35
100
AcDbLine
 10
1154.8403100198
 20
775.4989346063649
 30
0.0
 11
1155.8403100198
 21
775.4989346063649
 31
0.0
  0
ARC
  5
220
330
1F
100
AcDbEntity
  8
0
  6
Continuous
 62
     7
370
    35
100
AcDbCircle
 10
1154.8403100198
 20
775.9989346063649
 30
0.0
 40
0.5000000000002274
100
AcDbArc
 50
180.0
 51
270.0
  0
ARC
  5
221
330
1F
100
AcDbEntity
  8
0
  6
Continuous
 62
     7
370
    35
100
AcDbCircle
 10
1154.8403100198
 20
784.8589346063651
 30
0.0
 40
0.5000000000002274
100
AcDbArc
 50
90.0
 51
180.0
  0
LINE
  5
222
330
1F
100
AcDbEntity
  8
0
  6
Continuous
 62
     7
370
    35
100
AcDbLine
 10
1155.8403100198
 20
775.4989346063649
 30
0.0
 11
1155.9961945925
 21
775.2289346063649
 31
0.0
  0
LINE
  5
223
330
1F
100
AcDbEntity
  8
0
  6
Continuous
 62
     7
370
    35
100
AcDbLine
 10
1160.1844254471
 20
775.2289346063649
 30
0.0
 11
1160.2903100198
 21
775.4123320660651
 31
0.0
  0
LINE
  5
224
330
1F
100
AcDbEntity
  8
0
  6
Continuous
 62
     7
370
    35
100
AcDbLine
 10
1156.0736757341
 20
785.7631358803651
 30
0.0
 11
1155.8403100198
 21
785.358934606365
 31
0.0
  0
LINE
  5
225
330
1F
100
AcDbEntity
  8
0
  6
Continuous
 62
     7
370
    35
100
AcDbLine
 10
1160.2903100198
 20
785.4455371467651
 30
0.0
 11
1160.1069443054
 21
785.7631358803651
 31
0.0
  0
LINE
  5
226
330
1F
100
AcDbEntity
  8
0
  6
Continuous
 62
     7
370
    35
100
AcDbLine
 10
496.6403100198
 20
775.4989346063649
 30
0.0
 11
497.6403100198
 21
775.4989346063649
 31
0.0
  0
LINE
  5
227
330
1F
100
AcDbEntity
  8
0
  6
Continuous
 62
     7
370
    35
100
AcDbLine
 10
497.6403100198
 20
785.358934606365
 30
0.0
 11
496.6403100198
 21
785.358934606365
 31
0.0
  0
ARC
  5
228
330
1F
100
AcDbEntity
  8
0
  6
Continuous
 62
     7
370
    35
100
AcDbCircle
 10
497.6403100198
 20
784.8589346063651
 30
0.0
 40
0.5000000000001137
100
AcDbArc
 50
0.0
 51
90.0
  0
ARC
  5
229
330
1F
100
AcDbEntity
  8
0
  6
Continuous
 62
     7
370
    35
100
AcDbCircle
 10
497.6403100198
 20
775.9989346063649
 30
0.0
 40
0.5
100
AcDbArc
 50
270.0
 51
0.0
  0
LINE
  5
22A
330
1F
100
AcDbEntity
  8
0
  6
Continuous
 62
     7
370
    35
100
AcDbLine
 10
492.1903100198
 20
775.4123320660651
 30
0.0
 11
492.2961945925
 21
775.2289346063649
 31
0.0
  0
LINE
  5
22B
330
1F
100
AcDbEntity
  8
0
  6
Continuous
 62
     7
370
    35
100
AcDbLine
 10
496.6403100198
 20
785.358934606365
 30
0.0
 11
496.1999801802
 21
786.1216082606651
 31
0.0
  0
LINE
  5
22C
330
1F
100
AcDbEntity
  8
0
  6
Continuous
 62
     7
370
    35
100
AcDbLine
 10
496.4844254471
 20
775.2289346063649
 30
0.0
 11
496.6403100198
 21
775.4989346063649
 31
0.0
  0
LINE
  5
22D
330
1F
100
AcDbEntity
  8
0
  6
Continuous
 62
     7
370
    35
100
AcDbLine
 10
492.5806398593
 20
786.1216082606651
 30
0.0
 11
492.1903100198
 21
785.4455371467651
 31
0.0
  0
ARC
  5
22E
330
1F
100
AcDbEntity
  8
0
  6
Continuous
 62
     7
370
    35
100
AcDbCircle
 10
1192.0903100198
 20
785.4289346063649
 30
0.0
 40
0.25
100
AcDbArc
 50
58.49765267310026
 51
180.0
  0
ARC
  5
22F
330
1F
100
AcDbEntity
  8
0
  6
Continuous
 62
     7
370
    35
100
AcDbCircle
 10
1192.0903100198
 20
775.4289346063649
 30
0.0
 40
0.2500000000000909
100
AcDbArc
 50
180.0
 51
233.1301023537996
  0
ARC
  5
230
330
1F
100
AcDbEntity
  8
0
  6
Continuous
 62
     7
370
    35
100
AcDbCircle
 10
1189.0260243055
 20
780.4289346063649
 30
0.0
 40
6.114285714285768
100
AcDbArc
 50
19.71787220799929
 51
58.49765267310026
  0
ARC
  5
231
330
1F
100
AcDbEntity
  8
0
  6
Continuous
 62
     7
370
    35
100
AcDbCircle
 10
1189.0260243055
 20
780.4289346063649
 30
0.0
 40
6.114285714285767
100
AcDbArc
 50
301.5023473268998
 51
340.2821277920007
  0
LINE
  5
232
330
1F
100
AcDbEntity
  8
0
  6
Continuous
 62
     7
370
    35
100
AcDbLine
 10
1191.8403100198
 20
783.4289346063649
 30
0.0
 11
1191.7903100198
 21
783.4289346063649
 31
0.0
  0
LINE
  5
233
330
1F
100
AcDbEntity
  8
0
  6
Continuous
 62
     7
370
    35
100
AcDbLine
 10
1188.7903100198
 20
783.4289346063649
 30
0.0
 11
1188.7403100198
 21
783.4289346063649
 31
0.0
  0
LINE
  5
234
330
1F
100
AcDbEntity
  8
0
  6
Continuous
 62
     7
370
    35
100
AcDbLine
 10
1188.7403100198
 20
777.4289346063649
 30
0.0
 11
1188.7903100198
 21
777.4289346063649
 31
0.0
  0
LINE
  5
235
330
1F
100
AcDbEntity
  8
0
  6
Continuous
 62
     7
370
    35
100
AcDbLine
 10
1191.7903100198
 20
777.4289346063649
 30
0.0
 11
1191.8403100198
 21
777.4289346063649
 31
0.0
  0
SPLINE
  5
236
330
1F
100
AcDbEntity
  8
0
  6
Continuous
 62
     7
370
    35
100
AcDbSpline
210
0.0
220
0.0
230
1.0
 70
     8
 71
     3
 72
     9
 73
     5
 74
     0
 42
0.00000001
 43
0.0000000001
 40
0.0
 40
0.0
 40
0.0
 40
0.0
 40
0.4998476804254511
 40
1.0
 40
1.0
 40
1.0
 40
1.0
 10
1162.574729371082
 20
777.9816272829178
 30
0.0
 10
1162.627307630802
 20
777.8910883876823
 30
0.0
 10
1162.732496194796
 20
777.7099554170173
 30
0.0
 10
1162.837590377258
 20
777.5287818706617
 30
0.0
 10
1162.89015347639
 20
777.4381675012063
 30
0.0
  0
LINE
  5
237
330
1F
100
AcDbEntity
  8
0
  6
Continuous
 62
     7
370
    35
100
AcDbLine
 10
1160.3857980819
 20
783.4123320432651
 30
0.0
 11
1160.304120172
 21
783.2715182582651
 31
0.0
  0
LINE
  5
238
330
1F
100
AcDbEntity
  8
0
  6
Continuous
 62
     7
370
    35
100
AcDbLine
 10
1160.3030206563
 20
783.2696226788649
 30
0.0
 11
1160.2903100198
 21
783.2477093752651
 31
0.0
  0
SPLINE
  5
239
330
1F
100
AcDbEntity
  8
0
  6
Continuous
 62
     7
370
    35
100
AcDbSpline
210
0.0
220
0.0
230
1.0
 70
     8
 71
     3
 72
     9
 73
     5
 74
     0
 42
0.00000001
 43
0.0000000001
 40
0.0
 40
0.0
 40
0.0
 40
0.0
 40
0.5192199395545727
 40
1.0
 40
1.0
 40
1.0
 40
1.0
 10
1162.385798081938
 20
783.4123320432803
 30
0.0
 10
1162.333128907582
 20
783.3214985735001
 30
0.0
 10
1162.231689863463
 20
783.1465563903122
 30
0.0
 10
1162.130113862302
 20
782.9717244445016
 30
0.0
 10
1162.081278146323
 20
782.8876687310273
 30
0.0
  0
LINE
  5
23A
330
1F
100
AcDbEntity
  8
0
  6
Continuous
 62
     7
370
    35
100
AcDbLine
 10
1162.2903100198
 20
777.8680617795651
 30
0.0
 11
1162.3496138892
 21
777.9702004817651
 31
0.0
  0
LINE
  5
23B
330
1F
100
AcDbEntity
  8
0
  6
Continuous
 62
     7
370
    35
100
AcDbLine
 10
1162.3404603309
 20
777.9702004817651
 30
0.0
 11
1162.581363968
 21
777.9702004817651
 31
0.0
  0
ARC
  5
23C
330
1F
100
AcDbEntity
  8
0
  6
Continuous
 62
     7
370
    35
100
AcDbCircle
 10
460.3903100198
 20
775.4289346063649
 30
0.0
 40
0.2500000000000227
100
AcDbArc
 50
306.8698976468995
 51
0.0
  0
ARC
  5
23D
330
1F
100
AcDbEntity
  8
0
  6
Continuous
 62
     7
370
    35
100
AcDbCircle
 10
460.3903100198
 20
785.4289346063649
 30
0.0
 40
0.25
100
AcDbArc
 50
0.0
 51
121.5023473268997
  0
ARC
  5
23E
330
1F
100
AcDbEntity
  8
0
  6
Continuous
 62
     7
370
    35
100
AcDbCircle
 10
463.4545957341
 20
780.4289346063649
 30
0.0
 40
6.114285714285856
100
AcDbArc
 50
199.5398632720995
 51
238.4976526731002
  0
ARC
  5
23F
330
1F
100
AcDbEntity
  8
0
  6
Continuous
 62
     7
370
    35
100
AcDbCircle
 10
463.4545957341
 20
780.4289346063649
 30
0.0
 40
6.114285714285777
100
AcDbArc
 50
121.5023473268997
 51
160.4601367279005
  0
LINE
  5
240
330
1F
100
AcDbEntity
  8
0
  6
Continuous
 62
     7
370
    35
100
AcDbLine
 10
460.6403100198
 20
777.4289346063649
 30
0.0
 11
460.6903100198
 21
777.4289346063649
 31
0.0
  0
LINE
  5
241
330
1F
100
AcDbEntity
  8
0
  6
Continuous
 62
     7
370
    35
100
AcDbLine
 10
463.6903100198
 20
777.4289346063649
 30
0.0
 11
463.7403100198
 21
777.4289346063649
 31
0.0
  0
LINE
  5
242
330
1F
100
AcDbEntity
  8
0
  6
Continuous
 62
     7
370
    35
100
AcDbLine
 10
463.7403100198
 20
783.4289346063649
 30
0.0
 11
463.6903100198
 21
783.4289346063649
 31
0.0
  0
LINE
  5
243
330
1F
100
AcDbEntity
  8
0
  6
Continuous
 62
     7
370
    35
100
AcDbLine
 10
460.6903100198
 20
783.4289346063649
 30
0.0
 11
460.6403100198
 21
783.4289346063649
 31
0.0
  0
LINE
  5
244
330
1F
100
AcDbEntity
  8
0
  6
Continuous
 62
     7
370
    35
100
AcDbLine
 10
490.1903100198
 20
783.4289346063649
 30
0.0
 11
490.1403100198
 21
783.4289346063649
 31
0.0
  0
SPLINE
  5
245
330
1F
100
AcDbEntity
  8
0
  6
Continuous
 62
     7
370
    35
100
AcDbSpline
210
0.0
220
0.0
230
1.0
 70
     8
 71
     3
 72
     9
 73
     5
 74
     0
 42
0.00000001
 43
0.0000000001
 40
0.0
 40
0.0
 40
0.0
 40
0.0
 40
0.507393546844634
 40
1.0
 40
1.0
 40
1.0
 40
1.0
 10
490.1300179602986
 20
783.4221387359153
 30
0.0
 10
490.0776166009712
 20
783.3317273435383
 30
0.0
 10
489.9743410278912
 20
783.1535394400083
 30
0.0
 10
489.8710183631611
 20
782.9754143166468
 30
0.0
 10
489.8201209517578
 20
782.8876687314099
 30
0.0
  0
SPLINE
  5
246
330
1F
100
AcDbEntity
  8
0
  6
Continuous
 62
     7
370
    35
100
AcDbSpline
210
0.0
220
0.0
230
1.0
 70
     8
 71
     3
 72
     9
 73
     5
 74
     0
 42
0.00000001
 43
0.0000000001
 40
0.0
 40
0.0
 40
0.0
 40
0.0
 40
0.4998100404693542
 40
1.0
 40
1.0
 40
1.0
 40
1.0
 10
489.3104348524761
 20
777.9858153046547
 30
0.0
 10
489.3630643173168
 20
777.8951813075553
 30
0.0
 10
489.4683632520711
 20
777.713844420016
 30
0.0
 10
489.5735349417984
 20
777.5324360209501
 30
0.0
 10
489.6261407650268
 20
777.4416973611629
 30
0.0
  0
LINE
  5
247
330
1F
100
AcDbEntity
  8
0
  6
Continuous
 62
     7
370
    35
100
AcDbLine
 10
490.0778100211
 20
777.9702004813651
 30
0.0
 11
490.1903100198
 21
777.9702004813651
 31
0.0
  0
LINE
  5
248
330
1F
100
AcDbEntity
  8
0
  6
Continuous
 62
     7
370
    35
100
AcDbLine
 10
489.1403100198
 20
777.9702004813651
 30
0.0
 11
489.3194996669
 21
777.9702004813651
 31
0.0
  0
ARC
  5
249
330
1F
100
AcDbEntity
  8
0
  6
Continuous
 62
     7
370
    35
100
AcDbCircle
 10
842.2903100197997
 20
785.4289346063649
 30
0.0
 40
0.2500000000000286
100
AcDbArc
 50
58.49765267310026
 51
180.0
  0
ARC
  5
24A
330
1F
100
AcDbEntity
  8
0
  6
Continuous
 62
     7
370
    35
100
AcDbCircle
 10
842.2903100197997
 20
775.4289346063649
 30
0.0
 40
0.25
100
AcDbArc
 50
180.0
 51
233.1301023539999
  0
ARC
  5
24B
330
1F
100
AcDbEntity
  8
0
  6
Continuous
 62
     7
370
    35
100
AcDbCircle
 10
839.2260243055
 20
780.4289346063649
 30
0.0
 40
6.114285714285662
100
AcDbArc
 50
19.71787220799929
 51
58.49765267310026
  0
ARC
  5
24C
330
1F
100
AcDbEntity
  8
0
  6
Continuous
 62
     7
370
    35
100
AcDbCircle
 10
839.2260243055
 20
780.4289346063649
 30
0.0
 40
6.114285714285826
100
AcDbArc
 50
301.5023473268998
 51
340.2821277920007
  0
LINE
  5
24D
330
1F
100
AcDbEntity
  8
0
  6
Continuous
 62
     7
370
    35
100
AcDbLine
 10
842.0403100197997
 20
783.4289346063649
 30
0.0
 11
841.9903100197998
 21
783.4289346063649
 31
0.0
  0
LINE
  5
24E
330
1F
100
AcDbEntity
  8
0
  6
Continuous
 62
     7
370
    35
100
AcDbLine
 10
838.9903100197997
 20
783.4289346063649
 30
0.0
 11
838.9403100198
 21
783.4289346063649
 31
0.0
  0
LINE
  5
24F
330
1F
100
AcDbEntity
  8
0
  6
Continuous
 62
     7
370
    35
100
AcDbLine
 10
838.9403100198
 20
777.4289346063649
 30
0.0
 11
838.9903100197997
 21
777.4289346063649
 31
0.0
  0
LINE
  5
250
330
1F
100
AcDbEntity
  8
0
  6
Continuous
 62
     7
370
    35
100
AcDbLine
 10
841.9903100197998
 20
777.4289346063649
 30
0.0
 11
842.0403100197997
 21
777.4289346063649
 31
0.0
  0
SPLINE
  5
251
330
1F
100
AcDbEntity
  8
0
  6
Continuous
 62
     7
370
    35
100
AcDbSpline
210
0.0
220
0.0
230
1.0
 70
     8
 71
     3
 72
     9
 73
     5
 74
     0
 42
0.00000001
 43
0.0000000001
 40
0.0
 40
0.0
 40
0.0
 40
0.0
 40
0.4998476804254288
 40
1.0
 40
1.0
 40
1.0
 40
1.0
 10
812.7747293710807
 20
777.9816272829183
 30
0.0
 10
812.8273076308007
 20
777.891088387683
 30
0.0
 10
812.9324961947947
 20
777.7099554170177
 30
0.0
 10
813.037590377257
 20
777.5287818706622
 30
0.0
 10
813.0901534763893
 20
777.4381675012068
 30
0.0
  0
LINE
  5
252
330
1F
100
AcDbEntity
  8
0
  6
Continuous
 62
     7
370
    35
100
AcDbLine
 10
810.5857980819001
 20
783.4123320432651
 30
0.0
 11
810.4903100197997
 21
783.2477093752651
 31
0.0
  0
SPLINE
  5
253
330
1F
100
AcDbEntity
  8
0
  6
Continuous
 62
     7
370
    35
100
AcDbSpline
210
0.0
220
0.0
230
1.0
 70
     8
 71
     3
 72
     9
 73
     5
 74
     0
 42
0.00000001
 43
0.0000000001
 40
0.0
 40
0.0
 40
0.0
 40
0.0
 40
0.5192199395545727
 40
1.0
 40
1.0
 40
1.0
 40
1.0
 10
812.5857980819368
 20
783.4123320432808
 30
0.0
 10
812.5331289075811
 20
783.3214985735006
 30
0.0
 10
812.4316898634623
 20
783.1465563903129
 30
0.0
 10
812.3301138623006
 20
782.9717244445023
 30
0.0
 10
812.281278146322
 20
782.8876687310277
 30
0.0
  0
LINE
  5
254
330
1F
100
AcDbEntity
  8
0
  6
Continuous
 62
     7
370
    35
100
AcDbLine
 10
812.4903100197998
 20
777.8680617795651
 30
0.0
 11
812.5496138892
 21
777.9702004817651
 31
0.0
  0
LINE
  5
255
330
1F
100
AcDbEntity
  8
0
  6
Continuous
 62
     7
370
    35
100
AcDbLine
 10
812.5404603308998
 20
777.9702004817651
 30
0.0
 11
812.7813639680001
 21
777.9702004817651
 31
0.0
  0
SPLINE
  5
256
330
1F
100
AcDbEntity
  8
0
  6
Continuous
 62
     7
370
    35
100
AcDbSpline
210
0.0
220
0.0
230
1.0
 70
     8
 71
     3
 72
    15
 73
    11
 74
     0
 42
0.00000001
 43
0.0000000001
 40
0.0
 40
0.0
 40
0.0
 40
0.0
 40
0.158619748343577
 40
0.2859940706945724
 40
0.3822807453851741
 40
0.4526056854108786
 40
0.5426674282649279
 40
0.6637152377077892
 40
0.8160717177887379
 40
1.0
 40
1.0
 40
1.0
 40
1.0
 10
1163.974038311851
 20
497.742718591953
 30
0.0
 10
1165.24545510774
 20
497.5908626130636
 30
0.0
 10
1167.537840947478
 20
497.3170637323102
 30
0.0
 10
1170.610999459637
 20
497.0311943154687
 30
0.0
 10
1172.980380782839
 20
496.8905077752093
 30
0.0
 10
1175.051572277842
 20
496.8276297053007
 30
0.0
 10
1177.323814009058
 20
496.8255879794505
 30
0.0
 10
1180.256635159992
 20
496.9372298241
 30
0.0
 10
1183.936735062443
 20
497.2446374095872
 30
0.0
 10
1186.632276647636
 20
497.5666153257194
 30
0.0
 10
1188.106581727695
 20
497.742718591953
 30
0.0
  0
ARC
  5
257
330
1F
100
AcDbEntity
  8
0
  6
Continuous
 62
     7
370
    35
100
AcDbCircle
 10
1164.2403100198
 20
498.718127383665
 30
0.0
 40
1.000000000000102
100
AcDbArc
 50
179.9999740951998
 51
263.9189582473
  0
ARC
  5
258
330
1F
100
AcDbEntity
  8
0
  6
Continuous
 62
     7
370
    35
100
AcDbCircle
 10
1187.8403100198
 20
498.718127383665
 30
0.0
 40
1.000000000000102
100
AcDbArc
 50
276.0403541169999
 51
0.0000259048001981
  0
SPLINE
  5
259
330
1F
100
AcDbEntity
  8
0
  6
Continuous
 62
     7
370
    35
100
AcDbSpline
210
0.0
220
0.0
230
1.0
 70
     8
 71
     3
 72
    15
 73
    11
 74
     0
 42
0.00000001
 43
0.0000000001
 40
0.0
 40
0.0
 40
0.0
 40
0.0
 40
0.1586197483435731
 40
0.2859940706945714
 40
0.3822807453851736
 40
0.4526056854108785
 40
0.5426674282649305
 40
0.6637152377077876
 40
0.8160717177887415
 40
1.0
 40
1.0
 40
1.0
 40
1.0
 10
814.174038311858
 20
497.7427185919553
 30
0.0
 10
815.4454551077463
 20
497.5908626130663
 30
0.0
 10
817.7378409474844
 20
497.3170637323128
 30
0.0
 10
820.8109994596439
 20
497.0311943154712
 30
0.0
 10
823.1803807828462
 20
496.8905077752117
 30
0.0
 10
825.251572277849
 20
496.8276297053034
 30
0.0
 10
827.523814009065
 20
496.825587979453
 30
0.0
 10
830.4566351599993
 20
496.9372298241027
 30
0.0
 10
834.1367350624498
 20
497.2446374095897
 30
0.0
 10
836.8322766476428
 20
497.566615325722
 30
0.0
 10
838.3065817277012
 20
497.7427185919553
 30
0.0
  0
ARC
  5
25A
330
1F
100
AcDbEntity
  8
0
  6
Continuous
 62
     7
370
    35
100
AcDbCircle
 10
814.4403100197997
 20
498.718127383665
 30
0.0
 40
0.9999999999999884
100
AcDbArc
 50
179.9999740951998
 51
263.9189582473
  0
ARC
  5
25B
330
1F
100
AcDbEntity
  8
0
  6
Continuous
 62
     7
370
    35
100
AcDbCircle
 10
838.0403100197998
 20
498.718127383665
 30
0.0
 40
0.9999999999999884
100
AcDbArc
 50
276.0403541169999
 51
0.0000259048001981
  0
SPLINE
  5
25C
330
1F
100
AcDbEntity
  8
0
  6
Continuous
 62
     7
370
    35
100
AcDbSpline
210
0.0
220
0.0
230
1.0
 70
     8
 71
     3
 72
    15
 73
    11
 74
     0
 42
0.00000001
 43
0.0000000001
 40
0.0
 40
0.0
 40
0.0
 40
0.0
 40
0.1586197483435738
 40
0.2859940706945708
 40
0.3822807453851739
 40
0.4526056854108793
 40
0.5426674282649288
 40
0.6637152377077881
 40
0.8160717177887406
 40
1.0
 40
1.0
 40
1.0
 40
1.0
 10
464.3740383118508
 20
497.742718591953
 30
0.0
 10
465.6454551077393
 20
497.5908626130636
 30
0.0
 10
467.9378409474773
 20
497.3170637323102
 30
0.0
 10
471.0109994596368
 20
497.0311943154687
 30
0.0
 10
473.3803807828392
 20
496.890507775209
 30
0.0
 10
475.4515722778418
 20
496.8276297053007
 30
0.0
 10
477.7238140090578
 20
496.8255879794504
 30
0.0
 10
480.6566351599922
 20
496.9372298241
 30
0.0
 10
484.3367350624424
 20
497.2446374095872
 30
0.0
 10
487.0322766476355
 20
497.5666153257194
 30
0.0
 10
488.5065817276941
 20
497.742718591953
 30
0.0
  0
ARC
  5
25D
330
1F
100
AcDbEntity
  8
0
  6
Continuous
 62
     7
370
    35
100
AcDbCircle
 10
464.6403100198
 20
498.718127383665
 30
0.0
 40
0.9999999999999884
100
AcDbArc
 50
179.9999740951998
 51
263.9189582473
  0
ARC
  5
25E
330
1F
100
AcDbEntity
  8
0
  6
Continuous
 62
     7
370
    35
100
AcDbCircle
 10
488.2403100198
 20
498.718127383665
 30
0.0
 40
0.9999999999999884
100
AcDbArc
 50
276.0403541169999
 51
0.0000259048001981
  0
LINE
  5
25F
330
1F
100
AcDbEntity
  8
0
  6
Continuous
 62
     7
370
    35
100
AcDbLine
 10
821.5403100197997
 20
736.3289346063651
 30
0.0
 11
830.9403100198
 21
736.3289346063651
 31
0.0
  0
LINE
  5
260
330
1F
100
AcDbEntity
  8
0
  6
Continuous
 62
     7
370
    35
100
AcDbLine
 10
824.6780255278999
 20
734.9289346063649
 30
0.0
 11
827.8025945117001
 21
734.9289346063649
 31
0.0
  0
LINE
  5
261
330
1F
100
AcDbEntity
  8
0
  6
Continuous
 62
     7
370
    35
100
AcDbLine
 10
1171.3403100198
 20
736.3289346063651
 30
0.0
 11
1180.7403100198
 21
736.3289346063651
 31
0.0
  0
LINE
  5
262
330
1F
100
AcDbEntity
  8
0
  6
Continuous
 62
     7
370
    35
100
AcDbLine
 10
1174.4780255279
 20
734.9289346063649
 30
0.0
 11
1177.6025945117
 21
734.9289346063649
 31
0.0
  0
LINE
  5
263
330
1F
100
AcDbEntity
  8
0
  6
Continuous
 62
     7
370
    35
100
AcDbLine
 10
471.7403100198
 20
736.3289346063651
 30
0.0
 11
481.1403100198
 21
736.3289346063651
 31
0.0
  0
LINE
  5
264
330
1F
100
AcDbEntity
  8
0
  6
Continuous
 62
     7
370
    35
100
AcDbLine
 10
474.8780255279
 20
734.9289346063649
 30
0.0
 11
478.0025945116999
 21
734.9289346063649
 31
0.0
  0
LINE
  5
265
330
1F
100
AcDbEntity
  8
0
  6
Continuous
 62
     7
370
    35
100
AcDbLine
 10
359.2403100198
 20
775.2289346063649
 30
0.0
 11
1293.2403100198
 21
775.2289346063649
 31
0.0
  0
LINE
  5
266
330
1F
100
AcDbEntity
  8
0
  6
Continuous
 62
     7
370
    35
100
AcDbLine
 10
1293.2403100198
 20
775.2289346063649
 30
0.0
 11
1293.2403100198
 21
768.8789346063651
 31
0.0
  0
LINE
  5
267
330
1F
100
AcDbEntity
  8
0
  6
Continuous
 62
     7
370
    35
100
AcDbLine
 10
359.2403100198
 20
768.8789346063651
 30
0.0
 11
1293.2403100198
 21
768.8789346063651
 31
0.0
  0
LINE
  5
268
330
1F
100
AcDbEntity
  8
0
  6
Continuous
 62
     7
370
    35
100
AcDbLine
 10
359.2403100198
 20
775.2289346063649
 30
0.0
 11
359.2403100198
 21
768.8789346063651
 31
0.0
  0
LINE
  5
269
330
1F
100
AcDbEntity
  8
0
  6
Continuous
 62
     7
370
    35
100
AcDbLine
 10
1293.2403100198
 20
775.2289346063649
 30
0.0
 11
1300.8903100198
 21
775.2289346063649
 31
0.0
  0
ARC
  5
26A
330
1F
100
AcDbEntity
  8
0
  6
Continuous
 62
     7
370
    35
100
AcDbCircle
 10
1300.8903100198
 20
768.8789346063651
 30
0.0
 40
6.350000000000138
100
AcDbArc
 50
0.0
 51
90.0
  0
LINE
  5
26B
330
1F
100
AcDbEntity
  8
0
  6
Continuous
 62
     7
370
    35
100
AcDbLine
 10
1293.2403100198
 20
768.8789346063651
 30
0.0
 11
1307.2403100198
 21
768.8789346063651
 31
0.0
  0
ARC
  5
26C
330
1F
100
AcDbEntity
  8
0
  6
Continuous
 62
     7
370
    35
100
AcDbCircle
 10
1300.8903100198
 20
768.8789346063651
 30
0.0
 40
6.350000000000138
100
AcDbArc
 50
270.0
 51
0.0
  0
LINE
  5
26D
330
1F
100
AcDbEntity
  8
0
  6
Continuous
 62
     7
370
    35
100
AcDbLine
 10
1300.8903100198
 20
762.5289346063651
 30
0.0
 11
1293.2403100198
 21
762.5289346063651
 31
0.0
  0
LINE
  5
26E
330
1F
100
AcDbEntity
  8
0
  6
Continuous
 62
     7
370
    35
100
AcDbLine
 10
1293.2403100198
 20
768.8789346063651
 30
0.0
 11
1293.2403100198
 21
762.5289346063651
 31
0.0
  0
LINE
  5
26F
330
1F
100
AcDbEntity
  8
0
  6
Continuous
 62
     7
370
    35
100
AcDbLine
 10
1293.2403100198
 20
762.5289346063651
 30
0.0
 11
359.2403100198
 21
762.5289346063651
 31
0.0
  0
LINE
  5
270
330
1F
100
AcDbEntity
  8
0
  6
Continuous
 62
     7
370
    35
100
AcDbLine
 10
359.2403100198
 20
768.8789346063651
 30
0.0
 11
359.2403100198
 21
762.5289346063651
 31
0.0
  0
LINE
  5
271
330
1F
100
AcDbEntity
  8
0
  6
Continuous
 62
     7
370
    35
100
AcDbLine
 10
351.5903100198
 20
775.2289346063649
 30
0.0
 11
359.2403100198
 21
775.2289346063649
 31
0.0
  0
LINE
  5
272
330
1F
100
AcDbEntity
  8
0
  6
Continuous
 62
     7
370
    35
100
AcDbLine
 10
345.2403100198
 20
768.8789346063651
 30
0.0
 11
359.2403100198
 21
768.8789346063651
 31
0.0
  0
ARC
  5
273
330
1F
100
AcDbEntity
  8
0
  6
Continuous
 62
     7
370
    35
100
AcDbCircle
 10
351.5903100198
 20
768.8789346063651
 30
0.0
 40
6.350000000000022
100
AcDbArc
 50
90.0
 51
180.0
  0
LINE
  5
274
330
1F
100
AcDbEntity
  8
0
  6
Continuous
 62
     7
370
    35
100
AcDbLine
 10
359.2403100198
 20
762.5289346063651
 30
0.0
 11
351.5903100198
 21
762.5289346063651
 31
0.0
  0
ARC
  5
275
330
1F
100
AcDbEntity
  8
0
  6
Continuous
 62
     7
370
    35
100
AcDbCircle
 10
351.5903100198
 20
768.8789346063651
 30
0.0
 40
6.350000000000022
100
AcDbArc
 50
180.0
 51
270.0
  0
LINE
  5
276
330
1F
100
AcDbEntity
  8
0
  6
Continuous
 62
     7
370
    35
100
AcDbLine
 10
1188.7903100198
 20
777.515128086265
 30
0.0
 11
1188.7903100198
 21
775.2289346063649
 31
0.0
  0
LINE
  5
277
330
1F
100
AcDbEntity
  8
0
  6
Continuous
 62
     7
370
    35
100
AcDbLine
 10
1188.7903100198
 20
787.9289346063649
 30
0.0
 11
1188.7903100198
 21
777.515128086265
 31
0.0
  0
LINE
  5
278
330
1F
100
AcDbEntity
  8
0
  6
Continuous
 62
     7
370
    35
100
AcDbLine
 10
463.6903100198
 20
775.2289346063649
 30
0.0
 11
463.6903100198
 21
787.9289346063649
 31
0.0
  0
LINE
  5
279
330
1F
100
AcDbEntity
  8
0
  6
Continuous
 62
     7
370
    35
100
AcDbLine
 10
812.5903100198
 20
776.7879482374651
 30
0.0
 11
812.5903100198
 21
775.2289346063649
 31
0.0
  0
LINE
  5
27A
330
1F
100
AcDbEntity
  8
0
  6
Continuous
 62
     7
370
    35
100
AcDbLine
 10
812.5903100198
 20
787.9289346063649
 30
0.0
 11
812.5903100198
 21
776.7879482374651
 31
0.0
  0
LINE
  5
27B
330
1F
100
AcDbEntity
  8
0
  6
Continuous
 62
     7
370
    35
100
AcDbLine
 10
490.0903100198
 20
775.2289346063649
 30
0.0
 11
490.0903100198
 21
787.9289346063649
 31
0.0
  0
LINE
  5
27C
330
1F
100
AcDbEntity
  8
0
  6
Continuous
 62
     7
370
    35
100
AcDbLine
 10
1162.3903100198
 20
776.7879482374651
 30
0.0
 11
1162.3903100198
 21
775.2289346063649
 31
0.0
  0
LINE
  5
27D
330
1F
100
AcDbEntity
  8
0
  6
Continuous
 62
     7
370
    35
100
AcDbLine
 10
1162.3903100198
 20
787.9289346063649
 30
0.0
 11
1162.3903100198
 21
776.7879482374651
 31
0.0
  0
LINE
  5
27E
330
1F
100
AcDbEntity
  8
0
  6
Continuous
 62
     7
370
    35
100
AcDbLine
 10
838.9903100197997
 20
777.515128086265
 30
0.0
 11
838.9903100197997
 21
775.2289346063649
 31
0.0
  0
LINE
  5
27F
330
1F
100
AcDbEntity
  8
0
  6
Continuous
 62
     7
370
    35
100
AcDbLine
 10
838.9903100197997
 20
787.9289346063649
 30
0.0
 11
838.9903100197997
 21
777.515128086265
 31
0.0
  0
LINE
  5
280
330
1F
100
AcDbEntity
  8
0
  6
Continuous
 62
     7
370
    35
100
AcDbLine
 10
810.3894219424999
 20
779.9875283206651
 30
0.0
 11
810.0999801802
 21
778.2551910500651
 31
0.0
  0
LINE
  5
281
330
1F
100
AcDbEntity
  8
0
  6
Continuous
 62
     7
370
    35
100
AcDbLine
 10
806.4806398592999
 20
778.2551910500651
 30
0.0
 11
810.0999801802
 21
778.2551910500651
 31
0.0
  0
LINE
  5
282
330
1F
100
AcDbEntity
  8
0
  6
Continuous
 62
     7
370
    35
100
AcDbLine
 10
806.4806398592999
 20
778.2551910500651
 30
0.0
 11
806.0403100197998
 21
781.0768405602649
 31
0.0
  0
SPLINE
  5
283
330
1F
100
AcDbEntity
  8
0
  6
Continuous
 62
     7
370
    35
100
AcDbSpline
210
0.0
220
0.0
230
1.0
 70
     8
 71
     3
 72
     9
 73
     5
 74
     0
 42
0.00000001
 43
0.0000000001
 40
0.0
 40
0.0
 40
0.0
 40
0.0
 40
0.0701997036383405
 40
1.0
 40
1.0
 40
1.0
 40
1.0
 10
806.0403100197721
 20
781.0768405602332
 30
0.0
 10
806.0407498794301
 20
781.1437295163683
 30
0.0
 10
806.0470157129788
 20
782.0965676719219
 30
0.0
 10
806.2717146868427
 20
783.030302837107
 30
0.0
 10
806.4806398593338
 20
783.8984900704193
 30
0.0
  0
LINE
  5
284
330
1F
100
AcDbEntity
  8
0
  6
Continuous
 62
     7
370
    35
100
AcDbLine
 10
806.4806398592999
 20
783.8984900704651
 30
0.0
 11
810.0999801802
 21
783.8984900704651
 31
0.0
  0
LINE
  5
285
330
1F
100
AcDbEntity
  8
0
  6
Continuous
 62
     7
370
    35
100
AcDbLine
 10
810.0999801802
 20
783.8984900704651
 30
0.0
 11
810.5403100198
 21
781.0768405602649
 31
0.0
  0
LINE
  5
286
330
1F
100
AcDbEntity
  8
0
  6
Continuous
 62
     7
370
    35
100
AcDbLine
 10
806.0403100197998
 20
784.9853618485649
 30
0.0
 11
806.0403100197998
 21
785.358934606365
 31
0.0
  0
LINE
  5
287
330
1F
100
AcDbEntity
  8
0
  6
Continuous
 62
     7
370
    35
100
AcDbLine
 10
806.0403100197998
 20
781.0768405602649
 30
0.0
 11
806.0403100197998
 21
784.9853618485649
 31
0.0
  0
LINE
  5
288
330
1F
100
AcDbEntity
  8
0
  6
Continuous
 62
     7
370
    35
100
AcDbLine
 10
806.0403100197998
 20
776.520413318065
 30
0.0
 11
806.0403100197998
 21
781.0768405602649
 31
0.0
  0
LINE
  5
289
330
1F
100
AcDbEntity
  8
0
  6
Continuous
 62
     7
370
    35
100
AcDbLine
 10
806.0403100197998
 20
775.4989346063649
 30
0.0
 11
806.0403100197998
 21
776.520413318065
 31
0.0
  0
LINE
  5
28A
330
1F
100
AcDbEntity
  8
0
  6
Continuous
 62
     7
370
    35
100
AcDbLine
 10
804.5403100197997
 20
775.9989346063649
 30
0.0
 11
804.5403100197997
 21
784.8589346063651
 31
0.0
  0
SPLINE
  5
28B
330
1F
100
AcDbEntity
  8
0
  6
Continuous
 62
     7
370
    35
100
AcDbSpline
210
0.0
220
0.0
230
1.0
 70
     8
 71
     3
 72
     9
 73
     5
 74
     0
 42
0.00000001
 43
0.0000000001
 40
0.0
 40
0.0
 40
0.0
 40
0.0
 40
0.0701997036385278
 40
1.0
 40
1.0
 40
1.0
 40
1.0
 10
806.0403100197724
 20
776.5204133180432
 30
0.0
 10
806.0407498794301
 20
776.5615373028618
 30
0.0
 10
806.0470157129772
 20
777.1473515255319
 30
0.0
 10
806.2717146868422
 20
777.7214210427786
 30
0.0
 10
806.4806398593338
 20
778.2551910500468
 30
0.0
  0
LINE
  5
28C
330
1F
100
AcDbEntity
  8
0
  6
Continuous
 62
     7
370
    35
100
AcDbLine
 10
810.0999801802
 20
778.2551910500651
 30
0.0
 11
810.4903100197997
 21
776.717399483465
 31
0.0
  0
SPLINE
  5
28D
330
1F
100
AcDbEntity
  8
0
  6
Continuous
 62
     7
370
    35
100
AcDbSpline
210
0.0
220
0.0
230
1.0
 70
     8
 71
     3
 72
     9
 73
     5
 74
     0
 42
0.00000001
 43
0.0000000001
 40
0.0
 40
0.0
 40
0.0
 40
0.0
 40
0.7313663949445059
 40
1.0
 40
1.0
 40
1.0
 40
1.0
 10
806.4806398593338
 20
783.8984900704193
 30
0.0
 10
806.3076740495622
 20
784.1604576398049
 30
0.0
 10
806.0711772526524
 20
784.5186468746348
 30
0.0
 10
806.0468461670202
 20
784.8865347912933
 30
0.0
 10
806.0403100197719
 20
784.9853618486019
 30
0.0
  0
SPLINE
  5
28E
330
1F
100
AcDbEntity
  8
0
  6
Continuous
 62
     7
370
    35
100
AcDbSpline
210
0.0
220
0.0
230
1.0
 70
     8
 71
     3
 72
     9
 73
     5
 74
     0
 42
0.00000001
 43
0.0000000001
 40
0.0
 40
0.0
 40
0.0
 40
0.0
 40
0.2686336050555226
 40
1.0
 40
1.0
 40
1.0
 40
1.0
 10
810.5403100197719
 20
784.9853618486019
 30
0.0
 10
810.5337738725236
 20
784.8865347912933
 30
0.0
 10
810.5094427868916
 20
784.5186468746351
 30
0.0
 10
810.2729459899817
 20
784.1604576398049
 30
0.0
 10
810.0999801802103
 20
783.8984900704193
 30
0.0
  0
LINE
  5
28F
330
1F
100
AcDbEntity
  8
0
  6
Continuous
 62
     7
370
    35
100
AcDbLine
 10
810.4903100197997
 20
776.2219310212651
 30
0.0
 11
810.2204517986001
 21
775.2289346063649
 31
0.0
  0
LINE
  5
290
330
1F
100
AcDbEntity
  8
0
  6
Continuous
 62
     7
370
    35
100
AcDbLine
 10
806.3681195157
 20
775.2289346063649
 30
0.0
 11
806.0403100197998
 21
776.520413318065
 31
0.0
  0
SPLINE
  5
291
330
1F
100
AcDbEntity
  8
0
  6
Continuous
 62
     7
370
    35
100
AcDbSpline
210
0.0
220
0.0
230
1.0
 70
     8
 71
     3
 72
     9
 73
     5
 74
     0
 42
0.00000001
 43
0.0000000001
 40
0.0
 40
0.0
 40
0.0
 40
0.0
 40
0.7424486548962497
 40
1.0
 40
1.0
 40
1.0
 40
1.0
 10
806.0403100197719
 20
784.9853618486019
 30
0.0
 10
806.0896383967273
 20
785.2586374528985
 30
0.0
 10
806.156078515691
 20
785.6267108576981
 30
0.0
 10
806.4141684496776
 20
785.980988852645
 30
0.0
 10
806.4806398593338
 20
786.0722336267845
 30
0.0
  0
LINE
  5
292
330
1F
100
AcDbEntity
  8
0
  6
Continuous
 62
     7
370
    35
100
AcDbLine
 10
806.4806398592999
 20
786.0722336267651
 30
0.0
 11
810.0999801802
 21
786.0722336267651
 31
0.0
  0
SPLINE
  5
293
330
1F
100
AcDbEntity
  8
0
  6
Continuous
 62
     7
370
    35
100
AcDbSpline
210
0.0
220
0.0
230
1.0
 70
     8
 71
     3
 72
     9
 73
     5
 74
     0
 42
0.00000001
 43
0.0000000001
 40
0.0
 40
0.0
 40
0.0
 40
0.0
 40
0.9008864094035724
 40
1.0
 40
1.0
 40
1.0
 40
1.0
 10
810.0999801802103
 20
786.0722336267846
 30
0.0
 10
810.177036524853
 20
785.9817507814599
 30
0.0
 10
810.2625704432679
 20
785.881313207555
 30
0.0
 10
810.2933142492627
 20
785.7769317109458
 30
0.0
 10
810.2963613782639
 20
785.7665860860251
 30
0.0
  0
LINE
  5
294
330
1F
100
AcDbEntity
  8
0
  6
Continuous
 62
     7
370
    35
100
AcDbLine
 10
1160.203842523
 20
780.0738369059651
 30
0.0
 11
1159.8999801802
 21
778.2551910500651
 31
0.0
  0
LINE
  5
295
330
1F
100
AcDbEntity
  8
0
  6
Continuous
 62
     7
370
    35
100
AcDbLine
 10
1156.2806398593
 20
778.2551910500651
 30
0.0
 11
1159.8999801802
 21
778.2551910500651
 31
0.0
  0
LINE
  5
296
330
1F
100
AcDbEntity
  8
0
  6
Continuous
 62
     7
370
    35
100
AcDbLine
 10
1156.2806398593
 20
778.2551910500651
 30
0.0
 11
1155.8403100198
 21
781.0768405602649
 31
0.0
  0
SPLINE
  5
297
330
1F
100
AcDbEntity
  8
0
  6
Continuous
 62
     7
370
    35
100
AcDbSpline
210
0.0
220
0.0
230
1.0
 70
     8
 71
     3
 72
     9
 73
     5
 74
     0
 42
0.00000001
 43
0.0000000001
 40
0.0
 40
0.0
 40
0.0
 40
0.0
 40
0.0701997036383399
 40
1.0
 40
1.0
 40
1.0
 40
1.0
 10
1155.840310019773
 20
781.0768405602328
 30
0.0
 10
1155.840749879431
 20
781.1437295163678
 30
0.0
 10
1155.847015712978
 20
782.0965676719207
 30
0.0
 10
1156.071714686843
 20
783.0303028371063
 30
0.0
 10
1156.280639859335
 20
783.8984900704188
 30
0.0
  0
LINE
  5
298
330
1F
100
AcDbEntity
  8
0
  6
Continuous
 62
     7
370
    35
100
AcDbLine
 10
1156.2806398593
 20
783.8984900704651
 30
0.0
 11
1159.8999801802
 21
783.8984900704651
 31
0.0
  0
LINE
  5
299
330
1F
100
AcDbEntity
  8
0
  6
Continuous
 62
     7
370
    35
100
AcDbLine
 10
1159.8999801802
 20
783.8984900704651
 30
0.0
 11
1160.3403100198
 21
781.0768405602649
 31
0.0
  0
LINE
  5
29A
330
1F
100
AcDbEntity
  8
0
  6
Continuous
 62
     7
370
    35
100
AcDbLine
 10
1155.8403100198
 20
784.9853618485649
 30
0.0
 11
1155.8403100198
 21
785.358934606365
 31
0.0
  0
LINE
  5
29B
330
1F
100
AcDbEntity
  8
0
  6
Continuous
 62
     7
370
    35
100
AcDbLine
 10
1155.8403100198
 20
781.0768405602649
 30
0.0
 11
1155.8403100198
 21
784.9853618485649
 31
0.0
  0
LINE
  5
29C
330
1F
100
AcDbEntity
  8
0
  6
Continuous
 62
     7
370
    35
100
AcDbLine
 10
1155.8403100198
 20
776.520413318065
 30
0.0
 11
1155.8403100198
 21
781.0768405602649
 31
0.0
  0
LINE
  5
29D
330
1F
100
AcDbEntity
  8
0
  6
Continuous
 62
     7
370
    35
100
AcDbLine
 10
1155.8403100198
 20
775.4989346063649
 30
0.0
 11
1155.8403100198
 21
776.520413318065
 31
0.0
  0
LINE
  5
29E
330
1F
100
AcDbEntity
  8
0
  6
Continuous
 62
     7
370
    35
100
AcDbLine
 10
1154.3403100198
 20
775.9989346063649
 30
0.0
 11
1154.3403100198
 21
784.8589346063651
 31
0.0
  0
SPLINE
  5
29F
330
1F
100
AcDbEntity
  8
0
  6
Continuous
 62
     7
370
    35
100
AcDbSpline
210
0.0
220
0.0
230
1.0
 70
     8
 71
     3
 72
     9
 73
     5
 74
     0
 42
0.00000001
 43
0.0000000001
 40
0.0
 40
0.0
 40
0.0
 40
0.0
 40
0.0701997036385281
 40
1.0
 40
1.0
 40
1.0
 40
1.0
 10
1155.840310019773
 20
776.5204133180429
 30
0.0
 10
1155.840749879431
 20
776.5615373028613
 30
0.0
 10
1155.847015712978
 20
777.1473515255313
 30
0.0
 10
1156.071714686843
 20
777.7214210427781
 30
0.0
 10
1156.280639859335
 20
778.2551910500464
 30
0.0
  0
LINE
  5
2A0
330
1F
100
AcDbEntity
  8
0
  6
Continuous
 62
     7
370
    35
100
AcDbLine
 10
1159.8999801802
 20
778.2551910500651
 30
0.0
 11
1160.2903100198
 21
776.717399483465
 31
0.0
  0
SPLINE
  5
2A1
330
1F
100
AcDbEntity
  8
0
  6
Continuous
 62
     7
370
    35
100
AcDbSpline
210
0.0
220
0.0
230
1.0
 70
     8
 71
     3
 72
     9
 73
     5
 74
     0
 42
0.00000001
 43
0.0000000001
 40
0.0
 40
0.0
 40
0.0
 40
0.0
 40
0.7313663949445044
 40
1.0
 40
1.0
 40
1.0
 40
1.0
 10
1156.280639859335
 20
783.8984900704188
 30
0.0
 10
1156.107674049563
 20
784.1604576398043
 30
0.0
 10
1155.871177252653
 20
784.5186468746341
 30
0.0
 10
1155.846846167021
 20
784.886534791293
 30
0.0
 10
1155.840310019773
 20
784.9853618486013
 30
0.0
  0
SPLINE
  5
2A2
330
1F
100
AcDbEntity
  8
0
  6
Continuous
 62
     7
370
    35
100
AcDbSpline
210
0.0
220
0.0
230
1.0
 70
     8
 71
     3
 72
     9
 73
     5
 74
     0
 42
0.00000001
 43
0.0000000001
 40
0.0
 40
0.0
 40
0.0
 40
0.0
 40
0.268633605055521
 40
1.0
 40
1.0
 40
1.0
 40
1.0
 10
1160.340310019773
 20
784.9853618486013
 30
0.0
 10
1160.333773872525
 20
784.886534791293
 30
0.0
 10
1160.309442786893
 20
784.5186468746348
 30
0.0
 10
1160.072945989983
 20
784.1604576398045
 30
0.0
 10
1159.899980180211
 20
783.8984900704188
 30
0.0
  0
LINE
  5
2A3
330
1F
100
AcDbEntity
  8
0
  6
Continuous
 62
     7
370
    35
100
AcDbLine
 10
1160.2903100198
 20
776.2219310212651
 30
0.0
 11
1160.0204517986
 21
775.2289346063649
 31
0.0
  0
LINE
  5
2A4
330
1F
100
AcDbEntity
  8
0
  6
Continuous
 62
     7
370
    35
100
AcDbLine
 10
1156.1681195157
 20
775.2289346063649
 30
0.0
 11
1155.8403100198
 21
776.520413318065
 31
0.0
  0
SPLINE
  5
2A5
330
1F
100
AcDbEntity
  8
0
  6
Continuous
 62
     7
370
    35
100
AcDbSpline
210
0.0
220
0.0
230
1.0
 70
     8
 71
     3
 72
     9
 73
     5
 74
     0
 42
0.00000001
 43
0.0000000001
 40
0.0
 40
0.0
 40
0.0
 40
0.0
 40
0.7424486548962508
 40
1.0
 40
1.0
 40
1.0
 40
1.0
 10
1155.840310019773
 20
784.9853618486013
 30
0.0
 10
1155.889638396729
 20
785.2586374528982
 30
0.0
 10
1155.956078515692
 20
785.6267108576978
 30
0.0
 10
1156.214168449679
 20
785.9809888526448
 30
0.0
 10
1156.280639859335
 20
786.0722336267841
 30
0.0
  0
LINE
  5
2A6
330
1F
100
AcDbEntity
  8
0
  6
Continuous
 62
     7
370
    35
100
AcDbLine
 10
1156.2806398593
 20
786.0722336267651
 30
0.0
 11
1159.8999801802
 21
786.0722336267651
 31
0.0
  0
SPLINE
  5
2A7
330
1F
100
AcDbEntity
  8
0
  6
Continuous
 62
     7
370
    35
100
AcDbSpline
210
0.0
220
0.0
230
1.0
 70
     8
 71
     3
 72
     9
 73
     5
 74
     0
 42
0.00000001
 43
0.0000000001
 40
0.0
 40
0.0
 40
0.0
 40
0.0
 40
0.9008864094035724
 40
1.0
 40
1.0
 40
1.0
 40
1.0
 10
1159.899980180211
 20
786.0722336267842
 30
0.0
 10
1159.977036524855
 20
785.9817507814596
 30
0.0
 10
1160.062570443269
 20
785.8813132075543
 30
0.0
 10
1160.093314249264
 20
785.7769317109451
 30
0.0
 10
1160.096361378265
 20
785.7665860860246
 30
0.0
  0
SPLINE
  5
2A8
330
1F
100
AcDbEntity
  8
0
  6
Continuous
 62
     7
370
    35
100
AcDbSpline
210
0.0
220
0.0
230
1.0
 70
     8
 71
     3
 72
     9
 73
     5
 74
     0
 42
0.00000001
 43
0.0000000001
 40
0.0
 40
0.0
 40
0.0
 40
0.0
 40
0.6982884923950477
 40
1.0
 40
1.0
 40
1.0
 40
1.0
 10
492.1903100197718
 20
780.8482639836181
 30
0.0
 10
492.2315954615264
 20
781.4225253248967
 30
0.0
 10
492.2907192222705
 20
782.2449094075973
 30
0.0
 10
492.5134418726954
 20
783.0364534785359
 30
0.0
 10
492.5806398593329
 20
783.2752714335147
 30
0.0
  0
LINE
  5
2A9
330
1F
100
AcDbEntity
  8
0
  6
Continuous
 62
     7
370
    35
100
AcDbLine
 10
492.5806398593
 20
783.275271433465
 30
0.0
 11
492.1403100198
 21
784.6984398470651
 31
0.0
  0
LINE
  5
2AA
330
1F
100
AcDbEntity
  8
0
  6
Continuous
 62
     7
370
    35
100
AcDbLine
 10
496.1999801802
 20
783.275271433465
 30
0.0
 11
492.5806398593
 21
783.275271433465
 31
0.0
  0
SPLINE
  5
2AB
330
1F
100
AcDbEntity
  8
0
  6
Continuous
 62
     7
370
    35
100
AcDbSpline
210
0.0
220
0.0
230
1.0
 70
     8
 71
     3
 72
     9
 73
     5
 74
     0
 42
0.00000001
 43
0.0000000001
 40
0.0
 40
0.0
 40
0.0
 40
0.0
 40
0.2575513451038056
 40
1.0
 40
1.0
 40
1.0
 40
1.0
 10
496.1999801802093
 20
783.2752714335144
 30
0.0
 10
496.2664515898653
 20
783.0363165115755
 30
0.0
 10
496.524541523852
 20
782.1085212331513
 30
0.0
 10
496.5909816428154
 20
781.1445980655896
 30
0.0
 10
496.6403100197711
 20
780.4289346064099
 30
0.0
  0
SPLINE
  5
2AC
330
1F
100
AcDbEntity
  8
0
  6
Continuous
 62
     7
370
    35
100
AcDbSpline
210
0.0
220
0.0
230
1.0
 70
     8
 71
     3
 72
     9
 73
     5
 74
     0
 42
0.00000001
 43
0.0000000001
 40
0.0
 40
0.0
 40
0.0
 40
0.0
 40
0.2686336050555717
 40
1.0
 40
1.0
 40
1.0
 40
1.0
 10
496.6403100197711
 20
780.4289346064099
 30
0.0
 10
496.6337738725227
 20
780.1701229430858
 30
0.0
 10
496.6094427868907
 20
779.2066855381838
 30
0.0
 10
496.3729459899811
 20
778.2686473715537
 30
0.0
 10
496.1999801802093
 20
777.5825977793052
 30
0.0
  0
LINE
  5
2AD
330
1F
100
AcDbEntity
  8
0
  6
Continuous
 62
     7
370
    35
100
AcDbLine
 10
496.1999801802
 20
777.5825977792651
 30
0.0
 11
492.5806398593
 21
777.5825977792651
 31
0.0
  0
LINE
  5
2AE
330
1F
100
AcDbEntity
  8
0
  6
Continuous
 62
     7
370
    35
100
AcDbLine
 10
492.5806398593
 20
777.5825977792651
 30
0.0
 11
492.1903100198
 21
779.577266283765
 31
0.0
  0
LINE
  5
2AF
330
1F
100
AcDbEntity
  8
0
  6
Continuous
 62
     7
370
    35
100
AcDbLine
 10
496.6403100198
 20
784.6984398470651
 30
0.0
 11
496.6403100198
 21
780.4289346063649
 31
0.0
  0
SPLINE
  5
2B0
330
1F
100
AcDbEntity
  8
0
  6
Continuous
 62
     7
370
    35
100
AcDbSpline
210
0.0
220
0.0
230
1.0
 70
     8
 71
     3
 72
     9
 73
     5
 74
     0
 42
0.00000001
 43
0.0000000001
 40
0.0
 40
0.0
 40
0.0
 40
0.0
 40
0.0701997036384188
 40
1.0
 40
1.0
 40
1.0
 40
1.0
 10
496.6403100197712
 20
784.6984398470673
 30
0.0
 10
496.6398701601128
 20
784.6647027549006
 30
0.0
 10
496.6336043265644
 20
784.1841153675178
 30
0.0
 10
496.4089053527003
 20
783.7131630437376
 30
0.0
 10
496.1999801802093
 20
783.2752714335144
 30
0.0
  0
LINE
  5
2B1
330
1F
100
AcDbEntity
  8
0
  6
Continuous
 62
     7
370
    35
100
AcDbLine
 10
492.1903100198
 20
776.4042968025651
 30
0.0
 11
492.5806398593
 21
777.5825977792651
 31
0.0
  0
LINE
  5
2B2
330
1F
100
AcDbEntity
  8
0
  6
Continuous
 62
     7
370
    35
100
AcDbLine
 10
496.6403100198
 20
780.4289346063649
 30
0.0
 11
496.6403100198
 21
776.1594293657649
 31
0.0
  0
LINE
  5
2B3
330
1F
100
AcDbEntity
  8
0
  6
Continuous
 62
     7
370
    35
100
AcDbLine
 10
496.1999801802
 20
777.5825977792651
 30
0.0
 11
496.6403100198
 21
776.1594293657649
 31
0.0
  0
LINE
  5
2B4
330
1F
100
AcDbEntity
  8
0
  6
Continuous
 62
     7
370
    35
100
AcDbLine
 10
496.6403100198
 20
785.358934606365
 30
0.0
 11
496.6403100198
 21
784.6984398470651
 31
0.0
  0
LINE
  5
2B5
330
1F
100
AcDbEntity
  8
0
  6
Continuous
 62
     7
370
    35
100
AcDbLine
 10
496.6403100198
 20
776.1594293657649
 30
0.0
 11
496.6403100198
 21
775.4989346063649
 31
0.0
  0
SPLINE
  5
2B6
330
1F
100
AcDbEntity
  8
0
  6
Continuous
 62
     7
370
    35
100
AcDbSpline
210
0.0
220
0.0
230
1.0
 70
     8
 71
     3
 72
     9
 73
     5
 74
     0
 42
0.00000001
 43
0.0000000001
 40
0.0
 40
0.0
 40
0.0
 40
0.0
 40
0.0701997036384332
 40
1.0
 40
1.0
 40
1.0
 40
1.0
 10
492.1403100197713
 20
784.6984398470673
 30
0.0
 10
492.1407498794293
 20
784.7321769392338
 30
0.0
 10
492.1470157129768
 20
785.2127643266164
 30
0.0
 10
492.3717146868416
 20
785.6837166503967
 30
0.0
 10
492.5806398593332
 20
786.1216082606196
 30
0.0
  0
LINE
  5
2B7
330
1F
100
AcDbEntity
  8
0
  6
Continuous
 62
     7
370
    35
100
AcDbLine
 10
496.1999801802
 20
786.1216082606651
 30
0.0
 11
492.5806398593
 21
786.1216082606651
 31
0.0
  0
LINE
  5
2B8
330
1F
100
AcDbEntity
  8
0
  6
Continuous
 62
     7
370
    35
100
AcDbLine
 10
496.1999801802
 20
786.1216082606651
 30
0.0
 11
496.6403100198
 21
784.6984398470651
 31
0.0
  0
SPLINE
  5
2B9
330
1F
100
AcDbEntity
  8
0
  6
Continuous
 62
     7
370
    35
100
AcDbSpline
210
0.0
220
0.0
230
1.0
 70
     8
 71
     3
 72
     9
 73
     5
 74
     0
 42
0.00000001
 43
0.0000000001
 40
0.0
 40
0.0
 40
0.0
 40
0.0
 40
0.1074228024084249
 40
1.0
 40
1.0
 40
1.0
 40
1.0
 10
496.6403100197708
 20
776.1594293657528
 30
0.0
 10
496.6400604190551
 20
776.1256838812834
 30
0.0
 10
496.6377368833613
 20
775.8115468106359
 30
0.0
 10
496.4926695226011
 20
775.5037061555944
 30
0.0
 10
496.3631857042718
 20
775.2289346064126
 30
0.0
  0
LINE
  5
2BA
330
1F
100
AcDbEntity
  8
0
  6
Continuous
 62
     7
370
    35
100
AcDbLine
 10
492.4282061001998
 20
775.2289346063649
 30
0.0
 11
492.1403100198
 21
776.1594293657649
 31
0.0
  0
LINE
  5
2BB
330
1F
100
AcDbEntity
  8
0
  6
Continuous
 62
     7
370
    35
100
AcDbLine
 10
498.1403100198
 20
780.4289346063649
 30
0.0
 11
498.1403100198
 21
775.9989346063649
 31
0.0
  0
LINE
  5
2BC
330
1F
100
AcDbEntity
  8
0
  6
Continuous
 62
     7
370
    35
100
AcDbLine
 10
498.1403100198
 20
784.8589346063651
 30
0.0
 11
498.1403100198
 21
780.4289346063649
 31
0.0
  0
LINE
  5
2BD
330
1F
100
AcDbEntity
  8
0
  6
Continuous
 62
     7
370
    35
100
AcDbLine
 10
1191.8403100198
 20
785.050057570065
 30
0.0
 11
1191.8403100198
 21
775.4289346063649
 31
0.0
  0
LINE
  5
2BE
330
1F
100
AcDbEntity
  8
0
  6
Continuous
 62
     7
370
    35
100
AcDbLine
 10
1191.8403100198
 20
785.4289346063649
 30
0.0
 11
1191.8403100198
 21
785.050057570065
 31
0.0
  0
ARC
  5
2BF
330
1F
100
AcDbEntity
  8
0
  6
Continuous
 62
     7
370
    35
100
AcDbCircle
 10
1189.8557954815
 20
779.6480527496651
 30
0.0
 40
4.932349901577619
100
AcDbArc
 50
347.2183445538996
 51
12.78165544610047
  0
LWPOLYLINE
  5
2C0
330
1F
100
AcDbEntity
  8
0
  6
Continuous
 62
     7
370
    35
100
AcDbPolyline
 90
        6
 70
   128
 43
0.0
 10
1194.6659229271
 20
778.5568380555651
 10
1194.7193044869
 20
778.5184091913651
 10
1194.7575359624
 20
778.479669682965
 10
1194.780515618
 20
778.4407226181651
 10
1194.7881823037
 20
778.401671636865
 10
1194.7818010124
 20
778.366042390165
  0
ARC
  5
2C1
330
1F
100
AcDbEntity
  8
0
  6
Continuous
 62
     7
370
    35
100
AcDbCircle
 10
1191.1522748374
 20
779.182643395265
 30
0.0
 40
3.635879353572359
100
AcDbArc
 50
349.3822274205005
 51
3.38759640780005
  0
ARC
  5
2C2
330
1F
100
AcDbEntity
  8
0
  6
Continuous
 62
     7
370
    35
100
AcDbCircle
 10
1189.8606339167
 20
781.2098467339652
 30
0.0
 40
4.927540244381481
100
AcDbArc
 50
350.8813714188999
 51
2.914381265999248
  0
LWPOLYLINE
  5
2C3
330
1F
100
AcDbEntity
  8
0
  6
Continuous
 62
     7
370
    35
100
AcDbPolyline
 90
        8
 70
   128
 43
0.0
 10
1194.7259015463
 20
782.3451592606651
 10
1194.7575359624
 20
782.378199529865
 10
1194.780515618
 20
782.4171465946649
 10
1194.7881823037
 20
782.456197575965
 10
1194.780515618
 20
782.4952485571651
 10
1194.7575359624
 20
782.534195621965
 10
1194.7193044869
 20
782.572935130365
 10
1194.6659229271
 20
782.6113639945649
  0
ARC
  5
2C4
330
1F
100
AcDbEntity
  8
0
  6
Continuous
 62
     7
370
    35
100
AcDbCircle
 10
1191.1399484457
 20
781.675315719165
 30
0.0
 40
3.648106689488468
100
AcDbArc
 50
345.1324950025
 51
14.86750499749995
  0
LINE
  5
2C5
330
1F
100
AcDbEntity
  8
0
  6
Continuous
 62
     7
370
    35
100
AcDbLine
 10
1162.2903100198
 20
778.1206088802649
 30
0.0
 11
1162.3403100184
 21
777.9702014830649
 31
0.0
  0
LINE
  5
2C6
330
1F
100
AcDbEntity
  8
0
  6
Continuous
 62
     7
370
    35
100
AcDbLine
 10
460.6403100198
 20
775.4289346063649
 30
0.0
 11
460.6403100198
 21
785.4289346063649
 31
0.0
  0
LINE
  5
2C7
330
1F
100
AcDbEntity
  8
0
  6
Continuous
 62
     7
370
    35
100
AcDbLine
 10
457.6924377358999
 20
778.3839346063651
 30
0.0
 11
457.8146971124
 21
778.3839346063651
 31
0.0
  0
ARC
  5
2C8
330
1F
100
AcDbEntity
  8
0
  6
Continuous
 62
     7
370
    35
100
AcDbCircle
 10
462.0318925183998
 20
779.4064346063651
 30
0.0
 40
4.339382829621718
100
AcDbArc
 50
166.3710854932003
 51
193.6289145067997
  0
ARC
  5
2C9
330
1F
100
AcDbEntity
  8
0
  6
Continuous
 62
     7
370
    35
100
AcDbCircle
 10
462.0318925183
 20
781.4514346063649
 30
0.0
 40
4.339382829609008
100
AcDbArc
 50
166.3710854930998
 51
193.6289145067997
  0
LINE
  5
2CA
330
1F
100
AcDbEntity
  8
0
  6
Continuous
 62
     7
370
    35
100
AcDbLine
 10
457.8146971124
 20
782.4739346063651
 30
0.0
 11
457.6924377358999
 21
782.4739346063651
 31
0.0
  0
SPLINE
  5
2CB
330
1F
100
AcDbEntity
  8
0
  6
Continuous
 62
     7
370
    35
100
AcDbSpline
210
0.0
220
0.0
230
1.0
 70
     8
 71
     3
 72
     9
 73
     5
 74
     0
 42
0.00000001
 43
0.0000000001
 40
0.0
 40
0.0
 40
0.0
 40
0.0
 40
0.8205519869322305
 40
1.0
 40
1.0
 40
1.0
 40
1.0
 10
490.1903100197721
 20
783.2462454844341
 30
0.0
 10
490.173643353105
 20
783.3571104991021
 30
0.0
 10
490.153331822657
 20
783.4922207863646
 30
0.0
 10
490.1330202922088
 20
783.4046893338158
 30
0.0
 10
490.1293754284274
 20
783.3889819885748
 30
0.0
  0
SPLINE
  5
2CC
330
1F
100
AcDbEntity
  8
0
  6
Continuous
 62
     7
370
    35
100
AcDbSpline
210
0.0
220
0.0
230
1.0
 70
     8
 71
     3
 72
     9
 73
     5
 74
     0
 42
0.00000001
 43
0.0000000001
 40
0.0
 40
0.0
 40
0.0
 40
0.0
 40
0.4961437496347162
 40
1.0
 40
1.0
 40
1.0
 40
1.0
 10
490.1903100197718
 20
778.8498812026467
 30
0.0
 10
490.1736433535601
 20
779.0531173147354
 30
0.0
 10
490.1400509396196
 20
779.4627488222134
 30
0.0
 10
490.1064585256793
 20
779.9878678687186
 30
0.0
 10
490.0895327779505
 20
780.2524523824867
 30
0.0
  0
LINE
  5
2CD
330
1F
100
AcDbEntity
  8
0
  6
Continuous
 62
     7
370
    35
100
AcDbLine
 10
842.0403100197997
 20
785.050057570065
 30
0.0
 11
842.0403100197997
 21
775.4289346063649
 31
0.0
  0
LINE
  5
2CE
330
1F
100
AcDbEntity
  8
0
  6
Continuous
 62
     7
370
    35
100
AcDbLine
 10
842.0403100197997
 20
785.4289346063649
 30
0.0
 11
842.0403100197997
 21
785.050057570065
 31
0.0
  0
ARC
  5
2CF
330
1F
100
AcDbEntity
  8
0
  6
Continuous
 62
     7
370
    35
100
AcDbCircle
 10
840.0557954814999
 20
779.6480527496651
 30
0.0
 40
4.932349901587809
100
AcDbArc
 50
347.2183445538996
 51
12.78165544610047
  0
LWPOLYLINE
  5
2D0
330
1F
100
AcDbEntity
  8
0
  6
Continuous
 62
     7
370
    35
100
AcDbPolyline
 90
        6
 70
   128
 43
0.0
 10
844.8659229271001
 20
778.5568380555651
 10
844.9193044869
 20
778.5184091913651
 10
844.9575359624001
 20
778.479669682965
 10
844.980515618
 20
778.4407226181651
 10
844.9881823036999
 20
778.401671636865
 10
844.9818010124001
 20
778.366042390165
  0
ARC
  5
2D1
330
1F
100
AcDbEntity
  8
0
  6
Continuous
 62
     7
370
    35
100
AcDbCircle
 10
841.3522748379
 20
779.182643395265
 30
0.0
 40
3.635879353067957
100
AcDbArc
 50
349.3822276208007
 51
3.387596474599927
  0
ARC
  5
2D2
330
1F
100
AcDbEntity
  8
0
  6
Continuous
 62
     7
370
    35
100
AcDbCircle
 10
840.060633923
 20
781.2098467339652
 30
0.0
 40
4.927540238036534
100
AcDbArc
 50
350.8813776899992
 51
2.9143813467002
  0
LWPOLYLINE
  5
2D3
330
1F
100
AcDbEntity
  8
0
  6
Continuous
 62
     7
370
    35
100
AcDbPolyline
 90
        8
 70
   128
 43
0.0
 10
844.9259015462999
 20
782.3451592606651
 10
844.9575359624001
 20
782.378199529865
 10
844.980515618
 20
782.4171465946649
 10
844.9881823036999
 20
782.456197575965
 10
844.980515618
 20
782.4952485571651
 10
844.9575359624001
 20
782.534195621965
 10
844.9193044869
 20
782.572935130365
 10
844.8659229271001
 20
782.6113639945649
  0
ARC
  5
2D4
330
1F
100
AcDbEntity
  8
0
  6
Continuous
 62
     7
370
    35
100
AcDbCircle
 10
841.3399484457
 20
781.675315719165
 30
0.0
 40
3.648106689484671
100
AcDbArc
 50
345.1324950025
 51
14.86750499749995
  0
LINE
  5
2D5
330
1F
100
AcDbEntity
  8
0
  6
Continuous
 62
     7
370
    35
100
AcDbLine
 10
812.4903100197998
 20
778.1206088802649
 30
0.0
 11
812.5403100184
 21
777.970201483165
 31
0.0
  0
LINE
  5
2D6
330
1F
100
AcDbEntity
  8
0
  6
Continuous
 62
     7
370
    35
100
AcDbLine
 10
812.4903100197998
 20
780.4289346063649
 30
0.0
 11
810.4903100197997
 21
780.4289346063649
 31
0.0
  0
LINE
  5
2D7
330
1F
100
AcDbEntity
  8
0
  6
Continuous
 62
     7
370
    35
100
AcDbLine
 10
812.4903100197998
 20
793.1289346063651
 30
0.0
 11
810.4903100197997
 21
793.1289346063651
 31
0.0
  0
LINE
  5
2D8
330
1F
100
AcDbEntity
  8
0
  6
Continuous
 62
     7
370
    35
100
AcDbLine
 10
812.4903100197998
 20
793.1289346063651
 30
0.0
 11
812.4903100197998
 21
780.4289346063649
 31
0.0
  0
LINE
  5
2D9
330
1F
100
AcDbEntity
  8
0
  6
Continuous
 62
     7
370
    35
100
AcDbLine
 10
810.4903100197997
 20
793.1289346063651
 30
0.0
 11
810.4903100197997
 21
780.4289346063649
 31
0.0
  0
LINE
  5
2DA
330
1F
100
AcDbEntity
  8
0
  6
Continuous
 62
     7
370
    35
100
AcDbLine
 10
841.9903100197998
 20
780.4289346063649
 30
0.0
 11
839.9903100197999
 21
780.4289346063649
 31
0.0
  0
LINE
  5
2DB
330
1F
100
AcDbEntity
  8
0
  6
Continuous
 62
     7
370
    35
100
AcDbLine
 10
841.9903100197998
 20
775.2289346063649
 30
0.0
 11
841.9903100197998
 21
780.4289346063649
 31
0.0
  0
LINE
  5
2DC
330
1F
100
AcDbEntity
  8
0
  6
Continuous
 62
     7
370
    35
100
AcDbLine
 10
839.9903100197999
 20
775.2289346063649
 30
0.0
 11
839.9903100197999
 21
780.4289346063649
 31
0.0
  0
LINE
  5
2DD
330
1F
100
AcDbEntity
  8
0
  6
Continuous
 62
     7
370
    35
100
AcDbLine
 10
812.4903100197998
 20
780.4289346063649
 30
0.0
 11
812.4903100197998
 21
775.2289346063649
 31
0.0
  0
LINE
  5
2DE
330
1F
100
AcDbEntity
  8
0
  6
Continuous
 62
     7
370
    35
100
AcDbLine
 10
810.4903100197997
 20
780.4289346063649
 30
0.0
 11
810.4903100197997
 21
775.2289346063649
 31
0.0
  0
LINE
  5
2DF
330
1F
100
AcDbEntity
  8
0
  6
Continuous
 62
     7
370
    35
100
AcDbLine
 10
841.9903100197998
 20
793.1289346063651
 30
0.0
 11
839.9903100197999
 21
793.1289346063651
 31
0.0
  0
LINE
  5
2E0
330
1F
100
AcDbEntity
  8
0
  6
Continuous
 62
     7
370
    35
100
AcDbLine
 10
841.9903100197998
 20
793.1289346063651
 30
0.0
 11
841.9903100197998
 21
780.4289346063649
 31
0.0
  0
LINE
  5
2E1
330
1F
100
AcDbEntity
  8
0
  6
Continuous
 62
     7
370
    35
100
AcDbLine
 10
839.9903100197999
 20
793.1289346063651
 30
0.0
 11
839.9903100197999
 21
780.4289346063649
 31
0.0
  0
LINE
  5
2E2
330
1F
100
AcDbEntity
  8
0
  6
Continuous
 62
     7
370
    35
100
AcDbLine
 10
464.6903100198001
 20
737.1289346063649
 30
0.0
 11
460.6903100198
 21
737.1289346063649
 31
0.0
  0
LINE
  5
2E3
330
1F
100
AcDbEntity
  8
0
  6
Continuous
 62
     7
370
    35
100
AcDbLine
 10
460.6903100198
 20
762.5289346063651
 30
0.0
 11
460.6903100198
 21
737.1289346063649
 31
0.0
  0
LINE
  5
2E4
330
1F
100
AcDbEntity
  8
0
  6
Continuous
 62
     7
370
    35
100
AcDbLine
 10
464.9403100198
 20
737.1289346063649
 30
0.0
 11
464.6903100198001
 21
737.1289346063649
 31
0.0
  0
LINE
  5
2E5
330
1F
100
AcDbEntity
  8
0
  6
Continuous
 62
     7
370
    35
100
AcDbLine
 10
462.6903100198
 20
780.4289346063649
 30
0.0
 11
460.6903100198
 21
780.4289346063649
 31
0.0
  0
LINE
  5
2E6
330
1F
100
AcDbEntity
  8
0
  6
Continuous
 62
     7
370
    35
100
AcDbLine
 10
462.6903100198
 20
793.1289346063651
 30
0.0
 11
460.6903100198
 21
793.1289346063651
 31
0.0
  0
LINE
  5
2E7
330
1F
100
AcDbEntity
  8
0
  6
Continuous
 62
     7
370
    35
100
AcDbLine
 10
462.6903100198
 20
793.1289346063651
 30
0.0
 11
462.6903100198
 21
780.4289346063649
 31
0.0
  0
LINE
  5
2E8
330
1F
100
AcDbEntity
  8
0
  6
Continuous
 62
     7
370
    35
100
AcDbLine
 10
460.6903100198
 20
793.1289346063651
 30
0.0
 11
460.6903100198
 21
780.4289346063649
 31
0.0
  0
LINE
  5
2E9
330
1F
100
AcDbEntity
  8
0
  6
Continuous
 62
     7
370
    35
100
AcDbLine
 10
462.6903100198
 20
780.4289346063649
 30
0.0
 11
462.6903100198
 21
775.2289346063649
 31
0.0
  0
LINE
  5
2EA
330
1F
100
AcDbEntity
  8
0
  6
Continuous
 62
     7
370
    35
100
AcDbLine
 10
460.6903100198
 20
780.4289346063649
 30
0.0
 11
460.6903100198
 21
775.2289346063649
 31
0.0
  0
LINE
  5
2EB
330
1F
100
AcDbEntity
  8
0
  6
Continuous
 62
     7
370
    35
100
AcDbLine
 10
492.1903100198
 20
780.4289346063649
 30
0.0
 11
490.1903100198
 21
780.4289346063649
 31
0.0
  0
LINE
  5
2EC
330
1F
100
AcDbEntity
  8
0
  6
Continuous
 62
     7
370
    35
100
AcDbLine
 10
492.1903100198
 20
775.2289346063649
 30
0.0
 11
492.1903100198
 21
780.4289346063649
 31
0.0
  0
LINE
  5
2ED
330
1F
100
AcDbEntity
  8
0
  6
Continuous
 62
     7
370
    35
100
AcDbLine
 10
490.1903100198
 20
775.2289346063649
 30
0.0
 11
490.1903100198
 21
780.4289346063649
 31
0.0
  0
LINE
  5
2EE
330
1F
100
AcDbEntity
  8
0
  6
Continuous
 62
     7
370
    35
100
AcDbLine
 10
492.1903100198
 20
793.1289346063651
 30
0.0
 11
490.1903100198
 21
793.1289346063651
 31
0.0
  0
LINE
  5
2EF
330
1F
100
AcDbEntity
  8
0
  6
Continuous
 62
     7
370
    35
100
AcDbLine
 10
492.1903100198
 20
793.1289346063651
 30
0.0
 11
492.1903100198
 21
780.4289346063649
 31
0.0
  0
LINE
  5
2F0
330
1F
100
AcDbEntity
  8
0
  6
Continuous
 62
     7
370
    35
100
AcDbLine
 10
490.1903100198
 20
793.1289346063651
 30
0.0
 11
490.1903100198
 21
780.4289346063649
 31
0.0
  0
LINE
  5
2F1
330
1F
100
AcDbEntity
  8
0
  6
Continuous
 62
     7
370
    35
100
AcDbLine
 10
1191.7903100198
 20
737.1289346063649
 30
0.0
 11
1187.7903100198
 21
737.1289346063649
 31
0.0
  0
LINE
  5
2F2
330
1F
100
AcDbEntity
  8
0
  6
Continuous
 62
     7
370
    35
100
AcDbLine
 10
1191.7903100198
 20
762.5289346063651
 30
0.0
 11
1191.7903100198
 21
737.1289346063649
 31
0.0
  0
LINE
  5
2F3
330
1F
100
AcDbEntity
  8
0
  6
Continuous
 62
     7
370
    35
100
AcDbLine
 10
1187.7903100198
 20
737.1289346063649
 30
0.0
 11
1187.5403100198
 21
737.1289346063649
 31
0.0
  0
LINE
  5
2F4
330
1F
100
AcDbEntity
  8
0
  6
Continuous
 62
     7
370
    35
100
AcDbLine
 10
1162.2903100198
 20
780.4289346063649
 30
0.0
 11
1160.2903100198
 21
780.4289346063649
 31
0.0
  0
LINE
  5
2F5
330
1F
100
AcDbEntity
  8
0
  6
Continuous
 62
     7
370
    35
100
AcDbLine
 10
1162.2903100198
 20
793.1289346063651
 30
0.0
 11
1160.2903100198
 21
793.1289346063651
 31
0.0
  0
LINE
  5
2F6
330
1F
100
AcDbEntity
  8
0
  6
Continuous
 62
     7
370
    35
100
AcDbLine
 10
1162.2903100198
 20
793.1289346063651
 30
0.0
 11
1162.2903100198
 21
780.4289346063649
 31
0.0
  0
LINE
  5
2F7
330
1F
100
AcDbEntity
  8
0
  6
Continuous
 62
     7
370
    35
100
AcDbLine
 10
1160.2903100198
 20
793.1289346063651
 30
0.0
 11
1160.2903100198
 21
780.4289346063649
 31
0.0
  0
LINE
  5
2F8
330
1F
100
AcDbEntity
  8
0
  6
Continuous
 62
     7
370
    35
100
AcDbLine
 10
1162.2903100198
 20
780.4289346063649
 30
0.0
 11
1162.2903100198
 21
775.2289346063649
 31
0.0
  0
LINE
  5
2F9
330
1F
100
AcDbEntity
  8
0
  6
Continuous
 62
     7
370
    35
100
AcDbLine
 10
1160.2903100198
 20
780.4289346063649
 30
0.0
 11
1160.2903100198
 21
775.2289346063649
 31
0.0
  0
LINE
  5
2FA
330
1F
100
AcDbEntity
  8
0
  6
Continuous
 62
     7
370
    35
100
AcDbLine
 10
1191.7903100198
 20
780.4289346063649
 30
0.0
 11
1189.7903100198
 21
780.4289346063649
 31
0.0
  0
LINE
  5
2FB
330
1F
100
AcDbEntity
  8
0
  6
Continuous
 62
     7
370
    35
100
AcDbLine
 10
1191.7903100198
 20
775.2289346063649
 30
0.0
 11
1191.7903100198
 21
780.4289346063649
 31
0.0
  0
LINE
  5
2FC
330
1F
100
AcDbEntity
  8
0
  6
Continuous
 62
     7
370
    35
100
AcDbLine
 10
1189.7903100198
 20
775.2289346063649
 30
0.0
 11
1189.7903100198
 21
780.4289346063649
 31
0.0
  0
LINE
  5
2FD
330
1F
100
AcDbEntity
  8
0
  6
Continuous
 62
     7
370
    35
100
AcDbLine
 10
1191.7903100198
 20
793.1289346063651
 30
0.0
 11
1189.7903100198
 21
793.1289346063651
 31
0.0
  0
LINE
  5
2FE
330
1F
100
AcDbEntity
  8
0
  6
Continuous
 62
     7
370
    35
100
AcDbLine
 10
1191.7903100198
 20
793.1289346063651
 30
0.0
 11
1191.7903100198
 21
780.4289346063649
 31
0.0
  0
LINE
  5
2FF
330
1F
100
AcDbEntity
  8
0
  6
Continuous
 62
     7
370
    35
100
AcDbLine
 10
1189.7903100198
 20
793.1289346063651
 30
0.0
 11
1189.7903100198
 21
780.4289346063649
 31
0.0
  0
LINE
  5
300
330
1F
100
AcDbEntity
  8
0
  6
Continuous
 62
     7
370
    35
100
AcDbLine
 10
1088.0403100198
 20
762.5289346063651
 30
0.0
 11
1088.0403100198
 21
761.3289346063651
 31
0.0
  0
ARC
  5
301
330
1F
100
AcDbEntity
  8
0
  6
Continuous
 62
     7
370
    35
100
AcDbCircle
 10
1187.5403100198
 20
761.3289346063651
 30
0.0
 40
1.200000000000043
100
AcDbArc
 50
0.0
 51
90.0
  0
LINE
  5
302
330
1F
100
AcDbEntity
  8
0
  6
Continuous
 62
     7
370
    35
100
AcDbLine
 10
1088.0403100198
 20
761.3289346063651
 30
0.0
 11
1188.7403100198
 21
761.3289346063651
 31
0.0
  0
LINE
  5
303
330
1F
100
AcDbEntity
  8
0
  6
Continuous
 62
     7
370
    35
100
AcDbLine
 10
564.4403100197998
 20
761.3289346063651
 30
0.0
 11
564.4403100197998
 21
738.3289346063651
 31
0.0
  0
LINE
  5
304
330
1F
100
AcDbEntity
  8
0
  6
Continuous
 62
     7
370
    35
100
AcDbLine
 10
564.4403100197998
 20
761.3289346063651
 30
0.0
 11
1088.0403100198
 21
761.3289346063651
 31
0.0
  0
LINE
  5
305
330
1F
100
AcDbEntity
  8
0
  6
Continuous
 62
     7
370
    35
100
AcDbLine
 10
1088.0403100198
 20
761.3289346063651
 30
0.0
 11
1088.0403100198
 21
738.3289346063651
 31
0.0
  0
LINE
  5
306
330
1F
100
AcDbEntity
  8
0
  6
Continuous
 62
     7
370
    35
100
AcDbLine
 10
564.4403100197998
 20
738.3289346063651
 30
0.0
 11
1088.0403100198
 21
738.3289346063651
 31
0.0
  0
LINE
  5
307
330
1F
100
AcDbEntity
  8
0
  6
Continuous
 62
     7
370
    35
100
AcDbLine
 10
564.4403100197998
 20
737.1289346063649
 30
0.0
 11
1088.0403100198
 21
737.1289346063649
 31
0.0
  0
LINE
  5
308
330
1F
100
AcDbEntity
  8
0
  6
Continuous
 62
     7
370
    35
100
AcDbLine
 10
564.4403100197998
 20
738.3289346063651
 30
0.0
 11
564.4403100197998
 21
737.1289346063649
 31
0.0
  0
LINE
  5
309
330
1F
100
AcDbEntity
  8
0
  6
Continuous
 62
     7
370
    35
100
AcDbLine
 10
1088.0403100198
 20
738.3289346063651
 30
0.0
 11
1088.0403100198
 21
737.1289346063649
 31
0.0
  0
LINE
  5
30A
330
1F
100
AcDbEntity
  8
0
  6
Continuous
 62
     7
370
    35
100
AcDbLine
 10
463.7403100198
 20
761.3289346063651
 30
0.0
 11
463.7403100198
 21
738.3289346063651
 31
0.0
  0
LINE
  5
30B
330
1F
100
AcDbEntity
  8
0
  6
Continuous
 62
     7
370
    35
100
AcDbLine
 10
463.7403100198
 20
761.3289346063651
 30
0.0
 11
564.4403100197998
 21
761.3289346063651
 31
0.0
  0
LINE
  5
30C
330
1F
100
AcDbEntity
  8
0
  6
Continuous
 62
     7
370
    35
100
AcDbLine
 10
463.7403100198
 20
738.3289346063651
 30
0.0
 11
564.4403100197998
 21
738.3289346063651
 31
0.0
  0
ARC
  5
30D
330
1F
100
AcDbEntity
  8
0
  6
Continuous
 62
     7
370
    35
100
AcDbCircle
 10
464.9403100198
 20
761.3289346063651
 30
0.0
 40
1.200000000000043
100
AcDbArc
 50
90.0
 51
180.0
  0
LINE
  5
30E
330
1F
100
AcDbEntity
  8
0
  6
Continuous
 62
     7
370
    35
100
AcDbLine
 10
564.4403100197998
 20
762.5289346063651
 30
0.0
 11
564.4403100197998
 21
761.3289346063651
 31
0.0
  0
LINE
  5
30F
330
1F
100
AcDbEntity
  8
0
  6
Continuous
 62
     7
370
    35
100
AcDbLine
 10
1188.7403100198
 20
761.3289346063651
 30
0.0
 11
1188.7403100198
 21
738.3289346063651
 31
0.0
  0
LINE
  5
310
330
1F
100
AcDbEntity
  8
0
  6
Continuous
 62
     7
370
    35
100
AcDbLine
 10
1088.0403100198
 20
738.3289346063651
 30
0.0
 11
1188.7403100198
 21
738.3289346063651
 31
0.0
  0
LINE
  5
311
330
1F
100
AcDbEntity
  8
0
  6
Continuous
 62
     7
370
    35
100
AcDbLine
 10
464.9403100198
 20
737.1289346063649
 30
0.0
 11
564.4403100197998
 21
737.1289346063649
 31
0.0
  0
ARC
  5
312
330
1F
100
AcDbEntity
  8
0
  6
Continuous
 62
     7
370
    35
100
AcDbCircle
 10
464.9403100198
 20
738.3289346063651
 30
0.0
 40
1.199999999999989
100
AcDbArc
 50
180.0
 51
270.0
  0
LINE
  5
313
330
1F
100
AcDbEntity
  8
0
  6
Continuous
 62
     7
370
    35
100
AcDbLine
 10
1088.0403100198
 20
737.1289346063649
 30
0.0
 11
1187.5403100198
 21
737.1289346063649
 31
0.0
  0
ARC
  5
314
330
1F
100
AcDbEntity
  8
0
  6
Continuous
 62
     7
370
    35
100
AcDbCircle
 10
1187.5403100198
 20
738.3289346063651
 30
0.0
 40
1.199999999999932
100
AcDbArc
 50
270.0
 51
0.0
  0
SPLINE
  5
315
330
1F
100
AcDbEntity
  8
0
  6
Continuous
 62
     7
370
    35
100
AcDbSpline
210
0.0
220
0.0
230
1.0
 70
     8
 71
     3
 72
    10
 73
     6
 74
     0
 42
0.00000001
 43
0.0000000001
 40
0.0
 40
0.0
 40
0.0
 40
0.0
 40
0.3434584622114946
 40
0.6868667913206722
 40
1.0
 40
1.0
 40
1.0
 40
1.0
 10
1165.240310019773
 20
498.8098163101455
 30
0.0
 10
1167.713114492936
 20
498.7772092602283
 30
0.0
 10
1172.658362495005
 20
498.7119999198997
 30
0.0
 10
1179.858950333026
 20
498.7176559361112
 30
0.0
 10
1184.585847306766
 20
498.7800553140308
 30
0.0
 10
1186.840310019773
 20
498.8098162907594
 30
0.0
  0
LINE
  5
316
330
1F
100
AcDbEntity
  8
0
  6
Continuous
 62
     7
370
    35
100
AcDbLine
 10
1186.8403100198
 20
498.8098162907651
 30
0.0
 11
1186.8522553114
 21
497.810125612065
 31
0.0
  0
SPLINE
  5
317
330
1F
100
AcDbEntity
  8
0
  6
Continuous
 62
     7
370
    35
100
AcDbSpline
210
0.0
220
0.0
230
1.0
 70
     8
 71
     3
 72
    10
 73
     6
 74
     0
 42
0.00000001
 43
0.0000000001
 40
0.0
 40
0.0
 40
0.0
 40
0.0
 40
0.3129968947762798
 40
0.6566599615563053
 40
1.0
 40
1.0
 40
1.0
 40
1.0
 10
1186.852255311397
 20
497.8101256120985
 30
0.0
 10
1184.596373441661
 20
497.782221032478
 30
0.0
 10
1179.863587504872
 20
497.723677895192
 30
0.0
 10
1172.654474473458
 20
497.7188249041767
 30
0.0
 10
1167.70295859276
 20
497.7797015969939
 30
0.0
 10
1165.228364751907
 20
497.8101256313152
 30
0.0
  0
LINE
  5
318
330
1F
100
AcDbEntity
  8
0
  6
Continuous
 62
     7
370
    35
100
AcDbLine
 10
1165.2403100198
 20
498.809816310165
 30
0.0
 11
1165.2283647519
 21
497.810125631365
 31
0.0
  0
SPLINE
  5
319
330
1F
100
AcDbEntity
  8
0
  6
Continuous
 62
     7
370
    35
100
AcDbSpline
210
0.0
220
0.0
230
1.0
 70
     8
 71
     3
 72
    12
 73
     8
 74
     0
 42
0.00000001
 43
0.0000000001
 40
0.0
 40
0.0
 40
0.0
 40
0.0
 40
0.1413047294169369
 40
0.3559825851801742
 40
0.5706600344457135
 40
0.7853324456801556
 40
1.0
 40
1.0
 40
1.0
 40
1.0
 10
1163.240310019773
 20
498.8098162907594
 30
0.0
 10
1163.250019158732
 20
498.8105868603193
 30
0.0
 10
1163.274478951415
 20
498.8125281212037
 30
0.0
 10
1163.514223095796
 20
498.8137892843734
 30
0.0
 10
1163.966537855335
 20
498.8139798833568
 30
0.0
 10
1164.565848725431
 20
498.8130989238662
 30
0.0
 10
1165.015491283855
 20
498.8109105064669
 30
0.0
 10
1165.240310019773
 20
498.8098163101455
 30
0.0
  0
SPLINE
  5
31A
330
1F
100
AcDbEntity
  8
0
  6
Continuous
 62
     7
370
    35
100
AcDbSpline
210
0.0
220
0.0
230
1.0
 70
     8
 71
     3
 72
    12
 73
     8
 74
     0
 42
0.00000001
 43
0.0000000001
 40
0.0
 40
0.0
 40
0.0
 40
0.0
 40
0.2139882661241685
 40
0.4290941048681039
 40
0.6444975027877266
 40
0.8593094884486209
 40
1.0
 40
1.0
 40
1.0
 40
1.0
 10
1165.228364751907
 20
497.8101256313152
 30
0.0
 10
1165.115808826007
 20
497.8111939551807
 30
0.0
 10
1164.890109140942
 20
497.8133361823273
 30
0.0
 10
1164.589774628204
 20
497.8141815232415
 30
0.0
 10
1164.36163842325
 20
497.8139979220482
 30
0.0
 10
1164.238710679965
 20
497.8127805927262
 30
0.0
 10
1164.224227577043
 20
497.8108784050159
 30
0.0
 10
1164.218495872836
 20
497.8101256120985
 30
0.0
  0
ARC
  5
31B
330
1F
100
AcDbEntity
  8
0
  6
Continuous
 62
     7
370
    35
100
AcDbCircle
 10
1164.240272493699
 20
498.8098509390651
 30
0.0
 40
0.9999624745651164
100
AcDbArc
 50
180.0019852745001
 51
268.7521460606
  0
LINE
  5
31C
330
1F
100
AcDbEntity
  8
0
  6
Continuous
 62
     7
370
    35
100
AcDbLine
 10
1165.2403100198
 20
502.4289346063651
 30
0.0
 11
1165.2403100198
 21
498.809816310165
 31
0.0
  0
LINE
  5
31D
330
1F
100
AcDbEntity
  8
0
  6
Continuous
 62
     7
370
    35
100
AcDbLine
 10
1163.2403100198
 20
502.4289346063651
 30
0.0
 11
1163.2403100198
 21
498.8098162907651
 31
0.0
  0
LINE
  5
31E
330
1F
100
AcDbEntity
  8
0
  6
Continuous
 62
     7
370
    35
100
AcDbLine
 10
1163.2403100198
 20
502.4289346063651
 30
0.0
 11
1163.3403100198
 21
502.4289346063651
 31
0.0
  0
LINE
  5
31F
330
1F
100
AcDbEntity
  8
0
  6
Continuous
 62
     7
370
    35
100
AcDbLine
 10
1164.6158102199
 20
502.4289346063651
 30
0.0
 11
1165.2403100198
 21
502.4289346063651
 31
0.0
  0
SPLINE
  5
320
330
1F
100
AcDbEntity
  8
0
  6
Continuous
 62
     7
370
    35
100
AcDbSpline
210
0.0
220
0.0
230
1.0
 70
    24
 71
     3
 72
    12
 73
     8
 74
     0
 42
0.00000001
 43
0.0000000001
 40
0.0
 40
0.0
 40
0.0
 40
0.0
 40
0.2727207401127957
 40
0.600045521214304
 40
0.9273703023158056
 40
0.9939282077172983
 40
1.0
 40
1.0
 40
1.0
 40
1.0
 10
1168.449964282327
 20
508.8789346064118
 30
0.0
 10
1169.920743186112
 20
508.8789346064118
 30
0.0
 10
1173.156779776317
 20
508.8789346064118
 30
0.0
 10
1178.162928585985
 20
508.8789346064118
 30
0.0
 10
1182.041063830616
 20
508.8789346064117
 30
0.0
 10
1184.210512077577
 20
508.8789346064118
 30
0.0
 10
1184.597840916658
 20
508.8789346064118
 30
0.0
 10
1184.630221338593
 20
508.8789346064118
 30
0.0
  0
LINE
  5
321
330
1F
100
AcDbEntity
  8
0
  6
Continuous
 62
     7
370
    35
100
AcDbLine
 10
1186.8403100198
 20
502.4289346063651
 30
0.0
 11
1186.8403100198
 21
498.8098162907651
 31
0.0
  0
LINE
  5
322
330
1F
100
AcDbEntity
  8
0
  6
Continuous
 62
     7
370
    35
100
AcDbLine
 10
1165.2403100198
 20
502.4289346063651
 30
0.0
 11
1186.8403100198
 21
502.4289346063651
 31
0.0
  0
LINE
  5
323
330
1F
100
AcDbEntity
  8
0
  6
Continuous
 62
     7
370
    35
100
AcDbLine
 10
1188.8403100198
 20
502.4289346063651
 30
0.0
 11
1188.8403100198
 21
498.809816310165
 31
0.0
  0
SPLINE
  5
324
330
1F
100
AcDbEntity
  8
0
  6
Continuous
 62
     7
370
    35
100
AcDbSpline
210
0.0
220
0.0
230
1.0
 70
     8
 71
     3
 72
    12
 73
     8
 74
     0
 42
0.00000001
 43
0.0000000001
 40
0.0
 40
0.0
 40
0.0
 40
0.0
 40
0.1413047294170175
 40
0.3559825851801554
 40
0.5706600344456984
 40
0.7853324456800789
 40
1.0
 40
1.0
 40
1.0
 40
1.0
 10
1186.840310019773
 20
498.8098162907594
 30
0.0
 10
1186.987830464023
 20
498.8105868603192
 30
0.0
 10
1187.359472017195
 20
498.8125281212035
 30
0.0
 10
1187.921839119409
 20
498.8137892843734
 30
0.0
 10
1188.429252515556
 20
498.8139798833565
 30
0.0
 10
1188.774000185145
 20
498.8130989238664
 30
0.0
 10
1188.81820690826
 20
498.8109105064672
 30
0.0
 10
1188.840310019773
 20
498.8098163101456
 30
0.0
  0
LINE
  5
325
330
1F
100
AcDbEntity
  8
0
  6
Continuous
 62
     7
370
    35
100
AcDbLine
 10
1186.8403100198
 20
502.4289346063651
 30
0.0
 11
1187.4648098196
 21
502.4289346063651
 31
0.0
  0
LINE
  5
326
330
1F
100
AcDbEntity
  8
0
  6
Continuous
 62
     7
370
    35
100
AcDbLine
 10
1188.7403100198
 20
502.4289346063651
 30
0.0
 11
1188.8403100198
 21
502.4289346063651
 31
0.0
  0
ARC
  5
327
330
1F
100
AcDbEntity
  8
0
  6
Continuous
 62
     7
370
    35
100
AcDbCircle
 10
1187.8403475457
 20
498.809850958265
 30
0.0
 40
0.9999624747140416
100
AcDbArc
 50
271.2478542482
 51
359.9980147333994
  0
SPLINE
  5
328
330
1F
100
AcDbEntity
  8
0
  6
Continuous
 62
     7
370
    35
100
AcDbSpline
210
0.0
220
0.0
230
1.0
 70
     8
 71
     3
 72
    12
 73
     8
 74
     0
 42
0.00000001
 43
0.0000000001
 40
0.0
 40
0.0
 40
0.0
 40
0.0
 40
0.2139882661242253
 40
0.4290941048682412
 40
0.6444975027878094
 40
0.8593094884487488
 40
1.0
 40
1.0
 40
1.0
 40
1.0
 10
1187.862124171953
 20
497.8101256313152
 30
0.0
 10
1187.849717816424
 20
497.8111939551806
 30
0.0
 10
1187.824840312078
 20
497.8133361823267
 30
0.0
 10
1187.649581746369
 20
497.814181523242
 30
0.0
 10
1187.394342170469
 20
497.8139979220479
 30
0.0
 10
1187.112574517135
 20
497.8127805927262
 30
0.0
 10
1186.926066190581
 20
497.8108784050159
 30
0.0
 10
1186.852255311397
 20
497.8101256120985
 30
0.0
  0
SPLINE
  5
329
330
1F
100
AcDbEntity
  8
0
  6
Continuous
 62
     7
370
    35
100
AcDbSpline
210
0.0
220
0.0
230
1.0
 70
    24
 71
     3
 72
     9
 73
     5
 74
     0
 42
0.00000001
 43
0.0000000001
 40
0.0
 40
0.0
 40
0.0
 40
0.0
 40
0.374607387161443
 40
1.0
 40
1.0
 40
1.0
 40
1.0
 10
1163.240310019773
 20
498.7313640989289
 30
0.0
 10
1163.240310019773
 20
498.729521225032
 30
0.0
 10
1163.240310019772
 20
498.7246017441028
 30
0.0
 10
1163.240310019773
 20
498.7770287983318
 30
0.0
 10
1163.240310019773
 20
498.8098162907594
 30
0.0
  0
SPLINE
  5
32A
330
1F
100
AcDbEntity
  8
0
  6
Continuous
 62
     7
370
    35
100
AcDbSpline
210
0.0
220
0.0
230
1.0
 70
    24
 71
     3
 72
     9
 73
     5
 74
     0
 42
0.00000001
 43
0.0000000001
 40
0.0
 40
0.0
 40
0.0
 40
0.0
 40
0.6878780341682283
 40
1.0
 40
1.0
 40
1.0
 40
1.0
 10
1188.840310019773
 20
498.8098163101456
 30
0.0
 10
1188.840310019773
 20
498.7732049677892
 30
0.0
 10
1188.840310019773
 20
498.7199813721254
 30
0.0
 10
1188.840310019773
 20
498.7286564245214
 30
0.0
 10
1188.840310019773
 20
498.7313640989289
 30
0.0
  0
SPLINE
  5
32B
330
1F
100
AcDbEntity
  8
0
  6
Continuous
 62
     7
370
    35
100
AcDbSpline
210
0.0
220
0.0
230
1.0
 70
     8
 71
     3
 72
    10
 73
     6
 74
     0
 42
0.00000001
 43
0.0000000001
 40
0.0
 40
0.0
 40
0.0
 40
0.0
 40
0.3434584622114936
 40
0.6868667913206702
 40
1.0
 40
1.0
 40
1.0
 40
1.0
 10
815.4403100197795
 20
498.8098163101481
 30
0.0
 10
817.913114492943
 20
498.7772092602309
 30
0.0
 10
822.8583624950122
 20
498.7119999199022
 30
0.0
 10
830.0589503330325
 20
498.7176559361139
 30
0.0
 10
834.7858473067732
 20
498.7800553140334
 30
0.0
 10
837.0403100197798
 20
498.809816290762
 30
0.0
  0
LINE
  5
32C
330
1F
100
AcDbEntity
  8
0
  6
Continuous
 62
     7
370
    35
100
AcDbLine
 10
837.0403100197998
 20
498.8098162907651
 30
0.0
 11
837.0522553114
 21
497.810125612065
 31
0.0
  0
SPLINE
  5
32D
330
1F
100
AcDbEntity
  8
0
  6
Continuous
 62
     7
370
    35
100
AcDbSpline
210
0.0
220
0.0
230
1.0
 70
     8
 71
     3
 72
    10
 73
     6
 74
     0
 42
0.00000001
 43
0.0000000001
 40
0.0
 40
0.0
 40
0.0
 40
0.0
 40
0.3129968947762781
 40
0.6566599615563045
 40
1.0
 40
1.0
 40
1.0
 40
1.0
 10
837.0522553114035
 20
497.8101256121012
 30
0.0
 10
834.7963734416682
 20
497.7822210324805
 30
0.0
 10
830.0635875048781
 20
497.7236778951946
 30
0.0
 10
822.854474473465
 20
497.7188249041794
 30
0.0
 10
817.9029585927667
 20
497.7797015969964
 30
0.0
 10
815.428364751914
 20
497.8101256313179
 30
0.0
  0
LINE
  5
32E
330
1F
100
AcDbEntity
  8
0
  6
Continuous
 62
     7
370
    35
100
AcDbLine
 10
815.4403100197997
 20
498.809816310165
 30
0.0
 11
815.4283647519001
 21
497.810125631365
 31
0.0
  0
SPLINE
  5
32F
330
1F
100
AcDbEntity
  8
0
  6
Continuous
 62
     7
370
    35
100
AcDbSpline
210
0.0
220
0.0
230
1.0
 70
     8
 71
     3
 72
    12
 73
     8
 74
     0
 42
0.00000001
 43
0.0000000001
 40
0.0
 40
0.0
 40
0.0
 40
0.0
 40
0.1413047294169377
 40
0.3559825851801828
 40
0.5706600344457115
 40
0.7853324456801545
 40
1.0
 40
1.0
 40
1.0
 40
1.0
 10
813.4403100197795
 20
498.809816290762
 30
0.0
 10
813.4500191587385
 20
498.8105868603219
 30
0.0
 10
813.4744789514215
 20
498.8125281212062
 30
0.0
 10
813.7142230958032
 20
498.813789284376
 30
0.0
 10
814.1665378553421
 20
498.8139798833594
 30
0.0
 10
814.7658487254386
 20
498.8130989238689
 30
0.0
 10
815.215491283862
 20
498.8109105064696
 30
0.0
 10
815.4403100197795
 20
498.8098163101481
 30
0.0
  0
SPLINE
  5
330
330
1F
100
AcDbEntity
  8
0
  6
Continuous
 62
     7
370
    35
100
AcDbSpline
210
0.0
220
0.0
230
1.0
 70
     8
 71
     3
 72
    12
 73
     8
 74
     0
 42
0.00000001
 43
0.0000000001
 40
0.0
 40
0.0
 40
0.0
 40
0.0
 40
0.2139882661241685
 40
0.4290941048681039
 40
0.6444975027877266
 40
0.8593094884486209
 40
1.0
 40
1.0
 40
1.0
 40
1.0
 10
815.428364751914
 20
497.8101256313179
 30
0.0
 10
815.3158088260139
 20
497.8111939551832
 30
0.0
 10
815.0901091409489
 20
497.8133361823297
 30
0.0
 10
814.789774628211
 20
497.8141815232442
 30
0.0
 10
814.5616384232566
 20
497.8139979220507
 30
0.0
 10
814.4387106799722
 20
497.8127805927289
 30
0.0
 10
814.4242275770499
 20
497.8108784050185
 30
0.0
 10
814.4184958728425
 20
497.8101256121012
 30
0.0
  0
ARC
  5
331
330
1F
100
AcDbEntity
  8
0
  6
Continuous
 62
     7
370
    35
100
AcDbCircle
 10
814.4402724936998
 20
498.8098509390651
 30
0.0
 40
0.9999624745649471
100
AcDbArc
 50
180.0019852745001
 51
268.7521460606
  0
LINE
  5
332
330
1F
100
AcDbEntity
  8
0
  6
Continuous
 62
     7
370
    35
100
AcDbLine
 10
815.4403100197997
 20
502.4289346063651
 30
0.0
 11
815.4403100197997
 21
498.809816310165
 31
0.0
  0
LINE
  5
333
330
1F
100
AcDbEntity
  8
0
  6
Continuous
 62
     7
370
    35
100
AcDbLine
 10
813.4403100197998
 20
502.4289346063651
 30
0.0
 11
813.4403100197998
 21
498.8098162907651
 31
0.0
  0
LINE
  5
334
330
1F
100
AcDbEntity
  8
0
  6
Continuous
 62
     7
370
    35
100
AcDbLine
 10
813.4403100197998
 20
502.4289346063651
 30
0.0
 11
813.5403100197997
 21
502.4289346063651
 31
0.0
  0
LINE
  5
335
330
1F
100
AcDbEntity
  8
0
  6
Continuous
 62
     7
370
    35
100
AcDbLine
 10
814.8158102199001
 20
502.4289346063651
 30
0.0
 11
815.4403100197997
 21
502.4289346063651
 31
0.0
  0
LINE
  5
336
330
1F
100
AcDbEntity
  8
0
  6
Continuous
 62
     7
370
    35
100
AcDbLine
 10
837.0403100197998
 20
502.4289346063651
 30
0.0
 11
837.0403100197998
 21
498.8098162907651
 31
0.0
  0
LINE
  5
337
330
1F
100
AcDbEntity
  8
0
  6
Continuous
 62
     7
370
    35
100
AcDbLine
 10
815.4403100197997
 20
502.4289346063651
 30
0.0
 11
837.0403100197998
 21
502.4289346063651
 31
0.0
  0
SPLINE
  5
338
330
1F
100
AcDbEntity
  8
0
  6
Continuous
 62
     7
370
    35
100
AcDbSpline
210
0.0
220
0.0
230
1.0
 70
     8
 71
     3
 72
    12
 73
     8
 74
     0
 42
0.00000001
 43
0.0000000001
 40
0.0
 40
0.0
 40
0.0
 40
0.0
 40
0.1413047294169976
 40
0.3559825851801512
 40
0.5706600344457055
 40
0.7853324456800853
 40
1.0
 40
1.0
 40
1.0
 40
1.0
 10
837.0403100197798
 20
498.809816290762
 30
0.0
 10
837.1878304640297
 20
498.8105868603219
 30
0.0
 10
837.5594720172014
 20
498.812528121206
 30
0.0
 10
838.1218391194158
 20
498.8137892843759
 30
0.0
 10
838.6292525155631
 20
498.8139798833592
 30
0.0
 10
838.9740001851517
 20
498.813098923869
 30
0.0
 10
839.0182069082664
 20
498.8109105064697
 30
0.0
 10
839.0403100197797
 20
498.8098163101484
 30
0.0
  0
ARC
  5
339
330
1F
100
AcDbEntity
  8
0
  6
Continuous
 62
     7
370
    35
100
AcDbCircle
 10
838.0403475457001
 20
498.809850958265
 30
0.0
 40
0.9999624747137374
100
AcDbArc
 50
271.2478542482
 51
359.9980147333994
  0
SPLINE
  5
33A
330
1F
100
AcDbEntity
  8
0
  6
Continuous
 62
     7
370
    35
100
AcDbSpline
210
0.0
220
0.0
230
1.0
 70
     8
 71
     3
 72
    12
 73
     8
 74
     0
 42
0.00000001
 43
0.0000000001
 40
0.0
 40
0.0
 40
0.0
 40
0.0
 40
0.2139882661242173
 40
0.4290941048682078
 40
0.6444975027878204
 40
0.8593094884487191
 40
1.0
 40
1.0
 40
1.0
 40
1.0
 10
838.0621241719595
 20
497.8101256313177
 30
0.0
 10
838.0497178164301
 20
497.811193955183
 30
0.0
 10
838.0248403120848
 20
497.8133361823294
 30
0.0
 10
837.8495817463761
 20
497.8141815232445
 30
0.0
 10
837.5943421704754
 20
497.8139979220504
 30
0.0
 10
837.3125745171417
 20
497.8127805927289
 30
0.0
 10
837.1260661905877
 20
497.8108784050185
 30
0.0
 10
837.0522553114035
 20
497.8101256121012
 30
0.0
  0
LINE
  5
33B
330
1F
100
AcDbEntity
  8
0
  6
Continuous
 62
     7
370
    35
100
AcDbLine
 10
839.0403100197998
 20
502.4289346063651
 30
0.0
 11
839.0403100197998
 21
498.809816310165
 31
0.0
  0
LINE
  5
33C
330
1F
100
AcDbEntity
  8
0
  6
Continuous
 62
     7
370
    35
100
AcDbLine
 10
837.0403100197998
 20
502.4289346063651
 30
0.0
 11
837.6648098196001
 21
502.4289346063651
 31
0.0
  0
LINE
  5
33D
330
1F
100
AcDbEntity
  8
0
  6
Continuous
 62
     7
370
    35
100
AcDbLine
 10
838.9403100198
 20
502.4289346063651
 30
0.0
 11
839.0403100197998
 21
502.4289346063651
 31
0.0
  0
SPLINE
  5
33E
330
1F
100
AcDbEntity
  8
0
  6
Continuous
 62
     7
370
    35
100
AcDbSpline
210
0.0
220
0.0
230
1.0
 70
    24
 71
     3
 72
     9
 73
     5
 74
     0
 42
0.00000001
 43
0.0000000001
 40
0.0
 40
0.0
 40
0.0
 40
0.0
 40
0.374607387161443
 40
1.0
 40
1.0
 40
1.0
 40
1.0
 10
813.4403100197795
 20
498.7313640989317
 30
0.0
 10
813.4403100197799
 20
498.7295212250345
 30
0.0
 10
813.4403100197795
 20
498.7246017441054
 30
0.0
 10
813.4403100197795
 20
498.7770287983344
 30
0.0
 10
813.4403100197795
 20
498.809816290762
 30
0.0
  0
SPLINE
  5
33F
330
1F
100
AcDbEntity
  8
0
  6
Continuous
 62
     7
370
    35
100
AcDbSpline
210
0.0
220
0.0
230
1.0
 70
    24
 71
     3
 72
     9
 73
     5
 74
     0
 42
0.00000001
 43
0.0000000001
 40
0.0
 40
0.0
 40
0.0
 40
0.0
 40
0.6878780341682283
 40
1.0
 40
1.0
 40
1.0
 40
1.0
 10
839.0403100197797
 20
498.8098163101484
 30
0.0
 10
839.0403100197797
 20
498.7732049677917
 30
0.0
 10
839.0403100197797
 20
498.719981372128
 30
0.0
 10
839.0403100197797
 20
498.728656424524
 30
0.0
 10
839.0403100197797
 20
498.7313640989316
 30
0.0
  0
SPLINE
  5
340
330
1F
100
AcDbEntity
  8
0
  6
Continuous
 62
     7
370
    35
100
AcDbSpline
210
0.0
220
0.0
230
1.0
 70
     8
 71
     3
 72
    10
 73
     6
 74
     0
 42
0.00000001
 43
0.0000000001
 40
0.0
 40
0.0
 40
0.0
 40
0.0
 40
0.3434584622114936
 40
0.6868667913206702
 40
1.0
 40
1.0
 40
1.0
 40
1.0
 10
465.6403100197723
 20
498.8098163101455
 30
0.0
 10
468.1131144929358
 20
498.7772092602283
 30
0.0
 10
473.058362495005
 20
498.7119999198997
 30
0.0
 10
480.2589503330255
 20
498.7176559361112
 30
0.0
 10
484.9858473067661
 20
498.7800553140307
 30
0.0
 10
487.2403100197725
 20
498.8098162907594
 30
0.0
  0
LINE
  5
341
330
1F
100
AcDbEntity
  8
0
  6
Continuous
 62
     7
370
    35
100
AcDbLine
 10
487.2403100198
 20
498.8098162907651
 30
0.0
 11
487.2522553113998
 21
497.810125612065
 31
0.0
  0
SPLINE
  5
342
330
1F
100
AcDbEntity
  8
0
  6
Continuous
 62
     7
370
    35
100
AcDbSpline
210
0.0
220
0.0
230
1.0
 70
     8
 71
     3
 72
    10
 73
     6
 74
     0
 42
0.00000001
 43
0.0000000001
 40
0.0
 40
0.0
 40
0.0
 40
0.0
 40
0.312996894776279
 40
0.6566599615563052
 40
1.0
 40
1.0
 40
1.0
 40
1.0
 10
487.2522553113965
 20
497.8101256120985
 30
0.0
 10
484.9963734416609
 20
497.7822210324778
 30
0.0
 10
480.2635875048711
 20
497.723677895192
 30
0.0
 10
473.0544744734578
 20
497.7188249041767
 30
0.0
 10
468.1029585927596
 20
497.7797015969939
 30
0.0
 10
465.6283647519067
 20
497.8101256313152
 30
0.0
  0
LINE
  5
343
330
1F
100
AcDbEntity
  8
0
  6
Continuous
 62
     7
370
    35
100
AcDbLine
 10
465.6403100198
 20
498.809816310165
 30
0.0
 11
465.6283647519
 21
497.810125631365
 31
0.0
  0
SPLINE
  5
344
330
1F
100
AcDbEntity
  8
0
  6
Continuous
 62
     7
370
    35
100
AcDbSpline
210
0.0
220
0.0
230
1.0
 70
     8
 71
     3
 72
    12
 73
     8
 74
     0
 42
0.00000001
 43
0.0000000001
 40
0.0
 40
0.0
 40
0.0
 40
0.0
 40
0.1413047294169377
 40
0.3559825851801828
 40
0.5706600344457115
 40
0.7853324456801545
 40
1.0
 40
1.0
 40
1.0
 40
1.0
 10
463.6403100197723
 20
498.8098162907594
 30
0.0
 10
463.6500191587317
 20
498.8105868603193
 30
0.0
 10
463.6744789514144
 20
498.8125281212036
 30
0.0
 10
463.9142230957962
 20
498.8137892843734
 30
0.0
 10
464.3665378553347
 20
498.8139798833568
 30
0.0
 10
464.9658487254312
 20
498.8130989238662
 30
0.0
 10
465.4154912838547
 20
498.8109105064669
 30
0.0
 10
465.6403100197723
 20
498.8098163101455
 30
0.0
  0
SPLINE
  5
345
330
1F
100
AcDbEntity
  8
0
  6
Continuous
 62
     7
370
    35
100
AcDbSpline
210
0.0
220
0.0
230
1.0
 70
     8
 71
     3
 72
    12
 73
     8
 74
     0
 42
0.00000001
 43
0.0000000001
 40
0.0
 40
0.0
 40
0.0
 40
0.0
 40
0.2139882661241685
 40
0.4290941048681039
 40
0.6444975027877266
 40
0.8593094884486209
 40
1.0
 40
1.0
 40
1.0
 40
1.0
 10
465.6283647519067
 20
497.8101256313152
 30
0.0
 10
465.5158088260066
 20
497.8111939551807
 30
0.0
 10
465.2901091409418
 20
497.813336182327
 30
0.0
 10
464.9897746282039
 20
497.8141815232414
 30
0.0
 10
464.7616384232492
 20
497.8139979220482
 30
0.0
 10
464.6387106799648
 20
497.8127805927262
 30
0.0
 10
464.6242275770426
 20
497.8108784050159
 30
0.0
 10
464.6184958728354
 20
497.8101256120985
 30
0.0
  0
ARC
  5
346
330
1F
100
AcDbEntity
  8
0
  6
Continuous
 62
     7
370
    35
100
AcDbCircle
 10
464.6402724937
 20
498.8098509390651
 30
0.0
 40
0.999962474564889
100
AcDbArc
 50
180.0019852745001
 51
268.7521460606
  0
LINE
  5
347
330
1F
100
AcDbEntity
  8
0
  6
Continuous
 62
     7
370
    35
100
AcDbLine
 10
465.6403100198
 20
502.4289346063651
 30
0.0
 11
465.6403100198
 21
498.809816310165
 31
0.0
  0
LINE
  5
348
330
1F
100
AcDbEntity
  8
0
  6
Continuous
 62
     7
370
    35
100
AcDbLine
 10
463.6403100198
 20
502.4289346063651
 30
0.0
 11
463.6403100198
 21
498.8098162907651
 31
0.0
  0
LINE
  5
349
330
1F
100
AcDbEntity
  8
0
  6
Continuous
 62
     7
370
    35
100
AcDbLine
 10
463.6403100198
 20
502.4289346063651
 30
0.0
 11
463.7403100198
 21
502.4289346063651
 31
0.0
  0
LINE
  5
34A
330
1F
100
AcDbEntity
  8
0
  6
Continuous
 62
     7
370
    35
100
AcDbLine
 10
465.0158102198998
 20
502.4289346063651
 30
0.0
 11
465.6403100198
 21
502.4289346063651
 31
0.0
  0
LINE
  5
34B
330
1F
100
AcDbEntity
  8
0
  6
Continuous
 62
     7
370
    35
100
AcDbLine
 10
489.2403100197999
 20
502.4289346063651
 30
0.0
 11
489.2403100197999
 21
498.809816310165
 31
0.0
  0
SPLINE
  5
34C
330
1F
100
AcDbEntity
  8
0
  6
Continuous
 62
     7
370
    35
100
AcDbSpline
210
0.0
220
0.0
230
1.0
 70
     8
 71
     3
 72
    12
 73
     8
 74
     0
 42
0.00000001
 43
0.0000000001
 40
0.0
 40
0.0
 40
0.0
 40
0.0
 40
0.1413047294169976
 40
0.3559825851801512
 40
0.5706600344457055
 40
0.7853324456800853
 40
1.0
 40
1.0
 40
1.0
 40
1.0
 10
487.2403100197725
 20
498.8098162907594
 30
0.0
 10
487.3878304640225
 20
498.8105868603192
 30
0.0
 10
487.7594720171942
 20
498.8125281212035
 30
0.0
 10
488.3218391194083
 20
498.8137892843734
 30
0.0
 10
488.8292525155563
 20
498.8139798833565
 30
0.0
 10
489.1740001851443
 20
498.8130989238664
 30
0.0
 10
489.2182069082593
 20
498.8109105064671
 30
0.0
 10
489.2403100197723
 20
498.8098163101456
 30
0.0
  0
LINE
  5
34D
330
1F
100
AcDbEntity
  8
0
  6
Continuous
 62
     7
370
    35
100
AcDbLine
 10
487.2403100198
 20
502.4289346063651
 30
0.0
 11
487.2403100198
 21
498.8098162907651
 31
0.0
  0
LINE
  5
34E
330
1F
100
AcDbEntity
  8
0
  6
Continuous
 62
     7
370
    35
100
AcDbLine
 10
487.2403100198
 20
502.4289346063651
 30
0.0
 11
487.8648098195998
 21
502.4289346063651
 31
0.0
  0
LINE
  5
34F
330
1F
100
AcDbEntity
  8
0
  6
Continuous
 62
     7
370
    35
100
AcDbLine
 10
489.1403100198
 20
502.4289346063651
 30
0.0
 11
489.2403100197999
 21
502.4289346063651
 31
0.0
  0
ARC
  5
350
330
1F
100
AcDbEntity
  8
0
  6
Continuous
 62
     7
370
    35
100
AcDbCircle
 10
488.2403475457
 20
498.809850958265
 30
0.0
 40
0.9999624747136191
100
AcDbArc
 50
271.2478542482
 51
359.9980147333994
  0
SPLINE
  5
351
330
1F
100
AcDbEntity
  8
0
  6
Continuous
 62
     7
370
    35
100
AcDbSpline
210
0.0
220
0.0
230
1.0
 70
     8
 71
     3
 72
    12
 73
     8
 74
     0
 42
0.00000001
 43
0.0000000001
 40
0.0
 40
0.0
 40
0.0
 40
0.0
 40
0.213988266124221
 40
0.4290941048682155
 40
0.6444975027878317
 40
0.8593094884487342
 40
1.0
 40
1.0
 40
1.0
 40
1.0
 10
488.2621241719522
 20
497.8101256313151
 30
0.0
 10
488.2497178164231
 20
497.8111939551806
 30
0.0
 10
488.2248403120776
 20
497.8133361823267
 30
0.0
 10
488.0495817463688
 20
497.8141815232419
 30
0.0
 10
487.7943421704681
 20
497.8139979220479
 30
0.0
 10
487.5125745171343
 20
497.8127805927262
 30
0.0
 10
487.3260661905805
 20
497.8108784050159
 30
0.0
 10
487.2522553113965
 20
497.8101256120985
 30
0.0
  0
LINE
  5
352
330
1F
100
AcDbEntity
  8
0
  6
Continuous
 62
     7
370
    35
100
AcDbLine
 10
465.6403100198
 20
502.4289346063651
 30
0.0
 11
487.2403100198
 21
502.4289346063651
 31
0.0
  0
SPLINE
  5
353
330
1F
100
AcDbEntity
  8
0
  6
Continuous
 62
     7
370
    35
100
AcDbSpline
210
0.0
220
0.0
230
1.0
 70
    24
 71
     3
 72
     9
 73
     5
 74
     0
 42
0.00000001
 43
0.0000000001
 40
0.0
 40
0.0
 40
0.0
 40
0.0
 40
0.374607387161443
 40
1.0
 40
1.0
 40
1.0
 40
1.0
 10
463.6403100197723
 20
498.7313640989289
 30
0.0
 10
463.6403100197723
 20
498.729521225032
 30
0.0
 10
463.6403100197723
 20
498.7246017441028
 30
0.0
 10
463.6403100197723
 20
498.7770287983318
 30
0.0
 10
463.6403100197723
 20
498.8098162907594
 30
0.0
  0
SPLINE
  5
354
330
1F
100
AcDbEntity
  8
0
  6
Continuous
 62
     7
370
    35
100
AcDbSpline
210
0.0
220
0.0
230
1.0
 70
    24
 71
     3
 72
     9
 73
     5
 74
     0
 42
0.00000001
 43
0.0000000001
 40
0.0
 40
0.0
 40
0.0
 40
0.0
 40
0.6878780341682283
 40
1.0
 40
1.0
 40
1.0
 40
1.0
 10
489.2403100197723
 20
498.8098163101456
 30
0.0
 10
489.2403100197723
 20
498.7732049677892
 30
0.0
 10
489.2403100197723
 20
498.7199813721253
 30
0.0
 10
489.2403100197723
 20
498.7286564245214
 30
0.0
 10
489.2403100197723
 20
498.7313640989289
 30
0.0
  0
LINE
  5
355
330
1F
100
AcDbEntity
  8
0
  6
Continuous
 62
     7
370
    35
100
AcDbLine
 10
464.9403100198
 20
792.4289346063649
 30
0.0
 11
464.9403100198
 21
793.2289346063651
 31
0.0
  0
LINE
  5
356
330
1F
100
AcDbEntity
  8
0
  6
Continuous
 62
     7
370
    35
100
AcDbLine
 10
464.9403100198
 20
792.4289346063649
 30
0.0
 11
463.7403100198
 21
792.4289346063649
 31
0.0
  0
LINE
  5
357
330
1F
100
AcDbEntity
  8
0
  6
Continuous
 62
     7
370
    35
100
AcDbLine
 10
463.7403100198
 20
792.4289346063649
 30
0.0
 11
463.7403100198
 21
793.2289346063651
 31
0.0
  0
LINE
  5
358
330
1F
100
AcDbEntity
  8
0
  6
Continuous
 62
     7
370
    35
100
AcDbLine
 10
464.9403100198
 20
793.2289346063651
 30
0.0
 11
463.7403100198
 21
793.2289346063651
 31
0.0
  0
LINE
  5
359
330
1F
100
AcDbEntity
  8
0
  6
Continuous
 62
     7
370
    35
100
AcDbLine
 10
489.1403100198
 20
792.4289346063649
 30
0.0
 11
489.1403100198
 21
793.2289346063651
 31
0.0
  0
LINE
  5
35A
330
1F
100
AcDbEntity
  8
0
  6
Continuous
 62
     7
370
    35
100
AcDbLine
 10
489.1403100198
 20
792.4289346063649
 30
0.0
 11
487.9403100198
 21
792.4289346063649
 31
0.0
  0
LINE
  5
35B
330
1F
100
AcDbEntity
  8
0
  6
Continuous
 62
     7
370
    35
100
AcDbLine
 10
487.9403100198
 20
792.4289346063649
 30
0.0
 11
487.9403100198
 21
793.2289346063651
 31
0.0
  0
LINE
  5
35C
330
1F
100
AcDbEntity
  8
0
  6
Continuous
 62
     7
370
    35
100
AcDbLine
 10
489.1403100198
 20
793.2289346063651
 30
0.0
 11
487.9403100198
 21
793.2289346063651
 31
0.0
  0
LINE
  5
35D
330
1F
100
AcDbEntity
  8
0
  6
Continuous
 62
     7
370
    35
100
AcDbLine
 10
487.9403100198
 20
793.2289346063651
 30
0.0
 11
464.9403100198
 21
793.2289346063651
 31
0.0
  0
LINE
  5
35E
330
1F
100
AcDbEntity
  8
0
  6
Continuous
 62
     7
370
    35
100
AcDbLine
 10
487.9403100198
 20
792.4289346063649
 30
0.0
 11
464.9403100198
 21
792.4289346063649
 31
0.0
  0
LINE
  5
35F
330
1F
100
AcDbEntity
  8
0
  6
Continuous
 62
     7
370
    35
100
AcDbLine
 10
814.7403100197998
 20
792.4289346063649
 30
0.0
 11
814.7403100197998
 21
793.2289346063651
 31
0.0
  0
LINE
  5
360
330
1F
100
AcDbEntity
  8
0
  6
Continuous
 62
     7
370
    35
100
AcDbLine
 10
814.7403100197998
 20
792.4289346063649
 30
0.0
 11
813.5403100197997
 21
792.4289346063649
 31
0.0
  0
LINE
  5
361
330
1F
100
AcDbEntity
  8
0
  6
Continuous
 62
     7
370
    35
100
AcDbLine
 10
813.5403100197997
 20
792.4289346063649
 30
0.0
 11
813.5403100197997
 21
793.2289346063651
 31
0.0
  0
LINE
  5
362
330
1F
100
AcDbEntity
  8
0
  6
Continuous
 62
     7
370
    35
100
AcDbLine
 10
814.7403100197998
 20
793.2289346063651
 30
0.0
 11
813.5403100197997
 21
793.2289346063651
 31
0.0
  0
LINE
  5
363
330
1F
100
AcDbEntity
  8
0
  6
Continuous
 62
     7
370
    35
100
AcDbLine
 10
837.7403100198
 20
792.4289346063649
 30
0.0
 11
837.7403100198
 21
793.2289346063651
 31
0.0
  0
LINE
  5
364
330
1F
100
AcDbEntity
  8
0
  6
Continuous
 62
     7
370
    35
100
AcDbLine
 10
837.7403100198
 20
793.2289346063651
 30
0.0
 11
814.7403100197998
 21
793.2289346063651
 31
0.0
  0
LINE
  5
365
330
1F
100
AcDbEntity
  8
0
  6
Continuous
 62
     7
370
    35
100
AcDbLine
 10
837.7403100198
 20
792.4289346063649
 30
0.0
 11
814.7403100197998
 21
792.4289346063649
 31
0.0
  0
LINE
  5
366
330
1F
100
AcDbEntity
  8
0
  6
Continuous
 62
     7
370
    35
100
AcDbLine
 10
838.9403100198
 20
792.4289346063649
 30
0.0
 11
838.9403100198
 21
793.2289346063651
 31
0.0
  0
LINE
  5
367
330
1F
100
AcDbEntity
  8
0
  6
Continuous
 62
     7
370
    35
100
AcDbLine
 10
838.9403100198
 20
793.2289346063651
 30
0.0
 11
837.7403100198
 21
793.2289346063651
 31
0.0
  0
LINE
  5
368
330
1F
100
AcDbEntity
  8
0
  6
Continuous
 62
     7
370
    35
100
AcDbLine
 10
838.9403100198
 20
792.4289346063649
 30
0.0
 11
837.7403100198
 21
792.4289346063649
 31
0.0
  0
LINE
  5
369
330
1F
100
AcDbEntity
  8
0
  6
Continuous
 62
     7
370
    35
100
AcDbLine
 10
1164.5403100198
 20
792.4289346063649
 30
0.0
 11
1164.5403100198
 21
793.2289346063651
 31
0.0
  0
LINE
  5
36A
330
1F
100
AcDbEntity
  8
0
  6
Continuous
 62
     7
370
    35
100
AcDbLine
 10
1163.3403100198
 20
792.4289346063649
 30
0.0
 11
1163.3403100198
 21
793.2289346063651
 31
0.0
  0
LINE
  5
36B
330
1F
100
AcDbEntity
  8
0
  6
Continuous
 62
     7
370
    35
100
AcDbLine
 10
1164.5403100198
 20
792.4289346063649
 30
0.0
 11
1163.3403100198
 21
792.4289346063649
 31
0.0
  0
LINE
  5
36C
330
1F
100
AcDbEntity
  8
0
  6
Continuous
 62
     7
370
    35
100
AcDbLine
 10
1164.5403100198
 20
793.2289346063651
 30
0.0
 11
1163.3403100198
 21
793.2289346063651
 31
0.0
  0
LINE
  5
36D
330
1F
100
AcDbEntity
  8
0
  6
Continuous
 62
     7
370
    35
100
AcDbLine
 10
1187.5403100198
 20
792.4289346063649
 30
0.0
 11
1187.5403100198
 21
793.2289346063651
 31
0.0
  0
LINE
  5
36E
330
1F
100
AcDbEntity
  8
0
  6
Continuous
 62
     7
370
    35
100
AcDbLine
 10
1187.5403100198
 20
792.4289346063649
 30
0.0
 11
1164.5403100198
 21
792.4289346063649
 31
0.0
  0
LINE
  5
36F
330
1F
100
AcDbEntity
  8
0
  6
Continuous
 62
     7
370
    35
100
AcDbLine
 10
1187.5403100198
 20
793.2289346063651
 30
0.0
 11
1164.5403100198
 21
793.2289346063651
 31
0.0
  0
LINE
  5
370
330
1F
100
AcDbEntity
  8
0
  6
Continuous
 62
     7
370
    35
100
AcDbLine
 10
1188.7403100198
 20
792.4289346063649
 30
0.0
 11
1188.7403100198
 21
793.2289346063651
 31
0.0
  0
LINE
  5
371
330
1F
100
AcDbEntity
  8
0
  6
Continuous
 62
     7
370
    35
100
AcDbLine
 10
1188.7403100198
 20
792.4289346063649
 30
0.0
 11
1187.5403100198
 21
792.4289346063649
 31
0.0
  0
LINE
  5
372
330
1F
100
AcDbEntity
  8
0
  6
Continuous
 62
     7
370
    35
100
AcDbLine
 10
1188.7403100198
 20
793.2289346063651
 30
0.0
 11
1187.5403100198
 21
793.2289346063651
 31
0.0
  0
CIRCLE
  5
373
330
1F
100
AcDbEntity
  8
0
  6
Continuous
 62
     7
370
    35
100
AcDbCircle
 10
476.4403100198
 20
527.4289346063651
 30
0.0
 40
4.250000000000055
  0
LINE
  5
374
330
1F
100
AcDbEntity
  8
0
  6
Continuous
 62
     7
370
    35
100
AcDbLine
 10
464.9403100198
 20
502.4289346063651
 30
0.0
 11
465.0158102198998
 21
502.4289346063651
 31
0.0
  0
LINE
  5
375
330
1F
100
AcDbEntity
  8
0
  6
Continuous
 62
     7
370
    35
100
AcDbLine
 10
487.8648098195998
 20
502.4289346063651
 30
0.0
 11
487.9403100198
 21
502.4289346063651
 31
0.0
  0
CIRCLE
  5
376
330
1F
100
AcDbEntity
  8
0
  6
Continuous
 62
     7
370
    35
100
AcDbCircle
 10
476.4403100198
 20
717.4289346063649
 30
0.0
 40
4.250000000000055
  0
LINE
  5
377
330
1F
100
AcDbEntity
  8
0
  6
Continuous
 62
     7
370
    35
100
AcDbLine
 10
489.1403100198
 20
792.4289346063649
 30
0.0
 11
489.1403100198
 21
775.2289346063649
 31
0.0
  0
LINE
  5
378
330
1F
100
AcDbEntity
  8
0
  6
Continuous
 62
     7
370
    35
100
AcDbLine
 10
489.1403100198
 20
737.1289346063649
 30
0.0
 11
489.1403100198
 21
502.4289346063651
 31
0.0
  0
LINE
  5
379
330
1F
100
AcDbEntity
  8
0
  6
Continuous
 62
     7
370
    35
100
AcDbLine
 10
487.9403100198
 20
502.4289346063651
 30
0.0
 11
489.1403100198
 21
502.4289346063651
 31
0.0
  0
LINE
  5
37A
330
1F
100
AcDbEntity
  8
0
  6
Continuous
 62
     7
370
    35
100
AcDbLine
 10
463.7403100198
 20
792.4289346063649
 30
0.0
 11
463.7403100198
 21
775.2289346063649
 31
0.0
  0
LINE
  5
37B
330
1F
100
AcDbEntity
  8
0
  6
Continuous
 62
     7
370
    35
100
AcDbLine
 10
463.7403100198
 20
737.1289346063649
 30
0.0
 11
463.7403100198
 21
502.4289346063651
 31
0.0
  0
LINE
  5
37C
330
1F
100
AcDbEntity
  8
0
  6
Continuous
 62
     7
370
    35
100
AcDbLine
 10
463.7403100198
 20
502.4289346063651
 30
0.0
 11
464.9403100198
 21
502.4289346063651
 31
0.0
  0
LINE
  5
37D
330
1F
100
AcDbEntity
  8
0
  6
Continuous
 62
     7
370
    35
100
AcDbLine
 10
1188.7403100198
 20
792.4289346063649
 30
0.0
 11
1188.7403100198
 21
775.2289346063649
 31
0.0
  0
LINE
  5
37E
330
1F
100
AcDbEntity
  8
0
  6
Continuous
 62
     7
370
    35
100
AcDbLine
 10
1188.7403100198
 20
737.1289346063649
 30
0.0
 11
1188.7403100198
 21
502.4289346063651
 31
0.0
  0
LINE
  5
37F
330
1F
100
AcDbEntity
  8
0
  6
Continuous
 62
     7
370
    35
100
AcDbLine
 10
1187.5403100198
 20
502.4289346063651
 30
0.0
 11
1188.7403100198
 21
502.4289346063651
 31
0.0
  0
LINE
  5
380
330
1F
100
AcDbEntity
  8
0
  6
Continuous
 62
     7
370
    35
100
AcDbLine
 10
1163.3403100198
 20
792.4289346063649
 30
0.0
 11
1163.3403100198
 21
775.2289346063649
 31
0.0
  0
LINE
  5
381
330
1F
100
AcDbEntity
  8
0
  6
Continuous
 62
     7
370
    35
100
AcDbLine
 10
1163.3403100198
 20
737.1289346063649
 30
0.0
 11
1163.3403100198
 21
502.4289346063651
 31
0.0
  0
LINE
  5
382
330
1F
100
AcDbEntity
  8
0
  6
Continuous
 62
     7
370
    35
100
AcDbLine
 10
1163.3403100198
 20
502.4289346063651
 30
0.0
 11
1164.5403100198
 21
502.4289346063651
 31
0.0
  0
CIRCLE
  5
383
330
1F
100
AcDbEntity
  8
0
  6
Continuous
 62
     7
370
    35
100
AcDbCircle
 10
1176.0403100198
 20
527.4289346063651
 30
0.0
 40
4.25
  0
LINE
  5
384
330
1F
100
AcDbEntity
  8
0
  6
Continuous
 62
     7
370
    35
100
AcDbLine
 10
1164.5403100198
 20
502.4289346063651
 30
0.0
 11
1164.6158102199
 21
502.4289346063651
 31
0.0
  0
LINE
  5
385
330
1F
100
AcDbEntity
  8
0
  6
Continuous
 62
     7
370
    35
100
AcDbLine
 10
1187.4648098196
 20
502.4289346063651
 30
0.0
 11
1187.5403100198
 21
502.4289346063651
 31
0.0
  0
CIRCLE
  5
386
330
1F
100
AcDbEntity
  8
0
  6
Continuous
 62
     7
370
    35
100
AcDbCircle
 10
1176.0403100198
 20
717.4289346063649
 30
0.0
 40
4.25
  0
CIRCLE
  5
387
330
1F
100
AcDbEntity
  8
0
  6
Continuous
 62
     7
370
    35
100
AcDbCircle
 10
826.2403100198
 20
527.4289346063651
 30
0.0
 40
4.25
  0
LINE
  5
388
330
1F
100
AcDbEntity
  8
0
  6
Continuous
 62
     7
370
    35
100
AcDbLine
 10
814.7403100197998
 20
502.4289346063651
 30
0.0
 11
814.8158102199001
 21
502.4289346063651
 31
0.0
  0
LINE
  5
389
330
1F
100
AcDbEntity
  8
0
  6
Continuous
 62
     7
370
    35
100
AcDbLine
 10
837.6648098196001
 20
502.4289346063651
 30
0.0
 11
837.7403100198
 21
502.4289346063651
 31
0.0
  0
CIRCLE
  5
38A
330
1F
100
AcDbEntity
  8
0
  6
Continuous
 62
     7
370
    35
100
AcDbCircle
 10
826.2403100198
 20
717.4289346063649
 30
0.0
 40
4.25
  0
LINE
  5
38B
330
1F
100
AcDbEntity
  8
0
  6
Continuous
 62
     7
370
    35
100
AcDbLine
 10
838.9403100198
 20
792.4289346063649
 30
0.0
 11
838.9403100198
 21
775.2289346063649
 31
0.0
  0
LINE
  5
38C
330
1F
100
AcDbEntity
  8
0
  6
Continuous
 62
     7
370
    35
100
AcDbLine
 10
838.9403100198
 20
737.1289346063649
 30
0.0
 11
838.9403100198
 21
502.4289346063651
 31
0.0
  0
LINE
  5
38D
330
1F
100
AcDbEntity
  8
0
  6
Continuous
 62
     7
370
    35
100
AcDbLine
 10
837.7403100198
 20
502.4289346063651
 30
0.0
 11
838.9403100198
 21
502.4289346063651
 31
0.0
  0
LINE
  5
38E
330
1F
100
AcDbEntity
  8
0
  6
Continuous
 62
     7
370
    35
100
AcDbLine
 10
813.5403100197997
 20
792.4289346063649
 30
0.0
 11
813.5403100197997
 21
775.2289346063649
 31
0.0
  0
LINE
  5
38F
330
1F
100
AcDbEntity
  8
0
  6
Continuous
 62
     7
370
    35
100
AcDbLine
 10
813.5403100197997
 20
737.1289346063649
 30
0.0
 11
813.5403100197997
 21
502.4289346063651
 31
0.0
  0
LINE
  5
390
330
1F
100
AcDbEntity
  8
0
  6
Continuous
 62
     7
370
    35
100
AcDbLine
 10
813.5403100197997
 20
502.4289346063651
 30
0.0
 11
814.7403100197998
 21
502.4289346063651
 31
0.0
  0
LINE
  5
391
330
1F
100
AcDbEntity
  8
0
  6
Continuous
 62
     7
370
    35
100
AcDbLine
 10
805.0403100197998
 20
785.358934606365
 30
0.0
 11
805.0403100197998
 21
775.4989346063649
 31
0.0
  0
LINE
  5
392
330
1F
100
AcDbEntity
  8
0
  6
Continuous
 62
     7
370
    35
100
AcDbLine
 10
1154.8403100198
 20
785.358934606365
 30
0.0
 11
1154.8403100198
 21
775.4989346063649
 31
0.0
  0
LINE
  5
393
330
1F
100
AcDbEntity
  8
0
  6
Continuous
 62
     7
370
    35
100
AcDbLine
 10
497.6403100198
 20
780.4289346063649
 30
0.0
 11
497.6403100198
 21
785.358934606365
 31
0.0
  0
LINE
  5
394
330
1F
100
AcDbEntity
  8
0
  6
Continuous
 62
     7
370
    35
100
AcDbLine
 10
497.6403100198
 20
775.4989346063649
 30
0.0
 11
497.6403100198
 21
780.4289346063649
 31
0.0
  0
LINE
  5
395
330
1F
100
AcDbEntity
  8
0
  6
Continuous
 62
     7
370
    35
100
AcDbLine
 10
1192.2209433937
 20
785.2470603760649
 30
0.0
 11
1192.2209433937
 21
775.2289346063649
 31
0.0
  0
LINE
  5
396
330
1F
100
AcDbEntity
  8
0
  6
Continuous
 62
     7
370
    35
100
AcDbLine
 10
1192.2209433937
 20
785.6420892957651
 30
0.0
 11
1192.2209433937
 21
785.2470603760649
 31
0.0
  0
LINE
  5
397
330
1F
100
AcDbEntity
  8
0
  6
Continuous
 62
     7
370
    35
100
AcDbLine
 10
460.2596766458
 20
775.2289346063649
 30
0.0
 11
460.2596766458
 21
785.6420892957651
 31
0.0
  0
LINE
  5
398
330
1F
100
AcDbEntity
  8
0
  6
Continuous
 62
     7
370
    35
100
AcDbLine
 10
842.4209433936999
 20
785.2470603760649
 30
0.0
 11
842.4209433936999
 21
775.2289346063649
 31
0.0
  0
LINE
  5
399
330
1F
100
AcDbEntity
  8
0
  6
Continuous
 62
     7
370
    35
100
AcDbLine
 10
842.4209433936999
 20
785.642089295865
 30
0.0
 11
842.4209433936999
 21
785.2470603760649
 31
0.0
  0
LINE
  5
39A
330
1F
100
AcDbEntity
  8
0
  6
Continuous
 62
     7
370
    35
100
AcDbLine
 10
464.6903100198001
 20
762.5289346063651
 30
0.0
 11
464.6903100198001
 21
762.5026040658649
 31
0.0
  0
LINE
  5
39B
330
1F
100
AcDbEntity
  8
0
  6
Continuous
 62
     7
370
    35
100
AcDbLine
 10
464.6903100198001
 20
737.155265146965
 30
0.0
 11
464.6903100198001
 21
737.1289346063649
 31
0.0
  0
LINE
  5
39C
330
1F
100
AcDbEntity
  8
0
  6
Continuous
 62
     7
370
    35
100
AcDbLine
 10
1187.7903100198
 20
762.5289346063651
 30
0.0
 11
1187.7903100198
 21
762.5026040658649
 31
0.0
  0
LINE
  5
39D
330
1F
100
AcDbEntity
  8
0
  6
Continuous
 62
     7
370
    35
100
AcDbLine
 10
1187.7903100198
 20
737.155265146965
 30
0.0
 11
1187.7903100198
 21
737.1289346063649
 31
0.0
  0
SPLINE
  5
39E
330
1F
100
AcDbEntity
  8
0
  6
Continuous
 62
     7
370
    35
100
AcDbSpline
210
0.0
220
0.0
230
1.0
 70
     8
 71
     3
 72
     9
 73
     5
 74
     0
 42
0.00000001
 43
0.0000000001
 40
0.0
 40
0.0
 40
0.0
 40
0.0
 40
0.6259944836023213
 40
1.0
 40
1.0
 40
1.0
 40
1.0
 10
1164.218495872836
 20
497.8101256120985
 30
0.0
 10
1164.184475802949
 20
497.7793807161368
 30
0.0
 10
1164.130130164485
 20
497.7302670310051
 30
0.0
 10
1164.135080805264
 20
497.7349918511713
 30
0.0
 10
1164.136932372225
 20
497.7367589599773
 30
0.0
  0
SPLINE
  5
39F
330
1F
100
AcDbEntity
  8
0
  6
Continuous
 62
     7
370
    35
100
AcDbSpline
210
0.0
220
0.0
230
1.0
 70
     8
 71
     3
 72
     9
 73
     5
 74
     0
 42
0.00000001
 43
0.0000000001
 40
0.0
 40
0.0
 40
0.0
 40
0.0
 40
0.3133206983640717
 40
1.0
 40
1.0
 40
1.0
 40
1.0
 10
1187.943687667172
 20
497.7367589600983
 30
0.0
 10
1187.946570685058
 20
497.7342461779564
 30
0.0
 10
1187.955772177013
 20
497.7262263370872
 30
0.0
 10
1187.90025006029
 20
497.7759686290252
 30
0.0
 10
1187.862124171953
 20
497.8101256313152
 30
0.0
  0
SPLINE
  5
3A0
330
1F
100
AcDbEntity
  8
0
  6
Continuous
 62
     7
370
    35
100
AcDbSpline
210
0.0
220
0.0
230
1.0
 70
     8
 71
     3
 72
     9
 73
     5
 74
     0
 42
0.00000001
 43
0.0000000001
 40
0.0
 40
0.0
 40
0.0
 40
0.0
 40
0.6259944836023213
 40
1.0
 40
1.0
 40
1.0
 40
1.0
 10
814.4184958728425
 20
497.8101256121012
 30
0.0
 10
814.3844758029558
 20
497.7793807161394
 30
0.0
 10
814.3301301644921
 20
497.7302670310077
 30
0.0
 10
814.3350808052707
 20
497.7349918511738
 30
0.0
 10
814.3369323722318
 20
497.73675895998
 30
0.0
  0
SPLINE
  5
3A1
330
1F
100
AcDbEntity
  8
0
  6
Continuous
 62
     7
370
    35
100
AcDbSpline
210
0.0
220
0.0
230
1.0
 70
     8
 71
     3
 72
     9
 73
     5
 74
     0
 42
0.00000001
 43
0.0000000001
 40
0.0
 40
0.0
 40
0.0
 40
0.0
 40
0.3133206983640665
 40
1.0
 40
1.0
 40
1.0
 40
1.0
 10
838.143687667179
 20
497.7367589601009
 30
0.0
 10
838.1465706850644
 20
497.7342461779588
 30
0.0
 10
838.1557721770198
 20
497.7262263370897
 30
0.0
 10
838.1002500602965
 20
497.7759686290278
 30
0.0
 10
838.0621241719595
 20
497.8101256313177
 30
0.0
  0
SPLINE
  5
3A2
330
1F
100
AcDbEntity
  8
0
  6
Continuous
 62
     7
370
    35
100
AcDbSpline
210
0.0
220
0.0
230
1.0
 70
     8
 71
     3
 72
     9
 73
     5
 74
     0
 42
0.00000001
 43
0.0000000001
 40
0.0
 40
0.0
 40
0.0
 40
0.0
 40
0.6259944836023213
 40
1.0
 40
1.0
 40
1.0
 40
1.0
 10
464.6184958728354
 20
497.8101256120985
 30
0.0
 10
464.584475802949
 20
497.7793807161368
 30
0.0
 10
464.5301301644847
 20
497.7302670310051
 30
0.0
 10
464.5350808052636
 20
497.7349918511713
 30
0.0
 10
464.5369323722246
 20
497.7367589599773
 30
0.0
  0
SPLINE
  5
3A3
330
1F
100
AcDbEntity
  8
0
  6
Continuous
 62
     7
370
    35
100
AcDbSpline
210
0.0
220
0.0
230
1.0
 70
     8
 71
     3
 72
     9
 73
     5
 74
     0
 42
0.00000001
 43
0.0000000001
 40
0.0
 40
0.0
 40
0.0
 40
0.0
 40
0.3133206983640665
 40
1.0
 40
1.0
 40
1.0
 40
1.0
 10
488.3436876671717
 20
497.7367589600983
 30
0.0
 10
488.3465706850572
 20
497.7342461779564
 30
0.0
 10
488.3557721770127
 20
497.726226337087
 30
0.0
 10
488.3002500602893
 20
497.7759686290252
 30
0.0
 10
488.2621241719522
 20
497.8101256313151
 30
0.0
  0
LINE
  5
3A4
330
1F
100
AcDbEntity
  8
0
  6
Continuous
 62
     7
370
    35
100
AcDbLine
 10
464.9403100198
 20
792.4289346063649
 30
0.0
 11
464.9403100198
 21
775.2289346063649
 31
0.0
  0
LINE
  5
3A5
330
1F
100
AcDbEntity
  8
0
  6
Continuous
 62
     7
370
    35
100
AcDbLine
 10
464.9403100198
 20
737.1289346063649
 30
0.0
 11
464.9403100198
 21
502.4289346063651
 31
0.0
  0
LINE
  5
3A6
330
1F
100
AcDbEntity
  8
0
  6
Continuous
 62
     7
370
    35
100
AcDbLine
 10
487.9403100198
 20
792.4289346063649
 30
0.0
 11
487.9403100198
 21
775.2289346063649
 31
0.0
  0
LINE
  5
3A7
330
1F
100
AcDbEntity
  8
0
  6
Continuous
 62
     7
370
    35
100
AcDbLine
 10
487.9403100198
 20
737.1289346063649
 30
0.0
 11
487.9403100198
 21
502.4289346063651
 31
0.0
  0
LINE
  5
3A8
330
1F
100
AcDbEntity
  8
0
  6
Continuous
 62
     7
370
    35
100
AcDbLine
 10
1187.5403100198
 20
792.4289346063649
 30
0.0
 11
1187.5403100198
 21
775.2289346063649
 31
0.0
  0
LINE
  5
3A9
330
1F
100
AcDbEntity
  8
0
  6
Continuous
 62
     7
370
    35
100
AcDbLine
 10
1187.5403100198
 20
737.1289346063649
 30
0.0
 11
1187.5403100198
 21
502.4289346063651
 31
0.0
  0
LINE
  5
3AA
330
1F
100
AcDbEntity
  8
0
  6
Continuous
 62
     7
370
    35
100
AcDbLine
 10
1164.5403100198
 20
792.4289346063649
 30
0.0
 11
1164.5403100198
 21
775.2289346063649
 31
0.0
  0
LINE
  5
3AB
330
1F
100
AcDbEntity
  8
0
  6
Continuous
 62
     7
370
    35
100
AcDbLine
 10
1164.5403100198
 20
737.1289346063649
 30
0.0
 11
1164.5403100198
 21
502.4289346063651
 31
0.0
  0
LINE
  5
3AC
330
1F
100
AcDbEntity
  8
0
  6
Continuous
 62
     7
370
    35
100
AcDbLine
 10
814.7403100197998
 20
792.4289346063649
 30
0.0
 11
814.7403100197998
 21
775.2289346063649
 31
0.0
  0
LINE
  5
3AD
330
1F
100
AcDbEntity
  8
0
  6
Continuous
 62
     7
370
    35
100
AcDbLine
 10
814.7403100197998
 20
737.1289346063649
 30
0.0
 11
814.7403100197998
 21
502.4289346063651
 31
0.0
  0
LINE
  5
3AE
330
1F
100
AcDbEntity
  8
0
  6
Continuous
 62
     7
370
    35
100
AcDbLine
 10
837.7403100198
 20
792.4289346063649
 30
0.0
 11
837.7403100198
 21
775.2289346063649
 31
0.0
  0
LINE
  5
3AF
330
1F
100
AcDbEntity
  8
0
  6
Continuous
 62
     7
370
    35
100
AcDbLine
 10
837.7403100198
 20
737.1289346063649
 30
0.0
 11
837.7403100198
 21
502.4289346063651
 31
0.0
  0
LINE
  5
3B0
330
1F
100
AcDbEntity
  8
MODEL
100
AcDbLine
 10
476.4436887845
 20
496.829796245265
 30
0.0
 11
499.4701990268
 21
496.829796245265
 31
0.0
  0
DIMENSION
  5
3B1
102
{ACAD_XDICTIONARY
360
5BC
102
}
330
1F
100
AcDbEntity
  8
DIMENSION
 62
     7
100
AcDbDimension
280
     0
  2
*D24
 10
1387.2403100198
 20
775.2289346063653
 30
0.0
 11
1387.2403100198
 21
630.2348510070649
 31
0.0
 70
   160
  1
<>
 71
     2
 42
278.3991383610997
 73
     0
 74
     0
 75
     0
  3
RG Dimension Lines_Large
100
AcDbAlignedDimension
 13
499.4701990268
 23
496.829796245265
 33
0.0
 14
1300.8903100198
 24
775.2289346063649
 34
0.0
 50
90.0
100
AcDbRotatedDimension
1001
AcadAnnotative
1000
AnnotativeData
1002
{
1070
     1
1070
     1
1002
}
1001
ACAD
1000
DSTYLE
1002
{
1070
   271
1070
     0
1002
}
  0
DIMENSION
  5
3BA
102
{ACAD_XDICTIONARY
360
59F
102
}
330
1F
100
AcDbEntity
  8
DIMENSION
 62
     7
100
AcDbDimension
280
     0
  2
*D22
 10
1287.392977726811
 20
717.4289346063652
 30
0.0
 11
1287.392977726811
 21
630.2348356837651
 31
0.0
 70
   160
  1
<>
 71
     2
 42
189.9999999999997
 73
     0
 74
     0
 75
     0
  3
RG Dimension Lines_Large
100
AcDbAlignedDimension
 13
1182.7903100198
 23
527.4289346063651
 33
0.0
 14
1182.7903100198
 24
717.4289346063649
 34
0.0
 50
90.0
100
AcDbRotatedDimension
1001
AcadAnnotative
1000
AnnotativeData
1002
{
1070
     1
1070
     1
1002
}
  0
INSERT
  5
3D5
330
1F
100
AcDbEntity
  8
MODEL
100
AcDbBlockReference
  2
SW_CENTERMARKSYMBOL_0
 10
476.4403100198
 20
717.4289346063649
 30
0.0
  0
INSERT
  5
3E1
330
1F
100
AcDbEntity
  8
MODEL
100
AcDbBlockReference
  2
SW_CENTERMARKSYMBOL_1
 10
476.4403100198
 20
527.4289346063651
 30
0.0
  0
INSERT
  5
3ED
330
1F
100
AcDbEntity
  8
MODEL
100
AcDbBlockReference
  2
SW_CENTERMARKSYMBOL_2
 10
826.2403100198
 20
527.4289346063651
 30
0.0
  0
INSERT
  5
3F9
330
1F
100
AcDbEntity
  8
MODEL
100
AcDbBlockReference
  2
SW_CENTERMARKSYMBOL_3
 10
826.2403100198
 20
717.4289346063649
 30
0.0
  0
INSERT
  5
405
330
1F
100
AcDbEntity
  8
MODEL
100
AcDbBlockReference
  2
SW_CENTERMARKSYMBOL_4
 10
1176.0403100198
 20
527.4289346063651
 30
0.0
  0
INSERT
  5
411
330
1F
100
AcDbEntity
  8
MODEL
100
AcDbBlockReference
  2
SW_CENTERMARKSYMBOL_5
 10
1176.0403100198
 20
717.4289346063649
 30
0.0
  0
LINE
  5
412
330
1F
100
AcDbEntity
  8
0
  6
Continuous
 62
     7
370
    35
100
AcDbLine
 10
1496.9912909509
 20
737.1289346063649
 30
0.0
 11
1496.9912909509
 21
736.3289346063651
 31
0.0
  0
LINE
  5
413
330
1F
100
AcDbEntity
  8
0
  6
Continuous
 62
     7
370
    35
100
AcDbLine
 10
1506.3912909509
 20
736.3289346063651
 30
0.0
 11
1506.3912909509
 21
737.1289346063649
 31
0.0
  0
ARC
  5
414
330
1F
100
AcDbEntity
  8
0
  6
Continuous
 62
     7
370
    35
100
AcDbCircle
 10
1500.129006459
 20
737.9289346063649
 30
0.0
 40
3.000000000000141
100
AcDbArc
 50
212.2309526355
 51
270.0
  0
ARC
  5
415
330
1F
100
AcDbEntity
  8
0
  6
Continuous
 62
     7
370
    35
100
AcDbCircle
 10
1503.2535754428
 20
737.9289346063649
 30
0.0
 40
3.0
100
AcDbArc
 50
270.0
 51
327.7690473644999
  0
LINE
  5
416
330
1F
100
AcDbEntity
  8
0
  6
Continuous
 62
     7
370
    35
100
AcDbLine
 10
1779.9912909509
 20
737.1289346063649
 30
0.0
 11
1779.9912909509
 21
736.3289346063651
 31
0.0
  0
LINE
  5
417
330
1F
100
AcDbEntity
  8
0
  6
Continuous
 62
     7
370
    35
100
AcDbLine
 10
1789.3912909509
 20
736.3289346063651
 30
0.0
 11
1789.3912909509
 21
737.1289346063649
 31
0.0
  0
ARC
  5
418
330
1F
100
AcDbEntity
  8
0
  6
Continuous
 62
     7
370
    35
100
AcDbCircle
 10
1783.129006459
 20
737.9289346063649
 30
0.0
 40
3.0
100
AcDbArc
 50
212.2309526355
 51
270.0
  0
ARC
  5
419
330
1F
100
AcDbEntity
  8
0
  6
Continuous
 62
     7
370
    35
100
AcDbCircle
 10
1786.2535754428
 20
737.9289346063649
 30
0.0
 40
3.000000000000083
100
AcDbArc
 50
270.0
 51
327.7690473644999
  0
LINE
  5
41A
330
1F
100
AcDbEntity
  8
0
  6
Continuous
 62
     7
370
    35
100
AcDbLine
 10
1585.9912909509
 20
737.1289346063649
 30
0.0
 11
1585.9912909509
 21
736.3289346063651
 31
0.0
  0
LINE
  5
41B
330
1F
100
AcDbEntity
  8
0
  6
Continuous
 62
     7
370
    35
100
AcDbLine
 10
1595.3912909509
 20
736.3289346063651
 30
0.0
 11
1595.3912909509
 21
737.1289346063649
 31
0.0
  0
ARC
  5
41C
330
1F
100
AcDbEntity
  8
0
  6
Continuous
 62
     7
370
    35
100
AcDbCircle
 10
1589.129006459
 20
737.9289346063649
 30
0.0
 40
3.0
100
AcDbArc
 50
212.2309526355
 51
270.0
  0
ARC
  5
41D
330
1F
100
AcDbEntity
  8
0
  6
Continuous
 62
     7
370
    35
100
AcDbCircle
 10
1592.2535754428
 20
737.9289346063649
 30
0.0
 40
3.0
100
AcDbArc
 50
270.0
 51
327.7690473644999
  0
CIRCLE
  5
41E
330
1F
100
AcDbEntity
  8
0
  6
Continuous
 62
     7
370
    35
100
AcDbCircle
 10
1860.8912909509
 20
780.4289346063649
 30
0.0
 40
5.249999999999773
  0
SPLINE
  5
41F
330
1F
100
AcDbEntity
  8
0
  6
Continuous
 62
     7
370
    35
100
AcDbSpline
210
0.0
220
0.0
230
1.0
 70
     8
 71
     3
 72
    15
 73
    11
 74
     0
 42
0.00000001
 43
0.0000000001
 40
0.0
 40
0.0
 40
0.0
 40
0.0
 40
0.1586197483435727
 40
0.2859940706945704
 40
0.3822807453851721
 40
0.4526056854108788
 40
0.5426674282649281
 40
0.6637152377077898
 40
0.8160717177887429
 40
1.0
 40
1.0
 40
1.0
 40
1.0
 10
1851.625019242982
 20
497.742718591953
 30
0.0
 10
1852.896436038871
 20
497.5908626130636
 30
0.0
 10
1855.188821878609
 20
497.3170637323099
 30
0.0
 10
1858.261980390768
 20
497.0311943154685
 30
0.0
 10
1860.63136171397
 20
496.890507775209
 30
0.0
 10
1862.702553208973
 20
496.8276297053007
 30
0.0
 10
1864.974794940189
 20
496.8255879794505
 30
0.0
 10
1867.907616091123
 20
496.9372298241003
 30
0.0
 10
1871.587715993574
 20
497.2446374095873
 30
0.0
 10
1874.283257578767
 20
497.5666153257195
 30
0.0
 10
1875.757562658826
 20
497.742718591953
 30
0.0
  0
ARC
  5
420
330
1F
100
AcDbEntity
  8
0
  6
Continuous
 62
     7
370
    35
100
AcDbCircle
 10
1851.8912909509
 20
498.718127383665
 30
0.0
 40
1.000000000000102
100
AcDbArc
 50
179.9999740951998
 51
263.9189582473
  0
ARC
  5
421
330
1F
100
AcDbEntity
  8
0
  6
Continuous
 62
     7
370
    35
100
AcDbCircle
 10
1875.4912909509
 20
498.718127383665
 30
0.0
 40
0.9999999999998747
100
AcDbArc
 50
276.0403541169999
 51
0.0000259048001981
  0
LINE
  5
422
330
1F
100
AcDbEntity
  8
0
  6
Continuous
 62
     7
370
    35
100
AcDbLine
 10
1496.9912909509
 20
736.3289346063651
 30
0.0
 11
1506.3912909509
 21
736.3289346063651
 31
0.0
  0
LINE
  5
423
330
1F
100
AcDbEntity
  8
0
  6
Continuous
 62
     7
370
    35
100
AcDbLine
 10
1500.129006459
 20
734.9289346063649
 30
0.0
 11
1503.2535754428
 21
734.9289346063649
 31
0.0
  0
LINE
  5
424
330
1F
100
AcDbEntity
  8
0
  6
Continuous
 62
     7
370
    35
100
AcDbLine
 10
1779.9912909509
 20
736.3289346063651
 30
0.0
 11
1789.3912909509
 21
736.3289346063651
 31
0.0
  0
LINE
  5
425
330
1F
100
AcDbEntity
  8
0
  6
Continuous
 62
     7
370
    35
100
AcDbLine
 10
1783.129006459
 20
734.9289346063649
 30
0.0
 11
1786.2535754428
 21
734.9289346063649
 31
0.0
  0
LINE
  5
426
330
1F
100
AcDbEntity
  8
0
  6
Continuous
 62
     7
370
    35
100
AcDbLine
 10
1585.9912909509
 20
736.3289346063651
 30
0.0
 11
1595.3912909509
 21
736.3289346063651
 31
0.0
  0
LINE
  5
427
330
1F
100
AcDbEntity
  8
0
  6
Continuous
 62
     7
370
    35
100
AcDbLine
 10
1589.129006459
 20
734.9289346063649
 30
0.0
 11
1592.2535754428
 21
734.9289346063649
 31
0.0
  0
LINE
  5
428
330
1F
100
AcDbEntity
  8
0
  6
Continuous
 62
     7
370
    35
100
AcDbLine
 10
1829.9912909509
 20
768.8789346063651
 30
0.0
 11
1829.9912909509
 21
762.5289346063651
 31
0.0
  0
LINE
  5
429
330
1F
100
AcDbEntity
  8
0
  6
Continuous
 62
     7
370
    35
100
AcDbLine
 10
1829.9912909509
 20
768.8789346063651
 30
0.0
 11
1843.9912909509
 21
768.8789346063651
 31
0.0
  0
ARC
  5
42A
330
1F
100
AcDbEntity
  8
0
  6
Continuous
 62
     7
370
    35
100
AcDbCircle
 10
1837.6412909509
 20
768.8789346063651
 30
0.0
 40
6.350000000000138
100
AcDbArc
 50
270.0
 51
0.0
  0
LINE
  5
42B
330
1F
100
AcDbEntity
  8
0
  6
Continuous
 62
     7
370
    35
100
AcDbLine
 10
1837.6412909509
 20
762.5289346063651
 30
0.0
 11
1829.9912909509
 21
762.5289346063651
 31
0.0
  0
LINE
  5
42C
330
1F
100
AcDbEntity
  8
0
  6
Continuous
 62
     7
370
    35
100
AcDbLine
 10
1829.9912909509
 20
775.2289346063649
 30
0.0
 11
1837.6412909509
 21
775.2289346063649
 31
0.0
  0
ARC
  5
42D
330
1F
100
AcDbEntity
  8
0
  6
Continuous
 62
     7
370
    35
100
AcDbCircle
 10
1837.6412909509
 20
768.8789346063651
 30
0.0
 40
6.350000000000138
100
AcDbArc
 50
0.0
 51
90.0
  0
LINE
  5
42E
330
1F
100
AcDbEntity
  8
0
  6
Continuous
 62
     7
370
    35
100
AcDbLine
 10
1829.9912909509
 20
775.2289346063649
 30
0.0
 11
1829.9912909509
 21
768.8789346063651
 31
0.0
  0
LINE
  5
42F
330
1F
100
AcDbEntity
  8
0
  6
Continuous
 62
     7
370
    35
100
AcDbLine
 10
1493.9912909509
 20
775.2289346063649
 30
0.0
 11
1829.9912909509
 21
775.2289346063649
 31
0.0
  0
LINE
  5
430
330
1F
100
AcDbEntity
  8
0
  6
Continuous
 62
     7
370
    35
100
AcDbLine
 10
1493.9912909509
 20
768.8789346063651
 30
0.0
 11
1829.9912909509
 21
768.8789346063651
 31
0.0
  0
LINE
  5
431
330
1F
100
AcDbEntity
  8
0
  6
Continuous
 62
     7
370
    35
100
AcDbLine
 10
1493.9912909509
 20
775.2289346063649
 30
0.0
 11
1493.9912909509
 21
768.8789346063651
 31
0.0
  0
LINE
  5
432
330
1F
100
AcDbEntity
  8
0
  6
Continuous
 62
     7
370
    35
100
AcDbLine
 10
1829.9912909509
 20
762.5289346063651
 30
0.0
 11
1493.9912909509
 21
762.5289346063651
 31
0.0
  0
LINE
  5
433
330
1F
100
AcDbEntity
  8
0
  6
Continuous
 62
     7
370
    35
100
AcDbLine
 10
1493.9912909509
 20
768.8789346063651
 30
0.0
 11
1493.9912909509
 21
762.5289346063651
 31
0.0
  0
LINE
  5
434
330
1F
100
AcDbEntity
  8
0
  6
Continuous
 62
     7
370
    35
100
AcDbLine
 10
1486.3412909509
 20
775.2289346063649
 30
0.0
 11
1493.9912909509
 21
775.2289346063649
 31
0.0
  0
LINE
  5
435
330
1F
100
AcDbEntity
  8
0
  6
Continuous
 62
     7
370
    35
100
AcDbLine
 10
1479.9912909509
 20
768.8789346063651
 30
0.0
 11
1493.9912909509
 21
768.8789346063651
 31
0.0
  0
ARC
  5
436
330
1F
100
AcDbEntity
  8
0
  6
Continuous
 62
     7
370
    35
100
AcDbCircle
 10
1486.3412909509
 20
768.8789346063651
 30
0.0
 40
6.350000000000022
100
AcDbArc
 50
90.0
 51
180.0
  0
LINE
  5
437
330
1F
100
AcDbEntity
  8
0
  6
Continuous
 62
     7
370
    35
100
AcDbLine
 10
1493.9912909509
 20
762.5289346063651
 30
0.0
 11
1486.3412909509
 21
762.5289346063651
 31
0.0
  0
ARC
  5
438
330
1F
100
AcDbEntity
  8
0
  6
Continuous
 62
     7
370
    35
100
AcDbCircle
 10
1486.3412909509
 20
768.8789346063651
 30
0.0
 40
6.350000000000022
100
AcDbArc
 50
180.0
 51
270.0
  0
LINE
  5
439
330
1F
100
AcDbEntity
  8
0
  6
Continuous
 62
     7
370
    35
100
AcDbLine
 10
1858.5504093086
 20
780.739267443765
 30
0.0
 11
1859.4520940089
 21
778.5568380555651
 31
0.0
  0
LINE
  5
43A
330
1F
100
AcDbEntity
  8
0
  6
Continuous
 62
     7
370
    35
100
AcDbLine
 10
1859.4520940089
 20
778.5568380555651
 30
0.0
 11
1861.7929756513
 21
778.2465052181651
 31
0.0
  0
LINE
  5
43B
330
1F
100
AcDbEntity
  8
0
  6
Continuous
 62
     7
370
    35
100
AcDbLine
 10
1861.7929756513
 20
778.2465052181651
 30
0.0
 11
1863.2321725932
 21
780.1186017690651
 31
0.0
  0
LINE
  5
43C
330
1F
100
AcDbEntity
  8
0
  6
Continuous
 62
     7
370
    35
100
AcDbLine
 10
1863.2321725932
 20
780.1186017690651
 30
0.0
 11
1862.3304878929
 21
782.3010311572651
 31
0.0
  0
LINE
  5
43D
330
1F
100
AcDbEntity
  8
0
  6
Continuous
 62
     7
370
    35
100
AcDbLine
 10
1862.3304878929
 20
782.3010311572651
 30
0.0
 11
1859.9896062505
 21
782.6113639945649
 31
0.0
  0
LINE
  5
43E
330
1F
100
AcDbEntity
  8
0
  6
Continuous
 62
     7
370
    35
100
AcDbLine
 10
1859.9896062505
 20
782.6113639945649
 30
0.0
 11
1858.5504093086
 21
780.739267443765
 31
0.0
  0
CIRCLE
  5
43F
330
1F
100
AcDbEntity
  8
0
  6
Continuous
 62
     7
370
    35
100
AcDbCircle
 10
1860.8912909509
 20
780.4289346063649
 30
0.0
 40
5.213154689403164
  0
ARC
  5
440
330
1F
100
AcDbEntity
  8
0
  6
Continuous
 62
     7
370
    35
100
AcDbCircle
 10
1860.8912909509
 20
780.4289346063649
 30
0.0
 40
12.70000000000027
100
AcDbArc
 50
90.0
 51
180.0
  0
ARC
  5
441
330
1F
100
AcDbEntity
  8
0
  6
Continuous
 62
     7
370
    35
100
AcDbCircle
 10
1860.8912909509
 20
780.4289346063649
 30
0.0
 40
12.70000000000027
100
AcDbArc
 50
0.0
 51
90.0
  0
LINE
  5
442
330
1F
100
AcDbEntity
  8
0
  6
Continuous
 62
     7
370
    35
100
AcDbLine
 10
1848.1912909509
 20
737.1289346063649
 30
0.0
 11
1847.9912909509
 21
737.1289346063649
 31
0.0
  0
LINE
  5
443
330
1F
100
AcDbEntity
  8
0
  6
Continuous
 62
     7
370
    35
100
AcDbLine
 10
1847.9912909509
 20
762.5289346063651
 30
0.0
 11
1847.9912909509
 21
737.1289346063649
 31
0.0
  0
LINE
  5
444
330
1F
100
AcDbEntity
  8
0
  6
Continuous
 62
     7
370
    35
100
AcDbLine
 10
1847.9912909509
 20
762.5289346063651
 30
0.0
 11
1848.1912909509
 21
762.5289346063651
 31
0.0
  0
LINE
  5
445
330
1F
100
AcDbEntity
  8
0
  6
Continuous
 62
     7
370
    35
100
AcDbLine
 10
1848.1912909509
 20
762.5289346063651
 30
0.0
 11
1848.1912909509
 21
780.4289346063649
 31
0.0
  0
LINE
  5
446
330
1F
100
AcDbEntity
  8
0
  6
Continuous
 62
     7
370
    35
100
AcDbLine
 10
1873.5912909509
 20
780.4289346063649
 30
0.0
 11
1873.5912909509
 21
762.5289346063651
 31
0.0
  0
ARC
  5
447
330
1F
100
AcDbEntity
  8
0
  6
Continuous
 62
     7
370
    35
100
AcDbCircle
 10
1848.1912909509
 20
762.5289346063651
 30
0.0
 40
25.39999999999986
100
AcDbArc
 50
270.0
 51
0.0
  0
LINE
  5
448
330
1F
100
AcDbEntity
  8
0
  6
Continuous
 62
     7
370
    35
100
AcDbLine
 10
1847.9912909509
 20
737.1289346063649
 30
0.0
 11
1843.9912909509
 21
737.1289346063649
 31
0.0
  0
LINE
  5
449
330
1F
100
AcDbEntity
  8
0
  6
Continuous
 62
     7
370
    35
100
AcDbLine
 10
1843.9912909509
 20
762.5289346063651
 30
0.0
 11
1843.9912909509
 21
762.5026040658649
 31
0.0
  0
LINE
  5
44A
330
1F
100
AcDbEntity
  8
0
  6
Continuous
 62
     7
370
    35
100
AcDbLine
 10
1843.9912909509
 20
737.155265146965
 30
0.0
 11
1843.9912909509
 21
737.1289346063649
 31
0.0
  0
LINE
  5
44B
330
1F
100
AcDbEntity
  8
0
  6
Continuous
 62
     7
370
    35
100
AcDbLine
 10
1843.9912909509
 20
762.5289346063651
 30
0.0
 11
1847.9912909509
 21
762.5289346063651
 31
0.0
  0
LINE
  5
44C
330
1F
100
AcDbEntity
  8
0
  6
Continuous
 62
     7
370
    35
100
AcDbLine
 10
1589.6912909509
 20
762.5289346063651
 30
0.0
 11
1589.6912909509
 21
761.3289346063651
 31
0.0
  0
LINE
  5
44D
330
1F
100
AcDbEntity
  8
0
  6
Continuous
 62
     7
370
    35
100
AcDbLine
 10
1837.6412909509
 20
762.5289346063651
 30
0.0
 11
1843.9912909509
 21
762.5289346063651
 31
0.0
  0
LINE
  5
44E
330
1F
100
AcDbEntity
  8
0
  6
Continuous
 62
     7
370
    35
100
AcDbLine
 10
1843.9912909509
 20
762.5026040658649
 30
0.0
 11
1843.9912909509
 21
761.3289346063651
 31
0.0
  0
LINE
  5
44F
330
1F
100
AcDbEntity
  8
0
  6
Continuous
 62
     7
370
    35
100
AcDbLine
 10
1589.6912909509
 20
761.3289346063651
 30
0.0
 11
1843.9912909509
 21
761.3289346063651
 31
0.0
  0
LINE
  5
450
330
1F
100
AcDbEntity
  8
0
  6
Continuous
 62
     7
370
    35
100
AcDbLine
 10
1589.6912909509
 20
737.1289346063649
 30
0.0
 11
1843.9912909509
 21
737.1289346063649
 31
0.0
  0
LINE
  5
451
330
1F
100
AcDbEntity
  8
0
  6
Continuous
 62
     7
370
    35
100
AcDbLine
 10
1589.6912909509
 20
738.3289346063651
 30
0.0
 11
1589.6912909509
 21
737.1289346063649
 31
0.0
  0
LINE
  5
452
330
1F
100
AcDbEntity
  8
0
  6
Continuous
 62
     7
370
    35
100
AcDbLine
 10
1589.6912909509
 20
738.3289346063651
 30
0.0
 11
1843.9912909509
 21
738.3289346063651
 31
0.0
  0
LINE
  5
453
330
1F
100
AcDbEntity
  8
0
  6
Continuous
 62
     7
370
    35
100
AcDbLine
 10
1843.9912909509
 20
738.3289346063651
 30
0.0
 11
1843.9912909509
 21
737.155265146965
 31
0.0
  0
LINE
  5
454
330
1F
100
AcDbEntity
  8
0
  6
Continuous
 62
     7
370
    35
100
AcDbLine
 10
1589.6912909509
 20
761.3289346063651
 30
0.0
 11
1589.6912909509
 21
738.3289346063651
 31
0.0
  0
LINE
  5
455
330
1F
100
AcDbEntity
  8
0
  6
Continuous
 62
     7
370
    35
100
AcDbLine
 10
1843.9912909509
 20
761.3289346063651
 30
0.0
 11
1843.9912909509
 21
738.3289346063651
 31
0.0
  0
LINE
  5
456
330
1F
100
AcDbEntity
  8
0
  6
Continuous
 62
     7
370
    35
100
AcDbLine
 10
1488.9912909509
 20
761.3289346063651
 30
0.0
 11
1488.9912909509
 21
738.3289346063651
 31
0.0
  0
LINE
  5
457
330
1F
100
AcDbEntity
  8
0
  6
Continuous
 62
     7
370
    35
100
AcDbLine
 10
1488.9912909509
 20
761.3289346063651
 30
0.0
 11
1589.6912909509
 21
761.3289346063651
 31
0.0
  0
LINE
  5
458
330
1F
100
AcDbEntity
  8
0
  6
Continuous
 62
     7
370
    35
100
AcDbLine
 10
1488.9912909509
 20
738.3289346063651
 30
0.0
 11
1589.6912909509
 21
738.3289346063651
 31
0.0
  0
LINE
  5
459
330
1F
100
AcDbEntity
  8
0
  6
Continuous
 62
     7
370
    35
100
AcDbLine
 10
1490.1912909509
 20
737.1289346063649
 30
0.0
 11
1589.6912909509
 21
737.1289346063649
 31
0.0
  0
ARC
  5
45A
330
1F
100
AcDbEntity
  8
0
  6
Continuous
 62
     7
370
    35
100
AcDbCircle
 10
1490.1912909509
 20
738.3289346063651
 30
0.0
 40
1.199999999999932
100
AcDbArc
 50
180.0
 51
270.0
  0
ARC
  5
45B
330
1F
100
AcDbEntity
  8
0
  6
Continuous
 62
     7
370
    35
100
AcDbCircle
 10
1490.1912909509
 20
761.3289346063651
 30
0.0
 40
1.200000000000043
100
AcDbArc
 50
90.0
 51
180.0
  0
SPLINE
  5
45C
330
1F
100
AcDbEntity
  8
0
  6
Continuous
 62
     7
370
    35
100
AcDbSpline
210
0.0
220
0.0
230
1.0
 70
     8
 71
     3
 72
    12
 73
     8
 74
     0
 42
0.00000001
 43
0.0000000001
 40
0.0
 40
0.0
 40
0.0
 40
0.0
 40
0.2139882661242198
 40
0.4290941048682294
 40
0.64449750278774
 40
0.8593094884487147
 40
1.0
 40
1.0
 40
1.0
 40
1.0
 10
1875.513105103084
 20
497.8101256313154
 30
0.0
 10
1875.500698747555
 20
497.8111939551808
 30
0.0
 10
1875.475821243209
 20
497.8133361823273
 30
0.0
 10
1875.3005626775
 20
497.8141815232417
 30
0.0
 10
1875.0453231016
 20
497.8139979220481
 30
0.0
 10
1874.763555448266
 20
497.8127805927265
 30
0.0
 10
1874.577047121712
 20
497.8108784050158
 30
0.0
 10
1874.503236242528
 20
497.8101256120985
 30
0.0
  0
LINE
  5
45D
330
1F
100
AcDbEntity
  8
0
  6
Continuous
 62
     7
370
    35
100
AcDbLine
 10
1874.5032362425
 20
497.810125612065
 30
0.0
 11
1874.4912909509
 21
498.8098162907651
 31
0.0
  0
SPLINE
  5
45E
330
1F
100
AcDbEntity
  8
0
  6
Continuous
 62
     7
370
    35
100
AcDbSpline
210
0.0
220
0.0
230
1.0
 70
     8
 71
     3
 72
    12
 73
     8
 74
     0
 42
0.00000001
 43
0.0000000001
 40
0.0
 40
0.0
 40
0.0
 40
0.0
 40
0.1413047294170201
 40
0.3559825851801736
 40
0.5706600344456743
 40
0.7853324456801456
 40
1.0
 40
1.0
 40
1.0
 40
1.0
 10
1874.491290950904
 20
498.8098162907594
 30
0.0
 10
1874.638811395154
 20
498.8105868603192
 30
0.0
 10
1875.010452948326
 20
498.8125281212036
 30
0.0
 10
1875.57282005054
 20
498.8137892843734
 30
0.0
 10
1876.080233446687
 20
498.8139798833568
 30
0.0
 10
1876.424981116276
 20
498.8130989238662
 30
0.0
 10
1876.469187839391
 20
498.8109105064669
 30
0.0
 10
1876.491290950904
 20
498.8098163101455
 30
0.0
  0
ARC
  5
45F
330
1F
100
AcDbEntity
  8
0
  6
Continuous
 62
     7
370
    35
100
AcDbCircle
 10
1875.4913284768
 20
498.809850958265
 30
0.0
 40
0.9999624747140416
100
AcDbArc
 50
271.2478542482
 51
359.9980147333994
  0
SPLINE
  5
460
330
1F
100
AcDbEntity
  8
0
  6
Continuous
 62
     7
370
    35
100
AcDbSpline
210
0.0
220
0.0
230
1.0
 70
     8
 71
     3
 72
    10
 73
     6
 74
     0
 42
0.00000001
 43
0.0000000001
 40
0.0
 40
0.0
 40
0.0
 40
0.0
 40
0.3129968947762849
 40
0.6566599615563156
 40
1.0
 40
1.0
 40
1.0
 40
1.0
 10
1874.503236242528
 20
497.8101256120985
 30
0.0
 10
1872.247354372792
 20
497.782221032478
 30
0.0
 10
1867.514568436002
 20
497.7236778951924
 30
0.0
 10
1860.305455404589
 20
497.7188249041767
 30
0.0
 10
1855.353939523891
 20
497.7797015969938
 30
0.0
 10
1852.879345683038
 20
497.8101256313152
 30
0.0
  0
LINE
  5
461
330
1F
100
AcDbEntity
  8
0
  6
Continuous
 62
     7
370
    35
100
AcDbLine
 10
1852.879345683
 20
497.810125631365
 30
0.0
 11
1852.8912909509
 21
498.809816310165
 31
0.0
  0
SPLINE
  5
462
330
1F
100
AcDbEntity
  8
0
  6
Continuous
 62
     7
370
    35
100
AcDbSpline
210
0.0
220
0.0
230
1.0
 70
     8
 71
     3
 72
    10
 73
     6
 74
     0
 42
0.00000001
 43
0.0000000001
 40
0.0
 40
0.0
 40
0.0
 40
0.0
 40
0.3434584622114989
 40
0.6868667913206679
 40
1.0
 40
1.0
 40
1.0
 40
1.0
 10
1852.891290950904
 20
498.8098163101456
 30
0.0
 10
1855.364095424067
 20
498.7772092602283
 30
0.0
 10
1860.309343426136
 20
498.7119999198994
 30
0.0
 10
1867.509931264157
 20
498.7176559361115
 30
0.0
 10
1872.236828237898
 20
498.7800553140307
 30
0.0
 10
1874.491290950904
 20
498.8098162907594
 30
0.0
  0
LINE
  5
463
330
1F
100
AcDbEntity
  8
0
  6
Continuous
 62
     7
370
    35
100
AcDbLine
 10
1874.4912909509
 20
502.4289346063651
 30
0.0
 11
1875.1157907507
 21
502.4289346063651
 31
0.0
  0
LINE
  5
464
330
1F
100
AcDbEntity
  8
0
  6
Continuous
 62
     7
370
    35
100
AcDbLine
 10
1876.3912909509
 20
502.4289346063651
 30
0.0
 11
1876.4912909509
 21
502.4289346063651
 31
0.0
  0
LINE
  5
465
330
1F
100
AcDbEntity
  8
0
  6
Continuous
 62
     7
370
    35
100
AcDbLine
 10
1876.4912909509
 20
502.4289346063651
 30
0.0
 11
1876.4912909509
 21
498.809816310165
 31
0.0
  0
LINE
  5
466
330
1F
100
AcDbEntity
  8
0
  6
Continuous
 62
     7
370
    35
100
AcDbLine
 10
1874.4912909509
 20
502.4289346063651
 30
0.0
 11
1874.4912909509
 21
498.8098162907651
 31
0.0
  0
LINE
  5
467
330
1F
100
AcDbEntity
  8
0
  6
Continuous
 62
     7
370
    35
100
AcDbLine
 10
1852.8912909509
 20
502.4289346063651
 30
0.0
 11
1874.4912909509
 21
502.4289346063651
 31
0.0
  0
LINE
  5
468
330
1F
100
AcDbEntity
  8
0
  6
Continuous
 62
     7
370
    35
100
AcDbLine
 10
1852.8912909509
 20
502.4289346063651
 30
0.0
 11
1852.8912909509
 21
498.809816310165
 31
0.0
  0
SPLINE
  5
469
330
1F
100
AcDbEntity
  8
0
  6
Continuous
 62
     7
370
    35
100
AcDbSpline
210
0.0
220
0.0
230
1.0
 70
     8
 71
     3
 72
    12
 73
     8
 74
     0
 42
0.00000001
 43
0.0000000001
 40
0.0
 40
0.0
 40
0.0
 40
0.0
 40
0.1413047294170175
 40
0.3559825851801554
 40
0.5706600344456984
 40
0.7853324456800789
 40
1.0
 40
1.0
 40
1.0
 40
1.0
 10
1850.891290950904
 20
498.8098162907594
 30
0.0
 10
1850.901000089863
 20
498.8105868603192
 30
0.0
 10
1850.925459882546
 20
498.8125281212035
 30
0.0
 10
1851.165204026928
 20
498.8137892843734
 30
0.0
 10
1851.617518786466
 20
498.8139798833565
 30
0.0
 10
1852.216829656563
 20
498.8130989238664
 30
0.0
 10
1852.666472214986
 20
498.8109105064672
 30
0.0
 10
1852.891290950904
 20
498.8098163101456
 30
0.0
  0
LINE
  5
46A
330
1F
100
AcDbEntity
  8
0
  6
Continuous
 62
     7
370
    35
100
AcDbLine
 10
1850.8912909509
 20
502.4289346063651
 30
0.0
 11
1850.8912909509
 21
498.8098162907651
 31
0.0
  0
LINE
  5
46B
330
1F
100
AcDbEntity
  8
0
  6
Continuous
 62
     7
370
    35
100
AcDbLine
 10
1850.8912909509
 20
502.4289346063651
 30
0.0
 11
1850.9912909509
 21
502.4289346063651
 31
0.0
  0
LINE
  5
46C
330
1F
100
AcDbEntity
  8
0
  6
Continuous
 62
     7
370
    35
100
AcDbLine
 10
1852.2667911511
 20
502.4289346063651
 30
0.0
 11
1852.8912909509
 21
502.4289346063651
 31
0.0
  0
SPLINE
  5
46D
330
1F
100
AcDbEntity
  8
0
  6
Continuous
 62
     7
370
    35
100
AcDbSpline
210
0.0
220
0.0
230
1.0
 70
     8
 71
     3
 72
    12
 73
     8
 74
     0
 42
0.00000001
 43
0.0000000001
 40
0.0
 40
0.0
 40
0.0
 40
0.0
 40
0.2139882661242253
 40
0.4290941048682412
 40
0.6444975027878094
 40
0.8593094884487488
 40
1.0
 40
1.0
 40
1.0
 40
1.0
 10
1852.879345683038
 20
497.8101256313152
 30
0.0
 10
1852.766789757138
 20
497.8111939551806
 30
0.0
 10
1852.541090072073
 20
497.8133361823267
 30
0.0
 10
1852.240755559335
 20
497.814181523242
 30
0.0
 10
1852.012619354381
 20
497.8139979220479
 30
0.0
 10
1851.889691611097
 20
497.8127805927262
 30
0.0
 10
1851.875208508174
 20
497.8108784050159
 30
0.0
 10
1851.869476803967
 20
497.8101256120985
 30
0.0
  0
ARC
  5
46E
330
1F
100
AcDbEntity
  8
0
  6
Continuous
 62
     7
370
    35
100
AcDbCircle
 10
1851.8912534249
 20
498.8098509390651
 30
0.0
 40
0.9999624745651718
100
AcDbArc
 50
180.0019852745001
 51
268.7521460606
  0
SPLINE
  5
46F
330
1F
100
AcDbEntity
  8
0
  6
Continuous
 62
     7
370
    35
100
AcDbSpline
210
0.0
220
0.0
230
1.0
 70
    24
 71
     3
 72
     9
 73
     5
 74
     0
 42
0.00000001
 43
0.0000000001
 40
0.0
 40
0.0
 40
0.0
 40
0.0
 40
0.3746073871607027
 40
1.0
 40
1.0
 40
1.0
 40
1.0
 10
1850.891290950904
 20
498.7313640989289
 30
0.0
 10
1850.891290950904
 20
498.729521225032
 30
0.0
 10
1850.891290950904
 20
498.7246017441028
 30
0.0
 10
1850.891290950904
 20
498.7770287983316
 30
0.0
 10
1850.891290950904
 20
498.8098162907594
 30
0.0
  0
SPLINE
  5
470
330
1F
100
AcDbEntity
  8
0
  6
Continuous
 62
     7
370
    35
100
AcDbSpline
210
0.0
220
0.0
230
1.0
 70
    24
 71
     3
 72
     9
 73
     5
 74
     0
 42
0.00000001
 43
0.0000000001
 40
0.0
 40
0.0
 40
0.0
 40
0.0
 40
0.6878780341690463
 40
1.0
 40
1.0
 40
1.0
 40
1.0
 10
1876.491290950904
 20
498.8098163101455
 30
0.0
 10
1876.491290950904
 20
498.7732049677892
 30
0.0
 10
1876.491290950904
 20
498.7199813721256
 30
0.0
 10
1876.491290950904
 20
498.7286564245215
 30
0.0
 10
1876.491290950904
 20
498.7313640989291
 30
0.0
  0
LINE
  5
471
330
1F
100
AcDbEntity
  8
0
  6
Continuous
 62
     7
370
    35
100
AcDbLine
 10
1876.3912909509
 20
792.4289346063649
 30
0.0
 11
1876.3912909509
 21
793.2289346063651
 31
0.0
  0
LINE
  5
472
330
1F
100
AcDbEntity
  8
0
  6
Continuous
 62
     7
370
    35
100
AcDbLine
 10
1875.1912909509
 20
792.4289346063649
 30
0.0
 11
1875.1912909509
 21
793.2289346063651
 31
0.0
  0
LINE
  5
473
330
1F
100
AcDbEntity
  8
0
  6
Continuous
 62
     7
370
    35
100
AcDbLine
 10
1876.3912909509
 20
793.2289346063651
 30
0.0
 11
1875.1912909509
 21
793.2289346063651
 31
0.0
  0
LINE
  5
474
330
1F
100
AcDbEntity
  8
0
  6
Continuous
 62
     7
370
    35
100
AcDbLine
 10
1876.3912909509
 20
792.4289346063649
 30
0.0
 11
1875.1912909509
 21
792.4289346063649
 31
0.0
  0
LINE
  5
475
330
1F
100
AcDbEntity
  8
0
  6
Continuous
 62
     7
370
    35
100
AcDbLine
 10
1852.1912909509
 20
792.4289346063649
 30
0.0
 11
1852.1912909509
 21
793.2289346063651
 31
0.0
  0
LINE
  5
476
330
1F
100
AcDbEntity
  8
0
  6
Continuous
 62
     7
370
    35
100
AcDbLine
 10
1875.1912909509
 20
793.2289346063651
 30
0.0
 11
1852.1912909509
 21
793.2289346063651
 31
0.0
  0
LINE
  5
477
330
1F
100
AcDbEntity
  8
0
  6
Continuous
 62
     7
370
    35
100
AcDbLine
 10
1875.1912909509
 20
792.4289346063649
 30
0.0
 11
1865.0494155282
 21
792.4289346063649
 31
0.0
  0
LINE
  5
478
330
1F
100
AcDbEntity
  8
0
  6
Continuous
 62
     7
370
    35
100
AcDbLine
 10
1856.7331663736
 20
792.4289346063649
 30
0.0
 11
1852.1912909509
 21
792.4289346063649
 31
0.0
  0
LINE
  5
479
330
1F
100
AcDbEntity
  8
0
  6
Continuous
 62
     7
370
    35
100
AcDbLine
 10
1850.9912909509
 20
792.4289346063649
 30
0.0
 11
1850.9912909509
 21
793.2289346063651
 31
0.0
  0
LINE
  5
47A
330
1F
100
AcDbEntity
  8
0
  6
Continuous
 62
     7
370
    35
100
AcDbLine
 10
1852.1912909509
 20
793.2289346063651
 30
0.0
 11
1850.9912909509
 21
793.2289346063651
 31
0.0
  0
LINE
  5
47B
330
1F
100
AcDbEntity
  8
0
  6
Continuous
 62
     7
370
    35
100
AcDbLine
 10
1852.1912909509
 20
792.4289346063649
 30
0.0
 11
1850.9912909509
 21
792.4289346063649
 31
0.0
  0
LINE
  5
47C
330
1F
100
AcDbEntity
  8
0
  6
Continuous
 62
     7
370
    35
100
AcDbLine
 10
1875.1912909509
 20
792.4289346063649
 30
0.0
 11
1875.1912909509
 21
502.4289346063651
 31
0.0
  0
LINE
  5
47D
330
1F
100
AcDbEntity
  8
0
  6
Continuous
 62
     7
370
    35
100
AcDbLine
 10
1852.1912909509
 20
502.4289346063651
 30
0.0
 11
1852.2667911511
 21
502.4289346063651
 31
0.0
  0
LINE
  5
47E
330
1F
100
AcDbEntity
  8
0
  6
Continuous
 62
     7
370
    35
100
AcDbLine
 10
1875.1157907507
 20
502.4289346063651
 30
0.0
 11
1875.1912909509
 21
502.4289346063651
 31
0.0
  0
LINE
  5
47F
330
1F
100
AcDbEntity
  8
0
  6
Continuous
 62
     7
370
    35
100
AcDbLine
 10
1876.3912909509
 20
792.4289346063649
 30
0.0
 11
1876.3912909509
 21
502.4289346063651
 31
0.0
  0
LINE
  5
480
330
1F
100
AcDbEntity
  8
0
  6
Continuous
 62
     7
370
    35
100
AcDbLine
 10
1875.1912909509
 20
502.4289346063651
 30
0.0
 11
1876.3912909509
 21
502.4289346063651
 31
0.0
  0
LINE
  5
481
330
1F
100
AcDbEntity
  8
0
  6
Continuous
 62
     7
370
    35
100
AcDbLine
 10
1850.9912909509
 20
792.4289346063649
 30
0.0
 11
1850.9912909509
 21
788.3838073269651
 31
0.0
  0
LINE
  5
482
330
1F
100
AcDbEntity
  8
0
  6
Continuous
 62
     7
370
    35
100
AcDbLine
 10
1850.9912909509
 20
737.2837370432651
 30
0.0
 11
1850.9912909509
 21
502.4289346063651
 31
0.0
  0
LINE
  5
483
330
1F
100
AcDbEntity
  8
0
  6
Continuous
 62
     7
370
    35
100
AcDbLine
 10
1850.9912909509
 20
502.4289346063651
 30
0.0
 11
1852.1912909509
 21
502.4289346063651
 31
0.0
  0
SPLINE
  5
484
330
1F
100
AcDbEntity
  8
0
  6
Continuous
 62
     7
370
    35
100
AcDbSpline
210
0.0
220
0.0
230
1.0
 70
     8
 71
     3
 72
     9
 73
     5
 74
     0
 42
0.00000001
 43
0.0000000001
 40
0.0
 40
0.0
 40
0.0
 40
0.0
 40
0.3133206983642235
 40
1.0
 40
1.0
 40
1.0
 40
1.0
 10
1875.594668598303
 20
497.7367589600982
 30
0.0
 10
1875.597551616189
 20
497.7342461779563
 30
0.0
 10
1875.606753108144
 20
497.726226337087
 30
0.0
 10
1875.551230991421
 20
497.7759686290253
 30
0.0
 10
1875.513105103084
 20
497.8101256313154
 30
0.0
  0
SPLINE
  5
485
330
1F
100
AcDbEntity
  8
0
  6
Continuous
 62
     7
370
    35
100
AcDbSpline
210
0.0
220
0.0
230
1.0
 70
     8
 71
     3
 72
     9
 73
     5
 74
     0
 42
0.00000001
 43
0.0000000001
 40
0.0
 40
0.0
 40
0.0
 40
0.0
 40
0.6259944836018941
 40
1.0
 40
1.0
 40
1.0
 40
1.0
 10
1851.869476803967
 20
497.8101256120985
 30
0.0
 10
1851.835456734081
 20
497.7793807161368
 30
0.0
 10
1851.781111095616
 20
497.730267031005
 30
0.0
 10
1851.786061736395
 20
497.7349918511713
 30
0.0
 10
1851.787913303356
 20
497.7367589599774
 30
0.0
  0
LINE
  5
486
330
1F
100
AcDbEntity
  8
0
  6
Continuous
 62
     7
370
    35
100
AcDbLine
 10
1852.1912909509
 20
792.4289346063649
 30
0.0
 11
1852.1912909509
 21
789.6809614113649
 31
0.0
  0
LINE
  5
487
330
1F
100
AcDbEntity
  8
0
  6
Continuous
 62
     7
370
    35
100
AcDbLine
 10
1852.1912909509
 20
737.4458725923649
 30
0.0
 11
1852.1912909509
 21
502.4289346063651
 31
0.0
  0
LINE
  5
488
330
1F
100
AcDbEntity
  8
MODEL
100
AcDbLine
 10
1863.6946697157
 20
496.829796245265
 30
0.0
 11
1879.7492761123
 21
496.829796245265
 31
0.0
  0
DIMENSION
  5
489
102
{ACAD_XDICTIONARY
360
547
102
}
330
1F
100
AcDbEntity
  8
DIMENSION
 62
     7
100
AcDbDimension
280
     0
  2
*D16
 10
1940.4570055623
 20
793.2289346064655
 30
0.0
 11
1940.4570055623
 21
659.8873587820651
 31
0.0
 70
   160
  1
<>
 71
     2
 42
296.3991383612001
 73
     0
 74
     0
 75
     0
  3
RG Dimension Lines_Large
100
AcDbAlignedDimension
 13
1879.7492761123
 23
496.829796245265
 33
0.0
 14
1876.3912909509
 24
793.2289346064651
 34
0.0
 50
90.0
100
AcDbRotatedDimension
1001
AcadAnnotative
1000
AnnotativeData
1002
{
1070
     1
1070
     1
1002
}
1001
ACAD
1000
DSTYLE
1002
{
1070
   271
1070
     0
1002
}
  0
ENDSEC
  0
SECTION
  2
OBJECTS
  0
DICTIONARY
  5
C
330
0
100
AcDbDictionary
281
     1
  3
ACAD_CIP_PREVIOUS_PRODUCT_INFO
350
4D9
  3
ACAD_COLOR
350
4CE
  3
ACAD_DETAILVIEWSTYLE
350
4D5
  3
ACAD_GROUP
350
D
  3
ACAD_LAYOUT
350
1A
  3
ACAD_MATERIAL
350
49C
  3
ACAD_MLEADERSTYLE
350
4D1
  3
ACAD_MLINESTYLE
350
17
  3
ACAD_PLOTSETTINGS
350
19
  3
ACAD_PLOTSTYLENAME
350
E
  3
ACAD_SCALELIST
350
47
  3
ACAD_SECTIONVIEWSTYLE
350
4D3
  3
ACAD_TABLESTYLE
350
4CF
  3
ACAD_VISUALSTYLE
350
4B5
  3
ACDB_RECOMPOSE_DATA
350
69C
  3
AcDbVariableDictionary
350
4F7
  0
DICTIONARY
  5
50C
330
2
100
AcDbDictionary
280
     1
281
     1
  3
ACAD_LAYERSTATES
360
50D
  0
DICTIONARY
  5
4E1
330
10
100
AcDbDictionary
280
     1
281
     1
  3
ADSK_XREC_LAYER_RECONCILED
360
4E2
  0
DICTIONARY
  5
4EF
330
69
100
AcDbDictionary
280
     1
281
     1
  3
ADSK_XREC_LAYER_RECONCILED
360
4F0
  0
DICTIONARY
  5
5F6
330
1EF
100
AcDbDictionary
280
     1
281
     1
  3
AcDbContextDataManager
360
5F7
  0
DICTIONARY
  5
5D9
330
1FC
100
AcDbDictionary
280
     1
281
     1
  3
AcDbContextDataManager
360
5DA
  0
DICTIONARY
  5
5BC
330
3B1
100
AcDbDictionary
280
     1
281
     1
  3
AcDbContextDataManager
360
5BD
  0
DICTIONARY
  5
59F
330
3BA
100
AcDbDictionary
280
     1
281
     1
  3
AcDbContextDataManager
360
5A0
  0
DICTIONARY
  5
547
330
489
100
AcDbDictionary
280
     1
281
     1
  3
AcDbContextDataManager
360
548
  0
XRECORD
  5
4D9
102
{ACAD_REACTORS
330
C
102
}
330
C
100
AcDbXrecord
280
     1
300
ACD
300
2021
300

  0
DICTIONARY
  5
4CE
102
{ACAD_REACTORS
330
C
102
}
330
C
100
AcDbDictionary
281
     1
  0
DICTIONARY
  5
4D5
102
{ACAD_REACTORS
330
C
102
}
330
C
100
AcDbDictionary
281
     1
  3
Metric50
350
4D6
  0
DICTIONARY
  5
D
102
{ACAD_REACTORS
330
C
102
}
330
C
100
AcDbDictionary
281
     1
  0
DICTIONARY
  5
1A
102
{ACAD_REACTORS
330
C
102
}
330
C
100
AcDbDictionary
281
     1
  3
Layout1
350
1E
  3
Layout2
350
26
  3
Model
350
22
  0
DICTIONARY
  5
49C
102
{ACAD_REACTORS
330
C
102
}
330
C
100
AcDbDictionary
281
     1
  3
ByBlock
350
4A5
  3
ByLayer
350
49D
  3
Global
350
4AD
  0
DICTIONARY
  5
4D1
102
{ACAD_REACTORS
330
C
102
}
330
C
100
AcDbDictionary
281
     1
  3
Standard
350
4D2
  0
DICTIONARY
  5
17
102
{ACAD_REACTORS
330
C
102
}
330
C
100
AcDbDictionary
281
     1
  3
Standard
350
18
  0
DICTIONARY
  5
19
102
{ACAD_REACTORS
330
C
102
}
330
C
100
AcDbDictionary
281
     1
  0
ACDBDICTIONARYWDFLT
  5
E
102
{ACAD_REACTORS
330
C
102
}
330
C
100
AcDbDictionary
281
     1
  3
Normal
350
F
100
AcDbDictionaryWithDefault
340
F
  0
DICTIONARY
  5
47
102
{ACAD_REACTORS
330
C
102
}
330
C
100
AcDbDictionary
281
     1
  3
A0
350
48
  3
A1
350
49
  3
A2
350
4A
  3
A3
350
4B
  3
A4
350
4C
  3
A5
350
4D
  3
A6
350
4E
  3
A7
350
4F
  3
A8
350
50
  3
A9
350
51
  3
B0
350
52
  3
B1
350
53
  3
B2
350
54
  3
B3
350
55
  3
B4
350
56
  3
B5
350
57
  3
B6
350
58
  0
DICTIONARY
  5
4D3
102
{ACAD_REACTORS
330
C
102
}
330
C
100
AcDbDictionary
281
     1
  3
Metric50
350
4D4
  0
DICTIONARY
  5
4CF
102
{ACAD_REACTORS
330
C
102
}
330
C
100
AcDbDictionary
281
     1
  3
Standard
350
4D0
  0
DICTIONARY
  5
4B5
102
{ACAD_REACTORS
330
C
102
}
330
C
100
AcDbDictionary
281
     1
  3
2dWireframe
350
4BB
  3
Basic
350
4BA
  3
Brighten
350
4C1
  3
ColorChange
350
4C5
  3
Conceptual
350
4BE
  3
Dim
350
4C0
  3
EdgeColorOff
350
4CD
  3
Facepattern
350
4C4
  3
Flat
350
4B6
  3
FlatWithEdges
350
4B7
  3
Gouraud
350
4B8
  3
GouraudWithEdges
350
4B9
  3
Hidden
350
4BD
  3
JitterOff
350
4CB
  3
Linepattern
350
4C3
  3
OverhangOff
350
4CC
  3
Realistic
350
4BF
  3
Shaded
350
4CA
  3
Shaded with edges
350
4C9
  3
Shades of Gray
350
4C6
  3
Sketchy
350
4C7
  3
Thicken
350
4C2
  3
Wireframe
350
4BC
  3
X-Ray
350
4C8
  0
XRECORD
  5
69C
102
{ACAD_REACTORS
330
C
102
}
330
C
100
AcDbXrecord
280
     1
 90
        1
330
4D0
  0
DICTIONARY
  5
4F7
102
{ACAD_REACTORS
330
C
102
}
330
C
100
AcDbDictionary
281
     1
  3
CANNOSCALE
350
4FD
  3
CMLEADERSTYLE
350
4F9
  3
CTABLESTYLE
350
4F8
  3
CVIEWDETAILSTYLE
350
4FA
  3
CVIEWSECTIONSTYLE
350
4FB
  3
LAYEREVAL
350
4FF
  3
LAYERNOTIFY
350
500
  3
LIGHTINGUNITS
350
4FE
  3
MSLTSCALE
350
4FC
  0
DICTIONARY
  5
50D
102
{ACAD_REACTORS
330
50C
102
}
330
50C
100
AcDbDictionary
281
     1
  0
XRECORD
  5
4E2
102
{ACAD_REACTORS
330
4E1
102
}
330
4E1
100
AcDbXrecord
280
     1
290
     1
  0
XRECORD
  5
4F0
102
{ACAD_REACTORS
330
4EF
102
}
330
4EF
100
AcDbXrecord
280
     1
290
     1
  0
DICTIONARY
  5
5F7
102
{ACAD_REACTORS
330
5F6
102
}
330
5F6
100
AcDbDictionary
281
     1
  3
ACDB_ANNOTATIONSCALES
350
5F8
  0
DICTIONARY
  5
5DA
102
{ACAD_REACTORS
330
5D9
102
}
330
5D9
100
AcDbDictionary
281
     1
  3
ACDB_ANNOTATIONSCALES
350
5DB
  0
DICTIONARY
  5
5BD
102
{ACAD_REACTORS
330
5BC
102
}
330
5BC
100
AcDbDictionary
281
     1
  3
ACDB_ANNOTATIONSCALES
350
5BE
  0
DICTIONARY
  5
5A0
102
{ACAD_REACTORS
330
59F
102
}
330
59F
100
AcDbDictionary
281
     1
  3
ACDB_ANNOTATIONSCALES
350
5A1
  0
DICTIONARY
  5
548
102
{ACAD_REACTORS
330
547
102
}
330
547
100
AcDbDictionary
281
     1
  3
ACDB_ANNOTATIONSCALES
350
549
  0
ACDBDETAILVIEWSTYLE
  5
4D6
102
{ACAD_REACTORS
330
4D5
102
}
330
4D5
100
AcDbModelDocViewStyle
 70
     0
  3
Metric50
290
     0
300
Metric50
 90
        0
100
AcDbDetailViewStyle
 70
     0
 71
     0
 90
        3
 71
     1
340
11
 62
   256
 40
5.0
340
0
 62
   256
 40
5.0
300

 40
0.0
280
     1
 71
     2
340
16
 90
       25
 62
   256
 71
     3
340
11
 62
   256
 40
5.0
 90
        0
 40
15.0
 90
        1
300
%<\AcVar ViewDetailId>% (%<\AcVar ViewScale \f "%sn">%)
 71
     4
340
16
 90
       25
 62
   256
340
16
 90
       25
 62
   256
280
     0
  0
LAYOUT
  5
1E
102
{ACAD_REACTORS
330
1A
102
}
330
1A
100
AcDbPlotSettings
  1

  2
none_device
  4

  6

 40
0.0
 41
0.0
 42
0.0
 43
0.0
 44
0.0
 45
0.0
 46
0.0
 47
0.0
 48
0.0
 49
0.0
140
0.0
141
0.0
142
1.0
143
1.0
 70
   688
 72
     1
 73
     0
 74
     5
  7

 75
    16
147
1.0
 76
     0
 77
     2
 78
   300
148
0.0
149
0.0
100
AcDbLayout
  1
Layout1
 70
     1
 71
     1
 10
0.0
 20
0.0
 11
420.0
 21
297.0
 12
0.0
 22
0.0
 32
0.0
 14
1.000000000000000E+20
 24
1.000000000000000E+20
 34
1.000000000000000E+20
 15
-1.000000000000000E+20
 25
-1.000000000000000E+20
 35
-1.000000000000000E+20
146
0.0
 13
0.0
 23
0.0
 33
0.0
 16
1.0
 26
0.0
 36
0.0
 17
0.0
 27
1.0
 37
0.0
 76
     0
330
1B
  0
LAYOUT
  5
26
102
{ACAD_REACTORS
330
1A
102
}
330
1A
100
AcDbPlotSettings
  1

  2
none_device
  4

  6

 40
0.0
 41
0.0
 42
0.0
 43
0.0
 44
0.0
 45
0.0
 46
0.0
 47
0.0
 48
0.0
 49
0.0
140
0.0
141
0.0
142
1.0
143
1.0
 70
   688
 72
     1
 73
     0
 74
     5
  7

 75
    16
147
1.0
 76
     0
 77
     2
 78
   300
148
0.0
149
0.0
100
AcDbLayout
  1
Layout2
 70
     1
 71
     2
 10
0.0
 20
0.0
 11
0.0
 21
0.0
 12
0.0
 22
0.0
 32
0.0
 14
0.0
 24
0.0
 34
0.0
 15
0.0
 25
0.0
 35
0.0
146
0.0
 13
0.0
 23
0.0
 33
0.0
 16
1.0
 26
0.0
 36
0.0
 17
0.0
 27
1.0
 37
0.0
 76
     0
330
23
  0
LAYOUT
  5
22
102
{ACAD_REACTORS
330
1A
102
}
330
1A
100
AcDbPlotSettings
  1

  2
none_device
  4
Letter_(8.50_x_11.00_Inches)
  6

 40
6.349999999999998
 41
6.349999999999998
 42
6.350005079999998
 43
6.350005079999998
 44
215.9
 45
279.4
 46
0.0
 47
0.0
 48
0.0
 49
0.0
140
0.0
141
0.0
142
1.0
143
1.0
 70
  1712
 72
     1
 73
     0
 74
     0
  7

 75
     0
147
1.0
 76
     0
 77
     2
 78
   300
148
0.0
149
0.0
100
AcDbLayout
  1
Model
 70
     1
 71
     0
 10
0.0
 20
0.0
 11
2376.0
 21
1680.0
 12
0.0
 22
0.0
 32
0.0
 14
0.0
 24
0.0
 34
0.0
 15
2376.0
 25
1680.0
 35
0.0
146
0.0
 13
0.0
 23
0.0
 33
0.0
 16
1.0
 26
0.0
 36
0.0
 17
0.0
 27
1.0
 37
0.0
 76
     0
330
1F
331
29
  0
MATERIAL
  5
4A5
102
{ACAD_XDICTIONARY
360
4A6
102
}
102
{ACAD_REACTORS
330
49C
102
}
330
49C
100
AcDbMaterial
  1
ByBlock
 72
     0
 43
0.0008202099737533
 43
0.0
 43
0.0
 43
0.0
 43
0.0
 43
0.0008202099737533
 43
0.0
 43
0.0
 43
0.0
 43
0.0
 43
1.0
 43
0.0
 43
0.0
 43
0.0
 43
0.0
 43
1.0
 77
     0
 47
0.0008202099737533
 47
0.0
 47
0.0
 47
0.0
 47
0.0
 47
0.0008202099737533
 47
0.0
 47
0.0
 47
0.0
 47
0.0
 47
1.0
 47
0.0
 47
0.0
 47
0.0
 47
0.0
 47
1.0
171
     0
 49
0.0008202099737533
 49
0.0
 49
0.0
 49
0.0
 49
0.0
 49
0.0008202099737533
 49
0.0
 49
0.0
 49
0.0
 49
0.0
 49
1.0
 49
0.0
 49
0.0
 49
0.0
 49
0.0
 49
1.0
175
     0
142
0.0008202099737533
142
0.0
142
0.0
142
0.0
142
0.0
142
0.0008202099737533
142
0.0
142
0.0
142
0.0
142
0.0
142
1.0
142
0.0
142
0.0
142
0.0
142
0.0
142
1.0
179
     0
144
0.0008202099737533
144
0.0
144
0.0
144
0.0
144
0.0
144
0.0008202099737533
144
0.0
144
0.0
144
0.0
144
0.0
144
1.0
144
0.0
144
0.0
144
0.0
144
0.0
144
1.0
147
0.0008202099737533
147
0.0
147
0.0
147
0.0
147
0.0
147
0.0008202099737533
147
0.0
147
0.0
147
0.0
147
0.0
147
1.0
147
0.0
147
0.0
147
0.0
147
0.0
147
1.0
  0
MATERIAL
  5
49D
102
{ACAD_XDICTIONARY
360
49E
102
}
102
{ACAD_REACTORS
330
49C
102
}
330
49C
100
AcDbMaterial
  1
ByLayer
 72
     0
 43
0.0008202099737533
 43
0.0
 43
0.0
 43
0.0
 43
0.0
 43
0.0008202099737533
 43
0.0
 43
0.0
 43
0.0
 43
0.0
 43
1.0
 43
0.0
 43
0.0
 43
0.0
 43
0.0
 43
1.0
 77
     0
 47
0.0008202099737533
 47
0.0
 47
0.0
 47
0.0
 47
0.0
 47
0.0008202099737533
 47
0.0
 47
0.0
 47
0.0
 47
0.0
 47
1.0
 47
0.0
 47
0.0
 47
0.0
 47
0.0
 47
1.0
171
     0
 49
0.0008202099737533
 49
0.0
 49
0.0
 49
0.0
 49
0.0
 49
0.0008202099737533
 49
0.0
 49
0.0
 49
0.0
 49
0.0
 49
1.0
 49
0.0
 49
0.0
 49
0.0
 49
0.0
 49
1.0
175
     0
142
0.0008202099737533
142
0.0
142
0.0
142
0.0
142
0.0
142
0.0008202099737533
142
0.0
142
0.0
142
0.0
142
0.0
142
1.0
142
0.0
142
0.0
142
0.0
142
0.0
142
1.0
179
     0
144
0.0008202099737533
144
0.0
144
0.0
144
0.0
144
0.0
144
0.0008202099737533
144
0.0
144
0.0
144
0.0
144
0.0
144
1.0
144
0.0
144
0.0
144
0.0
144
0.0
144
1.0
147
0.0008202099737533
147
0.0
147
0.0
147
0.0
147
0.0
147
0.0008202099737533
147
0.0
147
0.0
147
0.0
147
0.0
147
1.0
147
0.0
147
0.0
147
0.0
147
0.0
147
1.0
  0
MATERIAL
  5
4AD
102
{ACAD_XDICTIONARY
360
4AE
102
}
102
{ACAD_REACTORS
330
49C
102
}
330
49C
100
AcDbMaterial
  1
Global
 72
     0
 43
0.0008202099737533
 43
0.0
 43
0.0
 43
0.0
 43
0.0
 43
0.0008202099737533
 43
0.0
 43
0.0
 43
0.0
 43
0.0
 43
1.0
 43
0.0
 43
0.0
 43
0.0
 43
0.0
 43
1.0
 77
     0
 47
0.0008202099737533
 47
0.0
 47
0.0
 47
0.0
 47
0.0
 47
0.0008202099737533
 47
0.0
 47
0.0
 47
0.0
 47
0.0
 47
1.0
 47
0.0
 47
0.0
 47
0.0
 47
0.0
 47
1.0
171
     0
 49
0.0008202099737533
 49
0.0
 49
0.0
 49
0.0
 49
0.0
 49
0.0008202099737533
 49
0.0
 49
0.0
 49
0.0
 49
0.0
 49
1.0
 49
0.0
 49
0.0
 49
0.0
 49
0.0
 49
1.0
175
     0
142
0.0008202099737533
142
0.0
142
0.0
142
0.0
142
0.0
142
0.0008202099737533
142
0.0
142
0.0
142
0.0
142
0.0
142
1.0
142
0.0
142
0.0
142
0.0
142
0.0
142
1.0
179
     0
144
0.0008202099737533
144
0.0
144
0.0
144
0.0
144
0.0
144
0.0008202099737533
144
0.0
144
0.0
144
0.0
144
0.0
144
1.0
144
0.0
144
0.0
144
0.0
144
0.0
144
1.0
147
0.0008202099737533
147
0.0
147
0.0
147
0.0
147
0.0
147
0.0008202099737533
147
0.0
147
0.0
147
0.0
147
0.0
147
1.0
147
0.0
147
0.0
147
0.0
147
0.0
147
1.0
  0
MLEADERSTYLE
  5
4D2
102
{ACAD_REACTORS
330
4D1
102
}
330
4D1
100
AcDbMLeaderStyle
179
     2
170
     2
171
     1
172
     0
 90
        2
 40
0.0
 41
0.0
173
     1
 91
-1056964608
340
14
 92
       -2
290
     1
 42
2.0
291
     1
 43
0.36
  3
Standard
 44
4.0
300

342
11
174
     1
178
     6
175
     1
176
     0
 93
-1056964608
 45
4.0
292
     0
297
     0
 46
4.0
 94
-1056964608
 47
1.0
 49
1.0
140
1.0
293
     1
141
0.0
294
     1
177
     0
142
1.0
295
     0
296
     0
143
0.125
271
     0
272
     9
273
     9
298
     0
  0
MLINESTYLE
  5
18
102
{ACAD_REACTORS
330
17
102
}
330
17
100
AcDbMlineStyle
  2
STANDARD
 70
     0
  3

 62
   256
 51
90.0
 52
90.0
 71
     2
 49
0.5
 62
   256
  6
BYLAYER
 49
-0.5
 62
   256
  6
BYLAYER
  0
ACDBPLACEHOLDER
  5
F
102
{ACAD_REACTORS
330
E
102
}
330
E
  0
SCALE
  5
48
102
{ACAD_REACTORS
330
47
102
}
330
47
100
AcDbScale
 70
     0
300
1:1
140
1.0
141
1.0
290
     1
  0
SCALE
  5
49
102
{ACAD_REACTORS
330
47
102
}
330
47
100
AcDbScale
 70
     0
300
1:2
140
1.0
141
2.0
290
     0
  0
SCALE
  5
4A
102
{ACAD_REACTORS
330
47
102
}
330
47
100
AcDbScale
 70
     0
300
1:4
140
1.0
141
4.0
290
     0
  0
SCALE
  5
4B
102
{ACAD_REACTORS
330
47
102
}
330
47
100
AcDbScale
 70
     0
300
1:5
140
1.0
141
5.0
290
     0
  0
SCALE
  5
4C
102
{ACAD_REACTORS
330
47
102
}
330
47
100
AcDbScale
 70
     0
300
1:8
140
1.0
141
8.0
290
     0
  0
SCALE
  5
4D
102
{ACAD_REACTORS
330
47
102
}
330
47
100
AcDbScale
 70
     0
300
1:10
140
1.0
141
10.0
290
     0
  0
SCALE
  5
4E
102
{ACAD_REACTORS
330
47
102
}
330
47
100
AcDbScale
 70
     0
300
1:16
140
1.0
141
16.0
290
     0
  0
SCALE
  5
4F
102
{ACAD_REACTORS
330
47
102
}
330
47
100
AcDbScale
 70
     0
300
1:20
140
1.0
141
20.0
290
     0
  0
SCALE
  5
50
102
{ACAD_REACTORS
330
47
102
}
330
47
100
AcDbScale
 70
     0
300
1:30
140
1.0
141
30.0
290
     0
  0
SCALE
  5
51
102
{ACAD_REACTORS
330
47
102
}
330
47
100
AcDbScale
 70
     0
300
1:40
140
1.0
141
40.0
290
     0
  0
SCALE
  5
52
102
{ACAD_REACTORS
330
47
102
}
330
47
100
AcDbScale
 70
     0
300
1:50
140
1.0
141
50.0
290
     0
  0
SCALE
  5
53
102
{ACAD_REACTORS
330
47
102
}
330
47
100
AcDbScale
 70
     0
300
1:100
140
1.0
141
100.0
290
     0
  0
SCALE
  5
54
102
{ACAD_REACTORS
330
47
102
}
330
47
100
AcDbScale
 70
     0
300
2:1
140
2.0
141
1.0
290
     0
  0
SCALE
  5
55
102
{ACAD_REACTORS
330
47
102
}
330
47
100
AcDbScale
 70
     0
300
4:1
140
4.0
141
1.0
290
     0
  0
SCALE
  5
56
102
{ACAD_REACTORS
330
47
102
}
330
47
100
AcDbScale
 70
     0
300
8:1
140
8.0
141
1.0
290
     0
  0
SCALE
  5
57
102
{ACAD_REACTORS
330
47
102
}
330
47
100
AcDbScale
 70
     0
300
10:1
140
10.0
141
1.0
290
     0
  0
SCALE
  5
58
102
{ACAD_REACTORS
330
47
102
}
330
47
100
AcDbScale
 70
     0
300
100:1
140
100.0
141
1.0
290
     0
  0
ACDBSECTIONVIEWSTYLE
  5
4D4
102
{ACAD_REACTORS
330
4D3
102
}
330
4D3
100
AcDbModelDocViewStyle
 70
     0
  3
Metric50
290
     0
300
Metric50
 90
        0
100
AcDbSectionViewStyle
 70
     0
 71
     0
 90
      102
 71
     1
340
11
 62
   256
 40
5.0
340
0
340
0
 62
   256
 40
5.0
300
I, O, Q, S, X, Z
 40
10.0
 90
        0
 40
2.5
 90
        0
 71
     2
340
16
 90
       25
 62
   256
340
16
 90
       50
 62
   256
 40
5.0
 40
2.5
 40
5.0
 71
     3
340
11
 62
   256
 40
5.0
 90
        0
 40
15.0
 90
        1
300
%<\AcVar ViewSectionStartId>%-%<\AcVar ViewSectionEndId>% (%<\AcVar ViewScale \f "%sn">%)
 71
     4
 62
   256
 62
   257
300
ANSI31
 40
1.0
 90
        0
290
     0
290
     0
 90
        6
 40
0.0
 40
1.570796326794896
 40
0.2617993877991494
 40
1.308996938995747
 40
-0.2617993877991494
 40
1.832595714594045
  0
TABLESTYLE
  5
4D0
102
{ACAD_XDICTIONARY
360
512
102
}
102
{ACAD_REACTORS
330
4CF
102
}
330
4CF
100
AcDbTableStyle
280
     0
  3
Standard
 70
     0
 71
     0
 40
1.5
 41
1.5
280
     0
281
     0
  7
Standard
140
4.5
170
     2
 62
     0
 63
     7
283
     0
 90
      512
 91
        0
  1

274
    -2
284
     1
 64
     0
275
    -2
285
     1
 65
     0
276
    -2
286
     1
 66
     0
277
    -2
287
     1
 67
     0
278
    -2
288
     1
 68
     0
279
    -2
289
     1
 69
     0
  7
Standard
140
6.0
170
     5
 62
     0
 63
     7
283
     0
 90
      512
 91
        0
  1

274
    -2
284
     1
 64
     0
275
    -2
285
     1
 65
     0
276
    -2
286
     1
 66
     0
277
    -2
287
     1
 67
     0
278
    -2
288
     1
 68
     0
279
    -2
289
     1
 69
     0
  7
Standard
140
4.5
170
     5
 62
     0
 63
     7
283
     0
 90
      512
 91
        0
  1

274
    -2
284
     1
 64
     0
275
    -2
285
     1
 65
     0
276
    -2
286
     1
 66
     0
277
    -2
287
     1
 67
     0
278
    -2
288
     1
 68
     0
279
    -2
289
     1
 69
     0
  0
VISUALSTYLE
  5
4BB
102
{ACAD_REACTORS
330
4B5
102
}
330
4B5
100
AcDbVisualStyle
  2
2dWireframe
 70
     4
177
     3
291
     0
 70
    58
 90
        0
176
     1
 90
        2
176
     1
 90
        0
176
     1
 90
        0
176
     1
 40
0.6
176
     1
 40
30.0
176
     1
 62
     7
420
 16777215
176
     1
 90
        1
176
     1
 90
        4
176
     1
 62
     7
176
     1
 62
   257
176
     1
 90
        1
176
     1
 90
        1
176
     1
 40
1.0
176
     1
 90
        0
176
     1
 62
   257
176
     1
 40
1.0
176
     1
 90
        1
176
     1
 90
        6
176
     1
 90
        2
176
     1
 62
     7
176
     1
 90
        5
176
     1
 90
        0
176
     1
 90
        0
176
     1
290
     0
176
     1
 90
        1
176
     1
 40
0.0
176
     1
 90
        0
176
     1
290
     1
176
     1
290
     1
176
     1
290
     0
176
     1
290
     0
176
     1
290
     0
176
     1
290
     0
176
     1
290
     0
176
     1
290
     0
176
     1
290
     0
176
     1
 90
       50
176
     1
 40
0.0
176
     1
 40
1.0
176
     1
 90
        0
176
     1
 62
    18
176
     1
 90
       50
176
     1
 90
        3
176
     1
 62
     5
420
      255
176
     1
290
     0
176
     1
 90
       50
176
     1
 90
       50
176
     1
 90
       50
176
     1
290
     0
176
     1
 90
       50
176
     1
 62
   256
176
     0
 40
1.0
176
     0
 90
        2
176
     1
  1
strokes_ogs.tif
176
     1
290
     0
176
     1
 40
1.0
176
     1
 40
1.0
176
     1
1001
ACAD
1000
AcDbSavedByObjectVersion
1070
     0
  0
VISUALSTYLE
  5
4BA
102
{ACAD_REACTORS
330
4B5
102
}
330
4B5
100
AcDbVisualStyle
  2
Basic
 70
     7
177
     3
291
     1
 70
    58
 90
        1
176
     1
 90
        0
176
     1
 90
        1
176
     1
 90
        0
176
     1
 40
0.6
176
     1
 40
30.0
176
     1
 62
     7
420
 16777215
176
     1
 90
        0
176
     1
 90
        4
176
     1
 62
     7
176
     1
 62
   257
176
     1
 90
        1
176
     1
 90
        1
176
     1
 40
1.0
176
     1
 90
        8
176
     1
 62
     7
176
     1
 40
1.0
176
     1
 90
        1
176
     1
 90
        6
176
     1
 90
        2
176
     1
 62
     7
176
     1
 90
        5
176
     1
 90
        0
176
     1
 90
        0
176
     1
290
     0
176
     1
 90
        1
176
     1
 40
0.0
176
     1
 90
        0
176
     1
290
     0
176
     1
290
     1
176
     1
290
     1
176
     1
290
     0
176
     1
290
     0
176
     1
290
     0
176
     1
290
     0
176
     1
290
     0
176
     1
290
     0
176
     1
 90
       50
176
     1
 40
0.0
176
     1
 40
1.0
176
     1
 90
        0
176
     1
 62
    18
176
     1
 90
       50
176
     1
 90
        3
176
     1
 62
     5
420
      255
176
     1
290
     0
176
     1
 90
       50
176
     1
 90
       50
176
     1
 90
       50
176
     1
290
     0
176
     1
 90
       50
176
     1
 62
   256
176
     0
 40
1.0
176
     0
 90
        2
176
     1
  1
strokes_ogs.tif
176
     1
290
     0
176
     1
 40
1.0
176
     1
 40
1.0
176
     1
1001
ACAD
1000
AcDbSavedByObjectVersion
1070
     0
  0
VISUALSTYLE
  5
4C1
102
{ACAD_REACTORS
330
4B5
102
}
330
4B5
100
AcDbVisualStyle
  2
Brighten
 70
    12
177
     3
291
     1
 70
    58
 90
        2
176
     1
 90
        2
176
     1
 90
        0
176
     1
 90
        0
176
     1
 40
0.6
176
     1
 40
30.0
176
     1
 62
     7
420
 16777215
176
     1
 90
        1
176
     1
 90
        4
176
     1
 62
     7
176
     1
 62
   257
176
     1
 90
        1
176
     1
 90
        1
176
     1
 40
1.0
176
     1
 90
        8
176
     1
 62
     7
176
     1
 40
1.0
176
     1
 90
        1
176
     1
 90
        6
176
     1
 90
        2
176
     1
 62
     7
176
     1
 90
        5
176
     1
 90
        0
176
     1
 90
        0
176
     1
290
     0
176
     1
 90
        1
176
     1
 40
50.0
176
     1
 90
        0
176
     1
290
     0
176
     1
290
     1
176
     1
290
     1
176
     1
290
     0
176
     1
290
     0
176
     1
290
     0
176
     1
290
     0
176
     1
290
     0
176
     1
290
     0
176
     1
 90
       50
176
     1
 40
0.0
176
     1
 40
1.0
176
     1
 90
        0
176
     1
 62
    18
176
     1
 90
       50
176
     1
 90
        3
176
     1
 62
     5
420
      255
176
     1
290
     0
176
     1
 90
       50
176
     1
 90
       50
176
     1
 90
       50
176
     1
290
     0
176
     1
 90
       50
176
     1
 62
   256
176
     0
 40
1.0
176
     0
 90
        2
176
     1
  1
strokes_ogs.tif
176
     1
290
     0
176
     1
 40
1.0
176
     1
 40
1.0
176
     1
1001
ACAD
1000
AcDbSavedByObjectVersion
1070
     0
  0
VISUALSTYLE
  5
4C5
102
{ACAD_REACTORS
330
4B5
102
}
330
4B5
100
AcDbVisualStyle
  2
ColorChange
 70
    16
177
     3
291
     1
 70
    58
 90
        2
176
     1
 90
        2
176
     1
 90
        3
176
     1
 90
        0
176
     1
 40
0.6
176
     1
 40
30.0
176
     1
 62
     8
420
  8421504
176
     1
 90
        1
176
     1
 90
        4
176
     1
 62
     7
176
     1
 62
   257
176
     1
 90
        1
176
     1
 90
        1
176
     1
 40
1.0
176
     1
 90
        8
176
     1
 62
     8
420
  8421504
176
     1
 40
1.0
176
     1
 90
        1
176
     1
 90
        6
176
     1
 90
        2
176
     1
 62
     7
176
     1
 90
        5
176
     1
 90
        0
176
     1
 90
        0
176
     1
290
     0
176
     1
 90
        1
176
     1
 40
0.0
176
     1
 90
        0
176
     1
290
     0
176
     1
290
     1
176
     1
290
     1
176
     1
290
     0
176
     1
290
     0
176
     1
290
     0
176
     1
290
     0
176
     1
290
     0
176
     1
290
     0
176
     1
 90
       50
176
     1
 40
0.0
176
     1
 40
1.0
176
     1
 90
        0
176
     1
 62
    18
176
     1
 90
       50
176
     1
 90
        3
176
     1
 62
     5
420
      255
176
     1
290
     0
176
     1
 90
       50
176
     1
 90
       50
176
     1
 90
       50
176
     1
290
     0
176
     1
 90
       50
176
     1
 62
   256
176
     0
 40
1.0
176
     0
 90
        2
176
     1
  1
strokes_ogs.tif
176
     1
290
     0
176
     1
 40
1.0
176
     1
 40
1.0
176
     1
1001
ACAD
1000
AcDbSavedByObjectVersion
1070
     0
  0
VISUALSTYLE
  5
4BE
102
{ACAD_REACTORS
330
4B5
102
}
330
4B5
100
AcDbVisualStyle
  2
Conceptual
 70
     9
177
     3
291
     0
 70
    58
 90
        3
176
     1
 90
        2
176
     1
 90
        0
176
     1
 90
        0
176
     1
 40
0.6
176
     1
 40
30.0
176
     1
 62
     7
420
 16777215
176
     1
 90
        2
176
     1
 90
        2
176
     1
 62
     7
176
     1
 62
   257
176
     1
 90
        1
176
     1
 90
        1
176
     1
 40
179.0
176
     1
 90
        8
176
     1
 62
     7
176
     1
 40
1.0
176
     1
 90
        1
176
     1
 90
        6
176
     1
 90
        2
176
     1
 62
     7
176
     1
 90
        3
176
     1
 90
        0
176
     1
 90
        0
176
     1
290
     0
176
     1
 90
        1
176
     1
 40
0.0
176
     1
 90
        0
176
     1
290
     0
176
     1
290
     1
176
     1
290
     1
176
     1
290
     0
176
     1
290
     0
176
     1
290
     0
176
     1
290
     0
176
     1
290
     0
176
     1
290
     0
176
     1
 90
       50
176
     1
 40
0.0
176
     1
 40
1.0
176
     1
 90
        0
176
     1
 62
    18
176
     1
 90
       50
176
     1
 90
        3
176
     1
 62
     5
420
      255
176
     1
290
     0
176
     1
 90
       50
176
     1
 90
       50
176
     1
 90
       50
176
     1
290
     0
176
     1
 90
       50
176
     1
 62
   256
176
     0
 40
1.0
176
     0
 90
        2
176
     1
  1
strokes_ogs.tif
176
     1
290
     0
176
     1
 40
1.0
176
     1
 40
1.0
176
     1
1001
ACAD
1000
AcDbSavedByObjectVersion
1070
     0
  0
VISUALSTYLE
  5
4C0
102
{ACAD_REACTORS
330
4B5
102
}
330
4B5
100
AcDbVisualStyle
  2
Dim
 70
    11
177
     3
291
     1
 70
    58
 90
        2
176
     1
 90
        2
176
     1
 90
        0
176
     1
 90
        0
176
     1
 40
0.6
176
     1
 40
30.0
176
     1
 62
     7
420
 16777215
176
     1
 90
        1
176
     1
 90
        4
176
     1
 62
     7
176
     1
 62
   257
176
     1
 90
        1
176
     1
 90
        1
176
     1
 40
1.0
176
     1
 90
        8
176
     1
 62
     7
176
     1
 40
1.0
176
     1
 90
        1
176
     1
 90
        6
176
     1
 90
        2
176
     1
 62
     7
176
     1
 90
        5
176
     1
 90
        0
176
     1
 90
        0
176
     1
290
     0
176
     1
 90
        1
176
     1
 40
-50.0
176
     1
 90
        0
176
     1
290
     0
176
     1
290
     1
176
     1
290
     1
176
     1
290
     0
176
     1
290
     0
176
     1
290
     0
176
     1
290
     0
176
     1
290
     0
176
     1
290
     0
176
     1
 90
       50
176
     1
 40
0.0
176
     1
 40
1.0
176
     1
 90
        0
176
     1
 62
    18
176
     1
 90
       50
176
     1
 90
        3
176
     1
 62
     5
420
      255
176
     1
290
     0
176
     1
 90
       50
176
     1
 90
       50
176
     1
 90
       50
176
     1
290
     0
176
     1
 90
       50
176
     1
 62
   256
176
     0
 40
1.0
176
     0
 90
        2
176
     1
  1
strokes_ogs.tif
176
     1
290
     0
176
     1
 40
1.0
176
     1
 40
1.0
176
     1
1001
ACAD
1000
AcDbSavedByObjectVersion
1070
     0
  0
VISUALSTYLE
  5
4CD
102
{ACAD_REACTORS
330
4B5
102
}
330
4B5
100
AcDbVisualStyle
  2
EdgeColorOff
 70
    22
177
     3
291
     1
 70
    58
 90
        2
176
     0
 90
        2
176
     0
 90
        0
176
     0
 90
        0
176
     0
 40
0.6
176
     0
 40
30.0
176
     0
 62
     7
420
 16777215
176
     0
 90
        1
176
     0
 90
        4
176
     0
 62
     7
176
     0
 62
   257
176
     0
 90
        1
176
     0
 90
        1
176
     0
 40
1.0
176
     0
 90
        8
176
     2
 62
     7
176
     0
 40
1.0
176
     0
 90
        1
176
     0
 90
        6
176
     0
 90
        2
176
     0
 62
     7
176
     0
 90
        5
176
     0
 90
        0
176
     0
 90
        0
176
     0
290
     0
176
     0
 90
        1
176
     0
 40
0.0
176
     0
 90
        0
176
     0
290
     0
176
     1
290
     1
176
     1
290
     1
176
     1
290
     0
176
     1
290
     0
176
     1
290
     0
176
     1
290
     0
176
     1
290
     0
176
     1
290
     0
176
     1
 90
       50
176
     0
 40
0.0
176
     0
 40
1.0
176
     0
 90
        0
176
     0
 62
    18
176
     0
 90
       50
176
     0
 90
        3
176
     0
 62
     5
420
      255
176
     0
290
     0
176
     1
 90
       50
176
     0
 90
       50
176
     0
 90
       50
176
     0
290
     0
176
     1
 90
       50
176
     0
 62
   256
176
     0
 40
1.0
176
     0
 90
        2
176
     0
  1
strokes_ogs.tif
176
     0
290
     0
176
     1
 40
1.0
176
     0
 40
1.0
176
     0
1001
ACAD
1000
AcDbSavedByObjectVersion
1070
     0
  0
VISUALSTYLE
  5
4C4
102
{ACAD_REACTORS
330
4B5
102
}
330
4B5
100
AcDbVisualStyle
  2
Facepattern
 70
    15
177
     3
291
     1
 70
    58
 90
        2
176
     1
 90
        2
176
     1
 90
        0
176
     1
 90
        0
176
     1
 40
0.6
176
     1
 40
30.0
176
     1
 62
     7
420
 16777215
176
     1
 90
        1
176
     1
 90
        4
176
     1
 62
     7
176
     1
 62
   257
176
     1
 90
        1
176
     1
 90
        1
176
     1
 40
1.0
176
     1
 90
        8
176
     1
 62
     7
176
     1
 40
1.0
176
     1
 90
        1
176
     1
 90
        6
176
     1
 90
        2
176
     1
 62
     7
176
     1
 90
        5
176
     1
 90
        0
176
     1
 90
        0
176
     1
290
     0
176
     1
 90
        1
176
     1
 40
0.0
176
     1
 90
        0
176
     1
290
     0
176
     1
290
     1
176
     1
290
     1
176
     1
290
     0
176
     1
290
     0
176
     1
290
     0
176
     1
290
     0
176
     1
290
     0
176
     1
290
     0
176
     1
 90
       50
176
     1
 40
0.0
176
     1
 40
1.0
176
     1
 90
        0
176
     1
 62
    18
176
     1
 90
       50
176
     1
 90
        3
176
     1
 62
     5
420
      255
176
     1
290
     0
176
     1
 90
       50
176
     1
 90
       50
176
     1
 90
       50
176
     1
290
     0
176
     1
 90
       50
176
     1
 62
   256
176
     0
 40
1.0
176
     0
 90
        2
176
     1
  1
strokes_ogs.tif
176
     1
290
     0
176
     1
 40
1.0
176
     1
 40
1.0
176
     1
1001
ACAD
1000
AcDbSavedByObjectVersion
1070
     0
  0
VISUALSTYLE
  5
4B6
102
{ACAD_REACTORS
330
4B5
102
}
330
4B5
100
AcDbVisualStyle
  2
Flat
 70
     0
177
     3
291
     1
 70
    58
 90
        2
176
     1
 90
        1
176
     1
 90
        1
176
     1
 90
        2
176
     1
 40
0.6
176
     1
 40
30.0
176
     1
 62
     7
420
 16777215
176
     1
 90
        0
176
     1
 90
        0
176
     1
 62
     7
176
     1
 62
   257
176
     1
 90
        1
176
     1
 90
        1
176
     1
 40
1.0
176
     1
 90
        8
176
     1
 62
     7
176
     1
 40
1.0
176
     1
 90
        1
176
     1
 90
        6
176
     1
 90
        2
176
     1
 62
     7
176
     1
 90
        5
176
     1
 90
        0
176
     1
 90
        0
176
     1
290
     0
176
     1
 90
       13
176
     1
 40
0.0
176
     1
 90
        0
176
     1
290
     0
176
     1
290
     1
176
     1
290
     1
176
     1
290
     0
176
     1
290
     0
176
     1
290
     0
176
     1
290
     0
176
     1
290
     0
176
     1
290
     0
176
     1
 90
       50
176
     1
 40
0.0
176
     1
 40
1.0
176
     1
 90
        0
176
     1
 62
    18
176
     1
 90
       50
176
     1
 90
        3
176
     1
 62
     5
420
      255
176
     1
290
     0
176
     1
 90
       50
176
     1
 90
       50
176
     1
 90
       50
176
     1
290
     0
176
     1
 90
       50
176
     1
 62
   256
176
     0
 40
1.0
176
     0
 90
        2
176
     1
  1
strokes_ogs.tif
176
     1
290
     0
176
     1
 40
1.0
176
     1
 40
1.0
176
     1
1001
ACAD
1000
AcDbSavedByObjectVersion
1070
     0
  0
VISUALSTYLE
  5
4B7
102
{ACAD_REACTORS
330
4B5
102
}
330
4B5
100
AcDbVisualStyle
  2
FlatWithEdges
 70
     1
177
     3
291
     1
 70
    58
 90
        2
176
     1
 90
        1
176
     1
 90
        1
176
     1
 90
        2
176
     1
 40
0.6
176
     1
 40
30.0
176
     1
 62
     7
420
 16777215
176
     1
 90
        1
176
     1
 90
        0
176
     1
 62
     7
176
     1
 62
   257
176
     1
 90
        1
176
     1
 90
        1
176
     1
 40
1.0
176
     1
 90
        0
176
     1
 62
   257
176
     1
 40
1.0
176
     1
 90
        1
176
     1
 90
        6
176
     1
 90
        2
176
     1
 62
     7
176
     1
 90
        5
176
     1
 90
        0
176
     1
 90
        0
176
     1
290
     0
176
     1
 90
       13
176
     1
 40
0.0
176
     1
 90
        0
176
     1
290
     0
176
     1
290
     1
176
     1
290
     1
176
     1
290
     0
176
     1
290
     0
176
     1
290
     0
176
     1
290
     0
176
     1
290
     0
176
     1
290
     0
176
     1
 90
       50
176
     1
 40
0.0
176
     1
 40
1.0
176
     1
 90
        0
176
     1
 62
    18
176
     1
 90
       50
176
     1
 90
        3
176
     1
 62
     5
420
      255
176
     1
290
     0
176
     1
 90
       50
176
     1
 90
       50
176
     1
 90
       50
176
     1
290
     0
176
     1
 90
       50
176
     1
 62
   256
176
     0
 40
1.0
176
     0
 90
        2
176
     1
  1
strokes_ogs.tif
176
     1
290
     0
176
     1
 40
1.0
176
     1
 40
1.0
176
     1
1001
ACAD
1000
AcDbSavedByObjectVersion
1070
     0
  0
VISUALSTYLE
  5
4B8
102
{ACAD_REACTORS
330
4B5
102
}
330
4B5
100
AcDbVisualStyle
  2
Gouraud
 70
     2
177
     3
291
     1
 70
    58
 90
        2
176
     1
 90
        2
176
     1
 90
        1
176
     1
 90
        2
176
     1
 40
0.6
176
     1
 40
30.0
176
     1
 62
     7
420
 16777215
176
     1
 90
        0
176
     1
 90
        0
176
     1
 62
     7
176
     1
 62
   257
176
     1
 90
        1
176
     1
 90
        1
176
     1
 40
1.0
176
     1
 90
        0
176
     1
 62
     7
176
     1
 40
1.0
176
     1
 90
        1
176
     1
 90
        6
176
     1
 90
        2
176
     1
 62
     7
176
     1
 90
        5
176
     1
 90
        0
176
     1
 90
        0
176
     1
290
     0
176
     1
 90
       13
176
     1
 40
0.0
176
     1
 90
        0
176
     1
290
     0
176
     1
290
     1
176
     1
290
     1
176
     1
290
     0
176
     1
290
     0
176
     1
290
     0
176
     1
290
     0
176
     1
290
     0
176
     1
290
     0
176
     1
 90
       50
176
     1
 40
0.0
176
     1
 40
1.0
176
     1
 90
        0
176
     1
 62
    18
176
     1
 90
       50
176
     1
 90
        3
176
     1
 62
     5
420
      255
176
     1
290
     0
176
     1
 90
       50
176
     1
 90
       50
176
     1
 90
       50
176
     1
290
     0
176
     1
 90
       50
176
     1
 62
   256
176
     0
 40
1.0
176
     0
 90
        2
176
     1
  1
strokes_ogs.tif
176
     1
290
     0
176
     1
 40
1.0
176
     1
 40
1.0
176
     1
1001
ACAD
1000
AcDbSavedByObjectVersion
1070
     0
  0
VISUALSTYLE
  5
4B9
102
{ACAD_REACTORS
330
4B5
102
}
330
4B5
100
AcDbVisualStyle
  2
GouraudWithEdges
 70
     3
177
     3
291
     1
 70
    58
 90
        2
176
     1
 90
        2
176
     1
 90
        1
176
     1
 90
        2
176
     1
 40
0.6
176
     1
 40
30.0
176
     1
 62
     7
420
 16777215
176
     1
 90
        1
176
     1
 90
        0
176
     1
 62
     7
176
     1
 62
   257
176
     1
 90
        1
176
     1
 90
        1
176
     1
 40
1.0
176
     1
 90
        0
176
     1
 62
   257
176
     1
 40
1.0
176
     1
 90
        1
176
     1
 90
        6
176
     1
 90
        2
176
     1
 62
     7
176
     1
 90
        5
176
     1
 90
        0
176
     1
 90
        0
176
     1
290
     0
176
     1
 90
       13
176
     1
 40
0.0
176
     1
 90
        0
176
     1
290
     0
176
     1
290
     1
176
     1
290
     1
176
     1
290
     0
176
     1
290
     0
176
     1
290
     0
176
     1
290
     0
176
     1
290
     0
176
     1
290
     0
176
     1
 90
       50
176
     1
 40
0.0
176
     1
 40
1.0
176
     1
 90
        0
176
     1
 62
    18
176
     1
 90
       50
176
     1
 90
        3
176
     1
 62
     5
420
      255
176
     1
290
     0
176
     1
 90
       50
176
     1
 90
       50
176
     1
 90
       50
176
     1
290
     0
176
     1
 90
       50
176
     1
 62
   256
176
     0
 40
1.0
176
     0
 90
        2
176
     1
  1
strokes_ogs.tif
176
     1
290
     0
176
     1
 40
1.0
176
     1
 40
1.0
176
     1
1001
ACAD
1000
AcDbSavedByObjectVersion
1070
     0
  0
VISUALSTYLE
  5
4BD
102
{ACAD_REACTORS
330
4B5
102
}
330
4B5
100
AcDbVisualStyle
  2
Hidden
 70
     6
177
     3
291
     0
 70
    58
 90
        1
176
     1
 90
        2
176
     1
 90
        2
176
     1
 90
        0
176
     1
 40
0.6
176
     1
 40
30.0
176
     1
 62
     7
420
 16777215
176
     1
 90
        2
176
     1
 90
        2
176
     1
 62
     7
176
     1
 62
   257
176
     1
 90
        2
176
     1
 90
        1
176
     1
 40
40.0
176
     1
 90
        0
176
     1
 62
   257
176
     1
 40
1.0
176
     1
 90
        1
176
     1
 90
        6
176
     1
 90
        2
176
     1
 62
     7
176
     1
 90
        3
176
     1
 90
        0
176
     1
 90
        0
176
     1
290
     0
176
     1
 90
        1
176
     1
 40
0.0
176
     1
 90
        0
176
     1
290
     0
176
     1
290
     1
176
     1
290
     1
176
     1
290
     0
176
     1
290
     0
176
     1
290
     0
176
     1
290
     0
176
     1
290
     0
176
     1
290
     0
176
     1
 90
       50
176
     1
 40
0.0
176
     1
 40
1.0
176
     1
 90
        0
176
     1
 62
    18
176
     1
 90
       50
176
     1
 90
        3
176
     1
 62
     5
420
      255
176
     1
290
     0
176
     1
 90
       50
176
     1
 90
       50
176
     1
 90
       50
176
     1
290
     0
176
     1
 90
       50
176
     1
 62
   256
176
     0
 40
1.0
176
     0
 90
        2
176
     1
  1
strokes_ogs.tif
176
     1
290
     0
176
     1
 40
1.0
176
     1
 40
1.0
176
     1
1001
ACAD
1000
AcDbSavedByObjectVersion
1070
     0
  0
VISUALSTYLE
  5
4CB
102
{ACAD_REACTORS
330
4B5
102
}
330
4B5
100
AcDbVisualStyle
  2
JitterOff
 70
    20
177
     3
291
     1
 70
    58
 90
        2
176
     0
 90
        2
176
     0
 90
        0
176
     0
 90
        0
176
     0
 40
0.6
176
     0
 40
30.0
176
     0
 62
     7
420
 16777215
176
     0
 90
        1
176
     0
 90
        4
176
     0
 62
     7
176
     0
 62
   257
176
     0
 90
        1
176
     0
 90
        1
176
     0
 40
1.0
176
     0
 90
       10
176
     2
 62
     7
176
     0
 40
1.0
176
     0
 90
        1
176
     0
 90
        6
176
     0
 90
        2
176
     0
 62
     7
176
     0
 90
        5
176
     0
 90
        0
176
     0
 90
        0
176
     0
290
     0
176
     0
 90
        1
176
     0
 40
0.0
176
     0
 90
        0
176
     0
290
     0
176
     1
290
     1
176
     1
290
     1
176
     1
290
     0
176
     1
290
     0
176
     1
290
     0
176
     1
290
     0
176
     1
290
     0
176
     1
290
     0
176
     1
 90
       50
176
     0
 40
0.0
176
     0
 40
1.0
176
     0
 90
        0
176
     0
 62
    18
176
     0
 90
       50
176
     0
 90
        3
176
     0
 62
     5
420
      255
176
     0
290
     0
176
     1
 90
       50
176
     0
 90
       50
176
     0
 90
       50
176
     0
290
     0
176
     1
 90
       50
176
     0
 62
   256
176
     0
 40
1.0
176
     0
 90
        2
176
     0
  1
strokes_ogs.tif
176
     0
290
     0
176
     1
 40
1.0
176
     0
 40
1.0
176
     0
1001
ACAD
1000
AcDbSavedByObjectVersion
1070
     0
  0
VISUALSTYLE
  5
4C3
102
{ACAD_REACTORS
330
4B5
102
}
330
4B5
100
AcDbVisualStyle
  2
Linepattern
 70
    14
177
     3
291
     1
 70
    58
 90
        2
176
     1
 90
        2
176
     1
 90
        0
176
     1
 90
        0
176
     1
 40
0.6
176
     1
 40
30.0
176
     1
 62
     7
420
 16777215
176
     1
 90
        1
176
     1
 90
        4
176
     1
 62
     7
176
     1
 62
   257
176
     1
 90
        7
176
     1
 90
        7
176
     1
 40
1.0
176
     1
 90
        8
176
     1
 62
     7
176
     1
 40
1.0
176
     1
 90
        1
176
     1
 90
        6
176
     1
 90
        2
176
     1
 62
     7
176
     1
 90
        5
176
     1
 90
        0
176
     1
 90
        0
176
     1
290
     0
176
     1
 90
        1
176
     1
 40
0.0
176
     1
 90
        0
176
     1
290
     0
176
     1
290
     1
176
     1
290
     1
176
     1
290
     0
176
     1
290
     0
176
     1
290
     0
176
     1
290
     0
176
     1
290
     0
176
     1
290
     0
176
     1
 90
       50
176
     1
 40
0.0
176
     1
 40
1.0
176
     1
 90
        0
176
     1
 62
    18
176
     1
 90
       50
176
     1
 90
        3
176
     1
 62
     5
420
      255
176
     1
290
     0
176
     1
 90
       50
176
     1
 90
       50
176
     1
 90
       50
176
     1
290
     0
176
     1
 90
       50
176
     1
 62
   256
176
     0
 40
1.0
176
     0
 90
        2
176
     1
  1
strokes_ogs.tif
176
     1
290
     0
176
     1
 40
1.0
176
     1
 40
1.0
176
     1
1001
ACAD
1000
AcDbSavedByObjectVersion
1070
     0
  0
VISUALSTYLE
  5
4CC
102
{ACAD_REACTORS
330
4B5
102
}
330
4B5
100
AcDbVisualStyle
  2
OverhangOff
 70
    21
177
     3
291
     1
 70
    58
 90
        2
176
     0
 90
        2
176
     0
 90
        0
176
     0
 90
        0
176
     0
 40
0.6
176
     0
 40
30.0
176
     0
 62
     7
420
 16777215
176
     0
 90
        1
176
     0
 90
        4
176
     0
 62
     7
176
     0
 62
   257
176
     0
 90
        1
176
     0
 90
        1
176
     0
 40
1.0
176
     0
 90
        9
176
     2
 62
     7
176
     0
 40
1.0
176
     0
 90
        1
176
     0
 90
        6
176
     0
 90
        2
176
     0
 62
     7
176
     0
 90
        5
176
     0
 90
        0
176
     0
 90
        0
176
     0
290
     0
176
     0
 90
        1
176
     0
 40
0.0
176
     0
 90
        0
176
     0
290
     0
176
     1
290
     1
176
     1
290
     1
176
     1
290
     0
176
     1
290
     0
176
     1
290
     0
176
     1
290
     0
176
     1
290
     0
176
     1
290
     0
176
     1
 90
       50
176
     0
 40
0.0
176
     0
 40
1.0
176
     0
 90
        0
176
     0
 62
    18
176
     0
 90
       50
176
     0
 90
        3
176
     0
 62
     5
420
      255
176
     0
290
     0
176
     1
 90
       50
176
     0
 90
       50
176
     0
 90
       50
176
     0
290
     0
176
     1
 90
       50
176
     0
 62
   256
176
     0
 40
1.0
176
     0
 90
        2
176
     0
  1
strokes_ogs.tif
176
     0
290
     0
176
     1
 40
1.0
176
     0
 40
1.0
176
     0
1001
ACAD
1000
AcDbSavedByObjectVersion
1070
     0
  0
VISUALSTYLE
  5
4BF
102
{ACAD_REACTORS
330
4B5
102
}
330
4B5
100
AcDbVisualStyle
  2
Realistic
 70
     8
177
     3
291
     0
 70
    58
 90
        2
176
     1
 90
        3
176
     1
 90
        0
176
     1
 90
        2
176
     1
 40
0.6
176
     1
 40
30.0
176
     1
 62
     7
420
 16777215
176
     1
 90
        0
176
     1
 90
        0
176
     1
 62
     7
176
     1
 62
   257
176
     1
 90
        1
176
     1
 90
        1
176
     1
 40
1.0
176
     1
 90
        8
176
     1
 62
   257
176
     1
 40
1.0
176
     1
 90
        1
176
     1
 90
        6
176
     1
 90
        2
176
     1
 62
     7
176
     1
 90
        3
176
     1
 90
        0
176
     1
 90
        0
176
     1
290
     0
176
     1
 90
       13
176
     1
 40
0.0
176
     1
 90
        0
176
     1
290
     0
176
     1
290
     1
176
     1
290
     1
176
     1
290
     0
176
     1
290
     0
176
     1
290
     0
176
     1
290
     0
176
     1
290
     0
176
     1
290
     0
176
     1
 90
       50
176
     1
 40
0.0
176
     1
 40
1.0
176
     1
 90
        0
176
     1
 62
    18
176
     1
 90
       50
176
     1
 90
        3
176
     1
 62
     5
420
      255
176
     1
290
     0
176
     1
 90
       50
176
     1
 90
       50
176
     1
 90
       50
176
     1
290
     0
176
     1
 90
       50
176
     1
 62
   256
176
     0
 40
1.0
176
     0
 90
        2
176
     1
  1
strokes_ogs.tif
176
     1
290
     0
176
     1
 40
1.0
176
     1
 40
1.0
176
     1
1001
ACAD
1000
AcDbSavedByObjectVersion
1070
     0
  0
VISUALSTYLE
  5
4CA
102
{ACAD_REACTORS
330
4B5
102
}
330
4B5
100
AcDbVisualStyle
  2
Shaded
 70
    27
177
     3
291
     0
 70
    58
 90
        2
176
     1
 90
        2
176
     1
 90
        1
176
     1
 90
        2
176
     1
 40
0.6
176
     1
 40
30.0
176
     1
 62
     7
420
 16777215
176
     1
 90
        0
176
     1
 90
        4
176
     1
 62
     7
176
     1
 62
   257
176
     1
 90
        1
176
     1
 90
        1
176
     1
 40
1.0
176
     1
 90
        8
176
     1
 62
   257
176
     1
 40
1.0
176
     1
 90
        1
176
     1
 90
        6
176
     1
 90
        2
176
     1
 62
     8
420
  7895160
176
     1
 90
        3
176
     1
 90
        0
176
     1
 90
        0
176
     1
290
     0
176
     1
 90
        5
176
     1
 40
0.0
176
     1
 90
        0
176
     1
290
     0
176
     1
290
     1
176
     1
290
     1
176
     1
290
     0
176
     1
290
     0
176
     1
290
     0
176
     1
290
     0
176
     1
290
     0
176
     1
290
     0
176
     1
 90
       50
176
     1
 40
0.0
176
     1
 40
1.0
176
     1
 90
        0
176
     1
 62
    18
176
     1
 90
       50
176
     1
 90
        3
176
     1
 62
     5
420
      255
176
     1
290
     0
176
     1
 90
       50
176
     1
 90
       50
176
     1
 90
       50
176
     1
290
     0
176
     1
 90
       50
176
     1
 62
   256
176
     0
 40
1.0
176
     0
 90
        2
176
     1
  1
strokes_ogs.tif
176
     1
290
     0
176
     1
 40
1.0
176
     1
 40
1.0
176
     1
1001
ACAD
1000
AcDbSavedByObjectVersion
1070
     0
  0
VISUALSTYLE
  5
4C9
102
{ACAD_REACTORS
330
4B5
102
}
330
4B5
100
AcDbVisualStyle
  2
Shaded with edges
 70
    26
177
     3
291
     0
 70
    58
 90
        2
176
     1
 90
        2
176
     1
 90
        1
176
     1
 90
        2
176
     1
 40
0.6
176
     1
 40
30.0
176
     1
 62
     7
420
 16777215
176
     1
 90
        1
176
     1
 90
        2
176
     1
 62
     7
176
     1
 62
   257
176
     1
 90
        2
176
     1
 90
        1
176
     1
 40
1.0
176
     1
 90
        8
176
     1
 62
   257
176
     1
 40
1.0
176
     1
 90
        1
176
     1
 90
        6
176
     1
 90
        2
176
     1
 62
     7
176
     1
 90
        3
176
     1
 90
        0
176
     1
 90
        0
176
     1
290
     0
176
     1
 90
        5
176
     1
 40
0.0
176
     1
 90
        0
176
     1
290
     0
176
     1
290
     1
176
     1
290
     1
176
     1
290
     0
176
     1
290
     0
176
     1
290
     0
176
     1
290
     0
176
     1
290
     0
176
     1
290
     0
176
     1
 90
       50
176
     1
 40
0.0
176
     1
 40
1.0
176
     1
 90
        0
176
     1
 62
    18
176
     1
 90
       50
176
     1
 90
        3
176
     1
 62
     5
420
      255
176
     1
290
     0
176
     1
 90
       50
176
     1
 90
       50
176
     1
 90
       50
176
     1
290
     0
176
     1
 90
       50
176
     1
 62
   256
176
     0
 40
1.0
176
     0
 90
        2
176
     1
  1
strokes_ogs.tif
176
     1
290
     0
176
     1
 40
1.0
176
     1
 40
1.0
176
     1
1001
ACAD
1000
AcDbSavedByObjectVersion
1070
     0
  0
VISUALSTYLE
  5
4C6
102
{ACAD_REACTORS
330
4B5
102
}
330
4B5
100
AcDbVisualStyle
  2
Shades of Gray
 70
    23
177
     3
291
     0
 70
    58
 90
        2
176
     1
 90
        2
176
     1
 90
        3
176
     1
 90
        0
176
     1
 40
0.6
176
     1
 40
30.0
176
     1
 62
     7
420
 16777215
176
     1
 90
        2
176
     1
 90
        2
176
     1
 62
     7
176
     1
 62
     7
176
     1
 90
        1
176
     1
 90
        1
176
     1
 40
40.0
176
     1
 90
        8
176
     1
 62
     7
176
     1
 40
1.0
176
     1
 90
        1
176
     1
 90
        6
176
     1
 90
        2
176
     1
 62
     7
176
     1
 90
        3
176
     1
 90
        0
176
     1
 90
        0
176
     1
290
     0
176
     1
 90
        1
176
     1
 40
0.0
176
     1
 90
        0
176
     1
290
     0
176
     1
290
     1
176
     1
290
     1
176
     1
290
     0
176
     1
290
     0
176
     1
290
     0
176
     1
290
     0
176
     1
290
     0
176
     1
290
     0
176
     1
 90
       50
176
     1
 40
0.0
176
     1
 40
1.0
176
     1
 90
        0
176
     1
 62
    18
176
     1
 90
       50
176
     1
 90
        3
176
     1
 62
     5
420
      255
176
     1
290
     0
176
     1
 90
       50
176
     1
 90
       50
176
     1
 90
       50
176
     1
290
     0
176
     1
 90
       50
176
     1
 62
   256
176
     0
 40
1.0
176
     0
 90
        2
176
     1
  1
strokes_ogs.tif
176
     1
290
     0
176
     1
 40
1.0
176
     1
 40
1.0
176
     1
1001
ACAD
1000
AcDbSavedByObjectVersion
1070
     0
  0
VISUALSTYLE
  5
4C7
102
{ACAD_REACTORS
330
4B5
102
}
330
4B5
100
AcDbVisualStyle
  2
Sketchy
 70
    24
177
     3
291
     0
 70
    58
 90
        1
176
     1
 90
        2
176
     1
 90
        2
176
     1
 90
        0
176
     1
 40
0.6
176
     1
 40
30.0
176
     1
 62
     7
420
 16777215
176
     1
 90
        2
176
     1
 90
        2
176
     1
 62
     7
176
     1
 62
     7
176
     1
 90
        1
176
     1
 90
        1
176
     1
 40
40.0
176
     1
 90
       11
176
     1
 62
     7
176
     1
 40
1.0
176
     1
 90
        1
176
     1
 90
        6
176
     1
 90
        2
176
     1
 62
     7
176
     1
 90
        6
176
     1
 90
        0
176
     1
 90
        0
176
     1
290
     0
176
     1
 90
        1
176
     1
 40
0.0
176
     1
 90
        0
176
     1
290
     0
176
     1
290
     1
176
     1
290
     1
176
     1
290
     0
176
     1
290
     0
176
     1
290
     0
176
     1
290
     0
176
     1
290
     0
176
     1
290
     0
176
     1
 90
       50
176
     1
 40
0.0
176
     1
 40
1.0
176
     1
 90
        0
176
     1
 62
    18
176
     1
 90
       50
176
     1
 90
        3
176
     1
 62
     5
420
      255
176
     1
290
     0
176
     1
 90
       50
176
     1
 90
       50
176
     1
 90
       50
176
     1
290
     0
176
     1
 90
       50
176
     1
 62
   256
176
     0
 40
1.0
176
     0
 90
        2
176
     1
  1
strokes_ogs.tif
176
     1
290
     0
176
     1
 40
1.0
176
     1
 40
1.0
176
     1
1001
ACAD
1000
AcDbSavedByObjectVersion
1070
     0
  0
VISUALSTYLE
  5
4C2
102
{ACAD_REACTORS
330
4B5
102
}
330
4B5
100
AcDbVisualStyle
  2
Thicken
 70
    13
177
     3
291
     1
 70
    58
 90
        2
176
     1
 90
        2
176
     1
 90
        0
176
     1
 90
        0
176
     1
 40
0.6
176
     1
 40
30.0
176
     1
 62
     7
420
 16777215
176
     1
 90
        1
176
     1
 90
        4
176
     1
 62
     7
176
     1
 62
   257
176
     1
 90
        1
176
     1
 90
        1
176
     1
 40
1.0
176
     1
 90
       12
176
     1
 62
     7
176
     1
 40
1.0
176
     1
 90
        1
176
     1
 90
        6
176
     1
 90
        2
176
     1
 62
     7
176
     1
 90
        5
176
     1
 90
        0
176
     1
 90
        0
176
     1
290
     0
176
     1
 90
        1
176
     1
 40
0.0
176
     1
 90
        0
176
     1
290
     0
176
     1
290
     1
176
     1
290
     1
176
     1
290
     0
176
     1
290
     0
176
     1
290
     0
176
     1
290
     0
176
     1
290
     0
176
     1
290
     0
176
     1
 90
       50
176
     1
 40
0.0
176
     1
 40
1.0
176
     1
 90
        0
176
     1
 62
    18
176
     1
 90
       50
176
     1
 90
        3
176
     1
 62
     5
420
      255
176
     1
290
     0
176
     1
 90
       50
176
     1
 90
       50
176
     1
 90
       50
176
     1
290
     0
176
     1
 90
       50
176
     1
 62
   256
176
     0
 40
1.0
176
     0
 90
        2
176
     1
  1
strokes_ogs.tif
176
     1
290
     0
176
     1
 40
1.0
176
     1
 40
1.0
176
     1
1001
ACAD
1000
AcDbSavedByObjectVersion
1070
     0
  0
VISUALSTYLE
  5
4BC
102
{ACAD_REACTORS
330
4B5
102
}
330
4B5
100
AcDbVisualStyle
  2
Wireframe
 70
     5
177
     3
291
     0
 70
    58
 90
        0
176
     1
 90
        2
176
     1
 90
        0
176
     1
 90
        0
176
     1
 40
0.6
176
     1
 40
30.0
176
     1
 62
     7
420
 16777215
176
     1
 90
        1
176
     1
 90
        4
176
     1
 62
     7
176
     1
 62
   257
176
     1
 90
        1
176
     1
 90
        1
176
     1
 40
1.0
176
     1
 90
        0
176
     1
 62
   257
176
     1
 40
1.0
176
     1
 90
        1
176
     1
 90
        6
176
     1
 90
        2
176
     1
 62
     7
176
     1
 90
        3
176
     1
 90
        0
176
     1
 90
        0
176
     1
290
     0
176
     1
 90
        1
176
     1
 40
0.0
176
     1
 90
        0
176
     1
290
     0
176
     1
290
     1
176
     1
290
     1
176
     1
290
     0
176
     1
290
     0
176
     1
290
     0
176
     1
290
     0
176
     1
290
     0
176
     1
290
     0
176
     1
 90
       50
176
     1
 40
0.0
176
     1
 40
1.0
176
     1
 90
        0
176
     1
 62
    18
176
     1
 90
       50
176
     1
 90
        3
176
     1
 62
     5
420
      255
176
     1
290
     0
176
     1
 90
       50
176
     1
 90
       50
176
     1
 90
       50
176
     1
290
     0
176
     1
 90
       50
176
     1
 62
   256
176
     0
 40
1.0
176
     0
 90
        2
176
     1
  1
strokes_ogs.tif
176
     1
290
     0
176
     1
 40
1.0
176
     1
 40
1.0
176
     1
1001
ACAD
1000
AcDbSavedByObjectVersion
1070
     0
  0
VISUALSTYLE
  5
4C8
102
{ACAD_REACTORS
330
4B5
102
}
330
4B5
100
AcDbVisualStyle
  2
X-Ray
 70
    25
177
     3
291
     0
 70
    58
 90
        2
176
     1
 90
        2
176
     1
 90
        1
176
     1
 90
        1
176
     1
 40
0.5
176
     1
 40
30.0
176
     1
 62
     7
420
 16777215
176
     1
 90
        1
176
     1
 90
        0
176
     1
 62
     7
176
     1
 62
   257
176
     1
 90
        1
176
     1
 90
        1
176
     1
 40
1.0
176
     1
 90
        8
176
     1
 62
     7
176
     1
 40
1.0
176
     1
 90
        1
176
     1
 90
        6
176
     1
 90
        2
176
     1
 62
     7
176
     1
 90
        3
176
     1
 90
        0
176
     1
 90
        0
176
     1
290
     0
176
     1
 90
       13
176
     1
 40
0.0
176
     1
 90
        0
176
     1
290
     0
176
     1
290
     1
176
     1
290
     1
176
     1
290
     0
176
     1
290
     0
176
     1
290
     0
176
     1
290
     0
176
     1
290
     0
176
     1
290
     0
176
     1
 90
       50
176
     1
 40
0.0
176
     1
 40
1.0
176
     1
 90
        0
176
     1
 62
    18
176
     1
 90
       50
176
     1
 90
        3
176
     1
 62
     5
420
      255
176
     1
290
     0
176
     1
 90
       50
176
     1
 90
       50
176
     1
 90
       50
176
     1
290
     0
176
     1
 90
       50
176
     1
 62
   256
176
     0
 40
1.0
176
     0
 90
        2
176
     1
  1
strokes_ogs.tif
176
     1
290
     0
176
     1
 40
1.0
176
     1
 40
1.0
176
     1
1001
ACAD
1000
AcDbSavedByObjectVersion
1070
     0
  0
DICTIONARYVAR
  5
4FD
102
{ACAD_REACTORS
330
4F7
102
}
330
4F7
100
DictionaryVariables
280
     0
  1
1:1
  0
DICTIONARYVAR
  5
4F9
102
{ACAD_REACTORS
330
4F7
102
}
330
4F7
100
DictionaryVariables
280
     0
  1
STANDARD
  0
DICTIONARYVAR
  5
4F8
102
{ACAD_REACTORS
330
4F7
102
}
330
4F7
100
DictionaryVariables
280
     0
  1
STANDARD
  0
DICTIONARYVAR
  5
4FA
102
{ACAD_REACTORS
330
4F7
102
}
330
4F7
100
DictionaryVariables
280
     0
  1
Metric50
  0
DICTIONARYVAR
  5
4FB
102
{ACAD_REACTORS
330
4F7
102
}
330
4F7
100
DictionaryVariables
280
     0
  1
Metric50
  0
DICTIONARYVAR
  5
4FF
102
{ACAD_REACTORS
330
4F7
102
}
330
4F7
100
DictionaryVariables
280
     0
  1
1
  0
DICTIONARYVAR
  5
500
102
{ACAD_REACTORS
330
4F7
102
}
330
4F7
100
DictionaryVariables
280
     0
  1
15
  0
DICTIONARYVAR
  5
4FE
102
{ACAD_REACTORS
330
4F7
102
}
330
4F7
100
DictionaryVariables
280
     0
  1
0
  0
DICTIONARYVAR
  5
4FC
102
{ACAD_REACTORS
330
4F7
102
}
330
4F7
100
DictionaryVariables
280
     0
  1
0
  0
DICTIONARY
  5
5F8
102
{ACAD_REACTORS
330
5F7
102
}
330
5F7
100
AcDbDictionary
281
     1
  3
*A1
350
5F9
  0
DICTIONARY
  5
5DB
102
{ACAD_REACTORS
330
5DA
102
}
330
5DA
100
AcDbDictionary
281
     1
  3
*A1
350
5DC
  0
DICTIONARY
  5
5BE
102
{ACAD_REACTORS
330
5BD
102
}
330
5BD
100
AcDbDictionary
281
     1
  3
*A1
350
5BF
  0
DICTIONARY
  5
5A1
102
{ACAD_REACTORS
330
5A0
102
}
330
5A0
100
AcDbDictionary
281
     1
  3
*A1
350
5A2
  0
DICTIONARY
  5
549
102
{ACAD_REACTORS
330
548
102
}
330
548
100
AcDbDictionary
281
     1
  3
*A1
350
54A
  0
DICTIONARY
  5
4A6
330
4A5
100
AcDbDictionary
280
     1
281
     1
  3
BUMPTILE
360
4A8
  3
DIFFUSETILE
360
4A7
  3
OPACITYTILE
360
4AB
  3
REFLECTIONTILE
360
4AA
  3
REFRACTIONTILE
360
4AC
  3
SPECULARTILE
360
4A9
  0
DICTIONARY
  5
49E
330
49D
100
AcDbDictionary
280
     1
281
     1
  3
BUMPTILE
360
4A0
  3
DIFFUSETILE
360
49F
  3
OPACITYTILE
360
4A3
  3
REFLECTIONTILE
360
4A2
  3
REFRACTIONTILE
360
4A4
  3
SPECULARTILE
360
4A1
  0
DICTIONARY
  5
4AE
330
4AD
100
AcDbDictionary
280
     1
281
     1
  3
BUMPTILE
360
4B0
  3
DIFFUSETILE
360
4AF
  3
OPACITYTILE
360
4B3
  3
REFLECTIONTILE
360
4B2
  3
REFRACTIONTILE
360
4B4
  3
SPECULARTILE
360
4B1
  0
DICTIONARY
  5
512
330
4D0
100
AcDbDictionary
280
     1
281
     1
  3
ACAD_ROUNDTRIP_2008_TABLESTYLE_CELLSTYLEMAP
360
69B
  0
ACDB_ALDIMOBJECTCONTEXTDATA_CLASS
  5
5F9
102
{ACAD_REACTORS
330
5F8
102
}
330
5F8
100
AcDbObjectContextData
 70
     4
290
     1
100
AcDbAnnotScaleObjectContextData
340
48
100
AcDbDimensionObjectContextData
  2
*D28
293
     0
 10
831.7891394127999
 20
1399.090910847437
294
     0
140
0.0
298
     0
291
     0
 70
     0
292
     0
 71
     0
280
     0
295
     0
296
     0
297
     0
100
AcDbAlignedDimensionObjectContextData
 11
1307.2403100198
 21
1399.090910847437
 31
0.0
  0
ACDB_ALDIMOBJECTCONTEXTDATA_CLASS
  5
5DC
102
{ACAD_REACTORS
330
5DB
102
}
330
5DB
100
AcDbObjectContextData
 70
     4
290
     1
100
AcDbAnnotScaleObjectContextData
340
48
100
AcDbDimensionObjectContextData
  2
*D26
293
     0
 10
1387.2403100198
 20
1153.2762951182
294
     0
140
0.0
298
     0
291
     0
 70
     0
292
     0
 71
     0
280
     0
295
     0
296
     0
297
     0
100
AcDbAlignedDimensionObjectContextData
 11
1387.2403100198
 21
944.1768724068003
 31
0.0
  0
ACDB_ALDIMOBJECTCONTEXTDATA_CLASS
  5
5BF
102
{ACAD_REACTORS
330
5BE
102
}
330
5BE
100
AcDbObjectContextData
 70
     4
290
     1
100
AcDbAnnotScaleObjectContextData
340
48
100
AcDbDimensionObjectContextData
  2
*D24
293
     0
 10
1387.2403100198
 20
630.2348510070649
294
     0
140
0.0
298
     0
291
     0
 70
     0
292
     0
 71
     0
280
     0
295
     0
296
     0
297
     0
100
AcDbAlignedDimensionObjectContextData
 11
1387.2403100198
 21
775.2289346063653
 31
0.0
  0
ACDB_ALDIMOBJECTCONTEXTDATA_CLASS
  5
5A2
102
{ACAD_REACTORS
330
5A1
102
}
330
5A1
100
AcDbObjectContextData
 70
     4
290
     1
100
AcDbAnnotScaleObjectContextData
340
48
100
AcDbDimensionObjectContextData
  2
*D22
293
     0
 10
1287.392977726811
 20
630.2348356837651
294
     0
140
0.0
298
     0
291
     0
 70
     0
292
     0
 71
     0
280
     0
295
     0
296
     0
297
     0
100
AcDbAlignedDimensionObjectContextData
 11
1287.392977726811
 21
717.4289346063652
 31
0.0
  0
ACDB_ALDIMOBJECTCONTEXTDATA_CLASS
  5
54A
102
{ACAD_REACTORS
330
549
102
}
330
549
100
AcDbObjectContextData
 70
     4
290
     1
100
AcDbAnnotScaleObjectContextData
340
48
100
AcDbDimensionObjectContextData
  2
*D16
293
     0
 10
1940.4570055623
 20
659.8873587820651
294
     0
140
0.0
298
     0
291
     0
 70
     0
292
     0
 71
     0
280
     0
295
     0
296
     0
297
     0
100
AcDbAlignedDimensionObjectContextData
 11
1940.4570055623
 21
793.2289346064655
 31
0.0
  0
XRECORD
  5
4A8
102
{ACAD_REACTORS
330
4A6
102
}
330
4A6
100
AcDbXrecord
280
     1
270
     1
271
     1
  0
XRECORD
  5
4A7
102
{ACAD_REACTORS
330
4A6
102
}
330
4A6
100
AcDbXrecord
280
     1
270
     1
271
     1
  0
XRECORD
  5
4AB
102
{ACAD_REACTORS
330
4A6
102
}
330
4A6
100
AcDbXrecord
280
     1
270
     1
271
     1
  0
XRECORD
  5
4AA
102
{ACAD_REACTORS
330
4A6
102
}
330
4A6
100
AcDbXrecord
280
     1
270
     1
271
     1
  0
XRECORD
  5
4AC
102
{ACAD_REACTORS
330
4A6
102
}
330
4A6
100
AcDbXrecord
280
     1
270
     1
271
     1
  0
XRECORD
  5
4A9
102
{ACAD_REACTORS
330
4A6
102
}
330
4A6
100
AcDbXrecord
280
     1
270
     1
271
     1
  0
XRECORD
  5
4A0
102
{ACAD_REACTORS
330
49E
102
}
330
49E
100
AcDbXrecord
280
     1
270
     1
271
     1
  0
XRECORD
  5
49F
102
{ACAD_REACTORS
330
49E
102
}
330
49E
100
AcDbXrecord
280
     1
270
     1
271
     1
  0
XRECORD
  5
4A3
102
{ACAD_REACTORS
330
49E
102
}
330
49E
100
AcDbXrecord
280
     1
270
     1
271
     1
  0
XRECORD
  5
4A2
102
{ACAD_REACTORS
330
49E
102
}
330
49E
100
AcDbXrecord
280
     1
270
     1
271
     1
  0
XRECORD
  5
4A4
102
{ACAD_REACTORS
330
49E
102
}
330
49E
100
AcDbXrecord
280
     1
270
     1
271
     1
  0
XRECORD
  5
4A1
102
{ACAD_REACTORS
330
49E
102
}
330
49E
100
AcDbXrecord
280
     1
270
     1
271
     1
  0
XRECORD
  5
4B0
102
{ACAD_REACTORS
330
4AE
102
}
330
4AE
100
AcDbXrecord
280
     1
270
     1
271
     1
  0
XRECORD
  5
4AF
102
{ACAD_REACTORS
330
4AE
102
}
330
4AE
100
AcDbXrecord
280
     1
270
     1
271
     1
  0
XRECORD
  5
4B3
102
{ACAD_REACTORS
330
4AE
102
}
330
4AE
100
AcDbXrecord
280
     1
270
     1
271
     1
  0
XRECORD
  5
4B2
102
{ACAD_REACTORS
330
4AE
102
}
330
4AE
100
AcDbXrecord
280
     1
270
     1
271
     1
  0
XRECORD
  5
4B4
102
{ACAD_REACTORS
330
4AE
102
}
330
4AE
100
AcDbXrecord
280
     1
270
     1
271
     1
  0
XRECORD
  5
4B1
102
{ACAD_REACTORS
330
4AE
102
}
330
4AE
100
AcDbXrecord
280
     1
270
     1
271
     1
  0
CELLSTYLEMAP
  5
69B
102
{ACAD_REACTORS
330
512
102
}
330
512
100
AcDbCellStyleMap
 90
        3
300
CELLSTYLE
  1
TABLEFORMAT_BEGIN
 90
        5
170
     1
 91
        0
 92
    32768
 62
   257
 93
        1
300
CONTENTFORMAT
  1
CONTENTFORMAT_BEGIN
 90
        0
 91
        0
 92
      512
 93
        0
300

 40
0.0
140
1.0
 94
        5
 62
     0
340
11
144
6.0
309
CONTENTFORMAT_END
171
     1
301
MARGIN
  1
CELLMARGIN_BEGIN
 40
1.5
 40
1.5
 40
1.5
 40
1.5
 40
0.18
 40
0.18
309
CELLMARGIN_END
 94
        6
 95
        1
302
GRIDFORMAT
  1
GRIDFORMAT_BEGIN
 90
        0
 91
        1
 62
     0
 92
       -2
340
0
 93
        0
 40
1.125
309
GRIDFORMAT_END
 95
        2
302
GRIDFORMAT
  1
GRIDFORMAT_BEGIN
 90
        0
 91
        1
 62
     0
 92
       -2
340
0
 93
        0
 40
1.125
309
GRIDFORMAT_END
 95
        4
302
GRIDFORMAT
  1
GRIDFORMAT_BEGIN
 90
        0
 91
        1
 62
     0
 92
       -2
340
0
 93
        0
 40
1.125
309
GRIDFORMAT_END
 95
        8
302
GRIDFORMAT
  1
GRIDFORMAT_BEGIN
 90
        0
 91
        1
 62
     0
 92
       -2
340
0
 93
        0
 40
1.125
309
GRIDFORMAT_END
 95
       16
302
GRIDFORMAT
  1
GRIDFORMAT_BEGIN
 90
        0
 91
        1
 62
     0
 92
       -2
340
0
 93
        0
 40
1.125
309
GRIDFORMAT_END
 95
       32
302
GRIDFORMAT
  1
GRIDFORMAT_BEGIN
 90
        0
 91
        1
 62
     0
 92
       -2
340
0
 93
        0
 40
1.125
309
GRIDFORMAT_END
309
TABLEFORMAT_END
  1
CELLSTYLE_BEGIN
 90
        1
 91
        1
300
_TITLE
309
CELLSTYLE_END
300
CELLSTYLE
  1
TABLEFORMAT_BEGIN
 90
        5
170
     1
 91
        0
 92
        0
 62
   257
 93
        1
300
CONTENTFORMAT
  1
CONTENTFORMAT_BEGIN
 90
        0
 91
        0
 92
      512
 93
        0
300

 40
0.0
140
1.0
 94
        5
 62
     0
340
11
144
4.5
309
CONTENTFORMAT_END
171
     1
301
MARGIN
  1
CELLMARGIN_BEGIN
 40
1.5
 40
1.5
 40
1.5
 40
1.5
 40
0.18
 40
0.18
309
CELLMARGIN_END
 94
        6
 95
        1
302
GRIDFORMAT
  1
GRIDFORMAT_BEGIN
 90
        0
 91
        1
 62
     0
 92
       -2
340
0
 93
        0
 40
1.125
309
GRIDFORMAT_END
 95
        2
302
GRIDFORMAT
  1
GRIDFORMAT_BEGIN
 90
        0
 91
        1
 62
     0
 92
       -2
340
0
 93
        0
 40
1.125
309
GRIDFORMAT_END
 95
        4
302
GRIDFORMAT
  1
GRIDFORMAT_BEGIN
 90
        0
 91
        1
 62
     0
 92
       -2
340
0
 93
        0
 40
1.125
309
GRIDFORMAT_END
 95
        8
302
GRIDFORMAT
  1
GRIDFORMAT_BEGIN
 90
        0
 91
        1
 62
     0
 92
       -2
340
0
 93
        0
 40
1.125
309
GRIDFORMAT_END
 95
       16
302
GRIDFORMAT
  1
GRIDFORMAT_BEGIN
 90
        0
 91
        1
 62
     0
 92
       -2
340
0
 93
        0
 40
1.125
309
GRIDFORMAT_END
 95
       32
302
GRIDFORMAT
  1
GRIDFORMAT_BEGIN
 90
        0
 91
        1
 62
     0
 92
       -2
340
0
 93
        0
 40
1.125
309
GRIDFORMAT_END
309
TABLEFORMAT_END
  1
CELLSTYLE_BEGIN
 90
        2
 91
        1
300
_HEADER
309
CELLSTYLE_END
300
CELLSTYLE
  1
TABLEFORMAT_BEGIN
 90
        5
170
     1
 91
        0
 92
        0
 62
   257
 93
        1
300
CONTENTFORMAT
  1
CONTENTFORMAT_BEGIN
 90
        0
 91
        0
 92
      512
 93
        0
300

 40
0.0
140
1.0
 94
        2
 62
     0
340
11
144
4.5
309
CONTENTFORMAT_END
171
     1
301
MARGIN
  1
CELLMARGIN_BEGIN
 40
1.5
 40
1.5
 40
1.5
 40
1.5
 40
0.18
 40
0.18
309
CELLMARGIN_END
 94
        6
 95
        1
302
GRIDFORMAT
  1
GRIDFORMAT_BEGIN
 90
        0
 91
        1
 62
     0
 92
       -2
340
0
 93
        0
 40
1.125
309
GRIDFORMAT_END
 95
        2
302
GRIDFORMAT
  1
GRIDFORMAT_BEGIN
 90
        0
 91
        1
 62
     0
 92
       -2
340
0
 93
        0
 40
1.125
309
GRIDFORMAT_END
 95
        4
302
GRIDFORMAT
  1
GRIDFORMAT_BEGIN
 90
        0
 91
        1
 62
     0
 92
       -2
340
0
 93
        0
 40
1.125
309
GRIDFORMAT_END
 95
        8
302
GRIDFORMAT
  1
GRIDFORMAT_BEGIN
 90
        0
 91
        1
 62
     0
 92
       -2
340
0
 93
        0
 40
1.125
309
GRIDFORMAT_END
 95
       16
302
GRIDFORMAT
  1
GRIDFORMAT_BEGIN
 90
        0
 91
        1
 62
     0
 92
       -2
340
0
 93
        0
 40
1.125
309
GRIDFORMAT_END
 95
       32
302
GRIDFORMAT
  1
GRIDFORMAT_BEGIN
 90
        0
 91
        1
 62
     0
 92
       -2
340
0
 93
        0
 40
1.125
309
GRIDFORMAT_END
309
TABLEFORMAT_END
  1
CELLSTYLE_BEGIN
 90
        3
 91
        2
300
_DATA
309
CELLSTYLE_END
  0
ENDSEC
  0
SECTION
  2
ACDSDATA
 70
     2
 71
     8
  0
ACDSSCHEMA
 90
        0
  1
AcDb_Thumbnail_Schema
  2
AcDbDs::ID
280
    10
 91
        8
  2
Thumbnail_Data
280
    15
 91
        0
101
ACDSRECORD
 95
        0
 90
        1
  2
AcDbDs::TreatedAsObjectData
280
     1
291
     1
101
ACDSRECORD
 95
        0
 90
        2
  2
AcDbDs::Legacy
280
     1
291
     1
101
ACDSRECORD
  1
AcDbDs::ID
 90
        3
  2
AcDs:Indexable
280
     1
291
     1
101
ACDSRECORD
  1
AcDbDs::ID
 90
        4
  2
AcDbDs::HandleAttribute
280
     7
282
     1
  0
ACDSSCHEMA
 90
        1
  1
AcDbDs::TreatedAsObjectDataSchema
  2
AcDbDs::TreatedAsObjectData
280
     1
 91
        0
  0
ACDSSCHEMA
 90
        2
  1
AcDbDs::LegacySchema
  2
AcDbDs::Legacy
280
     1
 91
        0
  0
ACDSSCHEMA
 90
        3
  1
AcDbDs::IndexedPropertySchema
  2
AcDs:Indexable
280
     1
 91
        0
  0
ACDSSCHEMA
 90
        4
  1
AcDbDs::HandleAttributeSchema
  2
AcDbDs::HandleAttribute
280
     7
 91
        1
284
     1
  0
ACDSRECORD
 90
        0
  2
AcDbDs::ID
280
    10
320
22
  2
Thumbnail_Data
280
    15
 94
     1080
310
89504E470D0A1A0A0000000D494844520000010000000083080300000055FF359600000300504C5445212830FFFFFF2128300000000000000000000000000000000000000000000000000000330000660000990000CC0000FF0033000033330033660033990033CC0033FF0066000066330066660066990066CC0066FF0099
310
000099330099660099990099CC0099FF00CC0000CC3300CC6600CC9900CCCC00CCFF00FF0000FF3300FF6600FF9900FFCC00FFFF3300003300333300663300993300CC3300FF3333003333333333663333993333CC3333FF3366003366333366663366993366CC3366FF3399003399333399663399993399CC3399FF33CC00
310
33CC3333CC6633CC9933CCCC33CCFF33FF0033FF3333FF6633FF9933FFCC33FFFF6600006600336600666600996600CC6600FF6633006633336633666633996633CC6633FF6666006666336666666666996666CC6666FF6699006699336699666699996699CC6699FF66CC0066CC3366CC6666CC9966CCCC66CCFF66FF0066
310
FF3366FF6666FF9966FFCC66FFFF9900009900339900669900999900CC9900FF9933009933339933669933999933CC9933FF9966009966339966669966999966CC9966FF9999009999339999669999999999CC9999FF99CC0099CC3399CC6699CC9999CCCC99CCFF99FF0099FF3399FF6699FF9999FFCC99FFFFCC0000CC00
310
33CC0066CC0099CC00CCCC00FFCC3300CC3333CC3366CC3399CC33CCCC33FFCC6600CC6633CC6666CC6699CC66CCCC66FFCC9900CC9933CC9966CC9999CC99CCCC99FFCCCC00CCCC33CCCC66CCCC99CCCCCCCCCCFFCCFF00CCFF33CCFF66CCFF99CCFFCCCCFFFFFF0000FF0033FF0066FF0099FF00CCFF00FFFF3300FF3333
310
FF3366FF3399FF33CCFF33FFFF6600FF6633FF6666FF6699FF66CCFF66FFFF9900FF9933FF9966FF9999FF99CCFF99FFFFCC00FFCC33FFCC66FFCC99FFCCCCFFCCFFFFFF00FFFF33FFFF66FFFF99FFFFCCFFFFFF0000000D0D0D1A1A1A2828283535354343435050505D5D5D6B6B6B787878868686939393A1A1A1AEAEAEBB
310
BBBBC9C9C9D6D6D6E4E4E4F1F1F1FFFFFF0000000000000000000000000000000000000000000000000000000000002E4550F1000000F34944415478DAEDDA490E8330100440FEFFDFBE27872C8A6048205C3CAE92A248962F6E2F0CCBB200000000000070A924DF1B5EBA0DBE1AEF56C3F3D76BF20F6918C0D1DEE9B70304
310
2000010860FA00362A9DACDBEEFF997D05C416987C0B38040520000108C0EDF0BC0F44DA3D123BBE029629CE806AA40D03987AFD03C02415CFB57540D6510D1A59CE75EF5323A58821FB1DD3A64ACE633ED71B63ABA15EEFA3AE82E4D4FD70A34F07F2730CEFDEE51930ECA5E3D8FC57998D7CB3BCDABC75438A610A400023
310
978FBF07505EEB04600B08400002681DC06725D82E80BF5F8E786F0200000000000000000000000000C08E1BFABAF243AC2A4A710000000049454E44AE426082
  0
ENDSEC
  0
EOF
