  0
SECTION
  2
HEADER
  9
$ACADVER
  1
AC1032
  9
$ACADMAINTVER
 90
      174
  9
$DWGCODEPAGE
  3
ANSI_1252
  9
$LASTSAVEDBY
  1
pengb
  9
$REQUIREDVERSIONS
160
                 0
  9
$INSBASE
 10
0.0
 20
0.0
 30
0.0
  9
$EXTMIN
 10
-174.8419181709665
 20
-218.3767543234592
 30
-0.0015258207003583
  9
$EXTMAX
 10
525.2755748309144
 20
314.2754523717746
 30
0.0000000349246037
  9
$LIMMIN
 10
0.0
 20
0.0
  9
$LIMMAX
 10
420.0
 20
297.0
  9
$ORTHOMODE
 70
     0
  9
$REGENMODE
 70
     1
  9
$FILLMODE
 70
     1
  9
$QTEXTMODE
 70
     0
  9
$MIRRTEXT
 70
     1
  9
$LTSCALE
 40
1.0
  9
$ATTMODE
 70
     1
  9
$TEXTSIZE
 40
3.5
  9
$TRACEWID
 40
1.0
  9
$TEXTSTYLE
  7
Standard
  9
$CLAYER
  8
0
  9
$CELTYPE
  6
ByLayer
  9
$CECOLOR
 62
   256
  9
$CELTSCALE
 40
1.0
  9
$DISPSILH
 70
     0
  9
$DIMSCALE
 40
1.0
  9
$DIMASZ
 40
3.302
  9
$DIMEXO
 40
1.0
  9
$DIMDLI
 40
3.75
  9
$DIMRND
 40
0.0
  9
$DIMDLE
 40
0.0
  9
$DIMEXE
 40
1.0
  9
$DIMTP
 40
0.0
  9
$DIMTM
 40
0.0
  9
$DIMTXT
 40
3.5
  9
$DIMCEN
 40
2.5
  9
$DIMTSZ
 40
0.0
  9
$DIMTOL
 70
     0
  9
$DIMLIM
 70
     0
  9
$DIMTIH
 70
     1
  9
$DIMTOH
 70
     1
  9
$DIMSE1
 70
     0
  9
$DIMSE2
 70
     0
  9
$DIMTAD
 70
     1
  9
$DIMZIN
 70
     1
  9
$DIMBLK
  1

  9
$DIMASO
 70
     1
  9
$DIMSHO
 70
     1
  9
$DIMPOST
  1

  9
$DIMAPOST
  1

  9
$DIMALT
 70
     0
  9
$DIMALTD
 70
     3
  9
$DIMALTF
 40
0.0393700787
  9
$DIMLFAC
 40
5.0
  9
$DIMTOFL
 70
     1
  9
$DIMTVP
 40
0.0
  9
$DIMTIX
 70
     0
  9
$DIMSOXD
 70
     0
  9
$DIMSAH
 70
     0
  9
$DIMBLK1
  1

  9
$DIMBLK2
  1

  9
$DIMSTYLE
  2
ISO-25
  9
$DIMCLRD
 70
     0
  9
$DIMCLRE
 70
     0
  9
$DIMCLRT
 70
     0
  9
$DIMTFAC
 40
1.0
  9
$DIMGAP
 40
1.524
  9
$DIMJUST
 70
     0
  9
$DIMSD1
 70
     0
  9
$DIMSD2
 70
     0
  9
$DIMTOLJ
 70
     0
  9
$DIMTZIN
 70
     1
  9
$DIMALTZ
 70
     0
  9
$DIMALTTZ
 70
     0
  9
$DIMUPT
 70
     0
  9
$DIMDEC
 70
     2
  9
$DIMTDEC
 70
     2
  9
$DIMALTU
 70
     2
  9
$DIMALTTD
 70
     3
  9
$DIMTXSTY
  7
Standard
  9
$DIMAUNIT
 70
     0
  9
$DIMADEC
 70
     2
  9
$DIMALTRND
 40
0.0
  9
$DIMAZIN
 70
     0
  9
$DIMDSEP
 70
    44
  9
$DIMATFIT
 70
     3
  9
$DIMFRAC
 70
     0
  9
$DIMLDRBLK
  1

  9
$DIMLUNIT
 70
     2
  9
$DIMLWD
 70
    -2
  9
$DIMLWE
 70
    -2
  9
$DIMTMOVE
 70
     0
  9
$DIMFXL
 40
1.0
  9
$DIMFXLON
 70
     0
  9
$DIMJOGANG
 40
0.7853981633974483
  9
$DIMTFILL
 70
     0
  9
$DIMTFILLCLR
 70
     0
  9
$DIMARCSYM
 70
     0
  9
$DIMLTYPE
  6

  9
$DIMLTEX1
  6

  9
$DIMLTEX2
  6

  9
$DIMTXTDIRECTION
 70
     0
  9
$LUNITS
 70
     2
  9
$LUPREC
 70
     2
  9
$SKETCHINC
 40
1.0
  9
$FILLETRAD
 40
10.0
  9
$AUNITS
 70
     0
  9
$AUPREC
 70
     2
  9
$MENU
  1
.
  9
$ELEVATION
 40
0.0
  9
$PELEVATION
 40
0.0
  9
$THICKNESS
 40
0.0
  9
$LIMCHECK
 70
     0
  9
$CHAMFERA
 40
0.0
  9
$CHAMFERB
 40
0.0
  9
$CHAMFERC
 40
0.0
  9
$CHAMFERD
 40
0.0
  9
$SKPOLY
 70
     0
  9
$TDCREATE
 40
2459999.513449074
  9
$TDUCREATE
 40
2459999.055121933
  9
$TDUPDATE
 40
2460005.478831018
  9
$TDUUPDATE
 40
2460005.020497685
  9
$TDINDWG
 40
0.0006365856
  9
$TDUSRTIMER
 40
0.0006365856
  9
$USRTIMER
 70
     1
  9
$ANGBASE
 50
0.0
  9
$ANGDIR
 70
     0
  9
$PDMODE
 70
     0
  9
$PDSIZE
 40
-1.0
  9
$PLINEWID
 40
0.0
  9
$SPLFRAME
 70
     0
  9
$SPLINETYPE
 70
     6
  9
$SPLINESEGS
 70
     8
  9
$HANDSEED
  5
2C7
  9
$SURFTAB1
 70
     6
  9
$SURFTAB2
 70
     6
  9
$SURFTYPE
 70
     6
  9
$SURFU
 70
     6
  9
$SURFV
 70
     6
  9
$UCSBASE
  2

  9
$UCSNAME
  2

  9
$UCSORG
 10
0.0
 20
0.0
 30
0.0
  9
$UCSXDIR
 10
1.0
 20
0.0
 30
0.0
  9
$UCSYDIR
 10
0.0
 20
1.0
 30
0.0
  9
$UCSORTHOREF
  2

  9
$UCSORTHOVIEW
 70
     0
  9
$UCSORGTOP
 10
0.0
 20
0.0
 30
0.0
  9
$UCSORGBOTTOM
 10
0.0
 20
0.0
 30
0.0
  9
$UCSORGLEFT
 10
0.0
 20
0.0
 30
0.0
  9
$UCSORGRIGHT
 10
0.0
 20
0.0
 30
0.0
  9
$UCSORGFRONT
 10
0.0
 20
0.0
 30
0.0
  9
$UCSORGBACK
 10
0.0
 20
0.0
 30
0.0
  9
$PUCSBASE
  2

  9
$PUCSNAME
  2

  9
$PUCSORG
 10
0.0
 20
0.0
 30
0.0
  9
$PUCSXDIR
 10
1.0
 20
0.0
 30
0.0
  9
$PUCSYDIR
 10
0.0
 20
1.0
 30
0.0
  9
$PUCSORTHOREF
  2

  9
$PUCSORTHOVIEW
 70
     0
  9
$PUCSORGTOP
 10
0.0
 20
0.0
 30
0.0
  9
$PUCSORGBOTTOM
 10
0.0
 20
0.0
 30
0.0
  9
$PUCSORGLEFT
 10
0.0
 20
0.0
 30
0.0
  9
$PUCSORGRIGHT
 10
0.0
 20
0.0
 30
0.0
  9
$PUCSORGFRONT
 10
0.0
 20
0.0
 30
0.0
  9
$PUCSORGBACK
 10
0.0
 20
0.0
 30
0.0
  9
$USERI1
 70
     0
  9
$USERI2
 70
     0
  9
$USERI3
 70
     0
  9
$USERI4
 70
     0
  9
$USERI5
 70
     0
  9
$USERR1
 40
0.0
  9
$USERR2
 40
0.0
  9
$USERR3
 40
0.0
  9
$USERR4
 40
0.0
  9
$USERR5
 40
0.0
  9
$WORLDVIEW
 70
     1
  9
$SHADEDGE
 70
     3
  9
$SHADEDIF
 70
    70
  9
$TILEMODE
 70
     1
  9
$MAXACTVP
 70
    64
  9
$PINSBASE
 10
0.0
 20
0.0
 30
0.0
  9
$PLIMCHECK
 70
     0
  9
$PEXTMIN
 10
1.000000000000000E+20
 20
1.000000000000000E+20
 30
1.000000000000000E+20
  9
$PEXTMAX
 10
-1.000000000000000E+20
 20
-1.000000000000000E+20
 30
-1.000000000000000E+20
  9
$PLIMMIN
 10
0.0
 20
0.0
  9
$PLIMMAX
 10
420.0
 20
297.0
  9
$UNITMODE
 70
     0
  9
$VISRETAIN
 70
     1
  9
$PLINEGEN
 70
     0
  9
$PSLTSCALE
 70
     1
  9
$TREEDEPTH
 70
  3020
  9
$CMLSTYLE
  2
Standard
  9
$CMLJUST
 70
     0
  9
$CMLSCALE
 40
20.0
  9
$PROXYGRAPHICS
 70
     1
  9
$MEASUREMENT
 70
     1
  9
$CELWEIGHT
370
    -1
  9
$ENDCAPS
280
     0
  9
$JOINSTYLE
280
     0
  9
$LWDISPLAY
290
     1
  9
$INSUNITS
 70
     4
  9
$HYPERLINKBASE
  1

  9
$STYLESHEET
  1

  9
$XEDIT
290
     1
  9
$CEPSNTYPE
380
     0
  9
$PSTYLEMODE
290
     1
  9
$FINGERPRINTGUID
  2
{B0C7449D-81FE-426B-8B0F-C9B1E1CC469D}
  9
$VERSIONGUID
  2
{9C066319-8BB4-E94A-9129-B6FDCE98C201}
  9
$EXTNAMES
290
     1
  9
$PSVPSCALE
 40
0.0
  9
$OLESTARTUP
290
     0
  9
$SORTENTS
280
   127
  9
$INDEXCTL
280
     0
  9
$HIDETEXT
280
     0
  9
$XCLIPFRAME
280
     2
  9
$HALOGAP
280
     0
  9
$OBSCOLOR
 70
   257
  9
$OBSLTYPE
280
     0
  9
$INTERSECTIONDISPLAY
280
     0
  9
$INTERSECTIONCOLOR
 70
   257
  9
$DIMASSOC
280
     1
  9
$PROJECTNAME
  1

  9
$CAMERADISPLAY
290
     0
  9
$LENSLENGTH
 40
50.0
  9
$CAMERAHEIGHT
 40
0.0
  9
$STEPSPERSEC
 40
2.0
  9
$STEPSIZE
 40
6.0
  9
$3DDWFPREC
 40
2.0
  9
$PSOLWIDTH
 40
0.25
  9
$PSOLHEIGHT
 40
4.0
  9
$LOFTANG1
 40
1.570796326794896
  9
$LOFTANG2
 40
1.570796326794896
  9
$LOFTMAG1
 40
0.0
  9
$LOFTMAG2
 40
0.0
  9
$LOFTPARAM
 70
     7
  9
$LOFTNORMALS
280
     1
  9
$LATITUDE
 40
37.795
  9
$LONGITUDE
 40
-122.394
  9
$NORTHDIRECTION
 40
0.0
  9
$TIMEZONE
 70
 -8000
  9
$LIGHTGLYPHDISPLAY
280
     1
  9
$TILEMODELIGHTSYNCH
280
     1
  9
$CMATERIAL
347
1C0
  9
$SOLIDHIST
280
     0
  9
$SHOWHIST
280
     1
  9
$DWFFRAME
280
     2
  9
$DGNFRAME
280
     0
  9
$REALWORLDSCALE
290
     1
  9
$INTERFERECOLOR
 62
     1
  9
$INTERFEREOBJVS
345
1E2
  9
$INTERFEREVPVS
346
1DF
  9
$CSHADOW
280
     0
  9
$SHADOWPLANELOCATION
 40
0.0
  0
ENDSEC
  0
SECTION
  2
CLASSES
  0
CLASS
  1
ACDBDICTIONARYWDFLT
  2
AcDbDictionaryWithDefault
  3
ObjectDBX Classes
 90
        0
 91
        1
280
     0
281
     0
  0
CLASS
  1
VISUALSTYLE
  2
AcDbVisualStyle
  3
ObjectDBX Classes
 90
     4095
 91
       24
280
     0
281
     0
  0
CLASS
  1
MATERIAL
  2
AcDbMaterial
  3
ObjectDBX Classes
 90
     1153
 91
        3
280
     0
281
     0
  0
CLASS
  1
SCALE
  2
AcDbScale
  3
ObjectDBX Classes
 90
     1153
 91
       33
280
     0
281
     0
  0
CLASS
  1
TABLESTYLE
  2
AcDbTableStyle
  3
ObjectDBX Classes
 90
     4095
 91
        1
280
     0
281
     0
  0
CLASS
  1
MLEADERSTYLE
  2
AcDbMLeaderStyle
  3
ACDB_MLEADERSTYLE_CLASS
 90
     4095
 91
        1
280
     0
281
     0
  0
CLASS
  1
SUN
  2
AcDbSun
  3
SCENEOE
 90
     1153
 91
        0
280
     0
281
     0
  0
CLASS
  1
ACDBSECTIONVIEWSTYLE
  2
AcDbSectionViewStyle
  3
ObjectDBX Classes
 90
     1025
 91
        1
280
     0
281
     0
  0
CLASS
  1
ACDBDETAILVIEWSTYLE
  2
AcDbDetailViewStyle
  3
ObjectDBX Classes
 90
     1025
 91
        1
280
     0
281
     0
  0
CLASS
  1
ACDB_ALDIMOBJECTCONTEXTDATA_CLASS
  2
AcDbAlignedDimensionObjectContextData
  3
ObjectDBX Classes
 90
     1153
 91
       11
280
     0
281
     0
  0
CLASS
  1
DICTIONARYVAR
  2
AcDbDictionaryVar
  3
ObjectDBX Classes
 90
        0
 91
       18
280
     0
281
     0
  0
CLASS
  1
CELLSTYLEMAP
  2
AcDbCellStyleMap
  3
ObjectDBX Classes
 90
     1152
 91
        1
280
     0
281
     0
  0
ENDSEC
  0
SECTION
  2
TABLES
  0
TABLE
  2
VPORT
  5
8
330
0
100
AcDbSymbolTable
 70
     1
  0
VPORT
  5
29
330
8
100
AcDbSymbolTableRecord
100
AcDbViewportTableRecord
  2
*Active
 70
     0
 10
0.0
 20
0.0
 11
1.0
 21
1.0
 12
175.2168283299738
 22
47.9493490241577
 13
0.0
 23
0.0
 14
10.0
 24
10.0
 15
10.0
 25
10.0
 16
0.0
 26
0.0
 36
1.0
 17
0.0
 27
0.0
 37
0.0
 40
534.4446426123237
 41
1.935465768799101
 42
50.0
 43
0.0
 44
0.0
 50
0.0
 51
0.0
 71
     0
 72
  2000
 73
     1
 74
     3
 75
     0
 76
     0
 77
     0
 78
     0
281
     0
 65
     1
110
0.0
120
0.0
130
0.0
111
1.0
121
0.0
131
0.0
112
0.0
122
1.0
132
0.0
 79
     0
146
0.0
348
1DE
 60
     3
 61
     5
292
     1
282
     1
141
0.0
142
0.0
 63
   250
421
  3355443
1001
ACAD_NAV_VCDISPLAY
1070
     3
  0
ENDTAB
  0
TABLE
  2
LTYPE
  5
5
330
0
100
AcDbSymbolTable
 70
     6
  0
LTYPE
  5
14
330
5
100
AcDbSymbolTableRecord
100
AcDbLinetypeTableRecord
  2
ByBlock
 70
     0
  3

 72
    65
 73
     0
 40
0.0
  0
LTYPE
  5
15
330
5
100
AcDbSymbolTableRecord
100
AcDbLinetypeTableRecord
  2
ByLayer
 70
     0
  3

 72
    65
 73
     0
 40
0.0
  0
LTYPE
  5
16
330
5
100
AcDbSymbolTableRecord
100
AcDbLinetypeTableRecord
  2
Continuous
 70
     0
  3
Solid line
 72
    65
 73
     0
 40
0.0
  0
LTYPE
  5
6E
330
5
100
AcDbSymbolTableRecord
100
AcDbLinetypeTableRecord
  2
HIDDEN
 70
     0
  3
Hidden __ __ __ __ __ __ __ __ __ __ __ __ __ __
 72
    65
 73
     2
 40
1.905
 49
1.27
 74
     0
 49
-0.635
 74
     0
  0
LTYPE
  5
6F
330
5
100
AcDbSymbolTableRecord
100
AcDbLinetypeTableRecord
  2
PHANTOM
 70
     0
  3
Phantom ______  __  __  ______  __  __  ______
 72
    65
 73
     6
 40
12.7
 49
6.349999999999999
 74
     0
 49
-1.27
 74
     0
 49
1.27
 74
     0
 49
-1.27
 74
     0
 49
1.27
 74
     0
 49
-1.27
 74
     0
  0
LTYPE
  5
70
330
5
100
AcDbSymbolTableRecord
100
AcDbLinetypeTableRecord
  2
CENTER
 70
     0
  3
Center ____ _ ____ _ ____ _ ____ _ ____ _ ____
 72
    65
 73
     4
 40
10.16
 49
6.349999999999999
 74
     0
 49
-1.27
 74
     0
 49
1.27
 74
     0
 49
-1.27
 74
     0
  0
LTYPE
  5
71
330
5
100
AcDbSymbolTableRecord
100
AcDbLinetypeTableRecord
  2
CENTERX2
 70
     0
  3
Center (2x) ________  __  ________  __  _____
 72
    65
 73
     4
 40
20.32
 49
12.7
 74
     0
 49
-2.54
 74
     0
 49
2.54
 74
     0
 49
-2.54
 74
     0
  0
LTYPE
  5
72
330
5
100
AcDbSymbolTableRecord
100
AcDbLinetypeTableRecord
  2
DOT2
 70
     0
  3
Dot (.5x) ........................................
 72
    65
 73
     2
 40
0.635
 49
0.0
 74
     0
 49
-0.635
 74
     0
  0
ENDTAB
  0
TABLE
  2
LAYER
  5
2
102
{ACAD_XDICTIONARY
360
210
102
}
330
0
100
AcDbSymbolTable
 70
     4
  0
LAYER
  5
10
102
{ACAD_XDICTIONARY
360
2AA
102
}
330
2
100
AcDbSymbolTableRecord
100
AcDbLayerTableRecord
  2
0
 70
     0
 62
     7
  6
Continuous
370
    -3
390
F
347
1D0
348
0
  0
LAYER
  5
73
102
{ACAD_XDICTIONARY
360
2AC
102
}
330
2
100
AcDbSymbolTableRecord
100
AcDbLayerTableRecord
  2
FORMAT
 70
     0
 62
     7
  6
Continuous
370
    -3
390
F
347
1D0
348
0
  0
LAYER
  5
207
330
2
100
AcDbSymbolTableRecord
100
AcDbLayerTableRecord
  2
Defpoints
 70
     0
 62
     7
  6
Continuous
290
     0
370
    -3
390
F
347
1D0
348
0
  0
LAYER
  5
208
102
{ACAD_XDICTIONARY
360
2AE
102
}
330
2
100
AcDbSymbolTableRecord
100
AcDbLayerTableRecord
  2
DIMENSION
 70
     0
 62
   255
  6
Continuous
370
    -3
390
F
347
1D0
348
0
  0
ENDTAB
  0
TABLE
  2
STYLE
  5
3
330
0
100
AcDbSymbolTable
 70
     2
  0
STYLE
  5
11
330
3
100
AcDbSymbolTableRecord
100
AcDbTextStyleTableRecord
  2
Standard
 70
     0
 40
0.0
 41
1.0
 50
0.0
 71
     0
 42
3.5
  3
txt
  4

  0
STYLE
  5
97
330
3
100
AcDbSymbolTableRecord
100
AcDbTextStyleTableRecord
  2
SLDTEXTSTYLE0
 70
     0
 40
0.0
 41
0.75
 50
0.0
 71
     0
 42
3.5
  3
TXT
  4

  0
ENDTAB
  0
TABLE
  2
VIEW
  5
6
330
0
100
AcDbSymbolTable
 70
     0
  0
ENDTAB
  0
TABLE
  2
UCS
  5
7
330
0
100
AcDbSymbolTable
 70
     0
  0
ENDTAB
  0
TABLE
  2
APPID
  5
9
330
0
100
AcDbSymbolTable
 70
     7
  0
APPID
  5
12
330
9
100
AcDbSymbolTableRecord
100
AcDbRegAppTableRecord
  2
ACAD
 70
     0
  0
APPID
  5
20A
330
9
100
AcDbSymbolTableRecord
100
AcDbRegAppTableRecord
  2
ACAD_PSEXT
 70
     0
  0
APPID
  5
20B
330
9
100
AcDbSymbolTableRecord
100
AcDbRegAppTableRecord
  2
AcadAnnotative
 70
     0
  0
APPID
  5
20C
330
9
100
AcDbSymbolTableRecord
100
AcDbRegAppTableRecord
  2
ACAD_DSTYLE_DIMJAG
 70
     0
  0
APPID
  5
20D
330
9
100
AcDbSymbolTableRecord
100
AcDbRegAppTableRecord
  2
ACAD_DSTYLE_DIMTALN
 70
     0
  0
APPID
  5
20E
330
9
100
AcDbSymbolTableRecord
100
AcDbRegAppTableRecord
  2
ACAD_NAV_VCDISPLAY
 70
     0
  0
APPID
  5
20F
330
9
100
AcDbSymbolTableRecord
100
AcDbRegAppTableRecord
  2
ACAD_DSTYLE_DIMBREAK
 70
     0
  0
ENDTAB
  0
TABLE
  2
DIMSTYLE
  5
A
330
0
100
AcDbSymbolTable
 70
     3
100
AcDbDimStyleTable
 71
     1
340
209
  0
DIMSTYLE
105
27
330
A
100
AcDbSymbolTableRecord
100
AcDbDimStyleTableRecord
  2
ISO-25
 70
     0
 41
2.5
 42
0.625
 43
3.75
 44
1.25
 73
     0
 74
     0
 77
     1
 78
     8
140
2.5
141
2.5
143
0.0393700787
147
0.625
171
     3
172
     1
271
     2
272
     2
274
     3
278
    44
283
     0
284
     8
340
11
  0
DIMSTYLE
105
98
330
A
100
AcDbSymbolTableRecord
100
AcDbDimStyleTableRecord
  2
SLDDIMSTYLE0
 70
     0
 41
3.302
 44
0.0
 45
0.000000001
 73
     0
 74
     0
 77
     1
 78
     4
 79
     1
140
5.2916666667
147
1.3229166667
173
     1
271
     2
272
     2
276
     2
284
    12
340
97
341
99
343
99
344
99
  0
DIMSTYLE
105
209
102
{ACAD_REACTORS
330
213
330
160
330
173
330
17B
330
16A
330
96
330
AB
330
A3
330
1B4
330
1AC
102
}
330
A
100
AcDbSymbolTableRecord
100
AcDbDimStyleTableRecord
  2
RG Dimension Lines
 70
     0
 40
12.0
 41
3.5
 42
1.0
 43
10.0
 44
5.0
 49
5.0
 77
     2
140
8.0
141
0.0
147
4.0
172
     1
176
   256
177
   256
178
     7
271
     0
272
     0
290
     1
340
11
341
99
342
99
371
     0
372
     0
1001
ACAD_DSTYLE_DIMBREAK
1070
   391
1040
0.125
1001
AcadAnnotative
1000
AnnotativeData
1002
{
1070
     1
1070
     1
1002
}
1001
ACAD_DSTYLE_DIMJAG
1070
   388
1040
1.5
1001
ACAD_DSTYLE_DIMTALN
1070
   392
1070
     0
  0
ENDTAB
  0
TABLE
  2
BLOCK_RECORD
  5
1
330
0
100
AcDbSymbolTable
 70
    23
  0
BLOCK_RECORD
  5
1F
330
1
100
AcDbSymbolTableRecord
100
AcDbBlockTableRecord
  2
*Model_Space
340
22
 70
     0
280
     1
281
     0
  0
BLOCK_RECORD
  5
1B
330
1
100
AcDbSymbolTableRecord
100
AcDbBlockTableRecord
  2
*Paper_Space
340
1E
 70
     0
280
     1
281
     0
  0
BLOCK_RECORD
  5
23
330
1
100
AcDbSymbolTableRecord
100
AcDbBlockTableRecord
  2
*Paper_Space0
340
26
 70
     0
280
     1
281
     0
  0
BLOCK_RECORD
  5
99
330
1
100
AcDbSymbolTableRecord
100
AcDbBlockTableRecord
  2
_None
340
0
 70
     0
280
     1
281
     0
  0
BLOCK_RECORD
  5
9C
330
1
100
AcDbSymbolTableRecord
100
AcDbBlockTableRecord
  2
_D
340
0
 70
     0
280
     1
281
     0
  0
BLOCK_RECORD
  5
A4
330
1
100
AcDbSymbolTableRecord
100
AcDbBlockTableRecord
  2
_D_1
340
0
 70
     0
280
     1
281
     0
  0
BLOCK_RECORD
  5
AC
330
1
100
AcDbSymbolTableRecord
100
AcDbBlockTableRecord
  2
_D_2
340
0
 70
     0
280
     1
281
     0
  0
BLOCK_RECORD
  5
161
330
1
100
AcDbSymbolTableRecord
100
AcDbBlockTableRecord
  2
_D_3
340
0
 70
     0
280
     1
281
     0
  0
BLOCK_RECORD
  5
16B
330
1
100
AcDbSymbolTableRecord
100
AcDbBlockTableRecord
  2
_D_4
340
0
 70
     0
280
     1
281
     0
  0
BLOCK_RECORD
  5
174
330
1
100
AcDbSymbolTableRecord
100
AcDbBlockTableRecord
  2
_D_5
340
0
 70
     0
280
     1
281
     0
  0
BLOCK_RECORD
  5
17C
330
1
100
AcDbSymbolTableRecord
100
AcDbBlockTableRecord
  2
_D_6
340
0
 70
     0
280
     1
281
     0
  0
BLOCK_RECORD
  5
1AD
330
1
100
AcDbSymbolTableRecord
100
AcDbBlockTableRecord
  2
_D_7
340
0
 70
     0
280
     1
281
     0
  0
BLOCK_RECORD
  5
1B5
330
1
100
AcDbSymbolTableRecord
100
AcDbBlockTableRecord
  2
_D_8
340
0
 70
     0
280
     1
281
     0
  0
BLOCK_RECORD
  5
1FD
330
1
100
AcDbSymbolTableRecord
100
AcDbBlockTableRecord
  2
*D11
340
0
 70
     0
280
     1
281
     0
  0
BLOCK_RECORD
  5
221
330
1
100
AcDbSymbolTableRecord
100
AcDbBlockTableRecord
  2
*D13
340
0
 70
     0
280
     1
281
     0
  0
BLOCK_RECORD
  5
22B
330
1
100
AcDbSymbolTableRecord
100
AcDbBlockTableRecord
  2
*D14
340
0
 70
     0
280
     1
281
     0
  0
BLOCK_RECORD
  5
23A
330
1
100
AcDbSymbolTableRecord
100
AcDbBlockTableRecord
  2
*D15
340
0
 70
     0
280
     1
281
     0
  0
BLOCK_RECORD
  5
248
330
1
100
AcDbSymbolTableRecord
100
AcDbBlockTableRecord
  2
*D16
340
0
 70
     0
280
     1
281
     0
  0
BLOCK_RECORD
  5
256
330
1
100
AcDbSymbolTableRecord
100
AcDbBlockTableRecord
  2
*D17
340
0
 70
     0
280
     1
281
     0
  0
BLOCK_RECORD
  5
264
330
1
100
AcDbSymbolTableRecord
100
AcDbBlockTableRecord
  2
*D18
340
0
 70
     0
280
     1
281
     0
  0
BLOCK_RECORD
  5
272
330
1
100
AcDbSymbolTableRecord
100
AcDbBlockTableRecord
  2
*D19
340
0
 70
     0
280
     1
281
     0
  0
BLOCK_RECORD
  5
280
330
1
100
AcDbSymbolTableRecord
100
AcDbBlockTableRecord
  2
*D20
340
0
 70
     0
280
     1
281
     0
  0
BLOCK_RECORD
  5
28E
330
1
100
AcDbSymbolTableRecord
100
AcDbBlockTableRecord
  2
*D21
340
0
 70
     0
280
     1
281
     0
  0
BLOCK_RECORD
  5
29C
330
1
100
AcDbSymbolTableRecord
100
AcDbBlockTableRecord
  2
*D22
340
0
 70
     0
280
     1
281
     0
  0
ENDTAB
  0
ENDSEC
  0
SECTION
  2
BLOCKS
  0
BLOCK
  5
20
330
1F
100
AcDbEntity
  8
0
100
AcDbBlockBegin
  2
*Model_Space
 70
     0
 10
0.0
 20
0.0
 30
0.0
  3
*Model_Space
  1

  0
ENDBLK
  5
21
330
1F
100
AcDbEntity
  8
0
100
AcDbBlockEnd
  0
BLOCK
  5
1C
330
1B
100
AcDbEntity
 67
     1
  8
0
100
AcDbBlockBegin
  2
*Paper_Space
 70
     0
 10
0.0
 20
0.0
 30
0.0
  3
*Paper_Space
  1

  0
ENDBLK
  5
1D
330
1B
100
AcDbEntity
 67
     1
  8
0
100
AcDbBlockEnd
  0
BLOCK
  5
24
330
23
100
AcDbEntity
 67
     1
  8
0
100
AcDbBlockBegin
  2
*Paper_Space0
 70
     0
 10
0.0
 20
0.0
 30
0.0
  3
*Paper_Space0
  1

  0
ENDBLK
  5
25
330
23
100
AcDbEntity
 67
     1
  8
0
100
AcDbBlockEnd
  0
BLOCK
  5
9A
330
99
100
AcDbEntity
  8
0
100
AcDbBlockBegin
  2
_None
 70
     0
 10
0.0
 20
0.0
 30
0.0
  3
_None
  1

  0
ENDBLK
  5
9B
330
99
100
AcDbEntity
  8
0
100
AcDbBlockEnd
  0
BLOCK
  5
9D
330
9C
100
AcDbEntity
  8
0
100
AcDbBlockBegin
  2
_D
 70
     0
 10
0.0
 20
0.0
 30
0.0
  3
_D
  1

  0
LINE
  5
9F
330
9C
100
AcDbEntity
  8
0
  6
Continuous
 62
     7
440
 16777216
370
     0
100
AcDbLine
 10
-88.3309589339
 20
-180.7352701956
 30
0.0
 11
-88.3309589339
 21
-207.3564743491
 31
0.0
  0
LINE
  5
A0
330
9C
100
AcDbEntity
  8
0
  6
Continuous
 62
     7
440
 16777216
370
     0
100
AcDbLine
 10
41.6689621488
 20
-28.3589444088
 30
0.0
 11
41.6689621488
 21
-207.3564743491
 31
0.0
  0
LINE
  5
A1
330
9C
100
AcDbEntity
  8
0
  6
Continuous
 62
     7
440
 16777216
370
     0
100
AcDbLine
 10
-88.3309589339
 20
-206.3564743491
 30
0.0
 11
41.6689621488
 21
-206.3564743491
 31
0.0
  0
MTEXT
  5
A2
330
9C
100
AcDbEntity
  8
0
  6
Continuous
 62
     7
440
 16777216
370
    18
100
AcDbMText
 10
-43.90177652649999
 20
-199.5351576759
 30
0.0
 40
5.2916666667
 41
0.0
 46
0.0
 71
     1
 72
     1
  1
130.00
  7
SLDTEXTSTYLE0
 73
     1
 44
1.0
  0
ENDBLK
  5
9E
330
9C
100
AcDbEntity
  8
0
100
AcDbBlockEnd
  0
BLOCK
  5
A5
330
A4
100
AcDbEntity
  8
0
100
AcDbBlockBegin
  2
_D_1
 70
     0
 10
0.0
 20
0.0
 30
0.0
  3
_D_1
  1

  0
LINE
  5
A7
330
A4
100
AcDbEntity
  8
0
  6
Continuous
 62
     7
440
 16777216
370
     0
100
AcDbLine
 10
-57.235636294
 20
77.6435256509
 30
0.0
 11
-151.8309589339
 21
77.6435256509
 31
0.0
  0
LINE
  5
A8
330
A4
100
AcDbEntity
  8
0
  6
Continuous
 62
     7
440
 16777216
370
     0
100
AcDbLine
 10
-126.0301895409
 20
-172.3564743491
 30
0.0
 11
-151.8309589339
 21
-172.3564743491
 31
0.0
  0
LINE
  5
A9
330
A4
100
AcDbEntity
  8
0
  6
Continuous
 62
     7
440
 16777216
370
     0
100
AcDbLine
 10
-150.8309589339
 20
77.6435256509
 30
0.0
 11
-150.8309589339
 21
-172.3564743491
 31
0.0
  0
MTEXT
  5
AA
330
A4
100
AcDbEntity
  8
0
  6
Continuous
 62
     7
440
 16777216
370
    18
100
AcDbMText
 10
-157.6522756071
 20
-61.8164803851
 30
0.0
 40
5.2916666667
 41
0.0
 46
0.0
 71
     1
 72
     1
  1
250.00
  7
SLDTEXTSTYLE0
 11
-0.000000000000007
 21
1.0
 31
0.0
 73
     1
 44
1.0
  0
ENDBLK
  5
A6
330
A4
100
AcDbEntity
  8
0
100
AcDbBlockEnd
  0
BLOCK
  5
AD
330
AC
100
AcDbEntity
  8
0
100
AcDbBlockBegin
  2
_D_2
 70
     0
 10
0.0
 20
0.0
 30
0.0
  3
_D_2
  1

  0
LINE
  5
AF
330
AC
100
AcDbEntity
  8
0
  6
Continuous
 62
     7
440
 16777216
370
     0
100
AcDbLine
 10
-53.9947280725
 20
-172.3564743491
 30
0.0
 11
84.34660571950001
 21
-172.3564743491
 31
0.0
  0
LINE
  5
B0
330
AC
100
AcDbEntity
  8
0
  6
Continuous
 62
     7
440
 16777216
370
     0
100
AcDbLine
 10
59.09707638689999
 20
-22.3564740084
 30
0.0
 11
84.34660571950001
 21
-22.3564740084
 31
0.0
  0
LINE
  5
B1
330
AC
100
AcDbEntity
  8
0
  6
Continuous
 62
     7
440
 16777216
370
     0
100
AcDbLine
 10
83.34660571950001
 20
-172.3564743491
 30
0.0
 11
83.34660571950001
 21
-22.3564740084
 31
0.0
  0
MTEXT
  5
B2
330
AC
100
AcDbEntity
  8
0
  6
Continuous
 62
     7
440
 16777216
370
    18
100
AcDbMText
 10
76.5252890463
 20
-109.8844413674
 30
0.0
 40
5.2916666667
 41
0.0
 46
0.0
 71
     1
 72
     1
  1
150.00
  7
SLDTEXTSTYLE0
 11
0.0000000000000001
 21
1.0
 31
0.0
 73
     1
 44
1.0
  0
ENDBLK
  5
AE
330
AC
100
AcDbEntity
  8
0
100
AcDbBlockEnd
  0
BLOCK
  5
162
330
161
100
AcDbEntity
  8
0
100
AcDbBlockBegin
  2
_D_3
 70
     0
 10
0.0
 20
0.0
 30
0.0
  3
_D_3
  1

  0
LINE
  5
164
330
161
100
AcDbEntity
  8
0
  6
Continuous
 62
     7
440
 16777216
370
     0
100
AcDbLine
 10
210.3998245075
 20
81.71299359489999
 30
0.0
 11
210.3998245083
 21
100.8435233242
 31
0.0
  0
LINE
  5
165
330
161
100
AcDbEntity
  8
0
  6
Continuous
 62
     7
440
 16777216
370
     0
100
AcDbLine
 10
191.3498245076
 20
83.1718661993
 30
0.0
 11
191.3498245083
 21
100.843523325
 31
0.0
  0
LINE
  5
166
330
161
100
AcDbEntity
  8
0
  6
Continuous
 62
     7
440
 16777216
370
     0
100
AcDbLine
 10
210.3998245083
 20
99.84352332420002
 30
0.0
 11
191.3498245083
 21
99.84352332500002
 31
0.0
  0
LINE
  5
167
330
161
100
AcDbEntity
  8
0
  6
Continuous
 62
     7
440
 16777216
370
     0
100
AcDbLine
 10
191.3498245083
 20
99.84352332500002
 30
0.0
 11
158.6764942665
 21
99.84352332629999
 31
0.0
  0
MTEXT
  5
168
330
161
100
AcDbEntity
  8
0
  6
Continuous
 62
     7
440
 16777216
370
    18
100
AcDbMText
 10
158.6764942668
 20
106.6648399995
 30
0.0
 40
5.2916666667
 41
0.0
 46
0.0
 71
     1
 72
     1
  1
%%c
  7
SLDTEXTSTYLE0
 73
     1
 44
1.0
  0
MTEXT
  5
169
330
161
100
AcDbEntity
  8
0
  6
Continuous
 62
     7
440
 16777216
370
    18
100
AcDbMText
 10
166.6639711521
 20
106.6648399992
 30
0.0
 40
5.2916666667
 41
0.0
 46
0.0
 71
     1
 72
     1
  1
19.00
  7
SLDTEXTSTYLE0
 73
     1
 44
1.0
  0
ENDBLK
  5
163
330
161
100
AcDbEntity
  8
0
100
AcDbBlockEnd
  0
BLOCK
  5
16C
330
16B
100
AcDbEntity
  8
0
100
AcDbBlockBegin
  2
_D_4
 70
     0
 10
0.0
 20
0.0
 30
0.0
  3
_D_4
  1

  0
LINE
  5
16E
330
16B
100
AcDbEntity
  8
0
  6
Continuous
 62
     7
440
 16777216
370
     0
100
AcDbLine
 10
223.5187505661
 20
-175.8648274035
 30
0.0
 11
223.5187505661
 21
-201.3564743491
 31
0.0
  0
LINE
  5
16F
330
16B
100
AcDbEntity
  8
0
  6
Continuous
 62
     7
440
 16777216
370
     0
100
AcDbLine
 10
178.5187505661
 20
-176.3295234512
 30
0.0
 11
178.5187505661
 21
-201.3564743491
 31
0.0
  0
LINE
  5
170
330
16B
100
AcDbEntity
  8
0
  6
Continuous
 62
     7
440
 16777216
370
     0
100
AcDbLine
 10
223.5187505661
 20
-200.3564743491
 30
0.0
 11
178.5187505661
 21
-200.3564743491
 31
0.0
  0
MTEXT
  5
171
330
16B
100
AcDbEntity
  8
0
  6
Continuous
 62
     7
440
 16777216
370
    18
100
AcDbMText
 10
185.4523720886
 20
-193.5351576759
 30
0.0
 40
5.2916666667
 41
0.0
 46
0.0
 71
     1
 72
     1
  1
%%c
  7
SLDTEXTSTYLE0
 73
     1
 44
1.0
  0
MTEXT
  5
172
330
16B
100
AcDbEntity
  8
0
  6
Continuous
 62
     7
440
 16777216
370
    18
100
AcDbMText
 10
193.4398489739
 20
-193.5351576759
 30
0.0
 40
5.2916666667
 41
0.0
 46
0.0
 71
     1
 72
     1
  1
45.00
  7
SLDTEXTSTYLE0
 73
     1
 44
1.0
  0
ENDBLK
  5
16D
330
16B
100
AcDbEntity
  8
0
100
AcDbBlockEnd
  0
BLOCK
  5
175
330
174
100
AcDbEntity
  8
0
100
AcDbBlockBegin
  2
_D_5
 70
     0
 10
0.0
 20
0.0
 30
0.0
  3
_D_5
  1

  0
LINE
  5
177
330
174
100
AcDbEntity
  8
0
  6
Continuous
 62
     7
440
 16777216
370
     0
100
AcDbLine
 10
262.0478727138
 20
-59.7371377313
 30
0.0
 11
289.5459767097
 21
-59.7559289466
 31
0.0
  0
LINE
  5
178
330
174
100
AcDbEntity
  8
0
  6
Continuous
 62
     7
440
 16777216
370
     0
100
AcDbLine
 10
267.8480722005
 20
-125.2410704428
 30
0.0
 11
289.5012164074
 21
-125.2558674228
 31
0.0
  0
LINE
  5
179
330
174
100
AcDbEntity
  8
0
  6
Continuous
 62
     7
440
 16777216
370
     0
100
AcDbLine
 10
288.5459769432
 20
-59.7552455827
 30
0.0
 11
288.5012166409
 21
-125.2551840589
 31
0.0
  0
MTEXT
  5
17A
330
174
100
AcDbEntity
  8
0
  6
Continuous
 62
     7
440
 16777216
370
    18
100
AcDbMText
 10
281.6946188132
 20
-103.7140471244
 30
0.0
 40
5.2916666667
 41
0.0
 46
0.0
 71
     1
 72
     1
  1
65.00
  7
SLDTEXTSTYLE0
 11
0.0006833638757956
 21
0.9999997665068793
 31
0.0
 73
     1
 44
1.0
  0
ENDBLK
  5
176
330
174
100
AcDbEntity
  8
0
100
AcDbBlockEnd
  0
BLOCK
  5
17D
330
17C
100
AcDbEntity
  8
0
100
AcDbBlockBegin
  2
_D_6
 70
     0
 10
0.0
 20
0.0
 30
0.0
  3
_D_6
  1

  0
LINE
  5
17F
330
17C
100
AcDbEntity
  8
0
  6
Continuous
 62
     7
440
 16777216
370
     0
100
AcDbLine
 10
159.5485958704
 20
-90.3564743491
 30
0.0
 11
147.0187505661
 21
-90.3564743491
 31
0.0
  0
LINE
  5
180
330
17C
100
AcDbEntity
  8
0
  6
Continuous
 62
     7
440
 16777216
370
     0
100
AcDbLine
 10
173.359239221
 20
-172.3564743491
 30
0.0
 11
147.0187505661
 21
-172.3564743491
 31
0.0
  0
LINE
  5
181
330
17C
100
AcDbEntity
  8
0
  6
Continuous
 62
     7
440
 16777216
370
     0
100
AcDbLine
 10
148.0187505661
 20
-90.3564743491
 30
0.0
 11
148.0187505661
 21
-172.3564743491
 31
0.0
  0
MTEXT
  5
182
330
17C
100
AcDbEntity
  8
0
  6
Continuous
 62
     7
440
 16777216
370
    18
100
AcDbMText
 10
141.1974338929
 20
-137.6226131393
 30
0.0
 40
5.2916666667
 41
0.0
 46
0.0
 71
     1
 72
     1
  1
82.00
  7
SLDTEXTSTYLE0
 11
-0.000000000000007
 21
1.0
 31
0.0
 73
     1
 44
1.0
  0
ENDBLK
  5
17E
330
17C
100
AcDbEntity
  8
0
100
AcDbBlockEnd
  0
BLOCK
  5
1AE
330
1AD
100
AcDbEntity
  8
0
100
AcDbBlockBegin
  2
_D_7
 70
     0
 10
0.0
 20
0.0
 30
0.0
  3
_D_7
  1

  0
LINE
  5
1B0
330
1AD
100
AcDbEntity
  8
0
  6
Continuous
 62
     7
440
 16777216
370
     0
100
AcDbLine
 10
-116.3192307244
 20
280.1095659613
 30
0.0
 11
-151.584456459
 21
280.2737317811
 31
0.0
  0
LINE
  5
1B1
330
1AD
100
AcDbEntity
  8
0
  6
Continuous
 62
     7
440
 16777216
370
     0
100
AcDbLine
 10
-117.7642116193
 20
180.1142692563
 30
0.0
 11
-152.0499733542
 21
180.2738754992
 31
0.0
  0
LINE
  5
1B2
330
1AD
100
AcDbEntity
  8
0
  6
Continuous
 62
     7
440
 16777216
370
     0
100
AcDbLine
 10
-150.5844672942
 20
280.2690766559
 30
0.0
 11
-151.0499841893
 21
180.269220374
 31
0.0
  0
MTEXT
  5
1B3
330
1AD
100
AcDbEntity
  8
0
  6
Continuous
 62
     7
440
 16777216
370
    18
100
AcDbMText
 10
-157.7021281847
 20
216.6258697553
 30
0.0
 40
5.2916666667
 41
0.0
 46
0.0
 71
     1
 72
     1
  1
100.00
  7
SLDTEXTSTYLE0
 11
0.004655125202134
 21
0.999989164845976
 31
0.0
 73
     1
 44
1.0
  0
ENDBLK
  5
1AF
330
1AD
100
AcDbEntity
  8
0
100
AcDbBlockEnd
  0
BLOCK
  5
1B6
330
1B5
100
AcDbEntity
  8
0
100
AcDbBlockBegin
  2
_D_8
 70
     0
 10
0.0
 20
0.0
 30
0.0
  3
_D_8
  1

  0
LINE
  5
1B8
330
1B5
100
AcDbEntity
  8
0
  6
Continuous
 62
     7
440
 16777216
370
     0
100
AcDbLine
 10
-105.3632699812
 20
286.8365728056001
 30
0.0
 11
-105.3632699812
 21
303.2530800248
 31
0.0
  0
LINE
  5
1B9
330
1B5
100
AcDbEntity
  8
0
  6
Continuous
 62
     7
440
 16777216
370
     0
100
AcDbLine
 10
-70.3676140963
 20
287.4848539168
 30
0.0
 11
-70.3676140963
 21
303.2530800248
 31
0.0
  0
LINE
  5
1BA
330
1B5
100
AcDbEntity
  8
0
  6
Continuous
 62
     7
440
 16777216
370
     0
100
AcDbLine
 10
-105.3632699812
 20
302.2530800248
 30
0.0
 11
-70.3676140963
 21
302.2530800248
 31
0.0
  0
MTEXT
  5
1BB
330
1B5
100
AcDbEntity
  8
0
  6
Continuous
 62
     7
440
 16777216
370
    18
100
AcDbMText
 10
-97.8801605457
 20
309.074396698
 30
0.0
 40
5.2916666667
 41
0.0
 46
0.0
 71
     1
 72
     1
  1
35.00
  7
SLDTEXTSTYLE0
 73
     1
 44
1.0
  0
ENDBLK
  5
1B7
330
1B5
100
AcDbEntity
  8
0
100
AcDbBlockEnd
  0
BLOCK
  5
1FE
330
1FD
100
AcDbEntity
  8
0
100
AcDbBlockBegin
  2
*D11
 70
     1
 10
0.0
 20
0.0
 30
0.0
  3
*D11
  1

  0
LINE
  5
1FF
330
1FD
100
AcDbEntity
  8
DIMENSION
440
 16777216
370
     0
100
AcDbLine
 10
1092.625159377854
 20
969.7937323929265
 30
0.0
 11
1092.569709633547
 21
979.7935786580374
 31
0.0
  0
LINE
  5
200
330
1FD
100
AcDbEntity
  8
DIMENSION
440
 16777216
370
     0
100
AcDbLine
 10
1454.657182624691
 20
971.8012215670347
 30
0.0
 11
1454.601732880384
 21
981.8010678321458
 31
0.0
  0
LINE
  5
201
330
1FD
100
AcDbEntity
  8
DIMENSION
440
 16777216
370
     0
100
AcDbLine
 10
1092.597434505701
 20
974.793655525482
 30
0.0
 11
1454.629457752537
 21
976.8011446995902
 31
0.0
  0
MTEXT
  5
202
330
1FD
100
AcDbEntity
  8
DIMENSION
 62
     7
440
 16777216
100
AcDbMText
 10
1273.568105608173
 20
983.9741418578535
 30
0.0
 40
8.0
 41
0.0
 46
0.0
 71
     5
 72
     1
  1
\A1;362
 73
     1
 44
1.0
  0
POINT
  5
203
330
1FD
100
AcDbEntity
  8
Defpoints
 62
     0
440
 16777216
100
AcDbPoint
 10
1092.771920384362
 20
943.3267482592359
 30
0.0
  0
POINT
  5
204
330
1FD
100
AcDbEntity
  8
Defpoints
 62
     0
440
 16777216
100
AcDbPoint
 10
1454.803943631198
 20
945.3342374333443
 30
0.0
  0
POINT
  5
205
330
1FD
100
AcDbEntity
  8
Defpoints
 62
     0
440
 16777216
100
AcDbPoint
 10
1454.629457752537
 20
976.8011446995902
 30
0.0
  0
ENDBLK
  5
206
330
1FD
100
AcDbEntity
  8
0
100
AcDbBlockEnd
  0
BLOCK
  5
222
330
221
100
AcDbEntity
  8
0
100
AcDbBlockBegin
  2
*D13
 70
     1
 10
0.0
 20
0.0
 30
0.0
  3
*D13
  1

  0
LINE
  5
224
330
221
100
AcDbEntity
  8
DIMENSION
440
 16777216
370
     0
100
AcDbLine
 10
163.0915116839658
 20
199.9529625615207
 30
0.0
 11
163.0360619396589
 21
209.9528088266318
 31
0.0
  0
LINE
  5
225
330
221
100
AcDbEntity
  8
DIMENSION
440
 16777216
370
     0
100
AcDbLine
 10
525.1235349308024
 20
201.960451735629
 30
0.0
 11
525.0680851864954
 21
211.9602980007401
 31
0.0
  0
LINE
  5
226
330
221
100
AcDbEntity
  8
DIMENSION
440
 16777216
370
     0
100
AcDbLine
 10
163.0637868118123
 20
204.9528856940763
 30
0.0
 11
525.0958100586489
 21
206.9603748681845
 31
0.0
  0
MTEXT
  5
227
330
221
100
AcDbEntity
  8
DIMENSION
 62
     7
440
 16777216
100
AcDbMText
 10
344.0349883695422
 20
214.0377093485803
 30
0.0
 40
8.0
 41
0.0
 46
0.0
 71
     5
 72
     1
  1
\A1;362
 73
     1
 44
1.0
  0
POINT
  5
228
330
221
100
AcDbEntity
  8
Defpoints
 62
     0
440
 16777216
100
AcDbPoint
 10
163.2382726904734
 20
173.4859784278302
 30
0.0
  0
POINT
  5
229
330
221
100
AcDbEntity
  8
Defpoints
 62
     0
440
 16777216
100
AcDbPoint
 10
525.2702959373099
 20
175.4934676019385
 30
0.0
  0
POINT
  5
22A
330
221
100
AcDbEntity
  8
Defpoints
 62
     0
440
 16777216
100
AcDbPoint
 10
525.0958100586489
 20
206.9603748681845
 30
0.0
  0
ENDBLK
  5
223
330
221
100
AcDbEntity
  8
0
100
AcDbBlockEnd
  0
BLOCK
  5
22C
330
22B
100
AcDbEntity
  8
0
100
AcDbBlockBegin
  2
*D14
 70
     1
 10
0.0
 20
0.0
 30
0.0
  3
*D14
  1

  0
LINE
  5
22E
330
22B
100
AcDbEntity
  8
DIMENSION
440
 16777216
370
     0
100
AcDbLine
 10
210.3998245044
 20
94.8435233258
 30
0.0
 11
210.3998245044
 21
104.8435233258
 31
0.0
  0
LINE
  5
22F
330
22B
100
AcDbEntity
  8
DIMENSION
440
 16777216
370
     0
100
AcDbLine
 10
191.3498245044
 20
94.8435233258
 30
0.0
 11
191.3498245044
 21
104.8435233258
 31
0.0
  0
LINE
  5
230
330
22B
100
AcDbEntity
  8
DIMENSION
440
 16777216
370
     0
100
AcDbLine
 10
210.3998245044
 20
99.8435233258
 30
0.0
 11
191.3498245044
 21
99.8435233258
 31
0.0
  0
LINE
  5
231
330
22B
100
AcDbEntity
  8
DIMENSION
440
 16777216
370
     0
100
AcDbLine
 10
191.3498245044
 20
99.8435233258
 30
0.0
 11
158.1318459718666
 21
99.8435233258
 31
0.0
  0
MTEXT
  5
232
330
22B
100
AcDbEntity
  8
DIMENSION
 62
     7
440
 16777216
100
AcDbMText
 10
171.4651793052
 20
111.8435233258
 30
0.0
 40
8.0
 41
0.0
 46
0.0
 71
     2
 72
     1
  1
\A1;%%c19
 73
     1
 44
1.0
  0
POINT
  5
233
330
22B
100
AcDbEntity
  8
Defpoints
 62
     0
440
 16777216
100
AcDbPoint
 10
210.3998245044
 20
3.2435256505
 30
0.0
  0
POINT
  5
234
330
22B
100
AcDbEntity
  8
Defpoints
 62
     0
440
 16777216
100
AcDbPoint
 10
191.3498245044
 20
3.2435256512
 30
0.0
  0
POINT
  5
235
330
22B
100
AcDbEntity
  8
Defpoints
 62
     0
440
 16777216
100
AcDbPoint
 10
191.3498245044
 20
99.8435233258
 30
0.0
  0
ENDBLK
  5
22D
330
22B
100
AcDbEntity
  8
0
100
AcDbBlockEnd
  0
BLOCK
  5
23B
330
23A
100
AcDbEntity
  8
0
100
AcDbBlockBegin
  2
*D15
 70
     1
 10
0.0
 20
0.0
 30
0.0
  3
*D15
  1

  0
LINE
  5
23D
330
23A
100
AcDbEntity
  8
DIMENSION
440
 16777216
370
     0
100
AcDbLine
 10
283.5459781106434
 20
-59.75182876336106
 30
0.0
 11
293.5459757757122
 21
-59.75866240211863
 31
0.0
  0
LINE
  5
23E
330
23A
100
AcDbEntity
  8
DIMENSION
440
 16777216
370
     0
100
AcDbLine
 10
283.5012178083732
 20
-125.2517672395975
 30
0.0
 11
293.501215473442
 21
-125.2586008783551
 31
0.0
  0
LINE
  5
23F
330
23A
100
AcDbEntity
  8
DIMENSION
440
 16777216
370
     0
100
AcDbLine
 10
288.5459769431778
 20
-59.75524558273984
 30
0.0
 11
288.5012166409076
 21
-125.2551840589763
 31
0.0
  0
MTEXT
  5
240
330
23A
100
AcDbEntity
  8
DIMENSION
 62
     7
440
 16777216
100
AcDbMText
 10
299.1940726377102
 20
-90.93105697226226
 30
0.0
 40
8.0
 41
0.0
 46
0.0
 71
     2
 72
     1
  1
\A1;65
 73
     1
 44
1.0
  0
POINT
  5
241
330
23A
100
AcDbEntity
  8
Defpoints
 62
     0
440
 16777216
100
AcDbPoint
 10
257.2533283187
 20
-59.73386131210002
 30
0.0
  0
POINT
  5
242
330
23A
100
AcDbEntity
  8
Defpoints
 62
     0
440
 16777216
100
AcDbPoint
 10
264.2066479802001
 20
-125.2385820245
 30
0.0
  0
POINT
  5
243
330
23A
100
AcDbEntity
  8
Defpoints
 62
     0
440
 16777216
100
AcDbPoint
 10
288.5012166409076
 20
-125.2551840589763
 30
0.0
  0
ENDBLK
  5
23C
330
23A
100
AcDbEntity
  8
0
100
AcDbBlockEnd
  0
BLOCK
  5
249
330
248
100
AcDbEntity
  8
0
100
AcDbBlockBegin
  2
*D16
 70
     1
 10
0.0
 20
0.0
 30
0.0
  3
*D16
  1

  0
LINE
  5
24B
330
248
100
AcDbEntity
  8
DIMENSION
440
 16777216
370
     0
100
AcDbLine
 10
153.0187505661
 20
-90.35647434910003
 30
0.0
 11
143.0187505661
 21
-90.35647434910003
 31
0.0
  0
LINE
  5
24C
330
248
100
AcDbEntity
  8
DIMENSION
440
 16777216
370
     0
100
AcDbLine
 10
153.0187505661
 20
-172.3564743491
 30
0.0
 11
143.0187505661
 21
-172.3564743491
 31
0.0
  0
LINE
  5
24D
330
248
100
AcDbEntity
  8
DIMENSION
440
 16777216
370
     0
100
AcDbLine
 10
148.0187505661
 20
-90.35647434910003
 30
0.0
 11
148.0187505661
 21
-172.3564743491
 31
0.0
  0
MTEXT
  5
24E
330
248
100
AcDbEntity
  8
DIMENSION
 62
     7
440
 16777216
100
AcDbMText
 10
137.3520838994333
 20
-124.8276665433
 30
0.0
 40
8.0
 41
0.0
 46
0.0
 71
     2
 72
     1
  1
\A1;82
 73
     1
 44
1.0
  0
POINT
  5
24F
330
248
100
AcDbEntity
  8
Defpoints
 62
     0
440
 16777216
100
AcDbPoint
 10
164.2187505661
 20
-90.35647434910002
 30
0.0
  0
POINT
  5
250
330
248
100
AcDbEntity
  8
Defpoints
 62
     0
440
 16777216
100
AcDbPoint
 10
178.5187505661
 20
-172.3564743491
 30
0.0
  0
POINT
  5
251
330
248
100
AcDbEntity
  8
Defpoints
 62
     0
440
 16777216
100
AcDbPoint
 10
148.0187505661
 20
-172.3564743491
 30
0.0
  0
ENDBLK
  5
24A
330
248
100
AcDbEntity
  8
0
100
AcDbBlockEnd
  0
BLOCK
  5
257
330
256
100
AcDbEntity
  8
0
100
AcDbBlockBegin
  2
*D17
 70
     1
 10
0.0
 20
0.0
 30
0.0
  3
*D17
  1

  0
LINE
  5
259
330
256
100
AcDbEntity
  8
DIMENSION
440
 16777216
370
     0
100
AcDbLine
 10
223.5187505661
 20
-195.3564743491
 30
0.0
 11
223.5187505661
 21
-205.3564743491
 31
0.0
  0
LINE
  5
25A
330
256
100
AcDbEntity
  8
DIMENSION
440
 16777216
370
     0
100
AcDbLine
 10
178.5187505661
 20
-195.3564743491
 30
0.0
 11
178.5187505661
 21
-205.3564743491
 31
0.0
  0
LINE
  5
25B
330
256
100
AcDbEntity
  8
DIMENSION
440
 16777216
370
     0
100
AcDbLine
 10
223.5187505661
 20
-200.3564743491
 30
0.0
 11
178.5187505661
 21
-200.3564743491
 31
0.0
  0
MTEXT
  5
25C
330
256
100
AcDbEntity
  8
DIMENSION
 62
     7
440
 16777216
100
AcDbMText
 10
198.2410571273
 20
-204.3564743491
 30
0.0
 40
8.0
 41
0.0
 46
0.0
 71
     2
 72
     1
  1
\A1;%%c45
 73
     1
 44
1.0
  0
POINT
  5
25D
330
256
100
AcDbEntity
  8
Defpoints
 62
     0
440
 16777216
100
AcDbPoint
 10
223.5187505661
 20
-172.3564743491
 30
0.0
  0
POINT
  5
25E
330
256
100
AcDbEntity
  8
Defpoints
 62
     0
440
 16777216
100
AcDbPoint
 10
178.5187505661
 20
-172.3564743491
 30
0.0
  0
POINT
  5
25F
330
256
100
AcDbEntity
  8
Defpoints
 62
     0
440
 16777216
100
AcDbPoint
 10
178.5187505661
 20
-200.3564743491
 30
0.0
  0
ENDBLK
  5
258
330
256
100
AcDbEntity
  8
0
100
AcDbBlockEnd
  0
BLOCK
  5
265
330
264
100
AcDbEntity
  8
0
100
AcDbBlockBegin
  2
*D18
 70
     1
 10
0.0
 20
0.0
 30
0.0
  3
*D18
  1

  0
LINE
  5
267
330
264
100
AcDbEntity
  8
DIMENSION
440
 16777216
370
     0
100
AcDbLine
 10
-88.3309589339
 20
-201.3564743491
 30
0.0
 11
-88.3309589339
 21
-211.3564743491
 31
0.0
  0
LINE
  5
268
330
264
100
AcDbEntity
  8
DIMENSION
440
 16777216
370
     0
100
AcDbLine
 10
41.66896214879998
 20
-201.3564743491
 30
0.0
 11
41.66896214879998
 21
-211.3564743491
 31
0.0
  0
LINE
  5
269
330
264
100
AcDbEntity
  8
DIMENSION
440
 16777216
370
     0
100
AcDbLine
 10
-88.3309589339
 20
-206.3564743491
 30
0.0
 11
41.66896214879998
 21
-206.3564743491
 31
0.0
  0
MTEXT
  5
26A
330
264
100
AcDbEntity
  8
DIMENSION
 62
     7
440
 16777216
100
AcDbMText
 10
-33.1518534612
 20
-210.3564743491
 30
0.0
 40
8.0
 41
0.0
 46
0.0
 71
     2
 72
     1
  1
\A1;130
 73
     1
 44
1.0
  0
POINT
  5
26B
330
264
100
AcDbEntity
  8
Defpoints
 62
     0
440
 16777216
100
AcDbPoint
 10
-88.3309589339
 20
-172.3564743491
 30
0.0
  0
POINT
  5
26C
330
264
100
AcDbEntity
  8
Defpoints
 62
     0
440
 16777216
100
AcDbPoint
 10
41.6689621488
 20
-17.7564743491
 30
0.0
  0
POINT
  5
26D
330
264
100
AcDbEntity
  8
Defpoints
 62
     0
440
 16777216
100
AcDbPoint
 10
41.66896214879998
 20
-206.3564743491
 30
0.0
  0
ENDBLK
  5
266
330
264
100
AcDbEntity
  8
0
100
AcDbBlockEnd
  0
BLOCK
  5
273
330
272
100
AcDbEntity
  8
0
100
AcDbBlockBegin
  2
*D19
 70
     1
 10
0.0
 20
0.0
 30
0.0
  3
*D19
  1

  0
LINE
  5
275
330
272
100
AcDbEntity
  8
DIMENSION
440
 16777216
370
     0
100
AcDbLine
 10
78.34660571950005
 20
-172.3564743491
 30
0.0
 11
88.34660571950005
 21
-172.3564743491
 31
0.0
  0
LINE
  5
276
330
272
100
AcDbEntity
  8
DIMENSION
440
 16777216
370
     0
100
AcDbLine
 10
78.34660571950002
 20
-22.35647400840001
 30
0.0
 11
88.34660571950001
 21
-22.3564740084
 31
0.0
  0
LINE
  5
277
330
272
100
AcDbEntity
  8
DIMENSION
440
 16777216
370
     0
100
AcDbLine
 10
83.34660571950006
 20
-172.3564743491
 30
0.0
 11
83.34660571950001
 21
-22.35647400840001
 31
0.0
  0
MTEXT
  5
278
330
272
100
AcDbEntity
  8
DIMENSION
 62
     7
440
 16777216
100
AcDbMText
 10
96.01327238616669
 20
-95.1345183021
 30
0.0
 40
8.0
 41
0.0
 46
0.0
 71
     2
 72
     1
  1
\A1;150
 73
     1
 44
1.0
  0
POINT
  5
279
330
272
100
AcDbEntity
  8
Defpoints
 62
     0
440
 16777216
100
AcDbPoint
 10
-65.83095893390003
 20
-172.3564743491
 30
0.0
  0
POINT
  5
27A
330
272
100
AcDbEntity
  8
Defpoints
 62
     0
440
 16777216
100
AcDbPoint
 10
51.19396231340003
 20
-22.35647400840001
 30
0.0
  0
POINT
  5
27B
330
272
100
AcDbEntity
  8
Defpoints
 62
     0
440
 16777216
100
AcDbPoint
 10
83.34660571950001
 20
-22.35647400840001
 30
0.0
  0
ENDBLK
  5
274
330
272
100
AcDbEntity
  8
0
100
AcDbBlockEnd
  0
BLOCK
  5
281
330
280
100
AcDbEntity
  8
0
100
AcDbBlockBegin
  2
*D20
 70
     1
 10
0.0
 20
0.0
 30
0.0
  3
*D20
  1

  0
LINE
  5
283
330
280
100
AcDbEntity
  8
DIMENSION
440
 16777216
370
     0
100
AcDbLine
 10
-145.8309589339
 20
77.64352565090002
 30
0.0
 11
-155.8309589339
 21
77.64352565090002
 31
0.0
  0
LINE
  5
284
330
280
100
AcDbEntity
  8
DIMENSION
440
 16777216
370
     0
100
AcDbLine
 10
-145.8309589339
 20
-172.3564743491
 30
0.0
 11
-155.8309589339
 21
-172.3564743491
 31
0.0
  0
LINE
  5
285
330
280
100
AcDbEntity
  8
DIMENSION
440
 16777216
370
     0
100
AcDbLine
 10
-150.8309589339
 20
77.64352565090002
 30
0.0
 11
-150.8309589339
 21
-172.3564743491
 31
0.0
  0
MTEXT
  5
286
330
280
100
AcDbEntity
  8
DIMENSION
 62
     7
440
 16777216
100
AcDbMText
 10
-164.8309589339
 20
-47.06655731979999
 30
0.0
 40
8.0
 41
0.0
 46
0.0
 71
     2
 72
     1
  1
\A1;250
 73
     1
 44
1.0
  0
POINT
  5
287
330
280
100
AcDbEntity
  8
Defpoints
 62
     0
440
 16777216
100
AcDbPoint
 10
-28.78620247180002
 20
77.64352565090003
 30
0.0
  0
POINT
  5
288
330
280
100
AcDbEntity
  8
Defpoints
 62
     0
440
 16777216
100
AcDbPoint
 10
-110.8309589339
 20
-172.3564743491
 30
0.0
  0
POINT
  5
289
330
280
100
AcDbEntity
  8
Defpoints
 62
     0
440
 16777216
100
AcDbPoint
 10
-150.8309589339
 20
-172.3564743491
 30
0.0
  0
ENDBLK
  5
282
330
280
100
AcDbEntity
  8
0
100
AcDbBlockEnd
  0
BLOCK
  5
28F
330
28E
100
AcDbEntity
  8
0
100
AcDbBlockBegin
  2
*D21
 70
     1
 10
0.0
 20
0.0
 30
0.0
  3
*D21
  1

  0
LINE
  5
291
330
28E
100
AcDbEntity
  8
DIMENSION
440
 16777216
370
     0
100
AcDbLine
 10
-105.3632699812
 20
297.2530800248
 30
0.0
 11
-105.3632699812
 21
307.2530800248
 31
0.0
  0
LINE
  5
292
330
28E
100
AcDbEntity
  8
DIMENSION
440
 16777216
370
     0
100
AcDbLine
 10
-70.3676140963
 20
297.2530800248
 30
0.0
 11
-70.3676140963
 21
307.2530800248
 31
0.0
  0
LINE
  5
293
330
28E
100
AcDbEntity
  8
DIMENSION
440
 16777216
370
     0
100
AcDbLine
 10
-105.3632699812
 20
302.2530800248
 30
0.0
 11
-70.3676140963
 21
302.2530800248
 31
0.0
  0
MTEXT
  5
294
330
28E
100
AcDbEntity
  8
DIMENSION
 62
     7
440
 16777216
100
AcDbMText
 10
-89.0852139497
 20
314.2530800248
 30
0.0
 40
8.0
 41
0.0
 46
0.0
 71
     2
 72
     1
  1
\A1;35
 73
     1
 44
1.0
  0
POINT
  5
295
330
28E
100
AcDbEntity
  8
Defpoints
 62
     0
440
 16777216
100
AcDbPoint
 10
-105.3632699812
 20
280.2528209207
 30
0.0
  0
POINT
  5
296
330
28E
100
AcDbEntity
  8
Defpoints
 62
     0
440
 16777216
100
AcDbPoint
 10
-70.3676140963
 20
279.7013962339
 30
0.0
  0
POINT
  5
297
330
28E
100
AcDbEntity
  8
Defpoints
 62
     0
440
 16777216
100
AcDbPoint
 10
-70.3676140963
 20
302.2530800248
 30
0.0
  0
ENDBLK
  5
290
330
28E
100
AcDbEntity
  8
0
100
AcDbBlockEnd
  0
BLOCK
  5
29D
330
29C
100
AcDbEntity
  8
0
100
AcDbBlockBegin
  2
*D22
 70
     1
 10
0.0
 20
0.0
 30
0.0
  3
*D22
  1

  0
LINE
  5
29F
330
29C
100
AcDbEntity
  8
DIMENSION
440
 16777216
370
     0
100
AcDbLine
 10
-145.5845214700009
 20
280.2458010299229
 30
0.0
 11
-155.5844131184607
 21
280.2923522819433
 31
0.0
  0
LINE
  5
2A0
330
29C
100
AcDbEntity
  8
DIMENSION
440
 16777216
370
     0
100
AcDbLine
 10
-146.0500383651269
 20
180.2459447479229
 30
0.0
 11
-156.0499300135867
 21
180.2924959999434
 31
0.0
  0
LINE
  5
2A1
330
29C
100
AcDbEntity
  8
DIMENSION
440
 16777216
370
     0
100
AcDbLine
 10
-150.5844672942308
 20
280.2690766559331
 30
0.0
 11
-151.0499841893568
 21
180.2692203739331
 31
0.0
  0
MTEXT
  5
2A2
330
29C
100
AcDbEntity
  8
DIMENSION
 62
     7
440
 16777216
100
AcDbMText
 10
-162.8678237396165
 20
231.3999565190817
 30
0.0
 40
8.0
 41
0.0
 46
0.0
 71
     2
 72
     1
  1
\A1;100
 73
     1
 44
1.0
  0
POINT
  5
2A3
330
29C
100
AcDbEntity
  8
Defpoints
 62
     0
440
 16777216
100
AcDbPoint
 10
-87.86544203880001
 20
279.9771085773
 30
0.0
  0
POINT
  5
2A4
330
29C
100
AcDbEntity
  8
Defpoints
 62
     0
440
 16777216
100
AcDbPoint
 10
-88.3309589339
 20
179.9772522953
 30
0.0
  0
POINT
  5
2A5
330
29C
100
AcDbEntity
  8
Defpoints
 62
     0
440
 16777216
100
AcDbPoint
 10
-151.0499841893568
 20
180.2692203739331
 30
0.0
  0
ENDBLK
  5
29E
330
29C
100
AcDbEntity
  8
0
100
AcDbBlockEnd
  0
ENDSEC
  0
SECTION
  2
ENTITIES
  0
LINE
  5
74
330
1F
100
AcDbEntity
  8
0
  6
Continuous
 62
     7
370
    25
100
AcDbLine
 10
-91.18899969320001
 20
-80.15647434909999
 30
0.0
 11
-91.1887221487
 21
-80.3564743491
 31
0.0
  0
LINE
  5
75
330
1F
100
AcDbEntity
  8
0
  6
Continuous
 62
     7
370
    25
100
AcDbLine
 10
-84.83871603430001
 20
-80.3564743491
 30
0.0
 11
-84.83899357890001
 21
-80.15647434909999
 31
0.0
  0
LINE
  5
76
330
1F
100
AcDbEntity
  8
0
  6
Continuous
 62
     7
370
    25
100
AcDbLine
 10
51.1939623134
 20
-22.3564740084
 30
0.0
 11
51.1939613977
 21
3.2435259916
 31
0.0
  0
LINE
  5
77
330
1F
100
AcDbEntity
  8
0
  6
Continuous
 62
     7
370
    25
100
AcDbLine
 10
32.1439613977
 20
3.243525310199999
 30
0.0
 11
32.1439623134
 21
-22.3564746898
 31
0.0
  0
SPLINE
  5
78
330
1F
100
AcDbEntity
  8
0
  6
Continuous
 62
     7
370
    25
100
AcDbSpline
210
0.0
220
0.0
230
1.0
 70
     8
 71
     3
 72
    61
 73
    57
 74
     0
 42
0.00000001
 43
0.0000000001
 40
0.0
 40
0.0
 40
0.0
 40
0.0
 40
0.0091439538943433
 40
0.0279520051372085
 40
0.0467621454406701
 40
0.0655722863727623
 40
0.0843824273497349
 40
0.1031925683947949
 40
0.1220027095303747
 40
0.1408128507776448
 40
0.1596229921562144
 40
0.1784331336838639
 40
0.1972432753762932
 40
0.2160534172469053
 40
0.2348635593066107
 40
0.2536737015636876
 40
0.2724838440236581
 40
0.2912939866892137
 40
0.3101041295601829
 40
0.328914272633514
 40
0.347724415903349
 40
0.3665345593610746
 40
0.3853447029954675
 40
0.4041548467928269
 40
0.4229649907371908
 40
0.4417751348105414
 40
0.4605852789930531
 40
0.479395423263391
 40
0.4982055675989888
 40
0.5170157119763683
 40
0.5358258563682048
 40
0.5546360007454353
 40
0.5734461450840098
 40
0.5922562893604038
 40
0.6110664335519646
 40
0.6298765776372265
 40
0.6486867215962064
 40
0.66749686541068
 40
0.6863070090644435
 40
0.7051171525435271
 40
0.7239272958364082
 40
0.7427374389341574
 40
0.7615475818305678
 40
0.7803577245222395
 40
0.7991678670086348
 40
0.8179780092920752
 40
0.8367881513777174
 40
0.8555982932734741
 40
0.8744084349899081
 40
0.8932185765400861
 40
0.9120287179393947
 40
0.930838859205326
 40
0.9496490003572267
 40
0.9684591414160383
 40
0.9872692824040042
 40
1.0
 40
1.0
 40
1.0
 40
1.0
 10
-78.8309589339228
 20
3.343523325779501
 30
0.0
 10
-78.82632923398592
 20
3.874896486201568
 30
0.0
 10
-78.81217677894122
 20
5.499242527478187
 30
0.0
 10
-78.64774088711698
 20
8.213752524059231
 30
0.0
 10
-78.26554286132095
 20
11.47216130257994
 30
0.0
 10
-77.68905106331394
 20
14.70237101853242
 30
0.0
 10
-76.92346078871356
 20
17.89291064039455
 30
0.0
 10
-75.97059575948751
 20
21.03266141263405
 30
0.0
 10
-74.83400999252117
 20
24.11065695275569
 30
0.0
 10
-73.51761043705275
 20
27.11615316082747
 30
0.0
 10
-72.02600907557573
 20
30.03865724462909
 30
0.0
 10
-70.36440882328047
 20
32.8679666238082
 30
0.0
 10
-68.53861162331225
 20
35.59420393874511
 30
0.0
 10
-66.55499115574023
 20
38.20785169632657
 30
0.0
 10
-64.42047247193499
 20
40.6997854524824
 30
0.0
 10
-62.14250731359415
 20
43.06130567801611
 30
0.0
 10
-59.7290482335787
 20
45.28416812618163
 30
0.0
 10
-57.18852079675063
 20
47.36061261482904
 30
0.0
 10
-54.52979417547396
 20
49.28339011758792
 30
0.0
 10
-51.76215018411986
 20
51.04578807086739
 30
0.0
 10
-48.89525087630227
 20
52.64165380795502
 30
0.0
 10
-45.93910481377405
 20
54.06541603850502
 30
0.0
 10
-42.90403212586535
 20
55.31210429839737
 30
0.0
 10
-39.80062848113833
 20
56.37736630207499
 30
0.0
 10
-36.63972809711976
 20
57.25748313677481
 30
0.0
 10
-33.43236591722258
 20
57.94938224560711
 30
0.0
 10
-30.18973908690719
 20
58.45064815415575
 30
0.0
 10
-26.92316786356973
 20
58.75953090315134
 30
0.0
 10
-23.64405609662618
 20
58.87495215777194
 30
0.0
 10
-20.36385141595029
 20
58.79650897225143
 30
0.0
 10
-17.09400526735547
 20
58.52447519670686
 30
0.0
 10
-13.84593293436344
 20
58.05980052118822
 30
0.0
 10
-10.63097368630719
 20
57.404107160199
 30
0.0
 10
-7.460351191924842
 20
56.55968418933055
 30
0.0
 10
-4.345134336889669
 20
55.52947955393868
 30
0.0
 10
-1.296198581424477
 20
54.31708977761928
 30
0.0
 10
1.675812006817059
 20
52.92674740643749
 30
0.0
 10
4.560521912047117
 20
51.36330623274438
 30
0.0
 10
7.347860392118405
 20
49.63222435016618
 30
0.0
 10
10.02809663622252
 20
47.73954509892496
 30
0.0
 10
12.59187373614132
 20
45.69187596801254
 30
0.0
 10
15.0302413510833
 20
43.49636552788443
 30
0.0
 10
17.33468695717949
 20
41.16067847415239
 30
0.0
 10
19.49716555347764
 20
38.6929688696212
 30
0.0
 10
21.5101277918884
 20
36.10185167724739
 30
0.0
 10
23.36654616730448
 20
33.39637268654594
 30
0.0
 10
25.05994016761431
 20
30.58597692670029
 30
0.0
 10
26.58439659677228
 20
27.68047572044971
 30
0.0
 10
27.93459880498532
 20
24.69001233030463
 30
0.0
 10
29.1058132029797
 20
21.62502692709478
 30
0.0
 10
30.09402538639497
 20
18.49621872633461
 30
0.0
 10
30.89550780022633
 20
15.31451392176739
 30
0.0
 10
31.50849855308288
 20
12.09100781614583
 30
0.0
 10
31.92699071354729
 20
8.83699970165097
 30
0.0
 10
32.13842601569272
 20
5.916323638284287
 30
0.0
 10
32.16018065229759
 20
4.083358218786553
 30
0.0
 10
32.1689613940863
 20
3.343525311044593
 30
0.0
  0
SPLINE
  5
79
330
1F
100
AcDbEntity
  8
0
  6
Continuous
 62
     7
370
    25
100
AcDbSpline
210
0.0
220
0.0
230
1.0
 70
     8
 71
     3
 72
    69
 73
    65
 74
     0
 42
0.00000001
 43
0.0000000001
 40
0.0
 40
0.0
 40
0.0
 40
0.0
 40
0.0091436271029645
 40
0.0253771533518822
 40
0.0416118806184111
 40
0.0578466081377008
 40
0.0740813356408565
 40
0.0903160631193933
 40
0.1065507905651253
 40
0.1227855179702185
 40
0.1390202453272617
 40
0.1552549726293363
 40
0.1714896998701019
 40
0.1877244270438515
 40
0.2039591541455729
 40
0.2201938811710049
 40
0.2364286081166874
 40
0.2526633349799765
 40
0.2688980617590951
 40
0.2851327884531283
 40
0.3013675150620598
 40
0.3176022415867522
 40
0.3338369680289417
 40
0.3500716943912251
 40
0.3663064206770325
 40
0.382541146890584
 40
0.3987758730368487
 40
0.4150105991214996
 40
0.4312453251508588
 40
0.4474800511318026
 40
0.4637147770717315
 40
0.4799495029784597
 40
0.4961842288601462
 40
0.512418954725221
 40
0.5286536805815134
 40
0.5448884064355994
 40
0.5611231322961869
 40
0.5773578581719237
 40
0.5935925840712868
 40
0.6098273100025209
 40
0.6260620359735308
 40
0.6422967619918151
 40
0.6585314880643739
 40
0.674766214197647
 40
0.6910009403974411
 40
0.7072356666688738
 40
0.7234703930163168
 40
0.7397051194433494
 40
0.7559398459527258
 40
0.7721745725463457
 40
0.7884092992252281
 40
0.8046440259895103
 40
0.8208787528384396
 40
0.8371134797703813
 40
0.8533482067828453
 40
0.8695829338724923
 40
0.8858176610351923
 40
0.9020523882660484
 40
0.9182871155594588
 40
0.9345218429091708
 40
0.9507565703083427
 40
0.9669912977496252
 40
0.9832260252252256
 40
1.0
 40
1.0
 40
1.0
 40
1.0
 10
51.1689613940863
 20
3.343525990684437
 30
0.0
 10
51.16280523669281
 20
4.056814383292111
 30
0.0
 10
51.14571948412729
 20
6.036469581332026
 30
0.0
 10
50.96282633054646
 20
9.279262060816943
 30
0.0
 10
50.56578376220275
 20
13.05906628466536
 30
0.0
 10
49.97380576078832
 20
16.81373852532889
 30
0.0
 10
49.19191551298125
 20
20.53336698766942
 30
0.0
 10
48.22121570341064
 20
24.2082922669499
 30
0.0
 10
47.06448027412612
 20
27.82895300294
 30
0.0
 10
45.72465075845204
 20
31.38593384965904
 30
0.0
 10
44.20522960474127
 20
34.86998376636327
 30
0.0
 10
42.51016362678722
 20
38.27204173724108
 30
0.0
 10
40.64386252782234
 20
41.5832598918871
 30
0.0
 10
38.61117971814032
 20
44.79502663547647
 30
0.0
 10
36.41740175957203
 20
47.8989890133116
 30
0.0
 10
34.06823406268458
 20
50.88707444320814
 30
0.0
 10
31.56978619689721
 20
53.75151170785134
 30
0.0
 10
28.92855596132273
 20
56.48485116628479
 30
0.0
 10
26.15141249634723
 20
59.07998412828308
 30
0.0
 10
23.2455784159373
 20
61.5301613422065
 30
0.0
 10
20.21861102428028
 20
63.82901054799115
 30
0.0
 10
17.07838266101415
 20
65.97055304969656
 30
0.0
 10
13.83306022739754
 20
67.94921926448835
 30
0.0
 10
10.49108394633483
 20
69.75986320762756
 30
0.0
 10
7.061145411586798
 20
71.39777587578715
 30
0.0
 10
3.552164983231242
 20
72.85869749389836
 30
0.0
 10
-0.0267314118324868
 20
74.13882859366875
 30
0.0
 10
-3.666236014001441
 20
75.23483989496575
 30
0.0
 10
-7.356883437978079
 20
76.14388096436525
 30
0.0
 10
-11.08907528972224
 20
76.86358762834643
 30
0.0
 10
-14.85310512931519
 20
77.39208812185605
 30
0.0
 10
-18.63918371482331
 20
77.72800795624968
 30
0.0
 10
-22.4374644615014
 20
77.87047349395168
 30
0.0
 10
-26.23806905006818
 20
77.81911422053804
 30
0.0
 10
-30.03111311746829
 20
77.57406370835411
 30
0.0
 10
-33.80673196362447
 20
77.13595926914452
 30
0.0
 10
-37.55510620694821
 20
76.50594029654981
 30
0.0
 10
-41.26648732202267
 20
75.68564530279276
 30
0.0
 10
-44.93122299273959
 20
74.67720765735103
 30
0.0
 10
-48.53978221538421
 20
73.48325003863235
 30
0.0
 10
-52.08278008622136
 20
72.10687761308889
 30
0.0
 10
-55.5510022091134
 20
70.55166995951456
 30
0.0
 10
-58.9354286596966
 20
68.82167175952334
 30
0.0
 10
-62.2272574437889
 20
66.92138227842415
 30
0.0
 10
-65.417927389025
 20
64.85574366384447
 30
0.0
 10
-68.49914041017306
 20
62.6301280925394
 30
0.0
 10
-71.4628830902613
 20
60.25032379881009
 30
0.0
 10
-74.30144752126572
 20
57.72252002086777
 30
0.0
 10
-77.00745135061352
 20
55.05329090429537
 30
0.0
 10
-79.57385697966668
 20
52.24957840446498
 30
0.0
 10
-81.99398987059662
 20
49.31867423238426
 30
0.0
 10
-84.26155589037881
 20
46.2682008909041
 30
0.0
 10
-86.3706577350949
 20
43.10609185068162
 30
0.0
 10
-88.31581006230619
 20
39.84057091717799
 30
0.0
 10
-90.09195452193516
 20
36.48013084338145
 30
0.0
 10
-91.69447005690486
 20
33.03351124004173
 30
0.0
 10
-93.11919557560075
 20
29.50967585516964
 30
0.0
 10
-94.36240101141756
 20
25.9177892285212
 30
0.0
 10
-95.42094541889992
 20
22.26719298094479
 30
0.0
 10
-96.29173132410102
 20
18.5673810569883
 30
0.0
 10
-96.97377965885983
 20
14.82797675905267
 30
0.0
 10
-97.46051861135349
 20
11.05870128049141
 30
0.0
 10
-97.77199953907659
 20
7.227417429003125
 30
0.0
 10
-97.81109291905609
 20
4.652178175386268
 30
0.0
 10
-97.8309589339228
 20
3.343523325779473
 30
0.0
  0
LINE
  5
7A
330
1F
100
AcDbEntity
  8
0
  6
Continuous
 62
     7
370
    25
100
AcDbLine
 10
-78.83095893390001
 20
-80.15647434909999
 30
0.0
 11
-78.83095893390001
 21
3.343523325799999
 31
0.0
  0
LINE
  5
7B
330
1F
100
AcDbEntity
  8
0
  6
Continuous
 62
     7
370
    25
100
AcDbLine
 10
-97.83095893389999
 20
3.343523325799999
 30
0.0
 11
-97.83095893389999
 21
-80.15647434909999
 31
0.0
  0
LINE
  5
7C
330
1F
100
AcDbEntity
  8
0
  6
Continuous
 62
     7
370
    25
100
AcDbLine
 10
-65.83095893390001
 20
-172.3564743491
 30
0.0
 11
-65.83095893390001
 21
-168.3564743491
 31
0.0
  0
LINE
  5
7D
330
1F
100
AcDbEntity
  8
0
  6
Continuous
 62
     7
370
    25
100
AcDbLine
 10
-110.8309589339
 20
-168.3564743491
 30
0.0
 11
-110.8309589339
 21
-172.3564743491
 31
0.0
  0
ARC
  5
7E
330
1F
100
AcDbEntity
  8
0
  6
Continuous
 62
     7
370
    25
100
AcDbCircle
 10
-143.8301246708
 20
-124.7054753883
 30
0.0
 40
72.99999999999997
100
AcDbArc
 50
0.2739227776
 51
8.922776581
  0
ARC
  5
7F
330
1F
100
AcDbEntity
  8
0
  6
Continuous
 62
     7
370
    25
100
AcDbCircle
 10
-32.8317931971
 20
-124.7054753883
 30
0.0
 40
72.99999999999998
100
AcDbArc
 50
171.0770382811
 51
179.7260772224
  0
LINE
  5
80
330
1F
100
AcDbEntity
  8
0
  6
Continuous
 62
     7
370
    25
100
AcDbLine
 10
-70.83095893390001
 20
-168.3564743491
 30
0.0
 11
-70.83095893390001
 21
-124.3564743491
 31
0.0
  0
LINE
  5
81
330
1F
100
AcDbEntity
  8
0
  6
Continuous
 62
     7
370
    25
100
AcDbLine
 10
-105.8309589339
 20
-124.3564743491
 30
0.0
 11
-105.8309589339
 21
-168.3564743491
 31
0.0
  0
LINE
  5
82
330
1F
100
AcDbEntity
  8
0
  6
Continuous
 62
     7
370
    25
100
AcDbLine
 10
-97.8809589339
 20
-80.3564743491
 30
0.0
 11
-97.8809589339
 21
-93.15647434909999
 31
0.0
  0
LINE
  5
83
330
1F
100
AcDbEntity
  8
0
  6
Continuous
 62
     7
370
    25
100
AcDbLine
 10
-78.78095893390001
 20
-93.15647434909999
 30
0.0
 11
-78.78095893390001
 21
-80.3564743491
 31
0.0
  0
CIRCLE
  5
84
330
1F
100
AcDbEntity
  8
0
  6
Continuous
 62
     7
370
    25
100
AcDbCircle
 10
-88.3309589339
 20
-107.8564743491
 30
0.0
 40
17.30000000000001
  0
CIRCLE
  5
85
330
1F
100
AcDbEntity
  8
0
  6
Continuous
 62
     7
370
    25
100
AcDbCircle
 10
-88.3309589339
 20
-107.8564743491
 30
0.0
 40
17.5
  0
ARC
  5
86
330
1F
100
AcDbEntity
  8
0
  6
Continuous
 62
     7
370
    25
100
AcDbCircle
 10
-87.8683783602
 20
-107.7383959729
 30
0.0
 40
17.5008571910903
100
AcDbArc
 50
338.4241067319
 51
58.71766307039999
  0
ARC
  5
87
330
1F
100
AcDbEntity
  8
0
  6
Continuous
 62
     7
370
    25
100
AcDbCircle
 10
-88.2308058259
 20
-107.7226717231
 30
0.0
 40
17.50090137616695
100
AcDbArc
 50
340.8323384783
 51
57.3188499872
  0
ARC
  5
88
330
1F
100
AcDbEntity
  8
0
  6
Continuous
 62
     7
370
    25
100
AcDbCircle
 10
-88.22614353959998
 20
-107.7215063578
 30
0.0
 40
17.49902906477848
100
AcDbArc
 50
123.4860780454
 51
142.1214999976
  0
LINE
  5
89
330
1F
100
AcDbEntity
  8
0
  6
Continuous
 62
     7
370
    25
100
AcDbLine
 10
51.1939623134
 20
-22.3564740084
 30
0.0
 11
32.1439623134
 21
-22.3564746898
 31
0.0
  0
LINE
  5
8A
330
1F
100
AcDbEntity
  8
0
  6
Continuous
 62
     7
370
    25
100
AcDbLine
 10
51.1939613977
 20
3.2435259916
 30
0.0
 11
32.1439613977
 21
3.243525310199999
 31
0.0
  0
LINE
  5
8B
330
1F
100
AcDbEntity
  8
0
  6
Continuous
 62
     7
370
    25
100
AcDbLine
 10
51.1689611666
 20
3.343525990699999
 30
0.0
 11
32.1689615149
 21
3.343525311
 31
0.0
  0
LINE
  5
8C
330
1F
100
AcDbEntity
  8
0
  6
Continuous
 62
     7
370
    25
100
AcDbLine
 10
-97.83095893389999
 20
-80.15647434909999
 30
0.0
 11
-78.83095893390001
 21
-80.15647434909999
 31
0.0
  0
LINE
  5
8D
330
1F
100
AcDbEntity
  8
0
  6
Continuous
 62
     7
370
    25
100
AcDbLine
 10
-65.83095893390001
 20
-168.3564743491
 30
0.0
 11
-110.8309589339
 21
-168.3564743491
 31
0.0
  0
LINE
  5
8E
330
1F
100
AcDbEntity
  8
0
  6
Continuous
 62
     7
370
    25
100
AcDbLine
 10
-65.83095893390001
 20
-172.3564743491
 30
0.0
 11
-110.8309589339
 21
-172.3564743491
 31
0.0
  0
LINE
  5
8F
330
1F
100
AcDbEntity
  8
0
  6
Continuous
 62
     7
370
    25
100
AcDbLine
 10
-88.3309589339
 20
-80.3564743491
 30
0.0
 11
-97.8809589339
 21
-80.3564743491
 31
0.0
  0
LINE
  5
90
330
1F
100
AcDbEntity
  8
0
  6
Continuous
 62
     7
370
    25
100
AcDbLine
 10
-78.78095893390001
 20
-80.3564743491
 30
0.0
 11
-88.3309589339
 21
-80.3564743491
 31
0.0
  0
LINE
  5
91
330
1F
100
AcDbEntity
  8
0
  6
Continuous
 62
     7
370
    25
100
AcDbLine
 10
-78.78095893390001
 20
-93.15647434909999
 30
0.0
 11
-78.83569695750001
 21
-93.15647434909999
 31
0.0
  0
LINE
  5
92
330
1F
100
AcDbEntity
  8
0
  6
Continuous
 62
     7
370
    25
100
AcDbLine
 10
-97.82622091030001
 20
-93.15647434909999
 30
0.0
 11
-97.8809589339
 21
-93.15647434909999
 31
0.0
  0
POINT
  5
93
330
1F
100
AcDbEntity
  8
0
  6
Continuous
 62
     7
370
     0
100
AcDbPoint
 10
41.6689621488
 20
-17.7564743491
 30
0.0
  0
POINT
  5
94
330
1F
100
AcDbEntity
  8
0
  6
Continuous
 62
     7
370
     0
100
AcDbPoint
 10
-88.3309589339
 20
-172.3564743491
 30
0.0
  0
POINT
  5
95
330
1F
100
AcDbEntity
  8
0
  6
Continuous
 62
     7
370
     0
100
AcDbPoint
 10
-28.7862024718
 20
77.6435256509
 30
0.0
  0
DIMENSION
  5
96
102
{ACAD_XDICTIONARY
360
26E
102
}
330
1F
100
AcDbEntity
  8
DIMENSION
100
AcDbDimension
280
     0
  2
*D18
 10
41.66896214879998
 20
-206.3564743491
 30
0.0
 11
-33.1518534612
 21
-206.3564743491
 31
0.0
 70
   160
  1
<>
 71
     2
 42
129.9999210826999
 73
     0
 74
     0
 75
     0
  3
RG Dimension Lines
100
AcDbAlignedDimension
 13
-88.3309589339
 23
-172.3564743491
 33
0.0
 14
41.6689621488
 24
-17.7564743491
 34
0.0
100
AcDbRotatedDimension
1001
AcadAnnotative
1000
AnnotativeData
1002
{
1070
     1
1070
     1
1002
}
  0
DIMENSION
  5
A3
102
{ACAD_XDICTIONARY
360
28A
102
}
330
1F
100
AcDbEntity
  8
DIMENSION
100
AcDbDimension
280
     0
  2
*D20
 10
-150.8309589339
 20
-172.3564743491
 30
0.0
 11
-150.8309589339
 21
-51.0665573198
 31
0.0
 70
   160
  1
<>
 71
     2
 42
250.0
 73
     0
 74
     0
 75
     0
  3
RG Dimension Lines
100
AcDbAlignedDimension
 13
-28.7862024718
 23
77.6435256509
 33
0.0
 14
-110.8309589339
 24
-172.3564743491
 34
0.0
 50
90.0
100
AcDbRotatedDimension
1001
AcadAnnotative
1000
AnnotativeData
1002
{
1070
     1
1070
     1
1002
}
  0
DIMENSION
  5
AB
102
{ACAD_XDICTIONARY
360
27C
102
}
330
1F
100
AcDbEntity
  8
DIMENSION
100
AcDbDimension
280
     0
  2
*D19
 10
83.34660571950001
 20
-22.35647400840001
 30
0.0
 11
83.34660571950001
 21
-99.1345183021
 31
0.0
 70
   160
  1
<>
 71
     2
 42
150.0000003407
 73
     0
 74
     0
 75
     0
  3
RG Dimension Lines
100
AcDbAlignedDimension
 13
-65.83095893390001
 23
-172.3564743491
 33
0.0
 14
51.1939623134
 24
-22.3564740084
 34
0.0
 50
90.0
100
AcDbRotatedDimension
1001
AcadAnnotative
1000
AnnotativeData
1002
{
1070
     1
1070
     1
1002
}
  0
LINE
  5
B3
330
1F
100
AcDbEntity
  8
0
  6
Continuous
 62
     7
370
    25
100
AcDbLine
 10
164.2187505661
 20
-90.3564743491
 30
0.0
 11
164.0187505661
 21
-90.5564743491
 31
0.0
  0
LINE
  5
B4
330
1F
100
AcDbEntity
  8
0
  6
Continuous
 62
     7
370
    25
100
AcDbLine
 10
164.0187505661
 20
-125.1564743491
 30
0.0
 11
164.2187505661
 21
-125.3564743491
 31
0.0
  0
LINE
  5
B5
330
1F
100
AcDbEntity
  8
0
  6
Continuous
 62
     7
370
    25
100
AcDbLine
 10
164.2187505661
 20
-125.3564743491
 30
0.0
 11
183.5187505661
 21
-125.3564743491
 31
0.0
  0
LINE
  5
B6
330
1F
100
AcDbEntity
  8
0
  6
Continuous
 62
     7
370
    25
100
AcDbLine
 10
218.5187505661
 20
-125.3564743491
 30
0.0
 11
234.0327505661
 21
-125.3564743491
 31
0.0
  0
LINE
  5
B7
330
1F
100
AcDbEntity
  8
0
  6
Continuous
 62
     7
370
    25
100
AcDbLine
 10
234.0327505661
 20
-90.3564743491
 30
0.0
 11
210.5687505661
 21
-90.3564743491
 31
0.0
  0
LINE
  5
B8
330
1F
100
AcDbEntity
  8
0
  6
Continuous
 62
     7
370
    25
100
AcDbLine
 10
191.4687505661
 20
-90.3564743491
 30
0.0
 11
164.2187505661
 21
-90.3564743491
 31
0.0
  0
LINE
  5
B9
330
1F
100
AcDbEntity
  8
0
  6
Continuous
 62
     7
370
    25
100
AcDbLine
 10
234.0327505661
 20
-125.3564743491
 30
0.0
 11
234.2327505661
 21
-125.1564743491
 31
0.0
  0
LINE
  5
BA
330
1F
100
AcDbEntity
  8
0
  6
Continuous
 62
     7
370
    25
100
AcDbLine
 10
234.2327505661
 20
-90.5564743491
 30
0.0
 11
234.0327505661
 21
-90.3564743491
 31
0.0
  0
ARC
  5
BB
330
1F
100
AcDbEntity
  8
0
  6
Continuous
 62
     7
370
    25
100
AcDbCircle
 10
231.2465331286
 20
-110.5067292692
 30
0.0
 40
14.99999999999998
100
AcDbArc
 50
281.4832330672
 51
310.8074058794
  0
ARC
  5
BC
330
1F
100
AcDbEntity
  8
0
  6
Continuous
 62
     7
370
    25
100
AcDbCircle
 10
231.2465331286
 20
-105.2062194291
 30
0.0
 40
15.00000000000001
100
AcDbArc
 50
49.1255762207
 51
78.51676693279999
  0
LINE
  5
BD
330
1F
100
AcDbEntity
  8
0
  6
Continuous
 62
     7
370
    25
100
AcDbLine
 10
253.9865814879
 20
-90.23158982629999
 30
0.0
 11
241.2334257884
 21
-90.2228747784
 31
0.0
  0
LINE
  5
BE
330
1F
100
AcDbEntity
  8
0
  6
Continuous
 62
     7
370
    25
100
AcDbLine
 10
264.2305657159
 20
-90.2385901967
 30
0.0
 11
260.4425469861
 21
-90.236001601
 31
0.0
  0
LINE
  5
BF
330
1F
100
AcDbEntity
  8
0
  6
Continuous
 62
     7
370
    25
100
AcDbLine
 10
241.2095080528
 20
-125.2228666061
 30
0.0
 11
264.2066479802
 21
-125.2385820245
 31
0.0
  0
LINE
  5
C0
330
1F
100
AcDbEntity
  8
0
  6
Continuous
 62
     7
370
    25
100
AcDbLine
 10
254.0783291083
 20
-59.7316222064
 30
0.0
 11
254.0568196099
 21
-90.23158525379999
 31
0.0
  0
LINE
  5
C1
330
1F
100
AcDbEntity
  8
0
  6
Continuous
 62
     7
370
    25
100
AcDbLine
 10
260.4068180308
 20
-90.23606346520001
 30
0.0
 11
260.4283275292
 21
-59.7361004177
 31
0.0
  0
LINE
  5
C2
330
1F
100
AcDbEntity
  8
0
  6
Continuous
 62
     7
370
    25
100
AcDbLine
 10
255.1318193426
 20
-90.23234337620001
 30
0.0
 11
255.1316972104
 21
-90.4055240051
 31
0.0
  0
LINE
  5
C3
330
1F
100
AcDbEntity
  8
0
  6
Continuous
 62
     7
370
    25
100
AcDbLine
 10
259.3317020283
 20
-90.4001732182
 30
0.0
 11
259.3318182982
 21
-90.2353053428
 31
0.0
  0
LINE
  5
C4
330
1F
100
AcDbEntity
  8
0
  6
Continuous
 62
     7
370
    25
100
AcDbLine
 10
264.3880728503
 20
-98.02139708370001
 30
0.0
 11
264.4155050723
 21
-98.02141582979999
 31
0.0
  0
LINE
  5
C5
330
1F
100
AcDbEntity
  8
0
  6
Continuous
 62
     7
370
    25
100
AcDbLine
 10
210.3998245034
 20
-22.3564743495
 30
0.0
 11
210.3998245044
 21
3.2435256505
 31
0.0
  0
LINE
  5
C6
330
1F
100
AcDbEntity
  8
0
  6
Continuous
 62
     7
370
    25
100
AcDbLine
 10
191.3498245044
 20
3.2435256512
 30
0.0
 11
191.3498245034
 21
-22.3564743488
 31
0.0
  0
SPLINE
  5
C7
330
1F
100
AcDbEntity
  8
0
  6
Continuous
 62
     7
370
    25
100
AcDbSpline
210
0.0
220
0.0
230
1.0
 70
     8
 71
     3
 72
   101
 73
    97
 74
     0
 42
0.00000001
 43
0.0000000001
 40
0.0
 40
0.0
 40
0.0
 40
0.0
 40
0.0080723061813013
 40
0.0234151774083921
 40
0.0387594421038657
 40
0.0541037453580684
 40
0.0694481107028678
 40
0.0847925639882022
 40
0.1001371340095678
 40
0.1154818536843068
 40
0.1308267615351514
 40
0.1461719036197357
 40
0.161517336105988
 40
0.1768631287895332
 40
0.192209370002689
 40
0.2075561736145989
 40
0.2229036892390101
 40
0.2382521174816407
 40
0.2536017333256681
 40
0.2689529230790644
 40
0.2843062447540717
 40
0.2996625306660094
 40
0.3150230699342713
 40
0.3303899513159022
 40
0.3457667514413979
 40
0.3611600358733773
 40
0.3765830032305726
 40
0.3920657175802898
 40
0.4076906882434863
 40
0.4237713749303182
 40
0.4303844120128956
 40
0.4341158243000778
 40
0.4366752563192924
 40
0.4384298252340448
 40
0.4401333482172574
 40
0.4422717240376017
 40
0.4452736120138053
 40
0.4489558233350843
 40
0.4536577502764719
 40
0.4583618146188321
 40
0.4631865659138733
 40
0.4683168937157781
 40
0.4736197718246296
 40
0.4790298104681752
 40
0.4845064256252043
 40
0.4900244391510095
 40
0.4955674429438027
 40
0.5016082132239603
 40
0.507410611889469
 40
0.5129877265390278
 40
0.5183620864558112
 40
0.5235449104541681
 40
0.5285392660175708
 40
0.5333414910934402
 40
0.5379414562872729
 40
0.5423219138051607
 40
0.5464566846131974
 40
0.5503062476410175
 40
0.5538044026510886
 40
0.5568160689622202
 40
0.5591361883201577
 40
0.5608669514121983
 40
0.5624094861566836
 40
0.564053615310359
 40
0.5662332587488017
 40
0.5693678156154072
 40
0.5743880980790795
 40
0.5836566964238102
 40
0.5989857727575476
 40
0.6139362333944098
 40
0.6297445162427625
 40
0.6452893828996173
 40
0.6607379495014574
 40
0.6761435941566207
 40
0.691526983113382
 40
0.7068976217824343
 40
0.7222604086030536
 40
0.7376180856969294
 40
0.7529722891651126
 40
0.7683240462924613
 40
0.7836740297492342
 40
0.7990226958431426
 40
0.8143703636457969
 40
0.8297172622683127
 40
0.8450635601668363
 40
0.8604093839004328
 40
0.8757548304827677
 40
0.8910999757253879
 40
0.9064448800070762
 40
0.9217895923528725
 40
0.9371341533818243
 40
0.9524785974861156
 40
0.9678229544828583
 40
0.983167250903196
 40
0.9977044583330012
 40
1.0
 40
1.0
 40
1.0
 40
1.0
 10
210.5187505660849
 20
3.343523325779473
 30
0.0
 10
210.5187445921584
 20
3.965954761127072
 30
0.0
 10
210.5187272637091
 20
5.771429201254897
 30
0.0
 10
210.5185346918277
 20
8.756919432346633
 30
0.0
 10
210.5181029588255
 20
12.28622994358775
 30
0.0
 10
210.5174556849781
 20
15.78905624064542
 30
0.0
 10
210.5165984962589
 20
19.25479788048615
 30
0.0
 10
210.5155329524326
 20
22.67315024011893
 30
0.0
 10
210.5142624849022
 20
26.03392938319363
 30
0.0
 10
210.5127907970142
 20
29.32712952625771
 30
0.0
 10
210.5111222780244
 20
32.54294592355029
 30
0.0
 10
210.5092618748777
 20
35.67180636280961
 30
0.0
 10
210.5072151065503
 20
38.7043996115308
 30
0.0
 10
210.5049880373102
 20
41.6317038738285
 30
0.0
 10
210.5025872578187
 20
44.44501439711323
 30
0.0
 10
210.5000198604924
 20
47.13597045369342
 30
0.0
 10
210.4972934119217
 20
49.69658168860727
 30
0.0
 10
210.4944159202714
 20
52.11925397357235
 30
0.0
 10
210.4913957953729
 20
54.39681503797132
 30
0.0
 10
210.4882417988297
 20
56.52254031421399
 30
0.0
 10
210.4849629714535
 20
58.49018013280272
 30
0.0
 10
210.4815685421118
 20
60.29398923500451
 30
0.0
 10
210.4780677146848
 20
61.92876504476772
 30
0.0
 10
210.474469528389
 20
63.38989095636549
 30
0.0
 10
210.4707816173132
 20
64.67344234543829
 30
0.0
 10
210.4670111098901
 20
65.77624231743015
 30
0.0
 10
210.463152199031
 20
66.69656006780738
 30
0.0
 10
210.4592066230512
 20
67.4336969794696
 30
0.0
 10
210.4550091059485
 20
67.99648073391285
 30
0.0
 10
210.4514487857817
 20
68.30613078864947
 30
0.0
 10
210.4473687721878
 20
68.51478859238338
 30
0.0
 10
210.442422538451
 20
68.676006623557
 30
0.0
 10
210.4340365168456
 20
68.86446670399571
 30
0.0
 10
210.4162584069033
 20
69.12734253454018
 30
0.0
 10
210.3815576444465
 20
69.48129522802175
 30
0.0
 10
210.3112736270482
 20
69.97870228735556
 30
0.0
 10
210.1765427529728
 20
70.63744695463348
 30
0.0
 10
209.9322393665383
 20
71.47850814345673
 30
0.0
 10
209.5531697580838
 20
72.41500304791412
 30
0.0
 10
209.027057578122
 20
73.38000646494008
 30
0.0
 10
208.3734275410266
 20
74.30500518149718
 30
0.0
 10
207.5813035866013
 20
75.17879847172735
 30
0.0
 10
206.6502197967297
 20
75.974714055451
 30
0.0
 10
205.6008842768846
 20
76.65738746029813
 30
0.0
 10
204.4553738433538
 20
77.20249367403808
 30
0.0
 10
203.2374467300622
 20
77.59289201305667
 30
0.0
 10
201.935200745383
 20
77.82375063803553
 30
0.0
 10
200.5905077657021
 20
77.86990285453047
 30
0.0
 10
199.2510350292679
 20
77.7219358767714
 30
0.0
 10
197.9951239579373
 20
77.40304637445181
 30
0.0
 10
196.8375275614961
 20
76.93789176029527
 30
0.0
 10
195.7886809076526
 20
76.35025865491023
 30
0.0
 10
194.8563597703152
 20
75.66380595767042
 30
0.0
 10
194.0454037572278
 20
74.90225096975783
 30
0.0
 10
193.3575910216039
 20
74.08943401812726
 30
0.0
 10
192.7915927934588
 20
73.24942791387812
 30
0.0
 10
192.3430105214356
 20
72.40690239446593
 30
0.0
 10
192.0046015925773
 20
71.58848862420622
 30
0.0
 10
191.7668736744984
 20
70.82737044501437
 30
0.0
 10
191.6169817374397
 20
70.16890501334813
 30
0.0
 10
191.5329725742333
 20
69.64741860052476
 30
0.0
 10
191.4897149397149
 20
69.26640821379549
 30
0.0
 10
191.4684236764135
 20
69.0036559226897
 30
0.0
 10
191.457295895617
 20
68.8151890345243
 30
0.0
 10
191.4509448642598
 20
68.66784570407563
 30
0.0
 10
191.4468490183613
 20
68.53604802353361
 30
0.0
 10
191.4436074292459
 20
68.38715695915694
 30
0.0
 10
191.4403476577842
 20
68.16226410355361
 30
0.0
 10
191.4367396233652
 20
67.77643716294526
 30
0.0
 10
191.4327498295662
 20
67.15484689536049
 30
0.0
 10
191.428847074496
 20
66.34668218523561
 30
0.0
 10
191.4249810536533
 20
65.33869323411886
 30
0.0
 10
191.4212255793004
 20
64.15352415317596
 30
0.0
 10
191.4175657016121
 20
62.79081531559327
 30
0.0
 10
191.4140028400706
 20
61.25306125248425
 30
0.0
 10
191.4105433367258
 20
59.54408294991036
 30
0.0
 10
191.407195336972
 20
57.66854928430104
 30
0.0
 10
191.4039676051545
 20
55.63178939167165
 30
0.0
 10
191.4008690376999
 20
53.43970316040103
 30
0.0
 10
191.397908414457
 20
51.09870664632772
 30
0.0
 10
191.3950942612509
 20
48.61569313208541
 30
0.0
 10
191.3924347634452
 20
45.9980010853016
 30
0.0
 10
191.389937706701
 20
43.25338529723521
 30
0.0
 10
191.3876104328688
 20
40.3899893210782
 30
0.0
 10
191.3854598051081
 20
37.41631826612304
 30
0.0
 10
191.3834921791676
 20
34.34121145546226
 30
0.0
 10
191.3817133787243
 20
31.17381467208821
 30
0.0
 10
191.3801286751973
 20
27.92355194460644
 30
0.0
 10
191.3787427662465
 20
24.60009655377823
 30
0.0
 10
191.3775597721125
 20
21.21334228703631
 30
0.0
 10
191.3765831768543
 20
17.77337115070274
 30
0.0
 10
191.3758159858487
 20
14.2904318579353
 30
0.0
 10
191.3752600863143
 20
10.77487591451612
 30
0.0
 10
191.3749245790775
 20
7.299272014032187
 30
0.0
 10
191.3748287785947
 20
4.818417499948103
 30
0.0
 10
191.374825017375
 20
3.52052399023664
 30
0.0
 10
191.3748245044441
 20
3.343525651240741
 30
0.0
  0
SPLINE
  5
C8
330
1F
100
AcDbEntity
  8
0
  6
Continuous
 62
     7
370
    25
100
AcDbSpline
210
0.0
220
0.0
230
1.0
 70
     8
 71
     3
 72
    37
 73
    33
 74
     0
 42
0.00000001
 43
0.0000000001
 40
0.0
 40
0.0
 40
0.0
 40
0.0
 40
0.0189488116572427
 40
0.0549644170497362
 40
0.0909832056247452
 40
0.127001887196556
 40
0.1630204036987589
 40
0.1990386925301149
 40
0.2350566833426666
 40
0.2710742950798692
 40
0.3070914322021693
 40
0.3431079797355885
 40
0.3791237966142973
 40
0.4151387065278297
 40
0.451152485066385
 40
0.4871648412743825
 40
0.5231753905752798
 40
0.5591836140487767
 40
0.5951887955060965
 40
0.6311899212677367
 40
0.6671855149331339
 40
0.7031733539187998
 40
0.7391499600196743
 40
0.7751096319648802
 40
0.8110424820391518
 40
0.8469301128885861
 40
0.8827350717967696
 40
0.9183715041983127
 40
0.9536080675894799
 40
0.9816058843704453
 40
0.9986151149607923
 40
1.0
 40
1.0
 40
1.0
 40
1.0
 10
210.3748245044441
 20
3.343525650488287
 30
0.0
 10
210.374830476461
 20
3.965755651877068
 30
0.0
 10
210.374847799364
 20
5.770645051583478
 30
0.0
 10
210.3750403086677
 20
8.755162707680174
 30
0.0
 10
210.3754718987164
 20
12.28330360342669
 30
0.0
 10
210.3761189508641
 20
15.78493206025633
 30
0.0
 10
210.376975830983
 20
19.24943298486178
 30
0.0
 10
210.378040965385
 20
22.66648639217211
 30
0.0
 10
210.3793109042445
 20
26.02589186059037
 30
0.0
 10
210.3807819196961
 20
29.31762560310083
 30
0.0
 10
210.3824495905548
 20
32.53186285399173
 30
0.0
 10
210.3843089284274
 20
35.65900873802674
 30
0.0
 10
210.3863543604741
 20
38.68972590519842
 30
0.0
 10
210.3885797520036
 20
41.61496191548492
 30
0.0
 10
210.3909784194026
 20
44.42597540038974
 30
0.0
 10
210.3935431459894
 20
47.11436105607549
 30
0.0
 10
210.3962661964976
 20
49.67207320060108
 30
0.0
 10
210.3991393293067
 20
52.09144760778453
 30
0.0
 10
210.40215380519
 20
54.36522125200499
 30
0.0
 10
210.4053003827401
 20
56.48654908903802
 30
0.0
 10
210.4085693128501
 20
58.44901758951912
 30
0.0
 10
210.411950239174
 20
60.2466500210343
 30
0.0
 10
210.4154322575354
 20
61.87391111872347
 30
0.0
 10
210.4190029882448
 20
63.32566120257796
 30
0.0
 10
210.4226504664455
 20
64.59720118894868
 30
0.0
 10
210.4263524771208
 20
65.68377965782082
 30
0.0
 10
210.4301071926964
 20
66.58164959195033
 30
0.0
 10
210.4337938036253
 20
67.28220413808275
 30
0.0
 10
210.437379530089
 20
67.75899786636735
 30
0.0
 10
210.4395096547221
 20
67.97946571171753
 30
0.0
 10
210.4412948905933
 20
68.069243057714
 30
0.0
 10
210.4408418937883
 20
68.05146718447637
 30
0.0
 10
210.440807787854
 20
68.05012884664039
 30
0.0
  0
LINE
  5
C9
330
1F
100
AcDbEntity
  8
0
  6
Continuous
 62
     7
370
    25
100
AcDbLine
 10
210.5187505661
 20
-80.15647434909999
 30
0.0
 11
210.5187505661
 21
3.343523325799999
 31
0.0
  0
LINE
  5
CA
330
1F
100
AcDbEntity
  8
0
  6
Continuous
 62
     7
370
    25
100
AcDbLine
 10
191.5187505661
 20
3.343523325799999
 30
0.0
 11
191.5187505661
 21
3.2435257151
 31
0.0
  0
LINE
  5
CB
330
1F
100
AcDbEntity
  8
0
  6
Continuous
 62
     7
370
    25
100
AcDbLine
 10
191.5187505661
 20
-22.3564744126
 30
0.0
 11
191.5187505661
 21
-80.15647434909999
 31
0.0
  0
LINE
  5
CC
330
1F
100
AcDbEntity
  8
0
  6
Continuous
 62
     7
370
    25
100
AcDbLine
 10
223.5187505661
 20
-172.3564743491
 30
0.0
 11
223.5187505661
 21
-168.3564743491
 31
0.0
  0
LINE
  5
CD
330
1F
100
AcDbEntity
  8
0
  6
Continuous
 62
     7
370
    25
100
AcDbLine
 10
178.5187505661
 20
-168.3564743491
 30
0.0
 11
178.5187505661
 21
-172.3564743491
 31
0.0
  0
LINE
  5
CE
330
1F
100
AcDbEntity
  8
0
  6
Continuous
 62
     7
370
    25
100
AcDbLine
 10
218.5187505661
 20
-168.3564743491
 30
0.0
 11
218.5187505661
 21
-125.3564743491
 31
0.0
  0
LINE
  5
CF
330
1F
100
AcDbEntity
  8
0
  6
Continuous
 62
     7
370
    25
100
AcDbLine
 10
183.5187505661
 20
-125.3564743491
 30
0.0
 11
183.5187505661
 21
-168.3564743491
 31
0.0
  0
LINE
  5
D0
330
1F
100
AcDbEntity
  8
0
  6
Continuous
 62
     7
370
    25
100
AcDbLine
 10
191.4687505661
 20
-80.3564743491
 30
0.0
 11
191.4687505661
 21
-90.3564743491
 31
0.0
  0
LINE
  5
D1
330
1F
100
AcDbEntity
  8
0
  6
Continuous
 62
     7
370
    25
100
AcDbLine
 10
210.5687505661
 20
-90.3564743491
 30
0.0
 11
210.5687505661
 21
-80.3564743491
 31
0.0
  0
LINE
  5
D2
330
1F
100
AcDbEntity
  8
0
  6
Continuous
 62
     7
370
    25
100
AcDbLine
 10
164.2187505661
 20
-107.8564743491
 30
0.0
 11
164.2187505661
 21
-125.3564743491
 31
0.0
  0
LINE
  5
D3
330
1F
100
AcDbEntity
  8
0
  6
Continuous
 62
     7
370
    25
100
AcDbLine
 10
164.2187505661
 20
-90.3564743491
 30
0.0
 11
164.2187505661
 21
-107.8564743491
 31
0.0
  0
LINE
  5
D4
330
1F
100
AcDbEntity
  8
0
  6
Continuous
 62
     7
370
    25
100
AcDbLine
 10
164.0187505661
 20
-107.8564743491
 30
0.0
 11
164.0187505661
 21
-90.5564743491
 31
0.0
  0
LINE
  5
D5
330
1F
100
AcDbEntity
  8
0
  6
Continuous
 62
     7
370
    25
100
AcDbLine
 10
164.0187505661
 20
-125.1564743491
 30
0.0
 11
164.0187505661
 21
-107.8564743491
 31
0.0
  0
LINE
  5
D6
330
1F
100
AcDbEntity
  8
0
  6
Continuous
 62
     7
370
    25
100
AcDbLine
 10
234.0327505661
 20
-107.8564743491
 30
0.0
 11
234.0327505661
 21
-90.3564743491
 31
0.0
  0
LINE
  5
D7
330
1F
100
AcDbEntity
  8
0
  6
Continuous
 62
     7
370
    25
100
AcDbLine
 10
234.0327505661
 20
-125.3564743491
 30
0.0
 11
234.0327505661
 21
-107.8564743491
 31
0.0
  0
LINE
  5
D8
330
1F
100
AcDbEntity
  8
0
  6
Continuous
 62
     7
370
    25
100
AcDbLine
 10
234.2327505661
 20
-121.5704493359
 30
0.0
 11
234.2327505661
 21
-90.50647434910001
 31
0.0
  0
LINE
  5
D9
330
1F
100
AcDbEntity
  8
0
  6
Continuous
 62
     7
370
    25
100
AcDbLine
 10
234.2327505661
 20
-125.2064743491
 30
0.0
 11
234.2327505661
 21
-121.5704493359
 31
0.0
  0
LWPOLYLINE
  5
DA
330
1F
100
AcDbEntity
  8
0
  6
Continuous
 62
     7
370
    25
100
AcDbPolyline
 90
       57
 70
   128
 43
0.0
 10
264.4943021996
 20
-107.7630626492
 10
264.4911868738
 20
-109.7222847038
 10
264.484643696
 20
-111.6565605976
 10
264.4747549505
 20
-113.541565689
 10
264.4616449939
 20
-115.3535949451
 10
264.4454786917
 20
-117.0698610469
 10
264.4264593444
 20
-118.6687809522
 10
264.4048261314
 20
-120.1302473155
 10
264.3808511028
 20
-121.4358813494
 10
264.3548357586
 20
-122.5692639483
 10
264.3271072568
 20
-123.5161421684
 10
264.2980142994
 20
-124.2646084667
 10
264.2679227473
 20
-124.8052504453
 10
264.2372110191
 20
-125.1312692176
 10
264.2062653326
 20
-125.2385649083
 10
264.1754748479
 20
-125.1257882119
 10
264.1452267731001
 20
-124.7943573608
 10
264.1159014953
 20
-124.2484402903
 10
264.0878677969
 20
-123.4949022242
 10
264.0614782179
 20
-122.5432193409
 10
264.0370646227
 20
-121.4053596049
 10
264.0149340261999
 20
-120.0956322626
 10
263.9953647337
 20
-118.6305078952
 10
263.9786028402
 20
-117.0284112917
 10
263.9648591365
 20
-115.3094897465
 10
263.9543064574001
 20
-113.4953596953
 10
263.9470775091
 20
-111.6088348761
 10
263.9432631998
 20
-109.6736394332
 10
263.9429114966
 20
-107.7141095719
 10
263.9460268224
 20
-105.7548875174
 10
263.9525700002
 20
-103.8206116236
 10
263.9624587457
 20
-101.9356065322
 10
263.9755687022
 20
-100.123577276
 10
263.9917350044
 20
-98.40731117430001
 10
264.0107543517
 20
-96.808391269
 10
264.0323875647
 20
-95.3469249057
 10
264.0563625933
 20
-94.04129087180001
 10
264.0823779375
 20
-92.90790827290001
 10
264.1101064393
 20
-91.96103005280001
 10
264.1391993967
 20
-91.2125637545
 10
264.1692909488
 20
-90.67192177589999
 10
264.2000026771
 20
-90.34590300359999
 10
264.2309483635
 20
-90.23860731290001
 10
264.2617388482
 20
-90.3513840093
 10
264.2919869231
 20
-90.68281486040001
 10
264.3213122008
 20
-91.22873193089999
 10
264.3493458992
 20
-91.98226999700001
 10
264.3757354782
 20
-92.93395288030001
 10
264.4001490735
 20
-94.07181261629999
 10
264.4222796699001
 20
-95.3815399586
 10
264.4418489625
 20
-96.84666432600002
 10
264.4586108559
 20
-98.44876092950002
 10
264.4723545597
 20
-100.1676824747
 10
264.4829072387
 20
-101.9818125259
 10
264.490136187
 20
-103.868337345
 10
264.4939504964
 20
-105.803532788
 10
264.4943021996
 20
-107.7630626492
  0
ARC
  5
DB
330
1F
100
AcDbEntity
  8
0
  6
Continuous
 62
     7
370
    25
100
AcDbCircle
 10
672.5883854956999
 20
-108.0176513304
 30
0.0
 40
431.7218495010301
100
AcDbArc
 50
177.6377046655
 51
182.2839875965
  0
SPLINE
  5
DC
330
1F
100
AcDbEntity
  8
0
  6
Continuous
 62
     7
370
    25
100
AcDbSpline
210
0.0
220
0.0
230
1.0
 70
     8
 71
     3
 72
    18
 73
    14
 74
     0
 42
0.00000001
 43
0.0000000001
 40
0.0
 40
0.0
 40
0.0
 40
0.0
 40
0.0321392349374039
 40
0.1380984609517355
 40
0.2446596690019143
 40
0.3528196959027985
 40
0.4611385938702238
 40
0.5678526988268002
 40
0.6737207881241983
 40
0.7807987001282527
 40
0.8892665532840435
 40
0.9971560237491814
 40
1.0
 40
1.0
 40
1.0
 40
1.0
 10
260.4425407743669
 20
-90.24306695704471
 30
0.0
 10
260.4511072337311
 20
-90.24103429482449
 30
0.0
 10
260.4879162883433
 20
-90.23230018759418
 30
0.0
 10
260.1872022502224
 20
-90.28440335215588
 30
0.0
 10
259.5680419326705
 20
-90.37896570964763
 30
0.0
 10
258.6571640064291
 20
-90.48190043102586
 30
0.0
 10
257.5888377535174
 20
-90.54095628729895
 30
0.0
 10
256.4842842007513
 20
-90.53032585934772
 30
0.0
 10
255.4732118256474
 20
-90.45646481094193
 30
0.0
 10
254.6411753860486
 20
-90.3487671747052
 30
0.0
 10
254.1347951532485
 20
-90.2623435342058
 30
0.0
 10
253.9217071603969
 20
-90.2211804825785
 30
0.0
 10
253.9849560997153
 20
-90.23215244472281
 30
0.0
 10
253.9865805274437
 20
-90.23243423853207
 30
0.0
  0
SPLINE
  5
DD
330
1F
100
AcDbEntity
  8
0
  6
Continuous
 62
     7
370
    25
100
AcDbSpline
210
0.0
220
0.0
230
1.0
 70
     8
 71
     3
 72
     8
 73
     4
 74
     0
 42
0.00000001
 43
0.0000000001
 40
5.0
 40
5.0
 40
5.0
 40
5.0
 40
6.0
 40
6.0
 40
6.0
 40
6.0
 10
264.1301712871089
 20
-102.1856328441539
 30
0.0
 10
264.1420788572146
 20
-101.4613352826334
 30
0.0
 10
264.1381691257012
 20
-100.5281129260763
 30
0.0
 10
264.1344372613966
 20
-100.1358630344259
 30
0.0
  0
LINE
  5
DE
330
1F
100
AcDbEntity
  8
0
  6
Continuous
 62
     7
370
    25
100
AcDbLine
 10
264.1344372614
 20
-100.1358630344
 30
0.0
 11
264.1339472671
 21
-100.0843863826
 31
0.0
  0
LINE
  5
DF
330
1F
100
AcDbEntity
  8
0
  6
Continuous
 62
     7
370
    25
100
AcDbLine
 10
264.1339472671
 20
-100.0843863826
 30
0.0
 11
264.1331443733
 21
-100.0523613283
 31
0.0
  0
SPLINE
  5
E0
330
1F
100
AcDbEntity
  8
0
  6
Continuous
 62
     7
370
    25
100
AcDbSpline
210
0.0
220
0.0
230
1.0
 70
     8
 71
     3
 72
     8
 73
     4
 74
     0
 42
0.00000001
 43
0.0000000001
 40
2.0
 40
2.0
 40
2.0
 40
2.0
 40
3.0
 40
3.0
 40
3.0
 40
3.0
 10
264.1331443733158
 20
-100.0523613283356
 30
0.0
 10
264.1270242933557
 20
-99.80873039577428
 30
0.0
 10
264.1123181716614
 20
-99.5385008934658
 30
0.0
 10
264.1004644982219
 20
-100.2595201015089
 30
0.0
  0
SPLINE
  5
E1
330
1F
100
AcDbEntity
  8
0
  6
Continuous
 62
     7
370
    25
100
AcDbSpline
210
0.0
220
0.0
230
1.0
 70
     8
 71
     3
 72
     8
 73
     4
 74
     0
 42
0.00000001
 43
0.0000000001
 40
1.0
 40
1.0
 40
1.0
 40
1.0
 40
2.0
 40
2.0
 40
2.0
 40
2.0
 10
264.1004644982219
 20
-100.2595201015089
 30
0.0
 10
264.0885569281164
 20
-100.9838176630307
 30
0.0
 10
264.0924666596297
 20
-101.9170400195865
 30
0.0
 10
264.0961985239343
 20
-102.3092899112375
 30
0.0
  0
LINE
  5
E2
330
1F
100
AcDbEntity
  8
0
  6
Continuous
 62
     7
370
    25
100
AcDbLine
 10
264.0961985239
 20
-102.3092899112
 30
0.0
 11
264.0966885183
 21
-102.360766563
 31
0.0
  0
LINE
  5
E3
330
1F
100
AcDbEntity
  8
0
  6
Continuous
 62
     7
370
    25
100
AcDbLine
 10
264.0966885183
 20
-102.360766563
 30
0.0
 11
264.097491412
 21
-102.3927916173
 31
0.0
  0
SPLINE
  5
E4
330
1F
100
AcDbEntity
  8
0
  6
Continuous
 62
     7
370
    25
100
AcDbSpline
210
0.0
220
0.0
230
1.0
 70
     8
 71
     3
 72
     8
 73
     4
 74
     0
 42
0.00000001
 43
0.0000000001
 40
6.0
 40
6.0
 40
6.0
 40
6.0
 40
7.0
 40
7.0
 40
7.0
 40
7.0
 10
264.0974914120152
 20
-102.3927916173272
 30
0.0
 10
264.1036114919752
 20
-102.6364225498898
 30
0.0
 10
264.1183176136695
 20
-102.9066520521983
 30
0.0
 10
264.1301712871089
 20
-102.1856328441539
 30
0.0
  0
LINE
  5
E5
330
1F
100
AcDbEntity
  8
0
  6
Continuous
 62
     7
370
    25
100
AcDbLine
 10
264.29775037
 20
-99.01894028820001
 30
0.0
 11
264.318639707
 21
-100.4049644481
 31
0.0
  0
LINE
  5
E6
330
1F
100
AcDbEntity
  8
0
  6
Continuous
 62
     7
370
    25
100
AcDbLine
 10
264.318639707
 20
-100.4049644481
 30
0.0
 11
264.287358374
 21
-102.3078972171
 31
0.0
  0
LINE
  5
E7
330
1F
100
AcDbEntity
  8
0
  6
Continuous
 62
     7
370
    25
100
AcDbLine
 10
264.287358374
 20
-102.3078972171
 30
0.0
 11
264.2664690370001
 21
-100.9218730572
 31
0.0
  0
SPLINE
  5
E8
330
1F
100
AcDbEntity
  8
0
  6
Continuous
 62
     7
370
    25
100
AcDbSpline
210
0.0
220
0.0
230
1.0
 70
     8
 71
     3
 72
     8
 73
     4
 74
     0
 42
0.00000001
 43
0.0000000001
 40
4.0
 40
4.0
 40
4.0
 40
4.0
 40
4.279999999999995
 40
4.279999999999995
 40
4.279999999999995
 40
4.279999999999995
 10
264.266469036973
 20
-100.9218730571983
 30
0.0
 10
264.2660241289463
 20
-100.8923530550068
 30
0.0
 10
264.265492623386
 20
-100.8710985050667
 30
0.0
 10
264.2649198518342
 20
-100.8581094392264
 30
0.0
  0
SPLINE
  5
E9
330
1F
100
AcDbEntity
  8
0
  6
Continuous
 62
     7
370
    25
100
AcDbSpline
210
0.0
220
0.0
230
1.0
 70
     8
 71
     3
 72
    10
 73
     6
 74
     0
 42
0.00000001
 43
0.0000000001
 40
0.0
 40
0.0
 40
0.0
 40
0.0
 40
0.1163319547835146
 40
0.5503184169237231
 40
1.0
 40
1.0
 40
1.0
 40
1.0
 10
264.263504403413
 20
-100.8469461906703
 30
0.0
 10
264.263377633231
 20
-100.8456527660532
 30
0.0
 10
264.2627779358735
 20
-100.8395341085528
 30
0.0
 10
264.261646643901
 20
-100.8639081022511
 30
0.0
 10
264.2608559056855
 20
-100.9023211656294
 30
0.0
 10
264.2604535142959
 20
-100.9218688308916
 30
0.0
  0
SPLINE
  5
EA
330
1F
100
AcDbEntity
  8
0
  6
Continuous
 62
     7
370
    25
100
AcDbSpline
210
0.0
220
0.0
230
1.0
 70
     8
 71
     3
 72
     8
 73
     4
 74
     0
 42
0.00000001
 43
0.0000000001
 40
5.0
 40
5.0
 40
5.0
 40
5.0
 40
6.0
 40
6.0
 40
6.0
 40
6.0
 10
264.2604535142959
 20
-100.9218688308916
 30
0.0
 10
264.2587204664735
 20
-101.0272950762161
 30
0.0
 10
264.2586036362701
 20
-101.1982584474956
 30
0.0
 10
264.2601925935084
 20
-101.3036870267508
 30
0.0
  0
LINE
  5
EB
330
1F
100
AcDbEntity
  8
0
  6
Continuous
 62
     7
370
    25
100
AcDbLine
 10
264.2601925935
 20
-101.3036870268
 30
0.0
 11
264.3077242177
 21
-104.4574481756
 31
0.0
  0
SPLINE
  5
EC
330
1F
100
AcDbEntity
  8
0
  6
Continuous
 62
     7
370
    25
100
AcDbSpline
210
0.0
220
0.0
230
1.0
 70
     8
 71
     3
 72
     8
 73
     4
 74
     0
 42
0.00000001
 43
0.0000000001
 40
7.0
 40
7.0
 40
7.0
 40
7.0
 40
8.0
 40
8.0
 40
8.0
 40
8.0
 10
264.3077242176696
 20
-104.4574481756192
 30
0.0
 10
264.3093131749079
 20
-104.5628767548731
 30
0.0
 10
264.3120066925244
 20
-104.5628786472491
 30
0.0
 10
264.3137397403468
 20
-104.4574524019253
 30
0.0
  0
SPLINE
  5
ED
330
1F
100
AcDbEntity
  8
0
  6
Continuous
 62
     7
370
    25
100
AcDbSpline
210
0.0
220
0.0
230
1.0
 70
     8
 71
     3
 72
     8
 73
     4
 74
     0
 42
0.00000001
 43
0.0000000001
 40
8.0
 40
8.0
 40
8.0
 40
8.0
 40
9.0
 40
9.0
 40
9.0
 40
9.0
 10
264.3137397403468
 20
-104.4574524019253
 30
0.0
 10
264.3154727881691
 20
-104.3520261566008
 30
0.0
 10
264.3155896183725
 20
-104.1810627853213
 30
0.0
 10
264.3140006611342
 20
-104.0756342060667
 30
0.0
  0
LINE
  5
EE
330
1F
100
AcDbEntity
  8
0
  6
Continuous
 62
     7
370
    25
100
AcDbLine
 10
264.3140006611
 20
-104.0756342061
 30
0.0
 11
264.2931129759
 21
-102.6897196393
 31
0.0
  0
LINE
  5
EF
330
1F
100
AcDbEntity
  8
0
  6
Continuous
 62
     7
370
    25
100
AcDbLine
 10
264.2931129759
 20
-102.6897196393
 30
0.0
 11
264.3243943089
 21
-100.7867868702
 31
0.0
  0
LINE
  5
F0
330
1F
100
AcDbEntity
  8
0
  6
Continuous
 62
     7
370
    25
100
AcDbLine
 10
264.3243943089
 20
-100.7867868702
 30
0.0
 11
264.3452819942
 21
-102.172701437
 31
0.0
  0
SPLINE
  5
F1
330
1F
100
AcDbEntity
  8
0
  6
Continuous
 62
     7
370
    25
100
AcDbSpline
210
0.0
220
0.0
230
1.0
 70
     8
 71
     3
 72
     8
 73
     4
 74
     0
 42
0.00000001
 43
0.0000000001
 40
12.0
 40
12.0
 40
12.0
 40
12.0
 40
13.0
 40
13.0
 40
13.0
 40
13.0
 10
264.3452819941767
 20
-102.1727014370361
 30
0.0
 10
264.3468709514149
 20
-102.2781300162906
 30
0.0
 10
264.3495644690315
 20
-102.2781319086666
 30
0.0
 10
264.3512975168538
 20
-102.1727056633428
 30
0.0
  0
SPLINE
  5
F2
330
1F
100
AcDbEntity
  8
0
  6
Continuous
 62
     7
370
    25
100
AcDbSpline
210
0.0
220
0.0
230
1.0
 70
     8
 71
     3
 72
     8
 73
     4
 74
     0
 42
0.00000001
 43
0.0000000001
 40
13.0
 40
13.0
 40
13.0
 40
13.0
 40
14.0
 40
14.0
 40
14.0
 40
14.0
 10
264.3512975168538
 20
-102.1727056633428
 30
0.0
 10
264.3530305646761
 20
-102.0672794180184
 30
0.0
 10
264.3531473948796
 20
-101.8963160467388
 30
0.0
 10
264.3515584376413
 20
-101.7908874674836
 30
0.0
  0
LINE
  5
F3
330
1F
100
AcDbEntity
  8
0
  6
Continuous
 62
     7
370
    25
100
AcDbLine
 10
264.3515584376
 20
-101.7908874675
 30
0.0
 11
264.3040268135
 21
-98.63712631860002
 31
0.0
  0
SPLINE
  5
F4
330
1F
100
AcDbEntity
  8
0
  6
Continuous
 62
     7
370
    25
100
AcDbSpline
210
0.0
220
0.0
230
1.0
 70
     8
 71
     3
 72
     8
 73
     4
 74
     0
 42
0.00000001
 43
0.0000000001
 40
15.0
 40
15.0
 40
15.0
 40
15.0
 40
15.28
 40
15.28
 40
15.28
 40
15.28
 10
264.30402681348
 20
-98.63712631861643
 30
0.0
 10
264.3035819054533
 20
-98.60760631642515
 30
0.0
 10
264.303050399893
 20
-98.5863517664851
 30
0.0
 10
264.3024776283413
 20
-98.57336270064477
 30
0.0
  0
SPLINE
  5
F5
330
1F
100
AcDbEntity
  8
0
  6
Continuous
 62
     7
370
    25
100
AcDbSpline
210
0.0
220
0.0
230
1.0
 70
     8
 71
     3
 72
    10
 73
     6
 74
     0
 42
0.00000001
 43
0.0000000001
 40
0.0
 40
0.0
 40
0.0
 40
0.0
 40
0.1163319547819449
 40
0.5503184169220869
 40
1.0
 40
1.0
 40
1.0
 40
1.0
 10
264.3010621799201
 20
-98.56219945208843
 30
0.0
 10
264.3009354097381
 20
-98.56090602747141
 30
0.0
 10
264.3003357123806
 20
-98.55478736997094
 30
0.0
 10
264.2992044204081
 20
-98.57916136366942
 30
0.0
 10
264.2984136821925
 20
-98.61757442704799
 30
0.0
 10
264.2980112908029
 20
-98.63712209231035
 30
0.0
  0
SPLINE
  5
F6
330
1F
100
AcDbEntity
  8
0
  6
Continuous
 62
     7
370
    25
100
AcDbSpline
210
0.0
220
0.0
230
1.0
 70
     8
 71
     3
 72
     8
 73
     4
 74
     0
 42
0.00000001
 43
0.0000000001
 40
0.0
 40
0.0
 40
0.0
 40
0.0
 40
1.0
 40
1.0
 40
1.0
 40
1.0
 10
264.2980112908029
 20
-98.63712209231035
 30
0.0
 10
264.2962782429806
 20
-98.7425483376329
 30
0.0
 10
264.2961614127772
 20
-98.91351170891374
 30
0.0
 10
264.2977503700154
 20
-99.01894028816824
 30
0.0
  0
SPLINE
  5
F7
330
1F
100
AcDbEntity
  8
0
  6
Continuous
 62
     7
370
    25
100
AcDbSpline
210
0.0
220
0.0
230
1.0
 70
     8
 71
     3
 72
     8
 73
     4
 74
     0
 42
0.00000001
 43
0.0000000001
 40
5.0
 40
5.0
 40
5.0
 40
5.0
 40
5.373333333333333
 40
5.373333333333333
 40
5.373333333333333
 40
5.373333333333333
 10
264.3775118843775
 20
-98.37435428977684
 30
0.0
 10
264.3734247736347
 20
-98.10317123430387
 30
0.0
 10
264.3687810263477
 20
-97.97356882882478
 30
0.0
 10
264.3642344168731
 20
-97.93087720023963
 30
0.0
  0
SPLINE
  5
F8
330
1F
100
AcDbEntity
  8
0
  6
Continuous
 62
     7
370
    25
100
AcDbSpline
210
0.0
220
0.0
230
1.0
 70
     8
 71
     3
 72
    10
 73
     6
 74
     0
 42
0.00000001
 43
0.0000000001
 40
0.0
 40
0.0
 40
0.0
 40
0.0
 40
0.2676422156455631
 40
0.671459839976081
 40
1.0
 40
1.0
 40
1.0
 40
1.0
 10
264.3622876839792
 20
-97.9292158893493
 30
0.0
 10
264.3607153554464
 20
-97.92379172356469
 30
0.0
 10
264.3567707032081
 20
-97.91018359571028
 30
0.0
 10
264.3508807721345
 20
-98.00470469990074
 30
0.0
 10
264.3469952173092
 20
-98.13397787498265
 30
0.0
 10
264.3452521337627
 20
-98.191970608228
 30
0.0
  0
LINE
  5
F9
330
1F
100
AcDbEntity
  8
0
  6
Continuous
 62
     7
370
    25
100
AcDbLine
 10
264.3452521338
 20
-98.1919706082
 30
0.0
 11
264.3444160568
 21
-98.2253955678
 31
0.0
  0
LINE
  5
FA
330
1F
100
AcDbEntity
  8
0
  6
Continuous
 62
     7
370
    25
100
AcDbLine
 10
264.3444160568
 20
-98.2253955678
 30
0.0
 11
264.3438742861
 21
-98.27788973469999
 31
0.0
  0
SPLINE
  5
FB
330
1F
100
AcDbEntity
  8
0
  6
Continuous
 62
     7
370
    25
100
AcDbSpline
210
0.0
220
0.0
230
1.0
 70
     8
 71
     3
 72
     8
 73
     4
 74
     0
 42
0.00000001
 43
0.0000000001
 40
2.0
 40
2.0
 40
2.0
 40
2.0
 40
3.0
 40
3.0
 40
3.0
 40
3.0
 10
264.3438742861099
 20
-98.27788973470713
 30
0.0
 10
264.3397522362124
 20
-98.67800707473099
 30
0.0
 10
264.3348363880413
 20
-99.6257548676008
 30
0.0
 10
264.3457344544213
 20
-100.3488502583718
 30
0.0
  0
SPLINE
  5
FC
330
1F
100
AcDbEntity
  8
0
  6
Continuous
 62
     7
370
    25
100
AcDbSpline
210
0.0
220
0.0
230
1.0
 70
     8
 71
     3
 72
     8
 73
     4
 74
     0
 42
0.00000001
 43
0.0000000001
 40
1.0
 40
1.0
 40
1.0
 40
1.0
 40
2.0
 40
2.0
 40
2.0
 40
2.0
 10
264.3457344544213
 20
-100.3488502583718
 30
0.0
 10
264.3566820724823
 20
-101.0752334426753
 30
0.0
 10
264.3716234157486
 20
-100.7858115807833
 30
0.0
 10
264.377994205036
 20
-100.5312339399207
 30
0.0
  0
LINE
  5
FD
330
1F
100
AcDbEntity
  8
0
  6
Continuous
 62
     7
370
    25
100
AcDbLine
 10
264.377994205
 20
-100.5312339399
 30
0.0
 11
264.378830282
 21
-100.4978089803
 31
0.0
  0
LINE
  5
FE
330
1F
100
AcDbEntity
  8
0
  6
Continuous
 62
     7
370
    25
100
AcDbLine
 10
264.378830282
 20
-100.4978089803
 30
0.0
 11
264.3793720527
 21
-100.4453148134
 31
0.0
  0
SPLINE
  5
FF
330
1F
100
AcDbEntity
  8
0
  6
Continuous
 62
     7
370
    25
100
AcDbSpline
210
0.0
220
0.0
230
1.0
 70
     8
 71
     3
 72
     8
 73
     4
 74
     0
 42
0.00000001
 43
0.0000000001
 40
6.0
 40
6.0
 40
6.0
 40
6.0
 40
7.0
 40
7.0
 40
7.0
 40
7.0
 10
264.3793720526889
 20
-100.445314813441
 30
0.0
 10
264.3834941025863
 20
-100.0451974734165
 30
0.0
 10
264.3884099507574
 20
-99.09744968054793
 30
0.0
 10
264.3775118843775
 20
-98.37435428977684
 30
0.0
  0
SPLINE
  5
100
330
1F
100
AcDbEntity
  8
0
  6
Continuous
 62
     7
370
    25
100
AcDbSpline
210
0.0
220
0.0
230
1.0
 70
     8
 71
     3
 72
     8
 73
     4
 74
     0
 42
0.00000001
 43
0.0000000001
 40
13.0
 40
13.0
 40
13.0
 40
13.0
 40
14.0
 40
14.0
 40
14.0
 40
14.0
 10
264.0889476191622
 20
-99.83007468053493
 30
0.0
 10
264.0912084363064
 20
-99.78473149772771
 30
0.0
 10
264.092543161437
 20
-99.63315665787266
 30
0.0
 10
264.0919269484103
 20
-99.49173603302977
 30
0.0
  0
SPLINE
  5
101
330
1F
100
AcDbEntity
  8
0
  6
Continuous
 62
     7
370
    25
100
AcDbSpline
210
0.0
220
0.0
230
1.0
 70
     8
 71
     3
 72
     8
 73
     4
 74
     0
 42
0.00000001
 43
0.0000000001
 40
12.0
 40
12.0
 40
12.0
 40
12.0
 40
13.0
 40
13.0
 40
13.0
 40
13.0
 10
264.0919269484103
 20
-99.49173603302977
 30
0.0
 10
264.0913095363032
 20
-99.34955039200756
 30
0.0
 10
264.0889727544698
 20
-99.27172654000372
 30
0.0
 10
264.0867152316991
 20
-99.31728831322573
 30
0.0
  0
SPLINE
  5
102
330
1F
100
AcDbEntity
  8
0
  6
Continuous
 62
     7
370
    25
100
AcDbSpline
210
0.0
220
0.0
230
1.0
 70
     8
 71
     3
 72
     8
 73
     4
 74
     0
 42
0.00000001
 43
0.0000000001
 40
11.0
 40
11.0
 40
11.0
 40
11.0
 40
12.0
 40
12.0
 40
12.0
 40
12.0
 10
264.0867152316991
 20
-99.31728831322573
 30
0.0
 10
264.0747427818907
 20
-99.55700615063449
 30
0.0
 10
264.0635710562432
 20
-99.23728674983037
 30
0.0
 10
264.0604523542493
 20
-99.13454161305089
 30
0.0
  0
SPLINE
  5
103
330
1F
100
AcDbEntity
  8
0
  6
Continuous
 62
     7
370
    25
100
AcDbSpline
210
0.0
220
0.0
230
1.0
 70
     8
 71
     3
 72
     8
 73
     4
 74
     0
 42
0.00000001
 43
0.0000000001
 40
10.0
 40
10.0
 40
10.0
 40
10.0
 40
11.0
 40
11.0
 40
11.0
 40
11.0
 10
264.0604523542493
 20
-99.13454161305089
 30
0.0
 10
264.0582676752947
 20
-98.8618594382642
 30
0.0
 10
264.0504011479571
 20
-97.69419680041792
 30
0.0
 10
264.0666222479093
 20
-96.70752168228709
 30
0.0
  0
SPLINE
  5
104
330
1F
100
AcDbEntity
  8
0
  6
Continuous
 62
     7
370
    25
100
AcDbSpline
210
0.0
220
0.0
230
1.0
 70
     8
 71
     3
 72
    10
 73
     6
 74
     0
 42
0.00000001
 43
0.0000000001
 40
0.0
 40
0.0
 40
0.0
 40
0.0
 40
0.427326803819788
 40
0.7883654410337587
 40
1.0
 40
1.0
 40
1.0
 40
1.0
 10
264.0666222479093
 20
-96.70752168228709
 30
0.0
 10
264.0695732680027
 20
-96.55662470863159
 30
0.0
 10
264.0750175374392
 20
-96.27823833519755
 30
0.0
 10
264.0836823472163
 20
-96.11471421185241
 30
0.0
 10
264.0886133259512
 20
-96.13101694995554
 30
0.0
 10
264.0904355965181
 20
-96.13704171732969
 30
0.0
  0
SPLINE
  5
105
330
1F
100
AcDbEntity
  8
0
  6
Continuous
 62
     7
370
    25
100
AcDbSpline
210
0.0
220
0.0
230
1.0
 70
     8
 71
     3
 72
     8
 73
     4
 74
     0
 42
0.00000001
 43
0.0000000001
 40
9.55999999999962
 40
9.55999999999962
 40
9.55999999999962
 40
9.55999999999962
 40
10.0
 40
10.0
 40
10.0
 40
10.0
 10
264.093223367239
 20
-96.13860015834992
 30
0.0
 10
264.0992204242981
 20
-96.18922327539793
 30
0.0
 10
264.1038588504021
 20
-96.32758454728771
 30
0.0
 10
264.1057324578096
 20
-96.39077914760319
 30
0.0
  0
SPLINE
  5
106
330
1F
100
AcDbEntity
  8
0
  6
Continuous
 62
     7
370
    25
100
AcDbSpline
210
0.0
220
0.0
230
1.0
 70
     8
 71
     3
 72
     8
 73
     4
 74
     0
 42
0.00000001
 43
0.0000000001
 40
8.0
 40
8.0
 40
8.0
 40
8.0
 40
9.0
 40
9.0
 40
9.0
 40
9.0
 10
264.1057324578096
 20
-96.39077914760319
 30
0.0
 10
264.1074109569054
 20
-96.60291375492359
 30
0.0
 10
264.1127815000832
 20
-97.39406987088372
 30
0.0
 10
264.1068041821785
 20
-98.19631805845785
 30
0.0
  0
SPLINE
  5
107
330
1F
100
AcDbEntity
  8
0
  6
Continuous
 62
     7
370
    25
100
AcDbSpline
210
0.0
220
0.0
230
1.0
 70
     8
 71
     3
 72
     8
 73
     4
 74
     0
 42
0.00000001
 43
0.0000000001
 40
7.0
 40
7.0
 40
7.0
 40
7.0
 40
8.0
 40
8.0
 40
8.0
 40
8.0
 10
264.1068041821785
 20
-98.19631805845785
 30
0.0
 10
264.1057877543752
 20
-98.33314067634704
 30
0.0
 10
264.1066762013181
 20
-98.49193928945398
 30
0.0
 10
264.1087889574973
 20
-98.54987178237873
 30
0.0
  0
SPLINE
  5
108
330
1F
100
AcDbEntity
  8
0
  6
Continuous
 62
     7
370
    25
100
AcDbSpline
210
0.0
220
0.0
230
1.0
 70
     8
 71
     3
 72
     8
 73
     4
 74
     0
 42
0.00000001
 43
0.0000000001
 40
6.0
 40
6.0
 40
6.0
 40
6.0
 40
7.0
 40
7.0
 40
7.0
 40
7.0
 10
264.1087889574973
 20
-98.54987178237873
 30
0.0
 10
264.1109011162013
 20
-98.60867856993099
 30
0.0
 10
264.1134359060001
 20
-98.54541362090001
 30
0.0
 10
264.1144556281768
 20
-98.40880959342563
 30
0.0
  0
SPLINE
  5
109
330
1F
100
AcDbEntity
  8
0
  6
Continuous
 62
     7
370
    25
100
AcDbSpline
210
0.0
220
0.0
230
1.0
 70
     8
 71
     3
 72
     8
 73
     4
 74
     0
 42
0.00000001
 43
0.0000000001
 40
5.0
 40
5.0
 40
5.0
 40
5.0
 40
6.0
 40
6.0
 40
6.0
 40
6.0
 10
264.1144556281768
 20
-98.40880959342563
 30
0.0
 10
264.1233319369503
 20
-97.21696667444678
 30
0.0
 10
264.1130656436977
 20
-96.09388153290069
 30
0.0
 10
264.1126226709289
 20
-96.04666731041589
 30
0.0
  0
LINE
  5
10A
330
1F
100
AcDbEntity
  8
0
  6
Continuous
 62
     7
370
    25
100
AcDbLine
 10
264.1126226709
 20
-96.04666731040001
 30
0.0
 11
264.1121203953
 21
-95.993004855
 31
0.0
  0
LINE
  5
10B
330
1F
100
AcDbEntity
  8
0
  6
Continuous
 62
     7
370
    25
100
AcDbLine
 10
264.1121203953
 20
-95.993004855
 30
0.0
 11
264.1112818651
 21
-95.96021461700001
 31
0.0
  0
SPLINE
  5
10C
330
1F
100
AcDbEntity
  8
0
  6
Continuous
 62
     7
370
    25
100
AcDbSpline
210
0.0
220
0.0
230
1.0
 70
     8
 71
     3
 72
     8
 73
     4
 74
     0
 42
0.00000001
 43
0.0000000001
 40
2.0
 40
2.0
 40
2.0
 40
2.0
 40
2.280000000003096
 40
2.280000000003096
 40
2.280000000003096
 40
2.280000000003096
 10
264.1112818650643
 20
-95.9602146169654
 30
0.0
 10
264.1086653154562
 20
-95.85799650232241
 30
0.0
 10
264.1050125664156
 20
-95.7535713394658
 30
0.0
 10
264.100703091912
 20
-95.68088065275169
 30
0.0
  0
SPLINE
  5
10D
330
1F
100
AcDbEntity
  8
0
  6
Continuous
 62
     7
370
    25
100
AcDbSpline
210
0.0
220
0.0
230
1.0
 70
     8
 71
     3
 72
    10
 73
     6
 74
     0
 42
0.00000001
 43
0.0000000001
 40
0.0
 40
0.0
 40
0.0
 40
0.0
 40
0.046722054130891
 40
0.4897055715682435
 40
1.0
 40
1.0
 40
1.0
 40
1.0
 10
264.0875358403753
 20
-95.60023353964679
 30
0.0
 10
264.0870857328824
 20
-95.59707642598445
 30
0.0
 10
264.0823680433205
 20
-95.56398592559274
 30
0.0
 10
264.0723861727602
 20
-95.76367086033078
 30
0.0
 10
264.0648940304316
 20
-96.13041644360993
 30
0.0
 10
264.0608834493582
 20
-96.3267371794565
 30
0.0
  0
SPLINE
  5
10E
330
1F
100
AcDbEntity
  8
0
  6
Continuous
 62
     7
370
    25
100
AcDbSpline
210
0.0
220
0.0
230
1.0
 70
     8
 71
     3
 72
     8
 73
     4
 74
     0
 42
0.00000001
 43
0.0000000001
 40
1.0
 40
1.0
 40
1.0
 40
1.0
 40
2.0
 40
2.0
 40
2.0
 40
2.0
 10
264.0608834493582
 20
-96.3267371794565
 30
0.0
 10
264.0423358099842
 20
-97.45492788934495
 30
0.0
 10
264.047994577055
 20
-98.88257401286116
 30
0.0
 10
264.0535768164417
 20
-99.47985568076209
 30
0.0
  0
LINE
  5
10F
330
1F
100
AcDbEntity
  8
0
  6
Continuous
 62
     7
370
    25
100
AcDbLine
 10
264.0535768164
 20
-99.4798556808
 30
0.0
 11
264.0540790921
 21
-99.5335181361
 31
0.0
  0
LINE
  5
110
330
1F
100
AcDbEntity
  8
0
  6
Continuous
 62
     7
370
    25
100
AcDbLine
 10
264.0540790921
 20
-99.5335181361
 30
0.0
 11
264.0549176223
 21
-99.5663083742
 31
0.0
  0
SPLINE
  5
111
330
1F
100
AcDbEntity
  8
0
  6
Continuous
 62
     7
370
    25
100
AcDbSpline
210
0.0
220
0.0
230
1.0
 70
     8
 71
     3
 72
     8
 73
     4
 74
     0
 42
0.00000001
 43
0.0000000001
 40
14.0
 40
14.0
 40
14.0
 40
14.0
 40
15.0
 40
15.0
 40
15.0
 40
15.0
 10
264.0549176223064
 20
-99.56630837421272
 30
0.0
 10
264.0555683815232
 20
-99.59166616948929
 30
0.0
 10
264.0711180059704
 20
-100.1872477464781
 30
0.0
 10
264.0889476191622
 20
-99.83007468053493
 30
0.0
  0
SPLINE
  5
112
330
1F
100
AcDbEntity
  8
0
  6
Continuous
 62
     7
370
    25
100
AcDbSpline
210
0.0
220
0.0
230
1.0
 70
     8
 71
     3
 72
     8
 73
     4
 74
     0
 42
0.00000001
 43
0.0000000001
 40
3.0
 40
3.0
 40
3.0
 40
3.0
 40
4.0
 40
4.0
 40
4.0
 40
4.0
 10
264.1796342150944
 20
-100.9153006532221
 30
0.0
 10
264.1813625015219
 20
-100.810174785058
 30
0.0
 10
264.1814790091958
 20
-100.6396873328285
 30
0.0
 10
264.1798944155659
 20
-100.5345453432408
 30
0.0
  0
SPLINE
  5
113
330
1F
100
AcDbEntity
  8
0
  6
Continuous
 62
     7
370
    25
100
AcDbSpline
210
0.0
220
0.0
230
1.0
 70
     8
 71
     3
 72
     8
 73
     4
 74
     0
 42
0.00000001
 43
0.0000000001
 40
2.0
 40
2.0
 40
2.0
 40
2.0
 40
2.27999999999999
 40
2.27999999999999
 40
2.27999999999999
 40
2.27999999999999
 10
264.1798944155659
 20
-100.5345453432408
 30
0.0
 10
264.1794507293496
 20
-100.5051055861563
 30
0.0
 10
264.1789206835469
 20
-100.4839079362556
 30
0.0
 10
264.178349485182
 20
-100.4709526135292
 30
0.0
  0
SPLINE
  5
114
330
1F
100
AcDbEntity
  8
0
  6
Continuous
 62
     7
370
    25
100
AcDbSpline
210
0.0
220
0.0
230
1.0
 70
     8
 71
     3
 72
    10
 73
     6
 74
     0
 42
0.00000001
 43
0.0000000001
 40
0.0
 40
0.0
 40
0.0
 40
0.0
 40
0.1162608166189822
 40
0.5502876474476615
 40
1.0
 40
1.0
 40
1.0
 40
1.0
 10
264.1769376468575
 20
-100.4598123395651
 30
0.0
 10
264.1768113173746
 20
-100.4585230838525
 30
0.0
 10
264.1762133725472
 20
-100.4524207570868
 30
0.0
 10
264.1750852834725
 20
-100.4767213659367
 30
0.0
 10
264.1742967043602
 20
-100.5150246069925
 30
0.0
 10
264.1738954165432
 20
-100.5345161503909
 30
0.0
  0
LINE
  5
115
330
1F
100
AcDbEntity
  8
0
  6
Continuous
 62
     7
370
    25
100
AcDbLine
 10
264.1738954165
 20
-100.5345161504
 30
0.0
 11
264.1223845762
 21
-103.6677478468
 31
0.0
  0
SPLINE
  5
116
330
1F
100
AcDbEntity
  8
0
  6
Continuous
 62
     7
370
    25
100
AcDbSpline
210
0.0
220
0.0
230
1.0
 70
     8
 71
     3
 72
     8
 73
     4
 74
     0
 42
0.00000001
 43
0.0000000001
 40
0.0
 40
0.0
 40
0.0
 40
0.0
 40
1.0
 40
1.0
 40
1.0
 40
1.0
 10
264.1223845761588
 20
-103.6677478468187
 30
0.0
 10
264.1206562897312
 20
-103.772873714981
 30
0.0
 10
264.1205397820574
 20
-103.9433611672112
 30
0.0
 10
264.1221243756872
 20
-104.0485031567988
 30
0.0
  0
SPLINE
  5
117
330
1F
100
AcDbEntity
  8
0
  6
Continuous
 62
     7
370
    25
100
AcDbSpline
210
0.0
220
0.0
230
1.0
 70
     8
 71
     3
 72
     8
 73
     4
 74
     0
 42
0.00000001
 43
0.0000000001
 40
5.0
 40
5.0
 40
5.0
 40
5.0
 40
6.0
 40
6.0
 40
6.0
 40
6.0
 10
264.1221243756872
 20
-104.0485031567988
 30
0.0
 10
264.123708969317
 20
-104.1536451463871
 30
0.0
 10
264.1263950882824
 20
-104.1536582178123
 30
0.0
 10
264.1281233747099
 20
-104.0485323496493
 30
0.0
  0
LINE
  5
118
330
1F
100
AcDbEntity
  8
0
  6
Continuous
 62
     7
370
    25
100
AcDbLine
 10
264.1281233747
 20
-104.0485323496
 30
0.0
 11
264.1796342151
 21
-100.9153006532
 31
0.0
  0
LINE
  5
119
330
1F
100
AcDbEntity
  8
0
  6
Continuous
 62
     7
370
    25
100
AcDbLine
 10
264.2117808264
 20
-103.0482989172
 30
0.0
 11
264.1874630998
 21
-104.5274646864
 31
0.0
  0
SPLINE
  5
11A
330
1F
100
AcDbEntity
  8
0
  6
Continuous
 62
     7
370
    25
100
AcDbSpline
210
0.0
220
0.0
230
1.0
 70
     8
 71
     3
 72
     8
 73
     4
 74
     0
 42
0.00000001
 43
0.0000000001
 40
2.0
 40
2.0
 40
2.0
 40
2.0
 40
3.0
 40
3.0
 40
3.0
 40
3.0
 10
264.1874630997675
 20
-104.5274646864229
 30
0.0
 10
264.1874099788845
 20
-104.2055180218113
 30
0.0
 10
264.1858267029169
 20
-103.9227023865868
 30
0.0
 10
264.18423504026
 20
-103.7526301097774
 30
0.0
  0
LINE
  5
11B
330
1F
100
AcDbEntity
  8
0
  6
Continuous
 62
     7
370
    25
100
AcDbLine
 10
264.1842350403
 20
-103.7526301098
 30
0.0
 11
264.1837666087
 21
-103.702355722
 31
0.0
  0
LINE
  5
11C
330
1F
100
AcDbEntity
  8
0
  6
Continuous
 62
     7
370
    25
100
AcDbLine
 10
264.1837666087
 20
-103.702355722
 30
0.0
 11
264.1829930615001
 21
-103.6702215233
 31
0.0
  0
SPLINE
  5
11D
330
1F
100
AcDbEntity
  8
0
  6
Continuous
 62
     7
370
    25
100
AcDbSpline
210
0.0
220
0.0
230
1.0
 70
     8
 71
     3
 72
     8
 73
     4
 74
     0
 42
0.00000001
 43
0.0000000001
 40
5.0
 40
5.0
 40
5.0
 40
5.0
 40
6.0
 40
6.0
 40
6.0
 40
6.0
 10
264.1829930614689
 20
-103.6702215233439
 30
0.0
 10
264.1769502292673
 20
-103.4193780120339
 30
0.0
 10
264.1625920336126
 20
-103.1237955743382
 30
0.0
 10
264.1514857272768
 20
-103.7993549475017
 30
0.0
  0
SPLINE
  5
11E
330
1F
100
AcDbEntity
  8
0
  6
Continuous
 62
     7
370
    25
100
AcDbSpline
210
0.0
220
0.0
230
1.0
 70
     8
 71
     3
 72
     8
 73
     4
 74
     0
 42
0.00000001
 43
0.0000000001
 40
6.0
 40
6.0
 40
6.0
 40
6.0
 40
7.0
 40
7.0
 40
7.0
 40
7.0
 10
264.1514857272768
 20
-103.7993549475017
 30
0.0
 10
264.1403291173862
 20
-104.477974117243
 30
0.0
 10
264.1446314024792
 20
-105.3910895407888
 30
0.0
 10
264.1484626789435
 20
-105.7789684285361
 30
0.0
  0
LINE
  5
11F
330
1F
100
AcDbEntity
  8
0
  6
Continuous
 62
     7
370
    25
100
AcDbLine
 10
264.1484626789
 20
-105.7789684285
 30
0.0
 11
264.1489571626
 21
-105.8289150815
 31
0.0
  0
LINE
  5
120
330
1F
100
AcDbEntity
  8
0
  6
Continuous
 62
     7
370
    25
100
AcDbLine
 10
264.1489571626
 20
-105.8289150815
 30
0.0
 11
264.1497486754
 21
-105.8599564957
 31
0.0
  0
SPLINE
  5
121
330
1F
100
AcDbEntity
  8
0
  6
Continuous
 62
     7
370
    25
100
AcDbSpline
210
0.0
220
0.0
230
1.0
 70
     8
 71
     3
 72
     8
 73
     4
 74
     0
 42
0.00000001
 43
0.0000000001
 40
9.0
 40
9.0
 40
9.0
 40
9.0
 40
10.0
 40
10.0
 40
10.0
 40
10.0
 10
264.14974867541
 20
-105.859956495679
 30
0.0
 10
264.1523925351296
 20
-105.9633823666879
 30
0.0
 10
264.1568133326447
 20
-106.0693851337944
 30
0.0
 10
264.1618992373095
 20
-106.0824287199876
 30
0.0
  0
LINE
  5
122
330
1F
100
AcDbEntity
  8
0
  6
Continuous
 62
     7
370
    25
100
AcDbLine
 10
264.1618992373
 20
-106.08242872
 30
0.0
 11
264.160269986
 21
-106.1815306136
 31
0.0
  0
SPLINE
  5
123
330
1F
100
AcDbEntity
  8
0
  6
Continuous
 62
     7
370
    25
100
AcDbSpline
210
0.0
220
0.0
230
1.0
 70
     8
 71
     3
 72
     8
 73
     4
 74
     0
 42
0.00000001
 43
0.0000000001
 40
11.0
 40
11.0
 40
11.0
 40
11.0
 40
12.0
 40
12.0
 40
12.0
 40
12.0
 10
264.160269986006
 20
-106.1815306136359
 30
0.0
 10
264.1585416995784
 20
-106.2866564817988
 30
0.0
 10
264.1584251919046
 20
-106.4571439340289
 30
0.0
 10
264.1600097855344
 20
-106.5622859236166
 30
0.0
  0
SPLINE
  5
124
330
1F
100
AcDbEntity
  8
0
  6
Continuous
 62
     7
370
    25
100
AcDbSpline
210
0.0
220
0.0
230
1.0
 70
     8
 71
     3
 72
     8
 73
     4
 74
     0
 42
0.00000001
 43
0.0000000001
 40
12.0
 40
12.0
 40
12.0
 40
12.0
 40
13.0
 40
13.0
 40
13.0
 40
13.0
 10
264.1600097855344
 20
-106.5622859236166
 30
0.0
 10
264.1615943791642
 20
-106.6674279132042
 30
0.0
 10
264.1642804981296
 20
-106.6674409846301
 30
0.0
 10
264.1660087845572
 20
-106.5623151164664
 30
0.0
  0
LINE
  5
125
330
1F
100
AcDbEntity
  8
0
  6
Continuous
 62
     7
370
    25
100
AcDbLine
 10
264.1660087846
 20
-106.5623151165
 30
0.0
 11
264.2175196249
 21
-103.42908342
 31
0.0
  0
SPLINE
  5
126
330
1F
100
AcDbEntity
  8
0
  6
Continuous
 62
     7
370
    25
100
AcDbSpline
210
0.0
220
0.0
230
1.0
 70
     8
 71
     3
 72
     8
 73
     4
 74
     0
 42
0.00000001
 43
0.0000000001
 40
14.0
 40
14.0
 40
14.0
 40
14.0
 40
15.0
 40
15.0
 40
15.0
 40
15.0
 10
264.2175196249416
 20
-103.4290834200393
 30
0.0
 10
264.2192479113691
 20
-103.3239575518757
 30
0.0
 10
264.2193644190429
 20
-103.1534700996461
 30
0.0
 10
264.2177798254132
 20
-103.0483281100579
 30
0.0
  0
SPLINE
  5
127
330
1F
100
AcDbEntity
  8
0
  6
Continuous
 62
     7
370
    25
100
AcDbSpline
210
0.0
220
0.0
230
1.0
 70
     8
 71
     3
 72
     8
 73
     4
 74
     0
 42
0.00000001
 43
0.0000000001
 40
0.0
 40
0.0
 40
0.0
 40
0.0
 40
0.2800000000000051
 40
0.2800000000000051
 40
0.2800000000000051
 40
0.2800000000000051
 10
264.2177798254132
 20
-103.0483281100579
 30
0.0
 10
264.2173361391968
 20
-103.0188883529733
 30
0.0
 10
264.2168060933942
 20
-102.9976907030727
 30
0.0
 10
264.2162348950292
 20
-102.9847353803464
 30
0.0
  0
SPLINE
  5
128
330
1F
100
AcDbEntity
  8
0
  6
Continuous
 62
     7
370
    25
100
AcDbSpline
210
0.0
220
0.0
230
1.0
 70
     8
 71
     3
 72
    10
 73
     6
 74
     0
 42
0.00000001
 43
0.0000000001
 40
0.0
 40
0.0
 40
0.0
 40
0.0
 40
0.1162608166196095
 40
0.5502876474491904
 40
1.0
 40
1.0
 40
1.0
 40
1.0
 10
264.2148230567047
 20
-102.9735951063824
 30
0.0
 10
264.2146967272218
 20
-102.9723058506698
 30
0.0
 10
264.2140987823944
 20
-102.9662035239041
 30
0.0
 10
264.2129706933197
 20
-102.9905041327538
 30
0.0
 10
264.2121821142075
 20
-103.0288073738094
 30
0.0
 10
264.2117808263904
 20
-103.0482989172074
 30
0.0
  0
SPLINE
  5
129
330
1F
100
AcDbEntity
  8
0
  6
Continuous
 62
     7
370
    25
100
AcDbSpline
210
0.0
220
0.0
230
1.0
 70
     8
 71
     3
 72
     8
 73
     4
 74
     0
 42
0.00000001
 43
0.0000000001
 40
1.0
 40
1.0
 40
1.0
 40
1.0
 40
1.280000000000001
 40
1.280000000000001
 40
1.280000000000001
 40
1.280000000000001
 10
264.4079946793831
 20
-97.92496123260912
 30
0.0
 10
264.4070918258921
 20
-97.96564990019414
 30
0.0
 10
264.4061090731032
 20
-97.9933130253169
 30
0.0
 10
264.4051044059121
 20
-98.0082369344706
 30
0.0
  0
SPLINE
  5
12A
330
1F
100
AcDbEntity
  8
0
  6
Continuous
 62
     7
370
    25
100
AcDbSpline
210
0.0
220
0.0
230
1.0
 70
     8
 71
     3
 72
    10
 73
     6
 74
     0
 42
0.00000001
 43
0.0000000001
 40
0.0
 40
0.0
 40
0.0
 40
0.0
 40
0.202267968401559
 40
0.5942368525256167
 40
1.0
 40
1.0
 40
1.0
 40
1.0
 10
264.4033172326277
 20
-98.01228258714063
 30
0.0
 10
264.4029037237455
 20
-98.01455811274514
 30
0.0
 10
264.4016888887003
 20
-98.02124330953512
 30
0.0
 10
264.399730804067
 20
-97.97393258246069
 30
0.0
 10
264.3985207879961
 20
-97.90870560681554
 30
0.0
 10
264.397905318252
 20
-97.87552817142412
 30
0.0
  0
LINE
  5
12B
330
1F
100
AcDbEntity
  8
0
  6
Continuous
 62
     7
370
    25
100
AcDbLine
 10
264.3979053183
 20
-97.87552817139999
 30
0.0
 11
264.3797578409
 21
-96.67142858690001
 31
0.0
  0
LINE
  5
12C
330
1F
100
AcDbEntity
  8
0
  6
Continuous
 62
     7
370
    25
100
AcDbLine
 10
264.3797578409
 20
-96.67142858690001
 30
0.0
 11
264.3831482734
 21
-96.46517890530001
 31
0.0
  0
SPLINE
  5
12D
330
1F
100
AcDbEntity
  8
0
  6
Continuous
 62
     7
370
    25
100
AcDbSpline
210
0.0
220
0.0
230
1.0
 70
     8
 71
     3
 72
     8
 73
     4
 74
     0
 42
0.00000001
 43
0.0000000001
 40
4.0
 40
4.0
 40
4.0
 40
4.0
 40
5.0
 40
5.0
 40
5.0
 40
5.0
 10
264.3831482733723
 20
-96.46517890534244
 30
0.0
 10
264.3848813211946
 20
-96.35975266001864
 30
0.0
 10
264.384998151398
 20
-96.18878928873847
 30
0.0
 10
264.3834091941598
 20
-96.08336070948341
 30
0.0
  0
SPLINE
  5
12E
330
1F
100
AcDbEntity
  8
0
  6
Continuous
 62
     7
370
    25
100
AcDbSpline
210
0.0
220
0.0
230
1.0
 70
     8
 71
     3
 72
     8
 73
     4
 74
     0
 42
0.00000001
 43
0.0000000001
 40
5.0
 40
5.0
 40
5.0
 40
5.0
 40
5.280000000000003
 40
5.280000000000003
 40
5.280000000000003
 40
5.280000000000003
 10
264.3834091941598
 20
-96.08336070948341
 30
0.0
 10
264.3829642861331
 20
-96.05384070729208
 30
0.0
 10
264.3824327805727
 20
-96.03258615735208
 30
0.0
 10
264.381860009021
 20
-96.01959709151179
 30
0.0
  0
SPLINE
  5
12F
330
1F
100
AcDbEntity
  8
0
  6
Continuous
 62
     7
370
    25
100
AcDbSpline
210
0.0
220
0.0
230
1.0
 70
     8
 71
     3
 72
    10
 73
     6
 74
     0
 42
0.00000001
 43
0.0000000001
 40
0.0
 40
0.0
 40
0.0
 40
0.0
 40
0.1163319547824052
 40
0.550318416923802
 40
1.0
 40
1.0
 40
1.0
 40
1.0
 10
264.3804445605999
 20
-96.00843384295551
 30
0.0
 10
264.3803177904179
 20
-96.00714041833844
 30
0.0
 10
264.3797180930603
 20
-96.00102176083808
 30
0.0
 10
264.3785868010878
 20
-96.02539575453613
 30
0.0
 10
264.3777960628722
 20
-96.06380881791444
 30
0.0
 10
264.3773936714827
 20
-96.08335648317659
 30
0.0
  0
LINE
  5
130
330
1F
100
AcDbEntity
  8
0
  6
Continuous
 62
     7
370
    25
100
AcDbLine
 10
264.3773936715
 20
-96.0833564832
 30
0.0
 11
264.374003239
 21
-96.2896061648
 31
0.0
  0
LINE
  5
131
330
1F
100
AcDbEntity
  8
0
  6
Continuous
 62
     7
370
    25
100
AcDbLine
 10
264.374003239
 20
-96.2896061648
 30
0.0
 11
264.3647585471
 21
-95.6762134849
 31
0.0
  0
SPLINE
  5
132
330
1F
100
AcDbEntity
  8
0
  6
Continuous
 62
     7
370
    25
100
AcDbSpline
210
0.0
220
0.0
230
1.0
 70
     8
 71
     3
 72
     8
 73
     4
 74
     0
 42
0.00000001
 43
0.0000000001
 40
8.0
 40
8.0
 40
8.0
 40
8.0
 40
8.279999999999994
 40
8.279999999999994
 40
8.279999999999994
 40
8.279999999999994
 10
264.3647585470921
 20
-95.6762134848523
 30
0.0
 10
264.3643136390654
 20
-95.64669348266102
 30
0.0
 10
264.363782133505
 20
-95.62543893272103
 30
0.0
 10
264.3632093619534
 20
-95.61244986688077
 30
0.0
  0
SPLINE
  5
133
330
1F
100
AcDbEntity
  8
0
  6
Continuous
 62
     7
370
    25
100
AcDbSpline
210
0.0
220
0.0
230
1.0
 70
     8
 71
     3
 72
    10
 73
     6
 74
     0
 42
0.00000001
 43
0.0000000001
 40
0.0
 40
0.0
 40
0.0
 40
0.0
 40
0.1163319547836132
 40
0.5503184169236482
 40
1.0
 40
1.0
 40
1.0
 40
1.0
 10
264.3617939135321
 20
-95.60128661832463
 30
0.0
 10
264.3616671433501
 20
-95.59999319370756
 30
0.0
 10
264.3610674459926
 20
-95.59387453620717
 30
0.0
 10
264.3599361540201
 20
-95.61824852990552
 30
0.0
 10
264.3591454158045
 20
-95.65666159328399
 30
0.0
 10
264.358743024415
 20
-95.67620925854628
 30
0.0
  0
SPLINE
  5
134
330
1F
100
AcDbEntity
  8
0
  6
Continuous
 62
     7
370
    25
100
AcDbSpline
210
0.0
220
0.0
230
1.0
 70
     8
 71
     3
 72
     8
 73
     4
 74
     0
 42
0.00000001
 43
0.0000000001
 40
9.0
 40
9.0
 40
9.0
 40
9.0
 40
10.0
 40
10.0
 40
10.0
 40
10.0
 10
264.358743024415
 20
-95.67620925854628
 30
0.0
 10
264.3570099765926
 20
-95.78163550386948
 30
0.0
 10
264.3568931463893
 20
-95.95259887514963
 30
0.0
 10
264.3584821036275
 20
-96.05802745440485
 30
0.0
  0
LINE
  5
135
330
1F
100
AcDbEntity
  8
0
  6
Continuous
 62
     7
370
    25
100
AcDbLine
 10
264.3584821036
 20
-96.05802745440001
 30
0.0
 11
264.3677267956
 21
-96.67142013430002
 31
0.0
  0
LINE
  5
136
330
1F
100
AcDbEntity
  8
0
  6
Continuous
 62
     7
370
    25
100
AcDbLine
 10
264.3677267956
 20
-96.67142013430002
 30
0.0
 11
264.3644336444
 21
-96.87175191860001
 31
0.0
  0
SPLINE
  5
137
330
1F
100
AcDbEntity
  8
0
  6
Continuous
 62
     7
370
    25
100
AcDbSpline
210
0.0
220
0.0
230
1.0
 70
     8
 71
     3
 72
     8
 73
     4
 74
     0
 42
0.00000001
 43
0.0000000001
 40
12.0
 40
12.0
 40
12.0
 40
12.0
 40
13.0
 40
13.0
 40
13.0
 40
13.0
 10
264.3644336444204
 20
-96.87175191858408
 30
0.0
 10
264.3627005965982
 20
-96.97717816390792
 30
0.0
 10
264.3625837663948
 20
-97.14814153518807
 30
0.0
 10
264.364172723633
 20
-97.25357011444323
 30
0.0
  0
SPLINE
  5
138
330
1F
100
AcDbEntity
  8
0
  6
Continuous
 62
     7
370
    25
100
AcDbSpline
210
0.0
220
0.0
230
1.0
 70
     8
 71
     3
 72
     8
 73
     4
 74
     0
 42
0.00000001
 43
0.0000000001
 40
13.0
 40
13.0
 40
13.0
 40
13.0
 40
14.0
 40
14.0
 40
14.0
 40
14.0
 10
264.364172723633
 20
-97.25357011444323
 30
0.0
 10
264.3657616808712
 20
-97.35899869369781
 30
0.0
 10
264.3684551984878
 20
-97.35900058607377
 30
0.0
 10
264.3701882463101
 20
-97.25357434074922
 30
0.0
  0
LINE
  5
139
330
1F
100
AcDbEntity
  8
0
  6
Continuous
 62
     7
370
    25
100
AcDbLine
 10
264.3701882463
 20
-97.2535743407
 30
0.0
 11
264.3734813975
 21
-97.05324255649999
 31
0.0
  0
LINE
  5
13A
330
1F
100
AcDbEntity
  8
0
  6
Continuous
 62
     7
370
    25
100
AcDbLine
 10
264.3734813975
 20
-97.05324255649999
 30
0.0
 11
264.3916288748
 21
-98.25734214100002
 31
0.0
  0
SPLINE
  5
13B
330
1F
100
AcDbEntity
  8
0
  6
Continuous
 62
     7
370
    25
100
AcDbSpline
210
0.0
220
0.0
230
1.0
 70
     8
 71
     3
 72
     8
 73
     4
 74
     0
 42
0.00000001
 43
0.0000000001
 40
16.0
 40
16.0
 40
16.0
 40
16.0
 40
17.0
 40
17.0
 40
17.0
 40
17.0
 10
264.3916288747873
 20
-98.25734214097661
 30
0.0
 10
264.3971092907086
 20
-98.62097210559946
 30
0.0
 10
264.4059820548566
 20
-98.66437675439316
 30
0.0
 10
264.4127215082525
 20
-98.36048299176452
 30
0.0
  0
LINE
  5
13C
330
1F
100
AcDbEntity
  8
0
  6
Continuous
 62
     7
370
    25
100
AcDbLine
 10
264.4127215083
 20
-98.36048299179999
 30
0.0
 11
264.4172411503
 21
-98.15675471850001
 31
0.0
  0
SPLINE
  5
13D
330
1F
100
AcDbEntity
  8
0
  6
Continuous
 62
     7
370
    25
100
AcDbSpline
210
0.0
220
0.0
230
1.0
 70
     8
 71
     3
 72
     8
 73
     4
 74
     0
 42
0.00000001
 43
0.0000000001
 40
18.0
 40
18.0
 40
18.0
 40
18.0
 40
19.0
 40
19.0
 40
19.0
 40
19.0
 10
264.4172411502662
 20
-98.15675471852594
 30
0.0
 10
264.4174264098352
 20
-98.14842585992966
 30
0.0
 10
264.4176001073453
 20
-98.13932984950929
 30
0.0
 10
264.4177586397864
 20
-98.12968586864792
 30
0.0
  0
SPLINE
  5
13E
330
1F
100
AcDbEntity
  8
0
  6
Continuous
 62
     7
370
    25
100
AcDbSpline
210
0.0
220
0.0
230
1.0
 70
     8
 71
     3
 72
     8
 73
     4
 74
     0
 42
0.00000001
 43
0.0000000001
 40
19.0
 40
19.0
 40
19.0
 40
19.0
 40
20.0
 40
20.0
 40
20.0
 40
20.0
 10
264.4177586397864
 20
-98.12968586864792
 30
0.0
 10
264.4192791100172
 20
-98.03719132493341
 30
0.0
 10
264.4195983655531
 20
-97.88836567124192
 30
0.0
 10
264.4184176339793
 20
-97.77932084420243
 30
0.0
  0
SPLINE
  5
13F
330
1F
100
AcDbEntity
  8
0
  6
Continuous
 62
     7
370
    25
100
AcDbSpline
210
0.0
220
0.0
230
1.0
 70
     8
 71
     3
 72
     8
 73
     4
 74
     0
 42
0.00000001
 43
0.0000000001
 40
20.0
 40
20.0
 40
20.0
 40
20.0
 40
21.0
 40
21.0
 40
21.0
 40
21.0
 10
264.4184176339793
 20
-97.77932084420243
 30
0.0
 10
264.4171115171454
 20
-97.65920714138623
 30
0.0
 10
264.4144669026733
 20
-97.63312239753453
 30
0.0
 10
264.4125143213968
 20
-97.72123295937184
 30
0.0
  0
LINE
  5
140
330
1F
100
AcDbEntity
  8
0
  6
Continuous
 62
     7
370
    25
100
AcDbLine
 10
264.4125143214
 20
-97.72123295940001
 30
0.0
 11
264.4079946794
 21
-97.92496123260001
 31
0.0
  0
SPLINE
  5
141
330
1F
100
AcDbEntity
  8
0
  6
Continuous
 62
     7
370
    25
100
AcDbSpline
210
0.0
220
0.0
230
1.0
 70
     8
 71
     3
 72
    11
 73
     7
 74
     0
 42
0.00000001
 43
0.0000000001
 40
0.0
 40
0.0
 40
0.0
 40
0.0
 40
1.0
 40
1.0
 40
1.0
 40
2.0
 40
2.0
 40
2.0
 40
2.0
 10
264.127581191092
 20
-100.4829257919406
 30
0.0
 10
264.1246334895204
 20
-100.3869572931893
 30
0.0
 10
264.1146704630236
 20
-100.125275273102
 30
0.0
 10
264.1062032967732
 20
-100.6403046043402
 30
0.0
 10
264.0977307408562
 20
-101.1556617709268
 30
0.0
 10
264.101594141915
 20
-101.7762132463183
 30
0.0
 10
264.1030578886123
 20
-101.9624457441376
 30
0.0
  0
SPLINE
  5
142
330
1F
100
AcDbEntity
  8
0
  6
Continuous
 62
     7
370
    25
100
AcDbSpline
210
0.0
220
0.0
230
1.0
 70
     8
 71
     3
 72
    11
 73
     7
 74
     0
 42
0.00000001
 43
0.0000000001
 40
2.0
 40
2.0
 40
2.0
 40
2.0
 40
3.0
 40
3.0
 40
3.0
 40
4.0
 40
4.0
 40
4.0
 40
4.0
 10
264.1030578886123
 20
-101.9624457441376
 30
0.0
 10
264.1059819320946
 20
-102.0577584046119
 30
0.0
 10
264.1159563395296
 20
-102.320424064807
 30
0.0
 10
264.1244324885578
 20
-101.8048483413233
 30
0.0
 10
264.1329032479193
 20
-101.2896004531855
 30
0.0
 10
264.1290431412339
 20
-100.6692675682088
 30
0.0
 10
264.127581191092
 20
-100.4829257919406
 30
0.0
  0
SPLINE
  5
143
330
1F
100
AcDbEntity
  8
0
  6
Continuous
 62
     7
370
    25
100
AcDbSpline
210
0.0
220
0.0
230
1.0
 70
     8
 71
     3
 72
    11
 73
     7
 74
     0
 42
0.00000001
 43
0.0000000001
 40
0.0
 40
0.0
 40
0.0
 40
0.0
 40
1.0
 40
1.0
 40
1.0
 40
2.0
 40
2.0
 40
2.0
 40
2.0
 10
264.1773205674462
 20
-104.0944467978833
 30
0.0
 10
264.1744528146609
 20
-103.9948722108561
 30
0.0
 10
264.1648203626426
 20
-103.7181101669722
 30
0.0
 10
264.1572245258281
 20
-104.180139450333
 30
0.0
 10
264.1497077374572
 20
-104.6373604819254
 30
0.0
 10
264.1537486905171
 20
-105.2425033272949
 30
0.0
 10
264.1552486670628
 20
-105.4261131088162
 30
0.0
  0
SPLINE
  5
144
330
1F
100
AcDbEntity
  8
0
  6
Continuous
 62
     7
370
    25
100
AcDbSpline
210
0.0
220
0.0
230
1.0
 70
     8
 71
     3
 72
    11
 73
     7
 74
     0
 42
0.00000001
 43
0.0000000001
 40
2.0
 40
2.0
 40
2.0
 40
2.0
 40
3.0
 40
3.0
 40
3.0
 40
4.0
 40
4.0
 40
4.0
 40
4.0
 10
264.1552486670628
 20
-105.4261131088162
 30
0.0
 10
264.1579244417156
 20
-105.5092936828544
 30
0.0
 10
264.1665823566677
 20
-105.7204786692881
 30
0.0
 10
264.1741386692603
 20
-105.260853511811
 30
0.0
 10
264.1817093542974
 20
-104.8003541267406
 30
0.0
 10
264.1785881412948
 20
-104.2628645288072
 30
0.0
 10
264.1773205674462
 20
-104.0944467978833
 30
0.0
  0
LWPOLYLINE
  5
145
330
1F
100
AcDbEntity
  8
0
  6
Continuous
 62
     7
370
    25
100
AcDbPolyline
 90
       16
 70
   128
 43
0.0
 10
254.1871501314
 20
-90.23042774930001
 10
254.5239199042
 20
-90.229614272
 10
255.0452285132
 20
-90.22908770529999
 10
255.7155496381
 20
-90.22888393370001
 10
256.489202002
 20
-90.229016844
 10
257.3134624748
 20
-90.22947737850001
 10
258.1321590675
 20
-90.2302341526
 10
258.8894989603
 20
-90.2312355934
 10
259.533870691
 20
-90.2324134542
 10
260.021361391
 20
-90.233687466
 10
260.3187493747
 20
-90.2349708068
 10
260.4057681426
 20
-90.2361760191
 10
260.2764875094
 20
-90.23722096969999
 10
259.9397177365
 20
-90.23803444690001
 10
259.4184091276
 20
-90.2385610137
 10
259.3318159677
 20
-90.2386099323
  0
LWPOLYLINE
  5
146
330
1F
100
AcDbEntity
  8
0
  6
Continuous
 62
     7
370
    25
100
AcDbPolyline
 90
        6
 70
   128
 43
0.0
 10
255.1318170121
 20
-90.2356479658
 10
254.9297669498
 20
-90.23523526469999
 10
254.4422762498
 20
-90.23396125299999
 10
254.144888266
 20
-90.23267791219998
 10
254.0578694981
 20
-90.23147269989999
 10
254.1871501314
 20
-90.23042774930001
  0
LWPOLYLINE
  5
147
330
1F
100
AcDbEntity
  8
0
  6
Continuous
 62
     7
370
    25
100
AcDbPolyline
 90
       12
 70
   128
 43
0.0
 10
254.2086596297
 20
-59.7304647018
 10
254.5454294026
 20
-59.72965122459999
 10
255.0667380115
 20
-59.7291246579
 10
255.7370591364
 20
-59.7289208863
 10
256.5107115003
 20
-59.7290537966
 10
257.3349719732
 20
-59.7295143311
 10
258.1536685659
 20
-59.7302711052
 10
258.9110084586
 20
-59.7312725459
 10
259.5553801893
 20
-59.73245040680001
 10
260.0428708893
 20
-59.7337244185
 10
260.3402588731
 20
-59.73500775939999
 10
260.4283275292
 20
-59.7361004177
  0
LWPOLYLINE
  5
148
330
1F
100
AcDbEntity
  8
0
  6
Continuous
 62
     7
370
    25
100
AcDbPolyline
 90
        3
 70
   128
 43
0.0
 10
254.0783291083
 20
-59.7316222064
 10
254.0793789965
 20
-59.7315096524
 10
254.2086596297
 20
-59.7304647018
  0
LWPOLYLINE
  5
149
330
1F
100
AcDbEntity
  8
0
  6
Continuous
 62
     7
370
    25
100
AcDbPolyline
 90
       11
 70
   128
 43
0.0
 10
255.1318193426
 20
-90.23234337620001
 10
255.2180222072
 20
-90.23157778259999
 10
255.5204940027
 20
-90.2309284689
 10
256.0084143962
 20
-90.23059296979999
 10
256.6289096421
 20
-90.23060764190001
 10
257.3147394526
 20
-90.23097089530001
 10
257.9915835259
 20
-90.23164336589999
 10
258.5860953045
 20
-90.2325521809
 10
259.0338502122
 20
-90.23359885620001
 10
259.2863270572
 20
-90.2346699683
 10
259.3318182982
 20
-90.2353053428
  0
LINE
  5
14A
330
1F
100
AcDbEntity
  8
0
  6
Continuous
 62
     7
370
    25
100
AcDbLine
 10
264.2753273321
 20
-102.3078889955
 30
0.0
 11
264.287358374
 21
-102.3078972171
 31
0.0
  0
LINE
  5
14B
330
1F
100
AcDbEntity
  8
0
  6
Continuous
 62
     7
370
    25
100
AcDbLine
 10
264.2810819340001
 20
-102.6897114177
 30
0.0
 11
264.2931129759
 21
-102.6897196393
 31
0.0
  0
LINE
  5
14C
330
1F
100
AcDbEntity
  8
0
  6
Continuous
 62
     7
370
    25
100
AcDbLine
 10
264.3123632598
 20
-100.7867786487
 30
0.0
 11
264.3243943089
 21
-100.7867868702
 31
0.0
  0
SPLINE
  5
14D
330
1F
100
AcDbEntity
  8
0
  6
Continuous
 62
     7
370
    25
100
AcDbSpline
210
0.0
220
0.0
230
1.0
 70
     8
 71
     3
 72
    11
 73
     7
 74
     0
 42
0.00000001
 43
0.0000000001
 40
0.0
 40
0.0
 40
0.0
 40
0.0
 40
1.0
 40
1.0
 40
1.0
 40
2.0
 40
2.0
 40
2.0
 40
2.0
 10
264.3504479777682
 20
-98.61324574245072
 30
0.0
 10
264.348800951279
 20
-98.80503051054887
 30
0.0
 10
264.3442263287969
 20
-99.45052392496648
 30
0.0
 10
264.3520108978859
 20
-99.96703628882009
 30
0.0
 10
264.3598004221429
 20
-100.4838774320262
 30
0.0
 10
264.3697906146003
 20
-100.2110004771701
 30
0.0
 10
264.3728019640404
 20
-100.1097396243151
 30
0.0
  0
SPLINE
  5
14E
330
1F
100
AcDbEntity
  8
0
  6
Continuous
 62
     7
370
    25
100
AcDbSpline
210
0.0
220
0.0
230
1.0
 70
     8
 71
     3
 72
    11
 73
     7
 74
     0
 42
0.00000001
 43
0.0000000001
 40
2.0
 40
2.0
 40
2.0
 40
2.0
 40
3.0
 40
3.0
 40
3.0
 40
4.0
 40
4.0
 40
4.0
 40
4.0
 10
264.3728019640404
 20
-100.1097396243151
 30
0.0
 10
264.3744375823704
 20
-99.91948913560397
 30
0.0
 10
264.3790282686152
 20
-99.2732285887709
 30
0.0
 10
264.3712354409128
 20
-98.75616825932876
 30
0.0
 10
264.3634475683785
 20
-98.23943670924037
 30
0.0
 10
264.3534609789311
 20
-98.51209448271276
 30
0.0
 10
264.3504479777682
 20
-98.61324574245072
 30
0.0
  0
LINE
  5
14F
330
1F
100
AcDbEntity
  8
0
  6
Continuous
 62
     7
370
    25
100
AcDbLine
 10
264.3619721972001
 20
-96.2895979432
 30
0.0
 11
264.374003239
 21
-96.2896061648
 31
0.0
  0
LINE
  5
150
330
1F
100
AcDbEntity
  8
0
  6
Continuous
 62
     7
370
    25
100
AcDbLine
 10
264.3677267991
 20
-96.67142036540001
 30
0.0
 11
264.3797578409
 21
-96.67142858690001
 31
0.0
  0
LWPOLYLINE
  5
151
330
1F
100
AcDbEntity
  8
0
  6
Continuous
 62
     7
370
    25
100
AcDbPolyline
 90
       42
 70
   128
 43
0.0
 10
200.8748245034
 20
-22.3564746898
 10
202.3288089356
 20
-22.3564746859
 10
203.748713205
 20
-22.3564746741
 10
205.1012559591
 20
-22.3564746546
 10
206.354734742
 20
-22.356474628
 10
207.4797690735
 20
-22.35647459489999
 10
208.4499891023
 20
-22.356474556
 10
209.2426536934
 20
-22.3564745122
 10
209.8391834604
 20
-22.3564744647
 10
210.2255962514
 20
-22.3564744144
 10
210.3928348779
 20
-22.3564743626
 10
210.3369794084
 20
-22.3564743104
 10
210.0593390476
 20
-22.3564742592
 10
209.5664214504
 20
-22.3564742101
 10
208.8697801873
 20
-22.3564741643
 10
207.9857439393
 20
-22.3564741227
 10
206.9350337666
 20
-22.3564740865
 10
205.7422774252
 20
-22.3564740565
 10
204.4354321127
 20
-22.3564740333
 10
203.0451291757
 20
-22.3564740175
 10
201.6039561367
 20
-22.3564740094
 10
200.1456928702
 20
-22.3564740094
 10
198.7045198311
 20
-22.3564740173
 10
197.3142168941
 20
-22.356474033
 10
196.0073715817
 20
-22.3564740561
 10
194.8146152403
 20
-22.356474086
 10
193.7639050675999
 20
-22.3564741222
 10
192.8798688195
 20
-22.3564741636
 10
192.1832275565
 20
-22.3564742094
 10
191.6903099592
 20
-22.3564742585
 10
191.4126695985
 20
-22.3564743097
 10
191.3568141289
 20
-22.3564743618
 10
191.5240527554999
 20
-22.3564744136
 10
191.9104655464
 20
-22.3564744639
 10
192.5069953134999
 20
-22.3564745116
 10
193.2996599045
 20
-22.3564745554
 10
194.2698799334
 20
-22.3564745944
 10
195.3949142648
 20
-22.3564746276
 10
196.6483930477
 20
-22.3564746543
 10
198.0009358018
 20
-22.3564746739
 10
199.4208400712
 20
-22.3564746858
 10
200.8748245034
 20
-22.3564746898
  0
LWPOLYLINE
  5
152
330
1F
100
AcDbEntity
  8
0
  6
Continuous
 62
     7
370
    25
100
AcDbPolyline
 90
       22
 70
   128
 43
0.0
 10
210.3998245044
 20
3.2435256505
 10
210.342979933
 20
3.243525687699999
 10
210.0734045099
 20
3.243525738899999
 10
209.5882221678
 20
3.243525788099999
 10
208.8988051697
 20
3.2435258341
 10
208.0213128655
 20
3.243525875799999
 10
206.9763129313
 20
3.243525912299999
 10
205.7882992797
 20
3.243525942599999
 10
204.4851179439
 20
3.243525966
 10
203.0973143897
 20
3.243525982099999
 10
201.6574175564
 20
3.2435259904
 10
200.1991774052
 20
3.243525990699999
 10
198.7567738494
 20
3.2435259831
 10
197.3640156057
 20
3.243525967699999
 10
196.053547747
 20
3.2435259449
 10
194.8560865292
 20
3.243525915199999
 10
193.7996994283
 20
3.243525879299999
 10
192.9091472626
 20
3.243525838
 10
192.20530382
 20
3.2435257923
 10
191.7046665943
 20
3.243525743399999
 10
191.4189700977
 20
3.2435256922
 10
191.3498245044
 20
3.2435256512
  0
LWPOLYLINE
  5
153
330
1F
100
AcDbEntity
  8
0
  6
Continuous
 62
     7
370
    25
100
AcDbPolyline
 90
       42
 70
   128
 43
0.0
 10
210.3748186823
 20
3.343525650899999
 10
210.261877261
 20
3.343525702699999
 10
209.9289112793
 20
3.343525753399999
 10
209.3837251774
 20
3.3435258016
 10
208.6390976556
 20
3.343525846399999
 10
207.7124821518
 20
3.343525886499999
 10
206.6255977481
 20
3.3435259211
 10
205.4039200937
 20
3.3435259494
 10
204.0760842774
 20
3.3435259707
 10
202.6732136452
 20
3.343525984499999
 10
201.2281902958
 20
3.3435259904
 10
199.7748843518
 20
3.343525988399999
 10
198.3473600727
 20
3.3435259785
 10
196.9790774177
 20
3.343525961
 10
195.7021077725
 20
3.3435259361
 10
194.5463822233
 20
3.343525904599999
 10
193.5389899975
 20
3.343525867099999
 10
192.7035435149
 20
3.343525824499999
 10
192.0596249331
 20
3.3435257779
 10
191.6223271578
 20
3.343525728299999
 10
191.4019000782
 20
3.3435256769
 10
191.4035103184
 20
3.3435256249
 10
191.6271201355
 20
3.343525573399999
 10
192.0674883050999
 20
3.343525523799999
 10
192.7142929704
 20
3.3435254772
 10
193.5523735783
 20
3.3435254347
 10
194.5620862297
 20
3.3435253972
 10
195.7197641159
 20
3.3435253656
 10
196.9982722483
 20
3.343525340799999
 10
198.36764348
 20
3.343525323199999
 10
199.7957809099
 20
3.343525313299999
 10
201.2492102072
 20
3.3435253113
 10
202.6938642208
 20
3.3435253173
 10
204.0958814853
 20
3.343525331
 10
205.4223999042
 20
3.3435253523
 10
206.64232701
 20
3.3435253806
 10
207.7270687454
 20
3.343525415199999
 10
208.6511996836
 20
3.3435254554
 10
209.3930589784
 20
3.343525500099999
 10
209.9352580769
 20
3.343525548299999
 10
210.2650882918
 20
3.343525598999999
 10
210.3748186823
 20
3.343525650899999
  0
LWPOLYLINE
  5
154
330
1F
100
AcDbEntity
  8
0
  6
Continuous
 62
     7
370
    25
100
AcDbPolyline
 90
       40
 70
   128
 43
0.0
 10
209.1748194177
 20
3.343525650899999
 10
209.0658626241
 20
3.3435256985
 10
208.7447622457
 20
3.343525744899999
 10
208.2198346137
 20
3.3435257888
 10
207.5046750781
 20
3.3435258292
 10
206.6178058951
 20
3.343525865
 10
205.5821965107
 20
3.343525895199999
 10
204.424668664
 20
3.3435259191
 10
203.1752017183
 20
3.343525936
 10
201.866156211
 20
3.3435259456
 10
200.5314357333
 20
3.343525947499999
 10
199.2056088443
 20
3.3435259418
 10
197.9230137642
 20
3.3435259285
 10
196.7168690317
 20
3.343525908
 10
195.6184131619
 20
3.343525880799999
 10
194.6560955848
 20
3.343525847699999
 10
193.8548398202
 20
3.3435258095
 10
193.2353979714
 20
3.3435257672
 10
192.8138132571
 20
3.343525721899999
 10
192.6010044998
 20
3.3435256748
 10
192.6024833346
 20
3.343525627
 10
192.8182114604
 20
3.3435255798
 10
193.2426016321
 20
3.343525534499999
 10
193.8646623672
 20
3.3435254922
 10
194.6682826193999
 20
3.343525453999999
 10
195.6326490463
 20
3.343525420899999
 10
196.7327850639
 20
3.3435253937
 10
197.9401977274
 20
3.343525373299999
 10
199.2236156827999
 20
3.34352536
 10
200.5497990794
 20
3.3435253542
 10
201.8844004638
 20
3.3435253561
 10
203.1928543612
 20
3.3435253657
 10
204.4412725028
 20
3.343525382599999
 10
205.5973215147
 20
3.343525406499999
 10
206.6310603346
 20
3.3435254367
 10
207.5157156702
 20
3.3435254725
 10
208.2283754128
 20
3.3435255129
 10
208.7505820496
 20
3.343525556799999
 10
209.0688107028
 20
3.343525603199999
 10
209.1748194177
 20
3.343525650899999
  0
LINE
  5
155
330
1F
100
AcDbEntity
  8
0
  6
Continuous
 62
     7
370
    25
100
AcDbLine
 10
201.0187505661
 20
-80.15647434909999
 30
0.0
 11
210.5187505661
 21
-80.15647434909999
 31
0.0
  0
LINE
  5
156
330
1F
100
AcDbEntity
  8
0
  6
Continuous
 62
     7
370
    25
100
AcDbLine
 10
191.5187505661
 20
-80.15647434909999
 30
0.0
 11
201.0187505661
 21
-80.15647434909999
 31
0.0
  0
LINE
  5
157
330
1F
100
AcDbEntity
  8
0
  6
Continuous
 62
     7
370
    25
100
AcDbLine
 10
223.5187505661
 20
-168.3564743491
 30
0.0
 11
178.5187505661
 21
-168.3564743491
 31
0.0
  0
LINE
  5
158
330
1F
100
AcDbEntity
  8
0
  6
Continuous
 62
     7
370
    25
100
AcDbLine
 10
223.5187505661
 20
-172.3564743491
 30
0.0
 11
178.5187505661
 21
-172.3564743491
 31
0.0
  0
LINE
  5
159
330
1F
100
AcDbEntity
  8
0
  6
Continuous
 62
     7
370
    25
100
AcDbLine
 10
184.5187505661
 20
-124.3564743491
 30
0.0
 11
183.5187505661
 21
-125.3564743491
 31
0.0
  0
LINE
  5
15A
330
1F
100
AcDbEntity
  8
0
  6
Continuous
 62
     7
370
    25
100
AcDbLine
 10
218.5187505661
 20
-125.3564743491
 30
0.0
 11
217.5187505661
 21
-124.3564743491
 31
0.0
  0
SPLINE
  5
15B
330
1F
100
AcDbEntity
  8
0
  6
Continuous
 62
     7
370
    25
100
AcDbSpline
210
0.0
220
0.0
230
1.0
 70
     8
 71
     3
 72
    56
 73
    52
 74
     0
 42
0.00000001
 43
0.0000000001
 40
0.0
 40
0.0
 40
0.0
 40
0.0
 40
0.0625
 40
0.0625
 40
0.1249999999999999
 40
0.1249999999999999
 40
0.1874999999999999
 40
0.1874999999999999
 40
0.2187499999999999
 40
0.2187499999999999
 40
0.2499999999999999
 40
0.2499999999999999
 40
0.3125
 40
0.3125
 40
0.3750000000000002
 40
0.3750000000000002
 40
0.4062500000000002
 40
0.4062500000000002
 40
0.4375000000000002
 40
0.4375000000000002
 40
0.4687500000000001
 40
0.4687500000000001
 40
0.5000000000000001
 40
0.5000000000000001
 40
0.5156250000000001
 40
0.5156250000000001
 40
0.5312500000000001
 40
0.5312500000000001
 40
0.5625000000000001
 40
0.5625000000000001
 40
0.59375
 40
0.59375
 40
0.625
 40
0.625
 40
0.65625
 40
0.65625
 40
0.6875
 40
0.6875
 40
0.7499999999999999
 40
0.7499999999999999
 40
0.8124999999999996
 40
0.8124999999999996
 40
0.8437499999999996
 40
0.8437499999999996
 40
0.8749999999999996
 40
0.8749999999999996
 40
0.9375
 40
0.9375
 40
0.96875
 40
0.96875
 40
1.0
 40
1.0
 40
1.0
 40
1.0
 10
217.5187505660849
 20
-124.3564743491355
 30
0.0
 10
217.1971372605555
 20
-124.0364836020472
 30
0.0
 10
216.8133978445671
 20
-123.6568776949945
 30
0.0
 10
215.9390367247748
 20
-122.8030612099853
 30
0.0
 10
215.4471526044704
 20
-122.3275338070854
 30
0.0
 10
214.3639807819612
 20
-121.3007256676685
 30
0.0
 10
213.7845708146977
 20
-120.7606334825043
 30
0.0
 10
212.860538521767
 20
-119.9240185951246
 30
0.0
 10
212.5432943430983
 20
-119.6407100529159
 30
0.0
 10
211.8896386157754
 20
-119.0675159184223
 30
0.0
 10
211.552281312576
 20
-118.7768240690709
 30
0.0
 10
210.5162563852763
 20
-117.9047378179733
 30
0.0
 10
209.798072016269
 20
-117.3260112229271
 30
0.0
 10
208.291311061168
 20
-116.2037834098113
 30
0.0
 10
207.5034298488626
 20
-115.6593102042054
 30
0.0
 10
206.2402298207123
 20
-114.9113613131084
 30
0.0
 10
205.8034978535038
 20
-114.6730947378883
 30
0.0
 10
204.9108766284323
 20
-114.2418448723556
 30
0.0
 10
204.4535907351602
 20
-114.0478400181412
 30
0.0
 10
203.5101496892279
 20
-113.7201073174214
 30
0.0
 10
203.0195044196517
 20
-113.5859412094293
 30
0.0
 10
202.0317705223308
 20
-113.4049614083293
 30
0.0
 10
201.5333767495087
 20
-113.3571822500417
 30
0.0
 10
200.7783662943312
 20
-113.3561321711048
 30
0.0
 10
200.5241909702866
 20
-113.3676469893356
 30
0.0
 10
200.0198499526773
 20
-113.4139038911099
 30
0.0
 10
199.7705358248109
 20
-113.4484137173342
 30
0.0
 10
199.0304340094761
 20
-113.5829713970746
 30
0.0
 10
198.5474737841282
 20
-113.7140113462038
 30
0.0
 10
197.5986404206381
 20
-114.0418612112597
 30
0.0
 10
197.137300449813
 20
-114.2371987848928
 30
0.0
 10
196.2482603859144
 20
-114.6657091315344
 30
0.0
 10
195.8179006532812
 20
-114.8998725380196
 30
0.0
 10
194.9786655891542
 20
-115.3953742544952
 30
0.0
 10
194.5698266413749
 20
-115.6567737981114
 30
0.0
 10
193.7692656970266
 20
-116.1982360662953
 30
0.0
 10
193.3783097658714
 20
-116.4779127797811
 30
0.0
 10
192.2416622012836
 20
-117.324083492436
 30
0.0
 10
191.526024182505
 20
-117.901034437017
 30
0.0
 10
190.1597341369718
 20
-119.050491443544
 30
0.0
 10
189.5093529679558
 20
-119.6234275324186
 30
0.0
 10
188.5789744389162
 20
-120.4652661325187
 30
0.0
 10
188.2761054653929
 20
-120.7433520077881
 30
0.0
 10
187.6949047784325
 20
-121.2829437015216
 30
0.0
 10
187.4153808774073
 20
-121.5455220290334
 30
0.0
 10
186.6101560458616
 20
-122.3085855412253
 30
0.0
 10
186.1173989823729
 20
-122.7846666240267
 30
0.0
 10
185.4513612780409
 20
-123.4349138972499
 30
0.0
 10
185.2421961282786
 20
-123.640413232424
 30
0.0
 10
184.8566651612553
 20
-124.0208339968403
 30
0.0
 10
184.6794438877387
 20
-124.19659173494
 30
0.0
 10
184.5187505660849
 20
-124.3564743491355
 30
0.0
  0
SPLINE
  5
15C
330
1F
100
AcDbEntity
  8
0
  6
Continuous
 62
     7
370
    25
100
AcDbSpline
210
0.0
220
0.0
230
1.0
 70
     8
 71
     3
 72
    17
 73
    13
 74
     0
 42
0.00000001
 43
0.0000000001
 40
0.0
 40
0.0
 40
0.0
 40
0.0
 40
0.0112766622261853
 40
0.1189257629131226
 40
0.2169341841576604
 40
0.317486785151571
 40
0.4216608317360839
 40
0.5282723093262132
 40
0.6444010945257861
 40
0.7637023179758945
 40
0.8797091391208926
 40
1.0
 40
1.0
 40
1.0
 40
1.0
 10
191.4799407837639
 20
-90.36256245605635
 30
0.0
 10
191.4762998899656
 20
-90.36058175393037
 30
0.0
 10
191.4379023514064
 20
-90.33969290342579
 30
0.0
 10
191.5886243077749
 20
-90.42205510248527
 30
0.0
 10
191.9319858314332
 20
-90.60618682682022
 30
0.0
 10
192.4867511398161
 20
-90.89362344199328
 30
0.0
 10
193.236114709031
 20
-91.26037221889237
 30
0.0
 10
194.2027186303729
 20
-91.69479026360676
 30
0.0
 10
195.3888029380276
 20
-92.16484780197406
 30
0.0
 10
196.7771856707474
 20
-92.6102049366151
 30
0.0
 10
198.3240434491864
 20
-92.98315767573987
 30
0.0
 10
199.4331264320018
 20
-93.09800805159904
 30
0.0
 10
199.9977216732517
 20
-93.15647434913548
 30
0.0
  0
SPLINE
  5
15D
330
1F
100
AcDbEntity
  8
0
  6
Continuous
 62
     7
370
    25
100
AcDbSpline
210
0.0
220
0.0
230
1.0
 70
     8
 71
     3
 72
    16
 73
    12
 74
     0
 42
0.00000001
 43
0.0000000001
 40
0.0
 40
0.0
 40
0.0
 40
0.0
 40
0.1061230065534003
 40
0.2157549726980034
 40
0.3217537673534819
 40
0.4302792409389948
 40
0.5473205174920468
 40
0.6676667802468327
 40
0.7852096959087431
 40
0.9070699662518519
 40
1.0
 40
1.0
 40
1.0
 40
1.0
 10
202.0397794589181
 20
-93.15647434913548
 30
0.0
 10
202.538105068354
 20
-93.10687888230878
 30
0.0
 10
203.5512334346756
 20
-93.00604807343276
 30
0.0
 10
204.967543074601
 20
-92.68680519665142
 30
0.0
 10
206.2798582775849
 20
-92.29182150054086
 30
0.0
 10
207.4823976107003
 20
-91.84200133084205
 30
0.0
 10
208.5651060561196
 20
-91.37243114844343
 30
0.0
 10
209.4677941781484
 20
-90.93653424230179
 30
0.0
 10
210.1313364587532
 20
-90.59327674866159
 30
0.0
 10
210.5125206660728
 20
-90.38725606013443
 30
0.0
 10
210.5439585851017
 20
-90.37001980345321
 30
0.0
 10
210.557560348406
 20
-90.36256245605635
 30
0.0
  0
LINE
  5
15E
330
1F
100
AcDbEntity
  8
0
  6
Continuous
 62
     7
370
    25
100
AcDbLine
 10
210.5687505661
 20
-80.3564743491
 30
0.0
 11
191.4687505661
 21
-80.3564743491
 31
0.0
  0
LINE
  5
15F
330
1F
100
AcDbEntity
  8
0
  6
Continuous
 62
     7
370
    25
100
AcDbLine
 10
202.0397794589
 20
-93.15647434909999
 30
0.0
 11
199.9977216733
 21
-93.15647434909999
 31
0.0
  0
DIMENSION
  5
160
102
{ACAD_XDICTIONARY
360
236
102
}
330
1F
100
AcDbEntity
  8
DIMENSION
100
AcDbDimension
280
     0
  2
*D14
 10
191.3498245044
 20
99.8435233258
 30
0.0
 11
171.4651793052
 21
99.8435233258
 31
0.0
 70
   160
  1
%%c<>
 71
     2
 42
19.05000000000001
 73
     0
 74
     0
 75
     0
  3
RG Dimension Lines
100
AcDbAlignedDimension
 13
210.3998245044
 23
3.2435256505
 33
0.0
 14
191.3498245044
 24
3.2435256512
 34
0.0
 50
-0.0000000023
100
AcDbRotatedDimension
1001
AcadAnnotative
1000
AnnotativeData
1002
{
1070
     1
1070
     1
1002
}
  0
DIMENSION
  5
16A
102
{ACAD_XDICTIONARY
360
260
102
}
330
1F
100
AcDbEntity
  8
DIMENSION
100
AcDbDimension
280
     0
  2
*D17
 10
178.5187505661
 20
-200.3564743491
 30
0.0
 11
198.2410571273
 21
-200.3564743491
 31
0.0
 70
   160
  1
%%c<>
 71
     2
 42
45.0
 73
     0
 74
     0
 75
     0
  3
RG Dimension Lines
100
AcDbAlignedDimension
 13
223.5187505661
 23
-172.3564743491
 33
0.0
 14
178.5187505661
 24
-172.3564743491
 34
0.0
100
AcDbRotatedDimension
1001
AcadAnnotative
1000
AnnotativeData
1002
{
1070
     1
1070
     1
1002
}
  0
DIMENSION
  5
173
102
{ACAD_XDICTIONARY
360
244
102
}
330
1F
100
AcDbEntity
  8
DIMENSION
100
AcDbDimension
280
     0
  2
*D15
 10
288.5012166409076
 20
-125.2551840589763
 30
0.0
 11
288.5219440425
 21
-94.92376402339999
 31
0.0
 70
   160
  1
<>
 71
     2
 42
65.49995377002509
 73
     0
 74
     0
 75
     0
  3
RG Dimension Lines
100
AcDbAlignedDimension
 13
257.2533283187
 23
-59.7338613121
 33
0.0
 14
264.2066479802
 24
-125.2385820245
 34
0.0
 50
89.960846131
100
AcDbRotatedDimension
1001
AcadAnnotative
1000
AnnotativeData
1002
{
1070
     1
1070
     1
1002
}
  0
DIMENSION
  5
17B
102
{ACAD_XDICTIONARY
360
252
102
}
330
1F
100
AcDbEntity
  8
DIMENSION
100
AcDbDimension
280
     0
  2
*D16
 10
148.0187505661
 20
-172.3564743491
 30
0.0
 11
148.0187505661
 21
-128.8276665433
 31
0.0
 70
   160
  1
<>
 71
     2
 42
82.00000000000001
 73
     0
 74
     0
 75
     0
  3
RG Dimension Lines
100
AcDbAlignedDimension
 13
164.2187505661
 23
-90.3564743491
 33
0.0
 14
178.5187505661
 24
-172.3564743491
 34
0.0
 50
90.0
100
AcDbRotatedDimension
1001
AcadAnnotative
1000
AnnotativeData
1002
{
1070
     1
1070
     1
1002
}
  0
LINE
  5
183
330
1F
100
AcDbEntity
  8
0
  6
Continuous
 62
     7
370
    25
100
AcDbLine
 10
-70.83095893390001
 20
179.9772522953
 30
0.0
 11
-70.83095893390001
 21
207.2578717991
 31
0.0
  0
LINE
  5
184
330
1F
100
AcDbEntity
  8
0
  6
Continuous
 62
     7
370
    25
100
AcDbLine
 10
-70.83095893390001
 20
226.2578834435
 30
0.0
 11
-70.83095893390001
 21
249.7912522953
 31
0.0
  0
LINE
  5
185
330
1F
100
AcDbEntity
  8
0
  6
Continuous
 62
     7
370
    25
100
AcDbLine
 10
-105.8309589339
 20
249.7912522953
 30
0.0
 11
-105.8309589339
 21
179.9772522953
 31
0.0
  0
LINE
  5
186
330
1F
100
AcDbEntity
  8
0
  6
Continuous
 62
     7
370
    25
100
AcDbLine
 10
-70.83095893390001
 20
249.7912522953
 30
0.0
 11
-71.03095893390001
 21
249.9912522953
 31
0.0
  0
LINE
  5
187
330
1F
100
AcDbEntity
  8
0
  6
Continuous
 62
     7
370
    25
100
AcDbLine
 10
-105.6309589339
 20
249.9912522953
 30
0.0
 11
-105.8309589339
 21
249.7912522953
 31
0.0
  0
LINE
  5
188
330
1F
100
AcDbEntity
  8
0
  6
Continuous
 62
     7
370
    25
100
AcDbLine
 10
-105.8309589339
 20
179.9772522953
 30
0.0
 11
-105.6309589339
 21
179.7772522952999
 31
0.0
  0
LINE
  5
189
330
1F
100
AcDbEntity
  8
0
  6
Continuous
 62
     7
370
    25
100
AcDbLine
 10
-71.03095893390001
 20
179.7772522952999
 30
0.0
 11
-70.83095893390001
 21
179.9772522953
 31
0.0
  0
ARC
  5
18A
330
1F
100
AcDbEntity
  8
0
  6
Continuous
 62
     7
370
    25
100
AcDbCircle
 10
-85.6807040139
 20
247.0050348578
 30
0.0
 40
15.0
100
AcDbArc
 50
11.4832330672
 51
40.601941668
  0
ARC
  5
18B
330
1F
100
AcDbEntity
  8
0
  6
Continuous
 62
     7
370
    25
100
AcDbCircle
 10
-90.98121385399998
 20
247.0050348578
 30
0.0
 40
15.00000000000001
100
AcDbArc
 50
137.1643467735
 51
168.5167669328
  0
LINE
  5
18C
330
1F
100
AcDbEntity
  8
0
  6
Continuous
 62
     7
370
    25
100
AcDbLine
 10
-89.48076138370002
 20
270.181359786
 30
0.0
 11
-89.43843589209999
 21
270.1598502876
 31
0.0
  0
LINE
  5
18D
330
1F
100
AcDbEntity
  8
0
  6
Continuous
 62
     7
370
    25
100
AcDbLine
 10
-86.561588245
 20
275.8207908116
 30
0.0
 11
-86.60391373649998
 21
275.8423003099
 31
0.0
  0
LINE
  5
18E
330
1F
100
AcDbEntity
  8
0
  6
Continuous
 62
     7
370
    25
100
AcDbLine
 10
-105.4345431115
 20
275.7295378718
 30
0.0
 11
-105.7256346909
 21
257.2556809933
 31
0.0
  0
LINE
  5
18F
330
1F
100
AcDbEntity
  8
0
  6
Continuous
 62
     7
370
    25
100
AcDbLine
 10
-105.3632699812
 20
280.2528209207
 30
0.0
 11
-105.3832522823
 21
278.9846627341999
 31
0.0
  0
LINE
  5
190
330
1F
100
AcDbEntity
  8
0
  6
Continuous
 62
     7
370
    25
100
AcDbLine
 10
-70.729978806
 20
256.7042563064
 30
0.0
 11
-70.3676140963
 21
279.7013962339
 31
0.0
  0
LINE
  5
191
330
1F
100
AcDbEntity
  8
0
  6
Continuous
 62
     7
370
    25
100
AcDbLine
 10
-105.4354101917
 20
278.9846627341999
 30
0.0
 11
-105.4354101917
 21
275.6804101902
 31
0.0
  0
LINE
  5
192
330
1F
100
AcDbEntity
  8
0
  6
Continuous
 62
     7
370
    25
100
AcDbLine
 10
41.6795066703
 20
226.1583203963
 30
0.0
 11
41.67950575459999
 21
226.1583203973
 31
0.0
  0
LINE
  5
193
330
1F
100
AcDbEntity
  8
0
  6
Continuous
 62
     7
370
    25
100
AcDbLine
 10
41.65841704069999
 20
207.1083320701
 30
0.0
 11
41.6584179565
 21
207.1083320691
 31
0.0
  0
LINE
  5
194
330
1F
100
AcDbEntity
  8
0
  6
Continuous
 62
     7
370
    25
100
AcDbLine
 10
-88.3414766077
 20
207.2772581175
 30
0.0
 11
41.6584437204
 21
207.1333320559
 31
0.0
  0
LINE
  5
195
330
1F
100
AcDbEntity
  8
0
  6
Continuous
 62
     7
370
    25
100
AcDbLine
 10
41.6794790678
 20
226.1333204115
 30
0.0
 11
-88.32044126019999
 21
226.2772464731
 31
0.0
  0
LINE
  5
196
330
1F
100
AcDbEntity
  8
0
  6
Continuous
 62
     7
370
    25
100
AcDbLine
 10
-70.83095893390001
 20
249.7912522953
 30
0.0
 11
-105.8309589339
 21
249.7912522953
 31
0.0
  0
LINE
  5
197
330
1F
100
AcDbEntity
  8
0
  6
Continuous
 62
     7
370
    25
100
AcDbLine
 10
-105.8309589339
 20
179.9772522953
 30
0.0
 11
-70.83095893390001
 21
179.9772522953
 31
0.0
  0
LINE
  5
198
330
1F
100
AcDbEntity
  8
0
  6
Continuous
 62
     7
370
    25
100
AcDbLine
 10
-71.03095893390001
 20
179.7772522952999
 30
0.0
 11
-105.6309589339
 21
179.7772522952999
 31
0.0
  0
LINE
  5
199
330
1F
100
AcDbEntity
  8
0
  6
Continuous
 62
     7
370
    25
100
AcDbLine
 10
-70.9809589339
 20
249.9912522953
 30
0.0
 11
-105.6809589339
 21
249.9912522953
 31
0.0
  0
ARC
  5
19A
330
1F
100
AcDbEntity
  8
0
  6
Continuous
 62
     7
370
    25
100
AcDbCircle
 10
-88.00001498510001
 20
272.9903217986
 30
0.0
 40
3.175000207917363
100
AcDbArc
 50
286.473478607
 51
63.0606059788
  0
ARC
  5
19B
330
1F
100
AcDbEntity
  8
0
  6
Continuous
 62
     7
370
    25
100
AcDbCircle
 10
-88.00001500719998
 20
272.9903153935
 30
0.0
 40
3.174994072035163
100
AcDbArc
 50
243.0606682336001
 51
286.4735117663
  0
CIRCLE
  5
19C
330
1F
100
AcDbEntity
  8
0
  6
Continuous
 62
     7
370
    25
100
AcDbCircle
 10
-88.0423409908
 20
273.0118285424
 30
0.0
 40
3.174997712211477
  0
SPLINE
  5
19D
330
1F
100
AcDbEntity
  8
0
  6
Continuous
 62
     7
370
    25
100
AcDbSpline
210
0.0
220
0.0
230
1.0
 70
     8
 71
     3
 72
    10
 73
     6
 74
     0
 42
0.00000001
 43
0.0000000001
 40
0.0
 40
0.0
 40
0.0
 40
0.0
 40
0.5659279922547476
 40
0.9214769074501031
 40
1.0
 40
1.0
 40
1.0
 40
1.0
 10
-104.6950068815981
 20
278.9846627341601
 30
0.0
 10
-104.9068092992818
 20
278.2747909742307
 30
0.0
 10
-105.2516783276895
 20
277.1189364433041
 30
0.0
 10
-105.4478668805877
 20
276.0988945249538
 30
0.0
 10
-105.4201188592704
 20
275.7858595692416
 30
0.0
 10
-105.4150992763277
 20
275.7292319306007
 30
0.0
  0
LWPOLYLINE
  5
19E
330
1F
100
AcDbEntity
  8
0
  6
Continuous
 62
     7
370
    25
100
AcDbPolyline
 90
       30
 70
   128
 43
0.0
 10
-70.3676140963
 20
279.7013962339
 10
-70.3676309479
 20
279.7014132258
 10
-70.48037258189999
 20
279.7045285516
 10
-70.81174155140001
 20
279.7110717294
 10
-71.3575706992
 20
279.7209604749
 10
-72.11099590729999
 20
279.7340704314
 10
-73.06254241640001
 20
279.7502367336
 10
-74.2002439771
 20
279.7692560809
 10
-75.5097933322
 20
279.790889294
 10
-76.9747221387
 20
279.8148643225
 10
-78.57660806680001
 20
279.8408796667
 10
-80.2953064717
 20
279.8686081685
 10
-82.10920372359998
 20
279.8977011259
 10
-83.99548901219999
 20
279.9277926781
 10
-85.93044120540001
 20
279.9585044063
 10
-87.8897271569
 20
279.9894500927
 10
-89.84870770889999
 20
280.0202405775
 10
-91.78274754440002
 20
280.0504886523
 10
-93.66752499030001
 20
280.0798139301
 10
-95.47933787659999
 20
280.1078476285
 10
-97.1954016051
 20
280.1342372074
 10
-98.79413567870001
 20
280.1586508027
 10
-100.2554350888
 20
280.1807813991
 10
-101.5609231474
 20
280.2003506917
 10
-102.6941825848
 20
280.2171125851
 10
-103.640962006
 20
280.2308562889
 10
-104.3893551104
 20
280.241408968
 10
-104.9299504205
 20
280.2486379163
 10
-105.2559496367
 20
280.2524522256
 10
-105.3632531297
 20
280.2528039288
  0
LWPOLYLINE
  5
19F
330
1F
100
AcDbEntity
  8
0
  6
Continuous
 62
     7
370
    25
100
AcDbPolyline
 90
        7
 70
   128
 43
0.0
 10
-105.7256178393
 20
257.2556640013
 10
-105.6128762053
 20
257.2525486755
 10
-105.2815072358
 20
257.2460054977
 10
-104.735678088
 20
257.2361167522
 10
-103.9822528799
 20
257.2230067957
 10
-103.0307063708
 20
257.2068404935
 10
-101.9937861771
 20
257.1894961017
  0
LWPOLYLINE
  5
1A0
330
1F
100
AcDbEntity
  8
0
  6
Continuous
 62
     7
370
    25
100
AcDbPolyline
 90
       36
 70
   128
 43
0.0
 10
-74.2799265629
 20
256.7529717427
 10
-73.39906620239999
 20
256.739964642
 10
-72.4522867812
 20
256.7262209382
 10
-71.70389367680001
 20
256.7156682592
 10
-71.16329836670001
 20
256.7084393109
 10
-70.8372991505
 20
256.7046250015
 10
-70.72999565749999
 20
256.7042732983
 10
-70.8427372915
 20
256.7073886241
 10
-71.174106261
 20
256.7139318019
 10
-71.71993540889999
 20
256.7238205475
 10
-72.47336061689999
 20
256.7369305040001
 10
-73.4249071261
 20
256.7530968062
 10
-74.56260868680001
 20
256.7721161535
 10
-75.87215804180001
 20
256.7937493665001
 10
-77.3370868483
 20
256.8177243951
 10
-78.9389727764
 20
256.8437397393
 10
-80.65767118130001
 20
256.8714682411
 10
-82.47156843319999
 20
256.9005611985
 10
-84.35785372179999
 20
256.9306527506
 10
-86.29280591510001
 20
256.9613644788
 10
-88.25209186649999
 20
256.9923101653
 10
-90.21107241850002
 20
257.02310065
 10
-92.145112254
 20
257.0533487248
 10
-94.0298896999
 20
257.0826740025999
 10
-95.84170258629999
 20
257.110707701
 10
-97.55776631479999
 20
257.13709728
 10
-99.15650038830001
 20
257.1615108752
 10
-100.6177997984
 20
257.1836414717
 10
-101.923287857
 20
257.2032107642
 10
-103.0565472944
 20
257.2199726577
 10
-104.0033267156
 20
257.2337163614
 10
-104.75171982
 20
257.2442690405
 10
-105.2923151302
 20
257.2514979888
 10
-105.6183143464
 20
257.2553122982
 10
-105.7256178393
 20
257.2556640013
 10
-105.7256178393
 20
257.2556640013
  0
SPLINE
  5
1A1
330
1F
100
AcDbEntity
  8
0
  6
Continuous
 62
     7
370
    25
100
AcDbSpline
210
0.0
220
0.0
230
1.0
 70
     8
 71
     3
 72
    17
 73
    13
 74
     0
 42
0.00000001
 43
0.0000000001
 40
0.0
 40
0.0
 40
0.0
 40
0.0
 40
0.1013271531644802
 40
0.2089903464660724
 40
0.3168116810592038
 40
0.4230355942658339
 40
0.5284173779902498
 40
0.6350034270949506
 40
0.7429730326500796
 40
0.8503669123182032
 40
0.9561529418000024
 40
1.0
 40
1.0
 40
1.0
 40
1.0
 10
-86.53201862460994
 20
275.8813409418942
 30
0.0
 10
-86.23776645511332
 20
275.6995210632838
 30
0.0
 10
-85.6308623733253
 20
275.3245120135031
 30
0.0
 10
-85.01245246848183
 20
274.4125629334299
 30
0.0
 10
-84.70608598688832
 20
273.3480144922015
 30
0.0
 10
-84.77441864533696
 20
272.2431317548395
 30
0.0
 10
-85.19624494004906
 20
271.2296730356079
 30
0.0
 10
-85.92726772705502
 20
270.4076427694559
 30
0.0
 10
-86.89936165925557
 20
269.8631609493875
 30
0.0
 10
-87.98642076813242
 20
269.6907219376008
 30
0.0
 10
-88.8875261078226
 20
269.7924526423817
 30
0.0
 10
-89.32380322224577
 20
270.0542499461779
 30
0.0
 10
-89.4516457223492
 20
270.1309645404833
 30
0.0
  0
LWPOLYLINE
  5
1A2
330
1F
100
AcDbEntity
  8
0
  6
Continuous
 62
     7
370
    25
100
AcDbPolyline
 90
        7
 70
   128
 43
0.0
 10
-71.22993311729999
 20
256.7121503084
 10
-71.3380405554
 20
256.7125293875
 10
-71.6663319254
 20
256.7163949464
 10
-72.21052744729999
 20
256.7236965916
 10
-72.9635327001
 20
256.7343391351
 10
-73.9155311088
 20
256.7481838348
 10
-74.2804298624
 20
256.75356035
  0
LWPOLYLINE
  5
1A3
330
1F
100
AcDbEntity
  8
0
  6
Continuous
 62
     7
370
    25
100
AcDbPolyline
 90
       35
 70
   128
 43
0.0
 10
-101.9932693939
 20
257.1900548767
 10
-103.017037934
 20
257.2072750828
 10
-103.8757668314
 20
257.2219955382
 10
-104.5305006386
 20
257.233560803
 10
-104.9727038991
 20
257.2418201063
 10
-105.1966118173
 20
257.2466657752999
 10
-105.199305411
 20
257.2480346395
 10
-104.9807495651
 20
257.2459088535
 10
-104.5437934892
 20
257.2403161303
 10
-103.8941335741
 20
257.2313293796
 10
-103.0402391302
 20
257.2190657573
 10
-101.9932419775
 20
257.2036851385
 10
-100.7667913251
 20
257.1853880332
 10
-99.37687583290001
 20
257.1644129721
 10
-97.84161517480001
 20
257.1410333972
 10
-96.18102382149999
 20
257.115554097
 10
-94.4167501207
 20
257.0883072331
 10
-92.57179407829999
 20
257.0596480101
 10
-90.67020751780001
 20
257.0299500448
 10
-88.73678052809999
 20
256.9996004956
 10
-86.7967182868
 20
256.9689950152
 10
-84.87531247220001
 20
256.938532593
 10
-82.9976115474
 20
256.9086103531
 10
-81.18809421559999
 20
256.8796183777
 10
-79.4703503026
 20
256.8519346216
 10
-77.8667732271
 20
256.8259199849
 10
-76.39826806870001
 20
256.8019136081
 10
-75.08397903799999
 20
256.7802284511
 10
-73.94103990239999
 20
256.761147213
 10
-72.9843506214
 20
256.744918647
 10
-72.2263831029
 20
256.7317543173
 10
-71.67701861260001
 20
256.7218258409
 10
-71.34341895680001
 20
256.7152626509
 10
-71.22993311729999
 20
256.7121503084
 10
-71.22993311729999
 20
256.7121503084
  0
LINE
  5
1A4
330
1F
100
AcDbEntity
  8
0
  6
Continuous
 62
     7
370
    25
100
AcDbLine
 10
-104.6950068816
 20
278.9846627341999
 30
0.0
 11
-105.4354101917
 21
278.9846627341999
 31
0.0
  0
ARC
  5
1A5
330
1F
100
AcDbEntity
  8
0
  6
Continuous
 62
     7
370
    25
100
AcDbCircle
 10
41.6689613977
 20
216.6333262337
 30
0.0
 40
9.525000000000002
100
AcDbArc
 50
265.7844437873
 51
94.0886891731
  0
ARC
  5
1A6
330
1F
100
AcDbEntity
  8
0
  6
Continuous
 62
     7
370
    25
100
AcDbCircle
 10
41.6689613941
 20
216.6333262337
 30
0.0
 40
9.499999999999996
100
AcDbArc
 50
269.9365664802
 51
89.93656648019999
  0
ARC
  5
1A7
330
1F
100
AcDbEntity
  8
0
  6
Continuous
 62
     7
370
    25
100
AcDbCircle
 10
-88.3309589339
 20
216.7772522953
 30
0.0
 40
9.500000000000023
100
AcDbArc
 50
89.93656648019999
 51
269.9365664802
  0
ARC
  5
1A8
330
1F
100
AcDbEntity
  8
0
  6
Continuous
 62
     7
370
    25
100
AcDbCircle
 10
-88.3309589339
 20
216.7772522953
 30
0.0
 40
22.50000000000002
100
AcDbArc
 50
24.9115318478
 51
38.942441269
  0
ARC
  5
1A9
330
1F
100
AcDbEntity
  8
0
  6
Continuous
 62
     7
370
    25
100
AcDbCircle
 10
-88.3309589339
 20
216.7772522953
 30
0.0
 40
22.49999999999999
100
AcDbArc
 50
321.057558731
 51
334.9616011125
  0
ARC
  5
1AA
330
1F
100
AcDbEntity
  8
0
  6
Continuous
 62
     7
370
    25
100
AcDbCircle
 10
-88.3309589339
 20
216.7772522953
 30
0.0
 40
22.50000000000002
100
AcDbArc
 50
141.057558731
 51
218.942441269
  0
ARC
  5
1AB
330
1F
100
AcDbEntity
  8
0
  6
Continuous
 62
     7
370
    25
100
AcDbCircle
 10
-88.3309589339
 20
216.7772522953
 30
0.0
 40
9.55
100
AcDbArc
 50
84.07099121999999
 51
275.8021417403
  0
DIMENSION
  5
1AC
102
{ACAD_XDICTIONARY
360
2A6
102
}
330
1F
100
AcDbEntity
  8
DIMENSION
100
AcDbDimension
280
     0
  2
*D22
 10
-151.0499841893568
 20
180.2692203739331
 30
0.0
 11
-150.8308431838
 21
227.3439222604
 31
0.0
 70
   160
  1
<>
 71
     2
 42
100.0009398075852
 73
     0
 74
     0
 75
     0
  3
RG Dimension Lines
100
AcDbAlignedDimension
 13
-87.8654420388
 23
279.9771085773
 33
0.0
 14
-88.3309589339
 24
179.9772522953
 34
0.0
 50
89.73328000950001
100
AcDbRotatedDimension
1001
AcadAnnotative
1000
AnnotativeData
1002
{
1070
     1
1070
     1
1002
}
  0
DIMENSION
  5
1B4
102
{ACAD_XDICTIONARY
360
298
102
}
330
1F
100
AcDbEntity
  8
DIMENSION
100
AcDbDimension
280
     0
  2
*D21
 10
-70.3676140963
 20
302.2530800248
 30
0.0
 11
-89.0852139497
 21
302.2530800248
 31
0.0
 70
   160
  1
<>
 71
     2
 42
34.9956558849
 73
     0
 74
     0
 75
     0
  3
RG Dimension Lines
100
AcDbAlignedDimension
 13
-105.3632699812
 23
280.2528209207
 33
0.0
 14
-70.3676140963
 24
279.7013962339
 34
0.0
100
AcDbRotatedDimension
1001
AcadAnnotative
1000
AnnotativeData
1002
{
1070
     1
1070
     1
1002
}
  0
ENDSEC
  0
SECTION
  2
OBJECTS
  0
DICTIONARY
  5
C
330
0
100
AcDbDictionary
281
     1
  3
ACAD_CIP_PREVIOUS_PRODUCT_INFO
350
1FC
  3
ACAD_COLOR
350
1F1
  3
ACAD_DETAILVIEWSTYLE
350
1F8
  3
ACAD_GROUP
350
D
  3
ACAD_LAYOUT
350
1A
  3
ACAD_MATERIAL
350
1BF
  3
ACAD_MLEADERSTYLE
350
1F4
  3
ACAD_MLINESTYLE
350
17
  3
ACAD_PLOTSETTINGS
350
19
  3
ACAD_PLOTSTYLENAME
350
E
  3
ACAD_SCALELIST
350
47
  3
ACAD_SECTIONVIEWSTYLE
350
1F6
  3
ACAD_TABLESTYLE
350
1F2
  3
ACAD_VISUALSTYLE
350
1D8
  3
ACDB_RECOMPOSE_DATA
350
2C6
  3
AcDbVariableDictionary
350
2BA
  0
DICTIONARY
  5
210
330
2
100
AcDbDictionary
280
     1
281
     1
  3
ACAD_LAYERSTATES
360
211
  0
DICTIONARY
  5
2AA
330
10
100
AcDbDictionary
280
     1
281
     1
  3
ADSK_XREC_LAYER_RECONCILED
360
2AB
  0
DICTIONARY
  5
2AC
330
73
100
AcDbDictionary
280
     1
281
     1
  3
ADSK_XREC_LAYER_RECONCILED
360
2AD
  0
DICTIONARY
  5
2AE
330
208
100
AcDbDictionary
280
     1
281
     1
  3
ADSK_XREC_LAYER_RECONCILED
360
2AF
  0
DICTIONARY
  5
26E
330
96
100
AcDbDictionary
280
     1
281
     1
  3
AcDbContextDataManager
360
26F
  0
DICTIONARY
  5
28A
330
A3
100
AcDbDictionary
280
     1
281
     1
  3
AcDbContextDataManager
360
28B
  0
DICTIONARY
  5
27C
330
AB
100
AcDbDictionary
280
     1
281
     1
  3
AcDbContextDataManager
360
27D
  0
DICTIONARY
  5
236
330
160
100
AcDbDictionary
280
     1
281
     1
  3
AcDbContextDataManager
360
237
  0
DICTIONARY
  5
260
330
16A
100
AcDbDictionary
280
     1
281
     1
  3
AcDbContextDataManager
360
261
  0
DICTIONARY
  5
244
330
173
100
AcDbDictionary
280
     1
281
     1
  3
AcDbContextDataManager
360
245
  0
DICTIONARY
  5
252
330
17B
100
AcDbDictionary
280
     1
281
     1
  3
AcDbContextDataManager
360
253
  0
DICTIONARY
  5
2A6
330
1AC
100
AcDbDictionary
280
     1
281
     1
  3
AcDbContextDataManager
360
2A7
  0
DICTIONARY
  5
298
330
1B4
100
AcDbDictionary
280
     1
281
     1
  3
AcDbContextDataManager
360
299
  0
XRECORD
  5
1FC
102
{ACAD_REACTORS
330
C
102
}
330
C
100
AcDbXrecord
280
     1
300
ACD
300
2021
300

  0
DICTIONARY
  5
1F1
102
{ACAD_REACTORS
330
C
102
}
330
C
100
AcDbDictionary
281
     1
  0
DICTIONARY
  5
1F8
102
{ACAD_REACTORS
330
C
102
}
330
C
100
AcDbDictionary
281
     1
  3
Metric50
350
1F9
  0
DICTIONARY
  5
D
102
{ACAD_REACTORS
330
C
102
}
330
C
100
AcDbDictionary
281
     1
  0
DICTIONARY
  5
1A
102
{ACAD_REACTORS
330
C
102
}
330
C
100
AcDbDictionary
281
     1
  3
Layout1
350
1E
  3
Layout2
350
26
  3
Model
350
22
  0
DICTIONARY
  5
1BF
102
{ACAD_REACTORS
330
C
102
}
330
C
100
AcDbDictionary
281
     1
  3
ByBlock
350
1C8
  3
ByLayer
350
1C0
  3
Global
350
1D0
  0
DICTIONARY
  5
1F4
102
{ACAD_REACTORS
330
C
102
}
330
C
100
AcDbDictionary
281
     1
  3
Standard
350
1F5
  0
DICTIONARY
  5
17
102
{ACAD_REACTORS
330
C
102
}
330
C
100
AcDbDictionary
281
     1
  3
Standard
350
18
  0
DICTIONARY
  5
19
102
{ACAD_REACTORS
330
C
102
}
330
C
100
AcDbDictionary
281
     1
  0
ACDBDICTIONARYWDFLT
  5
E
102
{ACAD_REACTORS
330
C
102
}
330
C
100
AcDbDictionary
281
     1
  3
Normal
350
F
100
AcDbDictionaryWithDefault
340
F
  0
DICTIONARY
  5
47
102
{ACAD_REACTORS
330
C
102
}
330
C
100
AcDbDictionary
281
     1
  3
A0
350
48
  3
A1
350
49
  3
A2
350
4A
  3
A3
350
4B
  3
A4
350
4C
  3
A5
350
4D
  3
A6
350
4E
  3
A7
350
4F
  3
A8
350
50
  3
A9
350
51
  3
B0
350
52
  3
B1
350
53
  3
B2
350
54
  3
B3
350
55
  3
B4
350
56
  3
B5
350
57
  3
B6
350
58
  3
B7
350
59
  3
B8
350
5A
  3
B9
350
5B
  3
C0
350
5C
  3
C1
350
5D
  3
C2
350
5E
  3
C3
350
5F
  3
C4
350
60
  3
C5
350
61
  3
C6
350
62
  3
C7
350
63
  3
C8
350
64
  3
C9
350
65
  3
D0
350
66
  3
D1
350
67
  3
D2
350
68
  0
DICTIONARY
  5
1F6
102
{ACAD_REACTORS
330
C
102
}
330
C
100
AcDbDictionary
281
     1
  3
Metric50
350
1F7
  0
DICTIONARY
  5
1F2
102
{ACAD_REACTORS
330
C
102
}
330
C
100
AcDbDictionary
281
     1
  3
Standard
350
1F3
  0
DICTIONARY
  5
1D8
102
{ACAD_REACTORS
330
C
102
}
330
C
100
AcDbDictionary
281
     1
  3
2dWireframe
350
1DE
  3
Basic
350
1DD
  3
Brighten
350
1E4
  3
ColorChange
350
1E8
  3
Conceptual
350
1E1
  3
Dim
350
1E3
  3
EdgeColorOff
350
1F0
  3
Facepattern
350
1E7
  3
Flat
350
1D9
  3
FlatWithEdges
350
1DA
  3
Gouraud
350
1DB
  3
GouraudWithEdges
350
1DC
  3
Hidden
350
1E0
  3
JitterOff
350
1EE
  3
Linepattern
350
1E6
  3
OverhangOff
350
1EF
  3
Realistic
350
1E2
  3
Shaded
350
1ED
  3
Shaded with edges
350
1EC
  3
Shades of Gray
350
1E9
  3
Sketchy
350
1EA
  3
Thicken
350
1E5
  3
Wireframe
350
1DF
  3
X-Ray
350
1EB
  0
XRECORD
  5
2C6
102
{ACAD_REACTORS
330
C
102
}
330
C
100
AcDbXrecord
280
     1
 90
        1
330
1F3
  0
DICTIONARY
  5
2BA
102
{ACAD_REACTORS
330
C
102
}
330
C
100
AcDbDictionary
281
     1
  3
CANNOSCALE
350
2C0
  3
CMLEADERSTYLE
350
2BC
  3
CTABLESTYLE
350
2BB
  3
CVIEWDETAILSTYLE
350
2BD
  3
CVIEWSECTIONSTYLE
350
2BE
  3
LAYEREVAL
350
2C2
  3
LAYERNOTIFY
350
2C3
  3
LIGHTINGUNITS
350
2C1
  3
MSLTSCALE
350
2BF
  0
DICTIONARY
  5
211
102
{ACAD_REACTORS
330
210
102
}
330
210
100
AcDbDictionary
281
     1
  0
XRECORD
  5
2AB
102
{ACAD_REACTORS
330
2AA
102
}
330
2AA
100
AcDbXrecord
280
     1
290
     1
  0
XRECORD
  5
2AD
102
{ACAD_REACTORS
330
2AC
102
}
330
2AC
100
AcDbXrecord
280
     1
290
     1
  0
XRECORD
  5
2AF
102
{ACAD_REACTORS
330
2AE
102
}
330
2AE
100
AcDbXrecord
280
     1
290
     1
  0
DICTIONARY
  5
26F
102
{ACAD_REACTORS
330
26E
102
}
330
26E
100
AcDbDictionary
281
     1
  3
ACDB_ANNOTATIONSCALES
350
270
  0
DICTIONARY
  5
28B
102
{ACAD_REACTORS
330
28A
102
}
330
28A
100
AcDbDictionary
281
     1
  3
ACDB_ANNOTATIONSCALES
350
28C
  0
DICTIONARY
  5
27D
102
{ACAD_REACTORS
330
27C
102
}
330
27C
100
AcDbDictionary
281
     1
  3
ACDB_ANNOTATIONSCALES
350
27E
  0
DICTIONARY
  5
237
102
{ACAD_REACTORS
330
236
102
}
330
236
100
AcDbDictionary
281
     1
  3
ACDB_ANNOTATIONSCALES
350
238
  0
DICTIONARY
  5
261
102
{ACAD_REACTORS
330
260
102
}
330
260
100
AcDbDictionary
281
     1
  3
ACDB_ANNOTATIONSCALES
350
262
  0
DICTIONARY
  5
245
102
{ACAD_REACTORS
330
244
102
}
330
244
100
AcDbDictionary
281
     1
  3
ACDB_ANNOTATIONSCALES
350
246
  0
DICTIONARY
  5
253
102
{ACAD_REACTORS
330
252
102
}
330
252
100
AcDbDictionary
281
     1
  3
ACDB_ANNOTATIONSCALES
350
254
  0
DICTIONARY
  5
2A7
102
{ACAD_REACTORS
330
2A6
102
}
330
2A6
100
AcDbDictionary
281
     1
  3
ACDB_ANNOTATIONSCALES
350
2A8
  0
DICTIONARY
  5
299
102
{ACAD_REACTORS
330
298
102
}
330
298
100
AcDbDictionary
281
     1
  3
ACDB_ANNOTATIONSCALES
350
29A
  0
ACDBDETAILVIEWSTYLE
  5
1F9
102
{ACAD_REACTORS
330
1F8
102
}
330
1F8
100
AcDbModelDocViewStyle
 70
     0
  3
Metric50
290
     0
300
Metric50
 90
        0
100
AcDbDetailViewStyle
 70
     0
 71
     0
 90
        3
 71
     1
340
11
 62
   256
 40
5.0
340
0
 62
   256
 40
5.0
300

 40
0.0
280
     1
 71
     2
340
16
 90
       25
 62
   256
 71
     3
340
11
 62
   256
 40
5.0
 90
        0
 40
15.0
 90
        1
300
%<\AcVar ViewDetailId>% (%<\AcVar ViewScale \f "%sn">%)
 71
     4
340
16
 90
       25
 62
   256
340
16
 90
       25
 62
   256
280
     0
  0
LAYOUT
  5
1E
102
{ACAD_REACTORS
330
1A
102
}
330
1A
100
AcDbPlotSettings
  1

  2
none_device
  4

  6

 40
0.0
 41
0.0
 42
0.0
 43
0.0
 44
0.0
 45
0.0
 46
0.0
 47
0.0
 48
0.0
 49
0.0
140
0.0
141
0.0
142
1.0
143
1.0
 70
   688
 72
     1
 73
     0
 74
     5
  7

 75
    16
147
1.0
 76
     0
 77
     2
 78
   300
148
0.0
149
0.0
100
AcDbLayout
  1
Layout1
 70
     1
 71
     1
 10
0.0
 20
0.0
 11
420.0
 21
297.0
 12
0.0
 22
0.0
 32
0.0
 14
1.000000000000000E+20
 24
1.000000000000000E+20
 34
1.000000000000000E+20
 15
-1.000000000000000E+20
 25
-1.000000000000000E+20
 35
-1.000000000000000E+20
146
0.0
 13
0.0
 23
0.0
 33
0.0
 16
1.0
 26
0.0
 36
0.0
 17
0.0
 27
1.0
 37
0.0
 76
     0
330
1B
  0
LAYOUT
  5
26
102
{ACAD_REACTORS
330
1A
102
}
330
1A
100
AcDbPlotSettings
  1

  2
none_device
  4

  6

 40
0.0
 41
0.0
 42
0.0
 43
0.0
 44
0.0
 45
0.0
 46
0.0
 47
0.0
 48
0.0
 49
0.0
140
0.0
141
0.0
142
1.0
143
1.0
 70
   688
 72
     1
 73
     0
 74
     5
  7

 75
    16
147
1.0
 76
     0
 77
     2
 78
   300
148
0.0
149
0.0
100
AcDbLayout
  1
Layout2
 70
     1
 71
     2
 10
0.0
 20
0.0
 11
0.0
 21
0.0
 12
0.0
 22
0.0
 32
0.0
 14
0.0
 24
0.0
 34
0.0
 15
0.0
 25
0.0
 35
0.0
146
0.0
 13
0.0
 23
0.0
 33
0.0
 16
1.0
 26
0.0
 36
0.0
 17
0.0
 27
1.0
 37
0.0
 76
     0
330
23
  0
LAYOUT
  5
22
102
{ACAD_REACTORS
330
1A
102
}
330
1A
100
AcDbPlotSettings
  1

  2
none_device
  4
Letter_(8.50_x_11.00_Inches)
  6

 40
6.349999999999999
 41
6.349999999999999
 42
6.350005079999999
 43
6.350005079999999
 44
215.9
 45
279.4
 46
0.0
 47
0.0
 48
0.0
 49
0.0
140
0.0
141
0.0
142
1.0
143
1.0
 70
  1712
 72
     1
 73
     0
 74
     0
  7

 75
     0
147
1.0
 76
     0
 77
     2
 78
   300
148
0.0
149
0.0
100
AcDbLayout
  1
Model
 70
     1
 71
     0
 10
0.0
 20
0.0
 11
420.0
 21
297.0
 12
0.0
 22
0.0
 32
0.0
 14
0.0
 24
0.0
 34
0.0
 15
420.0
 25
297.0
 35
0.0
146
0.0
 13
0.0
 23
0.0
 33
0.0
 16
1.0
 26
0.0
 36
0.0
 17
0.0
 27
1.0
 37
0.0
 76
     0
330
1F
331
29
  0
MATERIAL
  5
1C8
102
{ACAD_XDICTIONARY
360
1C9
102
}
102
{ACAD_REACTORS
330
1BF
102
}
330
1BF
100
AcDbMaterial
  1
ByBlock
 72
     0
 43
0.0008202099737533
 43
0.0
 43
0.0
 43
0.0
 43
0.0
 43
0.0008202099737533
 43
0.0
 43
0.0
 43
0.0
 43
0.0
 43
1.0
 43
0.0
 43
0.0
 43
0.0
 43
0.0
 43
1.0
 77
     0
 47
0.0008202099737533
 47
0.0
 47
0.0
 47
0.0
 47
0.0
 47
0.0008202099737533
 47
0.0
 47
0.0
 47
0.0
 47
0.0
 47
1.0
 47
0.0
 47
0.0
 47
0.0
 47
0.0
 47
1.0
171
     0
 49
0.0008202099737533
 49
0.0
 49
0.0
 49
0.0
 49
0.0
 49
0.0008202099737533
 49
0.0
 49
0.0
 49
0.0
 49
0.0
 49
1.0
 49
0.0
 49
0.0
 49
0.0
 49
0.0
 49
1.0
175
     0
142
0.0008202099737533
142
0.0
142
0.0
142
0.0
142
0.0
142
0.0008202099737533
142
0.0
142
0.0
142
0.0
142
0.0
142
1.0
142
0.0
142
0.0
142
0.0
142
0.0
142
1.0
179
     0
144
0.0008202099737533
144
0.0
144
0.0
144
0.0
144
0.0
144
0.0008202099737533
144
0.0
144
0.0
144
0.0
144
0.0
144
1.0
144
0.0
144
0.0
144
0.0
144
0.0
144
1.0
147
0.0008202099737533
147
0.0
147
0.0
147
0.0
147
0.0
147
0.0008202099737533
147
0.0
147
0.0
147
0.0
147
0.0
147
1.0
147
0.0
147
0.0
147
0.0
147
0.0
147
1.0
  0
MATERIAL
  5
1C0
102
{ACAD_XDICTIONARY
360
1C1
102
}
102
{ACAD_REACTORS
330
1BF
102
}
330
1BF
100
AcDbMaterial
  1
ByLayer
 72
     0
 43
0.0008202099737533
 43
0.0
 43
0.0
 43
0.0
 43
0.0
 43
0.0008202099737533
 43
0.0
 43
0.0
 43
0.0
 43
0.0
 43
1.0
 43
0.0
 43
0.0
 43
0.0
 43
0.0
 43
1.0
 77
     0
 47
0.0008202099737533
 47
0.0
 47
0.0
 47
0.0
 47
0.0
 47
0.0008202099737533
 47
0.0
 47
0.0
 47
0.0
 47
0.0
 47
1.0
 47
0.0
 47
0.0
 47
0.0
 47
0.0
 47
1.0
171
     0
 49
0.0008202099737533
 49
0.0
 49
0.0
 49
0.0
 49
0.0
 49
0.0008202099737533
 49
0.0
 49
0.0
 49
0.0
 49
0.0
 49
1.0
 49
0.0
 49
0.0
 49
0.0
 49
0.0
 49
1.0
175
     0
142
0.0008202099737533
142
0.0
142
0.0
142
0.0
142
0.0
142
0.0008202099737533
142
0.0
142
0.0
142
0.0
142
0.0
142
1.0
142
0.0
142
0.0
142
0.0
142
0.0
142
1.0
179
     0
144
0.0008202099737533
144
0.0
144
0.0
144
0.0
144
0.0
144
0.0008202099737533
144
0.0
144
0.0
144
0.0
144
0.0
144
1.0
144
0.0
144
0.0
144
0.0
144
0.0
144
1.0
147
0.0008202099737533
147
0.0
147
0.0
147
0.0
147
0.0
147
0.0008202099737533
147
0.0
147
0.0
147
0.0
147
0.0
147
1.0
147
0.0
147
0.0
147
0.0
147
0.0
147
1.0
  0
MATERIAL
  5
1D0
102
{ACAD_XDICTIONARY
360
1D1
102
}
102
{ACAD_REACTORS
330
1BF
102
}
330
1BF
100
AcDbMaterial
  1
Global
 72
     0
 43
0.0008202099737533
 43
0.0
 43
0.0
 43
0.0
 43
0.0
 43
0.0008202099737533
 43
0.0
 43
0.0
 43
0.0
 43
0.0
 43
1.0
 43
0.0
 43
0.0
 43
0.0
 43
0.0
 43
1.0
 77
     0
 47
0.0008202099737533
 47
0.0
 47
0.0
 47
0.0
 47
0.0
 47
0.0008202099737533
 47
0.0
 47
0.0
 47
0.0
 47
0.0
 47
1.0
 47
0.0
 47
0.0
 47
0.0
 47
0.0
 47
1.0
171
     0
 49
0.0008202099737533
 49
0.0
 49
0.0
 49
0.0
 49
0.0
 49
0.0008202099737533
 49
0.0
 49
0.0
 49
0.0
 49
0.0
 49
1.0
 49
0.0
 49
0.0
 49
0.0
 49
0.0
 49
1.0
175
     0
142
0.0008202099737533
142
0.0
142
0.0
142
0.0
142
0.0
142
0.0008202099737533
142
0.0
142
0.0
142
0.0
142
0.0
142
1.0
142
0.0
142
0.0
142
0.0
142
0.0
142
1.0
179
     0
144
0.0008202099737533
144
0.0
144
0.0
144
0.0
144
0.0
144
0.0008202099737533
144
0.0
144
0.0
144
0.0
144
0.0
144
1.0
144
0.0
144
0.0
144
0.0
144
0.0
144
1.0
147
0.0008202099737533
147
0.0
147
0.0
147
0.0
147
0.0
147
0.0008202099737533
147
0.0
147
0.0
147
0.0
147
0.0
147
1.0
147
0.0
147
0.0
147
0.0
147
0.0
147
1.0
  0
MLEADERSTYLE
  5
1F5
102
{ACAD_REACTORS
330
1F4
102
}
330
1F4
100
AcDbMLeaderStyle
179
     2
170
     2
171
     1
172
     0
 90
        2
 40
0.0
 41
0.0
173
     1
 91
-1056964608
340
14
 92
       -2
290
     1
 42
2.0
291
     1
 43
0.36
  3
Standard
 44
4.0
300

342
11
174
     1
178
     6
175
     1
176
     0
 93
-1056964608
 45
4.0
292
     0
297
     0
 46
4.0
 94
-1056964608
 47
1.0
 49
1.0
140
1.0
293
     1
141
0.0
294
     1
177
     0
142
1.0
295
     0
296
     0
143
0.125
271
     0
272
     9
273
     9
298
     0
  0
MLINESTYLE
  5
18
102
{ACAD_REACTORS
330
17
102
}
330
17
100
AcDbMlineStyle
  2
STANDARD
 70
     0
  3

 62
   256
 51
90.0
 52
90.0
 71
     2
 49
0.5
 62
   256
  6
BYLAYER
 49
-0.5
 62
   256
  6
BYLAYER
  0
ACDBPLACEHOLDER
  5
F
102
{ACAD_REACTORS
330
E
102
}
330
E
  0
SCALE
  5
48
102
{ACAD_REACTORS
330
47
102
}
330
47
100
AcDbScale
 70
     0
300
1:1
140
1.0
141
1.0
290
     1
  0
SCALE
  5
49
102
{ACAD_REACTORS
330
47
102
}
330
47
100
AcDbScale
 70
     0
300
1:2
140
1.0
141
2.0
290
     0
  0
SCALE
  5
4A
102
{ACAD_REACTORS
330
47
102
}
330
47
100
AcDbScale
 70
     0
300
1:4
140
1.0
141
4.0
290
     0
  0
SCALE
  5
4B
102
{ACAD_REACTORS
330
47
102
}
330
47
100
AcDbScale
 70
     0
300
1:5
140
1.0
141
5.0
290
     0
  0
SCALE
  5
4C
102
{ACAD_REACTORS
330
47
102
}
330
47
100
AcDbScale
 70
     0
300
1:8
140
1.0
141
8.0
290
     0
  0
SCALE
  5
4D
102
{ACAD_REACTORS
330
47
102
}
330
47
100
AcDbScale
 70
     0
300
1:10
140
1.0
141
10.0
290
     0
  0
SCALE
  5
4E
102
{ACAD_REACTORS
330
47
102
}
330
47
100
AcDbScale
 70
     0
300
1:16
140
1.0
141
16.0
290
     0
  0
SCALE
  5
4F
102
{ACAD_REACTORS
330
47
102
}
330
47
100
AcDbScale
 70
     0
300
1:20
140
1.0
141
20.0
290
     0
  0
SCALE
  5
50
102
{ACAD_REACTORS
330
47
102
}
330
47
100
AcDbScale
 70
     0
300
1:30
140
1.0
141
30.0
290
     0
  0
SCALE
  5
51
102
{ACAD_REACTORS
330
47
102
}
330
47
100
AcDbScale
 70
     0
300
1:40
140
1.0
141
40.0
290
     0
  0
SCALE
  5
52
102
{ACAD_REACTORS
330
47
102
}
330
47
100
AcDbScale
 70
     0
300
1:50
140
1.0
141
50.0
290
     0
  0
SCALE
  5
53
102
{ACAD_REACTORS
330
47
102
}
330
47
100
AcDbScale
 70
     0
300
1:100
140
1.0
141
100.0
290
     0
  0
SCALE
  5
54
102
{ACAD_REACTORS
330
47
102
}
330
47
100
AcDbScale
 70
     0
300
2:1
140
2.0
141
1.0
290
     0
  0
SCALE
  5
55
102
{ACAD_REACTORS
330
47
102
}
330
47
100
AcDbScale
 70
     0
300
4:1
140
4.0
141
1.0
290
     0
  0
SCALE
  5
56
102
{ACAD_REACTORS
330
47
102
}
330
47
100
AcDbScale
 70
     0
300
8:1
140
8.0
141
1.0
290
     0
  0
SCALE
  5
57
102
{ACAD_REACTORS
330
47
102
}
330
47
100
AcDbScale
 70
     0
300
10:1
140
10.0
141
1.0
290
     0
  0
SCALE
  5
58
102
{ACAD_REACTORS
330
47
102
}
330
47
100
AcDbScale
 70
     0
300
100:1
140
100.0
141
1.0
290
     0
  0
SCALE
  5
59
102
{ACAD_REACTORS
330
47
102
}
330
47
100
AcDbScale
 70
     0
300
1/128" = 1'-0"
140
0.0078125
141
12.0
290
     0
  0
SCALE
  5
5A
102
{ACAD_REACTORS
330
47
102
}
330
47
100
AcDbScale
 70
     0
300
1/64" = 1'-0"
140
0.015625
141
12.0
290
     0
  0
SCALE
  5
5B
102
{ACAD_REACTORS
330
47
102
}
330
47
100
AcDbScale
 70
     0
300
1/32" = 1'-0"
140
0.03125
141
12.0
290
     0
  0
SCALE
  5
5C
102
{ACAD_REACTORS
330
47
102
}
330
47
100
AcDbScale
 70
     0
300
1/16" = 1'-0"
140
0.0625
141
12.0
290
     0
  0
SCALE
  5
5D
102
{ACAD_REACTORS
330
47
102
}
330
47
100
AcDbScale
 70
     0
300
3/32" = 1'-0"
140
0.09375
141
12.0
290
     0
  0
SCALE
  5
5E
102
{ACAD_REACTORS
330
47
102
}
330
47
100
AcDbScale
 70
     0
300
1/8" = 1'-0"
140
0.125
141
12.0
290
     0
  0
SCALE
  5
5F
102
{ACAD_REACTORS
330
47
102
}
330
47
100
AcDbScale
 70
     0
300
3/16" = 1'-0"
140
0.1875
141
12.0
290
     0
  0
SCALE
  5
60
102
{ACAD_REACTORS
330
47
102
}
330
47
100
AcDbScale
 70
     0
300
1/4" = 1'-0"
140
0.25
141
12.0
290
     0
  0
SCALE
  5
61
102
{ACAD_REACTORS
330
47
102
}
330
47
100
AcDbScale
 70
     0
300
3/8" = 1'-0"
140
0.375
141
12.0
290
     0
  0
SCALE
  5
62
102
{ACAD_REACTORS
330
47
102
}
330
47
100
AcDbScale
 70
     0
300
1/2" = 1'-0"
140
0.5
141
12.0
290
     0
  0
SCALE
  5
63
102
{ACAD_REACTORS
330
47
102
}
330
47
100
AcDbScale
 70
     0
300
3/4" = 1'-0"
140
0.75
141
12.0
290
     0
  0
SCALE
  5
64
102
{ACAD_REACTORS
330
47
102
}
330
47
100
AcDbScale
 70
     0
300
1" = 1'-0"
140
1.0
141
12.0
290
     0
  0
SCALE
  5
65
102
{ACAD_REACTORS
330
47
102
}
330
47
100
AcDbScale
 70
     0
300
1-1/2" = 1'-0"
140
1.5
141
12.0
290
     0
  0
SCALE
  5
66
102
{ACAD_REACTORS
330
47
102
}
330
47
100
AcDbScale
 70
     0
300
3" = 1'-0"
140
3.0
141
12.0
290
     0
  0
SCALE
  5
67
102
{ACAD_REACTORS
330
47
102
}
330
47
100
AcDbScale
 70
     0
300
6" = 1'-0"
140
6.0
141
12.0
290
     0
  0
SCALE
  5
68
102
{ACAD_REACTORS
330
47
102
}
330
47
100
AcDbScale
 70
     0
300
1'-0" = 1'-0"
140
12.0
141
12.0
290
     0
  0
ACDBSECTIONVIEWSTYLE
  5
1F7
102
{ACAD_REACTORS
330
1F6
102
}
330
1F6
100
AcDbModelDocViewStyle
 70
     0
  3
Metric50
290
     0
300
Metric50
 90
        0
100
AcDbSectionViewStyle
 70
     0
 71
     0
 90
      102
 71
     1
340
11
 62
   256
 40
5.0
340
0
340
0
 62
   256
 40
5.0
300
I, O, Q, S, X, Z
 40
10.0
 90
        0
 40
2.5
 90
        0
 71
     2
340
16
 90
       25
 62
   256
340
16
 90
       50
 62
   256
 40
5.0
 40
2.5
 40
5.0
 71
     3
340
11
 62
   256
 40
5.0
 90
        0
 40
15.0
 90
        1
300
%<\AcVar ViewSectionStartId>%-%<\AcVar ViewSectionEndId>% (%<\AcVar ViewScale \f "%sn">%)
 71
     4
 62
   256
 62
   257
300
ANSI31
 40
1.0
 90
        0
290
     0
290
     0
 90
        6
 40
0.0
 40
1.570796326794896
 40
0.2617993877991494
 40
1.308996938995747
 40
-0.2617993877991494
 40
1.832595714594046
  0
TABLESTYLE
  5
1F3
102
{ACAD_XDICTIONARY
360
2C4
102
}
102
{ACAD_REACTORS
330
1F2
102
}
330
1F2
100
AcDbTableStyle
280
     0
  3
Standard
 70
     0
 71
     0
 40
1.5
 41
1.5
280
     0
281
     0
  7
Standard
140
4.5
170
     2
 62
     0
 63
     7
283
     0
 90
      512
 91
        0
  1

274
    -2
284
     1
 64
     0
275
    -2
285
     1
 65
     0
276
    -2
286
     1
 66
     0
277
    -2
287
     1
 67
     0
278
    -2
288
     1
 68
     0
279
    -2
289
     1
 69
     0
  7
Standard
140
6.0
170
     5
 62
     0
 63
     7
283
     0
 90
      512
 91
        0
  1

274
    -2
284
     1
 64
     0
275
    -2
285
     1
 65
     0
276
    -2
286
     1
 66
     0
277
    -2
287
     1
 67
     0
278
    -2
288
     1
 68
     0
279
    -2
289
     1
 69
     0
  7
Standard
140
4.5
170
     5
 62
     0
 63
     7
283
     0
 90
      512
 91
        0
  1

274
    -2
284
     1
 64
     0
275
    -2
285
     1
 65
     0
276
    -2
286
     1
 66
     0
277
    -2
287
     1
 67
     0
278
    -2
288
     1
 68
     0
279
    -2
289
     1
 69
     0
  0
VISUALSTYLE
  5
1DE
102
{ACAD_REACTORS
330
1D8
102
}
330
1D8
100
AcDbVisualStyle
  2
2dWireframe
 70
     4
177
     3
291
     0
 70
    58
 90
        0
176
     1
 90
        2
176
     1
 90
        0
176
     1
 90
        0
176
     1
 40
0.6
176
     1
 40
30.0
176
     1
 62
     7
420
 16777215
176
     1
 90
        1
176
     1
 90
        4
176
     1
 62
     7
176
     1
 62
   257
176
     1
 90
        1
176
     1
 90
        1
176
     1
 40
1.0
176
     1
 90
        0
176
     1
 62
   257
176
     1
 40
1.0
176
     1
 90
        1
176
     1
 90
        6
176
     1
 90
        2
176
     1
 62
     7
176
     1
 90
        5
176
     1
 90
        0
176
     1
 90
        0
176
     1
290
     0
176
     1
 90
        1
176
     1
 40
0.0
176
     1
 90
        0
176
     1
290
     1
176
     1
290
     1
176
     1
290
     0
176
     1
290
     0
176
     1
290
     0
176
     1
290
     0
176
     1
290
     0
176
     1
290
     0
176
     1
290
     0
176
     1
 90
       50
176
     1
 40
0.0
176
     1
 40
1.0
176
     1
 90
        0
176
     1
 62
    18
420
        0
176
     1
 90
       50
176
     1
 90
        3
176
     1
 62
     5
420
      255
176
     1
290
     0
176
     1
 90
       50
176
     1
 90
       50
176
     1
 90
       50
176
     1
290
     0
176
     1
 90
       50
176
     1
 62
   256
176
     0
 40
1.0
176
     0
 90
        2
176
     1
  1
strokes_ogs.tif
176
     1
290
     0
176
     1
 40
1.0
176
     1
 40
1.0
176
     1
  0
VISUALSTYLE
  5
1DD
102
{ACAD_REACTORS
330
1D8
102
}
330
1D8
100
AcDbVisualStyle
  2
Basic
 70
     7
177
     3
291
     1
 70
    58
 90
        1
176
     1
 90
        0
176
     1
 90
        1
176
     1
 90
        0
176
     1
 40
0.6
176
     1
 40
30.0
176
     1
 62
     7
420
 16777215
176
     1
 90
        0
176
     1
 90
        4
176
     1
 62
     7
176
     1
 62
   257
176
     1
 90
        1
176
     1
 90
        1
176
     1
 40
1.0
176
     1
 90
        8
176
     1
 62
     7
176
     1
 40
1.0
176
     1
 90
        1
176
     1
 90
        6
176
     1
 90
        2
176
     1
 62
     7
176
     1
 90
        5
176
     1
 90
        0
176
     1
 90
        0
176
     1
290
     0
176
     1
 90
        1
176
     1
 40
0.0
176
     1
 90
        0
176
     1
290
     0
176
     1
290
     1
176
     1
290
     1
176
     1
290
     0
176
     1
290
     0
176
     1
290
     0
176
     1
290
     0
176
     1
290
     0
176
     1
290
     0
176
     1
 90
       50
176
     1
 40
0.0
176
     1
 40
1.0
176
     1
 90
        0
176
     1
 62
    18
420
        0
176
     1
 90
       50
176
     1
 90
        3
176
     1
 62
     5
420
      255
176
     1
290
     0
176
     1
 90
       50
176
     1
 90
       50
176
     1
 90
       50
176
     1
290
     0
176
     1
 90
       50
176
     1
 62
   256
176
     0
 40
1.0
176
     0
 90
        2
176
     1
  1
strokes_ogs.tif
176
     1
290
     0
176
     1
 40
1.0
176
     1
 40
1.0
176
     1
  0
VISUALSTYLE
  5
1E4
102
{ACAD_REACTORS
330
1D8
102
}
330
1D8
100
AcDbVisualStyle
  2
Brighten
 70
    12
177
     3
291
     1
 70
    58
 90
        2
176
     1
 90
        2
176
     1
 90
        0
176
     1
 90
        0
176
     1
 40
0.6
176
     1
 40
30.0
176
     1
 62
     7
420
 16777215
176
     1
 90
        1
176
     1
 90
        4
176
     1
 62
     7
176
     1
 62
   257
176
     1
 90
        1
176
     1
 90
        1
176
     1
 40
1.0
176
     1
 90
        8
176
     1
 62
     7
176
     1
 40
1.0
176
     1
 90
        1
176
     1
 90
        6
176
     1
 90
        2
176
     1
 62
     7
176
     1
 90
        5
176
     1
 90
        0
176
     1
 90
        0
176
     1
290
     0
176
     1
 90
        1
176
     1
 40
50.0
176
     1
 90
        0
176
     1
290
     0
176
     1
290
     1
176
     1
290
     1
176
     1
290
     0
176
     1
290
     0
176
     1
290
     0
176
     1
290
     0
176
     1
290
     0
176
     1
290
     0
176
     1
 90
       50
176
     1
 40
0.0
176
     1
 40
1.0
176
     1
 90
        0
176
     1
 62
    18
420
        0
176
     1
 90
       50
176
     1
 90
        3
176
     1
 62
     5
420
      255
176
     1
290
     0
176
     1
 90
       50
176
     1
 90
       50
176
     1
 90
       50
176
     1
290
     0
176
     1
 90
       50
176
     1
 62
   256
176
     0
 40
1.0
176
     0
 90
        2
176
     1
  1
strokes_ogs.tif
176
     1
290
     0
176
     1
 40
1.0
176
     1
 40
1.0
176
     1
  0
VISUALSTYLE
  5
1E8
102
{ACAD_REACTORS
330
1D8
102
}
330
1D8
100
AcDbVisualStyle
  2
ColorChange
 70
    16
177
     3
291
     1
 70
    58
 90
        2
176
     1
 90
        2
176
     1
 90
        3
176
     1
 90
        0
176
     1
 40
0.6
176
     1
 40
30.0
176
     1
 62
     8
420
  8421504
176
     1
 90
        1
176
     1
 90
        4
176
     1
 62
     7
176
     1
 62
   257
176
     1
 90
        1
176
     1
 90
        1
176
     1
 40
1.0
176
     1
 90
        8
176
     1
 62
     8
420
  8421504
176
     1
 40
1.0
176
     1
 90
        1
176
     1
 90
        6
176
     1
 90
        2
176
     1
 62
     7
176
     1
 90
        5
176
     1
 90
        0
176
     1
 90
        0
176
     1
290
     0
176
     1
 90
        1
176
     1
 40
0.0
176
     1
 90
        0
176
     1
290
     0
176
     1
290
     1
176
     1
290
     1
176
     1
290
     0
176
     1
290
     0
176
     1
290
     0
176
     1
290
     0
176
     1
290
     0
176
     1
290
     0
176
     1
 90
       50
176
     1
 40
0.0
176
     1
 40
1.0
176
     1
 90
        0
176
     1
 62
    18
420
        0
176
     1
 90
       50
176
     1
 90
        3
176
     1
 62
     5
420
      255
176
     1
290
     0
176
     1
 90
       50
176
     1
 90
       50
176
     1
 90
       50
176
     1
290
     0
176
     1
 90
       50
176
     1
 62
   256
176
     0
 40
1.0
176
     0
 90
        2
176
     1
  1
strokes_ogs.tif
176
     1
290
     0
176
     1
 40
1.0
176
     1
 40
1.0
176
     1
  0
VISUALSTYLE
  5
1E1
102
{ACAD_REACTORS
330
1D8
102
}
330
1D8
100
AcDbVisualStyle
  2
Conceptual
 70
     9
177
     3
291
     0
 70
    58
 90
        3
176
     1
 90
        2
176
     1
 90
        0
176
     1
 90
        0
176
     1
 40
0.6
176
     1
 40
30.0
176
     1
 62
     7
420
 16777215
176
     1
 90
        2
176
     1
 90
        2
176
     1
 62
     7
176
     1
 62
   257
176
     1
 90
        1
176
     1
 90
        1
176
     1
 40
179.0
176
     1
 90
        8
176
     1
 62
     7
176
     1
 40
1.0
176
     1
 90
        1
176
     1
 90
        6
176
     1
 90
        2
176
     1
 62
     7
176
     1
 90
        3
176
     1
 90
        0
176
     1
 90
        0
176
     1
290
     0
176
     1
 90
        1
176
     1
 40
0.0
176
     1
 90
        0
176
     1
290
     0
176
     1
290
     1
176
     1
290
     1
176
     1
290
     0
176
     1
290
     0
176
     1
290
     0
176
     1
290
     0
176
     1
290
     0
176
     1
290
     0
176
     1
 90
       50
176
     1
 40
0.0
176
     1
 40
1.0
176
     1
 90
        0
176
     1
 62
    18
420
        0
176
     1
 90
       50
176
     1
 90
        3
176
     1
 62
     5
420
      255
176
     1
290
     0
176
     1
 90
       50
176
     1
 90
       50
176
     1
 90
       50
176
     1
290
     0
176
     1
 90
       50
176
     1
 62
   256
176
     0
 40
1.0
176
     0
 90
        2
176
     1
  1
strokes_ogs.tif
176
     1
290
     0
176
     1
 40
1.0
176
     1
 40
1.0
176
     1
  0
VISUALSTYLE
  5
1E3
102
{ACAD_REACTORS
330
1D8
102
}
330
1D8
100
AcDbVisualStyle
  2
Dim
 70
    11
177
     3
291
     1
 70
    58
 90
        2
176
     1
 90
        2
176
     1
 90
        0
176
     1
 90
        0
176
     1
 40
0.6
176
     1
 40
30.0
176
     1
 62
     7
420
 16777215
176
     1
 90
        1
176
     1
 90
        4
176
     1
 62
     7
176
     1
 62
   257
176
     1
 90
        1
176
     1
 90
        1
176
     1
 40
1.0
176
     1
 90
        8
176
     1
 62
     7
176
     1
 40
1.0
176
     1
 90
        1
176
     1
 90
        6
176
     1
 90
        2
176
     1
 62
     7
176
     1
 90
        5
176
     1
 90
        0
176
     1
 90
        0
176
     1
290
     0
176
     1
 90
        1
176
     1
 40
-50.0
176
     1
 90
        0
176
     1
290
     0
176
     1
290
     1
176
     1
290
     1
176
     1
290
     0
176
     1
290
     0
176
     1
290
     0
176
     1
290
     0
176
     1
290
     0
176
     1
290
     0
176
     1
 90
       50
176
     1
 40
0.0
176
     1
 40
1.0
176
     1
 90
        0
176
     1
 62
    18
420
        0
176
     1
 90
       50
176
     1
 90
        3
176
     1
 62
     5
420
      255
176
     1
290
     0
176
     1
 90
       50
176
     1
 90
       50
176
     1
 90
       50
176
     1
290
     0
176
     1
 90
       50
176
     1
 62
   256
176
     0
 40
1.0
176
     0
 90
        2
176
     1
  1
strokes_ogs.tif
176
     1
290
     0
176
     1
 40
1.0
176
     1
 40
1.0
176
     1
  0
VISUALSTYLE
  5
1F0
102
{ACAD_REACTORS
330
1D8
102
}
330
1D8
100
AcDbVisualStyle
  2
EdgeColorOff
 70
    22
177
     3
291
     1
 70
    58
 90
        2
176
     0
 90
        2
176
     0
 90
        0
176
     0
 90
        0
176
     0
 40
0.6
176
     0
 40
30.0
176
     0
 62
     7
420
 16777215
176
     0
 90
        1
176
     0
 90
        4
176
     0
 62
     7
176
     0
 62
   257
176
     0
 90
        1
176
     0
 90
        1
176
     0
 40
1.0
176
     0
 90
        8
176
     2
 62
     7
176
     0
 40
1.0
176
     0
 90
        1
176
     0
 90
        6
176
     0
 90
        2
176
     0
 62
     7
176
     0
 90
        5
176
     0
 90
        0
176
     0
 90
        0
176
     0
290
     0
176
     0
 90
        1
176
     0
 40
0.0
176
     0
 90
        0
176
     0
290
     0
176
     1
290
     1
176
     1
290
     1
176
     1
290
     0
176
     1
290
     0
176
     1
290
     0
176
     1
290
     0
176
     1
290
     0
176
     1
290
     0
176
     1
 90
       50
176
     0
 40
0.0
176
     0
 40
1.0
176
     0
 90
        0
176
     0
 62
    18
420
        0
176
     0
 90
       50
176
     0
 90
        3
176
     0
 62
     5
420
      255
176
     0
290
     0
176
     1
 90
       50
176
     0
 90
       50
176
     0
 90
       50
176
     0
290
     0
176
     1
 90
       50
176
     0
 62
   256
176
     0
 40
1.0
176
     0
 90
        2
176
     0
  1
strokes_ogs.tif
176
     0
290
     0
176
     1
 40
1.0
176
     0
 40
1.0
176
     0
  0
VISUALSTYLE
  5
1E7
102
{ACAD_REACTORS
330
1D8
102
}
330
1D8
100
AcDbVisualStyle
  2
Facepattern
 70
    15
177
     3
291
     1
 70
    58
 90
        2
176
     1
 90
        2
176
     1
 90
        0
176
     1
 90
        0
176
     1
 40
0.6
176
     1
 40
30.0
176
     1
 62
     7
420
 16777215
176
     1
 90
        1
176
     1
 90
        4
176
     1
 62
     7
176
     1
 62
   257
176
     1
 90
        1
176
     1
 90
        1
176
     1
 40
1.0
176
     1
 90
        8
176
     1
 62
     7
176
     1
 40
1.0
176
     1
 90
        1
176
     1
 90
        6
176
     1
 90
        2
176
     1
 62
     7
176
     1
 90
        5
176
     1
 90
        0
176
     1
 90
        0
176
     1
290
     0
176
     1
 90
        1
176
     1
 40
0.0
176
     1
 90
        0
176
     1
290
     0
176
     1
290
     1
176
     1
290
     1
176
     1
290
     0
176
     1
290
     0
176
     1
290
     0
176
     1
290
     0
176
     1
290
     0
176
     1
290
     0
176
     1
 90
       50
176
     1
 40
0.0
176
     1
 40
1.0
176
     1
 90
        0
176
     1
 62
    18
420
        0
176
     1
 90
       50
176
     1
 90
        3
176
     1
 62
     5
420
      255
176
     1
290
     0
176
     1
 90
       50
176
     1
 90
       50
176
     1
 90
       50
176
     1
290
     0
176
     1
 90
       50
176
     1
 62
   256
176
     0
 40
1.0
176
     0
 90
        2
176
     1
  1
strokes_ogs.tif
176
     1
290
     0
176
     1
 40
1.0
176
     1
 40
1.0
176
     1
  0
VISUALSTYLE
  5
1D9
102
{ACAD_REACTORS
330
1D8
102
}
330
1D8
100
AcDbVisualStyle
  2
Flat
 70
     0
177
     3
291
     1
 70
    58
 90
        2
176
     1
 90
        1
176
     1
 90
        1
176
     1
 90
        2
176
     1
 40
0.6
176
     1
 40
30.0
176
     1
 62
     7
420
 16777215
176
     1
 90
        0
176
     1
 90
        0
176
     1
 62
     7
176
     1
 62
   257
176
     1
 90
        1
176
     1
 90
        1
176
     1
 40
1.0
176
     1
 90
        8
176
     1
 62
     7
176
     1
 40
1.0
176
     1
 90
        1
176
     1
 90
        6
176
     1
 90
        2
176
     1
 62
     7
176
     1
 90
        5
176
     1
 90
        0
176
     1
 90
        0
176
     1
290
     0
176
     1
 90
       13
176
     1
 40
0.0
176
     1
 90
        0
176
     1
290
     0
176
     1
290
     1
176
     1
290
     1
176
     1
290
     0
176
     1
290
     0
176
     1
290
     0
176
     1
290
     0
176
     1
290
     0
176
     1
290
     0
176
     1
 90
       50
176
     1
 40
0.0
176
     1
 40
1.0
176
     1
 90
        0
176
     1
 62
    18
420
        0
176
     1
 90
       50
176
     1
 90
        3
176
     1
 62
     5
420
      255
176
     1
290
     0
176
     1
 90
       50
176
     1
 90
       50
176
     1
 90
       50
176
     1
290
     0
176
     1
 90
       50
176
     1
 62
   256
176
     0
 40
1.0
176
     0
 90
        2
176
     1
  1
strokes_ogs.tif
176
     1
290
     0
176
     1
 40
1.0
176
     1
 40
1.0
176
     1
  0
VISUALSTYLE
  5
1DA
102
{ACAD_REACTORS
330
1D8
102
}
330
1D8
100
AcDbVisualStyle
  2
FlatWithEdges
 70
     1
177
     3
291
     1
 70
    58
 90
        2
176
     1
 90
        1
176
     1
 90
        1
176
     1
 90
        2
176
     1
 40
0.6
176
     1
 40
30.0
176
     1
 62
     7
420
 16777215
176
     1
 90
        1
176
     1
 90
        0
176
     1
 62
     7
176
     1
 62
   257
176
     1
 90
        1
176
     1
 90
        1
176
     1
 40
1.0
176
     1
 90
        0
176
     1
 62
   257
176
     1
 40
1.0
176
     1
 90
        1
176
     1
 90
        6
176
     1
 90
        2
176
     1
 62
     7
176
     1
 90
        5
176
     1
 90
        0
176
     1
 90
        0
176
     1
290
     0
176
     1
 90
       13
176
     1
 40
0.0
176
     1
 90
        0
176
     1
290
     0
176
     1
290
     1
176
     1
290
     1
176
     1
290
     0
176
     1
290
     0
176
     1
290
     0
176
     1
290
     0
176
     1
290
     0
176
     1
290
     0
176
     1
 90
       50
176
     1
 40
0.0
176
     1
 40
1.0
176
     1
 90
        0
176
     1
 62
    18
420
        0
176
     1
 90
       50
176
     1
 90
        3
176
     1
 62
     5
420
      255
176
     1
290
     0
176
     1
 90
       50
176
     1
 90
       50
176
     1
 90
       50
176
     1
290
     0
176
     1
 90
       50
176
     1
 62
   256
176
     0
 40
1.0
176
     0
 90
        2
176
     1
  1
strokes_ogs.tif
176
     1
290
     0
176
     1
 40
1.0
176
     1
 40
1.0
176
     1
  0
VISUALSTYLE
  5
1DB
102
{ACAD_REACTORS
330
1D8
102
}
330
1D8
100
AcDbVisualStyle
  2
Gouraud
 70
     2
177
     3
291
     1
 70
    58
 90
        2
176
     1
 90
        2
176
     1
 90
        1
176
     1
 90
        2
176
     1
 40
0.6
176
     1
 40
30.0
176
     1
 62
     7
420
 16777215
176
     1
 90
        0
176
     1
 90
        0
176
     1
 62
     7
176
     1
 62
   257
176
     1
 90
        1
176
     1
 90
        1
176
     1
 40
1.0
176
     1
 90
        0
176
     1
 62
     7
176
     1
 40
1.0
176
     1
 90
        1
176
     1
 90
        6
176
     1
 90
        2
176
     1
 62
     7
176
     1
 90
        5
176
     1
 90
        0
176
     1
 90
        0
176
     1
290
     0
176
     1
 90
       13
176
     1
 40
0.0
176
     1
 90
        0
176
     1
290
     0
176
     1
290
     1
176
     1
290
     1
176
     1
290
     0
176
     1
290
     0
176
     1
290
     0
176
     1
290
     0
176
     1
290
     0
176
     1
290
     0
176
     1
 90
       50
176
     1
 40
0.0
176
     1
 40
1.0
176
     1
 90
        0
176
     1
 62
    18
420
        0
176
     1
 90
       50
176
     1
 90
        3
176
     1
 62
     5
420
      255
176
     1
290
     0
176
     1
 90
       50
176
     1
 90
       50
176
     1
 90
       50
176
     1
290
     0
176
     1
 90
       50
176
     1
 62
   256
176
     0
 40
1.0
176
     0
 90
        2
176
     1
  1
strokes_ogs.tif
176
     1
290
     0
176
     1
 40
1.0
176
     1
 40
1.0
176
     1
  0
VISUALSTYLE
  5
1DC
102
{ACAD_REACTORS
330
1D8
102
}
330
1D8
100
AcDbVisualStyle
  2
GouraudWithEdges
 70
     3
177
     3
291
     1
 70
    58
 90
        2
176
     1
 90
        2
176
     1
 90
        1
176
     1
 90
        2
176
     1
 40
0.6
176
     1
 40
30.0
176
     1
 62
     7
420
 16777215
176
     1
 90
        1
176
     1
 90
        0
176
     1
 62
     7
176
     1
 62
   257
176
     1
 90
        1
176
     1
 90
        1
176
     1
 40
1.0
176
     1
 90
        0
176
     1
 62
   257
176
     1
 40
1.0
176
     1
 90
        1
176
     1
 90
        6
176
     1
 90
        2
176
     1
 62
     7
176
     1
 90
        5
176
     1
 90
        0
176
     1
 90
        0
176
     1
290
     0
176
     1
 90
       13
176
     1
 40
0.0
176
     1
 90
        0
176
     1
290
     0
176
     1
290
     1
176
     1
290
     1
176
     1
290
     0
176
     1
290
     0
176
     1
290
     0
176
     1
290
     0
176
     1
290
     0
176
     1
290
     0
176
     1
 90
       50
176
     1
 40
0.0
176
     1
 40
1.0
176
     1
 90
        0
176
     1
 62
    18
420
        0
176
     1
 90
       50
176
     1
 90
        3
176
     1
 62
     5
420
      255
176
     1
290
     0
176
     1
 90
       50
176
     1
 90
       50
176
     1
 90
       50
176
     1
290
     0
176
     1
 90
       50
176
     1
 62
   256
176
     0
 40
1.0
176
     0
 90
        2
176
     1
  1
strokes_ogs.tif
176
     1
290
     0
176
     1
 40
1.0
176
     1
 40
1.0
176
     1
  0
VISUALSTYLE
  5
1E0
102
{ACAD_REACTORS
330
1D8
102
}
330
1D8
100
AcDbVisualStyle
  2
Hidden
 70
     6
177
     3
291
     0
 70
    58
 90
        1
176
     1
 90
        2
176
     1
 90
        2
176
     1
 90
        0
176
     1
 40
0.6
176
     1
 40
30.0
176
     1
 62
     7
420
 16777215
176
     1
 90
        2
176
     1
 90
        2
176
     1
 62
     7
176
     1
 62
   257
176
     1
 90
        2
176
     1
 90
        1
176
     1
 40
40.0
176
     1
 90
        0
176
     1
 62
   257
176
     1
 40
1.0
176
     1
 90
        1
176
     1
 90
        6
176
     1
 90
        2
176
     1
 62
     7
176
     1
 90
        3
176
     1
 90
        0
176
     1
 90
        0
176
     1
290
     0
176
     1
 90
        1
176
     1
 40
0.0
176
     1
 90
        0
176
     1
290
     0
176
     1
290
     1
176
     1
290
     1
176
     1
290
     0
176
     1
290
     0
176
     1
290
     0
176
     1
290
     0
176
     1
290
     0
176
     1
290
     0
176
     1
 90
       50
176
     1
 40
0.0
176
     1
 40
1.0
176
     1
 90
        0
176
     1
 62
    18
420
        0
176
     1
 90
       50
176
     1
 90
        3
176
     1
 62
     5
420
      255
176
     1
290
     0
176
     1
 90
       50
176
     1
 90
       50
176
     1
 90
       50
176
     1
290
     0
176
     1
 90
       50
176
     1
 62
   256
176
     0
 40
1.0
176
     0
 90
        2
176
     1
  1
strokes_ogs.tif
176
     1
290
     0
176
     1
 40
1.0
176
     1
 40
1.0
176
     1
  0
VISUALSTYLE
  5
1EE
102
{ACAD_REACTORS
330
1D8
102
}
330
1D8
100
AcDbVisualStyle
  2
JitterOff
 70
    20
177
     3
291
     1
 70
    58
 90
        2
176
     0
 90
        2
176
     0
 90
        0
176
     0
 90
        0
176
     0
 40
0.6
176
     0
 40
30.0
176
     0
 62
     7
420
 16777215
176
     0
 90
        1
176
     0
 90
        4
176
     0
 62
     7
176
     0
 62
   257
176
     0
 90
        1
176
     0
 90
        1
176
     0
 40
1.0
176
     0
 90
       10
176
     2
 62
     7
176
     0
 40
1.0
176
     0
 90
        1
176
     0
 90
        6
176
     0
 90
        2
176
     0
 62
     7
176
     0
 90
        5
176
     0
 90
        0
176
     0
 90
        0
176
     0
290
     0
176
     0
 90
        1
176
     0
 40
0.0
176
     0
 90
        0
176
     0
290
     0
176
     1
290
     1
176
     1
290
     1
176
     1
290
     0
176
     1
290
     0
176
     1
290
     0
176
     1
290
     0
176
     1
290
     0
176
     1
290
     0
176
     1
 90
       50
176
     0
 40
0.0
176
     0
 40
1.0
176
     0
 90
        0
176
     0
 62
    18
420
        0
176
     0
 90
       50
176
     0
 90
        3
176
     0
 62
     5
420
      255
176
     0
290
     0
176
     1
 90
       50
176
     0
 90
       50
176
     0
 90
       50
176
     0
290
     0
176
     1
 90
       50
176
     0
 62
   256
176
     0
 40
1.0
176
     0
 90
        2
176
     0
  1
strokes_ogs.tif
176
     0
290
     0
176
     1
 40
1.0
176
     0
 40
1.0
176
     0
  0
VISUALSTYLE
  5
1E6
102
{ACAD_REACTORS
330
1D8
102
}
330
1D8
100
AcDbVisualStyle
  2
Linepattern
 70
    14
177
     3
291
     1
 70
    58
 90
        2
176
     1
 90
        2
176
     1
 90
        0
176
     1
 90
        0
176
     1
 40
0.6
176
     1
 40
30.0
176
     1
 62
     7
420
 16777215
176
     1
 90
        1
176
     1
 90
        4
176
     1
 62
     7
176
     1
 62
   257
176
     1
 90
        7
176
     1
 90
        7
176
     1
 40
1.0
176
     1
 90
        8
176
     1
 62
     7
176
     1
 40
1.0
176
     1
 90
        1
176
     1
 90
        6
176
     1
 90
        2
176
     1
 62
     7
176
     1
 90
        5
176
     1
 90
        0
176
     1
 90
        0
176
     1
290
     0
176
     1
 90
        1
176
     1
 40
0.0
176
     1
 90
        0
176
     1
290
     0
176
     1
290
     1
176
     1
290
     1
176
     1
290
     0
176
     1
290
     0
176
     1
290
     0
176
     1
290
     0
176
     1
290
     0
176
     1
290
     0
176
     1
 90
       50
176
     1
 40
0.0
176
     1
 40
1.0
176
     1
 90
        0
176
     1
 62
    18
420
        0
176
     1
 90
       50
176
     1
 90
        3
176
     1
 62
     5
420
      255
176
     1
290
     0
176
     1
 90
       50
176
     1
 90
       50
176
     1
 90
       50
176
     1
290
     0
176
     1
 90
       50
176
     1
 62
   256
176
     0
 40
1.0
176
     0
 90
        2
176
     1
  1
strokes_ogs.tif
176
     1
290
     0
176
     1
 40
1.0
176
     1
 40
1.0
176
     1
  0
VISUALSTYLE
  5
1EF
102
{ACAD_REACTORS
330
1D8
102
}
330
1D8
100
AcDbVisualStyle
  2
OverhangOff
 70
    21
177
     3
291
     1
 70
    58
 90
        2
176
     0
 90
        2
176
     0
 90
        0
176
     0
 90
        0
176
     0
 40
0.6
176
     0
 40
30.0
176
     0
 62
     7
420
 16777215
176
     0
 90
        1
176
     0
 90
        4
176
     0
 62
     7
176
     0
 62
   257
176
     0
 90
        1
176
     0
 90
        1
176
     0
 40
1.0
176
     0
 90
        9
176
     2
 62
     7
176
     0
 40
1.0
176
     0
 90
        1
176
     0
 90
        6
176
     0
 90
        2
176
     0
 62
     7
176
     0
 90
        5
176
     0
 90
        0
176
     0
 90
        0
176
     0
290
     0
176
     0
 90
        1
176
     0
 40
0.0
176
     0
 90
        0
176
     0
290
     0
176
     1
290
     1
176
     1
290
     1
176
     1
290
     0
176
     1
290
     0
176
     1
290
     0
176
     1
290
     0
176
     1
290
     0
176
     1
290
     0
176
     1
 90
       50
176
     0
 40
0.0
176
     0
 40
1.0
176
     0
 90
        0
176
     0
 62
    18
420
        0
176
     0
 90
       50
176
     0
 90
        3
176
     0
 62
     5
420
      255
176
     0
290
     0
176
     1
 90
       50
176
     0
 90
       50
176
     0
 90
       50
176
     0
290
     0
176
     1
 90
       50
176
     0
 62
   256
176
     0
 40
1.0
176
     0
 90
        2
176
     0
  1
strokes_ogs.tif
176
     0
290
     0
176
     1
 40
1.0
176
     0
 40
1.0
176
     0
  0
VISUALSTYLE
  5
1E2
102
{ACAD_REACTORS
330
1D8
102
}
330
1D8
100
AcDbVisualStyle
  2
Realistic
 70
     8
177
     3
291
     0
 70
    58
 90
        2
176
     1
 90
        3
176
     1
 90
        0
176
     1
 90
        2
176
     1
 40
0.6
176
     1
 40
30.0
176
     1
 62
     7
420
 16777215
176
     1
 90
        0
176
     1
 90
        0
176
     1
 62
     7
176
     1
 62
   257
176
     1
 90
        1
176
     1
 90
        1
176
     1
 40
1.0
176
     1
 90
        8
176
     1
 62
   257
176
     1
 40
1.0
176
     1
 90
        1
176
     1
 90
        6
176
     1
 90
        2
176
     1
 62
     7
176
     1
 90
        3
176
     1
 90
        0
176
     1
 90
        0
176
     1
290
     0
176
     1
 90
       13
176
     1
 40
0.0
176
     1
 90
        0
176
     1
290
     0
176
     1
290
     1
176
     1
290
     1
176
     1
290
     0
176
     1
290
     0
176
     1
290
     0
176
     1
290
     0
176
     1
290
     0
176
     1
290
     0
176
     1
 90
       50
176
     1
 40
0.0
176
     1
 40
1.0
176
     1
 90
        0
176
     1
 62
    18
420
        0
176
     1
 90
       50
176
     1
 90
        3
176
     1
 62
     5
420
      255
176
     1
290
     0
176
     1
 90
       50
176
     1
 90
       50
176
     1
 90
       50
176
     1
290
     0
176
     1
 90
       50
176
     1
 62
   256
176
     0
 40
1.0
176
     0
 90
        2
176
     1
  1
strokes_ogs.tif
176
     1
290
     0
176
     1
 40
1.0
176
     1
 40
1.0
176
     1
  0
VISUALSTYLE
  5
1ED
102
{ACAD_REACTORS
330
1D8
102
}
330
1D8
100
AcDbVisualStyle
  2
Shaded
 70
    27
177
     3
291
     0
 70
    58
 90
        2
176
     1
 90
        2
176
     1
 90
        1
176
     1
 90
        2
176
     1
 40
0.6
176
     1
 40
30.0
176
     1
 62
     7
420
 16777215
176
     1
 90
        0
176
     1
 90
        4
176
     1
 62
     7
176
     1
 62
   257
176
     1
 90
        1
176
     1
 90
        1
176
     1
 40
1.0
176
     1
 90
        8
176
     1
 62
   257
176
     1
 40
1.0
176
     1
 90
        1
176
     1
 90
        6
176
     1
 90
        2
176
     1
 62
     8
420
  7895160
176
     1
 90
        3
176
     1
 90
        0
176
     1
 90
        0
176
     1
290
     0
176
     1
 90
        5
176
     1
 40
0.0
176
     1
 90
        0
176
     1
290
     0
176
     1
290
     1
176
     1
290
     1
176
     1
290
     0
176
     1
290
     0
176
     1
290
     0
176
     1
290
     0
176
     1
290
     0
176
     1
290
     0
176
     1
 90
       50
176
     1
 40
0.0
176
     1
 40
1.0
176
     1
 90
        0
176
     1
 62
    18
420
        0
176
     1
 90
       50
176
     1
 90
        3
176
     1
 62
     5
420
      255
176
     1
290
     0
176
     1
 90
       50
176
     1
 90
       50
176
     1
 90
       50
176
     1
290
     0
176
     1
 90
       50
176
     1
 62
   256
176
     0
 40
1.0
176
     0
 90
        2
176
     1
  1
strokes_ogs.tif
176
     1
290
     0
176
     1
 40
1.0
176
     1
 40
1.0
176
     1
  0
VISUALSTYLE
  5
1EC
102
{ACAD_REACTORS
330
1D8
102
}
330
1D8
100
AcDbVisualStyle
  2
Shaded with edges
 70
    26
177
     3
291
     0
 70
    58
 90
        2
176
     1
 90
        2
176
     1
 90
        1
176
     1
 90
        2
176
     1
 40
0.6
176
     1
 40
30.0
176
     1
 62
     7
420
 16777215
176
     1
 90
        1
176
     1
 90
        2
176
     1
 62
     7
176
     1
 62
   257
176
     1
 90
        2
176
     1
 90
        1
176
     1
 40
1.0
176
     1
 90
        8
176
     1
 62
   257
176
     1
 40
1.0
176
     1
 90
        1
176
     1
 90
        6
176
     1
 90
        2
176
     1
 62
     7
176
     1
 90
        3
176
     1
 90
        0
176
     1
 90
        0
176
     1
290
     0
176
     1
 90
        5
176
     1
 40
0.0
176
     1
 90
        0
176
     1
290
     0
176
     1
290
     1
176
     1
290
     1
176
     1
290
     0
176
     1
290
     0
176
     1
290
     0
176
     1
290
     0
176
     1
290
     0
176
     1
290
     0
176
     1
 90
       50
176
     1
 40
0.0
176
     1
 40
1.0
176
     1
 90
        0
176
     1
 62
    18
420
        0
176
     1
 90
       50
176
     1
 90
        3
176
     1
 62
     5
420
      255
176
     1
290
     0
176
     1
 90
       50
176
     1
 90
       50
176
     1
 90
       50
176
     1
290
     0
176
     1
 90
       50
176
     1
 62
   256
176
     0
 40
1.0
176
     0
 90
        2
176
     1
  1
strokes_ogs.tif
176
     1
290
     0
176
     1
 40
1.0
176
     1
 40
1.0
176
     1
  0
VISUALSTYLE
  5
1E9
102
{ACAD_REACTORS
330
1D8
102
}
330
1D8
100
AcDbVisualStyle
  2
Shades of Gray
 70
    23
177
     3
291
     0
 70
    58
 90
        2
176
     1
 90
        2
176
     1
 90
        3
176
     1
 90
        0
176
     1
 40
0.6
176
     1
 40
30.0
176
     1
 62
     7
420
 16777215
176
     1
 90
        2
176
     1
 90
        2
176
     1
 62
     7
176
     1
 62
     7
176
     1
 90
        1
176
     1
 90
        1
176
     1
 40
40.0
176
     1
 90
        8
176
     1
 62
     7
176
     1
 40
1.0
176
     1
 90
        1
176
     1
 90
        6
176
     1
 90
        2
176
     1
 62
     7
176
     1
 90
        3
176
     1
 90
        0
176
     1
 90
        0
176
     1
290
     0
176
     1
 90
        1
176
     1
 40
0.0
176
     1
 90
        0
176
     1
290
     0
176
     1
290
     1
176
     1
290
     1
176
     1
290
     0
176
     1
290
     0
176
     1
290
     0
176
     1
290
     0
176
     1
290
     0
176
     1
290
     0
176
     1
 90
       50
176
     1
 40
0.0
176
     1
 40
1.0
176
     1
 90
        0
176
     1
 62
    18
420
        0
176
     1
 90
       50
176
     1
 90
        3
176
     1
 62
     5
420
      255
176
     1
290
     0
176
     1
 90
       50
176
     1
 90
       50
176
     1
 90
       50
176
     1
290
     0
176
     1
 90
       50
176
     1
 62
   256
176
     0
 40
1.0
176
     0
 90
        2
176
     1
  1
strokes_ogs.tif
176
     1
290
     0
176
     1
 40
1.0
176
     1
 40
1.0
176
     1
  0
VISUALSTYLE
  5
1EA
102
{ACAD_REACTORS
330
1D8
102
}
330
1D8
100
AcDbVisualStyle
  2
Sketchy
 70
    24
177
     3
291
     0
 70
    58
 90
        1
176
     1
 90
        2
176
     1
 90
        2
176
     1
 90
        0
176
     1
 40
0.6
176
     1
 40
30.0
176
     1
 62
     7
420
 16777215
176
     1
 90
        2
176
     1
 90
        2
176
     1
 62
     7
176
     1
 62
     7
176
     1
 90
        1
176
     1
 90
        1
176
     1
 40
40.0
176
     1
 90
       11
176
     1
 62
     7
176
     1
 40
1.0
176
     1
 90
        1
176
     1
 90
        6
176
     1
 90
        2
176
     1
 62
     7
176
     1
 90
        6
176
     1
 90
        0
176
     1
 90
        0
176
     1
290
     0
176
     1
 90
        1
176
     1
 40
0.0
176
     1
 90
        0
176
     1
290
     0
176
     1
290
     1
176
     1
290
     1
176
     1
290
     0
176
     1
290
     0
176
     1
290
     0
176
     1
290
     0
176
     1
290
     0
176
     1
290
     0
176
     1
 90
       50
176
     1
 40
0.0
176
     1
 40
1.0
176
     1
 90
        0
176
     1
 62
    18
420
        0
176
     1
 90
       50
176
     1
 90
        3
176
     1
 62
     5
420
      255
176
     1
290
     0
176
     1
 90
       50
176
     1
 90
       50
176
     1
 90
       50
176
     1
290
     0
176
     1
 90
       50
176
     1
 62
   256
176
     0
 40
1.0
176
     0
 90
        2
176
     1
  1
strokes_ogs.tif
176
     1
290
     0
176
     1
 40
1.0
176
     1
 40
1.0
176
     1
  0
VISUALSTYLE
  5
1E5
102
{ACAD_REACTORS
330
1D8
102
}
330
1D8
100
AcDbVisualStyle
  2
Thicken
 70
    13
177
     3
291
     1
 70
    58
 90
        2
176
     1
 90
        2
176
     1
 90
        0
176
     1
 90
        0
176
     1
 40
0.6
176
     1
 40
30.0
176
     1
 62
     7
420
 16777215
176
     1
 90
        1
176
     1
 90
        4
176
     1
 62
     7
176
     1
 62
   257
176
     1
 90
        1
176
     1
 90
        1
176
     1
 40
1.0
176
     1
 90
       12
176
     1
 62
     7
176
     1
 40
1.0
176
     1
 90
        1
176
     1
 90
        6
176
     1
 90
        2
176
     1
 62
     7
176
     1
 90
        5
176
     1
 90
        0
176
     1
 90
        0
176
     1
290
     0
176
     1
 90
        1
176
     1
 40
0.0
176
     1
 90
        0
176
     1
290
     0
176
     1
290
     1
176
     1
290
     1
176
     1
290
     0
176
     1
290
     0
176
     1
290
     0
176
     1
290
     0
176
     1
290
     0
176
     1
290
     0
176
     1
 90
       50
176
     1
 40
0.0
176
     1
 40
1.0
176
     1
 90
        0
176
     1
 62
    18
420
        0
176
     1
 90
       50
176
     1
 90
        3
176
     1
 62
     5
420
      255
176
     1
290
     0
176
     1
 90
       50
176
     1
 90
       50
176
     1
 90
       50
176
     1
290
     0
176
     1
 90
       50
176
     1
 62
   256
176
     0
 40
1.0
176
     0
 90
        2
176
     1
  1
strokes_ogs.tif
176
     1
290
     0
176
     1
 40
1.0
176
     1
 40
1.0
176
     1
  0
VISUALSTYLE
  5
1DF
102
{ACAD_REACTORS
330
1D8
102
}
330
1D8
100
AcDbVisualStyle
  2
Wireframe
 70
     5
177
     3
291
     0
 70
    58
 90
        0
176
     1
 90
        2
176
     1
 90
        0
176
     1
 90
        0
176
     1
 40
0.6
176
     1
 40
30.0
176
     1
 62
     7
420
 16777215
176
     1
 90
        1
176
     1
 90
        4
176
     1
 62
     7
176
     1
 62
   257
176
     1
 90
        1
176
     1
 90
        1
176
     1
 40
1.0
176
     1
 90
        0
176
     1
 62
   257
176
     1
 40
1.0
176
     1
 90
        1
176
     1
 90
        6
176
     1
 90
        2
176
     1
 62
     7
176
     1
 90
        3
176
     1
 90
        0
176
     1
 90
        0
176
     1
290
     0
176
     1
 90
        1
176
     1
 40
0.0
176
     1
 90
        0
176
     1
290
     0
176
     1
290
     1
176
     1
290
     1
176
     1
290
     0
176
     1
290
     0
176
     1
290
     0
176
     1
290
     0
176
     1
290
     0
176
     1
290
     0
176
     1
 90
       50
176
     1
 40
0.0
176
     1
 40
1.0
176
     1
 90
        0
176
     1
 62
    18
420
        0
176
     1
 90
       50
176
     1
 90
        3
176
     1
 62
     5
420
      255
176
     1
290
     0
176
     1
 90
       50
176
     1
 90
       50
176
     1
 90
       50
176
     1
290
     0
176
     1
 90
       50
176
     1
 62
   256
176
     0
 40
1.0
176
     0
 90
        2
176
     1
  1
strokes_ogs.tif
176
     1
290
     0
176
     1
 40
1.0
176
     1
 40
1.0
176
     1
  0
VISUALSTYLE
  5
1EB
102
{ACAD_REACTORS
330
1D8
102
}
330
1D8
100
AcDbVisualStyle
  2
X-Ray
 70
    25
177
     3
291
     0
 70
    58
 90
        2
176
     1
 90
        2
176
     1
 90
        1
176
     1
 90
        1
176
     1
 40
0.5
176
     1
 40
30.0
176
     1
 62
     7
420
 16777215
176
     1
 90
        1
176
     1
 90
        0
176
     1
 62
     7
176
     1
 62
   257
176
     1
 90
        1
176
     1
 90
        1
176
     1
 40
1.0
176
     1
 90
        8
176
     1
 62
     7
176
     1
 40
1.0
176
     1
 90
        1
176
     1
 90
        6
176
     1
 90
        2
176
     1
 62
     7
176
     1
 90
        3
176
     1
 90
        0
176
     1
 90
        0
176
     1
290
     0
176
     1
 90
       13
176
     1
 40
0.0
176
     1
 90
        0
176
     1
290
     0
176
     1
290
     1
176
     1
290
     1
176
     1
290
     0
176
     1
290
     0
176
     1
290
     0
176
     1
290
     0
176
     1
290
     0
176
     1
290
     0
176
     1
 90
       50
176
     1
 40
0.0
176
     1
 40
1.0
176
     1
 90
        0
176
     1
 62
    18
420
        0
176
     1
 90
       50
176
     1
 90
        3
176
     1
 62
     5
420
      255
176
     1
290
     0
176
     1
 90
       50
176
     1
 90
       50
176
     1
 90
       50
176
     1
290
     0
176
     1
 90
       50
176
     1
 62
   256
176
     0
 40
1.0
176
     0
 90
        2
176
     1
  1
strokes_ogs.tif
176
     1
290
     0
176
     1
 40
1.0
176
     1
 40
1.0
176
     1
  0
DICTIONARYVAR
  5
2C0
102
{ACAD_REACTORS
330
2BA
102
}
330
2BA
100
DictionaryVariables
280
     0
  1
1:1
  0
DICTIONARYVAR
  5
2BC
102
{ACAD_REACTORS
330
2BA
102
}
330
2BA
100
DictionaryVariables
280
     0
  1
STANDARD
  0
DICTIONARYVAR
  5
2BB
102
{ACAD_REACTORS
330
2BA
102
}
330
2BA
100
DictionaryVariables
280
     0
  1
STANDARD
  0
DICTIONARYVAR
  5
2BD
102
{ACAD_REACTORS
330
2BA
102
}
330
2BA
100
DictionaryVariables
280
     0
  1
Metric50
  0
DICTIONARYVAR
  5
2BE
102
{ACAD_REACTORS
330
2BA
102
}
330
2BA
100
DictionaryVariables
280
     0
  1
Metric50
  0
DICTIONARYVAR
  5
2C2
102
{ACAD_REACTORS
330
2BA
102
}
330
2BA
100
DictionaryVariables
280
     0
  1
1
  0
DICTIONARYVAR
  5
2C3
102
{ACAD_REACTORS
330
2BA
102
}
330
2BA
100
DictionaryVariables
280
     0
  1
15
  0
DICTIONARYVAR
  5
2C1
102
{ACAD_REACTORS
330
2BA
102
}
330
2BA
100
DictionaryVariables
280
     0
  1
0
  0
DICTIONARYVAR
  5
2BF
102
{ACAD_REACTORS
330
2BA
102
}
330
2BA
100
DictionaryVariables
280
     0
  1
0
  0
DICTIONARY
  5
270
102
{ACAD_REACTORS
330
26F
102
}
330
26F
100
AcDbDictionary
281
     1
  3
*A1
350
271
  0
DICTIONARY
  5
28C
102
{ACAD_REACTORS
330
28B
102
}
330
28B
100
AcDbDictionary
281
     1
  3
*A1
350
28D
  0
DICTIONARY
  5
27E
102
{ACAD_REACTORS
330
27D
102
}
330
27D
100
AcDbDictionary
281
     1
  3
*A1
350
27F
  0
DICTIONARY
  5
238
102
{ACAD_REACTORS
330
237
102
}
330
237
100
AcDbDictionary
281
     1
  3
*A1
350
239
  0
DICTIONARY
  5
262
102
{ACAD_REACTORS
330
261
102
}
330
261
100
AcDbDictionary
281
     1
  3
*A1
350
263
  0
DICTIONARY
  5
246
102
{ACAD_REACTORS
330
245
102
}
330
245
100
AcDbDictionary
281
     1
  3
*A1
350
247
  0
DICTIONARY
  5
254
102
{ACAD_REACTORS
330
253
102
}
330
253
100
AcDbDictionary
281
     1
  3
*A1
350
255
  0
DICTIONARY
  5
2A8
102
{ACAD_REACTORS
330
2A7
102
}
330
2A7
100
AcDbDictionary
281
     1
  3
*A1
350
2A9
  0
DICTIONARY
  5
29A
102
{ACAD_REACTORS
330
299
102
}
330
299
100
AcDbDictionary
281
     1
  3
*A1
350
29B
  0
DICTIONARY
  5
1C9
330
1C8
100
AcDbDictionary
280
     1
281
     1
  3
BUMPTILE
360
1CB
  3
DIFFUSETILE
360
1CA
  3
OPACITYTILE
360
1CE
  3
REFLECTIONTILE
360
1CD
  3
REFRACTIONTILE
360
1CF
  3
SPECULARTILE
360
1CC
  0
DICTIONARY
  5
1C1
330
1C0
100
AcDbDictionary
280
     1
281
     1
  3
BUMPTILE
360
1C3
  3
DIFFUSETILE
360
1C2
  3
OPACITYTILE
360
1C6
  3
REFLECTIONTILE
360
1C5
  3
REFRACTIONTILE
360
1C7
  3
SPECULARTILE
360
1C4
  0
DICTIONARY
  5
1D1
330
1D0
100
AcDbDictionary
280
     1
281
     1
  3
BUMPTILE
360
1D3
  3
DIFFUSETILE
360
1D2
  3
OPACITYTILE
360
1D6
  3
REFLECTIONTILE
360
1D5
  3
REFRACTIONTILE
360
1D7
  3
SPECULARTILE
360
1D4
  0
DICTIONARY
  5
2C4
330
1F3
100
AcDbDictionary
280
     1
281
     1
  3
ACAD_ROUNDTRIP_2008_TABLESTYLE_CELLSTYLEMAP
360
2C5
  0
ACDB_ALDIMOBJECTCONTEXTDATA_CLASS
  5
271
102
{ACAD_REACTORS
330
270
102
}
330
270
100
AcDbObjectContextData
 70
     4
290
     1
100
AcDbAnnotScaleObjectContextData
340
48
100
AcDbDimensionObjectContextData
  2
*D18
293
     0
 10
-33.1518534612
 20
-206.3564743491
294
     0
140
0.0
298
     0
291
     0
 70
     0
292
     0
 71
     0
280
     0
295
     0
296
     0
297
     0
100
AcDbAlignedDimensionObjectContextData
 11
41.66896214879998
 21
-206.3564743491
 31
0.0
  0
ACDB_ALDIMOBJECTCONTEXTDATA_CLASS
  5
28D
102
{ACAD_REACTORS
330
28C
102
}
330
28C
100
AcDbObjectContextData
 70
     4
290
     1
100
AcDbAnnotScaleObjectContextData
340
48
100
AcDbDimensionObjectContextData
  2
*D20
293
     0
 10
-150.8309589339
 20
-51.0665573198
294
     0
140
0.0
298
     0
291
     0
 70
     0
292
     0
 71
     0
280
     0
295
     0
296
     0
297
     0
100
AcDbAlignedDimensionObjectContextData
 11
-150.8309589339
 21
-172.3564743491
 31
0.0
  0
ACDB_ALDIMOBJECTCONTEXTDATA_CLASS
  5
27F
102
{ACAD_REACTORS
330
27E
102
}
330
27E
100
AcDbObjectContextData
 70
     4
290
     1
100
AcDbAnnotScaleObjectContextData
340
48
100
AcDbDimensionObjectContextData
  2
*D19
293
     0
 10
83.34660571950001
 20
-99.1345183021
294
     0
140
0.0
298
     0
291
     0
 70
     0
292
     0
 71
     0
280
     0
295
     0
296
     0
297
     0
100
AcDbAlignedDimensionObjectContextData
 11
83.34660571950001
 21
-22.35647400840001
 31
0.0
  0
ACDB_ALDIMOBJECTCONTEXTDATA_CLASS
  5
239
102
{ACAD_REACTORS
330
238
102
}
330
238
100
AcDbObjectContextData
 70
     4
290
     1
100
AcDbAnnotScaleObjectContextData
340
48
100
AcDbDimensionObjectContextData
  2
*D14
293
     0
 10
171.4651793052
 20
99.8435233258
294
     0
140
0.0
298
     0
291
     0
 70
     0
292
     0
 71
     0
280
     0
295
     0
296
     0
297
     0
100
AcDbAlignedDimensionObjectContextData
 11
191.3498245044
 21
99.8435233258
 31
0.0
  0
ACDB_ALDIMOBJECTCONTEXTDATA_CLASS
  5
263
102
{ACAD_REACTORS
330
262
102
}
330
262
100
AcDbObjectContextData
 70
     4
290
     1
100
AcDbAnnotScaleObjectContextData
340
48
100
AcDbDimensionObjectContextData
  2
*D17
293
     0
 10
198.2410571273
 20
-200.3564743491
294
     0
140
0.0
298
     0
291
     0
 70
     0
292
     0
 71
     0
280
     0
295
     0
296
     0
297
     0
100
AcDbAlignedDimensionObjectContextData
 11
178.5187505661
 21
-200.3564743491
 31
0.0
  0
ACDB_ALDIMOBJECTCONTEXTDATA_CLASS
  5
247
102
{ACAD_REACTORS
330
246
102
}
330
246
100
AcDbObjectContextData
 70
     4
290
     1
100
AcDbAnnotScaleObjectContextData
340
48
100
AcDbDimensionObjectContextData
  2
*D15
293
     0
 10
288.5219440425
 20
-94.92376402339999
294
     0
140
0.0
298
     0
291
     0
 70
     0
292
     0
 71
     0
280
     0
295
     0
296
     0
297
     0
100
AcDbAlignedDimensionObjectContextData
 11
288.5012166409076
 21
-125.2551840589763
 31
0.0
  0
ACDB_ALDIMOBJECTCONTEXTDATA_CLASS
  5
255
102
{ACAD_REACTORS
330
254
102
}
330
254
100
AcDbObjectContextData
 70
     4
290
     1
100
AcDbAnnotScaleObjectContextData
340
48
100
AcDbDimensionObjectContextData
  2
*D16
293
     0
 10
148.0187505661
 20
-128.8276665433
294
     0
140
0.0
298
     0
291
     0
 70
     0
292
     0
 71
     0
280
     0
295
     0
296
     0
297
     0
100
AcDbAlignedDimensionObjectContextData
 11
148.0187505661
 21
-172.3564743491
 31
0.0
  0
ACDB_ALDIMOBJECTCONTEXTDATA_CLASS
  5
2A9
102
{ACAD_REACTORS
330
2A8
102
}
330
2A8
100
AcDbObjectContextData
 70
     4
290
     1
100
AcDbAnnotScaleObjectContextData
340
48
100
AcDbDimensionObjectContextData
  2
*D22
293
     0
 10
-150.8308431838
 20
227.3439222604
294
     0
140
0.0
298
     0
291
     0
 70
     0
292
     0
 71
     0
280
     0
295
     0
296
     0
297
     0
100
AcDbAlignedDimensionObjectContextData
 11
-151.0499841893568
 21
180.2692203739331
 31
0.0
  0
ACDB_ALDIMOBJECTCONTEXTDATA_CLASS
  5
29B
102
{ACAD_REACTORS
330
29A
102
}
330
29A
100
AcDbObjectContextData
 70
     4
290
     1
100
AcDbAnnotScaleObjectContextData
340
48
100
AcDbDimensionObjectContextData
  2
*D21
293
     0
 10
-89.0852139497
 20
302.2530800248
294
     0
140
0.0
298
     0
291
     0
 70
     0
292
     0
 71
     0
280
     0
295
     0
296
     0
297
     0
100
AcDbAlignedDimensionObjectContextData
 11
-70.3676140963
 21
302.2530800248
 31
0.0
  0
XRECORD
  5
1CB
102
{ACAD_REACTORS
330
1C9
102
}
330
1C9
100
AcDbXrecord
280
     1
270
     1
271
     1
  0
XRECORD
  5
1CA
102
{ACAD_REACTORS
330
1C9
102
}
330
1C9
100
AcDbXrecord
280
     1
270
     1
271
     1
  0
XRECORD
  5
1CE
102
{ACAD_REACTORS
330
1C9
102
}
330
1C9
100
AcDbXrecord
280
     1
270
     1
271
     1
  0
XRECORD
  5
1CD
102
{ACAD_REACTORS
330
1C9
102
}
330
1C9
100
AcDbXrecord
280
     1
270
     1
271
     1
  0
XRECORD
  5
1CF
102
{ACAD_REACTORS
330
1C9
102
}
330
1C9
100
AcDbXrecord
280
     1
270
     1
271
     1
  0
XRECORD
  5
1CC
102
{ACAD_REACTORS
330
1C9
102
}
330
1C9
100
AcDbXrecord
280
     1
270
     1
271
     1
  0
XRECORD
  5
1C3
102
{ACAD_REACTORS
330
1C1
102
}
330
1C1
100
AcDbXrecord
280
     1
270
     1
271
     1
  0
XRECORD
  5
1C2
102
{ACAD_REACTORS
330
1C1
102
}
330
1C1
100
AcDbXrecord
280
     1
270
     1
271
     1
  0
XRECORD
  5
1C6
102
{ACAD_REACTORS
330
1C1
102
}
330
1C1
100
AcDbXrecord
280
     1
270
     1
271
     1
  0
XRECORD
  5
1C5
102
{ACAD_REACTORS
330
1C1
102
}
330
1C1
100
AcDbXrecord
280
     1
270
     1
271
     1
  0
XRECORD
  5
1C7
102
{ACAD_REACTORS
330
1C1
102
}
330
1C1
100
AcDbXrecord
280
     1
270
     1
271
     1
  0
XRECORD
  5
1C4
102
{ACAD_REACTORS
330
1C1
102
}
330
1C1
100
AcDbXrecord
280
     1
270
     1
271
     1
  0
XRECORD
  5
1D3
102
{ACAD_REACTORS
330
1D1
102
}
330
1D1
100
AcDbXrecord
280
     1
270
     1
271
     1
  0
XRECORD
  5
1D2
102
{ACAD_REACTORS
330
1D1
102
}
330
1D1
100
AcDbXrecord
280
     1
270
     1
271
     1
  0
XRECORD
  5
1D6
102
{ACAD_REACTORS
330
1D1
102
}
330
1D1
100
AcDbXrecord
280
     1
270
     1
271
     1
  0
XRECORD
  5
1D5
102
{ACAD_REACTORS
330
1D1
102
}
330
1D1
100
AcDbXrecord
280
     1
270
     1
271
     1
  0
XRECORD
  5
1D7
102
{ACAD_REACTORS
330
1D1
102
}
330
1D1
100
AcDbXrecord
280
     1
270
     1
271
     1
  0
XRECORD
  5
1D4
102
{ACAD_REACTORS
330
1D1
102
}
330
1D1
100
AcDbXrecord
280
     1
270
     1
271
     1
  0
CELLSTYLEMAP
  5
2C5
102
{ACAD_REACTORS
330
2C4
102
}
330
2C4
100
AcDbCellStyleMap
 90
        3
300
CELLSTYLE
  1
TABLEFORMAT_BEGIN
 90
        5
170
     1
 91
        0
 92
    32768
 62
   257
 93
        1
300
CONTENTFORMAT
  1
CONTENTFORMAT_BEGIN
 90
        0
 91
        0
 92
      512
 93
        0
300

 40
0.0
140
1.0
 94
        5
 62
     0
340
11
144
6.0
309
CONTENTFORMAT_END
171
     1
301
MARGIN
  1
CELLMARGIN_BEGIN
 40
1.5
 40
1.5
 40
1.5
 40
1.5
 40
4.5
 40
4.5
309
CELLMARGIN_END
 94
        6
 95
        1
302
GRIDFORMAT
  1
GRIDFORMAT_BEGIN
 90
        0
 91
        1
 62
     0
 92
       -2
340
0
 93
        0
 40
1.125
309
GRIDFORMAT_END
 95
        2
302
GRIDFORMAT
  1
GRIDFORMAT_BEGIN
 90
        0
 91
        1
 62
     0
 92
       -2
340
0
 93
        0
 40
1.125
309
GRIDFORMAT_END
 95
        4
302
GRIDFORMAT
  1
GRIDFORMAT_BEGIN
 90
        0
 91
        1
 62
     0
 92
       -2
340
0
 93
        0
 40
1.125
309
GRIDFORMAT_END
 95
        8
302
GRIDFORMAT
  1
GRIDFORMAT_BEGIN
 90
        0
 91
        1
 62
     0
 92
       -2
340
0
 93
        0
 40
1.125
309
GRIDFORMAT_END
 95
       16
302
GRIDFORMAT
  1
GRIDFORMAT_BEGIN
 90
        0
 91
        1
 62
     0
 92
       -2
340
0
 93
        0
 40
1.125
309
GRIDFORMAT_END
 95
       32
302
GRIDFORMAT
  1
GRIDFORMAT_BEGIN
 90
        0
 91
        1
 62
     0
 92
       -2
340
0
 93
        0
 40
1.125
309
GRIDFORMAT_END
309
TABLEFORMAT_END
  1
CELLSTYLE_BEGIN
 90
        1
 91
        1
300
_TITLE
309
CELLSTYLE_END
300
CELLSTYLE
  1
TABLEFORMAT_BEGIN
 90
        5
170
     1
 91
        0
 92
        0
 62
   257
 93
        1
300
CONTENTFORMAT
  1
CONTENTFORMAT_BEGIN
 90
        0
 91
        0
 92
      512
 93
        0
300

 40
0.0
140
1.0
 94
        5
 62
     0
340
11
144
4.5
309
CONTENTFORMAT_END
171
     1
301
MARGIN
  1
CELLMARGIN_BEGIN
 40
1.5
 40
1.5
 40
1.5
 40
1.5
 40
4.5
 40
4.5
309
CELLMARGIN_END
 94
        6
 95
        1
302
GRIDFORMAT
  1
GRIDFORMAT_BEGIN
 90
        0
 91
        1
 62
     0
 92
       -2
340
0
 93
        0
 40
1.125
309
GRIDFORMAT_END
 95
        2
302
GRIDFORMAT
  1
GRIDFORMAT_BEGIN
 90
        0
 91
        1
 62
     0
 92
       -2
340
0
 93
        0
 40
1.125
309
GRIDFORMAT_END
 95
        4
302
GRIDFORMAT
  1
GRIDFORMAT_BEGIN
 90
        0
 91
        1
 62
     0
 92
       -2
340
0
 93
        0
 40
1.125
309
GRIDFORMAT_END
 95
        8
302
GRIDFORMAT
  1
GRIDFORMAT_BEGIN
 90
        0
 91
        1
 62
     0
 92
       -2
340
0
 93
        0
 40
1.125
309
GRIDFORMAT_END
 95
       16
302
GRIDFORMAT
  1
GRIDFORMAT_BEGIN
 90
        0
 91
        1
 62
     0
 92
       -2
340
0
 93
        0
 40
1.125
309
GRIDFORMAT_END
 95
       32
302
GRIDFORMAT
  1
GRIDFORMAT_BEGIN
 90
        0
 91
        1
 62
     0
 92
       -2
340
0
 93
        0
 40
1.125
309
GRIDFORMAT_END
309
TABLEFORMAT_END
  1
CELLSTYLE_BEGIN
 90
        2
 91
        1
300
_HEADER
309
CELLSTYLE_END
300
CELLSTYLE
  1
TABLEFORMAT_BEGIN
 90
        5
170
     1
 91
        0
 92
        0
 62
   257
 93
        1
300
CONTENTFORMAT
  1
CONTENTFORMAT_BEGIN
 90
        0
 91
        0
 92
      512
 93
        0
300

 40
0.0
140
1.0
 94
        2
 62
     0
340
11
144
4.5
309
CONTENTFORMAT_END
171
     1
301
MARGIN
  1
CELLMARGIN_BEGIN
 40
1.5
 40
1.5
 40
1.5
 40
1.5
 40
4.5
 40
4.5
309
CELLMARGIN_END
 94
        6
 95
        1
302
GRIDFORMAT
  1
GRIDFORMAT_BEGIN
 90
        0
 91
        1
 62
     0
 92
       -2
340
0
 93
        0
 40
1.125
309
GRIDFORMAT_END
 95
        2
302
GRIDFORMAT
  1
GRIDFORMAT_BEGIN
 90
        0
 91
        1
 62
     0
 92
       -2
340
0
 93
        0
 40
1.125
309
GRIDFORMAT_END
 95
        4
302
GRIDFORMAT
  1
GRIDFORMAT_BEGIN
 90
        0
 91
        1
 62
     0
 92
       -2
340
0
 93
        0
 40
1.125
309
GRIDFORMAT_END
 95
        8
302
GRIDFORMAT
  1
GRIDFORMAT_BEGIN
 90
        0
 91
        1
 62
     0
 92
       -2
340
0
 93
        0
 40
1.125
309
GRIDFORMAT_END
 95
       16
302
GRIDFORMAT
  1
GRIDFORMAT_BEGIN
 90
        0
 91
        1
 62
     0
 92
       -2
340
0
 93
        0
 40
1.125
309
GRIDFORMAT_END
 95
       32
302
GRIDFORMAT
  1
GRIDFORMAT_BEGIN
 90
        0
 91
        1
 62
     0
 92
       -2
340
0
 93
        0
 40
1.125
309
GRIDFORMAT_END
309
TABLEFORMAT_END
  1
CELLSTYLE_BEGIN
 90
        3
 91
        2
300
_DATA
309
CELLSTYLE_END
  0
ENDSEC
  0
EOF
